  0
SECTION
  2
HEADER
  9
$ACADVER
  1
AC1015
  9
$ACADMAINTVER
 70
     6
  9
$DWGCODEPAGE
  3
ANSI_932
  9
$INSBASE
 10
0.0
 20
0.0
 30
0.0
  9
$EXTMIN
 10
0.0
 20
-0.00000000000002
 30
0.0
  9
$EXTMAX
 10
419.9999999999998
 20
594.0
 30
0.0
  9
$LIMMIN
 10
0.0
 20
0.0
  9
$LIMMAX
 10
12.0
 20
9.0
  9
$ORTHOMODE
 70
     0
  9
$REGENMODE
 70
     1
  9
$FILLMODE
 70
     1
  9
$QTEXTMODE
 70
     0
  9
$MIRRTEXT
 70
     1
  9
$LTSCALE
 40
1.0
  9
$ATTMODE
 70
     1
  9
$TEXTSIZE
 40
0.2
  9
$TRACEWID
 40
0.05
  9
$TEXTSTYLE
  7
Standard
  9
$CLAYER
  8
0
  9
$CELTYPE
  6
ByLayer
  9
$CECOLOR
 62
   256
  9
$CELTSCALE
 40
1.0
  9
$DISPSILH
 70
     0
  9
$DIMSCALE
 40
1.0
  9
$DIMASZ
 40
0.18
  9
$DIMEXO
 40
0.0625
  9
$DIMDLI
 40
0.38
  9
$DIMRND
 40
0.0
  9
$DIMDLE
 40
0.0
  9
$DIMEXE
 40
0.18
  9
$DIMTP
 40
0.0
  9
$DIMTM
 40
0.0
  9
$DIMTXT
 40
0.18
  9
$DIMCEN
 40
0.09
  9
$DIMTSZ
 40
0.0
  9
$DIMTOL
 70
     0
  9
$DIMLIM
 70
     0
  9
$DIMTIH
 70
     1
  9
$DIMTOH
 70
     1
  9
$DIMSE1
 70
     0
  9
$DIMSE2
 70
     0
  9
$DIMTAD
 70
     0
  9
$DIMZIN
 70
     0
  9
$DIMBLK
  1

  9
$DIMASO
 70
     1
  9
$DIMSHO
 70
     1
  9
$DIMPOST
  1

  9
$DIMAPOST
  1

  9
$DIMALT
 70
     0
  9
$DIMALTD
 70
     2
  9
$DIMALTF
 40
25.4
  9
$DIMLFAC
 40
1.0
  9
$DIMTOFL
 70
     0
  9
$DIMTVP
 40
0.0
  9
$DIMTIX
 70
     0
  9
$DIMSOXD
 70
     0
  9
$DIMSAH
 70
     0
  9
$DIMBLK1
  1

  9
$DIMBLK2
  1

  9
$DIMSTYLE
  2
Standard
  9
$DIMCLRD
 70
     0
  9
$DIMCLRE
 70
     0
  9
$DIMCLRT
 70
     0
  9
$DIMTFAC
 40
1.0
  9
$DIMGAP
 40
0.09
  9
$DIMJUST
 70
     0
  9
$DIMSD1
 70
     0
  9
$DIMSD2
 70
     0
  9
$DIMTOLJ
 70
     1
  9
$DIMTZIN
 70
     0
  9
$DIMALTZ
 70
     0
  9
$DIMALTTZ
 70
     0
  9
$DIMUPT
 70
     0
  9
$DIMDEC
 70
     4
  9
$DIMTDEC
 70
     4
  9
$DIMALTU
 70
     2
  9
$DIMALTTD
 70
     2
  9
$DIMTXSTY
  7
Standard
  9
$DIMAUNIT
 70
     0
  9
$DIMADEC
 70
     0
  9
$DIMALTRND
 40
0.0
  9
$DIMAZIN
 70
     0
  9
$DIMDSEP
 70
    46
  9
$DIMATFIT
 70
     3
  9
$DIMFRAC
 70
     0
  9
$DIMLDRBLK
  1

  9
$DIMLUNIT
 70
     2
  9
$DIMLWD
 70
    -2
  9
$DIMLWE
 70
    -2
  9
$DIMTMOVE
 70
     0
  9
$LUNITS
 70
     2
  9
$LUPREC
 70
     4
  9
$SKETCHINC
 40
0.1
  9
$FILLETRAD
 40
0.5
  9
$AUNITS
 70
     0
  9
$AUPREC
 70
     0
  9
$MENU
  1
.
  9
$ELEVATION
 40
0.0
  9
$PELEVATION
 40
0.0
  9
$THICKNESS
 40
0.0
  9
$LIMCHECK
 70
     0
  9
$CHAMFERA
 40
0.5
  9
$CHAMFERB
 40
0.5
  9
$CHAMFERC
 40
1.0
  9
$CHAMFERD
 40
0.0
  9
$SKPOLY
 70
     0
  9
$TDCREATE
 40
2457185.748965428
  9
$TDUCREATE
 40
2457185.373965428
  9
$TDUPDATE
 40
2457185.74896669
  9
$TDUUPDATE
 40
2457185.37396669
  9
$TDINDWG
 40
0.0000000116
  9
$TDUSRTIMER
 40
0.0000000116
  9
$USRTIMER
 70
     1
  9
$ANGBASE
 50
0.0
  9
$ANGDIR
 70
     0
  9
$PDMODE
 70
     0
  9
$PDSIZE
 40
0.0
  9
$PLINEWID
 40
0.0
  9
$SPLFRAME
 70
     0
  9
$SPLINETYPE
 70
     6
  9
$SPLINESEGS
 70
     8
  9
$HANDSEED
  5
4B7
  9
$SURFTAB1
 70
     6
  9
$SURFTAB2
 70
     6
  9
$SURFTYPE
 70
     6
  9
$SURFU
 70
     6
  9
$SURFV
 70
     6
  9
$UCSBASE
  2

  9
$UCSNAME
  2

  9
$UCSORG
 10
0.0
 20
0.0
 30
0.0
  9
$UCSXDIR
 10
1.0
 20
0.0
 30
0.0
  9
$UCSYDIR
 10
0.0
 20
1.0
 30
0.0
  9
$UCSORTHOREF
  2

  9
$UCSORTHOVIEW
 70
     0
  9
$UCSORGTOP
 10
0.0
 20
0.0
 30
0.0
  9
$UCSORGBOTTOM
 10
0.0
 20
0.0
 30
0.0
  9
$UCSORGLEFT
 10
0.0
 20
0.0
 30
0.0
  9
$UCSORGRIGHT
 10
0.0
 20
0.0
 30
0.0
  9
$UCSORGFRONT
 10
0.0
 20
0.0
 30
0.0
  9
$UCSORGBACK
 10
0.0
 20
0.0
 30
0.0
  9
$PUCSBASE
  2

  9
$PUCSNAME
  2

  9
$PUCSORG
 10
0.0
 20
0.0
 30
0.0
  9
$PUCSXDIR
 10
1.0
 20
0.0
 30
0.0
  9
$PUCSYDIR
 10
0.0
 20
1.0
 30
0.0
  9
$PUCSORTHOREF
  2

  9
$PUCSORTHOVIEW
 70
     0
  9
$PUCSORGTOP
 10
0.0
 20
0.0
 30
0.0
  9
$PUCSORGBOTTOM
 10
0.0
 20
0.0
 30
0.0
  9
$PUCSORGLEFT
 10
0.0
 20
0.0
 30
0.0
  9
$PUCSORGRIGHT
 10
0.0
 20
0.0
 30
0.0
  9
$PUCSORGFRONT
 10
0.0
 20
0.0
 30
0.0
  9
$PUCSORGBACK
 10
0.0
 20
0.0
 30
0.0
  9
$USERI1
 70
     0
  9
$USERI2
 70
     0
  9
$USERI3
 70
     0
  9
$USERI4
 70
     0
  9
$USERI5
 70
     0
  9
$USERR1
 40
18.1
  9
$USERR2
 40
0.0
  9
$USERR3
 40
0.0
  9
$USERR4
 40
0.0
  9
$USERR5
 40
0.0
  9
$WORLDVIEW
 70
     1
  9
$SHADEDGE
 70
     3
  9
$SHADEDIF
 70
    70
  9
$TILEMODE
 70
     1
  9
$MAXACTVP
 70
    64
  9
$PINSBASE
 10
0.0
 20
0.0
 30
0.0
  9
$PLIMCHECK
 70
     0
  9
$PEXTMIN
 10
1.00000000000000E+20
 20
1.00000000000000E+20
 30
1.00000000000000E+20
  9
$PEXTMAX
 10
-1.00000000000000E+20
 20
-1.00000000000000E+20
 30
-1.00000000000000E+20
  9
$PLIMMIN
 10
0.0
 20
0.0
  9
$PLIMMAX
 10
12.0
 20
9.0
  9
$UNITMODE
 70
     0
  9
$VISRETAIN
 70
     1
  9
$PLINEGEN
 70
     0
  9
$PSLTSCALE
 70
     1
  9
$TREEDEPTH
 70
  3020
  9
$CMLSTYLE
  2
Standard
  9
$CMLJUST
 70
     0
  9
$CMLSCALE
 40
1.0
  9
$PROXYGRAPHICS
 70
     1
  9
$MEASUREMENT
 70
     1
  9
$CELWEIGHT
370
    -1
  9
$ENDCAPS
280
     0
  9
$JOINSTYLE
280
     0
  9
$LWDISPLAY
290
     0
  9
$INSUNITS
 70
     4
  9
$HYPERLINKBASE
  1

  9
$STYLESHEET
  1

  9
$XEDIT
290
     1
  9
$CEPSNTYPE
380
     0
  9
$PSTYLEMODE
290
     1
  9
$FINGERPRINTGUID
  2
{10487632-BAA7-4675-97D1-256FA52866E6}
  9
$VERSIONGUID
  2
{FAEB1C32-E019-11D5-929B-00C0DF256EC4}
  9
$EXTNAMES
290
     1
  9
$PSVPSCALE
 40
0.0
  9
$OLESTARTUP
290
     0
  0
ENDSEC
  0
SECTION
  2
CLASSES
  0
CLASS
  1
ACDBDICTIONARYWDFLT
  2
AcDbDictionaryWithDefault
  3
ObjectDBX Classes
 90
        0
280
     0
281
     0
  0
CLASS
  1
VISUALSTYLE
  2
AcDbVisualStyle
  3
ObjectDBX Classes
 90
     4095
280
     0
281
     0
  0
CLASS
  1
MATERIAL
  2
AcDbMaterial
  3
ObjectDBX Classes
 90
     1153
280
     0
281
     0
  0
CLASS
  1
DICTIONARYVAR
  2
AcDbDictionaryVar
  3
ObjectDBX Classes
 90
        0
280
     0
281
     0
  0
CLASS
  1
ACDBPLACEHOLDER
  2
AcDbPlaceHolder
  3
ObjectDBX Classes
 90
        0
280
     0
281
     0
  0
CLASS
  1
LAYOUT
  2
AcDbLayout
  3
ObjectDBX Classes
 90
        0
280
     0
281
     0
  0
ENDSEC
  0
SECTION
  2
TABLES
  0
TABLE
  2
VPORT
  5
8
330
0
100
AcDbSymbolTable
 70
     1
  0
VPORT
  5
29
330
8
100
AcDbSymbolTableRecord
100
AcDbViewportTableRecord
  2
*Active
 70
     0
 10
0.0
 20
0.0
 11
1.0
 21
1.0
 12
209.9999999999999
 22
297.0
 13
0.0
 23
0.0
 14
0.5
 24
0.5
 15
0.5
 25
0.5
 16
0.0
 26
0.0
 36
1.0
 17
0.0
 27
0.0
 37
0.0
 40
653.4000000000001
 41
1.60267857142857
 42
50.0
 43
0.0
 44
0.0
 50
0.0
 51
0.0
 71
     0
 72
   100
 73
     1
 74
     3
 75
     0
 76
     0
 77
     0
 78
     0
281
     0
 65
     1
110
0.0
120
0.0
130
0.0
111
1.0
121
0.0
131
0.0
112
0.0
122
1.0
132
0.0
 79
     0
146
0.0
  0
ENDTAB
  0
TABLE
  2
LTYPE
  5
5
330
0
100
AcDbSymbolTable
 70
     8
  0
LTYPE
  5
14
330
5
100
AcDbSymbolTableRecord
100
AcDbLinetypeTableRecord
  2
ByBlock
 70
     0
  3

 72
    65
 73
     0
 40
0.0
  0
LTYPE
  5
15
330
5
100
AcDbSymbolTableRecord
100
AcDbLinetypeTableRecord
  2
ByLayer
 70
     0
  3

 72
    65
 73
     0
 40
0.0
  0
LTYPE
  5
16
330
5
100
AcDbSymbolTableRecord
100
AcDbLinetypeTableRecord
  2
Continuous
 70
     0
  3
Solid line
 72
    65
 73
     0
 40
0.0
  0
LTYPE
  5
3F
330
5
100
AcDbSymbolTableRecord
100
AcDbLinetypeTableRecord
  2
DASHED
 70
     0
  3
Dashed
 72
    65
 73
     2
 40
15.0
 49
7.0
 74
     0
 49
-8.0
 74
     0
  0
LTYPE
  5
40
330
5
100
AcDbSymbolTableRecord
100
AcDbLinetypeTableRecord
  2
DOTTED
 70
     0
  3
Dotted
 72
    65
 73
     2
 40
1.0
 49
0.0
 74
     0
 49
-1.0
 74
     0
  0
LTYPE
  5
41
330
5
100
AcDbSymbolTableRecord
100
AcDbLinetypeTableRecord
  2
DOT_CENTER
 70
     0
  3
Dot_Center
 72
    65
 73
     4
 40
14.0
 49
12.0
 74
     0
 49
-1.0
 74
     0
 49
0.0
 74
     0
 49
-1.0
 74
     0
  0
LTYPE
  5
42
330
5
100
AcDbSymbolTableRecord
100
AcDbLinetypeTableRecord
  2
LONG_DASHED
 70
     0
  3
Long_Dashed
 72
    65
 73
     2
 40
15.0
 49
10.0
 74
     0
 49
-5.0
 74
     0
  0
LTYPE
  5
43
330
5
100
AcDbSymbolTableRecord
100
AcDbLinetypeTableRecord
  2
DASH_CENTER
 70
     0
  3
Dash_Center
 72
    65
 73
     4
 40
14.0
 49
11.0
 74
     0
 49
-1.0
 74
     0
 49
1.0
 74
     0
 49
-1.0
 74
     0
  0
LTYPE
  5
44
330
5
100
AcDbSymbolTableRecord
100
AcDbLinetypeTableRecord
  2
PHANTOM
 70
     0
  3
Phantom
 72
    65
 73
     6
 40
13.0
 49
10.0
 74
     0
 49
-1.0
 74
     0
 49
0.0
 74
     0
 49
-1.0
 74
     0
 49
0.0
 74
     0
 49
-1.0
 74
     0
  0
LTYPE
  5
45
330
5
100
AcDbSymbolTableRecord
100
AcDbLinetypeTableRecord
  2
CENTER_DASH_DASH
 70
     0
  3
Center_Dash_Dash
 72
    65
 73
     6
 40
14.0
 49
9.0
 74
     0
 49
-1.0
 74
     0
 49
1.0
 74
     0
 49
-1.0
 74
     0
 49
1.0
 74
     0
 49
-1.0
 74
     0
  0
ENDTAB
  0
TABLE
  2
LAYER
  5
2
330
0
100
AcDbSymbolTable
 70
     5
  0
LAYER
  5
10
330
2
100
AcDbSymbolTableRecord
100
AcDbLayerTableRecord
  2
0
 70
     0
 62
     7
  6
Continuous
370
    -3
390
F
  0
LAYER
  5
46
330
2
100
AcDbSymbolTableRecord
100
AcDbLayerTableRecord
  2
1
 70
     0
 62
     7
  6
Continuous
370
    -3
390
F
  0
LAYER
  5
47
330
2
100
AcDbSymbolTableRecord
100
AcDbLayerTableRecord
  2
11
 70
     0
 62
     7
  6
Continuous
370
    -3
390
F
  0
LAYER
  5
48
330
2
100
AcDbSymbolTableRecord
100
AcDbLayerTableRecord
  2
123
 70
     0
 62
     7
  6
Continuous
370
    -3
390
F
  0
LAYER
  5
49
330
2
100
AcDbSymbolTableRecord
100
AcDbLayerTableRecord
  2
LEVER_BODY
 70
     0
 62
     7
  6
Continuous
370
    -3
390
F
  0
ENDTAB
  0
TABLE
  2
STYLE
  5
3
330
0
100
AcDbSymbolTable
 70
     3
  0
STYLE
  5
11
330
3
100
AcDbSymbolTableRecord
100
AcDbTextStyleTableRecord
  2
Standard
 70
     0
 40
0.0
 41
1.0
 50
0.0
 71
     0
 42
0.2
  3
txt
  4

  0
STYLE
  5
35B
330
3
100
AcDbSymbolTableRecord
100
AcDbTextStyleTableRecord
  2
CONVERTER_11
 70
     0
 40
0.0
 41
0.89
 50
0.0
 71
     0
 42
0.2
  3
MS Mincho.ttf
  4

1001
ACAD
1000
MS Mincho
1071
    32785
  0
STYLE
  5
41F
330
3
100
AcDbSymbolTableRecord
100
AcDbTextStyleTableRecord
  2
CONVERTER_12
 70
     0
 40
0.0
 41
0.9
 50
0.0
 71
     0
 42
0.2
  3
txt.shx
  4

  0
ENDTAB
  0
TABLE
  2
VIEW
  5
6
330
0
100
AcDbSymbolTable
 70
     0
  0
ENDTAB
  0
TABLE
  2
UCS
  5
7
330
0
100
AcDbSymbolTable
 70
     0
  0
ENDTAB
  0
TABLE
  2
APPID
  5
9
330
0
100
AcDbSymbolTable
 70
     1
  0
APPID
  5
12
330
9
100
AcDbSymbolTableRecord
100
AcDbRegAppTableRecord
  2
ACAD
 70
     0
  0
ENDTAB
  0
TABLE
  2
DIMSTYLE
  5
A
330
0
100
AcDbSymbolTable
 70
    10
100
AcDbDimStyleTable
  0
DIMSTYLE
105
27
330
A
100
AcDbSymbolTableRecord
100
AcDbDimStyleTableRecord
  2
Standard
 70
     0
178
     0
340
11
  0
DIMSTYLE
105
42F
102
{ACAD_REACTORS
330
430
102
}
330
A
100
AcDbSymbolTableRecord
100
AcDbDimStyleTableRecord
  2
ME10_DIM_10
 70
     0
 41
7.0
 42
0.0
 44
2.0
 73
     0
 74
     0
 77
     1
 78
     8
140
7.0
147
2.0
172
     1
173
     1
174
     1
175
     1
176
     2
177
     2
271
     2
178
     7
271
     2
340
41F
  0
DIMSTYLE
105
43A
102
{ACAD_REACTORS
330
43B
102
}
330
A
100
AcDbSymbolTableRecord
100
AcDbDimStyleTableRecord
  2
ME10_DIM_11
 70
     0
 41
7.0
 42
0.0
 44
2.0
 73
     0
 74
     0
 77
     1
 78
     8
140
7.0
147
2.0
172
     1
173
     1
174
     1
175
     1
176
     2
177
     2
271
     2
178
     7
271
     2
340
41F
  0
DIMSTYLE
105
447
102
{ACAD_REACTORS
330
448
102
}
330
A
100
AcDbSymbolTableRecord
100
AcDbDimStyleTableRecord
  2
ME10_DIM_12
 70
     0
 41
7.0
 42
0.0
 44
2.0
 73
     0
 74
     0
 77
     1
 78
     8
140
7.0
147
2.0
172
     1
173
     1
174
     1
175
     1
176
     2
177
     2
271
     2
178
     7
271
     2
340
41F
  0
DIMSTYLE
105
452
102
{ACAD_REACTORS
330
453
102
}
330
A
100
AcDbSymbolTableRecord
100
AcDbDimStyleTableRecord
  2
ME10_DIM_13
 70
     0
 41
7.0
 42
0.0
 44
2.0
 73
     0
 74
     0
 77
     1
 78
     8
140
7.0
147
2.0
172
     1
173
     1
174
     1
175
     1
176
     2
177
     2
271
     2
178
     7
271
     2
340
41F
  0
DIMSTYLE
105
45D
102
{ACAD_REACTORS
330
45E
102
}
330
A
100
AcDbSymbolTableRecord
100
AcDbDimStyleTableRecord
  2
ME10_DIM_14
 70
     0
 41
7.0
 42
0.0
 44
2.0
 73
     0
 74
     0
 77
     1
 78
     8
140
7.0
147
2.0
172
     1
173
     1
174
     1
175
     1
176
     2
177
     2
271
     2
178
     7
271
     2
340
41F
  0
DIMSTYLE
105
468
102
{ACAD_REACTORS
330
469
102
}
330
A
100
AcDbSymbolTableRecord
100
AcDbDimStyleTableRecord
  2
ME10_DIM_15
 70
     0
 41
7.0
 42
0.0
 44
2.0
 73
     0
 74
     0
 77
     1
 78
     8
140
7.0
147
2.0
172
     1
173
     1
174
     1
175
     1
176
     2
177
     2
271
     2
178
     7
271
     2
340
41F
  0
DIMSTYLE
105
473
102
{ACAD_REACTORS
330
474
102
}
330
A
100
AcDbSymbolTableRecord
100
AcDbDimStyleTableRecord
  2
ME10_DIM_16
 70
     0
 41
7.0
 42
0.0
 44
2.0
 73
     0
 74
     0
 77
     1
 78
     8
140
7.0
147
2.0
172
     1
173
     1
174
     1
175
     1
176
     2
177
     2
271
     2
178
     7
271
     2
340
35B
  0
DIMSTYLE
105
47E
102
{ACAD_REACTORS
330
47F
102
}
330
A
100
AcDbSymbolTableRecord
100
AcDbDimStyleTableRecord
  2
ME10_DIM_17
 70
     0
 41
7.0
 42
0.0
 44
2.0
 73
     0
 74
     0
 77
     1
 78
     8
140
7.0
147
2.0
172
     1
173
     1
174
     1
175
     1
176
     2
177
     2
271
     2
178
     7
271
     2
340
35B
  0
DIMSTYLE
105
48A
102
{ACAD_REACTORS
330
48B
102
}
330
A
100
AcDbSymbolTableRecord
100
AcDbDimStyleTableRecord
  2
ME10_DIM_18
 70
     0
  3
{\Fgdt;n}<>
 41
7.0
 42
0.0
 44
2.0
 73
     0
 74
     0
 77
     1
 78
     8
140
7.0
147
2.0
172
     1
173
     1
174
     1
175
     1
176
     2
177
     2
271
     2
178
     7
271
     2
340
41F
  0
ENDTAB
  0
TABLE
  2
BLOCK_RECORD
  5
1
330
0
100
AcDbSymbolTable
 70
    20
  0
BLOCK_RECORD
  5
1F
330
1
100
AcDbSymbolTableRecord
100
AcDbBlockTableRecord
  2
*Model_Space
340
22
  0
BLOCK_RECORD
  5
1B
330
1
100
AcDbSymbolTableRecord
100
AcDbBlockTableRecord
  2
*Paper_Space
340
1E
  0
BLOCK_RECORD
  5
23
330
1
100
AcDbSymbolTableRecord
100
AcDbBlockTableRecord
  2
*Paper_Space0
340
26
  0
BLOCK_RECORD
  5
4A
330
1
100
AcDbSymbolTableRecord
100
AcDbBlockTableRecord
  2
A1071-0-M1__1
340
0
102
{BLKREFS
331
6C
102
}
  0
BLOCK_RECORD
  5
4D
330
1
100
AcDbSymbolTableRecord
100
AcDbBlockTableRecord
  2
87-182-MW2
340
0
102
{BLKREFS
331
6D
102
}
  0
BLOCK_RECORD
  5
50
330
1
100
AcDbSymbolTableRecord
100
AcDbBlockTableRecord
  2
82-20-_色_
340
0
102
{BLKREFS
331
5D
102
}
  0
BLOCK_RECORD
  5
53
330
1
100
AcDbSymbolTableRecord
100
AcDbBlockTableRecord
  2
84-359-_色_
340
0
102
{BLKREFS
331
5E
102
}
  0
BLOCK_RECORD
  5
56
330
1
100
AcDbSymbolTableRecord
100
AcDbBlockTableRecord
  2
60-7A-_長さ_-M2
340
0
102
{BLKREFS
331
5F
102
}
  0
BLOCK_RECORD
  5
59
330
1
100
AcDbSymbolTableRecord
100
AcDbBlockTableRecord
  2
32-1-16-M1
340
0
102
{BLKREFS
331
60
102
}
  0
BLOCK_RECORD
  5
5C
330
1
100
AcDbSymbolTableRecord
100
AcDbBlockTableRecord
  2
60-7X3-_長さ_-_色_
340
0
102
{BLKREFS
331
6E
102
}
  0
BLOCK_RECORD
  5
63
330
1
100
AcDbSymbolTableRecord
100
AcDbBlockTableRecord
  2
開示A4
340
0
102
{BLKREFS
331
6F
102
}
  0
BLOCK_RECORD
  5
66
330
1
100
AcDbSymbolTableRecord
100
AcDbBlockTableRecord
  2
A1071-0-M1__2
340
0
102
{BLKREFS
331
70
102
}
  0
BLOCK_RECORD
  5
69
330
1
100
AcDbSymbolTableRecord
100
AcDbBlockTableRecord
  2
32-238-M1
340
0
102
{BLKREFS
331
71
102
}
  0
BLOCK_RECORD
  5
426
330
1
100
AcDbSymbolTableRecord
100
AcDbBlockTableRecord
  2
*D11
340
0
  0
BLOCK_RECORD
  5
431
330
1
100
AcDbSymbolTableRecord
100
AcDbBlockTableRecord
  2
*D12
340
0
  0
BLOCK_RECORD
  5
43C
330
1
100
AcDbSymbolTableRecord
100
AcDbBlockTableRecord
  2
*D13
340
0
  0
BLOCK_RECORD
  5
449
330
1
100
AcDbSymbolTableRecord
100
AcDbBlockTableRecord
  2
*D14
340
0
  0
BLOCK_RECORD
  5
454
330
1
100
AcDbSymbolTableRecord
100
AcDbBlockTableRecord
  2
*D15
340
0
  0
BLOCK_RECORD
  5
45F
330
1
100
AcDbSymbolTableRecord
100
AcDbBlockTableRecord
  2
*D16
340
0
  0
BLOCK_RECORD
  5
46A
330
1
100
AcDbSymbolTableRecord
100
AcDbBlockTableRecord
  2
*D17
340
0
  0
BLOCK_RECORD
  5
475
330
1
100
AcDbSymbolTableRecord
100
AcDbBlockTableRecord
  2
*D18
340
0
  0
BLOCK_RECORD
  5
480
330
1
100
AcDbSymbolTableRecord
100
AcDbBlockTableRecord
  2
*D19
340
0
  0
ENDTAB
  0
ENDSEC
  0
SECTION
  2
BLOCKS
  0
BLOCK
  5
20
330
1F
100
AcDbEntity
  8
0
100
AcDbBlockBegin
  2
*Model_Space
 70
     0
 10
0.0
 20
0.0
 30
0.0
  3
*Model_Space
  1

  0
ENDBLK
  5
21
330
1F
100
AcDbEntity
  8
0
100
AcDbBlockEnd
  0
BLOCK
  5
1C
330
1B
100
AcDbEntity
 67
     1
  8
0
100
AcDbBlockBegin
  2
*Paper_Space
 70
     0
 10
0.0
 20
0.0
 30
0.0
  3
*Paper_Space
  1

  0
ENDBLK
  5
1D
330
1B
100
AcDbEntity
 67
     1
  8
0
100
AcDbBlockEnd
  0
BLOCK
  5
24
330
23
100
AcDbEntity
  8
0
100
AcDbBlockBegin
  2
*Paper_Space0
 70
     0
 10
0.0
 20
0.0
 30
0.0
  3
*Paper_Space0
  1

  0
ENDBLK
  5
25
330
23
100
AcDbEntity
  8
0
100
AcDbBlockEnd
  0
BLOCK
  5
4B
330
4A
100
AcDbEntity
  8
0
100
AcDbBlockBegin
  2
A1071-0-M1__1
 70
     0
 10
-407.1336270591881
 20
-186.0358422946456
 30
0.0
  3
A1071-0-M1__1
  1

  0
LINE
  5
72
330
4A
100
AcDbEntity
  8
1
  6
Continuous
 62
     7
100
AcDbLine
 10
91.79805929111785
 20
256.5089226854497
 30
0.0
 11
91.79805929111785
 21
256.4996586870033
 31
0.0
  0
LINE
  5
73
330
4A
100
AcDbEntity
  8
1
  6
Continuous
 62
     7
100
AcDbLine
 10
91.79805929111785
 20
256.5089226854497
 30
0.0
 11
91.79805929111785
 21
256.4996586870033
 31
0.0
  0
LINE
  5
74
330
4A
100
AcDbEntity
  8
1
  6
Continuous
 62
     7
100
AcDbLine
 10
91.79805929111785
 20
256.5089226854497
 30
0.0
 11
91.79805929111785
 21
256.4996586870033
 31
0.0
  0
LINE
  5
75
330
4A
100
AcDbEntity
  8
1
  6
Continuous
 62
     7
100
AcDbLine
 10
91.79805929111785
 20
218.4170829920038
 30
0.0
 11
91.7980592911199
 21
218.4170829920037
 31
0.0
  0
ENDBLK
  5
4C
330
4A
100
AcDbEntity
  8
0
100
AcDbBlockEnd
  0
BLOCK
  5
4E
330
4D
100
AcDbEntity
  8
0
100
AcDbBlockBegin
  2
87-182-MW2
 70
     0
 10
-198.0320076378072
 20
75.82945520897236
 30
0.0
  3
87-182-MW2
  1

  0
LINE
  5
76
330
4D
100
AcDbEntity
  8
0
  6
PHANTOM
 62
     2
100
AcDbLine
 10
277.4094838465448
 20
359.2454594342056
 30
0.0
 11
276.3043914843538
 21
357.3016807062876
 31
0.0
  0
LINE
  5
77
330
4D
100
AcDbEntity
  8
0
  6
PHANTOM
 62
     2
100
AcDbLine
 10
277.0859889188089
 20
354.5570649920031
 30
0.0
 11
283.6976968742649
 21
350.9538205989144
 31
0.0
  0
LINE
  5
78
330
4D
100
AcDbEntity
  8
1
  6
Continuous
 62
     7
100
AcDbLine
 10
79.79805929111785
 20
277.4170799920031
 30
0.0
 11
91.29805929111785
 21
277.4170799920031
 31
0.0
  0
LINE
  5
79
330
4D
100
AcDbEntity
  8
1
  6
Continuous
 62
     7
100
AcDbLine
 10
68.29805929111785
 20
277.4170799920031
 30
0.0
 11
79.79805929111785
 21
277.4170799920031
 31
0.0
  0
LINE
  5
7A
330
4D
100
AcDbEntity
  8
0
  6
Continuous
 62
     7
100
AcDbLine
 10
96.2179234658779
 20
309.0598259920031
 30
0.0
 11
96.19511146587774
 21
309.3093679920031
 31
0.0
  0
LINE
  5
7B
330
4D
100
AcDbEntity
  8
0
  6
Continuous
 62
     7
100
AcDbLine
 10
85.01612546587785
 20
321.3690299920031
 30
0.0
 11
84.76179246587776
 21
321.4404109920031
 31
0.0
  0
LINE
  5
7C
330
4D
100
AcDbEntity
  8
0
  6
Continuous
 62
     7
100
AcDbLine
 10
96.2860004658778
 20
277.4170799920031
 30
0.0
 11
96.2801484658778
 21
277.4170799920031
 31
0.0
  0
LINE
  5
7D
330
4D
100
AcDbEntity
  8
0
  6
Continuous
 62
     7
100
AcDbLine
 10
96.2801484658778
 20
277.4170799920031
 30
0.0
 11
96.22844346587794
 21
277.4170799920031
 31
0.0
  0
LINE
  5
7E
330
4D
100
AcDbEntity
  8
0
  6
Continuous
 62
     7
100
AcDbLine
 10
89.33543046587783
 20
277.4170799920031
 30
0.0
 11
96.22844346587794
 21
277.4170799920031
 31
0.0
  0
LINE
  5
7F
330
4D
100
AcDbEntity
  8
0
  6
Continuous
 62
     7
100
AcDbLine
 10
89.33543046587783
 20
277.4170799920031
 30
0.0
 11
79.79507146587775
 21
277.4170799920031
 31
0.0
  0
LINE
  5
80
330
4D
100
AcDbEntity
  8
0
  6
Continuous
 62
     7
100
AcDbLine
 10
96.23080002358074
 20
308.8040028494971
 30
0.0
 11
96.78592346587789
 21
277.9260669920031
 31
0.0
  0
LINE
  5
81
330
4D
100
AcDbEntity
  8
0
  6
Continuous
 62
     2
100
AcDbLine
 10
96.78592346587789
 20
277.9260669920031
 30
0.0
 11
96.77995746587794
 21
277.9260669920031
 31
0.0
  0
LINE
  5
82
330
4D
100
AcDbEntity
  8
0
  6
Continuous
 62
     2
100
AcDbLine
 10
96.77995746587794
 20
277.9260669920031
 30
0.0
 11
96.72816146587775
 21
277.9260829920031
 31
0.0
  0
LINE
  5
83
330
4D
100
AcDbEntity
  8
0
  6
Continuous
 62
     2
100
AcDbLine
 10
89.58005946587878
 20
277.9145319920031
 30
0.0
 11
79.79507146587775
 21
277.9141649920031
 31
0.0
  0
LINE
  5
84
330
4D
100
AcDbEntity
  8
0
  6
Continuous
 62
     7
100
AcDbLine
 10
85.86022646587776
 20
318.7127489920031
 30
0.0
 11
85.61960734314084
 21
318.6819419932101
 31
0.0
  0
LINE
  5
119
330
4D
100
AcDbEntity
  8
0
  6
Continuous
 62
     7
100
AcDbLine
 10
73.9765192815878
 20
318.6819419932101
 30
0.0
 11
73.73590015885088
 21
318.7127489920031
 31
0.0
  0
LINE
  5
11A
330
4D
100
AcDbEntity
  8
0
  6
Continuous
 62
     2
100
AcDbLine
 10
79.80105515885089
 20
277.9141649920031
 30
0.0
 11
70.01606715885077
 21
277.9145319920031
 31
0.0
  0
LINE
  5
11B
330
4D
100
AcDbEntity
  8
0
  6
Continuous
 62
     2
100
AcDbLine
 10
62.86796515885089
 20
277.9260829920031
 30
0.0
 11
62.81616915885093
 21
277.9260669920031
 31
0.0
  0
LINE
  5
11C
330
4D
100
AcDbEntity
  8
0
  6
Continuous
 62
     2
100
AcDbLine
 10
62.81616915885093
 20
277.9260669920031
 30
0.0
 11
62.81020315885075
 21
277.9260669920031
 31
0.0
  0
LINE
  5
11D
330
4D
100
AcDbEntity
  8
0
  6
Continuous
 62
     7
100
AcDbLine
 10
62.81020315885075
 20
277.9260669920031
 30
0.0
 11
63.3653266011479
 21
308.8040028494971
 31
0.0
  0
LINE
  5
11E
330
4D
100
AcDbEntity
  8
0
  6
Continuous
 62
     7
100
AcDbLine
 10
79.80105515885089
 20
277.4170799920031
 30
0.0
 11
70.2606961588508
 21
277.4170799920031
 31
0.0
  0
LINE
  5
11F
330
4D
100
AcDbEntity
  8
0
  6
Continuous
 62
     7
100
AcDbLine
 10
63.36768315885092
 20
277.4170799920031
 30
0.0
 11
70.2606961588508
 21
277.4170799920031
 31
0.0
  0
LINE
  5
120
330
4D
100
AcDbEntity
  8
0
  6
Continuous
 62
     7
100
AcDbLine
 10
63.36768315885092
 20
277.4170799920031
 30
0.0
 11
63.31597815885084
 21
277.4170799920031
 31
0.0
  0
LINE
  5
121
330
4D
100
AcDbEntity
  8
0
  6
Continuous
 62
     7
100
AcDbLine
 10
63.31597815885084
 20
277.4170799920031
 30
0.0
 11
63.31012615885084
 21
277.4170799920031
 31
0.0
  0
LINE
  5
122
330
4D
100
AcDbEntity
  8
0
  6
Continuous
 62
     7
100
AcDbLine
 10
74.83433415885088
 20
321.4404109920031
 30
0.0
 11
74.58000115885079
 21
321.3690299920031
 31
0.0
  0
LINE
  5
123
330
4D
100
AcDbEntity
  8
0
  6
Continuous
 62
     7
100
AcDbLine
 10
63.4010151588509
 20
309.3093679920031
 30
0.0
 11
63.37820315885074
 21
309.0598259920031
 31
0.0
  0
LINE
  5
145
330
4D
100
AcDbEntity
  8
0
  6
Continuous
 62
     2
100
AcDbLine
 10
258.4778799188089
 20
321.4757499920031
 30
0.0
 11
259.3447319188088
 21
321.4086109920031
 31
0.0
  0
LINE
  5
154
330
4D
100
AcDbEntity
  8
0
  6
Continuous
 62
     2
100
AcDbLine
 10
258.9361976203049
 20
318.7126742168211
 30
0.0
 11
258.0600179188089
 21
318.6817129920031
 31
0.0
  0
LINE
  5
182
330
4D
100
AcDbEntity
  8
0
  6
Continuous
 62
     7
100
AcDbLine
 10
255.6473143027808
 20
316.4170649920031
 30
0.0
 11
263.1771252064198
 21
316.4170649920021
 31
0.0
  0
LINE
  5
183
330
4D
100
AcDbEntity
  8
0
  6
Continuous
 62
     7
100
AcDbLine
 10
336.2654319188089
 20
277.4170799920031
 30
0.0
 11
330.7099209188089
 21
277.4170799920031
 31
0.0
  0
LINE
  5
184
330
4D
100
AcDbEntity
  8
0
  6
Continuous
 62
     7
100
AcDbLine
 10
330.1659139188089
 20
277.4170799920031
 30
0.0
 11
328.0955709188088
 21
277.4170799920031
 31
0.0
  0
LINE
  5
185
330
4D
100
AcDbEntity
  8
0
  6
Continuous
 62
     7
100
AcDbLine
 10
316.700780918809
 20
277.4170799920031
 30
0.0
 11
328.0955709188088
 21
277.4170799920031
 31
0.0
  0
LINE
  5
186
330
4D
100
AcDbEntity
  8
0
  6
Continuous
 62
     7
100
AcDbLine
 10
316.700780918809
 20
277.4170799920031
 30
0.0
 11
314.2075100148018
 21
277.4170799920031
 31
0.0
  0
LINE
  5
187
330
4D
100
AcDbEntity
  8
0
  6
Continuous
 62
     7
100
AcDbLine
 10
253.6878259188088
 20
320.6886099920031
 30
0.0
 11
253.6476339188089
 21
318.4530139920031
 31
0.0
  0
LINE
  5
188
330
4D
100
AcDbEntity
  8
0
  6
Continuous
 62
     7
100
AcDbLine
 10
343.8473869188088
 20
306.1594049920031
 30
0.0
 11
343.8155879188089
 21
306.1991079920031
 31
0.0
  0
LINE
  5
189
330
4D
100
AcDbEntity
  8
0
  6
Continuous
 62
     7
100
AcDbLine
 10
338.7654319188089
 20
278.0869559920031
 30
0.0
 11
345.3687039188089
 21
281.8993639920031
 31
0.0
  0
LINE
  5
18A
330
4D
100
AcDbEntity
  8
0
  6
Continuous
 62
     7
100
AcDbLine
 10
346.5052389188088
 20
282.5555229920031
 30
0.0
 11
345.3687039188089
 21
281.8993639920031
 31
0.0
  0
LINE
  5
18B
330
4D
100
AcDbEntity
  8
0
  6
Continuous
 62
     7
100
AcDbLine
 10
348.6848349188088
 20
283.8139149920031
 30
0.0
 11
346.5052389188088
 21
282.5555229920031
 31
0.0
  0
LINE
  5
1F0
330
4D
100
AcDbEntity
  8
0
  6
Continuous
 62
     7
100
AcDbLine
 10
330.7099209188089
 20
277.4170799920031
 30
0.0
 11
330.1659139188089
 21
277.4170799920031
 31
0.0
  0
ARC
  5
1F1
330
4D
100
AcDbEntity
  8
0
  6
PHANTOM
 62
     2
100
AcDbCircle
 10
-22.5692415753972
 20
-43.78340991567632
 30
0.0
 40
500.0287201934959
100
AcDbArc
 50
47.28948456080914
 51
51.60722956080908
  0
ARC
  5
1F2
330
4D
100
AcDbEntity
  8
0
  6
PHANTOM
 62
     2
100
AcDbCircle
 10
-4.56845263715854
 20
-111.7106120511942
 30
0.0
 40
550.1465780000005
100
AcDbArc
 50
52.61582856056264
 51
58.96434556056266
  0
ARC
  5
1F3
330
4D
100
AcDbEntity
  8
0
  6
PHANTOM
 62
     2
100
AcDbCircle
 10
278.0430489919709
 20
356.3132090878919
 30
0.0
 40
2.000001517291218
100
AcDbArc
 50
150.3806533640712
 51
241.4105833640188
  0
ARC
  5
1F4
330
4D
100
AcDbEntity
  8
0
  6
PHANTOM
 62
     2
100
AcDbCircle
 10
269.3417851496488
 20
324.6116908718974
 30
0.0
 40
30.00000000000014
100
AcDbArc
 50
51.60774656056213
 51
61.41053656056229
  0
ARC
  5
1F5
330
4D
100
AcDbEntity
  8
0
  6
PHANTOM
 62
     2
100
AcDbCircle
 10
278.4527065467498
 20
358.6523766593469
 30
0.0
 40
1.200025324755337
100
AcDbArc
 50
58.96589085346285
 51
150.3813268534118
  0
ARC
  5
1F6
330
4D
100
AcDbEntity
  8
0
  6
Continuous
 62
     7
100
AcDbCircle
 10
92.31793372818584
 20
308.7352889502123
 30
0.0
 40
3.913469591755171
100
AcDbArc
 50
1.00606856699493
 51
4.75689956699264
  0
ARC
  5
1F7
330
4D
100
AcDbEntity
  8
0
  6
Continuous
 62
     7
100
AcDbCircle
 10
96.28600252326896
 20
277.9170816767459
 30
0.0
 40
0.5000016847470456
100
AcDbArc
 50
269.9997642411342
 51
1.02969324113646
  0
ARC
  5
1F8
330
4D
100
AcDbEntity
  8
0
  6
Continuous
 62
     2
100
AcDbCircle
 10
88.08604654929582
 20
3414.188839872282
 30
0.0
 40
3136.274663728373
100
AcDbArc
 50
270.0272937312812
 51
270.1578807312811
  0
ARC
  5
1F9
330
4D
100
AcDbEntity
  8
0
  6
Continuous
 62
     7
100
AcDbCircle
 10
79.78071246587774
 20
392.9942439920031
 30
0.0
 40
74.54133699999957
100
AcDbArc
 50
270.0110349999999
 51
274.4926359999999
  0
ARC
  5
1FA
330
4D
100
AcDbEntity
  8
0
  6
Continuous
 62
     7
100
AcDbCircle
 10
87.17696356624992
 20
316.7886202532634
 30
0.0
 40
2.089133647426516
100
AcDbArc
 50
61.61136136620024
 51
99.12502836619444
  0
ARC
  5
1FB
330
4D
100
AcDbEntity
  8
0
  6
Continuous
 62
     7
100
AcDbCircle
 10
81.69637623525477
 20
351.8974920900376
 30
0.0
 40
33.4449521337018
100
AcDbArc
 50
277.1518023805121
 51
278.8566373805135
  0
ARC
  5
1FC
330
4D
100
AcDbEntity
  8
0
  6
Continuous
 62
     7
100
AcDbCircle
 10
77.89975038947387
 20
351.8974920900376
 30
0.0
 40
33.44495213370168
100
AcDbArc
 50
261.1433626194869
 51
262.8481976194879
  0
ARC
  5
1FD
330
4D
100
AcDbEntity
  8
0
  6
Continuous
 62
     7
100
AcDbCircle
 10
72.41916305847894
 20
316.7886202532634
 30
0.0
 40
2.089133647426438
100
AcDbArc
 50
80.87497163380556
 51
118.3886386338052
  0
ARC
  5
1FE
330
4D
100
AcDbEntity
  8
0
  6
Continuous
 62
     7
100
AcDbCircle
 10
79.8154141588509
 20
392.9942439920031
 30
0.0
 40
74.5413369999998
100
AcDbArc
 50
265.5073640000001
 51
269.9889650000001
  0
ARC
  5
1FF
330
4D
100
AcDbEntity
  8
0
  6
Continuous
 62
     2
100
AcDbCircle
 10
71.51008007543282
 20
3414.188839872282
 30
0.0
 40
3136.274663728374
100
AcDbArc
 50
269.8421192687189
 51
269.9727062687189
  0
ARC
  5
200
330
4D
100
AcDbEntity
  8
0
  6
Continuous
 62
     7
100
AcDbCircle
 10
63.31012410145991
 20
277.9170816767459
 30
0.0
 40
0.5000016847466688
100
AcDbArc
 50
178.970306758864
 51
270.0002357588398
  0
ARC
  5
201
330
4D
100
AcDbEntity
  8
0
  6
Continuous
 62
     7
100
AcDbCircle
 10
67.2781928965428
 20
308.7352889502123
 30
0.0
 40
3.913469591755857
100
AcDbArc
 50
175.2431004330074
 51
178.9939314330051
  0
ARC
  5
202
330
4D
100
AcDbEntity
  8
0
  6
Continuous
 62
     2
100
AcDbCircle
 10
317.6926939188088
 20
272.3574789920031
 30
0.0
 40
39.81183600000009
100
AcDbArc
 50
70.35599599999972
 51
71.18598000000021
  0
ARC
  5
203
330
4D
100
AcDbEntity
  8
0
  6
Continuous
 62
     2
100
AcDbCircle
 10
321.9019982088398
 20
284.7041863480348
 30
0.0
 40
26.76731933929496
100
AcDbArc
 50
71.19159377602315
 51
72.91536977602341
  0
ARC
  5
204
330
4D
100
AcDbEntity
  8
0
  6
Continuous
 62
     2
100
AcDbCircle
 10
292.3249247205108
 20
183.8081665239025
 30
0.0
 40
131.9073657478436
100
AcDbArc
 50
73.51034417110758
 51
79.8491011711074
  0
ARC
  5
205
330
4D
100
AcDbEntity
  8
0
  6
Continuous
 62
     2
100
AcDbCircle
 10
262.5565130038929
 20
374.7063437818727
 30
0.0
 40
53.38662157380687
100
AcDbArc
 50
261.7965375786441
 51
265.6184455786446
  0
ARC
  5
206
330
4D
100
AcDbEntity
  8
0
  6
Continuous
 62
     2
100
AcDbCircle
 10
264.0479889895919
 20
285.8259281687798
 30
0.0
 40
33.05198531227087
100
AcDbArc
 50
82.93681491474031
 51
92.31187091473947
  0
ARC
  5
207
330
4D
100
AcDbEntity
  8
0
  6
Continuous
 62
     2
100
AcDbCircle
 10
259.6784987987699
 20
244.7818478078674
 30
0.0
 40
73.91758623353601
100
AcDbArc
 50
91.25463424380467
 51
94.6798992438049
  0
ARC
  5
208
330
4D
100
AcDbEntity
  8
0
  6
Continuous
 62
     2
100
AcDbCircle
 10
237.5181345231999
 20
955.3945444042572
 30
0.0
 40
637.0420215748744
100
AcDbArc
 50
271.9267110967843
 51
272.2667800967844
  0
ARC
  5
209
330
4D
100
AcDbEntity
  8
0
  6
Continuous
 62
     7
100
AcDbCircle
 10
314.2075099188089
 20
277.9170799920031
 30
0.0
 40
0.4999999999999315
100
AcDbArc
 50
180.3342369999985
 51
270.0000109999764
  0
ARC
  5
20A
330
4D
100
AcDbEntity
  8
0
  6
Continuous
 62
     7
100
AcDbCircle
 10
348.4348337867468
 20
284.2469283897472
 30
0.0
 40
0.5000011686568013
100
AcDbArc
 50
300.0000724753811
 51
3.70976247529455
  0
ARC
  5
20B
330
4D
100
AcDbEntity
  8
0
  6
Continuous
 62
     7
100
AcDbCircle
 10
63.71869554364275
 20
276.4561241405785
 30
0.0
 40
249.9930747926506
100
AcDbArc
 50
0.33416909839689
 51
5.26368609839699
  0
ARC
  5
20C
330
4D
100
AcDbEntity
  8
0
  6
Continuous
 62
     7
100
AcDbCircle
 10
254.8876576443349
 20
320.6670551671074
 30
0.0
 40
1.200025324755883
100
AcDbArc
 50
87.55536329285796
 51
178.9707992928224
  0
ARC
  5
20D
330
4D
100
AcDbEntity
  8
0
  6
Continuous
 62
     7
100
AcDbCircle
 10
302.6997279188088
 20
298.4729729920031
 30
0.0
 40
10.00000099999963
100
AcDbArc
 50
5.26363600000049
 51
75.8788599999997
  0
ARC
  5
20E
330
4D
100
AcDbEntity
  8
0
  6
Continuous
 62
     7
100
AcDbCircle
 10
263.1771299188088
 20
286.4170649920031
 30
0.0
 40
29.99999999999983
100
AcDbArc
 50
80.19721899999988
 51
90.00000900000005
  0
ARC
  5
20F
330
4D
100
AcDbEntity
  8
0
  6
Continuous
 62
     7
100
AcDbCircle
 10
297.6831177931649
 20
200.2802182171018
 30
0.0
 40
116.994544792105
100
AcDbArc
 50
69.74036277864086
 51
81.20457577864096
  0
ARC
  5
210
330
4D
100
AcDbEntity
  8
0
  6
Continuous
 62
     7
100
AcDbCircle
 10
333.3476348479649
 20
296.9027947449149
 30
0.0
 40
13.9999814814656
100
AcDbArc
 50
41.60743560361878
 51
69.74075260362196
  0
ARC
  5
211
330
4D
100
AcDbEntity
  8
0
  6
Continuous
 62
     7
100
AcDbCircle
 10
183.1468497376347
 20
-176.748296474158
 30
0.0
 40
500.0287201934957
100
AcDbArc
 50
75.87895700024652
 51
80.19670200024646
  0
ARC
  5
212
330
4D
100
AcDbEntity
  8
0
  6
Continuous
 62
     7
100
AcDbCircle
 10
231.4580589188088
 20
-227.7792700079969
 30
0.0
 40
550.1465780000002
100
AcDbArc
 50
81.205301
 51
87.55381799999998
  0
ARC
  5
213
330
4D
100
AcDbEntity
  8
0
  6
Continuous
 62
     7
100
AcDbCircle
 10
346.7373409188087
 20
299.2752489920031
 30
0.0
 40
0.2911620000005782
100
AcDbArc
 50
5.44402200003481
 51
16.09065000001556
  0
ARC
  5
214
330
4D
100
AcDbEntity
  8
0
  6
Continuous
 62
     7
100
AcDbCircle
 10
321.6067485415179
 20
292.0644795320274
 30
0.0
 40
26.43579537811243
100
AcDbArc
 50
16.01076548758121
 51
22.80785248758135
  0
ARC
  5
215
330
4D
100
AcDbEntity
  8
0
  6
Continuous
 62
     7
100
AcDbCircle
 10
209.239827711936
 20
275.2221601672207
 30
0.0
 40
139.9872628008087
100
AcDbArc
 50
3.70960500328618
 51
9.5511790032862
  0
ARC
  5
216
330
4D
100
AcDbEntity
  8
0
  6
Continuous
 62
     7
100
AcDbCircle
 10
381.7014681690889
 20
309.3823094074983
 30
0.0
 40
36.10956443738687
100
AcDbArc
 50
196.2085751460589
 51
197.6230121460593
  0
ARC
  5
217
330
4D
100
AcDbEntity
  8
0
  6
Continuous
 62
     7
100
AcDbCircle
 10
336.2654263290579
 20
282.4170813386215
 30
0.0
 40
5.000001346621501
100
AcDbArc
 50
270.0000640538105
 51
300.0000650538195
  0
ARC
  5
218
330
4D
100
AcDbEntity
  8
0
  6
Continuous
 62
     7
100
AcDbCircle
 10
326.5227173295918
 20
400.2282595861373
 30
0.0
 40
10.00536199999927
100
AcDbArc
 50
92.00808499999131
 51
108.1062810000014
  0
ARC
  5
219
330
4D
100
AcDbEntity
  8
0
  6
Continuous
 62
     7
100
AcDbCircle
 10
336.6831139461258
 20
110.3898199690718
 30
0.0
 40
300.0218179917688
100
AcDbArc
 50
91.23281846509731
 51
92.00771746509767
  0
ARC
  5
21A
330
4D
100
AcDbEntity
  8
0
  6
Continuous
 62
     7
100
AcDbCircle
 10
330.7828653295919
 20
384.5604125861371
 30
0.0
 40
25.78774500000044
100
AcDbArc
 50
89.99997500000116
 51
91.23263999999708
  0
ARC
  5
21B
330
4D
100
AcDbEntity
  8
0
  6
Continuous
 62
     7
100
AcDbCircle
 10
330.7834552301758
 20
384.559673800273
 30
0.0
 40
25.78848379235471
100
AcDbArc
 50
77.3107736172702
 51
90.00128561727252
  0
ARC
  5
21C
330
4D
100
AcDbEntity
  8
0
  6
Continuous
 62
     7
100
AcDbCircle
 10
343.238300186064
 20
402.5010467559669
 30
0.0
 40
3.868754465862498
100
AcDbArc
 50
23.49301167034918
 51
54.56943967035292
  0
ARC
  5
21D
330
4D
100
AcDbEntity
  8
0
  6
Continuous
 62
     7
100
AcDbCircle
 10
330.5184515103088
 20
384.5528002801368
 30
0.0
 40
25.86725115131981
100
AcDbArc
 50
54.65917473740586
 51
71.45040573740317
  0
ARC
  5
21E
330
4D
100
AcDbEntity
  8
0
  6
Continuous
 62
     7
100
AcDbCircle
 10
259.7786818776788
 20
393.3550094187097
 30
0.0
 40
6.058667498306578
100
AcDbArc
 50
105.1360015560583
 51
179.9791595560713
  0
ARC
  5
21F
330
4D
100
AcDbEntity
  8
0
  6
Continuous
 62
     7
100
AcDbCircle
 10
335.9815472898979
 20
112.0351436829065
 30
0.0
 40
297.5166290232598
100
AcDbArc
 50
104.2416344647114
 51
105.1559434647114
  0
ARC
  5
220
330
4D
100
AcDbEntity
  8
0
  6
Continuous
 62
     7
100
AcDbCircle
 10
338.285448896683
 20
105.960982390749
 30
0.0
 40
303.9659744992391
100
AcDbArc
 50
95.09886946038286
 51
103.3343704603825
  0
ARC
  5
221
330
4D
100
AcDbEntity
  8
0
  6
Continuous
 62
     7
100
AcDbCircle
 10
350.0273951783299
 20
56.81088300462737
 30
0.0
 40
354.49911875077
100
AcDbArc
 50
103.3488735079135
 51
104.2462175079134
  0
ARC
  5
222
330
4D
100
AcDbEntity
  8
0
  6
Continuous
 62
     7
100
AcDbCircle
 10
331.3127391863998
 20
386.8907022482556
 30
0.0
 40
23.3981251171766
100
AcDbArc
 50
71.47312357130959
 51
77.32134357131106
  0
ARC
  5
223
330
4D
100
AcDbEntity
  8
0
  6
Continuous
 62
     7
100
AcDbCircle
 10
255.6473123548708
 20
318.4170665092928
 30
0.0
 40
2.000001517290452
100
AcDbArc
 50
178.9701258034987
 51
270.0000558034692
  0
ARC
  5
224
330
4D
100
AcDbEntity
  8
0
  6
Continuous
 62
     7
100
AcDbCircle
 10
331.3127391863998
 20
399.8237509240187
 30
0.0
 40
23.39812511717619
100
AcDbArc
 50
282.678656428689
 51
288.5268764286904
  0
ARC
  5
225
330
4D
100
AcDbEntity
  8
0
  6
Continuous
 62
     7
100
AcDbCircle
 10
350.0273951783299
 20
729.9035701676469
 30
0.0
 40
354.4991187507698
100
AcDbArc
 50
255.7537824920866
 51
256.6511264920866
  0
ARC
  5
226
330
4D
100
AcDbEntity
  8
0
  6
Continuous
 62
     7
100
AcDbCircle
 10
338.285448896683
 20
680.753470781525
 30
0.0
 40
303.9659744992386
100
AcDbArc
 50
256.6656295396174
 51
264.9011305396171
  0
ARC
  5
227
330
4D
100
AcDbEntity
  8
0
  6
Continuous
 62
     7
100
AcDbCircle
 10
335.9815472898979
 20
674.6793094893679
 30
0.0
 40
297.5166290232604
100
AcDbArc
 50
254.8440565352886
 51
255.7583655352886
  0
ARC
  5
228
330
4D
100
AcDbEntity
  8
0
  6
Continuous
 62
     7
100
AcDbCircle
 10
259.7786818776788
 20
393.3594437535649
 30
0.0
 40
6.058667498306023
100
AcDbArc
 50
180.0208404439314
 51
254.8639984439424
  0
ARC
  5
229
330
4D
100
AcDbEntity
  8
0
  6
Continuous
 62
     7
100
AcDbCircle
 10
330.5184515103088
 20
402.1616528921375
 30
0.0
 40
25.86725115132075
100
AcDbArc
 50
288.5495942625968
 51
305.3408252625942
  0
ARC
  5
22A
330
4D
100
AcDbEntity
  8
0
  6
Continuous
 62
     7
100
AcDbCircle
 10
343.238300186064
 20
384.2134064163072
 30
0.0
 40
3.868754465861824
100
AcDbArc
 50
305.430560329649
 51
336.5069883296539
  0
ARC
  5
22B
330
4D
100
AcDbEntity
  8
0
  6
Continuous
 62
     7
100
AcDbCircle
 10
330.7834552301758
 20
402.1547793720015
 30
0.0
 40
25.78848379235434
100
AcDbArc
 50
269.9987143827275
 51
282.6892263827297
  0
ARC
  5
22C
330
4D
100
AcDbEntity
  8
0
  6
Continuous
 62
     7
100
AcDbCircle
 10
330.7828653295919
 20
402.1540405861372
 30
0.0
 40
25.78774500000028
100
AcDbArc
 50
268.7673600000029
 51
270.0000249999989
  0
ARC
  5
22D
330
4D
100
AcDbEntity
  8
0
  6
Continuous
 62
     7
100
AcDbCircle
 10
336.6831139461258
 20
676.3246332032023
 30
0.0
 40
300.0218179917686
100
AcDbArc
 50
267.9922825349023
 51
268.7671815349026
  0
ARC
  5
22E
330
4D
100
AcDbEntity
  8
0
  6
Continuous
 62
     7
100
AcDbCircle
 10
326.5227173295918
 20
386.4861935861372
 30
0.0
 40
10.00536199999901
100
AcDbArc
 50
251.893718999999
 51
267.9919150000088
  0
SPLINE
  5
22F
330
4D
100
AcDbEntity
  8
0
  6
Continuous
 62
     2
100
AcDbSpline
210
0.0
220
0.0
230
1.0
 70
     8
 71
     3
 72
    23
 73
    19
 74
    17
 42
0.000000001
 43
0.0000000001
 44
0.00000001
 40
0.0
 40
0.0
 40
0.0
 40
0.0
 40
0.0781784372490384
 40
0.1563568797380002
 40
0.1762761791700677
 40
0.1961909252254064
 40
0.2161078020219651
 40
0.2360258688609942
 40
0.2563026679458663
 40
0.2765792951854061
 40
0.2968559905558467
 40
0.3171328351867582
 40
0.3378105877110475
 40
0.3584880731273523
 40
0.3791659718504999
 40
0.3998454046428633
 40
0.4663525373203755
 40
0.5328596237479745
 40
0.5328596237479745
 40
0.5328596237479745
 40
0.5328596237479745
 10
346.5052387922028
 20
282.5555230028921
 30
0.0
 10
346.5271010207852
 20
282.5698509549266
 30
0.0
 10
346.5708254708618
 20
282.5985068718782
 30
0.0
 10
346.6109477140934
 20
282.6422927582212
 30
0.0
 10
346.6343481551961
 20
282.6738973278798
 30
0.0
 10
346.6454101587267
 20
282.6904735873711
 30
0.0
 10
346.6556900714549
 20
282.7075390809778
 30
0.0
 10
346.6652286812144
 20
282.7251686308167
 30
0.0
 10
346.673997277985
 20
282.7433265104896
 30
0.0
 10
346.6819738669121
 20
282.7619759377846
 30
0.0
 10
346.6891033999421
 20
282.7809651328928
 30
0.0
 10
346.6954241946589
 20
282.8003790770532
 30
0.0
 10
346.7009146860512
 20
282.8201830540825
 30
0.0
 10
346.7055572724501
 20
282.8403389173926
 30
0.0
 10
346.7093291834323
 20
282.8606789665341
 30
0.0
 10
346.7143300363454
 20
282.8962822742263
 30
0.0
 10
346.7173914425363
 20
282.9476733678624
 30
0.0
 10
346.7127514316556
 20
282.9918247783187
 30
0.0
 10
346.7104314196467
 20
283.0139004752991
 30
0.0
 11
346.5052387922028
 21
282.5555230028921
 31
0.0
 11
346.5687914664523
 21
282.6010523991941
 31
0.0
 11
346.6223812015398
 21
282.6579734805903
 31
0.0
 11
346.6342180569699
 21
282.6739943220664
 31
0.0
 11
346.6452794816529
 21
282.6905545760492
 31
0.0
 11
346.6555567520763
 21
282.7076150482248
 31
0.0
 11
346.6650367674704
 21
282.7251324313335
 31
0.0
 11
346.6738566427308
 21
282.7433905363213
 31
0.0
 11
346.6818326914711
 21
282.7620325392809
 31
0.0
 11
346.6889617018739
 21
282.7810146782782
 31
0.0
 11
346.6952408331366
 21
282.8002947963628
 31
0.0
 11
346.7007674462912
 21
282.8202203079291
 31
0.0
 11
346.7054121248503
 21
282.8403693867776
 31
0.0
 11
346.7091798034172
 21
282.8607011379958
 31
0.0
 11
346.7120756632874
 21
282.8811768052514
 31
0.0
 11
346.7155690757305
 21
282.9475921266233
 31
0.0
 11
346.7104314196467
 21
283.0139004752991
 31
0.0
  0
SPLINE
  5
230
330
4D
100
AcDbEntity
  8
0
  6
Continuous
 62
     7
100
AcDbSpline
210
0.0
220
0.0
230
1.0
 70
     8
 71
     3
 72
     9
 73
     5
 74
     3
 42
0.000000001
 43
0.0000000001
 44
0.00000001
 40
0.0
 40
0.0
 40
0.0
 40
0.0
 40
2.202012006016976
 40
4.403964723673148
 40
4.403964723673148
 40
4.403964723673148
 40
4.403964723673148
 10
345.9755299576539
 20
302.3121021619851
 30
0.0
 10
345.6762530269215
 20
302.9839827570722
 30
0.0
 10
345.077707205656
 20
304.3277258479629
 30
0.0
 10
344.257490006089
 20
305.5488507605034
 30
0.0
 10
343.8473869188088
 20
306.1594049920031
 30
0.0
 11
345.9755299576539
 21
302.3121021619851
 31
0.0
 11
345.0222798197748
 21
304.2970885729737
 31
0.0
 11
343.8473869188088
 21
306.1594049920031
 31
0.0
  0
SPLINE
  5
231
330
4D
100
AcDbEntity
  8
0
  6
Continuous
 62
     7
100
AcDbSpline
210
0.0
220
0.0
230
1.0
 70
     8
 71
     3
 72
     9
 73
     5
 74
     3
 42
0.000000001
 43
0.0000000001
 44
0.00000001
 40
0.0
 40
0.0
 40
0.0
 40
0.0
 40
5.486258645466624
 40
10.97248921844063
 40
10.97248921844063
 40
10.97248921844063
 40
10.97248921844063
 10
349.0078148005239
 20
393.3572316025673
 30
0.0
 10
348.9133190295492
 20
395.1955666061692
 30
0.0
 10
348.7243279515401
 20
398.8722272038175
 30
0.0
 10
347.4323539387174
 20
402.3195961782251
 30
0.0
 10
346.7863685754439
 20
404.0432762529661
 30
0.0
 11
349.0078148005239
 21
393.3572316025673
 31
0.0
 11
348.4485803331429
 21
398.8149134132555
 31
0.0
 11
346.7863685754439
 21
404.0432762529661
 31
0.0
  0
SPLINE
  5
232
330
4D
100
AcDbEntity
  8
0
  6
Continuous
 62
     7
100
AcDbSpline
210
0.0
220
0.0
230
1.0
 70
     8
 71
     3
 72
     9
 73
     5
 74
     3
 42
0.000000001
 43
0.0000000001
 44
0.00000001
 40
0.0
 40
0.0
 40
0.0
 40
0.0
 40
5.486258645466963
 40
10.97248921844091
 40
10.97248921844091
 40
10.97248921844091
 40
10.97248921844091
 10
349.0078148005239
 20
393.3572215697073
 30
0.0
 10
348.9133190295493
 20
391.5188865661054
 30
0.0
 10
348.72432795154
 20
387.842225968457
 30
0.0
 10
347.4323539387175
 20
384.3948569940491
 30
0.0
 10
346.7863685754439
 20
382.6711769193082
 30
0.0
 11
349.0078148005239
 21
393.3572215697073
 31
0.0
 11
348.4485803331429
 21
387.8995397590188
 31
0.0
 11
346.7863685754439
 21
382.6711769193082
 31
0.0
  0
LWPOLYLINE
  5
233
330
4D
100
AcDbEntity
  8
0
  6
Continuous
 62
     7
100
AcDbPolyline
 90
        6
 70
     0
 43
0.0
 10
64.22056515885083
 20
312.9802359920031
 10
64.11846115885078
 20
312.7232469920031
 10
63.89351615885084
 20
312.0427359920031
 10
63.70761815885089
 20
311.3064689920031
 10
63.53112715885095
 20
310.3492549920031
 10
63.4010151588509
 20
309.3093679920031
  0
LWPOLYLINE
  5
234
330
4D
100
AcDbEntity
  8
0
  6
Continuous
 62
     7
100
AcDbPolyline
 90
       18
 70
     0
 43
0.0
 10
74.58000115885079
 20
321.3690299920031
 10
73.93084615885095
 20
321.1702989920031
 10
73.29997915885087
 20
320.9547229920031
 10
72.68745315885076
 20
320.7228509920031
 10
72.09361915885074
 20
320.4754139920031
 10
71.51789815885081
 20
320.2126579920031
 10
70.9610361588509
 20
319.9354359920031
 10
70.42287415885085
 20
319.6441149920031
 10
69.50302815885084
 20
319.0869859920031
 10
68.73884515885084
 20
318.5589409920031
 10
68.10800115885081
 20
318.0705989920031
 10
67.34892915885075
 20
317.4076039920031
 10
66.65246515885178
 20
316.7098499920031
 10
66.12564015885096
 20
316.1097529920031
 10
65.55498415885086
 20
315.3677789920031
 10
65.04702715885082
 20
314.5982779920031
 10
64.60259215885094
 20
313.8032339920031
 10
64.22056515885083
 20
312.9802359920031
  0
LWPOLYLINE
  5
235
330
4D
100
AcDbEntity
  8
0
  6
Continuous
 62
     7
100
AcDbPolyline
 90
        6
 70
     0
 43
0.0
 10
79.80105515885089
 20
321.8670459920031
 10
78.48464115885076
 20
321.8423579920031
 10
77.01375515885093
 20
321.7533679920031
 10
75.94287815885082
 20
321.6397209920031
 10
75.2561561588509
 20
321.5336419920031
 10
74.83433415885088
 20
321.4404109920031
  0
LWPOLYLINE
  5
236
330
4D
100
AcDbEntity
  8
0
  6
Continuous
 62
     2
100
AcDbPolyline
 90
        5
 70
     0
 43
0.0
 10
63.52691615885078
 20
303.0631219920031
 10
63.31360515885081
 20
296.9174309920031
 10
63.17168315885078
 20
292.0350459920031
 10
62.98888315885074
 20
284.1935539920031
 10
62.86796515885089
 20
277.9260829920031
  0
LWPOLYLINE
  5
237
330
4D
100
AcDbEntity
  8
0
  6
Continuous
 62
     2
100
AcDbPolyline
 90
       13
 70
     0
 43
0.0
 10
79.80105515885089
 20
299.3903619920031
 10
78.4326661588509
 20
299.4194749920031
 10
77.15238915885084
 20
299.4992789920031
 10
75.88662615885096
 20
299.6280329920031
 10
74.64070815885088
 20
299.8028069920031
 10
73.24378115885088
 20
300.0547899920031
 10
71.88853415885092
 20
300.3546869920031
 10
70.58182415885085
 20
300.6938279920031
 10
69.6374121588508
 20
300.9680289920031
 10
68.72586715885177
 20
301.2542839920031
 10
67.47639415885078
 20
301.6774409920031
 10
66.68749915885178
 20
301.9597889920031
 10
65.21139251187083
 20
302.5068962886521
  0
LWPOLYLINE
  5
238
330
4D
100
AcDbEntity
  8
0
  6
Continuous
 62
     2
100
AcDbPolyline
 90
        9
 70
     0
 43
0.0
 10
79.80105515885089
 20
308.1707879920031
 10
77.64093315885088
 20
308.2072559920031
 10
75.57266915885089
 20
308.3102839920031
 10
73.54245715885077
 20
308.4754749920031
 10
72.12794415885082
 20
308.6274529920031
 10
70.74547515885092
 20
308.8044549920031
 10
68.96097515885094
 20
309.0727039920031
 10
67.25524815885092
 20
309.3676869920031
 10
65.63926615885089
 20
309.6766469920031
  0
LWPOLYLINE
  5
239
330
4D
100
AcDbEntity
  8
0
  6
Continuous
 62
     7
100
AcDbPolyline
 90
        9
 70
     0
 43
0.0
 10
64.43344815885075
 20
311.4905509920031
 10
64.31880915885085
 20
311.1492419920031
 10
64.21075415885093
 20
310.7212329920031
 10
64.1033701588508
 20
310.2025569920031
 10
64.00152515885088
 20
309.6115529920031
 10
63.85384315885085
 20
308.4811819920031
 10
63.72387615885077
 20
307.0152089920031
 10
63.64527815885094
 20
305.7673449920031
 10
63.52691615885078
 20
303.0631219920031
  0
LWPOLYLINE
  5
23A
330
4D
100
AcDbEntity
  8
0
  6
Continuous
 62
     7
100
AcDbPolyline
 90
       16
 70
     0
 43
0.0
 10
71.42588494349388
 20
318.6265206812251
 10
70.25284515885096
 20
317.9707139920031
 10
69.69896615885091
 20
317.6280019920031
 10
69.16728915885096
 20
317.2742119920031
 10
68.41214715885076
 20
316.7206229920031
 10
67.70860215885091
 20
316.1367299920031
 10
67.05728815885095
 20
315.5197259920031
 10
66.45862515885096
 20
314.8671069920031
 10
66.14864315885075
 20
314.4881089920031
 10
65.85501815885095
 20
314.0971489920031
 10
65.57881815885094
 20
313.6957209920031
 10
65.31863315885084
 20
313.2818109920031
 10
65.07363015885085
 20
312.8538019920031
 10
64.8444591588509
 20
312.4126399920031
 10
64.63110315885092
 20
311.9582629920031
 10
64.43344815885075
 20
311.4905509920031
  0
LWPOLYLINE
  5
23B
330
4D
100
AcDbEntity
  8
0
  6
Continuous
 62
     7
100
AcDbPolyline
 90
       16
 70
     0
 43
0.0
 10
95.16267846587789
 20
311.4905509920031
 10
94.96502346587795
 20
311.9582629920031
 10
94.75166746587774
 20
312.4126399920031
 10
94.5224964658778
 20
312.8538019920031
 10
94.2774934658778
 20
313.2818109920031
 10
94.01730846587793
 20
313.6957209920031
 10
93.74110846587791
 20
314.0971489920031
 10
93.4474834658779
 20
314.4881089920031
 10
93.1375014658779
 20
314.8671069920031
 10
92.53883846587792
 20
315.5197259920031
 10
91.88752446587796
 20
316.1367299920031
 10
91.18397946587788
 20
316.7206229920031
 10
90.4288374658779
 20
317.2742119920031
 10
89.89716046587796
 20
317.6280019920031
 10
89.34328146587791
 20
317.9707139920031
 10
88.17024168123476
 20
318.6265206812251
  0
LWPOLYLINE
  5
23C
330
4D
100
AcDbEntity
  8
0
  6
Continuous
 62
     7
100
AcDbPolyline
 90
        9
 70
     0
 43
0.0
 10
96.06921046587786
 20
303.0631219920031
 10
95.95084846587793
 20
305.7673449920031
 10
95.87225046587878
 20
307.0152089920031
 10
95.74228346587779
 20
308.4811819920031
 10
95.59460146587776
 20
309.6115529920031
 10
95.49275646587785
 20
310.2025569920031
 10
95.38537246587794
 20
310.7212329920031
 10
95.27731746587779
 20
311.1492419920031
 10
95.16267846587789
 20
311.4905509920031
  0
LWPOLYLINE
  5
23D
330
4D
100
AcDbEntity
  8
0
  6
Continuous
 62
     2
100
AcDbPolyline
 90
        9
 70
     0
 43
0.0
 10
93.95686046587775
 20
309.6766469920031
 10
92.34087846587795
 20
309.3676869920031
 10
90.63515146587793
 20
309.0727039920031
 10
88.85065146587795
 20
308.8044549920031
 10
87.46818246587782
 20
308.6274529920031
 10
86.05366946587878
 20
308.4754749920031
 10
84.02345746587775
 20
308.3102839920031
 10
81.95519346587776
 20
308.2072559920031
 10
79.79507146587775
 20
308.1707879920031
  0
LWPOLYLINE
  5
23E
330
4D
100
AcDbEntity
  8
0
  6
Continuous
 62
     2
100
AcDbPolyline
 90
       13
 70
     0
 43
0.0
 10
94.38473411285781
 20
302.5068962886521
 10
92.90862746587777
 20
301.9597889920031
 10
92.11973246587786
 20
301.6774409920031
 10
90.87025946587778
 20
301.2542839920031
 10
89.95871446587876
 20
300.9680289920031
 10
89.01430246587779
 20
300.6938279920031
 10
87.70759246587795
 20
300.3546869920031
 10
86.35234546587776
 20
300.0547899920031
 10
84.95541846587776
 20
299.8028069920031
 10
83.70950046587791
 20
299.6280329920031
 10
82.4437374658778
 20
299.4992789920031
 10
81.16346046587796
 20
299.4194749920031
 10
79.79507146587775
 20
299.3903619920031
  0
LWPOLYLINE
  5
23F
330
4D
100
AcDbEntity
  8
0
  6
Continuous
 62
     2
100
AcDbPolyline
 90
        5
 70
     0
 43
0.0
 10
96.72816146587775
 20
277.9260829920031
 10
96.6072434658779
 20
284.1935539920031
 10
96.42444346587877
 20
292.0350459920031
 10
96.28252146587783
 20
296.9174309920031
 10
96.06921046587786
 20
303.0631219920031
  0
LWPOLYLINE
  5
240
330
4D
100
AcDbEntity
  8
0
  6
Continuous
 62
     7
100
AcDbPolyline
 90
        6
 70
     0
 43
0.0
 10
84.76179246587776
 20
321.4404109920031
 10
84.33997046587774
 20
321.5336419920031
 10
83.65324846587782
 20
321.6397209920031
 10
82.58237146587794
 20
321.7533679920031
 10
81.11148546587788
 20
321.8423579920031
 10
79.79507146587775
 20
321.8670459920031
  0
LWPOLYLINE
  5
241
330
4D
100
AcDbEntity
  8
0
  6
Continuous
 62
     7
100
AcDbPolyline
 90
       18
 70
     0
 43
0.0
 10
95.37556146587781
 20
312.9802359920031
 10
94.99353446587793
 20
313.8032339920031
 10
94.54909946587782
 20
314.5982779920031
 10
94.04114246587778
 20
315.3677789920031
 10
93.47048646587791
 20
316.1097529920031
 10
92.94366146587777
 20
316.7098499920031
 10
92.24719746587789
 20
317.4076039920031
 10
91.48812546587783
 20
318.0705989920031
 10
90.8572814658778
 20
318.5589409920031
 10
90.0930984658778
 20
319.0869859920031
 10
89.1732524658778
 20
319.6441149920031
 10
88.63509046587774
 20
319.9354359920031
 10
88.07822846587783
 20
320.2126579920031
 10
87.5025074658779
 20
320.4754139920031
 10
86.90867346587788
 20
320.7228509920031
 10
86.29614746587777
 20
320.9547229920031
 10
85.66528046587791
 20
321.1702989920031
 10
85.01612546587785
 20
321.3690299920031
  0
LWPOLYLINE
  5
242
330
4D
100
AcDbEntity
  8
0
  6
Continuous
 62
     7
100
AcDbPolyline
 90
        6
 70
     0
 43
0.0
 10
96.19511146587774
 20
309.3093679920031
 10
96.06499946587792
 20
310.3492549920031
 10
95.88850846587775
 20
311.3064689920031
 10
95.7026104658778
 20
312.0427359920031
 10
95.47766546587877
 20
312.7232469920031
 10
95.37556146587781
 20
312.9802359920031
  0
LWPOLYLINE
  5
243
330
4D
100
AcDbEntity
  8
0
  6
Continuous
 62
     2
100
AcDbPolyline
 90
        6
 70
     0
 43
0.0
 10
328.0955559188089
 20
277.4170799920031
 10
328.0947319188088
 20
277.4179339920031
 10
328.0940759188088
 20
277.4198419920031
 10
328.0912989188089
 20
277.4401819920031
 10
328.0857289188089
 20
277.5559649920031
 10
328.0813499188089
 20
277.9260829920031
  0
LWPOLYLINE
  5
244
330
4D
100
AcDbEntity
  8
0
  6
Continuous
 62
     2
100
AcDbPolyline
 90
        9
 70
     0
 43
0.0
 10
344.026250918809
 20
299.0754199920031
 10
344.5343989188089
 20
297.0209159920031
 10
345.002202918809
 20
294.9418449920031
 10
345.4256499188089
 20
292.8401299920031
 10
345.7820339188088
 20
290.8335069920031
 10
346.0934959188089
 20
288.8061639920031
 10
346.3577479188089
 20
286.7595329920031
 10
346.5729729188088
 20
284.6956599920031
 10
346.7104314196467
 20
283.0139004752991
  0
LWPOLYLINE
  5
245
330
4D
100
AcDbEntity
  8
0
  6
Continuous
 62
     2
100
AcDbPolyline
 90
       21
 70
     0
 43
0.0
 10
331.0764372771318
 20
309.8522479526121
 10
332.6662959188088
 20
309.2489129920031
 10
334.2083949188088
 20
308.5960499920031
 10
335.3167019188088
 20
308.0807609920031
 10
336.5018209188088
 20
307.4720269920031
 10
337.0902769188087
 20
307.1424979920031
 10
337.6741689188089
 20
306.7945979920031
 10
338.2519279188089
 20
306.4269829920031
 10
338.8218439188088
 20
306.0381579920031
 10
339.3820249188088
 20
305.6265679920031
 10
339.9303639188088
 20
305.1904719920031
 10
340.6950429188089
 20
304.5151179920031
 10
341.0639859188088
 20
304.1548579920031
 10
341.422322918809
 20
303.7786369920031
 10
341.8810019188088
 20
303.2511399920031
 10
342.3141379188089
 20
302.6931269920031
 10
342.7173369188088
 20
302.1038019920031
 10
343.1306969188088
 20
301.4001579920031
 10
343.4919339188089
 20
300.6576959920031
 10
343.792912918809
 20
299.8804429920031
 10
344.026250918809
 20
299.0754199920031
  0
LWPOLYLINE
  5
246
330
4D
100
AcDbEntity
  8
0
  6
Continuous
 62
     2
100
AcDbPolyline
 90
       15
 70
     0
 43
0.0
 10
259.3447319188088
 20
321.4086109920031
 10
262.1178029188088
 20
321.1795159920031
 10
264.8950099188089
 20
320.9282649920031
 10
269.5479029188089
 20
320.4614369920031
 10
274.2098439188089
 20
319.9406239920031
 10
278.8796139188089
 20
319.3705859920031
 10
282.2154599188089
 20
318.9362909920031
 10
285.5543269188088
 20
318.4807849920031
 10
289.2382559188088
 20
317.9557299920031
 10
292.9250239188089
 20
317.4084279920031
 10
297.1247309188088
 20
316.7604179920031
 10
301.3230039188088
 20
316.0885119920031
 10
305.6011709188088
 20
315.3809319920031
 10
309.8851529188089
 20
314.6508289920031
 10
315.5724427279199
 20
313.6507868187451
  0
LWPOLYLINE
  5
247
330
4D
100
AcDbEntity
  8
0
  6
Continuous
 62
     2
100
AcDbPolyline
 90
       11
 70
     0
 43
0.0
 10
311.2061059188088
 20
311.4905509920031
 10
306.944386918809
 20
312.4122729920031
 10
302.6610619188089
 20
313.2809869920031
 10
298.3619139188088
 20
314.0978509920031
 10
294.0451719188088
 20
314.8660389920031
 10
291.160252918809
 20
315.3523369920031
 10
288.2719939188089
 20
315.8188899920031
 10
282.4910329188087
 20
316.6970939920031
 10
276.713750918809
 20
317.5100819920031
 10
272.4045309188089
 20
318.0815539920031
 10
268.1121879188088
 20
318.6270869920031
  0
LWPOLYLINE
  5
248
330
4D
100
AcDbEntity
  8
0
  6
Continuous
 62
     2
100
AcDbPolyline
 90
       19
 70
     0
 43
0.0
 10
322.618337918809
 20
303.0631219920031
 10
322.3483029188089
 20
303.7327079920031
 10
322.0301259188088
 20
304.4071769920031
 10
321.6023619188088
 20
305.1704219920031
 10
321.1074889188089
 20
305.9045519920031
 10
320.5504209188089
 20
306.5943109920031
 10
320.013188918809
 20
307.1591299920031
 10
319.4421439188088
 20
307.6781729920031
 10
319.0432799188088
 20
308.0012019920031
 10
318.6341459188088
 20
308.3046379920031
 10
318.2164669188089
 20
308.5895799920031
 10
317.791875918809
 20
308.8571889920031
 10
316.9276639188088
 20
309.3457759920031
 10
315.9577079188089
 20
309.8250239920031
 10
314.9794369188089
 20
310.2542229920031
 10
313.9949699188089
 20
310.6434439920031
 10
313.0017449188088
 20
310.9943959920031
 10
312.1098989188088
 20
311.2650259920031
 10
311.2061059188088
 20
311.4905509920031
  0
LWPOLYLINE
  5
249
330
4D
100
AcDbEntity
  8
0
  6
Continuous
 62
     2
100
AcDbPolyline
 90
       18
 70
     0
 43
0.0
 10
328.0813499188089
 20
277.9260829920031
 10
328.0183619188088
 20
280.4993699920031
 10
327.9720359188088
 20
281.6222039920031
 10
327.8669489188089
 20
283.3805659920031
 10
327.7135979188088
 20
285.1294669920031
 10
327.5041409188088
 20
286.8643909920031
 10
327.3038689188088
 20
288.1743889920031
 10
327.0680289188088
 20
289.4704699920031
 10
326.7973989188088
 20
290.7513539920031
 10
326.5726529188089
 20
291.7016409920031
 10
326.3303579188089
 20
292.6429859920031
 10
325.7980099188089
 20
294.4992789920031
 10
325.4606679188089
 20
295.5689199920031
 10
325.1063439188088
 20
296.6288569920031
 10
324.6402489188088
 20
297.9475519920031
 10
324.1555989188089
 20
299.2490039920031
 10
323.3994499188088
 20
301.1743889920031
 10
322.618337918809
 20
303.0631219920031
  0
LWPOLYLINE
  5
24A
330
4D
100
AcDbEntity
  8
0
  6
Continuous
 62
     7
100
AcDbPolyline
 90
       14
 70
     0
 43
0.0
 10
346.0435003295918
 20
397.1770505861371
 10
345.9028443295917
 20
397.1631955861372
 10
345.7588783295919
 20
397.1231265861372
 10
345.6048553295927
 20
397.0538515861372
 10
345.4503603295918
 20
396.9588195861372
 10
345.1542483295918
 20
396.7083615861373
 10
344.873227329593
 20
396.3856995861372
 10
344.7103393295918
 20
396.1561765861373
 10
344.5581033295928
 20
395.9076415861371
 10
344.2919743295918
 20
395.3643065861372
 10
344.0864083295919
 20
394.7747985861372
 10
343.9506653295928
 20
394.1552915861371
 10
343.891110329593
 20
393.5197025861371
 10
343.8885473295929
 20
393.3572265861371
  0
LWPOLYLINE
  5
24B
330
4D
100
AcDbEntity
  8
0
  6
Continuous
 62
     7
100
AcDbPolyline
 90
        9
 70
     0
 43
0.0
 10
347.1001413295928
 20
395.780810586137
 10
347.0141273295928
 20
396.0953855861371
 10
346.9115423295918
 20
396.3819455861372
 10
346.8200203295919
 20
396.5804315861372
 10
346.7175573295929
 20
396.7550845861372
 10
346.5866063295928
 20
396.921862586137
 10
346.4416173295929
 20
397.0490905861373
 10
346.2503023295928
 20
397.1453125861372
 10
346.0435003295918
 20
397.1770505861371
  0
LWPOLYLINE
  5
24C
330
4D
100
AcDbEntity
  8
0
  6
Continuous
 62
     7
100
AcDbPolyline
 90
        9
 70
     0
 43
0.0
 10
346.6096773295928
 20
395.4178645861371
 10
346.4758123295919
 20
395.8172785861373
 10
346.3049293295928
 20
396.1519345861373
 10
346.2031983295919
 20
396.2916135861372
 10
346.0915803295918
 20
396.4077335861371
 10
345.974759329592
 20
396.4956845861373
 10
345.8496833295928
 20
396.5586725861372
 10
345.7215393295919
 20
396.595110586137
 10
345.5876283295918
 20
396.6072265861371
  0
LWPOLYLINE
  5
24D
330
4D
100
AcDbEntity
  8
0
  6
Continuous
 62
     7
100
AcDbPolyline
 90
        4
 70
     0
 43
0.0
 10
346.8664523295918
 20
393.3572265861371
 10
346.8366063295928
 20
394.0846735861371
 10
346.7489293295928
 20
394.7825495861371
 10
346.6096773295928
 20
395.4178645861371
  0
LWPOLYLINE
  5
24E
330
4D
100
AcDbEntity
  8
0
  6
Continuous
 62
     7
100
AcDbPolyline
 90
        5
 70
     0
 43
0.0
 10
347.3595253295928
 20
393.3572265861371
 10
347.3343483295928
 20
394.1387205861372
 10
347.2600683295927
 20
394.8957705861371
 10
347.1886723295918
 20
395.352404586137
 10
347.1001413295928
 20
395.780810586137
  0
LWPOLYLINE
  5
24F
330
4D
100
AcDbEntity
  8
0
  6
Continuous
 62
     7
100
AcDbPolyline
 90
       11
 70
     0
 43
0.0
 10
344.0146913295928
 20
393.3572265861371
 10
344.0438663295929
 20
393.879839586137
 10
344.130032329593
 20
394.3928705861372
 10
344.2690403295919
 20
394.8855465861373
 10
344.453687329592
 20
395.3451415861371
 10
344.6735353295928
 20
395.7566095861371
 10
344.914380329592
 20
396.1029845861372
 10
345.1571173295918
 20
396.3664735861371
 10
345.3348053295929
 20
396.5071595861371
 10
345.5009283295929
 20
396.5911745861372
 10
345.5876283295918
 20
396.6072265861371
  0
LWPOLYLINE
  5
250
330
4D
100
AcDbEntity
  8
0
  6
Continuous
 62
     7
100
AcDbPolyline
 90
        5
 70
     0
 43
0.0
 10
323.4132446516269
 20
409.738172751672
 10
321.7664003295929
 20
409.5510435861372
 10
319.8965583295928
 20
409.407000586137
 10
315.1154153295918
 20
409.0496395861371
 10
311.2705813295918
 20
408.7241085861372
  0
LWPOLYLINE
  5
251
330
4D
100
AcDbEntity
  8
0
  6
Continuous
 62
     7
100
AcDbPolyline
 90
       14
 70
     0
 43
0.0
 10
343.8885473295929
 20
393.3572265861371
 10
343.891110329593
 20
393.1947505861372
 10
343.9506653295928
 20
392.5591615861372
 10
344.0864083295919
 20
391.9396545861371
 10
344.2919743295918
 20
391.3501465861371
 10
344.5581033295928
 20
390.8068115861372
 10
344.7103393295918
 20
390.558276586137
 10
344.873227329593
 20
390.3287535861373
 10
345.1542483295918
 20
390.006091586137
 10
345.4503603295918
 20
389.7556335861371
 10
345.6048553295927
 20
389.6606015861371
 10
345.7588783295919
 20
389.591326586137
 10
345.9028443295917
 20
389.5512575861371
 10
346.0435003295918
 20
389.5374025861372
  0
LWPOLYLINE
  5
252
330
4D
100
AcDbEntity
  8
0
  6
Continuous
 62
     7
100
AcDbPolyline
 90
        5
 70
     0
 43
0.0
 10
311.2705813295918
 20
377.9903445861371
 10
315.1154153295918
 20
377.6648135861372
 10
319.8965583295928
 20
377.3074525861373
 10
321.7664003295929
 20
377.1634095861371
 10
323.4132446516269
 20
376.9762804206023
  0
LWPOLYLINE
  5
253
330
4D
100
AcDbEntity
  8
0
  6
Continuous
 62
     7
100
AcDbPolyline
 90
       11
 70
     0
 43
0.0
 10
345.5876283295918
 20
390.1072265861371
 10
345.5009283295929
 20
390.1232785861371
 10
345.3348053295929
 20
390.2072935861372
 10
345.1571173295918
 20
390.3479795861372
 10
344.914380329592
 20
390.6114685861371
 10
344.6735353295928
 20
390.9578435861372
 10
344.453687329592
 20
391.3693115861372
 10
344.2690403295919
 20
391.8289065861373
 10
344.130032329593
 20
392.3215825861371
 10
344.0438663295929
 20
392.8346135861373
 10
344.0146913295928
 20
393.3572265861371
  0
LWPOLYLINE
  5
254
330
4D
100
AcDbEntity
  8
0
  6
Continuous
 62
     7
100
AcDbPolyline
 90
        5
 70
     0
 43
0.0
 10
347.1001413295928
 20
390.9336425861373
 10
347.1886723295918
 20
391.3620485861373
 10
347.2600683295927
 20
391.8186825861371
 10
347.3343483295928
 20
392.5757325861371
 10
347.3595253295928
 20
393.3572265861371
  0
LWPOLYLINE
  5
255
330
4D
100
AcDbEntity
  8
0
  6
Continuous
 62
     7
100
AcDbPolyline
 90
        4
 70
     0
 43
0.0
 10
346.6096773295928
 20
391.296588586137
 10
346.7489293295928
 20
391.931903586137
 10
346.8366063295928
 20
392.6297795861372
 10
346.8664523295918
 20
393.3572265861371
  0
LWPOLYLINE
  5
256
330
4D
100
AcDbEntity
  8
0
  6
Continuous
 62
     7
100
AcDbPolyline
 90
        9
 70
     0
 43
0.0
 10
345.5876283295918
 20
390.1072265861371
 10
345.7215393295919
 20
390.1193425861373
 10
345.8496833295928
 20
390.1557805861371
 10
345.974759329592
 20
390.2187685861372
 10
346.0915803295918
 20
390.306719586137
 10
346.2031983295919
 20
390.4228395861371
 10
346.3049293295928
 20
390.5625185861372
 10
346.4758123295919
 20
390.8971745861372
 10
346.6096773295928
 20
391.296588586137
  0
LWPOLYLINE
  5
257
330
4D
100
AcDbEntity
  8
0
  6
Continuous
 62
     7
100
AcDbPolyline
 90
        9
 70
     0
 43
0.0
 10
346.0435003295918
 20
389.5374025861372
 10
346.2503023295928
 20
389.5691405861374
 10
346.4416173295929
 20
389.6653625861373
 10
346.5866063295928
 20
389.7925905861373
 10
346.7175573295929
 20
389.9593685861371
 10
346.8200203295919
 20
390.1340215861371
 10
346.9115423295918
 20
390.3325075861371
 10
347.0141273295928
 20
390.6190675861372
 10
347.1001413295928
 20
390.9336425861373
  0
ENDBLK
  5
4F
330
4D
100
AcDbEntity
  8
0
100
AcDbBlockEnd
  0
BLOCK
  5
51
330
50
100
AcDbEntity
  8
0
100
AcDbBlockBegin
  2
82-20-_色_
 70
     0
 10
103.1307842281619
 20
217.8091693229386
 30
0.0
  3
82-20-_色_
  1

  0
LINE
  5
258
330
50
100
AcDbEntity
  8
1
  6
Continuous
 62
     7
100
AcDbLine
 10
67.4980592911179
 20
161.4170829920036
 30
0.0
 11
92.0980592911178
 21
161.4170829920019
 31
0.0
  0
LINE
  5
259
330
50
100
AcDbEntity
  8
1
  6
Continuous
 62
     7
100
AcDbLine
 10
69.05236070387195
 20
147.9170829920036
 30
0.0
 11
90.54375787836375
 21
147.917082992004
 31
0.0
  0
LINE
  5
25A
330
50
100
AcDbEntity
  8
1
  6
Continuous
 62
     7
100
AcDbLine
 10
92.29805929111785
 20
151.4170829920037
 30
0.0
 11
92.29805929111785
 21
161.2170829920039
 31
0.0
  0
LINE
  5
25B
330
50
100
AcDbEntity
  8
1
  6
Continuous
 62
     7
100
AcDbLine
 10
91.50528182600374
 20
148.6423618641064
 30
0.0
 11
92.29805929111785
 21
151.4170829920037
 31
0.0
  0
LINE
  5
25C
330
50
100
AcDbEntity
  8
1
  6
Continuous
 62
     7
100
AcDbLine
 10
68.09083675623083
 20
148.6423618641064
 30
0.0
 11
67.29805929111785
 21
151.4170829920036
 31
0.0
  0
LINE
  5
25D
330
50
100
AcDbEntity
  8
1
  6
Continuous
 62
     7
100
AcDbLine
 10
67.29805929111785
 20
151.4170829920036
 30
0.0
 11
67.29805929111785
 21
161.2170829920037
 31
0.0
  0
LINE
  5
25E
330
50
100
AcDbEntity
  8
1
  6
Continuous
 62
     7
100
AcDbLine
 10
67.29805929111785
 20
151.4170829920036
 30
0.0
 11
92.29805929111785
 21
151.4170829920037
 31
0.0
  0
LINE
  5
25F
330
50
100
AcDbEntity
  8
1
  6
Continuous
 62
     7
100
AcDbLine
 10
131.9099209188089
 20
161.4170829920036
 30
0.0
 11
156.5099209188088
 21
161.417082992002
 31
0.0
  0
LINE
  5
260
330
50
100
AcDbEntity
  8
1
  6
Continuous
 62
     7
100
AcDbLine
 10
133.4642223315639
 20
147.9170829920037
 30
0.0
 11
154.9556195060548
 21
147.917082992004
 31
0.0
  0
LINE
  5
261
330
50
100
AcDbEntity
  8
1
  6
Continuous
 62
     7
100
AcDbLine
 10
156.7099209188098
 20
151.4170829920037
 30
0.0
 11
156.7099209188098
 21
161.217082992004
 31
0.0
  0
LINE
  5
262
330
50
100
AcDbEntity
  8
1
  6
Continuous
 62
     7
100
AcDbLine
 10
155.9171434536959
 20
148.6423618641064
 30
0.0
 11
156.7099209188098
 21
151.4170829920037
 31
0.0
  0
LINE
  5
263
330
50
100
AcDbEntity
  8
1
  6
Continuous
 62
     7
100
AcDbLine
 10
132.502698383923
 20
148.6423618641063
 30
0.0
 11
131.7099209188089
 21
151.4170829920036
 31
0.0
  0
LINE
  5
264
330
50
100
AcDbEntity
  8
1
  6
Continuous
 62
     7
100
AcDbLine
 10
131.7099209188089
 20
151.4170829920036
 30
0.0
 11
131.7099209188089
 21
161.2170829920037
 31
0.0
  0
LINE
  5
265
330
50
100
AcDbEntity
  8
1
  6
Continuous
 62
     7
100
AcDbLine
 10
131.7099209188089
 20
151.4170829920036
 30
0.0
 11
156.7099209188098
 21
151.4170829920037
 31
0.0
  0
ARC
  5
266
330
50
100
AcDbEntity
  8
1
  6
Continuous
 62
     7
100
AcDbCircle
 10
69.05236070387195
 20
148.9170829920036
 30
0.0
 40
1.000000000000245
100
AcDbArc
 50
195.9453959009087
 51
270.0
  0
ARC
  5
267
330
50
100
AcDbEntity
  8
1
  6
Continuous
 62
     7
100
AcDbCircle
 10
90.54375787836375
 20
148.917082992004
 30
0.0
 40
1.0
100
AcDbArc
 50
270.0
 51
344.0546040990515
  0
ARC
  5
268
330
50
100
AcDbEntity
  8
1
  6
Continuous
 62
     7
100
AcDbCircle
 10
67.4980592911179
 20
161.2170829920036
 30
0.0
 40
0.1999999999999886
100
AcDbArc
 50
90.0
 51
179.9999999999756
  0
ARC
  5
269
330
50
100
AcDbEntity
  8
1
  6
Continuous
 62
     7
100
AcDbCircle
 10
92.0980592911178
 20
161.2170829920039
 30
0.0
 40
0.2000000000000455
100
AcDbArc
 50
0.0
 51
90.0
  0
ARC
  5
26A
330
50
100
AcDbEntity
  8
1
  6
Continuous
 62
     7
100
AcDbCircle
 10
133.4642223315639
 20
148.9170829920037
 30
0.0
 40
1.000000000000081
100
AcDbArc
 50
195.9453959009233
 51
270.0
  0
ARC
  5
26B
330
50
100
AcDbEntity
  8
1
  6
Continuous
 62
     7
100
AcDbCircle
 10
154.9556195060548
 20
148.917082992004
 30
0.0
 40
1.0
100
AcDbArc
 50
270.0
 51
344.0546040990689
  0
ARC
  5
26C
330
50
100
AcDbEntity
  8
1
  6
Continuous
 62
     7
100
AcDbCircle
 10
131.9099209188089
 20
161.2170829920035
 30
0.0
 40
0.2000000000001023
100
AcDbArc
 50
90.0
 51
179.999999999943
  0
ARC
  5
26D
330
50
100
AcDbEntity
  8
1
  6
Continuous
 62
     7
100
AcDbCircle
 10
156.5099209188088
 20
161.2170829920039
 30
0.0
 40
0.2000000000009834
100
AcDbArc
 50
0.00000000003257
 51
90.0
  0
ENDBLK
  5
52
330
50
100
AcDbEntity
  8
0
100
AcDbBlockEnd
  0
BLOCK
  5
54
330
53
100
AcDbEntity
  8
0
100
AcDbBlockBegin
  2
84-359-_色_
 70
     0
 10
598.2099209188088
 20
150.4170829920038
 30
0.0
  3
84-359-_色_
  1

  0
LINE
  5
26E
330
53
100
AcDbEntity
  8
11
  6
Continuous
 62
     7
100
AcDbLine
 10
90.79805929111785
 20
161.9170829920038
 30
0.0
 11
92.29805929111785
 21
161.9170829920038
 31
0.0
  0
LINE
  5
26F
330
53
100
AcDbEntity
  8
11
  6
Continuous
 62
     7
100
AcDbLine
 10
90.79805929111785
 20
161.4170829920019
 30
0.0
 11
90.79805929111785
 21
161.9170829920038
 31
0.0
  0
LINE
  5
270
330
53
100
AcDbEntity
  8
11
  6
Continuous
 62
     7
100
AcDbLine
 10
68.79805929111785
 20
161.4170829920019
 30
0.0
 11
68.79805929111785
 21
161.9170829920038
 31
0.0
  0
LINE
  5
271
330
53
100
AcDbEntity
  8
11
  6
Continuous
 62
     7
100
AcDbLine
 10
67.29805929111785
 20
161.9170829920038
 30
0.0
 11
68.79805929111785
 21
161.9170829920038
 31
0.0
  0
LINE
  5
272
330
53
100
AcDbEntity
  8
11
  6
Continuous
 62
     7
100
AcDbLine
 10
68.79805929111785
 20
161.9170829920038
 30
0.0
 11
90.79805929111785
 21
161.9170829920038
 31
0.0
  0
LINE
  5
273
330
53
100
AcDbEntity
  8
11
  6
Continuous
 62
     7
100
AcDbLine
 10
67.29805929111785
 20
161.9170829920038
 30
0.0
 11
67.29805929111785
 21
172.5483003620038
 31
0.0
  0
LINE
  5
274
330
53
100
AcDbEntity
  8
11
  6
Continuous
 62
     7
100
AcDbLine
 10
92.29805929111785
 20
161.9170829920038
 30
0.0
 11
92.29805929111785
 21
172.5487522020038
 31
0.0
  0
LINE
  5
275
330
53
100
AcDbEntity
  8
11
  6
Continuous
 62
     7
100
AcDbLine
 10
93.99032390111779
 20
182.3910035720038
 30
0.0
 11
94.40558683111794
 21
181.4126200220039
 31
0.0
  0
LINE
  5
276
330
53
100
AcDbEntity
  8
11
  6
Continuous
 62
     7
100
AcDbLine
 10
93.30205539111785
 20
183.1260691120038
 30
0.0
 11
93.99032390111779
 21
182.3910035720038
 31
0.0
  0
LINE
  5
277
330
53
100
AcDbEntity
  8
11
  6
Continuous
 62
     7
100
AcDbLine
 10
94.4082210119359
 20
179.9035741712608
 30
0.0
 11
93.2169740011168
 21
175.5092236920039
 31
0.0
  0
LINE
  5
278
330
53
100
AcDbEntity
  8
11
  6
Continuous
 62
     7
100
AcDbLine
 10
93.2169740011168
 20
175.5092236920039
 30
0.0
 11
92.29805929111785
 21
172.5487522020038
 31
0.0
  0
LINE
  5
279
330
53
100
AcDbEntity
  8
11
  6
Continuous
 62
     7
100
AcDbLine
 10
91.78556209111775
 20
171.1306543720039
 30
0.0
 11
90.68423821943679
 21
168.4481649507939
 31
0.0
  0
LINE
  5
27A
330
53
100
AcDbEntity
  8
11
  6
Continuous
 62
     7
100
AcDbLine
 10
68.35521172111794
 20
169.7311655720039
 30
0.0
 11
67.78734113111796
 21
171.1198205820038
 31
0.0
  0
LINE
  5
27B
330
53
100
AcDbEntity
  8
11
  6
Continuous
 62
     7
100
AcDbLine
 10
67.29805929111785
 20
172.5483003620038
 30
0.0
 11
66.60274004111784
 21
174.7676228920038
 31
0.0
  0
LINE
  5
27C
330
53
100
AcDbEntity
  8
11
  6
Continuous
 62
     7
100
AcDbLine
 10
66.60274004111784
 20
174.7676228920038
 30
0.0
 11
65.5533511511178
 21
178.4550562120039
 31
0.0
  0
LINE
  5
27D
330
53
100
AcDbEntity
  8
11
  6
Continuous
 62
     7
100
AcDbLine
 10
65.5533511511178
 20
178.4550562120039
 30
0.0
 11
65.18807184111779
 21
179.9036083320038
 31
0.0
  0
LINE
  5
27E
330
53
100
AcDbEntity
  8
11
  6
Continuous
 62
     7
100
AcDbLine
 10
65.18807184111779
 20
179.9036083320038
 30
0.0
 11
65.10271765111793
 21
180.6664893920038
 31
0.0
  0
LINE
  5
27F
330
53
100
AcDbEntity
  8
11
  6
Continuous
 62
     7
100
AcDbLine
 10
65.18811650111775
 20
181.4171108220039
 30
0.0
 11
65.43214576111791
 21
182.0927073120038
 31
0.0
  0
LINE
  5
280
330
53
100
AcDbEntity
  8
123
  6
Continuous
 62
     7
100
AcDbLine
 10
133.2099209188089
 20
161.9170829920038
 30
0.0
 11
144.2099209188089
 21
161.9170829920038
 31
0.0
  0
LINE
  5
281
330
53
100
AcDbEntity
  8
123
  6
Continuous
 62
     7
100
AcDbLine
 10
133.2099209188089
 20
161.4170829920038
 30
0.0
 11
133.2099209188089
 21
161.9170829920038
 31
0.0
  0
LINE
  5
282
330
53
100
AcDbEntity
  8
123
  6
Continuous
 62
     7
100
AcDbLine
 10
131.7099209188089
 20
162.1170829920038
 30
0.0
 11
131.7099209188089
 21
166.6634494420039
 31
0.0
  0
LINE
  5
283
330
53
100
AcDbEntity
  8
123
  6
Continuous
 62
     7
100
AcDbLine
 10
131.9099209188089
 20
161.9170829920038
 30
0.0
 11
133.2099209188089
 21
161.9170829920038
 31
0.0
  0
LINE
  5
284
330
53
100
AcDbEntity
  8
123
  6
Continuous
 62
     7
100
AcDbLine
 10
155.2099209188089
 20
161.9170829920038
 30
0.0
 11
156.5099209188088
 21
161.9170829920038
 31
0.0
  0
LINE
  5
285
330
53
100
AcDbEntity
  8
123
  6
Continuous
 62
     7
100
AcDbLine
 10
144.2099209188089
 20
161.9170829920038
 30
0.0
 11
155.2099209188089
 21
161.9170829920038
 31
0.0
  0
LINE
  5
286
330
53
100
AcDbEntity
  8
123
  6
Continuous
 62
     7
100
AcDbLine
 10
155.2099209188089
 20
161.4170829920038
 30
0.0
 11
155.2099209188089
 21
161.9170829920038
 31
0.0
  0
LINE
  5
287
330
53
100
AcDbEntity
  8
123
  6
Continuous
 62
     7
100
AcDbLine
 10
157.1949275488089
 20
163.3066326320038
 30
0.0
 11
157.0443219388089
 21
163.2772358820037
 31
0.0
  0
LINE
  5
288
330
53
100
AcDbEntity
  8
123
  6
Continuous
 62
     7
100
AcDbLine
 10
156.7099209188089
 20
162.1170829920038
 30
0.0
 11
156.7099209188089
 21
162.8068576220037
 31
0.0
  0
LINE
  5
289
330
53
100
AcDbEntity
  8
123
  6
Continuous
 62
     7
100
AcDbLine
 10
155.0645218388088
 20
164.7152936820037
 30
0.0
 11
156.7099209188089
 21
162.8068576220037
 31
0.0
  0
LINE
  5
28A
330
53
100
AcDbEntity
  8
123
  6
Continuous
 62
     7
100
AcDbLine
 10
173.4521708984119
 20
163.7943504311748
 30
0.0
 11
157.1949275488089
 21
163.3066326320038
 31
0.0
  0
LINE
  5
28B
330
53
100
AcDbEntity
  8
123
  6
Continuous
 62
     7
100
AcDbLine
 10
180.2099209188089
 20
182.2776309320038
 30
0.0
 11
180.2099209188089
 21
182.4170829920038
 31
0.0
  0
LINE
  5
28C
330
53
100
AcDbEntity
  8
123
  6
Continuous
 62
     7
100
AcDbLine
 10
180.2099209188089
 20
166.4170829920038
 30
0.0
 11
180.2099209188089
 21
180.3262369020038
 31
0.0
  0
LINE
  5
28D
330
53
100
AcDbEntity
  8
123
  6
Continuous
 62
     7
100
AcDbLine
 10
180.2099209188089
 20
165.0837496620038
 30
0.0
 11
180.2099209188089
 21
166.4170829920038
 31
0.0
  0
LINE
  5
28E
330
53
100
AcDbEntity
  8
123
  6
Continuous
 62
     7
100
AcDbLine
 10
180.2099209188089
 20
182.4170829920038
 30
0.0
 11
180.2099209188089
 21
183.7504163220037
 31
0.0
  0
LINE
  5
28F
330
53
100
AcDbEntity
  8
123
  6
Continuous
 62
     7
100
AcDbLine
 10
180.0459864888089
 20
164.8870283520039
 30
0.0
 11
174.9555841188089
 21
163.9537879120037
 31
0.0
  0
LINE
  5
290
330
53
100
AcDbEntity
  8
123
  6
Continuous
 62
     7
100
AcDbLine
 10
174.9555565188089
 20
184.8803831320036
 30
0.0
 11
180.0459864888089
 21
183.9471376320037
 31
0.0
  0
LINE
  5
291
330
53
100
AcDbEntity
  8
123
  6
Continuous
 62
     7
100
AcDbLine
 10
180.2099209188089
 20
180.3262369020038
 30
0.0
 11
180.2099209188089
 21
182.2776309320038
 31
0.0
  0
LINE
  5
292
330
53
100
AcDbEntity
  8
123
  6
Continuous
 62
     7
100
AcDbLine
 10
126.8246341588088
 20
186.4389083820036
 30
0.0
 11
173.4521990788089
 21
185.0398189120038
 31
0.0
  0
LINE
  5
293
330
53
100
AcDbEntity
  8
123
  6
Continuous
 62
     7
100
AcDbLine
 10
131.6738738688089
 20
166.8426227020039
 30
0.0
 11
131.6184195288088
 21
166.9517694220038
 31
0.0
  0
LINE
  5
294
330
53
100
AcDbEntity
  8
123
  6
Continuous
 62
     7
100
AcDbLine
 10
131.7099209188089
 20
166.6634494420039
 30
0.0
 11
131.6738738688089
 21
166.8426227020039
 31
0.0
  0
LINE
  5
295
330
53
100
AcDbEntity
  8
123
  6
Continuous
 62
     7
100
AcDbLine
 10
125.4944453995129
 20
182.9324899021667
 30
0.0
 11
125.2828803388088
 21
184.8410850320036
 31
0.0
  0
LINE
  5
296
330
53
100
AcDbEntity
  8
123
  6
Continuous
 62
     7
100
AcDbLine
 10
131.6184195288088
 20
166.9517694220038
 30
0.0
 11
129.6458675688089
 21
170.2470722620037
 31
0.0
  0
LINE
  5
297
330
53
100
AcDbEntity
  8
1
  6
DASH_CENTER
 62
     2
100
AcDbLine
 10
174.2828803295929
 20
382.7815610614725
 30
0.0
 11
174.2828803295929
 21
382.7572265861372
 31
0.0
  0
LINE
  5
298
330
53
100
AcDbEntity
  8
1
  6
Continuous
 62
     7
100
AcDbLine
 10
144.2828803295929
 20
380.2572265861372
 30
0.0
 11
133.4828803295929
 21
379.3572265861371
 31
0.0
  0
LINE
  5
299
330
53
100
AcDbEntity
  8
1
  6
Continuous
 62
     7
100
AcDbLine
 10
133.4828803295929
 20
407.3572265861374
 30
0.0
 11
144.2828803295929
 21
406.4572265861375
 31
0.0
  0
LINE
  5
29A
330
53
100
AcDbEntity
  8
1
  6
DASH_CENTER
 62
     2
100
AcDbLine
 10
133.4828803295929
 20
407.3572265861374
 30
0.0
 11
133.4828803295929
 21
407.3572265861374
 31
0.0
  0
LINE
  5
29B
330
53
100
AcDbEntity
  8
1
  6
DASH_CENTER
 62
     2
100
AcDbLine
 10
174.2828803295929
 20
403.9572265861373
 30
0.0
 11
174.2828803295929
 21
403.9329673060993
 31
0.0
  0
LINE
  5
29C
330
53
100
AcDbEntity
  8
1
  6
PHANTOM
 62
     5
100
AcDbLine
 10
174.2828803295929
 20
382.7572265861372
 30
0.0
 11
174.0850511474489
 21
382.7407408209586
 31
0.0
  0
LINE
  5
29D
330
53
100
AcDbEntity
  8
1
  6
Continuous
 62
     7
100
AcDbLine
 10
180.2828803295929
 20
403.3572265861371
 30
0.0
 11
174.4458240102799
 21
403.9409322180686
 31
0.0
  0
LINE
  5
29E
330
53
100
AcDbEntity
  8
1
  6
PHANTOM
 62
     5
100
AcDbLine
 10
174.2828803295929
 20
382.7572265861372
 30
0.0
 11
174.4458240102799
 21
382.7735209542061
 31
0.0
  0
LINE
  5
29F
330
53
100
AcDbEntity
  8
1
  6
Continuous
 62
     7
100
AcDbLine
 10
180.2828803295929
 20
383.3572265861371
 30
0.0
 11
180.2828803295929
 21
403.3572265861371
 31
0.0
  0
LINE
  5
2A0
330
53
100
AcDbEntity
  8
1
  6
PHANTOM
 62
     5
100
AcDbLine
 10
174.4458240102799
 20
403.9409322180686
 30
0.0
 11
174.2828803295929
 21
403.9572265861373
 31
0.0
  0
LINE
  5
2A1
330
53
100
AcDbEntity
  8
1
  6
Continuous
 62
     7
100
AcDbLine
 10
174.0850511474489
 20
382.7407408209586
 30
0.0
 11
144.2828803295929
 21
380.2572265861372
 31
0.0
  0
LINE
  5
2A2
330
53
100
AcDbEntity
  8
1
  6
Continuous
 62
     7
100
AcDbLine
 10
174.4458240102799
 20
382.7735209542061
 30
0.0
 11
180.2828803295929
 21
383.3572265861371
 31
0.0
  0
LINE
  5
2A3
330
53
100
AcDbEntity
  8
1
  6
PHANTOM
 62
     5
100
AcDbLine
 10
174.1196916822719
 20
403.9708506418583
 30
0.0
 11
174.2828803295929
 21
403.9572265861373
 31
0.0
  0
LINE
  5
2A4
330
53
100
AcDbEntity
  8
1
  6
Continuous
 62
     7
100
AcDbLine
 10
144.2828803295929
 20
406.4572265861375
 30
0.0
 11
174.1196916822719
 21
403.9708506418583
 31
0.0
  0
ARC
  5
2A5
330
53
100
AcDbEntity
  8
11
  6
Continuous
 62
     7
100
AcDbCircle
 10
91.27921222111786
 20
180.5462600520038
 30
0.0
 40
3.194329530000073
100
AcDbArc
 50
348.3931015399943
 51
2.10326843000585
  0
ARC
  5
2A6
330
53
100
AcDbEntity
  8
11
  6
Continuous
 62
     7
100
AcDbCircle
 10
92.30010665111786
 20
180.8502225420038
 30
0.0
 40
2.1792975299996
100
AcDbArc
 50
355.084710539988
 51
14.95519724999343
  0
ARC
  5
2A7
330
53
100
AcDbEntity
  8
11
  6
Continuous
 62
     7
100
AcDbCircle
 10
81.05941097111781
 20
175.8087165620039
 30
0.0
 40
11.70190514000011
100
AcDbArc
 50
336.4362441600018
 51
343.8242842699997
  0
ARC
  5
2A8
330
53
100
AcDbEntity
  8
11
  6
Continuous
 62
     7
100
AcDbCircle
 10
79.13993219111785
 20
173.7795199020038
 30
0.0
 40
12.71590922000033
100
AcDbArc
 50
320.48005084
 51
335.211711786203
  0
ARC
  5
2A9
330
53
100
AcDbEntity
  8
11
  6
Continuous
 62
     7
100
AcDbCircle
 10
79.87254474111796
 20
139.4764735520038
 30
0.0
 40
26.53818944000003
100
AcDbArc
 50
77.51993052999978
 51
92.0207704700007
  0
ARC
  5
2AA
330
53
100
AcDbEntity
  8
11
  6
Continuous
 62
     7
100
AcDbCircle
 10
79.35117765111795
 20
142.6701733320038
 30
0.0
 40
23.33166653999966
100
AcDbArc
 50
91.0177407200003
 51
106.9423473900034
  0
ARC
  5
2AB
330
53
100
AcDbEntity
  8
11
  6
Continuous
 62
     7
100
AcDbCircle
 10
81.6874643411179
 20
148.4586047620039
 30
0.0
 40
17.37691262000028
100
AcDbArc
 50
72.04580627000101
 51
76.96267833000071
  0
ARC
  5
2AC
330
53
100
AcDbEntity
  8
11
  6
Continuous
 62
     7
100
AcDbCircle
 10
87.50244609111792
 20
166.594786622004
 30
0.0
 40
1.66963779000017
100
AcDbArc
 50
254.0635345899955
 51
312.8371358400092
  0
ARC
  5
2AD
330
53
100
AcDbEntity
  8
11
  6
Continuous
 62
     7
100
AcDbCircle
 10
87.00153222111794
 20
167.2872292720038
 30
0.0
 40
2.520104109999369
100
AcDbArc
 50
310.4836121499944
 51
320.6043806500151
  0
ARC
  5
2AE
330
53
100
AcDbEntity
  8
11
  6
Continuous
 62
     7
100
AcDbCircle
 10
72.18342086111784
 20
166.8363245420038
 30
0.0
 40
1.918183239999997
100
AcDbArc
 50
216.7810532899888
 51
268.168285759998
  0
ARC
  5
2AF
330
53
100
AcDbEntity
  8
11
  6
Continuous
 62
     7
100
AcDbCircle
 10
72.1089171511178
 20
166.3541763620039
 30
0.0
 40
1.4351155500004
100
AcDbArc
 50
270.5266432499847
 51
287.9882833100069
  0
ARC
  5
2B0
330
53
100
AcDbEntity
  8
11
  6
Continuous
 62
     7
100
AcDbCircle
 10
82.10168774111776
 20
174.9473707220038
 30
0.0
 40
14.7028704400001
100
AcDbArc
 50
200.7796314799982
 51
206.0510677912193
  0
ARC
  5
2B1
330
53
100
AcDbEntity
  8
11
  6
Continuous
 62
     7
100
AcDbCircle
 10
92.5757493411179
 20
180.408362032004
 30
0.0
 40
26.47153535000057
100
AcDbArc
 50
197.2730071100004
 51
200.5416326500006
  0
ARC
  5
2B2
330
53
100
AcDbEntity
  8
11
  6
Continuous
 62
     7
100
AcDbCircle
 10
80.44259329111787
 20
173.7707555820038
 30
0.0
 40
12.69984645000025
100
AcDbArc
 50
204.5691048318467
 51
219.5284468599987
  0
ARC
  5
2B3
330
53
100
AcDbEntity
  8
11
  6
Continuous
 62
     7
100
AcDbCircle
 10
67.91715159111777
 20
181.0204055620038
 30
0.0
 40
2.658761680000151
100
AcDbArc
 50
127.6296091400061
 51
142.0712457399969
  0
ARC
  5
2B4
330
53
100
AcDbEntity
  8
11
  6
Continuous
 62
     7
100
AcDbCircle
 10
94.46688589111795
 20
162.4701025920038
 30
0.0
 40
35.04372627000011
100
AcDbArc
 50
144.8314925900004
 51
145.94791617
  0
ARC
  5
2B5
330
53
100
AcDbEntity
  8
11
  6
Continuous
 62
     7
100
AcDbCircle
 10
88.75089155111777
 20
178.356184782004
 30
0.0
 40
23.76075832999939
100
AcDbArc
 50
172.5984316200011
 51
174.4202046300015
  0
ARC
  5
2B6
330
53
100
AcDbEntity
  8
11
  6
Continuous
 62
     7
100
AcDbCircle
 10
77.58660715111796
 20
167.2468705320039
 30
0.0
 40
19.48527475000006
100
AcDbArc
 50
110.8131961599992
 51
125.4191997100033
  0
ARC
  5
2B7
330
53
100
AcDbEntity
  8
11
  6
Continuous
 62
     7
100
AcDbCircle
 10
79.7775583111179
 20
162.1100082220039
 30
0.0
 40
25.06640861000029
100
AcDbArc
 50
68.60487172000072
 51
111.3223252099991
  0
ARC
  5
2B8
330
53
100
AcDbEntity
  8
11
  6
Continuous
 62
     7
100
AcDbCircle
 10
79.87718555111792
 20
163.1024575020038
 30
0.0
 40
24.10751236000061
100
AcDbArc
 50
56.16004569999967
 51
67.96486310999984
  0
ARC
  5
2B9
330
53
100
AcDbEntity
  8
123
  6
Continuous
 62
     7
100
AcDbCircle
 10
131.9099209188089
 20
162.1170829920038
 30
0.0
 40
0.1999999999999886
100
AcDbArc
 50
180.0
 51
270.0
  0
ARC
  5
2BA
330
53
100
AcDbEntity
  8
123
  6
Continuous
 62
     7
100
AcDbCircle
 10
156.5099209188088
 20
162.1170829920038
 30
0.0
 40
0.1999999999999886
100
AcDbArc
 50
270.0
 51
0.0
  0
ARC
  5
2BB
330
53
100
AcDbEntity
  8
123
  6
Continuous
 62
     7
100
AcDbCircle
 10
157.2229059788087
 20
162.7962218120038
 30
0.0
 40
0.513095309999506
100
AcDbArc
 50
110.3682357799655
 51
178.8122461000493
  0
ARC
  5
2BC
330
53
100
AcDbEntity
  8
123
  6
Continuous
 62
     7
100
AcDbCircle
 10
173.1523049588088
 20
173.7898558020036
 30
0.0
 40
10.00000235999979
100
AcDbArc
 50
271.7183624600004
 51
280.3888580599982
  0
ARC
  5
2BD
330
53
100
AcDbEntity
  8
123
  6
Continuous
 62
     7
100
AcDbCircle
 10
180.0099209188088
 20
183.7504163220037
 30
0.0
 40
0.2000000000001023
100
AcDbArc
 50
0.0
 51
79.61114218001653
  0
ARC
  5
2BE
330
53
100
AcDbEntity
  8
123
  6
Continuous
 62
     7
100
AcDbCircle
 10
173.1522778388089
 20
175.0443170620038
 30
0.0
 40
10.00000049999985
100
AcDbArc
 50
79.61114278000174
 51
88.28132024000196
  0
ARC
  5
2BF
330
53
100
AcDbEntity
  8
123
  6
Continuous
 62
     7
100
AcDbCircle
 10
180.0099209188088
 20
165.0837496620038
 30
0.0
 40
0.2000000000005529
100
AcDbArc
 50
280.3888578199835
 51
0.0
  0
ARC
  5
2C0
330
53
100
AcDbEntity
  8
123
  6
Continuous
 62
     7
100
AcDbCircle
 10
198.7928435488088
 20
202.7133989720037
 30
0.0
 40
57.93118440000004
100
AcDbArc
 50
214.8729161199996
 51
220.9892925500002
  0
ARC
  5
2C1
330
53
100
AcDbEntity
  8
123
  6
Continuous
 62
     7
100
AcDbCircle
 10
162.2910174188089
 20
177.2665091120039
 30
0.0
 40
13.43481032999976
100
AcDbArc
 50
200.4710423200015
 51
214.8431533300015
  0
ARC
  5
2C2
330
53
100
AcDbEntity
  8
123
  6
Continuous
 62
     7
100
AcDbCircle
 10
127.5523579688088
 20
179.9271650520038
 30
0.0
 40
6.552280750000028
100
AcDbArc
 50
96.37666558000076
 51
100.7237848099996
  0
ARC
  5
2C3
330
53
100
AcDbEntity
  8
123
  6
Continuous
 62
     7
100
AcDbCircle
 10
128.148365328809
 20
182.2180560120035
 30
0.0
 40
4.526840690000767
100
AcDbArc
 50
113.6401091100003
 51
119.9177803100028
  0
ARC
  5
2C4
330
53
100
AcDbEntity
  8
123
  6
Continuous
 62
     7
100
AcDbCircle
 10
130.010592098809
 20
181.7985846420038
 30
0.0
 40
5.98638891000011
100
AcDbArc
 50
133.4902481100005
 51
138.2407621699966
  0
ARC
  5
2C5
330
53
100
AcDbEntity
  8
123
  6
Continuous
 62
     7
100
AcDbCircle
 10
133.4243781988089
 20
181.8292404120039
 30
0.0
 40
8.816809230000503
100
AcDbArc
 50
153.3383208899988
 51
156.5664363
  0
ARC
  5
2C6
330
53
100
AcDbEntity
  8
123
  6
Continuous
 62
     7
100
AcDbCircle
 10
141.8166422688089
 20
183.3562202920039
 30
0.0
 40
16.60030443000059
100
AcDbArc
 50
173.152047469999
 51
174.8681457900011
  0
ARC
  5
2C7
330
53
100
AcDbEntity
  8
123
  6
Continuous
 62
     7
100
AcDbCircle
 10
148.7501494588089
 20
185.5240311620037
 30
0.0
 40
23.39965507000036
100
AcDbArc
 50
186.3586241600009
 51
195.7571664900001
  0
ARC
  5
2C8
330
53
100
AcDbEntity
  8
123
  6
Continuous
 62
     7
100
AcDbCircle
 10
151.7059264588088
 20
184.3921651820038
 30
0.0
 40
26.00590304000006
100
AcDbArc
 50
191.5850457000011
 51
204.2662383900004
  0
ARC
  5
2C9
330
53
100
AcDbEntity
  8
123
  6
Continuous
 62
     7
100
AcDbCircle
 10
143.5781426588089
 20
179.0101850320039
 30
0.0
 40
16.45905327000021
100
AcDbArc
 50
198.8061261099996
 51
212.16904343
  0
ARC
  5
2CA
330
53
100
AcDbEntity
  8
123
  6
Continuous
 62
     7
100
AcDbCircle
 10
110.5166557288089
 20
113.6353854220038
 30
0.0
 40
57.10630493000004
100
AcDbArc
 50
66.1132177400002
 51
68.21532167999965
  0
ARC
  5
2CB
330
53
100
AcDbEntity
  8
123
  6
Continuous
 62
     7
100
AcDbCircle
 10
125.6507544388089
 20
164.8451958620037
 30
0.0
 40
25.26319433000033
100
AcDbArc
 50
17.79967665999886
 51
26.53330698000071
  0
ARC
  5
2CC
330
53
100
AcDbEntity
  8
123
  6
Continuous
 62
     7
100
AcDbCircle
 10
142.0774203088088
 20
173.1178832820037
 30
0.0
 40
6.871403030000292
100
AcDbArc
 50
26.00566696000197
 51
45.64134692999485
  0
ARC
  5
2CD
330
53
100
AcDbEntity
  8
123
  6
Continuous
 62
     7
100
AcDbCircle
 10
145.1786938788089
 20
176.3189309420038
 30
0.0
 40
2.414566869999839
100
AcDbArc
 50
45.15099630998854
 51
93.3362003700065
  0
ARC
  5
2CE
330
53
100
AcDbEntity
  8
123
  6
Continuous
 62
     7
100
AcDbCircle
 10
145.441418788809
 20
175.4557525120038
 30
0.0
 40
3.298394749999786
100
AcDbArc
 50
97.0221729599989
 51
127.5083354700042
  0
ARC
  5
2CF
330
53
100
AcDbEntity
  8
123
  6
Continuous
 62
     7
100
AcDbCircle
 10
148.5450017788089
 20
171.2889090320039
 30
0.0
 40
8.493836970000011
100
AcDbArc
 50
127.0015243500011
 51
142.933502900004
  0
ARC
  5
2D0
330
53
100
AcDbEntity
  8
123
  6
Continuous
 62
     7
100
AcDbCircle
 10
159.2771050788088
 20
163.3460011820037
 30
0.0
 40
21.84528555999979
100
AcDbArc
 50
143.2764304899986
 51
157.2116802100002
  0
ARC
  5
2D1
330
53
100
AcDbEntity
  8
123
  6
Continuous
 62
     7
100
AcDbCircle
 10
128.2608733688089
 20
176.6327501320038
 30
0.0
 40
11.89855447000032
100
AcDbArc
 50
330.2347974099991
 51
336.0743651100008
  0
ARC
  5
2D2
330
53
100
AcDbEntity
  8
123
  6
Continuous
 62
     7
100
AcDbCircle
 10
112.8333309788088
 20
186.0588014320038
 30
0.0
 40
29.97480180000042
100
AcDbArc
 50
320.4725657100007
 51
329.2341130599985
  0
ARC
  5
2D3
330
53
100
AcDbEntity
  8
123
  6
Continuous
 62
     7
100
AcDbCircle
 10
133.0726526188089
 20
169.1534427220038
 30
0.0
 40
3.607903269999432
100
AcDbArc
 50
296.3191542299945
 51
322.9852434399999
  0
ARC
  5
2D4
330
53
100
AcDbEntity
  8
123
  6
Continuous
 62
     7
100
AcDbCircle
 10
134.0816503488088
 20
167.0017678120037
 30
0.0
 40
1.232912090000155
100
AcDbArc
 50
249.0465619600295
 51
298.6241647299949
  0
ARC
  5
2D5
330
53
100
AcDbEntity
  8
1
  6
Continuous
 62
     7
100
AcDbCircle
 10
172.4557496298598
 20
402.6742647584058
 30
0.0
 40
19.99999999999997
100
AcDbArc
 50
274.6727833109614
 51
275.7105931375
  0
ARC
  5
2D6
330
53
100
AcDbEntity
  8
1
  6
Continuous
 62
     7
100
AcDbCircle
 10
141.3340998417878
 20
393.3572265861374
 30
0.0
 40
16.05121951219502
100
AcDbArc
 50
119.2837690824661
 51
240.7162309175345
  0
ENDBLK
  5
55
330
53
100
AcDbEntity
  8
0
100
AcDbBlockEnd
  0
BLOCK
  5
57
330
56
100
AcDbEntity
  8
0
100
AcDbBlockBegin
  2
60-7A-_長さ_-M2
 70
     0
 10
318.1088760641749
 20
136.195323416723
 30
0.0
  3
60-7A-_長さ_-M2
  1

  0
LINE
  5
2D7
330
56
100
AcDbEntity
  8
1
  6
Continuous
 62
     7
100
AcDbLine
 10
71.79805929111785
 20
185.8586166998347
 30
0.0
 11
71.79805929111785
 21
206.9170829920038
 31
0.0
  0
LINE
  5
2D8
330
56
100
AcDbEntity
  8
1
  6
Continuous
 62
     7
100
AcDbLine
 10
87.79805929111785
 20
206.9170829920038
 30
0.0
 11
87.79805929111785
 21
185.8586166998347
 31
0.0
  0
LINE
  5
2D9
330
56
100
AcDbEntity
  8
1
  6
Continuous
 62
     7
100
AcDbLine
 10
266.6161110515118
 20
385.3572265861371
 30
0.0
 11
180.2828803295918
 21
385.3572265861371
 31
0.0
  0
LINE
  5
2DA
330
56
100
AcDbEntity
  8
1
  6
Continuous
 62
     7
100
AcDbLine
 10
266.6161110515138
 20
401.3572265861374
 30
0.0
 11
180.2828803295918
 21
401.3572265861374
 31
0.0
  0
LINE
  5
2DB
330
56
100
AcDbEntity
  8
1
  6
Continuous
 62
     7
100
AcDbLine
 10
322.2099209188089
 20
206.9170829920038
 30
0.0
 11
322.2099209188089
 21
201.4170829920038
 31
0.0
  0
LINE
  5
2DC
330
56
100
AcDbEntity
  8
1
  6
Continuous
 62
     7
100
AcDbLine
 10
287.2099209188089
 20
166.417082992004
 30
0.0
 11
180.2099209188089
 21
166.417082992004
 31
0.0
  0
LINE
  5
2DD
330
56
100
AcDbEntity
  8
1
  6
Continuous
 62
     7
100
AcDbLine
 10
287.2099209188089
 20
182.417082992004
 30
0.0
 11
180.2099209188089
 21
182.417082992004
 31
0.0
  0
LINE
  5
2DE
330
56
100
AcDbEntity
  8
1
  6
Continuous
 62
     7
100
AcDbLine
 10
306.2099209188089
 20
201.4170829920038
 30
0.0
 11
306.2099209188089
 21
206.9170829920038
 31
0.0
  0
ARC
  5
2DF
330
56
100
AcDbEntity
  8
1
  6
Continuous
 62
     7
100
AcDbCircle
 10
287.2099209188089
 20
201.4170829920038
 30
0.0
 40
34.9999999999998
100
AcDbArc
 50
270.0
 51
0.0
  0
ARC
  5
2E0
330
56
100
AcDbEntity
  8
1
  6
Continuous
 62
     7
100
AcDbCircle
 10
287.2099209188089
 20
201.4170829920038
 30
0.0
 40
18.9999999999998
100
AcDbArc
 50
270.0
 51
0.0
  0
ENDBLK
  5
58
330
56
100
AcDbEntity
  8
0
100
AcDbBlockEnd
  0
BLOCK
  5
5A
330
59
100
AcDbEntity
  8
0
100
AcDbBlockBegin
  2
32-1-16-M1
 70
     0
 10
173.3229070339708
 20
291.1587126813476
 30
0.0
  3
32-1-16-M1
  1

  0
LINE
  5
2E1
330
59
100
AcDbEntity
  8
1
  6
Continuous
 62
     7
100
AcDbLine
 10
68.29805929111785
 20
207.9170829920038
 30
0.0
 11
68.24003822938676
 21
207.9170829920038
 31
0.0
  0
LINE
  5
2E2
330
59
100
AcDbEntity
  8
1
  6
Continuous
 62
     7
100
AcDbLine
 10
79.79805929111785
 20
216.9170829920038
 30
0.0
 11
66.4980592911179
 21
216.9170829920038
 31
0.0
  0
LINE
  5
2E3
330
59
100
AcDbEntity
  8
1
  6
Continuous
 62
     7
100
AcDbLine
 10
70.03011009868578
 20
206.9170829920038
 30
0.0
 11
71.5980592911178
 21
206.9170829920038
 31
0.0
  0
LINE
  5
2E4
330
59
100
AcDbEntity
  8
1
  6
Continuous
 62
     7
100
AcDbLine
 10
65.79805929111785
 20
209.2039057422908
 30
0.0
 11
65.79805929111785
 21
216.3453341708337
 31
0.0
  0
LINE
  5
2E5
330
59
100
AcDbEntity
  8
1
  6
Continuous
 62
     7
100
AcDbLine
 10
71.5980592911178
 20
206.9170829920038
 30
0.0
 11
79.79805929111785
 21
206.9170829920038
 31
0.0
  0
LINE
  5
2E6
330
59
100
AcDbEntity
  8
1
  6
Continuous
 62
     7
100
AcDbLine
 10
91.35608035284781
 20
207.9170829920038
 30
0.0
 11
91.29805929111785
 21
207.9170829920038
 31
0.0
  0
LINE
  5
2E7
330
59
100
AcDbEntity
  8
1
  6
Continuous
 62
     7
100
AcDbLine
 10
93.0980592911178
 20
216.9170829920038
 30
0.0
 11
79.79805929111785
 21
216.9170829920038
 31
0.0
  0
LINE
  5
2E8
330
59
100
AcDbEntity
  8
1
  6
Continuous
 62
     7
100
AcDbLine
 10
87.9980592911179
 20
206.9170829920038
 30
0.0
 11
89.56600848354879
 21
206.9170829920038
 31
0.0
  0
LINE
  5
2E9
330
59
100
AcDbEntity
  8
1
  6
Continuous
 62
     7
100
AcDbLine
 10
93.79805929111785
 20
216.3453341708337
 30
0.0
 11
93.79805929111785
 21
209.2039057422908
 31
0.0
  0
LINE
  5
2EA
330
59
100
AcDbEntity
  8
1
  6
Continuous
 62
     7
100
AcDbLine
 10
79.79805929111785
 20
206.9170829920038
 30
0.0
 11
87.9980592911179
 21
206.9170829920038
 31
0.0
  0
LINE
  5
2EB
330
59
100
AcDbEntity
  8
1
  6
Continuous
 62
     7
100
AcDbLine
 10
314.2099209188089
 20
206.9170829920038
 30
0.0
 11
322.4099209188089
 21
206.9170829920038
 31
0.0
  0
LINE
  5
2EC
330
59
100
AcDbEntity
  8
1
  6
Continuous
 62
     7
100
AcDbLine
 10
325.7679419805388
 20
207.9170829920038
 30
0.0
 11
325.7099209188089
 21
207.9170829920038
 31
0.0
  0
LINE
  5
2ED
330
59
100
AcDbEntity
  8
1
  6
Continuous
 62
     7
100
AcDbLine
 10
327.5099209188088
 20
216.9170829920038
 30
0.0
 11
314.2099209188089
 21
216.9170829920038
 31
0.0
  0
LINE
  5
2EE
330
59
100
AcDbEntity
  8
1
  6
Continuous
 62
     7
100
AcDbLine
 10
322.4099209188089
 20
206.9170829920038
 30
0.0
 11
323.9778701112398
 21
206.9170829920038
 31
0.0
  0
LINE
  5
2EF
330
59
100
AcDbEntity
  8
1
  6
Continuous
 62
     7
100
AcDbLine
 10
304.4419717263779
 20
206.9170829920038
 30
0.0
 11
306.0099209188088
 21
206.9170829920038
 31
0.0
  0
LINE
  5
2F0
330
59
100
AcDbEntity
  8
1
  6
Continuous
 62
     7
100
AcDbLine
 10
314.2099209188089
 20
216.9170829920038
 30
0.0
 11
300.9099209188089
 21
216.9170829920038
 31
0.0
  0
LINE
  5
2F1
330
59
100
AcDbEntity
  8
1
  6
Continuous
 62
     7
100
AcDbLine
 10
302.7099209188089
 20
207.9170829920038
 30
0.0
 11
302.6518998570789
 21
207.9170829920038
 31
0.0
  0
LINE
  5
2F2
330
59
100
AcDbEntity
  8
1
  6
Continuous
 62
     7
100
AcDbLine
 10
306.0099209188088
 20
206.9170829920038
 30
0.0
 11
314.2099209188089
 21
206.9170829920038
 31
0.0
  0
ARC
  5
2F3
330
59
100
AcDbEntity
  8
1
  6
Continuous
 62
     7
100
AcDbCircle
 10
69.29805929111785
 20
212.7746199565622
 30
0.0
 40
4.999999999999985
100
AcDbArc
 50
124.0557977425674
 51
134.4270040008051
  0
ARC
  5
2F4
330
59
100
AcDbEntity
  8
1
  6
Continuous
 62
     7
100
AcDbCircle
 10
69.29805929111785
 20
212.7746199565622
 30
0.0
 40
4.999999999999975
100
AcDbArc
 50
225.572995999194
 51
254.6624423304361
  0
ARC
  5
2F5
330
59
100
AcDbEntity
  8
1
  6
Continuous
 62
     7
100
AcDbCircle
 10
90.29805929111785
 20
212.7746199565622
 30
0.0
 40
5.000000000000057
100
AcDbArc
 50
45.57299599919494
 51
55.94420225743261
  0
ARC
  5
2F6
330
59
100
AcDbEntity
  8
1
  6
Continuous
 62
     7
100
AcDbCircle
 10
90.29805929111785
 20
212.7746199565622
 30
0.0
 40
4.9999999999998
100
AcDbArc
 50
285.3375576695513
 51
314.427004000806
  0
ARC
  5
2F7
330
59
100
AcDbEntity
  8
1
  6
Continuous
 62
     7
100
AcDbCircle
 10
324.7099209188089
 20
212.7746199565623
 30
0.0
 40
5.00000000000002
100
AcDbArc
 50
285.3375576695506
 51
55.94420225743242
  0
ARC
  5
2F8
330
59
100
AcDbEntity
  8
1
  6
Continuous
 62
     7
100
AcDbCircle
 10
303.7099209188089
 20
212.7746199565623
 30
0.0
 40
4.999999999999922
100
AcDbArc
 50
124.0557977425687
 51
254.6624423304481
  0
SPLINE
  5
2F9
330
59
100
AcDbEntity
  8
1
  6
Continuous
 62
     7
100
AcDbSpline
210
0.0
220
0.0
230
1.0
 70
    11
 71
     3
 72
    79
 73
    75
 74
    73
 42
0.000000001
 43
0.0000000001
 44
0.00000001
 40
0.0
 40
0.0
 40
0.0
 40
0.0
 40
0.2903672471832175
 40
0.5807357518972687
 40
0.8724070977355789
 40
1.164081911023208
 40
1.458189924521654
 40
1.752302920472345
 40
2.049663201046111
 40
2.347029106415024
 40
2.648045786115459
 40
2.949067936324798
 40
3.253697746551998
 40
3.558332275329665
 40
3.866104857779676
 40
4.173881019539673
 40
4.4839660611081
 40
4.794053321447421
 40
5.105362217358392
 40
5.416671863434497
 40
5.727981509499775
 40
6.039290405378221
 40
6.349377665663303
 40
6.659462707155077
 40
6.967238868816353
 40
7.275011451144266
 40
7.579645979777089
 40
7.884275789834176
 40
8.1852979398494
 40
8.48631461932815
 40
8.783680524448638
 40
9.081040804740859
 40
9.3751538003743
 40
9.669261813502427
 40
9.960936626337011
 40
10.25260797152335
 40
10.54297647485803
 40
10.83334373090363
 40
11.12371098694929
 40
11.4140794902842
 40
11.70575083547103
 40
11.9974256483061
 40
12.29153366143441
 40
12.58564665706774
 40
12.88300693735952
 40
13.18037284247971
 40
13.48138952195881
 40
13.78241167197431
 40
14.08704148203111
 40
14.39167601066367
 40
14.69944859299161
 40
15.0072247546529
 40
15.3173097961447
 40
15.62739705642971
 40
15.93870595230823
 40
16.25001559837353
 40
16.56132524444965
 40
16.87263414036071
 40
17.18272140070004
 40
17.49280644226841
 40
17.8005826040284
 40
18.10835518647846
 40
18.41298971525592
 40
18.71761952548277
 40
19.01864167569231
 40
19.31965835539317
 40
19.61702426076178
 40
19.91438454133511
 40
20.20849753728581
 40
20.50260555078431
 40
20.7942803640725
 40
21.08595170991124
 40
21.37632021462545
 40
21.66668746180878
 40
21.66668746180878
 40
21.66668746180878
 40
21.66668746180878
 10
302.0855652658267
 20
209.2039057422908
 30
0.0
 10
301.9887414591171
 20
209.2065373396114
 30
0.0
 10
301.7950934262012
 20
209.2118005404299
 30
0.0
 10
301.5067325498946
 20
209.2540956126121
 30
0.0
 10
301.2230204059157
 20
209.3213065051054
 30
0.0
 10
300.9455953431302
 20
209.4153616703746
 30
0.0
 10
300.6772744317491
 20
209.5347931280581
 30
0.0
 10
300.4192746683781
 20
209.6790686235445
 30
0.0
 10
300.1744726651216
 20
209.8466726987475
 30
0.0
 10
299.9437764400594
 20
210.0368352529072
 30
0.0
 10
299.7298807327829
 20
210.2474579732191
 30
0.0
 10
299.5335071902034
 20
210.4776795890508
 30
0.0
 10
299.3569578450395
 20
210.7249160124485
 30
0.0
 10
299.2008550483691
 20
210.9881501866952
 30
0.0
 10
299.0669660337599
 20
211.264513741277
 30
0.0
 10
298.9558380167567
 20
211.5527271851386
 30
0.0
 10
298.8686472567745
 20
211.8498656282914
 30
0.0
 10
298.805821650134
 20
212.1542887823232
 30
0.0
 10
298.7679731001793
 20
212.4632253946156
 30
0.0
 10
298.7553108380417
 20
212.7746199471901
 30
0.0
 10
298.7679730998178
 20
213.0860144997669
 30
0.0
 10
298.8058216494099
 20
213.3949511120754
 30
0.0
 10
298.8686472556864
 20
213.6993742661099
 30
0.0
 10
298.955838015302
 20
213.996512709353
 30
0.0
 10
299.0669660319344
 20
214.2847261530193
 30
0.0
 10
299.2008550461692
 20
214.5610897085075
 30
0.0
 10
299.3569578424597
 20
214.8243238796292
 30
0.0
 10
299.5335071872371
 20
215.0715603148932
 30
0.0
 10
299.729880729422
 20
215.3017818872696
 30
0.0
 10
299.9437764362947
 20
215.5124047690865
 30
0.0
 10
300.17447266094
 20
215.7025667279635
 30
0.0
 10
300.4192746637624
 20
215.870173011557
 30
0.0
 10
300.6772744266706
 20
216.0144403520183
 30
0.0
 10
300.945595337543
 20
216.133902091357
 30
0.0
 10
301.2230203996981
 20
216.2278451384109
 30
0.0
 10
301.5067325427381
 20
216.2954731108482
 30
0.0
 10
301.7950934209198
 20
216.3362182356906
 30
0.0
 10
302.0855652658267
 20
216.3498921136158
 30
0.0
 10
302.3760371107337
 20
216.3362182356905
 30
0.0
 10
302.6643979889155
 20
216.2954731108481
 30
0.0
 10
302.9481101319562
 20
216.2278451384109
 30
0.0
 10
303.2255351941116
 20
216.1339020913571
 30
0.0
 10
303.4938561049842
 20
216.0144403520185
 30
0.0
 10
303.7518558678923
 20
215.8701730115571
 30
0.0
 10
303.9966578707142
 20
215.7025667279634
 30
0.0
 10
304.2273540953591
 20
215.5124047690862
 30
0.0
 10
304.4412498022323
 20
215.3017818872697
 30
0.0
 10
304.6376233444175
 20
215.0715603148934
 30
0.0
 10
304.8141726891947
 20
214.8243238796292
 30
0.0
 10
304.9702754854843
 20
214.5610897085074
 30
0.0
 10
305.1041644997194
 20
214.2847261530193
 30
0.0
 10
305.2152925163518
 20
213.996512709353
 30
0.0
 10
305.3024832759675
 20
213.6993742661098
 30
0.0
 10
305.3653088822434
 20
213.3949511120753
 30
0.0
 10
305.4031574318365
 20
213.0860144997669
 30
0.0
 10
305.4158196936134
 20
212.7746199471901
 30
0.0
 10
305.403157431475
 20
212.4632253946156
 30
0.0
 10
305.3653088815196
 20
212.1542887823232
 30
0.0
 10
305.3024832748793
 20
211.8498656282915
 30
0.0
 10
305.2152925148971
 20
211.5527271851385
 30
0.0
 10
305.104164497894
 20
211.2645137412771
 30
0.0
 10
304.9702754832846
 20
210.9881501866953
 30
0.0
 10
304.8141726866146
 20
210.7249160124486
 30
0.0
 10
304.6376233414514
 20
210.4776795890506
 30
0.0
 10
304.4412497988714
 20
210.2474579732189
 30
0.0
 10
304.2273540915946
 20
210.0368352529076
 30
0.0
 10
303.9966578665325
 20
209.8466726987476
 30
0.0
 10
303.7518558632767
 20
209.6790686235443
 30
0.0
 10
303.4938560999057
 20
209.534793128058
 30
0.0
 10
303.2255351885244
 20
209.4153616703746
 30
0.0
 10
302.9481101257385
 20
209.3213065051053
 30
0.0
 10
302.6643979817592
 20
209.2540956126121
 30
0.0
 10
302.3760371054522
 20
209.2118005404299
 30
0.0
 10
302.1823890725364
 20
209.2065373396115
 30
0.0
 10
302.0855652658267
 20
209.2039057422908
 30
0.0
 11
302.0855652658267
 21
209.2039057422908
 31
0.0
 11
301.7955175040286
 21
209.2175233551434
 31
0.0
 11
301.5080055794929
 21
209.258152914557
 31
0.0
 11
301.2242682696247
 21
209.3257200123955
 31
0.0
 11
300.9479947519699
 21
209.419246158476
 31
0.0
 11
300.679277689871
 21
209.5387897239138
 31
0.0
 11
300.4225484288709
 21
209.6822907373491
 31
0.0
 11
300.1771311390886
 21
209.8501999100559
 31
0.0
 11
299.9476320308359
 21
210.0392941747538
 31
0.0
 11
299.7330774717992
 21
210.2504277405835
 31
0.0
 11
299.5376756522999
 21
210.4794091018971
 31
0.0
 11
299.3605722471593
 21
210.7272673378945
 31
0.0
 11
299.2051356103759
 21
210.9892628494265
 31
0.0
 11
299.070882381753
 21
211.2662105576935
 31
0.0
 11
298.9601159659658
 21
211.5533637692221
 31
0.0
 11
298.8727582104926
 21
211.8508891556694
 31
0.0
 11
298.8100615169778
 21
212.1545719402847
 31
0.0
 11
298.7721790970091
 21
212.4635673301572
 31
0.0
 11
298.7595315919148
 21
212.7746199565623
 31
0.0
 11
298.7721790970091
 21
213.0856725829674
 31
0.0
 11
298.8100615169778
 21
213.3946679728399
 31
0.0
 11
298.8727582104926
 21
213.6983507574552
 31
0.0
 11
298.9601159659658
 21
213.9958761439024
 31
0.0
 11
299.0708823817529
 21
214.2830293554311
 31
0.0
 11
299.2051356103759
 21
214.559977063698
 31
0.0
 11
299.3605722471594
 21
214.8219725752301
 31
0.0
 11
299.5376756522999
 21
215.0698308112275
 31
0.0
 11
299.7330774717992
 21
215.2988121725411
 31
0.0
 11
299.9476320308359
 21
215.5099457383708
 31
0.0
 11
300.1771311390886
 21
215.6990400030687
 31
0.0
 11
300.4225484288709
 21
215.8669491757755
 31
0.0
 11
300.6792776898711
 21
216.0104501892107
 31
0.0
 11
300.9479947519699
 21
216.1299937546485
 31
0.0
 11
301.2242682696247
 21
216.2235199007291
 31
0.0
 11
301.5080055794929
 21
216.2910869985676
 31
0.0
 11
301.7955175040286
 21
216.3317165579812
 31
0.0
 11
302.0855652658267
 21
216.3453341708337
 31
0.0
 11
302.3756130276249
 21
216.3317165579812
 31
0.0
 11
302.6631249521608
 21
216.2910869985676
 31
0.0
 11
302.9468622620295
 21
216.2235199007291
 31
0.0
 11
303.2231357796848
 21
216.1299937546485
 31
0.0
 11
303.4918528417838
 21
216.0104501892108
 31
0.0
 11
303.7485821027838
 21
215.8669491757755
 31
0.0
 11
303.9939993925656
 21
215.6990400030687
 31
0.0
 11
304.2234985008179
 21
215.5099457383708
 31
0.0
 11
304.4380530598552
 21
215.2988121725412
 31
0.0
 11
304.6334548793548
 21
215.0698308112275
 31
0.0
 11
304.8105582844948
 21
214.8219725752301
 31
0.0
 11
304.9659949212778
 21
214.559977063698
 31
0.0
 11
305.1002481499008
 21
214.283029355431
 31
0.0
 11
305.211014565688
 21
213.9958761439024
 31
0.0
 11
305.2983723211611
 21
213.6983507574551
 31
0.0
 11
305.3610690146759
 21
213.3946679728399
 31
0.0
 11
305.3989514346452
 21
213.0856725829674
 31
0.0
 11
305.4115989397399
 21
212.7746199565623
 31
0.0
 11
305.3989514346453
 21
212.4635673301572
 31
0.0
 11
305.3610690146759
 21
212.1545719402847
 31
0.0
 11
305.2983723211611
 21
211.8508891556694
 31
0.0
 11
305.211014565688
 21
211.5533637692221
 31
0.0
 11
305.1002481499008
 21
211.2662105576935
 31
0.0
 11
304.9659949212778
 21
210.9892628494265
 31
0.0
 11
304.8105582844948
 21
210.7272673378944
 31
0.0
 11
304.6334548793548
 21
210.4794091018971
 31
0.0
 11
304.4380530598552
 21
210.2504277405835
 31
0.0
 11
304.2234985008179
 21
210.0392941747538
 31
0.0
 11
303.9939993925656
 21
209.850199910056
 31
0.0
 11
303.7485821027838
 21
209.6822907373491
 31
0.0
 11
303.4918528417838
 21
209.5387897239137
 31
0.0
 11
303.2231357796848
 21
209.419246158476
 31
0.0
 11
302.9468622620294
 21
209.3257200123954
 31
0.0
 11
302.6631249521608
 21
209.258152914557
 31
0.0
 11
302.3756130276249
 21
209.2175233551434
 31
0.0
 11
302.0855652658267
 21
209.2039057422908
 31
0.0
  0
SPLINE
  5
2FA
330
59
100
AcDbEntity
  8
0
  6
Continuous
 62
     7
100
AcDbSpline
210
0.0
220
0.0
230
1.0
 70
     8
 71
     3
 72
    43
 73
    39
 74
    37
 42
0.000000001
 43
0.0000000001
 44
0.00000001
 40
0.0
 40
0.0
 40
0.0
 40
0.0
 40
0.5784924280123067
 40
1.15652403946401
 40
1.722320901441192
 40
2.288472335730436
 40
2.830388851256967
 40
3.372141554120663
 40
3.879699030536404
 40
4.387293516855268
 40
4.852877376486751
 40
5.31841690889546
 40
5.737827438807763
 40
6.157193989208361
 40
6.531387337729931
 40
6.905486853368238
 40
7.242297723757448
 40
7.578904874163599
 40
7.893985509743175
 40
8.208913016527866
 40
8.523840523312478
 40
8.83892115889193
 40
9.175528309298107
 40
9.512339179687464
 40
9.886438695325772
 40
10.26063204384734
 40
10.6799985942479
 40
11.09940912416012
 40
11.5649486565688
 40
12.03053251620032
 40
12.53812700251917
 40
13.04568447893491
 40
13.58743718179862
 40
14.12935369732517
 40
14.69550513161442
 40
15.2613019935916
 40
15.83933360504336
 40
16.4178260330556
 40
16.4178260330556
 40
16.4178260330556
 40
16.4178260330556
 10
314.2099209188089
 20
216.3430692773981
 30
0.0
 10
314.0171597550141
 20
216.3379115274628
 30
0.0
 10
313.6317909778232
 20
216.3276001250287
 30
0.0
 10
313.0583879451331
 20
216.294885671242
 30
0.0
 10
312.491943200612
 20
216.2283663486731
 30
0.0
 10
311.9418629592628
 20
216.1336409558899
 30
0.0
 10
311.4047096814076
 20
216.0147508269432
 30
0.0
 10
310.8933096935039
 20
215.8729695042887
 30
0.0
 10
310.4016643028987
 20
215.70589438272
 30
0.0
 10
309.944665343918
 20
215.5185052985301
 30
0.0
 10
309.5134297141806
 20
215.3078767802739
 30
0.0
 10
309.1239691039495
 20
215.0811640701772
 30
0.0
 10
308.7663425767723
 20
214.8330861226982
 30
0.0
 10
308.4556510669327
 20
214.5733259096318
 30
0.0
 10
308.1828089649151
 20
214.294821619864
 30
0.0
 10
307.9598278425302
 20
214.0088387617161
 30
0.0
 10
307.7810556137434
 20
213.7078130281942
 30
0.0
 10
307.6531248116378
 20
213.4027767075825
 30
0.0
 10
307.5756956243058
 20
213.0887175748648
 30
0.0
 10
307.5489341789562
 20
212.7734361025224
 30
0.0
 10
307.5756956243059
 20
212.4581546301802
 30
0.0
 10
307.6531248116378
 20
212.1440954974624
 30
0.0
 10
307.7810556137436
 20
211.8390591768508
 30
0.0
 10
307.95982784253
 20
211.5380334433286
 30
0.0
 10
308.1828089649151
 20
211.2520505851809
 30
0.0
 10
308.4556510669326
 20
210.973546295413
 30
0.0
 10
308.7663425767724
 20
210.7137860823466
 30
0.0
 10
309.1239691039494
 20
210.4657081348677
 30
0.0
 10
309.5134297141807
 20
210.2389954247711
 30
0.0
 10
309.944665343918
 20
210.0283669065149
 30
0.0
 10
310.4016643028986
 20
209.840977822325
 30
0.0
 10
310.893309693504
 20
209.6739027007563
 30
0.0
 10
311.4047096814074
 20
209.5321213781018
 30
0.0
 10
311.941862959263
 20
209.413231249155
 30
0.0
 10
312.491943200612
 20
209.3185058563718
 30
0.0
 10
313.0583879451331
 20
209.2519865338028
 30
0.0
 10
313.6317909778232
 20
209.2192720800163
 30
0.0
 10
314.0171597550141
 20
209.2089606775822
 30
0.0
 10
314.2099209188089
 20
209.203802927647
 30
0.0
 11
314.2099209188089
 21
216.3430692773981
 31
0.0
 11
313.6317208498844
 21
216.3246796813531
 31
0.0
 11
313.0548014826168
 21
216.2888385285495
 31
0.0
 11
312.4928042379572
 21
216.223377191062
 31
0.0
 11
311.9347797659739
 21
216.1277940558656
 31
0.0
 11
311.4057933344321
 21
216.0101213512632
 31
0.0
 11
310.8838870619829
 21
215.8648291141564
 31
0.0
 11
310.4034915087603
 21
215.7010160969964
 31
0.0
 11
309.9340542136779
 21
215.5079337601091
 31
0.0
 11
309.5160612403097
 21
215.3028722941454
 31
0.0
 11
309.1141414115148
 21
215.0679520784585
 31
0.0
 11
308.7701150181703
 21
214.8280541136153
 31
0.0
 11
308.4490612910918
 21
214.5582526899602
 31
0.0
 11
308.1880587498251
 21
214.2901140396634
 31
0.0
 11
307.9590219753218
 21
213.9943225526134
 31
0.0
 11
307.7879685599371
 21
213.7041807049652
 31
0.0
 11
307.6589130608429
 21
213.3932963982791
 31
0.0
 11
307.5838431622132
 21
213.0872893436111
 31
0.0
 11
307.5578532051568
 21
212.7734361025224
 31
0.0
 11
307.5838431622133
 21
212.4595828614338
 31
0.0
 11
307.6589130608429
 21
212.1535758067659
 31
0.0
 11
307.7879685599371
 21
211.8426915000797
 31
0.0
 11
307.9590219753218
 21
211.5525496524314
 31
0.0
 11
308.1880587498251
 21
211.2567581653814
 31
0.0
 11
308.4490612910918
 21
210.9886195150846
 31
0.0
 11
308.7701150181703
 21
210.7188180914295
 31
0.0
 11
309.1141414115148
 21
210.4789201265865
 31
0.0
 11
309.5160612403097
 21
210.2439999108995
 31
0.0
 11
309.9340542136779
 21
210.0389384449359
 31
0.0
 11
310.4034915087603
 21
209.8458561080486
 31
0.0
 11
310.8838870619829
 21
209.6820430908886
 31
0.0
 11
311.4057933344321
 21
209.5367508537818
 31
0.0
 11
311.9347797659739
 21
209.4190781491793
 31
0.0
 11
312.4928042379572
 21
209.3234950139829
 31
0.0
 11
313.0548014826168
 21
209.2580336764954
 31
0.0
 11
313.6317208498845
 21
209.2221925236919
 31
0.0
 11
314.2099209188089
 21
209.203802927647
 31
0.0
  0
SPLINE
  5
2FB
330
59
100
AcDbEntity
  8
0
  6
Continuous
 62
     7
100
AcDbSpline
210
0.0
220
0.0
230
1.0
 70
     8
 71
     3
 72
    43
 73
    39
 74
    37
 42
0.000000001
 43
0.0000000001
 44
0.00000001
 40
0.0
 40
0.0
 40
0.0
 40
0.0
 40
0.5784924280122499
 40
1.156524039463896
 40
1.722320901441079
 40
2.288472335730323
 40
2.830388851256854
 40
3.37214155412055
 40
3.87969903053629
 40
4.387293516855154
 40
4.852877376486688
 40
5.318416908895349
 40
5.737827438807652
 40
6.15719398920825
 40
6.53138733772982
 40
6.905486853368127
 40
7.242297723757336
 40
7.578904874163488
 40
7.893985509743064
 40
8.208913016527754
 40
8.523840523312366
 40
8.838921158891818
 40
9.175528309297974
 40
9.512339179687359
 40
9.886438695325667
 40
10.26063204384724
 40
10.67999859424784
 40
11.09940912416002
 40
11.56494865656869
 40
12.03053251620021
 40
12.53812700251907
 40
13.04568447893481
 40
13.58743718179851
 40
14.12935369732506
 40
14.69550513161431
 40
15.26130199359149
 40
15.83933360504314
 40
16.41782603305538
 40
16.41782603305538
 40
16.41782603305538
 40
16.41782603305538
 10
314.2099209188089
 20
216.3430692773981
 30
0.0
 10
314.4026820826037
 20
216.3379115274628
 30
0.0
 10
314.7880508597945
 20
216.3276001250287
 30
0.0
 10
315.3614538924846
 20
216.294885671242
 30
0.0
 10
315.9278986370057
 20
216.2283663486731
 30
0.0
 10
316.4779788783547
 20
216.1336409558898
 30
0.0
 10
317.0151321562102
 20
216.0147508269432
 30
0.0
 10
317.5265321441137
 20
215.8729695042887
 30
0.0
 10
318.0181775347191
 20
215.70589438272
 30
0.0
 10
318.4751764936996
 20
215.5185052985301
 30
0.0
 10
318.9064121234371
 20
215.3078767802739
 30
0.0
 10
319.2958727336683
 20
215.0811640701772
 30
0.0
 10
319.6534992608453
 20
214.8330861226982
 30
0.0
 10
319.964190770685
 20
214.5733259096317
 30
0.0
 10
320.2370328727027
 20
214.294821619864
 30
0.0
 10
320.4600139950875
 20
214.0088387617161
 30
0.0
 10
320.6387862238742
 20
213.7078130281942
 30
0.0
 10
320.7667170259798
 20
213.4027767075825
 30
0.0
 10
320.844146213312
 20
213.0887175748649
 30
0.0
 10
320.8709076586614
 20
212.7734361025223
 30
0.0
 10
320.8441462133118
 20
212.4581546301802
 30
0.0
 10
320.7667170259799
 20
212.1440954974623
 30
0.0
 10
320.6387862238742
 20
211.8390591768506
 30
0.0
 10
320.4600139950875
 20
211.5380334433288
 30
0.0
 10
320.2370328727027
 20
211.2520505851809
 30
0.0
 10
319.964190770685
 20
210.973546295413
 30
0.0
 10
319.6534992608453
 20
210.7137860823467
 30
0.0
 10
319.2958727336682
 20
210.4657081348678
 30
0.0
 10
318.9064121234371
 20
210.238995424771
 30
0.0
 10
318.4751764936997
 20
210.0283669065149
 30
0.0
 10
318.0181775347191
 20
209.840977822325
 30
0.0
 10
317.5265321441137
 20
209.6739027007563
 30
0.0
 10
317.0151321562101
 20
209.5321213781018
 30
0.0
 10
316.4779788783549
 20
209.413231249155
 30
0.0
 10
315.9278986370057
 20
209.3185058563718
 30
0.0
 10
315.3614538924846
 20
209.2519865338028
 30
0.0
 10
314.7880508597946
 20
209.2192720800163
 30
0.0
 10
314.4026820826036
 20
209.2089606775822
 30
0.0
 10
314.2099209188089
 20
209.203802927647
 30
0.0
 11
314.2099209188089
 21
216.3430692773981
 31
0.0
 11
314.7881209877334
 21
216.3246796813531
 31
0.0
 11
315.3650403550009
 21
216.2888385285495
 31
0.0
 11
315.9270375996605
 21
216.223377191062
 31
0.0
 11
316.4850620716438
 21
216.1277940558656
 31
0.0
 11
317.0140485031856
 21
216.0101213512632
 31
0.0
 11
317.5359547756348
 21
215.8648291141564
 31
0.0
 11
318.0163503288574
 21
215.7010160969964
 31
0.0
 11
318.4857876239398
 21
215.5079337601091
 31
0.0
 11
318.903780597308
 21
215.3028722941454
 31
0.0
 11
319.3057004261029
 21
215.0679520784585
 31
0.0
 11
319.6497268194474
 21
214.8280541136153
 31
0.0
 11
319.9707805465259
 21
214.5582526899602
 31
0.0
 11
320.2317830877926
 21
214.2901140396634
 31
0.0
 11
320.4608198622959
 21
213.9943225526134
 31
0.0
 11
320.6318732776806
 21
213.7041807049652
 31
0.0
 11
320.7609287767748
 21
213.3932963982791
 31
0.0
 11
320.8359986754045
 21
213.0872893436111
 31
0.0
 11
320.8619886324609
 21
212.7734361025224
 31
0.0
 11
320.8359986754044
 21
212.4595828614338
 31
0.0
 11
320.7609287767748
 21
212.1535758067659
 31
0.0
 11
320.6318732776807
 21
211.8426915000797
 31
0.0
 11
320.4608198622959
 21
211.5525496524314
 31
0.0
 11
320.2317830877926
 21
211.2567581653814
 31
0.0
 11
319.9707805465259
 21
210.9886195150846
 31
0.0
 11
319.6497268194473
 21
210.7188180914295
 31
0.0
 11
319.3057004261029
 21
210.4789201265865
 31
0.0
 11
318.903780597308
 21
210.2439999108995
 31
0.0
 11
318.4857876239398
 21
210.0389384449359
 31
0.0
 11
318.0163503288574
 21
209.8458561080486
 31
0.0
 11
317.5359547756348
 21
209.6820430908886
 31
0.0
 11
317.0140485031856
 21
209.5367508537818
 31
0.0
 11
316.4850620716438
 21
209.4190781491793
 31
0.0
 11
315.9270375996605
 21
209.3234950139829
 31
0.0
 11
315.3650403550009
 21
209.2580336764954
 31
0.0
 11
314.7881209877334
 21
209.2221925236919
 31
0.0
 11
314.2099209188089
 21
209.203802927647
 31
0.0
  0
SPLINE
  5
2FC
330
59
100
AcDbEntity
  8
1
  6
Continuous
 62
     7
100
AcDbSpline
210
0.0
220
0.0
230
1.0
 70
    11
 71
     3
 72
    79
 73
    75
 74
    73
 42
0.000000001
 43
0.0000000001
 44
0.00000001
 40
0.0
 40
0.0
 40
0.0
 40
0.0
 40
0.2903672471832743
 40
0.5807357518972692
 40
0.8724070977355795
 40
1.164081911023209
 40
1.458189924521706
 40
1.752302920472397
 40
2.049663201046131
 40
2.347029106415124
 40
2.648045786115518
 40
2.949067936324821
 40
3.253697746551954
 40
3.558332275329679
 40
3.86610485777974
 40
4.173881019539716
 40
4.483966061108143
 40
4.794053321447453
 40
5.105362217358417
 40
5.416671863434525
 40
5.727981509499804
 40
6.039290405378243
 40
6.349377665663325
 40
6.659462707155083
 40
6.96723886881638
 40
7.275011451144293
 40
7.579645979777087
 40
7.884275789834207
 40
8.185297939849432
 40
8.4863146193281
 40
8.783680524448668
 40
9.081040804740857
 40
9.3751538003742
 40
9.669261813502484
 40
9.960936626337068
 40
10.25260797152341
 40
10.54297647485803
 40
10.83334373090369
 40
11.12371098694935
 40
11.41407949028425
 40
11.70575083547113
 40
11.99742564830616
 40
12.29153366143388
 40
12.58564665706687
 40
12.88300693735903
 40
13.18037284247962
 40
13.48138952195832
 40
13.78241167197355
 40
14.0870414820307
 40
14.39167601066347
 40
14.69944859299141
 40
15.00722475465266
 40
15.31730979614449
 40
15.62739705642949
 40
15.93870595230802
 40
16.25001559837332
 40
16.56132524444944
 40
16.87263414036048
 40
17.18272140069982
 40
17.49280644226821
 40
17.80058260402819
 40
18.10835518647823
 40
18.41298971525589
 40
18.71761952548309
 40
19.01864167569236
 40
19.31965835539284
 40
19.6170242607619
 40
19.91438454133555
 40
20.20849753728575
 40
20.50260555078383
 40
20.79428036407197
 40
21.08595170991076
 40
21.37632021462498
 40
21.66668746180831
 40
21.66668746180831
 40
21.66668746180831
 40
21.66668746180831
 10
326.334276571791
 20
209.2039057422908
 30
0.0
 10
326.4311003785007
 20
209.2065373396115
 30
0.0
 10
326.6247484114164
 20
209.2118005404298
 30
0.0
 10
326.9131092877232
 20
209.2540956126121
 30
0.0
 10
327.1968214317021
 20
209.3213065051053
 30
0.0
 10
327.4742464944877
 20
209.4153616703747
 30
0.0
 10
327.7425674058686
 20
209.5347931280581
 30
0.0
 10
328.0005671692397
 20
209.6790686235445
 30
0.0
 10
328.2453691724961
 20
209.8466726987473
 30
0.0
 10
328.4760653975584
 20
210.0368352529072
 30
0.0
 10
328.6899611048348
 20
210.2474579732191
 30
0.0
 10
328.8863346474143
 20
210.4776795890508
 30
0.0
 10
329.062883992578
 20
210.7249160124486
 30
0.0
 10
329.2189867892487
 20
210.9881501866952
 30
0.0
 10
329.352875803858
 20
211.264513741277
 30
0.0
 10
329.464003820861
 20
211.5527271851385
 30
0.0
 10
329.5511945808433
 20
211.8498656282916
 30
0.0
 10
329.6140201874838
 20
212.1542887823231
 30
0.0
 10
329.6518687374381
 20
212.4632253946156
 30
0.0
 10
329.6645309995761
 20
212.7746199471901
 30
0.0
 10
329.6518687377996
 20
213.0860144997668
 30
0.0
 10
329.6140201882077
 20
213.3949511120755
 30
0.0
 10
329.5511945819314
 20
213.6993742661098
 30
0.0
 10
329.4640038223158
 20
213.9965127093531
 30
0.0
 10
329.3528758056833
 20
214.2847261530192
 30
0.0
 10
329.2189867914484
 20
214.5610897085076
 30
0.0
 10
329.062883995158
 20
214.8243238796291
 30
0.0
 10
328.8863346503805
 20
215.0715603148932
 30
0.0
 10
328.6899611081957
 20
215.3017818872695
 30
0.0
 10
328.4760654013229
 20
215.5124047690865
 30
0.0
 10
328.2453691766779
 20
215.7025667279636
 30
0.0
 10
328.0005671738553
 20
215.8701730115569
 30
0.0
 10
327.7425674109472
 20
216.0144403520185
 30
0.0
 10
327.4742465000748
 20
216.133902091357
 30
0.0
 10
327.1968214379198
 20
216.2278451384109
 30
0.0
 10
326.9131092948795
 20
216.2954731108481
 30
0.0
 10
326.624748416698
 20
216.3362182356906
 30
0.0
 10
326.334276571791
 20
216.3498921136157
 30
0.0
 10
326.0438047268839
 20
216.3362182356906
 30
0.0
 10
325.7554438487021
 20
216.2954731108481
 30
0.0
 10
325.4717317056616
 20
216.227845138411
 30
0.0
 10
325.1943066435063
 20
216.1339020913572
 30
0.0
 10
324.925985732634
 20
216.0144403520184
 30
0.0
 10
324.6679859697263
 20
215.8701730115569
 30
0.0
 10
324.4231839669041
 20
215.7025667279633
 30
0.0
 10
324.1924877422587
 20
215.5124047690865
 30
0.0
 10
323.9785920353858
 20
215.3017818872696
 30
0.0
 10
323.7822184932013
 20
215.0715603148931
 30
0.0
 10
323.6056691484235
 20
214.8243238796292
 30
0.0
 10
323.4495663521333
 20
214.5610897085075
 30
0.0
 10
323.3156773378984
 20
214.2847261530193
 30
0.0
 10
323.2045493212659
 20
213.996512709353
 30
0.0
 10
323.1173585616504
 20
213.6993742661097
 30
0.0
 10
323.0545329553742
 20
213.3949511120754
 30
0.0
 10
323.0166844057811
 20
213.0860144997669
 30
0.0
 10
323.0040221440045
 20
212.7746199471901
 30
0.0
 10
323.0166844061429
 20
212.4632253946155
 30
0.0
 10
323.0545329560981
 20
212.1542887823232
 30
0.0
 10
323.1173585627386
 20
211.8498656282915
 30
0.0
 10
323.2045493227207
 20
211.5527271851385
 30
0.0
 10
323.3156773397237
 20
211.264513741277
 30
0.0
 10
323.449566354333
 20
210.9881501866952
 30
0.0
 10
323.6056691510036
 20
210.7249160124485
 30
0.0
 10
323.7822184961675
 20
210.4776795890508
 30
0.0
 10
323.9785920387467
 20
210.247457973219
 30
0.0
 10
324.1924877460233
 20
210.0368352529072
 30
0.0
 10
324.4231839710857
 20
209.8466726987474
 30
0.0
 10
324.6679859743419
 20
209.6790686235446
 30
0.0
 10
324.9259857377126
 20
209.5347931280581
 30
0.0
 10
325.1943066490934
 20
209.4153616703745
 30
0.0
 10
325.4717317118791
 20
209.3213065051052
 30
0.0
 10
325.7554438558585
 20
209.2540956126121
 30
0.0
 10
326.0438047321655
 20
209.2118005404299
 30
0.0
 10
326.2374527650812
 20
209.2065373396114
 30
0.0
 10
326.334276571791
 20
209.2039057422908
 30
0.0
 11
326.334276571791
 21
209.2039057422908
 31
0.0
 11
326.6243243335891
 21
209.2175233551434
 31
0.0
 11
326.9118362581248
 21
209.258152914557
 31
0.0
 11
327.195573567993
 21
209.3257200123955
 31
0.0
 11
327.4718470856478
 21
209.419246158476
 31
0.0
 11
327.7405641477467
 21
209.5387897239138
 31
0.0
 11
327.9972934087468
 21
209.6822907373491
 31
0.0
 11
328.2427106985292
 21
209.8501999100559
 31
0.0
 11
328.4722098067819
 21
210.0392941747538
 31
0.0
 11
328.6867643658185
 21
210.2504277405835
 31
0.0
 11
328.8821661853178
 21
210.4794091018971
 31
0.0
 11
329.0592695904583
 21
210.7272673378945
 31
0.0
 11
329.2147062272418
 21
210.9892628494265
 31
0.0
 11
329.3489594558648
 21
211.2662105576935
 31
0.0
 11
329.4597258716519
 21
211.5533637692221
 31
0.0
 11
329.5470836271251
 21
211.8508891556694
 31
0.0
 11
329.6097803206399
 21
212.1545719402847
 31
0.0
 11
329.6476627406086
 21
212.4635673301572
 31
0.0
 11
329.6603102457029
 21
212.7746199565623
 31
0.0
 11
329.6476627406086
 21
213.0856725829674
 31
0.0
 11
329.6097803206399
 21
213.3946679728399
 31
0.0
 11
329.5470836271251
 21
213.6983507574552
 31
0.0
 11
329.4597258716519
 21
213.9958761439024
 31
0.0
 11
329.3489594558648
 21
214.2830293554311
 31
0.0
 11
329.2147062272418
 21
214.559977063698
 31
0.0
 11
329.0592695904583
 21
214.8219725752301
 31
0.0
 11
328.8821661853178
 21
215.0698308112275
 31
0.0
 11
328.6867643658185
 21
215.2988121725411
 31
0.0
 11
328.4722098067819
 21
215.5099457383708
 31
0.0
 11
328.2427106985292
 21
215.6990400030688
 31
0.0
 11
327.9972934087468
 21
215.8669491757755
 31
0.0
 11
327.7405641477468
 21
216.0104501892107
 31
0.0
 11
327.4718470856478
 21
216.1299937546485
 31
0.0
 11
327.195573567993
 21
216.2235199007291
 31
0.0
 11
326.9118362581248
 21
216.2910869985676
 31
0.0
 11
326.6243243335892
 21
216.3317165579812
 31
0.0
 11
326.334276571791
 21
216.3453341708337
 31
0.0
 11
326.0442288099928
 21
216.3317165579812
 31
0.0
 11
325.7567168854569
 21
216.2910869985676
 31
0.0
 11
325.4729795755882
 21
216.2235199007292
 31
0.0
 11
325.1967060579329
 21
216.1299937546485
 31
0.0
 11
324.9279889958345
 21
216.0104501892107
 31
0.0
 11
324.6712597348349
 21
215.8669491757755
 31
0.0
 11
324.4258424450527
 21
215.6990400030687
 31
0.0
 11
324.1963433367998
 21
215.5099457383708
 31
0.0
 11
323.9817887777631
 21
215.2988121725411
 31
0.0
 11
323.7863869582639
 21
215.0698308112275
 31
0.0
 11
323.6092835531233
 21
214.8219725752301
 31
0.0
 11
323.4538469163399
 21
214.559977063698
 31
0.0
 11
323.3195936877168
 21
214.2830293554311
 31
0.0
 11
323.2088272719298
 21
213.9958761439024
 31
0.0
 11
323.1214695164567
 21
213.6983507574551
 31
0.0
 11
323.0587728229418
 21
213.3946679728399
 31
0.0
 11
323.0208904029724
 21
213.0856725829674
 31
0.0
 11
323.0082428978778
 21
212.7746199565623
 31
0.0
 11
323.0208904029726
 21
212.4635673301572
 31
0.0
 11
323.0587728229418
 21
212.1545719402847
 31
0.0
 11
323.1214695164567
 21
211.8508891556694
 31
0.0
 11
323.2088272719298
 21
211.5533637692221
 31
0.0
 11
323.3195936877169
 21
211.2662105576934
 31
0.0
 11
323.4538469163399
 21
210.9892628494265
 31
0.0
 11
323.6092835531233
 21
210.7272673378945
 31
0.0
 11
323.7863869582639
 21
210.4794091018971
 31
0.0
 11
323.9817887777631
 21
210.2504277405835
 31
0.0
 11
324.1963433367998
 21
210.0392941747538
 31
0.0
 11
324.4258424450527
 21
209.8501999100559
 31
0.0
 11
324.6712597348349
 21
209.6822907373491
 31
0.0
 11
324.9279889958344
 21
209.5387897239138
 31
0.0
 11
325.1967060579329
 21
209.419246158476
 31
0.0
 11
325.4729795755882
 21
209.3257200123954
 31
0.0
 11
325.7567168854569
 21
209.258152914557
 31
0.0
 11
326.0442288099928
 21
209.2175233551434
 31
0.0
 11
326.334276571791
 21
209.2039057422908
 31
0.0
  0
SPLINE
  5
2FD
330
59
100
AcDbEntity
  8
1
  6
Continuous
 62
     7
100
AcDbSpline
210
0.0
220
0.0
230
1.0
 70
     8
 71
     3
 72
    43
 73
    39
 74
    37
 42
0.000000001
 43
0.0000000001
 44
0.00000001
 40
0.0
 40
0.0
 40
0.0
 40
0.0
 40
0.5012710843390774
 40
1.001984463929212
 40
1.493602126604976
 40
1.98570521974924
 40
2.512425576728168
 40
3.038783438874945
 40
3.434645311124632
 40
3.830703178359104
 40
4.329133498960994
 40
4.82721080036623
 40
5.131964605780455
 40
5.436749649743246
 40
5.790243650595515
 40
6.143721605026012
 40
6.471929713740024
 40
6.800020639570097
 40
7.113894033178425
 40
7.427712066033921
 40
7.74152892224327
 40
8.055403652994874
 40
8.383501446701933
 40
8.711702486328885
 40
9.065150480970708
 40
9.41867434168141
 40
9.803674792688195
 40
10.18871462779189
 40
10.60671039657425
 40
11.02475419731014
 40
11.47339317430714
 40
11.92198654484705
 40
12.39577734700022
 40
12.86975782266775
 40
13.36182386353913
 40
13.85347801461062
 40
14.35420362164827
 40
14.8554626350937
 40
14.8554626350937
 40
14.8554626350937
 40
14.8554626350937
 10
86.79805929111785
 20
216.3453341708337
 30
0.0
 10
86.96506881946996
 20
216.3401621166432
 30
0.0
 10
87.29890206409495
 20
216.3298237510008
 30
0.0
 10
87.79595524095052
 20
216.2970832887864
 30
0.0
 10
88.28666610504536
 20
216.2304844687193
 30
0.0
 10
88.78071119554028
 20
216.1321489770106
 30
0.0
 10
89.2796241317143
 20
216.0028901412219
 30
0.0
 10
89.73843410113975
 20
215.8506482015147
 30
0.0
 10
90.14573683546432
 20
215.6850700220451
 30
0.0
 10
90.53383187318849
 20
215.4990222274286
 30
0.0
 10
90.93699988084558
 20
215.267767465324
 30
0.0
 10
91.29166989494098
 20
215.0166383900314
 30
0.0
 10
91.57318089119306
 20
214.7773092266936
 30
0.0
 10
91.80173412936281
 20
214.5514357697876
 30
0.0
 10
92.0198801058066
 20
214.2934635244845
 30
0.0
 10
92.21306856329002
 20
214.006594002418
 30
0.0
 10
92.36687334885224
 20
213.7062972819918
 30
0.0
 10
92.47716106532131
 20
213.4012492731487
 30
0.0
 10
92.54375144136915
 20
213.0886933970177
 30
0.0
 10
92.56650104948703
 20
212.7746203871693
 30
0.0
 10
92.54375317679917
 20
212.4605467026824
 30
0.0
 10
92.47716091233954
 20
212.1479887097141
 30
0.0
 10
92.36686986453414
 20
211.8429413660156
 30
0.0
 10
92.21307315469947
 20
211.5426531432502
 30
0.0
 10
92.0198833368091
 20
211.2557820261615
 30
0.0
 10
91.78445166504116
 20
210.9773712754708
 30
0.0
 10
91.51479954238039
 20
210.7165752720338
 30
0.0
 10
91.20562394027542
 20
210.4683511177171
 30
0.0
 10
90.86756462253621
 20
210.2408187185646
 30
0.0
 10
90.49439773779415
 20
210.0299950432394
 30
0.0
 10
90.09788459215758
 20
209.8420564333966
 30
0.0
 10
89.67223498549488
 20
209.6748060673848
 30
0.0
 10
89.22867644866653
 20
209.5326953962897
 30
0.0
 10
88.76347574295968
 20
209.413664964099
 30
0.0
 10
88.28667503745856
 20
209.3187702895678
 30
0.0
 10
87.79596401352319
 20
209.2521551715992
 30
0.0
 10
87.29889821281603
 20
209.2194096209386
 30
0.0
 10
86.96506483721465
 20
209.2090755317581
 30
0.0
 10
86.79805929111785
 20
209.2039057422908
 30
0.0
 11
86.79805929111785
 21
216.3453341708337
 31
0.0
 11
87.29899161789453
 21
216.3269083664601
 31
0.0
 11
87.79842201225074
 21
216.2910869985677
 31
0.0
 11
88.2856495789544
 21
216.2255337745086
 31
0.0
 11
88.76838921831086
 21
216.1299937546485
 31
0.0
 11
89.27809962939217
 21
215.9972171311922
 31
0.0
 11
89.77744683013884
 21
215.8307690235367
 31
0.0
 11
90.14405393732756
 21
215.6814175887336
 31
0.0
 11
90.50106827731179
 21
215.5099457383708
 31
0.0
 11
90.93287491507397
 21
215.2609963209169
 31
0.0
 11
91.33867637261278
 21
214.9721950473076
 31
0.0
 11
91.57060815929253
 21
214.7745020317345
 31
0.0
 11
91.78710980198684
 21
214.5599770636979
 31
0.0
 11
92.01475991862276
 21
214.2895451253228
 31
0.0
 11
92.21149627495788
 21
213.9958761439024
 31
0.0
 11
92.36054956600856
 21
213.7034660221229
 31
0.0
 11
92.47139820450593
 21
213.3946679728399
 31
0.0
 11
92.53661278341377
 21
213.0876442503226
 31
0.0
 11
92.55891860201882
 21
212.7746199565622
 31
0.0
 11
92.53661411066145
 21
212.4615967478556
 31
0.0
 11
92.47139820450593
 21
212.1545719402846
 31
0.0
 11
92.36054533740096
 21
211.8457681119797
 31
0.0
 11
92.21149627495788
 21
211.5533637692221
 31
0.0
 11
92.01477719699895
 21
211.2597192740116
 31
0.0
 11
91.78710980198684
 21
210.9892628494265
 31
0.0
 11
91.51091225994706
 21
210.7210460242149
 31
0.0
 11
91.21113355382386
 21
210.4794091018969
 31
0.0
 11
90.86473111227772
 21
210.2454736161569
 31
0.0
 11
90.50106827731179
 21
210.0392941747536
 31
0.0
 11
90.09585329154116
 21
209.8467383457757
 31
0.0
 11
89.67848894656777
 21
209.6822907373491
 31
0.0
 11
89.22744821204746
 21
209.5372390902418
 31
0.0
 11
88.76838921831086
 21
209.419246158476
 31
0.0
 11
88.28568437058011
 21
209.3237211927637
 31
0.0
 11
87.79842201225074
 21
209.2581529145568
 31
0.0
 11
87.29897972805256
 21
209.2223264019942
 31
0.0
 11
86.79805929111785
 21
209.2039057422908
 31
0.0
  0
SPLINE
  5
2FE
330
59
100
AcDbEntity
  8
1
  6
Continuous
 62
     7
100
AcDbSpline
210
0.0
220
0.0
230
1.0
 70
     8
 71
     3
 72
    43
 73
    39
 74
    37
 42
0.000000001
 43
0.0000000001
 44
0.00000001
 40
0.0
 40
0.0
 40
0.0
 40
0.0
 40
0.5012710843396455
 40
1.001984463930347
 40
1.493602126605999
 40
1.985705219750151
 40
2.512425576729087
 40
3.03878343887585
 40
3.434645311125647
 40
3.83070317836022
 40
4.329133498961593
 40
4.82721080036639
 40
5.131964605780652
 40
5.436749649743403
 40
5.790243650595679
 40
6.143721605026159
 40
6.471929713740365
 40
6.800020639570602
 40
7.113894033178961
 40
7.427712066034482
 40
7.741528922243869
 40
8.055403652995595
 40
8.38350144670272
 40
8.711702486329594
 40
9.065150480971402
 40
9.418674341682117
 40
9.803674792688646
 40
10.18871462779192
 40
10.60671039657418
 40
11.02475419730998
 40
11.47339317430699
 40
11.92198654484689
 40
12.39577734700016
 40
12.8697578226678
 40
13.36182386353908
 40
13.85347801461045
 40
14.35420362164867
 40
14.85546263509466
 40
14.85546263509466
 40
14.85546263509466
 40
14.85546263509466
 10
86.79805929111785
 20
216.3453341708337
 30
0.0
 10
86.63104976276556
 20
216.3401621166431
 30
0.0
 10
86.29721651814013
 20
216.3298237510008
 30
0.0
 10
85.8001633412843
 20
216.2970832887865
 30
0.0
 10
85.30945247718932
 20
216.2304844687193
 30
0.0
 10
84.81540738669445
 20
216.1321489770106
 30
0.0
 10
84.31649445052057
 20
216.0028901412218
 30
0.0
 10
83.85768448109499
 20
215.8506482015146
 30
0.0
 10
83.45038174677032
 20
215.6850700220451
 30
0.0
 10
83.06228670904625
 20
215.4990222274288
 30
0.0
 10
82.65911870138956
 20
215.2677674653239
 30
0.0
 10
82.30444868729458
 20
215.0166383900312
 30
0.0
 10
82.02293769104267
 20
214.7773092266935
 30
0.0
 10
81.79438445287286
 20
214.5514357697877
 30
0.0
 10
81.57623847642918
 20
214.2934635244844
 30
0.0
 10
81.38305001894572
 20
214.0065940024179
 30
0.0
 10
81.22924523338307
 20
213.7062972819919
 30
0.0
 10
81.1189575169135
 20
213.4012492731487
 30
0.0
 10
81.05236714086524
 20
213.0886933970179
 30
0.0
 10
81.02961753274747
 20
212.7746203871694
 30
0.0
 10
81.05236540543592
 20
212.4605467026824
 30
0.0
 10
81.1189576698963
 20
212.1479887097142
 30
0.0
 10
81.22924871770168
 20
211.8429413660157
 30
0.0
 10
81.3830454275362
 20
211.5426531432502
 30
0.0
 10
81.57623524542663
 20
211.2557820261615
 30
0.0
 10
81.81166691719453
 20
210.977371275471
 30
0.0
 10
82.08131903985486
 20
210.7165752720337
 30
0.0
 10
82.39049464195942
 20
210.4683511177171
 30
0.0
 10
82.72855395969844
 20
210.2408187185645
 30
0.0
 10
83.10172084444044
 20
210.0299950432392
 30
0.0
 10
83.498233990077
 20
209.8420564333966
 30
0.0
 10
83.92388359673971
 20
209.6748060673848
 30
0.0
 10
84.36744213356815
 20
209.5326953962897
 30
0.0
 10
84.83264283927502
 20
209.413664964099
 30
0.0
 10
85.30944354477613
 20
209.3187702895679
 30
0.0
 10
85.80015456871163
 20
209.2521551715991
 30
0.0
 10
86.29722036941908
 20
209.2194096209386
 30
0.0
 10
86.63105374502088
 20
209.2090755317581
 30
0.0
 10
86.79805929111785
 20
209.2039057422908
 30
0.0
 11
86.79805929111785
 21
216.3453341708337
 31
0.0
 11
86.2971269643406
 21
216.3269083664601
 31
0.0
 11
85.79769656998383
 21
216.2910869985677
 31
0.0
 11
85.31046900328028
 21
216.2255337745086
 31
0.0
 11
84.82772936392394
 21
216.1299937546485
 31
0.0
 11
84.31801895284264
 21
215.9972171311921
 31
0.0
 11
83.81867175209595
 21
215.8307690235367
 31
0.0
 11
83.4520646449071
 21
215.6814175887336
 31
0.0
 11
83.09505030492278
 21
215.5099457383708
 31
0.0
 11
82.6632436671612
 21
215.2609963209169
 31
0.0
 11
82.25744220962292
 21
214.9721950473076
 31
0.0
 11
82.02551042294317
 21
214.7745020317344
 31
0.0
 11
81.80900878024886
 21
214.5599770636979
 31
0.0
 11
81.581358663613
 21
214.2895451253227
 31
0.0
 11
81.38462230727782
 21
213.9958761439024
 31
0.0
 11
81.23556901622672
 21
213.7034660221229
 31
0.0
 11
81.12472037772886
 21
213.3946679728399
 31
0.0
 11
81.05950579882074
 21
213.0876442503227
 31
0.0
 11
81.03719998021575
 21
212.7746199565622
 31
0.0
 11
81.05950447157367
 21
212.4615967478556
 31
0.0
 11
81.12472037772977
 21
212.1545719402846
 31
0.0
 11
81.23557324483485
 21
211.8457681119797
 31
0.0
 11
81.38462230727782
 21
211.5533637692221
 31
0.0
 11
81.58134138523677
 21
211.2597192740117
 31
0.0
 11
81.80900878024886
 21
210.9892628494265
 31
0.0
 11
82.08520632228823
 21
210.7210460242148
 31
0.0
 11
82.38498502841094
 21
210.4794091018969
 31
0.0
 11
82.73138746995691
 21
210.2454736161569
 31
0.0
 11
83.09505030492278
 21
210.0392941747536
 31
0.0
 11
83.50026529069342
 21
209.8467383457757
 31
0.0
 11
83.9176296356668
 21
209.6822907373491
 31
0.0
 11
84.3686703701872
 21
209.5372390902418
 31
0.0
 11
84.82772936392394
 21
209.419246158476
 31
0.0
 11
85.31043421165458
 21
209.3237211927637
 31
0.0
 11
85.79769656998383
 21
209.2581529145568
 31
0.0
 11
86.29713885418258
 21
209.2223264019942
 31
0.0
 11
86.79805929111785
 21
209.2039057422908
 31
0.0
  0
SPLINE
  5
2FF
330
59
100
AcDbEntity
  8
1
  6
Continuous
 62
     7
100
AcDbSpline
210
0.0
220
0.0
230
1.0
 70
     8
 71
     3
 72
    43
 73
    39
 74
    37
 42
0.000000001
 43
0.0000000001
 44
0.00000001
 40
0.0
 40
0.0
 40
0.0
 40
0.0
 40
0.5012710843396455
 40
1.001984463930347
 40
1.493602126605999
 40
1.985705219750151
 40
2.512425576729079
 40
3.038783438875856
 40
3.434645311125657
 40
3.830703178360219
 40
4.329133498962125
 40
4.827210800367363
 40
5.131964605781192
 40
5.436749649743539
 40
5.790243650595803
 40
6.143721605026284
 40
6.471929713740503
 40
6.800020639570731
 40
7.113894033179066
 40
7.427712066034594
 40
7.741528922244002
 40
8.055403652995592
 40
8.383501446702832
 40
8.711702486329965
 40
9.06515048097179
 40
9.418674341682474
 40
9.803674792688973
 40
10.18871462779228
 40
10.60671039657455
 40
11.02475419731034
 40
11.47339317430735
 40
11.92198654484725
 40
12.39577734700052
 40
12.86975782266816
 40
13.36182386353944
 40
13.85347801461081
 40
14.35420362164902
 40
14.85546263509502
 40
14.85546263509502
 40
14.85546263509502
 40
14.85546263509502
 10
72.79805929111785
 20
216.3453341708337
 30
0.0
 10
72.63104976276557
 20
216.3401621166431
 30
0.0
 10
72.29721651814015
 20
216.3298237510008
 30
0.0
 10
71.8001633412843
 20
216.2970832887865
 30
0.0
 10
71.30945247718934
 20
216.2304844687193
 30
0.0
 10
70.81540738669446
 20
216.1321489770107
 30
0.0
 10
70.31649445052051
 20
216.0028901412218
 30
0.0
 10
69.85768448109502
 20
215.8506482015147
 30
0.0
 10
69.45038174677039
 20
215.685070022045
 30
0.0
 10
69.06228670904608
 20
215.4990222274286
 30
0.0
 10
68.6591187013889
 20
215.2677674653242
 30
0.0
 10
68.30444868729353
 20
215.0166383900315
 30
0.0
 10
68.02293769104213
 20
214.7773092266936
 30
0.0
 10
67.79438445287282
 20
214.5514357697875
 30
0.0
 10
67.5762384764293
 20
214.2934635244843
 30
0.0
 10
67.38305001894568
 20
214.0065940024179
 30
0.0
 10
67.22924523338303
 20
213.7062972819919
 30
0.0
 10
67.11895751691344
 20
213.4012492731487
 30
0.0
 10
67.0523671408654
 20
213.0886933970179
 30
0.0
 10
67.02961753274757
 20
212.7746203871694
 30
0.0
 10
67.05236540543537
 20
212.4605467026824
 30
0.0
 10
67.11895766989525
 20
212.147988709714
 30
0.0
 10
67.22924871770111
 20
211.8429413660157
 30
0.0
 10
67.38304542753625
 20
211.5426531432503
 30
0.0
 10
67.57623524542679
 20
211.2557820261616
 30
0.0
 10
67.81166691719449
 20
210.9773712754709
 30
0.0
 10
68.0813190398548
 20
210.7165752720337
 30
0.0
 10
68.39049464195946
 20
210.4683511177172
 30
0.0
 10
68.72855395969842
 20
210.2408187185644
 30
0.0
 10
69.10172084444048
 20
210.0299950432394
 30
0.0
 10
69.49823399007695
 20
209.8420564333965
 30
0.0
 10
69.92388359673973
 20
209.6748060673848
 30
0.0
 10
70.36744213356813
 20
209.5326953962897
 30
0.0
 10
70.83264283927504
 20
209.413664964099
 30
0.0
 10
71.30944354477613
 20
209.3187702895679
 30
0.0
 10
71.80015456871162
 20
209.2521551715991
 30
0.0
 10
72.29722036941911
 20
209.2194096209386
 30
0.0
 10
72.63105374502088
 20
209.2090755317581
 30
0.0
 10
72.79805929111785
 20
209.2039057422908
 30
0.0
 11
72.79805929111785
 21
216.3453341708337
 31
0.0
 11
72.2971269643406
 21
216.3269083664601
 31
0.0
 11
71.79769656998383
 21
216.2910869985677
 31
0.0
 11
71.31046900328028
 21
216.2255337745086
 31
0.0
 11
70.82772936392394
 21
216.1299937546485
 31
0.0
 11
70.31801895284262
 21
215.9972171311922
 31
0.0
 11
69.81867175209595
 21
215.8307690235367
 31
0.0
 11
69.45206464490714
 21
215.6814175887335
 31
0.0
 11
69.09505030492278
 21
215.5099457383708
 31
0.0
 11
68.6632436671605
 21
215.2609963209171
 31
0.0
 11
68.25744220962179
 21
214.9721950473076
 31
0.0
 11
68.0255104229426
 21
214.7745020317344
 31
0.0
 11
67.80900878024886
 21
214.5599770636979
 31
0.0
 11
67.58135866361309
 21
214.2895451253227
 31
0.0
 11
67.38462230727782
 21
213.9958761439024
 31
0.0
 11
67.23556901622669
 21
213.7034660221229
 31
0.0
 11
67.12472037772886
 21
213.3946679728399
 31
0.0
 11
67.05950579882085
 21
213.0876442503227
 31
0.0
 11
67.03719998021575
 21
212.7746199565622
 31
0.0
 11
67.05950447157315
 21
212.4615967478555
 31
0.0
 11
67.12472037772886
 21
212.1545719402846
 31
0.0
 11
67.23557324483428
 21
211.8457681119797
 31
0.0
 11
67.38462230727782
 21
211.5533637692221
 31
0.0
 11
67.58134138523688
 21
211.2597192740117
 31
0.0
 11
67.80900878024886
 21
210.9892628494265
 31
0.0
 11
68.08520632228819
 21
210.7210460242148
 31
0.0
 11
68.38498502841094
 21
210.4794091018969
 31
0.0
 11
68.73138746995693
 21
210.2454736161569
 31
0.0
 11
69.09505030492278
 21
210.0392941747536
 31
0.0
 11
69.50026529069342
 21
209.8467383457757
 31
0.0
 11
69.9176296356668
 21
209.6822907373491
 31
0.0
 11
70.3686703701872
 21
209.5372390902418
 31
0.0
 11
70.82772936392394
 21
209.419246158476
 31
0.0
 11
71.31043421165458
 21
209.3237211927637
 31
0.0
 11
71.79769656998383
 21
209.2581529145568
 31
0.0
 11
72.29713885418258
 21
209.2223264019942
 31
0.0
 11
72.79805929111785
 21
209.2039057422908
 31
0.0
  0
SPLINE
  5
300
330
59
100
AcDbEntity
  8
1
  6
Continuous
 62
     7
100
AcDbSpline
210
0.0
220
0.0
230
1.0
 70
     8
 71
     3
 72
    43
 73
    39
 74
    37
 42
0.000000001
 43
0.0000000001
 44
0.00000001
 40
0.0
 40
0.0
 40
0.0
 40
0.0
 40
0.5012710843390774
 40
1.001984463929212
 40
1.493602126604976
 40
1.98570521974924
 40
2.512425576728182
 40
3.038783438874945
 40
3.434645311124627
 40
3.8307031783591
 40
4.329133498961018
 40
4.827210800366244
 40
5.131964605780114
 40
5.436749649742582
 40
5.790243650595148
 40
6.143721605025889
 40
6.471929713739876
 40
6.800020639569984
 40
7.113894033178362
 40
7.427712066033803
 40
7.741528922243123
 40
8.055403652994757
 40
8.383501446701825
 40
8.711702486328777
 40
9.065150480970845
 40
9.418674341681841
 40
9.803674792688382
 40
10.18871462779164
 40
10.606710396574
 40
11.02475419730989
 40
11.4733931743069
 40
11.9219865448468
 40
12.39577734699996
 40
12.8697578226675
 40
13.36182386353887
 40
13.85347801461037
 40
14.35420362164801
 40
14.85546263509344
 40
14.85546263509344
 40
14.85546263509344
 40
14.85546263509344
 10
72.79805929111785
 20
216.3453341708337
 30
0.0
 10
72.96506881946996
 20
216.3401621166432
 30
0.0
 10
73.29890206409496
 20
216.3298237510008
 30
0.0
 10
73.7959552409505
 20
216.2970832887864
 30
0.0
 10
74.28666610504533
 20
216.2304844687193
 30
0.0
 10
74.78071119554032
 20
216.1321489770106
 30
0.0
 10
75.2796241317143
 20
216.0028901412219
 30
0.0
 10
75.73843410113975
 20
215.8506482015148
 30
0.0
 10
76.14573683546429
 20
215.685070022045
 30
0.0
 10
76.53383187318849
 20
215.4990222274285
 30
0.0
 10
76.93699988084569
 20
215.2677674653243
 30
0.0
 10
77.29166989494104
 20
215.0166383900315
 30
0.0
 10
77.5731808911925
 20
214.7773092266935
 30
0.0
 10
77.80173412936196
 20
214.5514357697874
 30
0.0
 10
78.01988010580611
 20
214.2934635244845
 30
0.0
 10
78.21306856329
 20
214.0065940024181
 30
0.0
 10
78.36687334885234
 20
213.706297281992
 30
0.0
 10
78.47716106532127
 20
213.4012492731486
 30
0.0
 10
78.54375144136917
 20
213.0886933970178
 30
0.0
 10
78.56650104948703
 20
212.7746203871694
 30
0.0
 10
78.54375317679919
 20
212.4605467026824
 30
0.0
 10
78.47716091233951
 20
212.1479887097142
 30
0.0
 10
78.36686986453422
 20
211.8429413660156
 30
0.0
 10
78.21307315469949
 20
211.5426531432501
 30
0.0
 10
78.0198833368086
 20
211.2557820261616
 30
0.0
 10
77.78445166504025
 20
210.977371275471
 30
0.0
 10
77.51479954237992
 20
210.7165752720338
 30
0.0
 10
77.20562394027533
 20
210.4683511177171
 30
0.0
 10
76.86756462253628
 20
210.2408187185644
 30
0.0
 10
76.49439773779413
 20
210.0299950432394
 30
0.0
 10
76.09788459215756
 20
209.8420564333966
 30
0.0
 10
75.6722349854949
 20
209.6748060673848
 30
0.0
 10
75.22867644866655
 20
209.5326953962897
 30
0.0
 10
74.76347574295968
 20
209.413664964099
 30
0.0
 10
74.28667503745856
 20
209.3187702895679
 30
0.0
 10
73.79596401352319
 20
209.2521551715992
 30
0.0
 10
73.29889821281603
 20
209.2194096209386
 30
0.0
 10
72.96506483721467
 20
209.2090755317581
 30
0.0
 10
72.79805929111785
 20
209.2039057422908
 30
0.0
 11
72.79805929111785
 21
216.3453341708337
 31
0.0
 11
73.29899161789453
 21
216.3269083664601
 31
0.0
 11
73.79842201225074
 21
216.2910869985677
 31
0.0
 11
74.2856495789544
 21
216.2255337745086
 31
0.0
 11
74.76838921831086
 21
216.1299937546485
 31
0.0
 11
75.27809962939219
 21
215.9972171311922
 31
0.0
 11
75.77744683013884
 21
215.8307690235367
 31
0.0
 11
76.14405393732753
 21
215.6814175887335
 31
0.0
 11
76.50106827731179
 21
215.5099457383708
 31
0.0
 11
76.93287491507408
 21
215.2609963209171
 31
0.0
 11
77.33867637261278
 21
214.9721950473076
 31
0.0
 11
77.570608159292
 21
214.7745020317344
 31
0.0
 11
77.78710980198593
 21
214.5599770636979
 31
0.0
 11
78.01475991862227
 21
214.2895451253227
 31
0.0
 11
78.21149627495788
 21
213.9958761439024
 31
0.0
 11
78.36054956600861
 21
213.703466022123
 31
0.0
 11
78.47139820450593
 21
213.3946679728399
 31
0.0
 11
78.53661278341374
 21
213.0876442503226
 31
0.0
 11
78.55891860201882
 21
212.7746199565622
 31
0.0
 11
78.53661411066145
 21
212.4615967478556
 31
0.0
 11
78.47139820450593
 21
212.1545719402846
 31
0.0
 11
78.36054533740102
 21
211.8457681119797
 31
0.0
 11
78.21149627495788
 21
211.5533637692221
 31
0.0
 11
78.01477719699847
 21
211.2597192740117
 31
0.0
 11
77.78710980198593
 21
210.9892628494265
 31
0.0
 11
77.51091225994652
 21
210.7210460242148
 31
0.0
 11
77.21113355382386
 21
210.4794091018969
 31
0.0
 11
76.86473111227778
 21
210.2454736161568
 31
0.0
 11
76.50106827731179
 21
210.0392941747536
 31
0.0
 11
76.09585329154113
 21
209.8467383457757
 31
0.0
 11
75.67848894656777
 21
209.6822907373491
 31
0.0
 11
75.22744821204748
 21
209.5372390902418
 31
0.0
 11
74.76838921831086
 21
209.419246158476
 31
0.0
 11
74.28568437058011
 21
209.3237211927637
 31
0.0
 11
73.79842201225074
 21
209.2581529145568
 31
0.0
 11
73.29897972805256
 21
209.2223264019942
 31
0.0
 11
72.79805929111785
 21
209.2039057422908
 31
0.0
  0
ARC
  5
301
330
59
100
AcDbEntity
  8
1
  6
Continuous
 62
     7
100
AcDbCircle
 10
68.29805929111785
 20
206.9170829920038
 30
0.0
 40
0.9999999999996882
100
AcDbArc
 50
30.00000000001031
 51
90.0
  0
ARC
  5
302
330
59
100
AcDbEntity
  8
1
  6
Continuous
 62
     7
100
AcDbCircle
 10
70.03011009868578
 20
207.9170829920038
 30
0.0
 40
0.9999999999994913
100
AcDbArc
 50
210.0000000000168
 51
222.9414028649167
  0
ARC
  5
303
330
59
100
AcDbEntity
  8
1
  6
Continuous
 62
     7
100
AcDbCircle
 10
68.24003822938676
 20
208.9170829920038
 30
0.0
 40
0.9999999999999795
100
AcDbArc
 50
254.6624423304273
 51
270.0
  0
ARC
  5
304
330
59
100
AcDbEntity
  8
1
  6
Continuous
 62
     7
100
AcDbCircle
 10
70.03011009868578
 20
207.9170829920038
 30
0.0
 40
0.9999999999993036
100
AcDbArc
 50
222.9414028649167
 51
270.0
  0
ARC
  5
305
330
59
100
AcDbEntity
  8
1
  6
Continuous
 62
     7
100
AcDbCircle
 10
91.29805929111785
 20
206.9170829920038
 30
0.0
 40
1.0
100
AcDbArc
 50
90.0
 51
150.0000000000157
  0
ARC
  5
306
330
59
100
AcDbEntity
  8
1
  6
Continuous
 62
     7
100
AcDbCircle
 10
89.56600848354879
 20
207.9170829920038
 30
0.0
 40
1.000000000000136
100
AcDbArc
 50
317.0585971351277
 51
329.9999999999897
  0
ARC
  5
307
330
59
100
AcDbEntity
  8
1
  6
Continuous
 62
     7
100
AcDbCircle
 10
91.35608035284781
 20
208.9170829920038
 30
0.0
 40
1.0
100
AcDbArc
 50
270.0
 51
285.3375576695726
  0
ARC
  5
308
330
59
100
AcDbEntity
  8
1
  6
Continuous
 62
     7
100
AcDbCircle
 10
89.56600848354879
 20
207.9170829920038
 30
0.0
 40
1.0
100
AcDbArc
 50
270.0
 51
317.0585971351277
  0
ARC
  5
309
330
59
100
AcDbEntity
  8
1
  6
Continuous
 62
     7
100
AcDbCircle
 10
325.7099209188089
 20
206.9170829920038
 30
0.0
 40
1.0
100
AcDbArc
 50
90.0
 51
150.0000000000157
  0
ARC
  5
30A
330
59
100
AcDbEntity
  8
1
  6
Continuous
 62
     7
100
AcDbCircle
 10
323.9778701112398
 20
207.9170829920038
 30
0.0
 40
1.000000000000177
100
AcDbArc
 50
317.0585971351299
 51
329.9999999999913
  0
ARC
  5
30B
330
59
100
AcDbEntity
  8
1
  6
Continuous
 62
     7
100
AcDbCircle
 10
325.7679419805388
 20
208.9170829920038
 30
0.0
 40
1.0
100
AcDbArc
 50
270.0
 51
285.337557669574
  0
ARC
  5
30C
330
59
100
AcDbEntity
  8
1
  6
Continuous
 62
     7
100
AcDbCircle
 10
323.9778701112398
 20
207.9170829920038
 30
0.0
 40
1.0
100
AcDbArc
 50
270.0
 51
317.0585971351299
  0
ARC
  5
30D
330
59
100
AcDbEntity
  8
1
  6
Continuous
 62
     7
100
AcDbCircle
 10
304.4419717263779
 20
207.9170829920038
 30
0.0
 40
1.000000000000094
100
AcDbArc
 50
222.9414028648746
 51
270.0
  0
ARC
  5
30E
330
59
100
AcDbEntity
  8
1
  6
Continuous
 62
     7
100
AcDbCircle
 10
302.6518998570789
 20
208.9170829920038
 30
0.0
 40
1.000000000000104
100
AcDbArc
 50
254.662442330426
 51
270.0
  0
ARC
  5
30F
330
59
100
AcDbEntity
  8
1
  6
Continuous
 62
     7
100
AcDbCircle
 10
304.4419717263779
 20
207.9170829920038
 30
0.0
 40
0.9999999999997374
100
AcDbArc
 50
210.0000000000087
 51
222.9414028648746
  0
ARC
  5
310
330
59
100
AcDbEntity
  8
1
  6
Continuous
 62
     7
100
AcDbCircle
 10
302.7099209188089
 20
206.9170829920038
 30
0.0
 40
1.000000000000377
100
AcDbArc
 50
29.99999999998752
 51
90.0
  0
ENDBLK
  5
5B
330
59
100
AcDbEntity
  8
0
100
AcDbBlockEnd
  0
BLOCK
  5
61
330
5C
100
AcDbEntity
  8
0
100
AcDbBlockBegin
  2
60-7X3-_長さ_-_色_
 70
     0
 10
47.79297760447889
 20
-199.4330166573706
 30
0.0
  3
60-7X3-_長さ_-_色_
  1

  0
INSERT
  5
5D
330
5C
100
AcDbEntity
  8
0
100
AcDbBlockReference
  2
82-20-_色_
 10
103.1307842281619
 20
217.8091693229386
 30
0.0
  0
INSERT
  5
5E
330
5C
100
AcDbEntity
  8
1
100
AcDbBlockReference
  2
84-359-_色_
 10
598.2099209188088
 20
150.4170829920038
 30
0.0
  0
INSERT
  5
5F
330
5C
100
AcDbEntity
  8
1
100
AcDbBlockReference
  2
60-7A-_長さ_-M2
 10
318.1088760641749
 20
136.195323416723
 30
0.0
  0
INSERT
  5
60
330
5C
100
AcDbEntity
  8
0
100
AcDbBlockReference
  2
32-1-16-M1
 10
173.3229070339708
 20
291.1587126813476
 30
0.0
  0
ENDBLK
  5
62
330
5C
100
AcDbEntity
  8
0
100
AcDbBlockEnd
  0
BLOCK
  5
64
330
63
100
AcDbEntity
  8
0
100
AcDbBlockBegin
  2
開示A4
 70
     0
 10
525.0601412411748
 20
-27.44381989430771
 30
0.0
  3
開示A4
  1

  0
POINT
  5
311
330
63
100
AcDbEntity
  8
1
 62
     4
100
AcDbPoint
 10
606.8101412411748
 20
3.55618010569229
 30
0.0
  0
POINT
  5
312
330
63
100
AcDbEntity
  8
1
 62
     4
100
AcDbPoint
 10
598.3101412411748
 20
3.55618010569229
 30
0.0
  0
POINT
  5
313
330
63
100
AcDbEntity
  8
1
 62
     4
100
AcDbPoint
 10
619.5601412411748
 20
5.5561801056923
 30
0.0
  0
POINT
  5
314
330
63
100
AcDbEntity
  8
1
 62
     4
100
AcDbPoint
 10
619.5601412411748
 20
-0.94381989430771
 30
0.0
  0
POINT
  5
315
330
63
100
AcDbEntity
  8
1
 62
     4
100
AcDbPoint
 10
625.3101412411748
 20
-0.94381989430771
 30
0.0
  0
POINT
  5
316
330
63
100
AcDbEntity
  8
1
 62
     4
100
AcDbPoint
 10
613.8101412411748
 20
-0.94381989430771
 30
0.0
  0
POINT
  5
317
330
63
100
AcDbEntity
  8
1
 62
     4
100
AcDbPoint
 10
636.5601412411748
 20
5.5561801056923
 30
0.0
  0
POINT
  5
318
330
63
100
AcDbEntity
  8
1
 62
     4
100
AcDbPoint
 10
636.5601412411748
 20
-0.94381989430771
 30
0.0
  0
POINT
  5
319
330
63
100
AcDbEntity
  8
1
 62
     4
100
AcDbPoint
 10
642.3101412411748
 20
-0.94381989430771
 30
0.0
  0
POINT
  5
31A
330
63
100
AcDbEntity
  8
1
 62
     4
100
AcDbPoint
 10
630.8101412411748
 20
-0.94381989430771
 30
0.0
  0
POINT
  5
31B
330
63
100
AcDbEntity
  8
1
 62
     4
100
AcDbPoint
 10
653.5601412411748
 20
5.5561801056923
 30
0.0
  0
POINT
  5
31C
330
63
100
AcDbEntity
  8
1
 62
     4
100
AcDbPoint
 10
653.5601412411748
 20
-0.94381989430771
 30
0.0
  0
POINT
  5
31D
330
63
100
AcDbEntity
  8
1
 62
     4
100
AcDbPoint
 10
659.3101412411748
 20
-0.94381989430771
 30
0.0
  0
POINT
  5
31E
330
63
100
AcDbEntity
  8
1
 62
     4
100
AcDbPoint
 10
647.8101412411748
 20
-0.94381989430771
 30
0.0
  0
POINT
  5
31F
330
63
100
AcDbEntity
  8
1
 62
     4
100
AcDbPoint
 10
664.8101412411748
 20
-0.94381989430771
 30
0.0
  0
POINT
  5
320
330
63
100
AcDbEntity
  8
1
 62
     4
100
AcDbPoint
 10
676.3101412411748
 20
-0.94381989430771
 30
0.0
  0
POINT
  5
321
330
63
100
AcDbEntity
  8
1
 62
     4
100
AcDbPoint
 10
670.5601412411748
 20
-0.94381989430771
 30
0.0
  0
POINT
  5
322
330
63
100
AcDbEntity
  8
1
 62
     4
100
AcDbPoint
 10
570.0601412411748
 20
0.80618010569229
 30
0.0
  0
POINT
  5
323
330
63
100
AcDbEntity
  8
1
 62
     4
100
AcDbPoint
 10
570.0601412411748
 20
9.3061801056923
 30
0.0
  0
POINT
  5
324
330
63
100
AcDbEntity
  8
1
 62
     4
100
AcDbPoint
 10
560.5601412411748
 20
268.5561801056926
 30
0.0
  0
POINT
  5
325
330
63
100
AcDbEntity
  8
1
 62
     4
100
AcDbPoint
 10
670.5601412411748
 20
5.5561801056923
 30
0.0
  0
POINT
  5
326
330
63
100
AcDbEntity
  8
1
 62
     4
100
AcDbPoint
 10
570.0601412411748
 20
2.80618010569229
 30
0.0
  0
POINT
  5
327
330
63
100
AcDbEntity
  8
1
 62
     4
100
AcDbPoint
 10
570.0601412411748
 20
11.3061801056923
 30
0.0
  0
POINT
  5
328
330
63
100
AcDbEntity
  8
1
 62
     4
100
AcDbPoint
 10
570.0601412411748
 20
7.3061801056923
 30
0.0
  0
POINT
  5
329
330
63
100
AcDbEntity
  8
1
 62
     4
100
AcDbPoint
 10
570.0601412411748
 20
-1.19381989430771
 30
0.0
  0
POINT
  5
32A
330
63
100
AcDbEntity
  8
1
 62
     4
100
AcDbPoint
 10
547.0601412411748
 20
20.5561801056923
 30
0.0
  0
LINE
  5
32B
330
63
100
AcDbEntity
  8
1
  6
Continuous
 62
     7
100
AcDbLine
 10
618.0601412411748
 20
-3.44381989430771
 30
0.0
 11
713.0601412411748
 21
-3.44381989430771
 31
0.0
  0
LINE
  5
32C
330
63
100
AcDbEntity
  8
1
  6
Continuous
 62
     2
100
AcDbLine
 10
618.0601412411748
 20
-3.44381989430771
 30
0.0
 11
618.0601412411748
 21
-8.44381989430771
 31
0.0
  0
LINE
  5
32D
330
63
100
AcDbEntity
  8
1
  6
Continuous
 62
     7
100
AcDbLine
 10
713.0601412411748
 20
135.0561801056923
 30
0.0
 11
713.0601412411748
 21
273.5561801056926
 31
0.0
  0
LINE
  5
32E
330
63
100
AcDbEntity
  8
1
  6
Continuous
 62
     2
100
AcDbLine
 10
713.0601412411748
 20
135.0561801056923
 30
0.0
 11
718.0601412411748
 21
135.0561801056923
 31
0.0
  0
LINE
  5
32F
330
63
100
AcDbEntity
  8
1
  6
Continuous
 62
     7
100
AcDbLine
 10
538.0601412411748
 20
135.0561801056923
 30
0.0
 11
538.0601412411748
 21
273.5561801056926
 31
0.0
  0
LINE
  5
330
330
63
100
AcDbEntity
  8
1
  6
Continuous
 62
     7
100
AcDbLine
 10
618.0601412411748
 20
273.5561801056926
 30
0.0
 11
538.0601412411748
 21
273.5561801056926
 31
0.0
  0
LINE
  5
331
330
63
100
AcDbEntity
  8
1
  6
Continuous
 62
     2
100
AcDbLine
 10
618.0601412411748
 20
273.5561801056926
 30
0.0
 11
618.0601412411748
 21
278.5561801056926
 31
0.0
  0
LINE
  5
332
330
63
100
AcDbEntity
  8
1
  6
Continuous
 62
     2
100
AcDbLine
 10
679.0601412411748
 20
6.5561801056923
 30
0.0
 11
713.0601412411748
 21
6.5561801056923
 31
0.0
  0
LINE
  5
333
330
63
100
AcDbEntity
  8
1
  6
Continuous
 62
     2
100
AcDbLine
 10
611.0601412411748
 20
13.5561801056923
 30
0.0
 11
611.0601412411748
 21
-3.44381989430772
 31
0.0
  0
LINE
  5
334
330
63
100
AcDbEntity
  8
1
  6
Continuous
 62
     2
100
AcDbLine
 10
628.0601412411748
 20
13.5561801056923
 30
0.0
 11
628.0601412411748
 21
-3.44381989430772
 31
0.0
  0
LINE
  5
335
330
63
100
AcDbEntity
  8
1
  6
Continuous
 62
     2
100
AcDbLine
 10
662.0601412411748
 20
13.5561801056923
 30
0.0
 11
662.0601412411748
 21
-3.44381989430771
 31
0.0
  0
LINE
  5
336
330
63
100
AcDbEntity
  8
1
  6
Continuous
 62
     2
100
AcDbLine
 10
645.0601412411748
 20
13.5561801056923
 30
0.0
 11
645.0601412411748
 21
-3.44381989430772
 31
0.0
  0
LINE
  5
337
330
63
100
AcDbEntity
  8
1
  6
Continuous
 62
     2
100
AcDbLine
 10
679.0601412411748
 20
13.5561801056923
 30
0.0
 11
679.0601412411748
 21
-3.44381989430771
 31
0.0
  0
LINE
  5
338
330
63
100
AcDbEntity
  8
1
  6
Continuous
 62
     2
100
AcDbLine
 10
568.0601412411748
 20
263.5561801056926
 30
0.0
 11
538.0601412411748
 21
263.5561801056926
 31
0.0
  0
LINE
  5
339
330
63
100
AcDbEntity
  8
1
  6
Continuous
 62
     7
100
AcDbLine
 10
538.0601412411748
 20
-3.44381989430771
 30
0.0
 11
538.0601412411748
 21
135.0561801056923
 31
0.0
  0
LINE
  5
33A
330
63
100
AcDbEntity
  8
1
  6
Continuous
 62
     2
100
AcDbLine
 10
553.0601412411748
 20
273.5561801056926
 30
0.0
 11
553.0601412411748
 21
263.5561801056926
 31
0.0
  0
LINE
  5
33B
330
63
100
AcDbEntity
  8
1
  6
Continuous
 62
     2
100
AcDbLine
 10
568.0601412411748
 20
273.5561801056926
 30
0.0
 11
568.0601412411748
 21
263.5561801056926
 31
0.0
  0
LINE
  5
33C
330
63
100
AcDbEntity
  8
1
  6
Continuous
 62
     2
100
AcDbLine
 10
546.0601412411748
 20
27.5561801056923
 30
0.0
 11
546.0601412411748
 21
13.5561801056923
 31
0.0
  0
LINE
  5
33D
330
63
100
AcDbEntity
  8
1
  6
Continuous
 62
     7
100
AcDbLine
 10
713.0601412411748
 20
13.5561801056923
 30
0.0
 11
538.0601412411748
 21
13.5561801056923
 31
0.0
  0
LINE
  5
33E
330
63
100
AcDbEntity
  8
1
  6
Continuous
 62
     7
100
AcDbLine
 10
538.0601412411748
 20
27.55618010569229
 30
0.0
 11
713.0601412411748
 21
27.55618010569229
 31
0.0
  0
LINE
  5
33F
330
63
100
AcDbEntity
  8
1
  6
PHANTOM
 62
     4
100
AcDbLine
 10
513.060141241175
 20
-13.44381989430771
 30
0.0
 11
723.0601412411748
 21
-13.44381989430771
 31
0.0
  0
LINE
  5
340
330
63
100
AcDbEntity
  8
1
  6
PHANTOM
 62
     4
100
AcDbLine
 10
723.0601412411748
 20
-13.44381989430771
 30
0.0
 11
723.0601412411748
 21
283.5561801056923
 31
0.0
  0
LINE
  5
341
330
63
100
AcDbEntity
  8
1
  6
PHANTOM
 62
     4
100
AcDbLine
 10
723.0601412411748
 20
283.5561801056923
 30
0.0
 11
513.060141241175
 21
283.5561801056923
 31
0.0
  0
LINE
  5
342
330
63
100
AcDbEntity
  8
1
  6
PHANTOM
 62
     4
100
AcDbLine
 10
513.060141241175
 20
283.5561801056923
 30
0.0
 11
513.060141241175
 21
-13.44381989430771
 31
0.0
  0
LINE
  5
343
330
63
100
AcDbEntity
  8
1
  6
Continuous
 62
     7
100
AcDbLine
 10
538.0601412411748
 20
-3.44381989430771
 30
0.0
 11
618.0601412411748
 21
-3.44381989430771
 31
0.0
  0
LINE
  5
344
330
63
100
AcDbEntity
  8
1
  6
Continuous
 62
     7
100
AcDbLine
 10
713.0601412411748
 20
-3.44381989430771
 30
0.0
 11
713.0601412411748
 21
135.0561801056923
 31
0.0
  0
LINE
  5
345
330
63
100
AcDbEntity
  8
1
  6
Continuous
 62
     7
100
AcDbLine
 10
713.0601412411748
 20
273.5561801056926
 30
0.0
 11
618.0601412411748
 21
273.5561801056926
 31
0.0
  0
LINE
  5
346
330
63
100
AcDbEntity
  8
1
  6
Continuous
 62
     2
100
AcDbLine
 10
538.0601412411748
 20
5.0561801056923
 30
0.0
 11
594.0601412411748
 21
5.0561801056923
 31
0.0
  0
LINE
  5
347
330
63
100
AcDbEntity
  8
1
  6
Continuous
 62
     2
100
AcDbLine
 10
546.0601412411748
 20
13.5561801056923
 30
0.0
 11
546.0601412411748
 21
-3.44381989430771
 31
0.0
  0
LINE
  5
348
330
63
100
AcDbEntity
  8
1
  6
Continuous
 62
     7
100
AcDbLine
 10
704.0601412411748
 20
11.25618010569231
 30
0.0
 11
704.0601412411748
 21
8.8561801056923
 31
0.0
  0
LINE
  5
349
330
63
100
AcDbEntity
  8
1
  6
Continuous
 62
     7
100
AcDbLine
 10
704.0601412411748
 20
11.25618010569231
 30
0.0
 11
709.0601412411748
 21
12.0561801056923
 31
0.0
  0
LINE
  5
34A
330
63
100
AcDbEntity
  8
1
  6
Continuous
 62
     7
100
AcDbLine
 10
709.0601412411748
 20
12.0561801056923
 30
0.0
 11
709.0601412411748
 21
8.0561801056923
 31
0.0
  0
LINE
  5
34B
330
63
100
AcDbEntity
  8
1
  6
Continuous
 62
     7
100
AcDbLine
 10
709.0601412411748
 20
8.0561801056923
 30
0.0
 11
704.0601412411748
 21
8.8561801056923
 31
0.0
  0
LINE
  5
34C
330
63
100
AcDbEntity
  8
1
  6
DOT_CENTER
 62
     2
100
AcDbLine
 10
697.0601412411748
 20
10.0561801056923
 30
0.0
 11
710.0601412411748
 21
10.0561801056923
 31
0.0
  0
LINE
  5
34D
330
63
100
AcDbEntity
  8
1
  6
DOT_CENTER
 62
     2
100
AcDbLine
 10
700.0601412411748
 20
13.0561801056923
 30
0.0
 11
700.0601412411748
 21
7.0561801056923
 31
0.0
  0
LINE
  5
34E
330
63
100
AcDbEntity
  8
1
  6
Continuous
 62
     2
100
AcDbLine
 10
594.0601412411748
 20
13.5561801056923
 30
0.0
 11
594.0601412411748
 21
-3.44381989430771
 31
0.0
  0
CIRCLE
  5
34F
330
63
100
AcDbEntity
  8
1
  6
Continuous
 62
     7
100
AcDbCircle
 10
616.5601412411748
 20
-0.94381989430771
 30
0.0
 40
0.3000000000001819
  0
CIRCLE
  5
350
330
63
100
AcDbEntity
  8
1
  6
Continuous
 62
     7
100
AcDbCircle
 10
622.5601412411748
 20
-0.94381989430771
 30
0.0
 40
0.3000000000001819
  0
CIRCLE
  5
351
330
63
100
AcDbEntity
  8
1
  6
Continuous
 62
     7
100
AcDbCircle
 10
633.5601412411748
 20
-0.94381989430771
 30
0.0
 40
0.3000000000001819
  0
CIRCLE
  5
352
330
63
100
AcDbEntity
  8
1
  6
Continuous
 62
     7
100
AcDbCircle
 10
639.5601412411748
 20
-0.94381989430771
 30
0.0
 40
0.3000000000001819
  0
CIRCLE
  5
353
330
63
100
AcDbEntity
  8
1
  6
Continuous
 62
     7
100
AcDbCircle
 10
650.5601412411748
 20
-0.94381989430771
 30
0.0
 40
0.3000000000001819
  0
CIRCLE
  5
354
330
63
100
AcDbEntity
  8
1
  6
Continuous
 62
     7
100
AcDbCircle
 10
656.5601412411748
 20
-0.94381989430771
 30
0.0
 40
0.3000000000001819
  0
CIRCLE
  5
355
330
63
100
AcDbEntity
  8
1
  6
Continuous
 62
     7
100
AcDbCircle
 10
673.5601412411748
 20
-0.94381989430771
 30
0.0
 40
0.3000000000001819
  0
CIRCLE
  5
356
330
63
100
AcDbEntity
  8
1
  6
Continuous
 62
     7
100
AcDbCircle
 10
667.5601412411748
 20
-0.94381989430771
 30
0.0
 40
0.3000000000001819
  0
CIRCLE
  5
357
330
63
100
AcDbEntity
  8
1
  6
Continuous
 62
     7
100
AcDbCircle
 10
700.0601412411748
 20
10.0561801056923
 30
0.0
 40
1.200000000000045
  0
CIRCLE
  5
358
330
63
100
AcDbEntity
  8
1
  6
Continuous
 62
     7
100
AcDbCircle
 10
700.0601412411748
 20
10.0561801056923
 30
0.0
 40
2.0
  0
CIRCLE
  5
359
330
63
100
AcDbEntity
  8
1
  6
DOT_CENTER
 62
     7
100
AcDbCircle
 10
602.5601412411748
 20
2.55618010569229
 30
0.0
 40
0.1000000000001364
  0
CIRCLE
  5
35A
330
63
100
AcDbEntity
  8
1
  6
DOT_CENTER
 62
     7
100
AcDbCircle
 10
602.5601412411748
 20
4.55618010569229
 30
0.0
 40
0.1000000000001364
  0
MTEXT
  5
35C
330
63
100
AcDbEntity
  8
1
 62
     7
100
AcDbMText
 10
701.5601412411748
 20
1.55618010569229
 30
0.0
 40
3.0
 41
0.0
 71
     5
 72
     1
  1
三栄水栓製作所
  7
CONVERTER_11
 73
     1
 44
1.0
  0
MTEXT
  5
35D
330
63
100
AcDbEntity
  8
1
 62
     7
100
AcDbMText
 10
684.5601412411748
 20
1.55618010569229
 30
0.0
 40
2.5
 41
0.0
 71
     5
 72
     1
  1
株式会社
  7
CONVERTER_11
 73
     1
 44
1.0
  0
MTEXT
  5
35E
330
63
100
AcDbEntity
  8
1
 62
     2
100
AcDbMText
 10
545.5601412411748
 20
268.5561801056926
 30
0.0
 40
5.0
 41
0.0
 71
     5
 72
     1
  1
図番
  7
CONVERTER_11
 73
     1
 44
0.45454545454545
  0
MTEXT
  5
35F
330
63
100
AcDbEntity
  8
1
 62
     2
100
AcDbMText
 10
542.0601412411748
 20
20.5561801056923
 30
0.0
 40
3.5
 41
0.0
 71
     5
 72
     1
  1
備考
  7
CONVERTER_11
 73
     1
 44
0.45454545454545
  0
MTEXT
  5
360
330
63
100
AcDbEntity
  8
1
 62
     2
100
AcDbMText
 10
542.0601412411748
 20
9.30618010569229
 30
0.0
 40
3.5
 41
0.0
 71
     5
 72
     1
  1
品名
  7
CONVERTER_11
 73
     1
 44
0.72727272727273
  0
MTEXT
  5
361
330
63
100
AcDbEntity
  8
1
 62
     2
100
AcDbMText
 10
542.0601412411748
 20
0.80618010569229
 30
0.0
 40
3.5
 41
0.0
 71
     5
 72
     1
  1
品番
  7
CONVERTER_11
 73
     1
 44
0.72727272727273
  0
MTEXT
  5
362
330
63
100
AcDbEntity
  8
1
 62
     2
100
AcDbMText
 10
614.5601412411748
 20
11.5561801056923
 30
0.0
 40
3.0
 41
0.0
 71
     5
 72
     1
  1
承認
  7
CONVERTER_11
 73
     1
 44
0.59090909090909
  0
MTEXT
  5
363
330
63
100
AcDbEntity
  8
1
 62
     2
100
AcDbMText
 10
688.0601412411748
 20
10.0561801056923
 30
0.0
 40
3.5
 41
0.0
 71
     5
 72
     1
  1
第三角法
  7
CONVERTER_11
 73
     1
 44
0.54545454545455
  0
MTEXT
  5
364
330
63
100
AcDbEntity
  8
1
 62
     2
100
AcDbMText
 10
631.5601412411748
 20
11.5561801056923
 30
0.0
 40
3.0
 41
0.0
 71
     5
 72
     1
  1
検図
  7
CONVERTER_11
 73
     1
 44
0.59090909090909
  0
MTEXT
  5
365
330
63
100
AcDbEntity
  8
1
 62
     2
100
AcDbMText
 10
665.5601412411748
 20
11.5561801056923
 30
0.0
 40
3.0
 41
0.0
 71
     5
 72
     1
  1
設計
  7
CONVERTER_11
 73
     1
 44
0.59090909090909
  0
MTEXT
  5
366
330
63
100
AcDbEntity
  8
1
 62
     2
100
AcDbMText
 10
648.5601412411748
 20
11.5561801056923
 30
0.0
 40
3.0
 41
0.0
 71
     5
 72
     1
  1
製図
  7
CONVERTER_11
 73
     1
 44
0.59090909090909
  0
MTEXT
  5
367
330
63
100
AcDbEntity
  8
1
 62
     2
100
AcDbMText
 10
602.5601412411748
 20
10.5561801056923
 30
0.0
 40
3.5
 41
0.0
 71
     5
 72
     1
  1
尺度
  7
CONVERTER_11
 73
     1
 44
0.54545454545455
  0
MTEXT
  5
368
330
63
100
AcDbEntity
  8
1
 62
   250
100
AcDbMText
 10
538.0601412411748
 20
-8.44381989430771
 30
0.0
 40
3.5
 41
0.0
 71
     4
 72
     1
  1
備考欄の文字列 原点位置=4
  7
CONVERTER_11
 73
     1
 44
0.54545454545455
  0
ENDBLK
  5
65
330
63
100
AcDbEntity
  8
0
100
AcDbBlockEnd
  0
BLOCK
  5
67
330
66
100
AcDbEntity
  8
0
100
AcDbBlockBegin
  2
A1071-0-M1__2
 70
     0
 10
-352.6138200335241
 20
79.36153698252538
 30
0.0
  3
A1071-0-M1__2
  1

  0
LINE
  5
369
330
66
100
AcDbEntity
  8
1
  6
Continuous
 62
     7
100
AcDbLine
 10
67.79805929111785
 20
256.5089226854497
 30
0.0
 11
67.79805929111785
 21
256.9170799920031
 31
0.0
  0
LINE
  5
36A
330
66
100
AcDbEntity
  8
1
  6
Continuous
 62
     7
100
AcDbLine
 10
67.04805929111785
 20
255.2098845797713
 30
0.0
 11
92.54805929111785
 21
255.2098845797713
 31
0.0
  0
LINE
  5
36B
330
66
100
AcDbEntity
  8
1
  6
Continuous
 62
     7
100
AcDbLine
 10
92.79805929111785
 20
219.4170829920038
 30
0.0
 11
92.7980592911199
 21
220.1491337995725
 31
0.0
  0
LINE
  5
36C
330
66
100
AcDbEntity
  8
1
  6
Continuous
 62
     2
100
AcDbLine
 10
91.79805929111785
 20
216.9170829920038
 30
0.0
 11
91.79805929111785
 21
218.4170829920038
 31
0.0
  0
LINE
  5
36D
330
66
100
AcDbEntity
  8
1
  6
Continuous
 62
     7
100
AcDbLine
 10
92.79805929111785
 20
216.9170829920038
 30
0.0
 11
92.79805929111785
 21
218.4170829920038
 31
0.0
  0
LINE
  5
36E
330
66
100
AcDbEntity
  8
1
  6
Continuous
 62
     2
100
AcDbLine
 10
91.7980592911199
 20
218.4170829920037
 30
0.0
 11
92.7980592911199
 21
220.1491337995725
 31
0.0
  0
LINE
  5
36F
330
66
100
AcDbEntity
  8
1
  6
Continuous
 62
     7
100
AcDbLine
 10
92.7980592911199
 20
220.1491337995725
 30
0.0
 11
92.79805929111785
 21
223.4170829920031
 31
0.0
  0
LINE
  5
370
330
66
100
AcDbEntity
  8
1
  6
Continuous
 62
     2
100
AcDbLine
 10
67.79805929111785
 20
218.4170829920038
 30
0.0
 11
67.79805929111785
 21
216.9170829920038
 31
0.0
  0
LINE
  5
371
330
66
100
AcDbEntity
  8
1
  6
Continuous
 62
     7
100
AcDbLine
 10
66.79805929111785
 20
218.4170829920038
 30
0.0
 11
92.79805929111785
 21
218.4170829920038
 31
0.0
  0
LINE
  5
372
330
66
100
AcDbEntity
  8
1
  6
Continuous
 62
     7
100
AcDbLine
 10
66.79805929111785
 20
216.9170829920038
 30
0.0
 11
66.79805929111785
 21
218.4170829920038
 31
0.0
  0
LINE
  5
373
330
66
100
AcDbEntity
  8
1
  6
Continuous
 62
     7
100
AcDbLine
 10
66.79805929111785
 20
218.4170829920038
 30
0.0
 11
66.79805929111785
 21
220.1491337995742
 31
0.0
  0
LINE
  5
374
330
66
100
AcDbEntity
  8
1
  6
Continuous
 62
     2
100
AcDbLine
 10
67.79805929111785
 20
218.4170829920038
 30
0.0
 11
66.79805929111785
 21
220.1491337995742
 31
0.0
  0
LINE
  5
375
330
66
100
AcDbEntity
  8
1
  6
Continuous
 62
     7
100
AcDbLine
 10
66.79805929111785
 20
220.1491337995742
 30
0.0
 11
66.79805929111785
 21
223.4170829920028
 31
0.0
  0
LINE
  5
376
330
66
100
AcDbEntity
  8
1
  6
Continuous
 62
     7
100
AcDbLine
 10
64.29805929111785
 20
223.4170829920028
 30
0.0
 11
95.29805929111785
 21
223.4170829920028
 31
0.0
  0
LINE
  5
377
330
66
100
AcDbEntity
  8
1
  6
Continuous
 62
     7
100
AcDbLine
 10
63.79805929111785
 20
252.916777741044
 30
0.0
 11
63.79805929111785
 21
223.9170829920028
 31
0.0
  0
LINE
  5
378
330
66
100
AcDbEntity
  8
1
  6
Continuous
 62
     7
100
AcDbLine
 10
64.29805929111785
 20
253.416777741044
 30
0.0
 11
95.29805929111785
 21
253.416777741044
 31
0.0
  0
LINE
  5
379
330
66
100
AcDbEntity
  8
1
  6
Continuous
 62
     7
100
AcDbLine
 10
67.04805929111785
 20
253.416777741044
 30
0.0
 11
67.04805929111785
 21
255.2098845797713
 31
0.0
  0
LINE
  5
37A
330
66
100
AcDbEntity
  8
1
  6
Continuous
 62
     7
100
AcDbLine
 10
67.79805929111785
 20
256.4996586870033
 30
0.0
 11
67.04805929111785
 21
255.2098845797713
 31
0.0
  0
LINE
  5
37B
330
66
100
AcDbEntity
  8
1
  6
Continuous
 62
     2
100
AcDbLine
 10
68.03370902192796
 20
256.9170799920031
 30
0.0
 11
67.79805929111785
 21
256.5089226854497
 31
0.0
  0
LINE
  5
37C
330
66
100
AcDbEntity
  8
1
  6
Continuous
 62
     7
100
AcDbLine
 10
67.79805929111785
 20
256.4996586870033
 30
0.0
 11
67.79805929111785
 21
256.5089226854497
 31
0.0
  0
LINE
  5
37D
330
66
100
AcDbEntity
  8
1
  6
Continuous
 62
     7
100
AcDbLine
 10
91.79805929111785
 20
256.5089226854497
 30
0.0
 11
91.79805929111785
 21
256.9170799920031
 31
0.0
  0
LINE
  5
37E
330
66
100
AcDbEntity
  8
1
  6
Continuous
 62
     2
100
AcDbLine
 10
91.79805929111785
 20
256.5089226854497
 30
0.0
 11
91.56240956030683
 21
256.9170799920031
 31
0.0
  0
LINE
  5
37F
330
66
100
AcDbEntity
  8
1
  6
Continuous
 62
     7
100
AcDbLine
 10
92.54805929111785
 20
255.2098845797713
 30
0.0
 11
91.79805929111785
 21
256.4996586870033
 31
0.0
  0
LINE
  5
380
330
66
100
AcDbEntity
  8
1
  6
Continuous
 62
     7
100
AcDbLine
 10
92.54805929111785
 20
255.2098845797713
 30
0.0
 11
92.54805929111785
 21
253.4170829920026
 31
0.0
  0
LINE
  5
381
330
66
100
AcDbEntity
  8
1
  6
Continuous
 62
     7
100
AcDbLine
 10
95.79805929111785
 20
223.9170829920028
 30
0.0
 11
95.79805929111785
 21
252.916777741044
 31
0.0
  0
LINE
  5
382
330
66
100
AcDbEntity
  8
1
  6
Continuous
 62
     7
100
AcDbLine
 10
301.2099209188089
 20
223.4170829920028
 30
0.0
 11
327.2099209188089
 21
223.4170829920031
 31
0.0
  0
LINE
  5
383
330
66
100
AcDbEntity
  8
1
  6
Continuous
 62
     7
100
AcDbLine
 10
301.2099209188089
 20
216.9170829920038
 30
0.0
 11
301.2099209188089
 21
218.4170829920016
 31
0.0
  0
LINE
  5
384
330
66
100
AcDbEntity
  8
1
  6
Continuous
 62
     2
100
AcDbLine
 10
326.2099209188089
 20
216.9170829920038
 30
0.0
 11
326.2099209188089
 21
218.4170829920038
 31
0.0
  0
LINE
  5
385
330
66
100
AcDbEntity
  8
1
  6
Continuous
 62
     7
100
AcDbLine
 10
327.2099209188089
 20
216.9170829920038
 30
0.0
 11
327.2099209188089
 21
219.4170829920038
 31
0.0
  0
LINE
  5
386
330
66
100
AcDbEntity
  8
1
  6
Continuous
 62
     7
100
AcDbLine
 10
368.1603848388079
 20
260.5281941031137
 30
0.0
 11
368.1603848388079
 21
216.3059718808915
 31
0.0
  0
LINE
  5
387
330
66
100
AcDbEntity
  8
1
  6
Continuous
 62
     7
100
AcDbLine
 10
372.7615351003738
 20
247.7325829920026
 30
0.0
 11
372.7615351003728
 21
229.1015829920025
 31
0.0
  0
LINE
  5
388
330
66
100
AcDbEntity
  8
1
  6
Continuous
 62
     7
100
AcDbLine
 10
370.7099209188089
 20
248.9170829920025
 30
0.0
 11
370.7099209188089
 21
227.9170829920025
 31
0.0
  0
LINE
  5
389
330
66
100
AcDbEntity
  8
1
  6
Continuous
 62
     2
100
AcDbLine
 10
318.945570649619
 20
256.9170799920031
 30
0.0
 11
318.7099209188089
 21
256.5089226854497
 31
0.0
  0
LINE
  5
38A
330
66
100
AcDbEntity
  8
1
  6
Continuous
 62
     7
100
AcDbLine
 10
317.9599209188089
 20
255.2098845797713
 30
0.0
 11
343.4599209188089
 21
255.2098845797713
 31
0.0
  0
LINE
  5
38B
330
66
100
AcDbEntity
  8
1
  6
Continuous
 62
     7
100
AcDbLine
 10
317.9599209188089
 20
253.416777741044
 30
0.0
 11
343.4599209188089
 21
253.416777741044
 31
0.0
  0
LINE
  5
38C
330
66
100
AcDbEntity
  8
LEVER_BODY
  6
Continuous
 62
     7
100
AcDbLine
 10
368.2828803295918
 20
372.6072265861371
 30
0.0
 11
368.2828803295918
 21
414.1072265861371
 31
0.0
  0
LINE
  5
38D
330
66
100
AcDbEntity
  8
LEVER_BODY
  6
Continuous
 62
     7
100
AcDbLine
 10
368.2828803295918
 20
414.1072265861371
 30
0.0
 11
368.2828803295918
 21
415.3572265861371
 31
0.0
  0
LINE
  5
38E
330
66
100
AcDbEntity
  8
1
  6
Continuous
 62
     7
100
AcDbLine
 10
384.7099209188089
 20
231.9170829920025
 30
0.0
 11
384.7099209188089
 21
244.9170829920025
 31
0.0
  0
LINE
  5
38F
330
66
100
AcDbEntity
  8
1
  6
Continuous
 62
     7
100
AcDbLine
 10
384.7099209188089
 20
244.9170829920025
 30
0.0
 11
384.7099209188089
 21
247.7325829920026
 31
0.0
  0
LINE
  5
390
330
66
100
AcDbEntity
  8
1
  6
Continuous
 62
     7
100
AcDbLine
 10
301.2099209188089
 20
218.4170829920016
 30
0.0
 11
327.2099209188089
 21
218.4170829920038
 31
0.0
  0
LINE
  5
391
330
66
100
AcDbEntity
  8
1
  6
Continuous
 62
     7
100
AcDbLine
 10
327.2099209188109
 20
220.1491337995725
 30
0.0
 11
327.2099209188089
 21
223.4170829920031
 31
0.0
  0
LINE
  5
392
330
66
100
AcDbEntity
  8
1
  6
Continuous
 62
     2
100
AcDbLine
 10
326.2099209188109
 20
218.4170829920037
 30
0.0
 11
327.2099209188109
 21
220.1491337995725
 31
0.0
  0
LINE
  5
393
330
66
100
AcDbEntity
  8
1
  6
Continuous
 62
     7
100
AcDbLine
 10
314.7096608857528
 20
253.416777741044
 30
0.0
 11
317.9599209188089
 21
253.416777741044
 31
0.0
  0
LINE
  5
394
330
66
100
AcDbEntity
  8
1
  6
Continuous
 62
     7
100
AcDbLine
 10
318.7099209188089
 20
256.4996586870033
 30
0.0
 11
318.7099209188089
 21
256.9170799920031
 31
0.0
  0
LINE
  5
395
330
66
100
AcDbEntity
  8
1
  6
Continuous
 62
     7
100
AcDbLine
 10
317.9599209188089
 20
253.416777741044
 30
0.0
 11
317.9599209188089
 21
255.2098845797713
 31
0.0
  0
LINE
  5
396
330
66
100
AcDbEntity
  8
1
  6
Continuous
 62
     7
100
AcDbLine
 10
318.7099209188089
 20
256.4996586870033
 30
0.0
 11
317.9599209188089
 21
255.2098845797713
 31
0.0
  0
LINE
  5
397
330
66
100
AcDbEntity
  8
1
  6
Continuous
 62
     7
100
AcDbLine
 10
343.4599209188089
 20
255.2098845797713
 30
0.0
 11
343.4599209188089
 21
253.4170829920027
 31
0.0
  0
LINE
  5
398
330
66
100
AcDbEntity
  8
1
  6
Continuous
 62
     7
100
AcDbLine
 10
343.4599209188089
 20
255.2098845797713
 30
0.0
 11
342.7099209188089
 21
256.4996586870033
 31
0.0
  0
LINE
  5
399
330
66
100
AcDbEntity
  8
1
  6
Continuous
 62
     7
100
AcDbLine
 10
342.7099209188089
 20
256.5089226854497
 30
0.0
 11
342.7099209188089
 21
256.4996586870033
 31
0.0
  0
LINE
  5
39A
330
66
100
AcDbEntity
  8
1
  6
Continuous
 62
     7
100
AcDbLine
 10
342.7099209188089
 20
256.5089226854497
 30
0.0
 11
342.7099209188089
 21
256.4996586870033
 31
0.0
  0
LINE
  5
39B
330
66
100
AcDbEntity
  8
1
  6
Continuous
 62
     7
100
AcDbLine
 10
342.7099209188089
 20
256.5089226854497
 30
0.0
 11
342.7099209188089
 21
256.9170799920031
 31
0.0
  0
LINE
  5
39C
330
66
100
AcDbEntity
  8
1
  6
Continuous
 62
     7
100
AcDbLine
 10
342.7099209188089
 20
256.5089226854497
 30
0.0
 11
342.7099209188089
 21
256.4996586870033
 31
0.0
  0
LINE
  5
39D
330
66
100
AcDbEntity
  8
1
  6
Continuous
 62
     2
100
AcDbLine
 10
342.7099209188089
 20
256.5089226854497
 30
0.0
 11
342.4742711879978
 21
256.9170799920031
 31
0.0
  0
LINE
  5
39E
330
66
100
AcDbEntity
  8
1
  6
Continuous
 62
     7
100
AcDbLine
 10
327.2099209188089
 20
223.4170829920031
 30
0.0
 11
360.2099209188089
 21
223.4170829920025
 31
0.0
  0
LINE
  5
39F
330
66
100
AcDbEntity
  8
1
  6
Continuous
 62
     7
100
AcDbLine
 10
326.2099209188089
 20
218.4170829920038
 30
0.0
 11
326.2099209188109
 21
218.4170829920037
 31
0.0
  0
LINE
  5
3A0
330
66
100
AcDbEntity
  8
1
  6
Continuous
 62
     7
100
AcDbLine
 10
327.2099209188089
 20
219.4170829920038
 30
0.0
 11
327.2099209188109
 21
220.1491337995725
 31
0.0
  0
LINE
  5
3A1
330
66
100
AcDbEntity
  8
1
  6
Continuous
 62
     7
100
AcDbLine
 10
360.2099209188089
 20
253.4170829920025
 30
0.0
 11
343.4599209188089
 21
253.4170829920027
 31
0.0
  0
LINE
  5
3A2
330
66
100
AcDbEntity
  8
1
  6
Continuous
 62
     7
100
AcDbLine
 10
369.1541928288079
 20
215.4170829920025
 30
0.0
 11
370.7099209188089
 21
215.4170829920025
 31
0.0
  0
LINE
  5
3A3
330
66
100
AcDbEntity
  8
1
  6
Continuous
 62
     7
100
AcDbLine
 10
370.7099209188089
 20
223.4170829920034
 30
0.0
 11
370.7099209188089
 21
215.4170829920025
 31
0.0
  0
LINE
  5
3A4
330
66
100
AcDbEntity
  8
1
  6
Continuous
 62
     7
100
AcDbLine
 10
370.7099209188089
 20
261.4170829920027
 30
0.0
 11
369.1541928288079
 21
261.4170829920027
 31
0.0
  0
LINE
  5
3A5
330
66
100
AcDbEntity
  8
1
  6
Continuous
 62
     7
100
AcDbLine
 10
370.7099209188089
 20
253.4170829920025
 30
0.0
 11
370.7099209188089
 21
261.4170829920027
 31
0.0
  0
LINE
  5
3A6
330
66
100
AcDbEntity
  8
1
  6
Continuous
 62
     7
100
AcDbLine
 10
370.7099209188089
 20
223.4170829920034
 30
0.0
 11
370.7099209188089
 21
227.9170829920025
 31
0.0
  0
LINE
  5
3A7
330
66
100
AcDbEntity
  8
1
  6
Continuous
 62
     7
100
AcDbLine
 10
370.7099209188089
 20
253.4170829920025
 30
0.0
 11
370.7099209188089
 21
248.9170829920025
 31
0.0
  0
LINE
  5
3A8
330
66
100
AcDbEntity
  8
1
  6
Continuous
 62
     7
100
AcDbLine
 10
370.7099209188089
 20
248.9170829920025
 30
0.0
 11
383.5254209188088
 21
248.9170829920025
 31
0.0
  0
LINE
  5
3A9
330
66
100
AcDbEntity
  8
1
  6
Continuous
 62
     2
100
AcDbLine
 10
370.7099209188089
 20
248.9170829920025
 30
0.0
 11
372.7615351003738
 21
247.7325829920026
 31
0.0
  0
LINE
  5
3AA
330
66
100
AcDbEntity
  8
1
  6
Continuous
 62
     2
100
AcDbLine
 10
372.7615351003738
 20
247.7325829920026
 30
0.0
 11
372.7615351003738
 21
247.7325829920026
 31
0.0
  0
LINE
  5
3AB
330
66
100
AcDbEntity
  8
1
  6
Continuous
 62
     7
100
AcDbLine
 10
384.7099209188089
 20
247.7325829920026
 30
0.0
 11
383.5254209188088
 21
248.9170829920025
 31
0.0
  0
LINE
  5
3AC
330
66
100
AcDbEntity
  8
1
  6
Continuous
 62
     7
100
AcDbLine
 10
372.7615351003738
 20
247.7325829920026
 30
0.0
 11
372.7615351003738
 21
248.9170829920025
 31
0.0
  0
LINE
  5
3AD
330
66
100
AcDbEntity
  8
1
  6
Continuous
 62
     2
100
AcDbLine
 10
384.7099209188089
 20
229.1015829920025
 30
0.0
 11
372.7615351003728
 21
229.1015829920025
 31
0.0
  0
LINE
  5
3AE
330
66
100
AcDbEntity
  8
1
  6
Continuous
 62
     7
100
AcDbLine
 10
383.5254209188088
 20
227.9170829920025
 30
0.0
 11
372.7615351003728
 21
227.9170829920025
 31
0.0
  0
LINE
  5
3AF
330
66
100
AcDbEntity
  8
1
  6
Continuous
 62
     7
100
AcDbLine
 10
372.7615351003728
 20
227.9170829920025
 30
0.0
 11
372.7615351003728
 21
229.1015829920025
 31
0.0
  0
LINE
  5
3B0
330
66
100
AcDbEntity
  8
1
  6
Continuous
 62
     7
100
AcDbLine
 10
383.5254209188088
 20
227.9170829920025
 30
0.0
 11
384.7099209188089
 21
229.1015829920025
 31
0.0
  0
LINE
  5
3B1
330
66
100
AcDbEntity
  8
1
  6
Continuous
 62
     2
100
AcDbLine
 10
372.7615351003728
 20
229.1015829920025
 30
0.0
 11
370.7099209188089
 21
227.9170829920025
 31
0.0
  0
LINE
  5
3B2
330
66
100
AcDbEntity
  8
1
  6
Continuous
 62
     7
100
AcDbLine
 10
372.7615351003728
 20
227.9170829920025
 30
0.0
 11
370.7099209188089
 21
227.9170829920025
 31
0.0
  0
LINE
  5
3B3
330
66
100
AcDbEntity
  8
1
  6
Continuous
 62
     7
100
AcDbLine
 10
384.7099209188089
 20
229.1015829920025
 30
0.0
 11
384.7099209188089
 21
231.9170829920025
 31
0.0
  0
LINE
  5
3B4
330
66
100
AcDbEntity
  8
1
  6
Continuous
 62
     2
100
AcDbLine
 10
302.2099209188089
 20
218.4170829920038
 30
0.0
 11
301.2099209188089
 21
220.1491337995742
 31
0.0
  0
LINE
  5
3B5
330
66
100
AcDbEntity
  8
1
  6
Continuous
 62
     2
100
AcDbLine
 10
302.2099209188089
 20
218.4170829920038
 30
0.0
 11
302.2099209188089
 21
216.9170829920038
 31
0.0
  0
LINE
  5
3B6
330
66
100
AcDbEntity
  8
1
  6
Continuous
 62
     7
100
AcDbLine
 10
301.2099209188089
 20
223.4170829920028
 30
0.0
 11
299.5176831937069
 21
223.4170829920032
 31
0.0
  0
LINE
  5
3B7
330
66
100
AcDbEntity
  8
1
  6
Continuous
 62
     2
100
AcDbLine
 10
372.7615351003738
 20
247.7325829920026
 30
0.0
 11
384.7099209188089
 21
247.7325829920026
 31
0.0
  0
LINE
  5
3B8
330
66
100
AcDbEntity
  8
1
  6
Continuous
 62
     7
100
AcDbLine
 10
301.2099209188089
 20
220.1491337995742
 30
0.0
 11
301.2099209188089
 21
223.4170829920028
 31
0.0
  0
LINE
  5
3B9
330
66
100
AcDbEntity
  8
1
  6
Continuous
 62
     7
100
AcDbLine
 10
301.2099209188089
 20
218.4170829920038
 30
0.0
 11
301.2099209188089
 21
220.1491337995742
 31
0.0
  0
LINE
  5
3BA
330
66
100
AcDbEntity
  8
LEVER_BODY
  6
Continuous
 62
     7
100
AcDbLine
 10
314.2828803295918
 20
377.3572265861371
 30
0.0
 11
319.2306305655618
 21
377.3572265861371
 31
0.0
  0
LINE
  5
3BB
330
66
100
AcDbEntity
  8
LEVER_BODY
  6
Continuous
 62
     7
100
AcDbLine
 10
314.2828803295918
 20
409.3572265861371
 30
0.0
 11
318.7850568220438
 21
409.3572265861371
 31
0.0
  0
LINE
  5
3BC
330
66
100
AcDbEntity
  8
LEVER_BODY
  6
Continuous
 62
     7
100
AcDbLine
 10
370.7828803295918
 20
416.3572265861371
 30
0.0
 11
370.7828803295918
 21
370.3572265861371
 31
0.0
  0
LINE
  5
3BD
330
66
100
AcDbEntity
  8
LEVER_BODY
  6
Continuous
 62
     7
100
AcDbLine
 10
368.2828803295918
 20
371.3572265861371
 30
0.0
 11
368.2828803295918
 21
372.6072265861371
 31
0.0
  0
LINE
  5
3BE
330
66
100
AcDbEntity
  8
LEVER_BODY
  6
Continuous
 62
     7
100
AcDbLine
 10
347.7663281538708
 20
380.6072265861371
 30
0.0
 11
360.2828803295918
 21
380.6072265861371
 31
0.0
  0
LINE
  5
3BF
330
66
100
AcDbEntity
  8
LEVER_BODY
  6
Continuous
 62
     7
100
AcDbLine
 10
347.7663281538708
 20
406.1072265861371
 30
0.0
 11
360.2828803295918
 21
406.1072265861371
 31
0.0
  0
LINE
  5
3C0
330
66
100
AcDbEntity
  8
LEVER_BODY
  6
Continuous
 62
     7
100
AcDbLine
 10
370.7828803295918
 20
416.3572265861371
 30
0.0
 11
369.2828803295918
 21
416.3572265861371
 31
0.0
  0
LINE
  5
3C1
330
66
100
AcDbEntity
  8
LEVER_BODY
  6
Continuous
 62
     7
100
AcDbLine
 10
370.7828803295918
 20
370.3572265861371
 30
0.0
 11
369.2828803295918
 21
370.3572265861371
 31
0.0
  0
LINE
  5
3C2
330
66
100
AcDbEntity
  8
1
  6
Continuous
 62
     7
100
AcDbLine
 10
384.7828803295918
 20
402.6727265861371
 30
0.0
 11
383.5983803295928
 21
403.8572265861371
 31
0.0
  0
LINE
  5
3C3
330
66
100
AcDbEntity
  8
1
  6
Continuous
 62
     7
100
AcDbLine
 10
370.7828803295918
 20
403.8572265861371
 30
0.0
 11
372.8344945111578
 21
403.8572265861371
 31
0.0
  0
LINE
  5
3C4
330
66
100
AcDbEntity
  8
1
  6
Continuous
 62
     2
100
AcDbLine
 10
372.8344945111578
 20
402.6727265861371
 30
0.0
 11
384.7828803295918
 21
402.6727265861371
 31
0.0
  0
LINE
  5
3C5
330
66
100
AcDbEntity
  8
1
  6
Continuous
 62
     2
100
AcDbLine
 10
372.8344945111578
 20
402.6727265861371
 30
0.0
 11
384.7828803295918
 21
402.6727265861371
 31
0.0
  0
LINE
  5
3C6
330
66
100
AcDbEntity
  8
1
  6
Continuous
 62
     7
100
AcDbLine
 10
384.7828803295918
 20
402.6727265861371
 30
0.0
 11
383.5983803295928
 21
403.8572265861371
 31
0.0
  0
LINE
  5
3C7
330
66
100
AcDbEntity
  8
1
  6
Continuous
 62
     7
100
AcDbLine
 10
384.7828803295918
 20
384.0417265861377
 30
0.0
 11
384.7828803295918
 21
402.6727265861371
 31
0.0
  0
LINE
  5
3C8
330
66
100
AcDbEntity
  8
1
  6
Continuous
 62
     2
100
AcDbLine
 10
370.7828803295918
 20
403.8572265861371
 30
0.0
 11
372.8344945111578
 21
402.6727265861371
 31
0.0
  0
LINE
  5
3C9
330
66
100
AcDbEntity
  8
1
  6
Continuous
 62
     2
100
AcDbLine
 10
372.8344945111569
 20
384.0417265861377
 30
0.0
 11
370.7828803295918
 21
382.8572265861376
 31
0.0
  0
LINE
  5
3CA
330
66
100
AcDbEntity
  8
1
  6
Continuous
 62
     7
100
AcDbLine
 10
383.5983803295928
 20
382.8572265861376
 30
0.0
 11
372.8344945111578
 21
382.8572265861376
 31
0.0
  0
LINE
  5
3CB
330
66
100
AcDbEntity
  8
1
  6
Continuous
 62
     2
100
AcDbLine
 10
384.7828803295918
 20
384.0417265861377
 30
0.0
 11
372.8344945111569
 21
384.0417265861377
 31
0.0
  0
LINE
  5
3CC
330
66
100
AcDbEntity
  8
1
  6
Continuous
 62
     7
100
AcDbLine
 10
383.5983803295928
 20
382.8572265861376
 30
0.0
 11
384.7828803295918
 21
384.0417265861377
 31
0.0
  0
LINE
  5
3CD
330
66
100
AcDbEntity
  8
1
  6
Continuous
 62
     7
100
AcDbLine
 10
372.8344945111578
 20
403.8572265861371
 30
0.0
 11
372.8344945111578
 21
382.8572265861376
 31
0.0
  0
LINE
  5
3CE
330
66
100
AcDbEntity
  8
1
  6
Continuous
 62
     7
100
AcDbLine
 10
372.8344945111578
 20
382.8572265861376
 30
0.0
 11
370.7828803295918
 21
382.8572265861376
 31
0.0
  0
LINE
  5
3CF
330
66
100
AcDbEntity
  8
1
  6
Continuous
 62
     7
100
AcDbLine
 10
372.8344945111578
 20
403.8572265861371
 30
0.0
 11
383.5983803295928
 21
403.8572265861371
 31
0.0
  0
LINE
  5
3D0
330
66
100
AcDbEntity
  8
1
  6
Continuous
 62
     7
100
AcDbLine
 10
383.5983803295928
 20
403.8572265861371
 30
0.0
 11
383.5983803295928
 21
382.8572265861376
 31
0.0
  0
LINE
  5
3D1
330
66
100
AcDbEntity
  8
1
  6
Continuous
 62
     7
100
AcDbLine
 10
383.5254209188088
 20
227.9170829920025
 30
0.0
 11
383.5254209188088
 21
248.9170829920025
 31
0.0
  0
LINE
  5
3D2
330
66
100
AcDbEntity
  8
1
  6
Continuous
 62
     7
100
AcDbLine
 10
92.79805929111785
 20
218.4170829920038
 30
0.0
 11
92.79805929111785
 21
219.4170829920038
 31
0.0
  0
ARC
  5
3D3
330
66
100
AcDbEntity
  8
1
  6
Continuous
 62
     7
100
AcDbCircle
 10
79.79805929111785
 20
238.4170829920025
 30
0.0
 40
22.99999999999994
100
AcDbArc
 50
304.4173887104417
 51
0.0
  0
ARC
  5
3D4
330
66
100
AcDbEntity
  8
1
  6
Continuous
 62
     7
100
AcDbCircle
 10
79.79805929111785
 20
238.4170829920025
 30
0.0
 40
22.99999999999992
100
AcDbArc
 50
126.4050600541643
 51
235.5826112895583
  0
ARC
  5
3D5
330
66
100
AcDbEntity
  8
1
  6
Continuous
 62
     7
100
AcDbCircle
 10
79.79805929111785
 20
238.4170829920025
 30
0.0
 40
23.00000000000004
100
AcDbArc
 50
0.0
 51
53.59493994583589
  0
ARC
  5
3D6
330
66
100
AcDbEntity
  8
LEVER_BODY
  6
Continuous
 62
     7
100
AcDbCircle
 10
314.2828803295918
 20
393.3572265861371
 30
0.0
 40
16.0
100
AcDbArc
 50
90.0
 51
108.4621633815292
  0
ARC
  5
3D7
330
66
100
AcDbEntity
  8
LEVER_BODY
  6
Continuous
 62
     7
100
AcDbCircle
 10
347.7663281538708
 20
350.6072265861371
 30
0.0
 40
30.0
100
AcDbArc
 50
90.0
 51
96.93662588225412
  0
ARC
  5
3D8
330
66
100
AcDbEntity
  8
1
  6
Continuous
 62
     7
100
AcDbCircle
 10
360.2828803295918
 20
372.6072265861371
 30
0.0
 40
8.0
100
AcDbArc
 50
0.0
 51
90.0
  0
ARC
  5
3D9
330
66
100
AcDbEntity
  8
1
  6
Continuous
 62
     7
100
AcDbCircle
 10
360.2828803295918
 20
414.1072265861371
 30
0.0
 40
8.0
100
AcDbArc
 50
270.0
 51
0.0
  0
ARC
  5
3DA
330
66
100
AcDbEntity
  8
1
  6
Continuous
 62
     7
100
AcDbCircle
 10
365.9325619709418
 20
205.7070889512945
 30
0.0
 40
69.99999999998431
100
AcDbArc
 50
137.0337857174312
 51
164.2667343823221
  0
ARC
  5
3DB
330
66
100
AcDbEntity
  8
LEVER_BODY
  6
Continuous
 62
     7
100
AcDbCircle
 10
347.7663281538708
 20
436.1072265861371
 30
0.0
 40
30.00000000000011
100
AcDbArc
 50
263.8580140628148
 51
270.0
  0
ARC
  5
3DC
330
66
100
AcDbEntity
  8
LEVER_BODY
  6
Continuous
 62
     7
100
AcDbCircle
 10
314.2828803295918
 20
393.3572265861371
 30
0.0
 40
15.99999999999968
100
AcDbArc
 50
251.5378366184672
 51
270.0
  0
ARC
  5
3DD
330
66
100
AcDbEntity
  8
1
  6
Continuous
 62
     7
100
AcDbCircle
 10
95.29805929111785
 20
223.9170829920028
 30
0.0
 40
0.5
100
AcDbArc
 50
270.0
 51
0.0
  0
ARC
  5
3DE
330
66
100
AcDbEntity
  8
1
  6
Continuous
 62
     7
100
AcDbCircle
 10
64.29805929111785
 20
223.9170829920028
 30
0.0
 40
0.5
100
AcDbArc
 50
180.0
 51
270.0
  0
ARC
  5
3DF
330
66
100
AcDbEntity
  8
1
  6
Continuous
 62
     7
100
AcDbCircle
 10
95.29805929111785
 20
252.916777741044
 30
0.0
 40
0.5
100
AcDbArc
 50
0.0
 51
90.0
  0
ARC
  5
3E0
330
66
100
AcDbEntity
  8
1
  6
Continuous
 62
     7
100
AcDbCircle
 10
64.29805929111785
 20
252.916777741044
 30
0.0
 40
0.5
100
AcDbArc
 50
90.0
 51
180.0
  0
ARC
  5
3E1
330
66
100
AcDbEntity
  8
1
  6
Continuous
 62
     7
100
AcDbCircle
 10
369.1541928288079
 20
216.4170829920025
 30
0.0
 40
1.000000000000074
100
AcDbArc
 50
186.379370208436
 51
270.0
  0
ARC
  5
3E2
330
66
100
AcDbEntity
  8
1
  6
Continuous
 62
     7
100
AcDbCircle
 10
369.1541928288079
 20
260.4170829920027
 30
0.0
 40
1.0
100
AcDbArc
 50
90.0
 51
173.6206297915624
  0
ARC
  5
3E3
330
66
100
AcDbEntity
  8
1
  6
Continuous
 62
     7
100
AcDbCircle
 10
360.2099209188089
 20
261.4170829920025
 30
0.0
 40
8.000000000000028
100
AcDbArc
 50
270.0
 51
353.6206297915576
  0
ARC
  5
3E4
330
66
100
AcDbEntity
  8
1
  6
Continuous
 62
     7
100
AcDbCircle
 10
360.2099209188089
 20
215.4170829920025
 30
0.0
 40
7.999999999999742
100
AcDbArc
 50
6.37937020844381
 51
90.0
  0
ARC
  5
3E5
330
66
100
AcDbEntity
  8
1
  6
Continuous
 62
     7
100
AcDbCircle
 10
299.5176831937069
 20
224.4170829920032
 30
0.0
 40
0.9999999999994441
100
AcDbArc
 50
164.2667343823109
 51
270.0
  0
ARC
  5
3E6
330
66
100
AcDbEntity
  8
1
  6
Continuous
 62
     7
100
AcDbCircle
 10
369.2828803295918
 20
371.3572265861371
 30
0.0
 40
1.0
100
AcDbArc
 50
180.0
 51
270.0
  0
ARC
  5
3E7
330
66
100
AcDbEntity
  8
1
  6
Continuous
 62
     7
100
AcDbCircle
 10
369.2828803295918
 20
415.3572265861371
 30
0.0
 40
1.0
100
AcDbArc
 50
90.0
 51
180.0
  0
ENDBLK
  5
68
330
66
100
AcDbEntity
  8
0
100
AcDbBlockEnd
  0
BLOCK
  5
6A
330
69
100
AcDbEntity
  8
0
100
AcDbBlockBegin
  2
32-238-M1
 70
     0
 10
296.4186365128298
 20
-16.98573625887463
 30
0.0
  3
32-238-M1
  1

  0
LINE
  5
3E8
330
69
100
AcDbEntity
  8
1
  6
Continuous
 62
     2
100
AcDbLine
 10
66.79805929111785
 20
270.8170769920031
 30
0.0
 11
66.34472162350175
 21
270.8170769920031
 31
0.0
  0
LINE
  5
3E9
330
69
100
AcDbEntity
  8
1
  6
Continuous
 62
     7
100
AcDbLine
 10
91.29805929111785
 20
277.1170769920033
 30
0.0
 11
92.79805929111785
 21
277.1170769920033
 31
0.0
  0
LINE
  5
3EA
330
69
100
AcDbEntity
  8
1
  6
Continuous
 62
     7
100
AcDbLine
 10
92.79805929111785
 20
270.8170769920031
 30
0.0
 11
92.79805929111785
 21
277.1170769920033
 31
0.0
  0
LINE
  5
3EB
330
69
100
AcDbEntity
  8
1
  6
Continuous
 62
     7
100
AcDbLine
 10
94.29805929111785
 20
269.3170769920031
 30
0.0
 11
92.79805929111785
 21
270.8170769920031
 31
0.0
  0
LINE
  5
3EC
330
69
100
AcDbEntity
  8
1
  6
Continuous
 62
     7
100
AcDbLine
 10
66.79805929111785
 20
270.8170769920031
 30
0.0
 11
65.29805929111785
 21
269.3170769920031
 31
0.0
  0
LINE
  5
3ED
330
69
100
AcDbEntity
  8
1
  6
Continuous
 62
     7
100
AcDbLine
 10
66.79805929111785
 20
277.1170769920033
 30
0.0
 11
68.29805929111785
 21
277.1170769920033
 31
0.0
  0
LINE
  5
3EE
330
69
100
AcDbEntity
  8
1
  6
Continuous
 62
     7
100
AcDbLine
 10
66.79805929111785
 20
277.1170769920033
 30
0.0
 11
66.79805929111785
 21
270.8170769920031
 31
0.0
  0
LINE
  5
3EF
330
69
100
AcDbEntity
  8
1
  6
Continuous
 62
     7
100
AcDbLine
 10
93.29805929111785
 20
256.9170799920031
 30
0.0
 11
79.79805929111785
 21
256.9170799920031
 31
0.0
  0
LINE
  5
3F0
330
69
100
AcDbEntity
  8
1
  6
Continuous
 62
     7
100
AcDbLine
 10
94.29805929111785
 20
269.3170769920031
 30
0.0
 11
94.29805929111785
 21
257.9170799920031
 31
0.0
  0
LINE
  5
3F1
330
69
100
AcDbEntity
  8
1
  6
Continuous
 62
     7
100
AcDbLine
 10
91.29805929111785
 20
277.4170799920031
 30
0.0
 11
91.29805929111785
 21
277.1170769920033
 31
0.0
  0
LINE
  5
3F2
330
69
100
AcDbEntity
  8
1
  6
Continuous
 62
     7
100
AcDbLine
 10
79.79805929111785
 20
277.1170769920033
 30
0.0
 11
91.29805929111785
 21
277.1170769920033
 31
0.0
  0
LINE
  5
3F3
330
69
100
AcDbEntity
  8
1
  6
Continuous
 62
     7
100
AcDbLine
 10
68.29805929111785
 20
277.1170769920033
 30
0.0
 11
79.79805929111785
 21
277.1170769920033
 31
0.0
  0
LINE
  5
3F4
330
69
100
AcDbEntity
  8
1
  6
Continuous
 62
     7
100
AcDbLine
 10
68.29805929111785
 20
277.1170769920033
 30
0.0
 11
68.29805929111785
 21
277.4170799920031
 31
0.0
  0
LINE
  5
3F5
330
69
100
AcDbEntity
  8
1
  6
Continuous
 62
     7
100
AcDbLine
 10
65.29805929111785
 20
257.9170799920031
 30
0.0
 11
65.29805929111785
 21
269.3170769920031
 31
0.0
  0
LINE
  5
3F6
330
69
100
AcDbEntity
  8
1
  6
Continuous
 62
     7
100
AcDbLine
 10
79.79805929111785
 20
256.9170799920031
 30
0.0
 11
66.29805929111785
 21
256.9170799920031
 31
0.0
  0
LINE
  5
3F7
330
69
100
AcDbEntity
  8
1
  6
Continuous
 62
     7
100
AcDbLine
 10
336.2654319188089
 20
277.4170799920031
 30
0.0
 11
338.7099209188098
 21
277.4170799920031
 31
0.0
  0
LINE
  5
3F8
330
69
100
AcDbEntity
  8
1
  6
Continuous
 62
     7
100
AcDbLine
 10
338.7099209188098
 20
278.0553775812706
 30
0.0
 11
338.7099209188098
 21
277.4170799920031
 31
0.0
  0
LINE
  5
3F9
330
69
100
AcDbEntity
  8
1
  6
Continuous
 62
     7
100
AcDbLine
 10
344.2099209188098
 20
256.9170799920031
 30
0.0
 11
330.7099209188089
 21
256.9170799920031
 31
0.0
  0
LINE
  5
3FA
330
69
100
AcDbEntity
  8
1
  6
Continuous
 62
     7
100
AcDbLine
 10
345.2099209188098
 20
276.1170769920031
 30
0.0
 11
345.2099209188098
 21
257.9170799920031
 31
0.0
  0
LINE
  5
3FB
330
69
100
AcDbEntity
  8
1
  6
Continuous
 62
     7
100
AcDbLine
 10
337.4737955480439
 20
277.1170769920031
 30
0.0
 11
342.2099209188098
 21
277.1170769920031
 31
0.0
  0
LINE
  5
3FC
330
69
100
AcDbEntity
  8
1
  6
Continuous
 62
     7
100
AcDbLine
 10
342.2099209188098
 20
277.4170799920031
 30
0.0
 11
342.2099209188098
 21
277.1170769920031
 31
0.0
  0
LINE
  5
3FD
330
69
100
AcDbEntity
  8
1
  6
Continuous
 62
     7
100
AcDbLine
 10
342.2099209188098
 20
277.1170769920031
 30
0.0
 11
344.2099209188098
 21
277.1170769920031
 31
0.0
  0
LINE
  5
3FE
330
69
100
AcDbEntity
  8
1
  6
Continuous
 62
     7
100
AcDbLine
 10
338.7099209188098
 20
277.4170799920031
 30
0.0
 11
342.2099209188098
 21
277.4170799920031
 31
0.0
  0
LINE
  5
3FF
330
69
100
AcDbEntity
  8
1
  6
Continuous
 62
     7
100
AcDbLine
 10
337.4737955480439
 20
270.8170769920031
 30
0.0
 11
337.4737955480439
 21
277.1170769920031
 31
0.0
  0
LINE
  5
400
330
69
100
AcDbEntity
  8
1
  6
Continuous
 62
     7
100
AcDbLine
 10
330.7099209188089
 20
277.1170769920031
 30
0.0
 11
337.4737955480439
 21
277.1170769920031
 31
0.0
  0
LINE
  5
401
330
69
100
AcDbEntity
  8
1
  6
Continuous
 62
     7
100
AcDbLine
 10
330.7099209188089
 20
270.8170769920031
 30
0.0
 11
337.4737955480439
 21
270.8170769920031
 31
0.0
  0
LINE
  5
402
330
69
100
AcDbEntity
  8
1
  6
Continuous
 62
     7
100
AcDbLine
 10
323.946046289575
 20
270.8170769920031
 30
0.0
 11
330.7099209188089
 21
270.8170769920031
 31
0.0
  0
LINE
  5
403
330
69
100
AcDbEntity
  8
1
  6
Continuous
 62
     7
100
AcDbLine
 10
323.946046289575
 20
277.1170769920031
 30
0.0
 11
330.7099209188089
 21
277.1170769920031
 31
0.0
  0
LINE
  5
404
330
69
100
AcDbEntity
  8
1
  6
Continuous
 62
     7
100
AcDbLine
 10
323.946046289575
 20
277.1170769920031
 30
0.0
 11
323.946046289575
 21
270.8170769920031
 31
0.0
  0
LINE
  5
405
330
69
100
AcDbEntity
  8
1
  6
Continuous
 62
     7
100
AcDbLine
 10
317.2099209188089
 20
277.1170769920031
 30
0.0
 11
319.2099209188089
 21
277.1170769920031
 31
0.0
  0
LINE
  5
406
330
69
100
AcDbEntity
  8
1
  6
Continuous
 62
     7
100
AcDbLine
 10
319.2099209188089
 20
277.1170769920031
 30
0.0
 11
319.2099209188089
 21
277.4170799920031
 31
0.0
  0
LINE
  5
407
330
69
100
AcDbEntity
  8
1
  6
Continuous
 62
     7
100
AcDbLine
 10
319.2099209188089
 20
277.1170769920031
 30
0.0
 11
323.946046289575
 21
277.1170769920031
 31
0.0
  0
LINE
  5
408
330
69
100
AcDbEntity
  8
1
  6
Continuous
 62
     7
100
AcDbLine
 10
316.2099209188089
 20
257.9170799920031
 30
0.0
 11
316.2099209188089
 21
276.1170769920031
 31
0.0
  0
LINE
  5
409
330
69
100
AcDbEntity
  8
1
  6
Continuous
 62
     7
100
AcDbLine
 10
330.7099209188089
 20
256.9170799920031
 30
0.0
 11
317.2099209188089
 21
256.9170799920031
 31
0.0
  0
SPLINE
  5
40A
330
69
100
AcDbEntity
  8
1
  6
Continuous
 62
     7
100
AcDbSpline
210
0.0
220
0.0
230
1.0
 70
     8
 71
     3
 72
     9
 73
     5
 74
     3
 42
0.000000001
 43
0.0000000001
 44
0.00000001
 40
0.0
 40
0.0
 40
0.0
 40
0.0
 40
3.562349234322872
 40
6.96317844884597
 40
6.96317844884597
 40
6.96317844884597
 40
6.96317844884597
 10
337.4737955480439
 20
270.8170769920031
 30
0.0
 10
336.3607753040628
 20
270.3797498403123
 30
0.0
 10
334.1852001190369
 20
269.5249243503484
 30
0.0
 10
331.8527747065506
 20
269.3852796916577
 30
0.0
 10
330.71361382585
 20
269.3170769920031
 30
0.0
 11
337.4737955480439
 21
270.8170769920031
 31
0.0
 11
334.0936819840413
 21
269.692281735426
 31
0.0
 11
330.71361382585
 21
269.3170769920031
 31
0.0
  0
SPLINE
  5
40B
330
69
100
AcDbEntity
  8
1
  6
Continuous
 62
     7
100
AcDbSpline
210
0.0
220
0.0
230
1.0
 70
     8
 71
     3
 72
     9
 73
     5
 74
     3
 42
0.000000001
 43
0.0000000001
 44
0.00000001
 40
0.0
 40
0.0
 40
0.0
 40
0.0
 40
3.562349234322656
 40
6.963178448846037
 40
6.963178448846037
 40
6.963178448846037
 40
6.963178448846037
 10
323.946046289575
 20
270.8170769920031
 30
0.0
 10
325.0590665335559
 20
270.3797498403123
 30
0.0
 10
327.234641718582
 20
269.5249243503484
 30
0.0
 10
329.5670671310681
 20
269.3852796916576
 30
0.0
 10
330.7062280117689
 20
269.3170769920031
 30
0.0
 11
323.946046289575
 21
270.8170769920031
 31
0.0
 11
327.3261598535773
 21
269.692281735426
 31
0.0
 11
330.7062280117689
 21
269.3170769920031
 31
0.0
  0
ARC
  5
40C
330
69
100
AcDbEntity
  8
1
  6
Continuous
 62
     7
100
AcDbCircle
 10
93.29805929111785
 20
257.9170799920031
 30
0.0
 40
1.0
100
AcDbArc
 50
270.0
 51
0.0
  0
ARC
  5
40D
330
69
100
AcDbEntity
  8
1
  6
Continuous
 62
     7
100
AcDbCircle
 10
66.29805929111785
 20
257.9170799920031
 30
0.0
 40
1.0
100
AcDbArc
 50
180.0
 51
270.0
  0
ARC
  5
40E
330
69
100
AcDbEntity
  8
1
  6
Continuous
 62
     7
100
AcDbCircle
 10
344.2099209188098
 20
257.9170799920031
 30
0.0
 40
1.0
100
AcDbArc
 50
270.0
 51
0.0
  0
ARC
  5
40F
330
69
100
AcDbEntity
  8
1
  6
Continuous
 62
     7
100
AcDbCircle
 10
344.2099209188098
 20
276.1170769920031
 30
0.0
 40
1.0
100
AcDbArc
 50
0.0
 51
90.0
  0
ARC
  5
410
330
69
100
AcDbEntity
  8
1
  6
Continuous
 62
     7
100
AcDbCircle
 10
317.2099209188089
 20
276.1170769920031
 30
0.0
 40
1.0
100
AcDbArc
 50
90.0
 51
180.0
  0
ARC
  5
411
330
69
100
AcDbEntity
  8
1
  6
Continuous
 62
     7
100
AcDbCircle
 10
317.2099209188089
 20
257.9170799920031
 30
0.0
 40
1.0
100
AcDbArc
 50
180.0
 51
270.0
  0
ENDBLK
  5
6B
330
69
100
AcDbEntity
  8
0
100
AcDbBlockEnd
  0
BLOCK
  5
42D
330
426
100
AcDbEntity
  8
0
100
AcDbBlockBegin
  2
*D11
 70
     1
 10
0.0
 20
0.0
 30
0.0
  3
*D11
  1

  0
LINE
  5
427
330
426
100
AcDbEntity
  8
1
  6
Continuous
 62
     2
100
AcDbLine
 10
330.7099209188089
 20
341.8659949439431
 30
0.0
 11
370.7099209188089
 21
341.8659949439431
 31
0.0
  0
LINE
  5
428
330
426
100
AcDbEntity
  8
1
  6
Continuous
 62
     2
100
AcDbLine
 10
370.7099209188089
 20
261.4170829920027
 30
0.0
 11
370.7099209188089
 21
343.8659949439431
 31
0.0
  0
LINE
  5
429
330
426
100
AcDbEntity
  8
1
  6
Continuous
 62
     2
100
AcDbLine
 10
330.7099209188089
 20
318.5163700863274
 30
0.0
 11
330.7099209188089
 21
343.8659949439431
 31
0.0
  0
SOLID
  5
42A
330
426
100
AcDbEntity
  8
1
 62
     2
100
AcDbTrace
 10
337.7099209188089
 20
342.7875624270549
 30
0.0
 11
337.7099209188089
 21
340.9444274608314
 31
0.0
 12
330.7099209188089
 22
341.8659949439431
 32
0.0
 13
330.7099209188089
 23
341.8659949439431
 33
0.0
  0
SOLID
  5
42B
330
426
100
AcDbEntity
  8
1
 62
     2
100
AcDbTrace
 10
363.7099209188089
 20
340.9444274608314
 30
0.0
 11
363.7099209188089
 21
342.7875624270549
 31
0.0
 12
370.7099209188089
 22
341.8659949439431
 32
0.0
 13
370.7099209188089
 23
341.8659949439431
 33
0.0
  0
MTEXT
  5
42C
330
426
100
AcDbEntity
  8
1
 62
     7
100
AcDbMText
 10
345.4599209188089
 20
343.8659949439431
 30
0.0
 40
7.0
 41
0.0
 71
     7
 72
     1
  1
40
  7
CONVERTER_12
 11
0.9999999999970619
 21
2.424068405545306E-6
 31
0.0
 73
     1
 44
0.60024009603842
  0
ENDBLK
  5
42E
330
426
100
AcDbEntity
  8
0
100
AcDbBlockEnd
  0
BLOCK
  5
438
330
431
100
AcDbEntity
  8
0
100
AcDbBlockBegin
  2
*D12
 70
     1
 10
0.0
 20
0.0
 30
0.0
  3
*D12
  1

  0
LINE
  5
432
330
431
100
AcDbEntity
  8
1
  6
Continuous
 62
     2
100
AcDbLine
 10
253.6878259188088
 20
341.8659949439431
 30
0.0
 11
330.7099209188088
 21
341.8659949439431
 31
0.0
  0
LINE
  5
433
330
431
100
AcDbEntity
  8
1
  6
Continuous
 62
     2
100
AcDbLine
 10
330.7099209188088
 20
318.5163700863274
 30
0.0
 11
330.7099209188088
 21
343.8659949439431
 31
0.0
  0
LINE
  5
434
330
431
100
AcDbEntity
  8
1
  6
Continuous
 62
     2
100
AcDbLine
 10
253.6878259188088
 20
320.6886099920031
 30
0.0
 11
253.6878259188088
 21
343.8659949439431
 31
0.0
  0
SOLID
  5
435
330
431
100
AcDbEntity
  8
1
 62
     2
100
AcDbTrace
 10
260.6878259188088
 20
342.7875624270549
 30
0.0
 11
260.6878259188088
 21
340.9444274608314
 31
0.0
 12
253.6878259188088
 22
341.8659949439431
 32
0.0
 13
253.6878259188088
 23
341.8659949439431
 33
0.0
  0
SOLID
  5
436
330
431
100
AcDbEntity
  8
1
 62
     2
100
AcDbTrace
 10
323.7099209188088
 20
340.9444274608314
 30
0.0
 11
323.7099209188088
 21
342.7875624270549
 31
0.0
 12
330.7099209188088
 22
341.8659949439431
 32
0.0
 13
330.7099209188088
 23
341.8659949439431
 33
0.0
  0
MTEXT
  5
437
330
431
100
AcDbEntity
  8
1
 62
     7
100
AcDbMText
 10
269.4300662037564
 20
343.8659949439431
 30
0.0
 40
7.0
 41
0.0
 71
     7
 72
     1
  1
77
  7
CONVERTER_12
 11
0.9999999999970619
 21
2.424068405545306E-6
 31
0.0
 73
     1
 44
0.60024009603842
  0
ENDBLK
  5
439
330
431
100
AcDbEntity
  8
0
100
AcDbBlockEnd
  0
BLOCK
  5
445
330
43C
100
AcDbEntity
  8
0
100
AcDbBlockBegin
  2
*D13
 70
     1
 10
0.0
 20
0.0
 30
0.0
  3
*D13
  1

  0
LINE
  5
43D
330
43C
100
AcDbEntity
  8
1
  6
Continuous
 62
     2
100
AcDbLine
 10
356.7099209188089
 20
127.9170829920073
 30
0.0
 11
370.7099209188089
 21
127.9170829920073
 31
0.0
  0
LINE
  5
43E
330
43C
100
AcDbEntity
  8
1
  6
Continuous
 62
     2
100
AcDbLine
 10
370.7099209188089
 20
127.9170829920073
 30
0.0
 11
384.7099209188089
 21
127.9170829920073
 31
0.0
  0
LINE
  5
43F
330
43C
100
AcDbEntity
  8
1
  6
Continuous
 62
     2
100
AcDbLine
 10
384.7099209188089
 20
127.9170829920073
 30
0.0
 11
398.7099209188089
 21
127.9170829920073
 31
0.0
  0
LINE
  5
440
330
43C
100
AcDbEntity
  8
1
  6
Continuous
 62
     2
100
AcDbLine
 10
370.7099209188089
 20
215.4170829920025
 30
0.0
 11
370.7099209188089
 21
125.9170829920073
 31
0.0
  0
LINE
  5
441
330
43C
100
AcDbEntity
  8
1
  6
Continuous
 62
     2
100
AcDbLine
 10
384.7099209188089
 20
229.1015829920026
 30
0.0
 11
384.7099209188089
 21
125.9170829920073
 31
0.0
  0
SOLID
  5
442
330
43C
100
AcDbEntity
  8
1
 62
     2
100
AcDbTrace
 10
363.7099209188089
 20
126.9955155088955
 30
0.0
 11
363.7099209188089
 21
128.8386504751191
 31
0.0
 12
370.7099209188089
 22
127.9170829920073
 32
0.0
 13
370.7099209188089
 23
127.9170829920073
 33
0.0
  0
SOLID
  5
443
330
43C
100
AcDbEntity
  8
1
 62
     2
100
AcDbTrace
 10
391.7099209188089
 20
128.8386504751191
 30
0.0
 11
391.7099209188089
 21
126.9955155088955
 31
0.0
 12
384.7099209188089
 22
127.9170829920073
 32
0.0
 13
384.7099209188089
 23
127.9170829920073
 33
0.0
  0
MTEXT
  5
444
330
43C
100
AcDbEntity
  8
1
 62
     7
100
AcDbMText
 10
373.5099209188089
 20
129.9170829920073
 30
0.0
 40
7.0
 41
0.0
 71
     7
 72
     1
  1
14
  7
CONVERTER_12
 11
0.9999999999970619
 21
2.424068405545306E-6
 31
0.0
 73
     1
 44
0.60024009603842
  0
ENDBLK
  5
446
330
43C
100
AcDbEntity
  8
0
100
AcDbBlockEnd
  0
BLOCK
  5
450
330
449
100
AcDbEntity
  8
0
100
AcDbBlockBegin
  2
*D14
 70
     1
 10
0.0
 20
0.0
 30
0.0
  3
*D14
  1

  0
LINE
  5
44A
330
449
100
AcDbEntity
  8
1
  6
Continuous
 62
     2
100
AcDbLine
 10
314.2099209188089
 20
127.9170829920065
 30
0.0
 11
370.7099209188089
 21
127.9170829920065
 31
0.0
  0
LINE
  5
44B
330
449
100
AcDbEntity
  8
1
  6
Continuous
 62
     2
100
AcDbLine
 10
314.2099209188089
 20
201.4170829920038
 30
0.0
 11
314.2099209188089
 21
125.9170829920065
 31
0.0
  0
LINE
  5
44C
330
449
100
AcDbEntity
  8
1
  6
Continuous
 62
     2
100
AcDbLine
 10
370.7099209188089
 20
215.4170829920026
 30
0.0
 11
370.7099209188089
 21
125.9170829920065
 31
0.0
  0
SOLID
  5
44D
330
449
100
AcDbEntity
  8
1
 62
     2
100
AcDbTrace
 10
321.2099209188089
 20
128.8386504751183
 30
0.0
 11
321.2099209188089
 21
126.9955155088947
 31
0.0
 12
314.2099209188089
 22
127.9170829920065
 32
0.0
 13
314.2099209188089
 23
127.9170829920065
 33
0.0
  0
SOLID
  5
44E
330
449
100
AcDbEntity
  8
1
 62
     2
100
AcDbTrace
 10
363.7099209188089
 20
126.9955155088947
 30
0.0
 11
363.7099209188089
 21
128.8386504751183
 31
0.0
 12
370.7099209188089
 22
127.9170829920065
 32
0.0
 13
370.7099209188089
 23
127.9170829920065
 33
0.0
  0
MTEXT
  5
44F
330
449
100
AcDbEntity
  8
1
 62
     7
100
AcDbMText
 10
337.2099209188089
 20
129.9170829920065
 30
0.0
 40
7.0
 41
0.0
 71
     7
 72
     1
  1
57
  7
CONVERTER_12
 11
0.9999999999970619
 21
2.424068405545306E-6
 31
0.0
 73
     1
 44
0.60024009603842
  0
ENDBLK
  5
451
330
449
100
AcDbEntity
  8
0
100
AcDbBlockEnd
  0
BLOCK
  5
45B
330
454
100
AcDbEntity
  8
0
100
AcDbBlockBegin
  2
*D15
 70
     1
 10
0.0
 20
0.0
 30
0.0
  3
*D15
  1

  0
LINE
  5
455
330
454
100
AcDbEntity
  8
1
  6
Continuous
 62
     2
100
AcDbLine
 10
144.2099209188089
 20
127.9170829920051
 30
0.0
 11
314.2099209188089
 21
127.9170829920051
 31
0.0
  0
LINE
  5
456
330
454
100
AcDbEntity
  8
1
  6
Continuous
 62
     2
100
AcDbLine
 10
144.2099209188089
 20
143.9170829920038
 30
0.0
 11
144.2099209188089
 21
125.9170829920051
 31
0.0
  0
LINE
  5
457
330
454
100
AcDbEntity
  8
1
  6
Continuous
 62
     2
100
AcDbLine
 10
314.2099209188089
 20
201.4170829920038
 30
0.0
 11
314.2099209188089
 21
125.9170829920051
 31
0.0
  0
SOLID
  5
458
330
454
100
AcDbEntity
  8
1
 62
     2
100
AcDbTrace
 10
151.2099209188089
 20
128.8386504751169
 30
0.0
 11
151.2099209188089
 21
126.9955155088933
 31
0.0
 12
144.2099209188089
 22
127.9170829920051
 32
0.0
 13
144.2099209188089
 23
127.9170829920051
 33
0.0
  0
SOLID
  5
459
330
454
100
AcDbEntity
  8
1
 62
     2
100
AcDbTrace
 10
307.2099209188089
 20
126.9955155088933
 30
0.0
 11
307.2099209188089
 21
128.8386504751169
 31
0.0
 12
314.2099209188089
 22
127.9170829920051
 32
0.0
 13
314.2099209188089
 23
127.9170829920051
 33
0.0
  0
MTEXT
  5
45A
330
454
100
AcDbEntity
  8
1
 62
     7
100
AcDbMText
 10
221.8599209188089
 20
129.9170829920051
 30
0.0
 40
7.0
 41
0.0
 71
     7
 72
     1
  1
170
  7
CONVERTER_12
 11
0.9999999999970619
 21
2.424068405545306E-6
 31
0.0
 73
     1
 44
0.60024009603842
  0
ENDBLK
  5
45C
330
454
100
AcDbEntity
  8
0
100
AcDbBlockEnd
  0
BLOCK
  5
466
330
45F
100
AcDbEntity
  8
0
100
AcDbBlockBegin
  2
*D16
 70
     1
 10
0.0
 20
0.0
 30
0.0
  3
*D16
  1

  0
LINE
  5
460
330
45F
100
AcDbEntity
  8
1
  6
Continuous
 62
     2
100
AcDbLine
 10
200.2099209188089
 20
147.917082992004
 30
0.0
 11
200.2099209188089
 21
238.4170829920026
 31
0.0
  0
LINE
  5
461
330
45F
100
AcDbEntity
  8
1
  6
Continuous
 62
     2
100
AcDbLine
 10
302.0451134061892
 20
238.4170829920026
 30
0.0
 11
198.2099209188089
 21
238.4170829920026
 31
0.0
  0
LINE
  5
462
330
45F
100
AcDbEntity
  8
1
  6
Continuous
 62
     2
100
AcDbLine
 10
154.9556195060548
 20
147.917082992004
 30
0.0
 11
202.2099209188089
 21
147.917082992004
 31
0.0
  0
SOLID
  5
463
330
45F
100
AcDbEntity
  8
1
 62
     2
100
AcDbTrace
 10
199.2883534356971
 20
154.917082992004
 30
0.0
 11
201.1314884019207
 21
154.917082992004
 31
0.0
 12
200.2099209188089
 22
147.917082992004
 32
0.0
 13
200.2099209188089
 23
147.917082992004
 33
0.0
  0
SOLID
  5
464
330
45F
100
AcDbEntity
  8
1
 62
     2
100
AcDbTrace
 10
201.1314884019207
 20
231.4170829920026
 30
0.0
 11
199.2883534356971
 21
231.4170829920026
 31
0.0
 12
200.2099209188089
 22
238.4170829920026
 32
0.0
 13
200.2099209188089
 23
238.4170829920026
 33
0.0
  0
MTEXT
  5
465
330
45F
100
AcDbEntity
  8
1
 62
     7
100
AcDbMText
 10
198.2099209188089
 20
188.9670829920032
 30
0.0
 40
7.0
 41
0.0
 71
     7
 72
     1
  1
91
  7
CONVERTER_12
 11
0.0
 21
1.0
 31
0.0
 73
     1
 44
0.60024009603842
  0
ENDBLK
  5
467
330
45F
100
AcDbEntity
  8
0
100
AcDbBlockEnd
  0
BLOCK
  5
471
330
46A
100
AcDbEntity
  8
0
100
AcDbBlockBegin
  2
*D17
 70
     1
 10
0.0
 20
0.0
 30
0.0
  3
*D17
  1

  0
LINE
  5
46B
330
46A
100
AcDbEntity
  8
1
  6
Continuous
 62
     2
100
AcDbLine
 10
200.2099209188089
 20
359.8521555197943
 30
0.0
 11
200.2099209188089
 21
238.4170829920024
 31
0.0
  0
LINE
  5
46C
330
46A
100
AcDbEntity
  8
1
  6
Continuous
 62
     2
100
AcDbLine
 10
302.0451134061889
 20
238.4170829920024
 30
0.0
 11
198.2099209188089
 21
238.4170829920024
 31
0.0
  0
LINE
  5
46D
330
46A
100
AcDbEntity
  8
1
  6
Continuous
 62
     2
100
AcDbLine
 10
277.4770266223782
 20
359.8521555197943
 30
0.0
 11
198.2099209188089
 21
359.8521555197943
 31
0.0
  0
SOLID
  5
46E
330
46A
100
AcDbEntity
  8
1
 62
     2
100
AcDbTrace
 10
201.1314884019207
 20
352.8521555197943
 30
0.0
 11
199.2883534356971
 21
352.8521555197943
 31
0.0
 12
200.2099209188089
 22
359.8521555197943
 32
0.0
 13
200.2099209188089
 23
359.8521555197943
 33
0.0
  0
SOLID
  5
46F
330
46A
100
AcDbEntity
  8
1
 62
     2
100
AcDbTrace
 10
199.2883534356971
 20
245.4170829920024
 30
0.0
 11
201.1314884019207
 21
245.4170829920024
 31
0.0
 12
200.2099209188089
 22
238.4170829920024
 32
0.0
 13
200.2099209188089
 23
238.4170829920024
 33
0.0
  0
MTEXT
  5
470
330
46A
100
AcDbEntity
  8
1
 62
     7
100
AcDbMText
 10
198.2099209188089
 20
285.8346192558984
 30
0.0
 40
7.0
 41
0.0
 71
     7
 72
     1
  1
最大121
  7
CONVERTER_11
 11
0.0
 21
1.0
 31
0.0
 73
     1
 44
0.45454545454545
  0
ENDBLK
  5
472
330
46A
100
AcDbEntity
  8
0
100
AcDbBlockEnd
  0
BLOCK
  5
47C
330
475
100
AcDbEntity
  8
0
100
AcDbBlockBegin
  2
*D18
 70
     1
 10
0.0
 20
0.0
 30
0.0
  3
*D18
  1

  0
LINE
  5
476
330
475
100
AcDbEntity
  8
1
  6
Continuous
 62
     2
100
AcDbLine
 10
216.2099209188089
 20
238.4170829920025
 30
0.0
 11
216.2099209188089
 21
321.8659883528481
 31
0.0
  0
LINE
  5
477
330
475
100
AcDbEntity
  8
1
  6
Continuous
 62
     2
100
AcDbLine
 10
254.9388435426379
 20
321.8659883528481
 30
0.0
 11
214.2099209188089
 21
321.8659883528481
 31
0.0
  0
LINE
  5
478
330
475
100
AcDbEntity
  8
1
  6
Continuous
 62
     2
100
AcDbLine
 10
302.0451134061889
 20
238.4170829920025
 30
0.0
 11
214.2099209188089
 21
238.4170829920025
 31
0.0
  0
SOLID
  5
479
330
475
100
AcDbEntity
  8
1
 62
     2
100
AcDbTrace
 10
215.2883534356971
 20
245.4170829920025
 30
0.0
 11
217.1314884019207
 21
245.4170829920025
 31
0.0
 12
216.2099209188089
 22
238.4170829920025
 32
0.0
 13
216.2099209188089
 23
238.4170829920025
 33
0.0
  0
SOLID
  5
47A
330
475
100
AcDbEntity
  8
1
 62
     2
100
AcDbTrace
 10
217.1314884019207
 20
314.8659883528481
 30
0.0
 11
215.2883534356971
 21
314.8659883528481
 31
0.0
 12
216.2099209188089
 22
321.8659883528481
 32
0.0
 13
216.2099209188089
 23
321.8659883528481
 33
0.0
  0
MTEXT
  5
47B
330
475
100
AcDbEntity
  8
1
 62
     7
100
AcDbMText
 10
214.2099209188089
 20
267.8915343039856
 30
0.0
 40
7.0
 41
0.0
 71
     7
 72
     1
  1
最小83
  7
CONVERTER_11
 11
0.0
 21
1.0
 31
0.0
 73
     1
 44
0.45454545454545
  0
ENDBLK
  5
47D
330
475
100
AcDbEntity
  8
0
100
AcDbBlockEnd
  0
BLOCK
  5
488
330
480
100
AcDbEntity
  8
0
100
AcDbBlockBegin
  2
*D19
 70
     1
 10
0.0
 20
0.0
 30
0.0
  3
*D19
  1

  0
LINE
  5
481
330
480
100
AcDbEntity
  8
1
  6
Continuous
 62
     2
100
AcDbLine
 10
394.7099209188089
 20
261.4170829920027
 30
0.0
 11
394.7099209188089
 21
215.4170829920025
 31
0.0
  0
LINE
  5
482
330
480
100
AcDbEntity
  8
1
  6
Continuous
 62
     2
100
AcDbLine
 10
394.7099209188089
 20
284.158466861261
 30
0.0
 11
394.7099209188089
 21
261.4170829920027
 31
0.0
  0
LINE
  5
483
330
480
100
AcDbEntity
  8
1
  6
Continuous
 62
     2
100
AcDbLine
 10
370.7099209188089
 20
215.4170829920025
 30
0.0
 11
396.7099209188089
 21
215.4170829920025
 31
0.0
  0
LINE
  5
484
330
480
100
AcDbEntity
  8
1
  6
Continuous
 62
     2
100
AcDbLine
 10
370.7099209188089
 20
261.4170829920027
 30
0.0
 11
396.7099209188089
 21
261.4170829920027
 31
0.0
  0
SOLID
  5
485
330
480
100
AcDbEntity
  8
1
 62
     2
100
AcDbTrace
 10
395.6314884019206
 20
254.4170829920027
 30
0.0
 11
393.7883534356972
 21
254.4170829920027
 31
0.0
 12
394.7099209188089
 22
261.4170829920027
 32
0.0
 13
394.7099209188089
 23
261.4170829920027
 33
0.0
  0
SOLID
  5
486
330
480
100
AcDbEntity
  8
1
 62
     2
100
AcDbTrace
 10
393.7883534356972
 20
222.4170829920025
 30
0.0
 11
395.6314884019206
 21
222.4170829920025
 31
0.0
 12
394.7099209188089
 22
215.4170829920025
 32
0.0
 13
394.7099209188089
 23
215.4170829920025
 33
0.0
  0
MTEXT
  5
487
330
480
100
AcDbEntity
  8
1
 62
     7
100
AcDbMText
 10
392.7099209188089
 20
267.918466861261
 30
0.0
 40
7.0
 41
0.0
 71
     7
 72
     1
  1
\C7;{\Fgdt;n}\C7;46
  7
CONVERTER_12
 11
0.0
 21
1.0
 31
0.0
 73
     1
 44
0.60024009603842
  0
ENDBLK
  5
489
330
480
100
AcDbEntity
  8
0
100
AcDbBlockEnd
  0
ENDSEC
  0
SECTION
  2
ENTITIES
  0
INSERT
  5
6C
330
1F
100
AcDbEntity
  8
1
100
AcDbBlockReference
  2
A1071-0-M1__1
 10
-407.1336270591881
 20
-186.0358422946456
 30
0.0
  0
INSERT
  5
6D
330
1F
100
AcDbEntity
  8
1
100
AcDbBlockReference
  2
87-182-MW2
 10
-198.0320076378072
 20
75.82945520897236
 30
0.0
  0
INSERT
  5
6E
330
1F
100
AcDbEntity
  8
1
100
AcDbBlockReference
  2
60-7X3-_長さ_-_色_
 10
47.79297760447889
 20
-199.4330166573706
 30
0.0
  0
INSERT
  5
6F
330
1F
100
AcDbEntity
  8
1
100
AcDbBlockReference
  2
開示A4
 10
23.99999999999977
 20
-28.00000000000002
 30
0.0
 41
2.0
 42
2.0
 43
2.0
  0
INSERT
  5
70
330
1F
100
AcDbEntity
  8
1
100
AcDbBlockReference
  2
A1071-0-M1__2
 10
-352.6138200335241
 20
79.36153698252538
 30
0.0
  0
INSERT
  5
71
330
1F
100
AcDbEntity
  8
1
100
AcDbBlockReference
  2
32-238-M1
 10
296.4186365128298
 20
-16.98573625887463
 30
0.0
  0
LINE
  5
412
330
1F
100
AcDbEntity
  8
1
  6
DASH_CENTER
 62
     2
100
AcDbLine
 10
95.87797929773683
 20
174.4170829920038
 30
0.0
 11
63.71256506072086
 21
174.4170829920038
 31
0.0
  0
LINE
  5
413
330
1F
100
AcDbEntity
  8
1
  6
DASH_CENTER
 62
     2
100
AcDbLine
 10
79.79805929111785
 20
327.8669898829781
 30
0.0
 11
79.79805929111785
 21
141.9170829920038
 31
0.0
  0
LINE
  5
414
330
1F
100
AcDbEntity
  8
1
  6
DASH_CENTER
 62
     2
100
AcDbLine
 10
144.2099209188089
 20
189.4170829920038
 30
0.0
 11
144.2099209188089
 21
143.9170829920038
 31
0.0
  0
LINE
  5
415
330
1F
100
AcDbEntity
  8
1
  6
DASH_CENTER
 62
     2
100
AcDbLine
 10
123.2099209188089
 20
174.4170829920038
 30
0.0
 11
287.1767624566589
 21
174.4170829920038
 31
0.0
  0
LINE
  5
416
330
1F
100
AcDbEntity
  8
1
  6
DASH_CENTER
 62
     2
100
AcDbLine
 10
50.79805929111792
 20
238.4170829920025
 30
0.0
 11
108.7980592911179
 21
238.4170829920025
 31
0.0
  0
LINE
  5
417
330
1F
100
AcDbEntity
  8
1
  6
Continuous
 62
     2
100
AcDbLine
 10
278.4770266223788
 20
359.8521555197944
 30
0.0
 11
277.4770266223779
 21
359.8521555197944
 31
0.0
  0
LINE
  5
418
330
1F
100
AcDbEntity
  8
1
  6
DASH_CENTER
 62
     2
100
AcDbLine
 10
390.7828803295918
 20
393.3572265861371
 30
0.0
 11
119.2828803295925
 21
393.3572265861371
 31
0.0
  0
LINE
  5
419
330
1F
100
AcDbEntity
  8
1
  6
DASH_CENTER
 62
     2
100
AcDbLine
 10
314.2099209188089
 20
201.4170829920038
 30
0.0
 11
314.2099209188089
 21
243.4170829920025
 31
0.0
  0
LINE
  5
41A
330
1F
100
AcDbEntity
  8
1
  6
DASH_CENTER
 62
     2
100
AcDbLine
 10
390.7099209188089
 20
238.4170829920025
 30
0.0
 11
302.0451134061889
 21
238.4170829920025
 31
0.0
  0
LINE
  5
41B
330
1F
100
AcDbEntity
  8
0
  6
DASH_CENTER
 62
     2
100
AcDbLine
 10
330.7099209188089
 20
318.5163700863274
 30
0.0
 11
330.7099209188089
 21
233.4170829920025
 31
0.0
  0
ARC
  5
41C
330
1F
100
AcDbEntity
  8
1
  6
DASH_CENTER
 62
     2
100
AcDbCircle
 10
287.2099209188089
 20
201.4170829920038
 30
0.0
 40
27.0
100
AcDbArc
 50
270.0
 51
0.0
  0
SOLID
  5
41D
330
1F
100
AcDbEntity
  8
1
 62
     2
100
AcDbTrace
 10
378.0028630488035
 20
410.380188154184
 30
0.0
 11
379.5990647521564
 21
409.4586206710722
 31
0.0
 12
375.3009639004799
 22
403.8572265861371
 32
0.0
 13
375.3009639004799
 23
403.8572265861371
 33
0.0
  0
LEADER
  5
41E
330
1F
100
AcDbEntity
  8
1
  6
Continuous
 62
     2
100
AcDbLeader
  3
Standard
 71
     0
 76
     3
 10
375.3009639004799
 20
403.8572265861371
 30
0.0
 10
388.2913449572465
 20
426.3572265861371
 30
0.0
 10
360.5204780697994
 20
426.3572265861371
 30
0.0
  0
MTEXT
  5
420
330
1F
100
AcDbEntity
  8
1
 62
     7
100
AcDbMText
 10
72.76160687737979
 20
68.22107698866533
 30
0.0
 40
7.0
 41
0.0
 71
     4
 72
     1
  1
JIS
  7
CONVERTER_12
 73
     1
 44
0.7202881152461
  0
MTEXT
  5
421
330
1F
100
AcDbEntity
  8
1
 62
     7
100
AcDbMText
 10
113.9999999999998
 20
28.49999999999998
 30
0.0
 40
7.0
 41
0.0
 71
     5
 72
     1
  1
A1071-13
  7
CONVERTER_12
 73
     1
 44
0.7202881152461
  0
MTEXT
  5
422
330
1F
100
AcDbEntity
  8
1
 62
     7
100
AcDbMText
 10
113.9999999999998
 20
45.50000000000001
 30
0.0
 40
7.0
 41
0.0
 71
     5
 72
     1
  1
シングル自在水栓
  7
CONVERTER_11
 73
     1
 44
0.54545454545455
  0
MTEXT
  5
423
330
1F
100
AcDbEntity
  8
1
 62
     7
100
AcDbMText
 10
187.4999999999998
 20
33.99999999999999
 30
0.0
 40
7.0
 41
0.0
 71
     5
 72
     1
  1
2
  7
CONVERTER_12
 73
     1
 44
0.7202881152461
  0
MTEXT
  5
424
330
1F
100
AcDbEntity
  8
1
 62
     7
100
AcDbMText
 10
170.4999999999998
 20
33.99999999999999
 30
0.0
 40
7.0
 41
0.0
 71
     5
 72
     1
  1
1
  7
CONVERTER_12
 73
     1
 44
0.7202881152461
  0
MTEXT
  5
425
330
1F
100
AcDbEntity
  8
1
 62
     7
100
AcDbMText
 10
374.9851695955034
 20
432.3572265861371
 30
0.0
 40
7.0
 41
0.0
 71
     5
 72
     1
  1
PJ1/2
  7
CONVERTER_12
 73
     1
 44
1.32052821128451
  0
DIMENSION
  5
430
330
1F
100
AcDbEntity
  8
1
100
AcDbDimension
  2
*D11
 10
330.7099209188089
 20
341.8659949439431
 30
0.0
 11
350.7099209188089
 21
347.3659949439431
 31
0.0
 70
    32
  1
<>
 71
     5
 42
-1.0
 53
0.00013888888889
  3
ME10_DIM_10
100
AcDbAlignedDimension
 13
370.7099209188089
 23
261.4170829920027
 33
0.0
 14
330.7099209188089
 24
318.5163700863274
 34
0.0
100
AcDbRotatedDimension
  0
DIMENSION
  5
43B
330
1F
100
AcDbEntity
  8
1
100
AcDbDimension
  2
*D12
 10
253.6878259188088
 20
341.8659949439431
 30
0.0
 11
274.6800662037564
 21
347.3659949439431
 31
0.0
 70
    32
  1
77
 71
     5
 42
-1.0
 53
0.00013888888889
  3
ME10_DIM_11
100
AcDbAlignedDimension
 13
330.7099209188089
 23
318.5163700863274
 33
0.0
 14
253.6878259188088
 24
320.6886099920031
 34
0.0
100
AcDbRotatedDimension
  0
DIMENSION
  5
448
330
1F
100
AcDbEntity
  8
1
100
AcDbDimension
  2
*D13
 10
370.7099209188089
 20
127.9170829920073
 30
0.0
 11
377.7099209188089
 21
133.4170829920073
 31
0.0
 70
    32
  1
<>
 71
     5
 42
-1.0
 53
0.00013888888889
  3
ME10_DIM_12
100
AcDbAlignedDimension
 13
384.7099209188089
 23
229.1015829920025
 33
0.0
 14
370.7099209188089
 24
215.4170829920025
 34
0.0
100
AcDbRotatedDimension
  0
DIMENSION
  5
453
330
1F
100
AcDbEntity
  8
1
100
AcDbDimension
  2
*D14
 10
314.2099209188089
 20
127.9170829920065
 30
0.0
 11
342.4599209188089
 21
133.4170829920065
 31
0.0
 70
    32
  1
57
 71
     5
 42
-1.0
 53
0.00013888888889
  3
ME10_DIM_13
100
AcDbAlignedDimension
 13
370.7099209188089
 23
215.4170829920025
 33
0.0
 14
314.2099209188089
 24
201.4170829920038
 34
0.0
100
AcDbRotatedDimension
  0
DIMENSION
  5
45E
330
1F
100
AcDbEntity
  8
1
100
AcDbDimension
  2
*D15
 10
144.2099209188089
 20
127.9170829920051
 30
0.0
 11
229.2099209188089
 21
133.4170829920051
 31
0.0
 70
    32
  1
<>
 71
     5
 42
-1.0
 53
0.00013888888889
  3
ME10_DIM_14
100
AcDbAlignedDimension
 13
314.2099209188089
 23
201.4170829920038
 33
0.0
 14
144.2099209188089
 24
143.9170829920038
 34
0.0
100
AcDbRotatedDimension
  0
DIMENSION
  5
469
330
1F
100
AcDbEntity
  8
1
100
AcDbDimension
  2
*D16
 10
200.2099209188089
 20
147.917082992004
 30
0.0
 11
194.7099209188089
 21
193.1670829920032
 31
0.0
 70
    32
  1
91
 71
     5
 42
-1.0
 53
90.0
  3
ME10_DIM_15
100
AcDbAlignedDimension
 13
302.0451134061889
 23
238.4170829920025
 33
0.0
 14
154.9556195060548
 24
147.917082992004
 34
0.0
 50
90.0
100
AcDbRotatedDimension
  0
DIMENSION
  5
474
330
1F
100
AcDbEntity
  8
1
100
AcDbDimension
  2
*D17
 10
200.2099209188089
 20
359.8521555197943
 30
0.0
 11
194.7099209188089
 21
299.1346192558984
 31
0.0
 70
    32
  1
最大121
 71
     5
 42
-1.0
 53
90.0
  3
ME10_DIM_16
100
AcDbAlignedDimension
 13
302.0451134061889
 23
238.4170829920025
 33
0.0
 14
277.4770266223779
 24
359.8521555197944
 34
0.0
 50
90.0
100
AcDbRotatedDimension
  0
DIMENSION
  5
47F
330
1F
100
AcDbEntity
  8
1
100
AcDbDimension
  2
*D18
 10
216.2099209188089
 20
238.4170829920025
 30
0.0
 11
210.7099209188089
 21
280.1415343039856
 31
0.0
 70
    32
  1
最小83
 71
     5
 42
-1.0
 53
90.0
  3
ME10_DIM_17
100
AcDbAlignedDimension
 13
254.9388435426379
 23
321.8659883528481
 33
0.0
 14
302.0451134061889
 24
238.4170829920025
 34
0.0
 50
90.0
100
AcDbRotatedDimension
  0
DIMENSION
  5
48B
330
1F
100
AcDbEntity
  8
1
100
AcDbDimension
  2
*D19
 10
394.7099209188089
 20
261.4170829920027
 30
0.0
 11
389.2099209188089
 21
274.708466861261
 31
0.0
 70
    32
  1
<>
 71
     5
 42
-1.0
 53
90.0
  3
ME10_DIM_18
100
AcDbAlignedDimension
 13
370.7099209188089
 23
215.4170829920025
 33
0.0
 14
370.7099209188089
 24
261.4170829920027
 34
0.0
 50
90.0
100
AcDbRotatedDimension
  0
ENDSEC
  0
SECTION
  2
OBJECTS
  0
DICTIONARY
  5
C
330
0
100
AcDbDictionary
281
     1
  3
ACAD_GROUP
350
D
  3
ACAD_LAYOUT
350
1A
  3
ACAD_MATERIAL
350
3B
  3
ACAD_MLEADERSTYLE
350
48E
  3
ACAD_MLINESTYLE
350
17
  3
ACAD_PLOTSETTINGS
350
19
  3
ACAD_PLOTSTYLENAME
350
E
  3
ACAD_VISUALSTYLE
350
2A
  3
AcDbVariableDictionary
350
48C
  0
DICTIONARY
  5
D
102
{ACAD_REACTORS
330
C
102
}
330
C
100
AcDbDictionary
281
     1
  0
DICTIONARY
  5
1A
102
{ACAD_REACTORS
330
C
102
}
330
C
100
AcDbDictionary
281
     1
  3
Layout1
350
1E
  3
Layout2
350
26
  3
Model
350
22
  0
DICTIONARY
  5
3B
102
{ACAD_REACTORS
330
C
102
}
330
C
100
AcDbDictionary
281
     1
  3
ByBlock
350
3D
  3
ByLayer
350
3C
  3
Global
350
3E
  0
DICTIONARY
  5
48E
102
{ACAD_REACTORS
330
C
102
}
330
C
100
AcDbDictionary
281
     1
  0
DICTIONARY
  5
17
102
{ACAD_REACTORS
330
C
102
}
330
C
100
AcDbDictionary
281
     1
  3
Standard
350
18
  0
DICTIONARY
  5
19
102
{ACAD_REACTORS
330
C
102
}
330
C
100
AcDbDictionary
281
     1
  0
ACDBDICTIONARYWDFLT
  5
E
102
{ACAD_REACTORS
330
C
102
}
330
C
100
AcDbDictionary
281
     1
  3
Normal
350
F
100
AcDbDictionaryWithDefault
340
F
  0
DICTIONARY
  5
2A
102
{ACAD_REACTORS
330
C
102
}
330
C
100
AcDbDictionary
281
     1
  3
2dWireframe
350
2F
  3
3D Hidden
350
31
  3
3dWireframe
350
30
  3
Basic
350
32
  3
Brighten
350
36
  3
ColorChange
350
3A
  3
Conceptual
350
34
  3
Dim
350
35
  3
Facepattern
350
39
  3
Flat
350
2B
  3
FlatWithEdges
350
2C
  3
Gouraud
350
2D
  3
GouraudWithEdges
350
2E
  3
Linepattern
350
38
  3
Realistic
350
33
  3
Thicken
350
37
  0
DICTIONARY
  5
48C
102
{ACAD_REACTORS
330
C
102
}
330
C
100
AcDbDictionary
281
     1
  3
DIMASSOC
350
48F
  3
HIDETEXT
350
490
  0
LAYOUT
  5
1E
102
{ACAD_REACTORS
330
1A
102
}
330
1A
100
AcDbPlotSettings
  1

  2
none_device
  4

  6

 40
0.0
 41
0.0
 42
0.0
 43
0.0
 44
0.0
 45
0.0
 46
0.0
 47
0.0
 48
0.0
 49
0.0
140
0.0
141
0.0
142
1.0
143
1.0
 70
   688
 72
     0
 73
     0
 74
     5
  7

 75
    16
147
1.0
148
0.0
149
0.0
100
AcDbLayout
  1
Layout1
 70
     1
 71
     1
 10
0.0
 20
0.0
 11
12.0
 21
9.0
 12
0.0
 22
0.0
 32
0.0
 14
1.00000000000000E+20
 24
1.00000000000000E+20
 34
1.00000000000000E+20
 15
-1.00000000000000E+20
 25
-1.00000000000000E+20
 35
-1.00000000000000E+20
146
0.0
 13
0.0
 23
0.0
 33
0.0
 16
1.0
 26
0.0
 36
0.0
 17
0.0
 27
1.0
 37
0.0
 76
     0
330
1B
  0
LAYOUT
  5
26
102
{ACAD_REACTORS
330
1A
102
}
330
1A
100
AcDbPlotSettings
  1

  2
none_device
  4

  6

 40
0.0
 41
0.0
 42
0.0
 43
0.0
 44
0.0
 45
0.0
 46
0.0
 47
0.0
 48
0.0
 49
0.0
140
0.0
141
0.0
142
1.0
143
1.0
 70
   688
 72
     0
 73
     0
 74
     5
  7

 75
    16
147
1.0
148
0.0
149
0.0
100
AcDbLayout
  1
Layout2
 70
     1
 71
     2
 10
0.0
 20
0.0
 11
0.0
 21
0.0
 12
0.0
 22
0.0
 32
0.0
 14
0.0
 24
0.0
 34
0.0
 15
0.0
 25
0.0
 35
0.0
146
0.0
 13
0.0
 23
0.0
 33
0.0
 16
1.0
 26
0.0
 36
0.0
 17
0.0
 27
1.0
 37
0.0
 76
     0
330
23
  0
LAYOUT
  5
22
102
{ACAD_REACTORS
330
1A
102
}
330
1A
100
AcDbPlotSettings
  1

  2
none_device
  4

  6

 40
0.0
 41
0.0
 42
0.0
 43
0.0
 44
0.0
 45
0.0
 46
0.0
 47
0.0
 48
0.0
 49
0.0
140
0.0
141
0.0
142
1.0
143
1.0
 70
  1712
 72
     0
 73
     0
 74
     0
  7

 75
     0
147
1.0
148
0.0
149
0.0
100
AcDbLayout
  1
Model
 70
     1
 71
     0
 10
0.0
 20
0.0
 11
12.0
 21
9.0
 12
0.0
 22
0.0
 32
0.0
 14
0.0
 24
-0.00000000000002
 34
0.0
 15
419.9999999999998
 25
594.0
 35
0.0
146
0.0
 13
0.0
 23
0.0
 33
0.0
 16
1.0
 26
0.0
 36
0.0
 17
0.0
 27
1.0
 37
0.0
 76
     0
330
1F
331
29
  0
MATERIAL
  5
3D
102
{ACAD_REACTORS
330
3B
102
}
102
{ACAD_XDICTIONARY
360
4B3
102
}
330
3B
100
AcDbMaterial
  1
ByBlock
  0
MATERIAL
  5
3C
102
{ACAD_REACTORS
330
3B
102
}
102
{ACAD_XDICTIONARY
360
4B1
102
}
330
3B
100
AcDbMaterial
  1
ByLayer
  0
MATERIAL
  5
3E
102
{ACAD_REACTORS
330
3B
102
}
102
{ACAD_XDICTIONARY
360
4B5
102
}
330
3B
100
AcDbMaterial
  1
Global
  0
MLINESTYLE
  5
18
102
{ACAD_REACTORS
330
17
102
}
330
17
100
AcDbMlineStyle
  2
Standard
 70
     0
  3

 62
   256
 51
90.0
 52
90.0
 71
     2
 49
0.5
 62
   256
  6
BYLAYER
 49
-0.5
 62
   256
  6
BYLAYER
  0
ACDBPLACEHOLDER
  5
F
102
{ACAD_REACTORS
330
E
102
}
330
E
  0
VISUALSTYLE
  5
2F
102
{ACAD_REACTORS
330
2A
102
}
102
{ACAD_XDICTIONARY
360
499
102
}
330
2A
100
AcDbVisualStyle
  2
2dWireframe
 70
     4
 71
     0
 72
     2
 73
     0
 90
        0
 40
-0.6
 41
-30.0
 62
     5
 63
     7
 74
     1
 91
        4
 64
     7
 65
   257
 75
     1
175
     1
 42
1.0
 92
        0
 66
   257
 43
1.0
 76
     1
 77
     6
 78
     2
 67
     7
 79
     5
170
     0
171
     0
290
     0
174
     0
 93
        1
 44
0.0
173
     0
291
     0
 45
0.0
1001
ACAD
1000
AcDbSavedByObjectVersion
1070
     0
  0
VISUALSTYLE
  5
31
102
{ACAD_REACTORS
330
2A
102
}
102
{ACAD_XDICTIONARY
360
49D
102
}
330
2A
100
AcDbVisualStyle
  2
3D Hidden
 70
     6
 71
     1
 72
     2
 73
     2
 90
        0
 40
-0.6
 41
-30.0
 62
     5
 63
     7
 74
     2
 91
        2
 64
     7
 65
   257
 75
     2
175
     1
 42
40.0
 92
        0
 66
   257
 43
1.0
 76
     1
 77
     6
 78
     2
 67
     7
 79
     3
170
     0
171
     0
290
     0
174
     0
 93
        1
 44
0.0
173
     0
291
     0
 45
0.0
1001
ACAD
1000
AcDbSavedByObjectVersion
1070
     0
  0
VISUALSTYLE
  5
30
102
{ACAD_REACTORS
330
2A
102
}
102
{ACAD_XDICTIONARY
360
49B
102
}
330
2A
100
AcDbVisualStyle
  2
3dWireframe
 70
     5
 71
     0
 72
     2
 73
     0
 90
        0
 40
-0.6
 41
-30.0
 62
     5
 63
     7
 74
     1
 91
        4
 64
     7
 65
   257
 75
     1
175
     1
 42
1.0
 92
        0
 66
   257
 43
1.0
 76
     1
 77
     6
 78
     2
 67
     7
 79
     5
170
     0
171
     0
290
     0
174
     0
 93
        1
 44
0.0
173
     0
291
     0
 45
0.0
1001
ACAD
1000
AcDbSavedByObjectVersion
1070
     0
  0
VISUALSTYLE
  5
32
102
{ACAD_REACTORS
330
2A
102
}
102
{ACAD_XDICTIONARY
360
49F
102
}
330
2A
100
AcDbVisualStyle
  2
Basic
 70
     7
 71
     1
 72
     0
 73
     1
 90
        0
 40
-0.6
 41
-30.0
 62
     5
 63
     7
 74
     0
 91
        4
 64
     7
 65
   257
 75
     1
175
     1
 42
1.0
 92
        8
 66
     7
 43
1.0
 76
     1
 77
     6
 78
     2
 67
     7
 79
     5
170
     0
171
     0
290
     0
174
     0
 93
        1
 44
0.0
173
     0
291
     1
 45
0.0
1001
ACAD
1000
AcDbSavedByObjectVersion
1070
     0
  0
VISUALSTYLE
  5
36
102
{ACAD_REACTORS
330
2A
102
}
102
{ACAD_XDICTIONARY
360
4A7
102
}
330
2A
100
AcDbVisualStyle
  2
Brighten
 70
    12
 71
     2
 72
     2
 73
     0
 90
        0
 40
-0.6
 41
-30.0
 62
     5
 63
     7
 74
     1
 91
        4
 64
     7
 65
   257
 75
     1
175
     1
 42
1.0
 92
        8
 66
     7
 43
1.0
 76
     1
 77
     6
 78
     2
 67
     7
 79
     5
170
     0
171
     0
290
     0
174
     0
 93
        1
 44
50.0
173
     0
291
     1
 45
0.0
1001
ACAD
1000
AcDbSavedByObjectVersion
1070
     0
  0
VISUALSTYLE
  5
3A
102
{ACAD_REACTORS
330
2A
102
}
102
{ACAD_XDICTIONARY
360
4AF
102
}
330
2A
100
AcDbVisualStyle
  2
ColorChange
 70
    16
 71
     2
 72
     2
 73
     3
 90
        0
 40
-0.6
 41
-30.0
 62
     5
 63
     8
 74
     1
 91
        4
 64
     7
 65
   257
 75
     1
175
     1
 42
1.0
 92
        8
 66
     8
 43
1.0
 76
     1
 77
     6
 78
     2
 67
     7
 79
     5
170
     0
171
     0
290
     0
174
     0
 93
        1
 44
0.0
173
     0
291
     1
 45
0.0
1001
ACAD
1000
AcDbSavedByObjectVersion
1070
     0
  0
VISUALSTYLE
  5
34
102
{ACAD_REACTORS
330
2A
102
}
102
{ACAD_XDICTIONARY
360
4A3
102
}
330
2A
100
AcDbVisualStyle
  2
Conceptual
 70
     9
 71
     3
 72
     2
 73
     0
 90
        0
 40
-0.6
 41
-30.0
 62
     5
 63
     7
 74
     2
 91
        2
 64
     7
 65
   257
 75
     1
175
     1
 42
40.0
 92
        8
 66
     7
 43
1.0
 76
     1
 77
     6
 78
     2
 67
     7
 79
     3
170
     0
171
     0
290
     0
174
     0
 93
        1
 44
0.0
173
     0
291
     0
 45
0.0
1001
ACAD
1000
AcDbSavedByObjectVersion
1070
     0
  0
VISUALSTYLE
  5
35
102
{ACAD_REACTORS
330
2A
102
}
102
{ACAD_XDICTIONARY
360
4A5
102
}
330
2A
100
AcDbVisualStyle
  2
Dim
 70
    11
 71
     2
 72
     2
 73
     0
 90
        0
 40
-0.6
 41
-30.0
 62
     5
 63
     7
 74
     1
 91
        4
 64
     7
 65
   257
 75
     1
175
     1
 42
1.0
 92
        8
 66
     7
 43
1.0
 76
     1
 77
     6
 78
     2
 67
     7
 79
     5
170
     0
171
     0
290
     0
174
     0
 93
        1
 44
-50.0
173
     0
291
     1
 45
0.0
1001
ACAD
1000
AcDbSavedByObjectVersion
1070
     0
  0
VISUALSTYLE
  5
39
102
{ACAD_REACTORS
330
2A
102
}
102
{ACAD_XDICTIONARY
360
4AD
102
}
330
2A
100
AcDbVisualStyle
  2
Facepattern
 70
    15
 71
     2
 72
     2
 73
     0
 90
        0
 40
-0.6
 41
-30.0
 62
     5
 63
     7
 74
     1
 91
        4
 64
     7
 65
   257
 75
     1
175
     1
 42
1.0
 92
        8
 66
     7
 43
1.0
 76
     1
 77
     6
 78
     2
 67
     7
 79
     5
170
     0
171
     0
290
     0
174
     0
 93
        1
 44
0.0
173
     0
291
     1
 45
0.0
1001
ACAD
1000
AcDbSavedByObjectVersion
1070
     0
  0
VISUALSTYLE
  5
2B
102
{ACAD_REACTORS
330
2A
102
}
102
{ACAD_XDICTIONARY
360
491
102
}
330
2A
100
AcDbVisualStyle
  2
Flat
 70
     0
 71
     2
 72
     1
 73
     1
 90
        2
 40
-0.6
 41
30.0
 62
     5
 63
     7
 74
     0
 91
        4
 64
     7
 65
   257
 75
     1
175
     1
 42
1.0
 92
        8
 66
     7
 43
1.0
 76
     1
 77
     6
 78
     2
 67
     7
 79
     5
170
     0
171
     0
290
     0
174
     0
 93
       13
 44
0.0
173
     0
291
     1
 45
0.0
1001
ACAD
1000
AcDbSavedByObjectVersion
1070
     0
  0
VISUALSTYLE
  5
2C
102
{ACAD_REACTORS
330
2A
102
}
102
{ACAD_XDICTIONARY
360
493
102
}
330
2A
100
AcDbVisualStyle
  2
FlatWithEdges
 70
     1
 71
     2
 72
     1
 73
     1
 90
        2
 40
-0.6
 41
30.0
 62
     5
 63
     7
 74
     1
 91
        4
 64
     7
 65
   257
 75
     1
175
     1
 42
1.0
 92
        0
 66
   257
 43
1.0
 76
     1
 77
     6
 78
     2
 67
     7
 79
     5
170
     0
171
     0
290
     0
174
     0
 93
       13
 44
0.0
173
     0
291
     1
 45
0.0
1001
ACAD
1000
AcDbSavedByObjectVersion
1070
     0
  0
VISUALSTYLE
  5
2D
102
{ACAD_REACTORS
330
2A
102
}
102
{ACAD_XDICTIONARY
360
495
102
}
330
2A
100
AcDbVisualStyle
  2
Gouraud
 70
     2
 71
     2
 72
     2
 73
     1
 90
        2
 40
-0.6
 41
30.0
 62
     5
 63
     7
 74
     0
 91
        4
 64
     7
 65
   257
 75
     1
175
     1
 42
1.0
 92
        0
 66
     7
 43
1.0
 76
     1
 77
     6
 78
     2
 67
     7
 79
     5
170
     0
171
     0
290
     0
174
     0
 93
       13
 44
0.0
173
     0
291
     1
 45
0.0
1001
ACAD
1000
AcDbSavedByObjectVersion
1070
     0
  0
VISUALSTYLE
  5
2E
102
{ACAD_REACTORS
330
2A
102
}
102
{ACAD_XDICTIONARY
360
497
102
}
330
2A
100
AcDbVisualStyle
  2
GouraudWithEdges
 70
     3
 71
     2
 72
     2
 73
     1
 90
        2
 40
-0.6
 41
30.0
 62
     5
 63
     7
 74
     1
 91
        4
 64
     7
 65
   257
 75
     1
175
     1
 42
1.0
 92
        0
 66
   257
 43
1.0
 76
     1
 77
     6
 78
     2
 67
     7
 79
     5
170
     0
171
     0
290
     0
174
     0
 93
       13
 44
0.0
173
     0
291
     1
 45
0.0
1001
ACAD
1000
AcDbSavedByObjectVersion
1070
     0
  0
VISUALSTYLE
  5
38
102
{ACAD_REACTORS
330
2A
102
}
102
{ACAD_XDICTIONARY
360
4AB
102
}
330
2A
100
AcDbVisualStyle
  2
Linepattern
 70
    14
 71
     2
 72
     2
 73
     0
 90
        0
 40
-0.6
 41
-30.0
 62
     5
 63
     7
 74
     1
 91
        4
 64
     7
 65
   257
 75
     7
175
     7
 42
1.0
 92
        8
 66
     7
 43
1.0
 76
     1
 77
     6
 78
     2
 67
     7
 79
     5
170
     0
171
     0
290
     0
174
     0
 93
        1
 44
0.0
173
     0
291
     1
 45
0.0
1001
ACAD
1000
AcDbSavedByObjectVersion
1070
     0
  0
VISUALSTYLE
  5
33
102
{ACAD_REACTORS
330
2A
102
}
102
{ACAD_XDICTIONARY
360
4A1
102
}
330
2A
100
AcDbVisualStyle
  2
Realistic
 70
     8
 71
     2
 72
     2
 73
     0
 90
        0
 40
-0.6
 41
-30.0
 62
     5
 63
     7
 74
     1
 91
        0
 64
     7
 65
   257
 75
     1
175
     1
 42
1.0
 92
        8
 66
     8
 43
1.0
 76
     1
 77
     6
 78
     2
 67
     7
 79
     5
170
     0
171
     0
290
     0
174
     0
 93
       13
 44
0.0
173
     0
291
     0
 45
0.0
1001
ACAD
1000
AcDbSavedByObjectVersion
1070
     0
  0
VISUALSTYLE
  5
37
102
{ACAD_REACTORS
330
2A
102
}
102
{ACAD_XDICTIONARY
360
4A9
102
}
330
2A
100
AcDbVisualStyle
  2
Thicken
 70
    13
 71
     2
 72
     2
 73
     0
 90
        0
 40
-0.6
 41
-30.0
 62
     5
 63
     7
 74
     1
 91
        4
 64
     7
 65
   257
 75
     1
175
     1
 42
1.0
 92
       12
 66
     7
 43
1.0
 76
     1
 77
     6
 78
     2
 67
     7
 79
     5
170
     0
171
     0
290
     0
174
     0
 93
        1
 44
0.0
173
     0
291
     1
 45
0.0
1001
ACAD
1000
AcDbSavedByObjectVersion
1070
     0
  0
DICTIONARYVAR
  5
48F
102
{ACAD_REACTORS
330
48C
102
}
330
48C
100
DictionaryVariables
280
     0
  1
2
  0
DICTIONARYVAR
  5
490
102
{ACAD_REACTORS
330
48C
102
}
330
48C
100
DictionaryVariables
280
     0
  1
1
  0
DICTIONARY
  5
4B3
330
3D
100
AcDbDictionary
280
     1
281
     1
  3
ACAD_XREC_ROUNDTRIP
360
4B4
  0
DICTIONARY
  5
4B1
330
3C
100
AcDbDictionary
280
     1
281
     1
  3
ACAD_XREC_ROUNDTRIP
360
4B2
  0
DICTIONARY
  5
4B5
330
3E
100
AcDbDictionary
280
     1
281
     1
  3
ACAD_XREC_ROUNDTRIP
360
4B6
  0
DICTIONARY
  5
499
330
2F
100
AcDbDictionary
280
     1
281
     1
  3
ACAD_XREC_ROUNDTRIP
360
49A
  0
DICTIONARY
  5
49D
330
31
100
AcDbDictionary
280
     1
281
     1
  3
ACAD_XREC_ROUNDTRIP
360
49E
  0
DICTIONARY
  5
49B
330
30
100
AcDbDictionary
280
     1
281
     1
  3
ACAD_XREC_ROUNDTRIP
360
49C
  0
DICTIONARY
  5
49F
330
32
100
AcDbDictionary
280
     1
281
     1
  3
ACAD_XREC_ROUNDTRIP
360
4A0
  0
DICTIONARY
  5
4A7
330
36
100
AcDbDictionary
280
     1
281
     1
  3
ACAD_XREC_ROUNDTRIP
360
4A8
  0
DICTIONARY
  5
4AF
330
3A
100
AcDbDictionary
280
     1
281
     1
  3
ACAD_XREC_ROUNDTRIP
360
4B0
  0
DICTIONARY
  5
4A3
330
34
100
AcDbDictionary
280
     1
281
     1
  3
ACAD_XREC_ROUNDTRIP
360
4A4
  0
DICTIONARY
  5
4A5
330
35
100
AcDbDictionary
280
     1
281
     1
  3
ACAD_XREC_ROUNDTRIP
360
4A6
  0
DICTIONARY
  5
4AD
330
39
100
AcDbDictionary
280
     1
281
     1
  3
ACAD_XREC_ROUNDTRIP
360
4AE
  0
DICTIONARY
  5
491
330
2B
100
AcDbDictionary
280
     1
281
     1
  3
ACAD_XREC_ROUNDTRIP
360
492
  0
DICTIONARY
  5
493
330
2C
100
AcDbDictionary
280
     1
281
     1
  3
ACAD_XREC_ROUNDTRIP
360
494
  0
DICTIONARY
  5
495
330
2D
100
AcDbDictionary
280
     1
281
     1
  3
ACAD_XREC_ROUNDTRIP
360
496
  0
DICTIONARY
  5
497
330
2E
100
AcDbDictionary
280
     1
281
     1
  3
ACAD_XREC_ROUNDTRIP
360
498
  0
DICTIONARY
  5
4AB
330
38
100
AcDbDictionary
280
     1
281
     1
  3
ACAD_XREC_ROUNDTRIP
360
4AC
  0
DICTIONARY
  5
4A1
330
33
100
AcDbDictionary
280
     1
281
     1
  3
ACAD_XREC_ROUNDTRIP
360
4A2
  0
DICTIONARY
  5
4A9
330
37
100
AcDbDictionary
280
     1
281
     1
  3
ACAD_XREC_ROUNDTRIP
360
4AA
  0
XRECORD
  5
4B4
102
{ACAD_REACTORS
330
4B3
102
}
330
4B3
100
AcDbXrecord
280
     1
102
MATERIAL
148
0.0
149
0.0
149
0.0
 93
        0
 94
      127
282
     0
 72
     1
 77
     1
171
     1
175
     1
179
     1
273
     0
  0
XRECORD
  5
4B2
102
{ACAD_REACTORS
330
4B1
102
}
330
4B1
100
AcDbXrecord
280
     1
102
MATERIAL
148
0.0
149
0.0
149
0.0
 93
        0
 94
      127
282
     0
 72
     1
 77
     1
171
     1
175
     1
179
     1
273
     0
  0
XRECORD
  5
4B6
102
{ACAD_REACTORS
330
4B5
102
}
330
4B5
100
AcDbXrecord
280
     1
102
MATERIAL
148
0.0
149
0.0
149
0.0
 93
        0
 94
      127
282
     0
 72
     1
 77
     1
171
     1
175
     1
179
     1
273
     0
  0
XRECORD
  5
49A
102
{ACAD_REACTORS
330
499
102
}
330
499
100
AcDbXrecord
280
     1
102
RTVSPropertyOp0
 70
     1
102
RTVSPropertyOp1
 70
     1
102
RTVSPropertyOp2
 70
     1
102
RTVSPropertyOp3
 70
     1
102
RTVSPropertyOp4
 70
     1
102
RTVSPropertyOp5
 70
     1
102
RTVSPropertyOp6
 70
     1
102
RTVSPropertyOp7
 70
     1
102
RTVSPropertyOp8
 70
     1
102
RTVSPropertyOp9
 70
     1
102
RTVSPropertyOp10
 70
     1
102
RTVSPropertyOp11
 70
     1
102
RTVSPropertyOp12
 70
     1
102
RTVSPropertyOp13
 70
     1
102
RTVSPropertyOp14
 70
     1
102
RTVSPropertyOp15
 70
     1
102
RTVSPropertyOp16
 70
     1
102
RTVSPropertyOp17
 70
     1
102
RTVSPropertyOp18
 70
     1
102
RTVSPropertyOp19
 70
     1
102
RTVSPropertyOp20
 70
     1
102
RTVSPropertyOp21
 70
     1
102
RTVSPropertyOp22
 70
     1
102
RTVSPropertyOp23
 70
     1
102
RTVSPropertyOp24
 70
     1
102
RTVSPropertyOp25
 70
     1
102
RTVSPropertyOp26
 70
     1
102
RTVSPropertyOp27
 70
     1
102
RTVSPropertyOp28
 70
     1
102
RTVSPropertyOp29
 70
     1
102
RTVSPropertyOp30
 70
     1
102
RTVSPropertyOp31
 70
     1
102
RTVSPropertyOp32
 70
     1
  0
XRECORD
  5
49E
102
{ACAD_REACTORS
330
49D
102
}
330
49D
100
AcDbXrecord
280
     1
102
RTVSPropertyOp0
 70
     1
102
RTVSPropertyOp1
 70
     1
102
RTVSPropertyOp2
 70
     1
102
RTVSPropertyOp3
 70
     1
102
RTVSPropertyOp4
 70
     1
102
RTVSPropertyOp5
 70
     1
102
RTVSPropertyOp6
 70
     1
102
RTVSPropertyOp7
 70
     1
102
RTVSPropertyOp8
 70
     1
102
RTVSPropertyOp9
 70
     1
102
RTVSPropertyOp10
 70
     1
102
RTVSPropertyOp11
 70
     1
102
RTVSPropertyOp12
 70
     1
102
RTVSPropertyOp13
 70
     1
102
RTVSPropertyOp14
 70
     1
102
RTVSPropertyOp15
 70
     1
102
RTVSPropertyOp16
 70
     1
102
RTVSPropertyOp17
 70
     1
102
RTVSPropertyOp18
 70
     1
102
RTVSPropertyOp19
 70
     1
102
RTVSPropertyOp20
 70
     1
102
RTVSPropertyOp21
 70
     1
102
RTVSPropertyOp22
 70
     1
102
RTVSPropertyOp23
 70
     1
102
RTVSPropertyOp24
 70
     1
102
RTVSPropertyOp25
 70
     1
102
RTVSPropertyOp26
 70
     1
102
RTVSPropertyOp27
 70
     1
102
RTVSPropertyOp28
 70
     1
102
RTVSPropertyOp29
 70
     1
102
RTVSPropertyOp30
 70
     1
102
RTVSPropertyOp31
 70
     1
102
RTVSPropertyOp32
 70
     1
  0
XRECORD
  5
49C
102
{ACAD_REACTORS
330
49B
102
}
330
49B
100
AcDbXrecord
280
     1
102
RTVSPropertyOp0
 70
     1
102
RTVSPropertyOp1
 70
     1
102
RTVSPropertyOp2
 70
     1
102
RTVSPropertyOp3
 70
     1
102
RTVSPropertyOp4
 70
     1
102
RTVSPropertyOp5
 70
     1
102
RTVSPropertyOp6
 70
     1
102
RTVSPropertyOp7
 70
     1
102
RTVSPropertyOp8
 70
     1
102
RTVSPropertyOp9
 70
     1
102
RTVSPropertyOp10
 70
     1
102
RTVSPropertyOp11
 70
     1
102
RTVSPropertyOp12
 70
     1
102
RTVSPropertyOp13
 70
     1
102
RTVSPropertyOp14
 70
     1
102
RTVSPropertyOp15
 70
     1
102
RTVSPropertyOp16
 70
     1
102
RTVSPropertyOp17
 70
     1
102
RTVSPropertyOp18
 70
     1
102
RTVSPropertyOp19
 70
     1
102
RTVSPropertyOp20
 70
     1
102
RTVSPropertyOp21
 70
     1
102
RTVSPropertyOp22
 70
     1
102
RTVSPropertyOp23
 70
     1
102
RTVSPropertyOp24
 70
     1
102
RTVSPropertyOp25
 70
     1
102
RTVSPropertyOp26
 70
     1
102
RTVSPropertyOp27
 70
     1
102
RTVSPropertyOp28
 70
     1
102
RTVSPropertyOp29
 70
     1
102
RTVSPropertyOp30
 70
     1
102
RTVSPropertyOp31
 70
     1
102
RTVSPropertyOp32
 70
     1
  0
XRECORD
  5
4A0
102
{ACAD_REACTORS
330
49F
102
}
330
49F
100
AcDbXrecord
280
     1
102
RTVSPropertyOp0
 70
     1
102
RTVSPropertyOp1
 70
     1
102
RTVSPropertyOp2
 70
     1
102
RTVSPropertyOp3
 70
     1
102
RTVSPropertyOp4
 70
     1
102
RTVSPropertyOp5
 70
     1
102
RTVSPropertyOp6
 70
     1
102
RTVSPropertyOp7
 70
     1
102
RTVSPropertyOp8
 70
     1
102
RTVSPropertyOp9
 70
     1
102
RTVSPropertyOp10
 70
     1
102
RTVSPropertyOp11
 70
     1
102
RTVSPropertyOp12
 70
     1
102
RTVSPropertyOp13
 70
     1
102
RTVSPropertyOp14
 70
     1
102
RTVSPropertyOp15
 70
     1
102
RTVSPropertyOp16
 70
     1
102
RTVSPropertyOp17
 70
     1
102
RTVSPropertyOp18
 70
     1
102
RTVSPropertyOp19
 70
     1
102
RTVSPropertyOp20
 70
     1
102
RTVSPropertyOp21
 70
     1
102
RTVSPropertyOp22
 70
     1
102
RTVSPropertyOp23
 70
     1
102
RTVSPropertyOp24
 70
     1
102
RTVSPropertyOp25
 70
     1
102
RTVSPropertyOp26
 70
     1
102
RTVSPropertyOp27
 70
     1
102
RTVSPropertyOp28
 70
     1
102
RTVSPropertyOp29
 70
     1
102
RTVSPropertyOp30
 70
     1
102
RTVSPropertyOp31
 70
     1
102
RTVSPropertyOp32
 70
     1
  0
XRECORD
  5
4A8
102
{ACAD_REACTORS
330
4A7
102
}
330
4A7
100
AcDbXrecord
280
     1
102
RTVSPropertyOp0
 70
     1
102
RTVSPropertyOp1
 70
     1
102
RTVSPropertyOp2
 70
     1
102
RTVSPropertyOp3
 70
     1
102
RTVSPropertyOp4
 70
     1
102
RTVSPropertyOp5
 70
     1
102
RTVSPropertyOp6
 70
     1
102
RTVSPropertyOp7
 70
     1
102
RTVSPropertyOp8
 70
     1
102
RTVSPropertyOp9
 70
     1
102
RTVSPropertyOp10
 70
     1
102
RTVSPropertyOp11
 70
     1
102
RTVSPropertyOp12
 70
     1
102
RTVSPropertyOp13
 70
     1
102
RTVSPropertyOp14
 70
     1
102
RTVSPropertyOp15
 70
     1
102
RTVSPropertyOp16
 70
     1
102
RTVSPropertyOp17
 70
     1
102
RTVSPropertyOp18
 70
     1
102
RTVSPropertyOp19
 70
     1
102
RTVSPropertyOp20
 70
     1
102
RTVSPropertyOp21
 70
     1
102
RTVSPropertyOp22
 70
     1
102
RTVSPropertyOp23
 70
     1
102
RTVSPropertyOp24
 70
     1
102
RTVSPropertyOp25
 70
     1
102
RTVSPropertyOp26
 70
     1
102
RTVSPropertyOp27
 70
     1
102
RTVSPropertyOp28
 70
     1
102
RTVSPropertyOp29
 70
     1
102
RTVSPropertyOp30
 70
     1
102
RTVSPropertyOp31
 70
     1
102
RTVSPropertyOp32
 70
     1
  0
XRECORD
  5
4B0
102
{ACAD_REACTORS
330
4AF
102
}
330
4AF
100
AcDbXrecord
280
     1
102
RTVSPropertyOp0
 70
     1
102
RTVSPropertyOp1
 70
     1
102
RTVSPropertyOp2
 70
     1
102
RTVSPropertyOp3
 70
     1
102
RTVSPropertyOp4
 70
     1
102
RTVSPropertyOp5
 70
     1
102
RTVSPropertyOp6
 70
     1
102
RTVSPropertyOp7
 70
     1
102
RTVSPropertyOp8
 70
     1
102
RTVSPropertyOp9
 70
     1
102
RTVSPropertyOp10
 70
     1
102
RTVSPropertyOp11
 70
     1
102
RTVSPropertyOp12
 70
     1
102
RTVSPropertyOp13
 70
     1
102
RTVSPropertyOp14
 70
     1
102
RTVSPropertyOp15
 70
     1
102
RTVSPropertyOp16
 70
     1
102
RTVSPropertyOp17
 70
     1
102
RTVSPropertyOp18
 70
     1
102
RTVSPropertyOp19
 70
     1
102
RTVSPropertyOp20
 70
     1
102
RTVSPropertyOp21
 70
     1
102
RTVSPropertyOp22
 70
     1
102
RTVSPropertyOp23
 70
     1
102
RTVSPropertyOp24
 70
     1
102
RTVSPropertyOp25
 70
     1
102
RTVSPropertyOp26
 70
     1
102
RTVSPropertyOp27
 70
     1
102
RTVSPropertyOp28
 70
     1
102
RTVSPropertyOp29
 70
     1
102
RTVSPropertyOp30
 70
     1
102
RTVSPropertyOp31
 70
     1
102
RTVSPropertyOp32
 70
     1
  0
XRECORD
  5
4A4
102
{ACAD_REACTORS
330
4A3
102
}
330
4A3
100
AcDbXrecord
280
     1
102
RTVSPropertyOp0
 70
     1
102
RTVSPropertyOp1
 70
     1
102
RTVSPropertyOp2
 70
     1
102
RTVSPropertyOp3
 70
     1
102
RTVSPropertyOp4
 70
     1
102
RTVSPropertyOp5
 70
     1
102
RTVSPropertyOp6
 70
     1
102
RTVSPropertyOp7
 70
     1
102
RTVSPropertyOp8
 70
     1
102
RTVSPropertyOp9
 70
     1
102
RTVSPropertyOp10
 70
     1
102
RTVSPropertyOp11
 70
     1
102
RTVSPropertyOp12
 70
     1
102
RTVSPropertyOp13
 70
     1
102
RTVSPropertyOp14
 70
     1
102
RTVSPropertyOp15
 70
     1
102
RTVSPropertyOp16
 70
     1
102
RTVSPropertyOp17
 70
     1
102
RTVSPropertyOp18
 70
     1
102
RTVSPropertyOp19
 70
     1
102
RTVSPropertyOp20
 70
     1
102
RTVSPropertyOp21
 70
     1
102
RTVSPropertyOp22
 70
     1
102
RTVSPropertyOp23
 70
     1
102
RTVSPropertyOp24
 70
     1
102
RTVSPropertyOp25
 70
     1
102
RTVSPropertyOp26
 70
     1
102
RTVSPropertyOp27
 70
     1
102
RTVSPropertyOp28
 70
     1
102
RTVSPropertyOp29
 70
     1
102
RTVSPropertyOp30
 70
     1
102
RTVSPropertyOp31
 70
     1
102
RTVSPropertyOp32
 70
     1
  0
XRECORD
  5
4A6
102
{ACAD_REACTORS
330
4A5
102
}
330
4A5
100
AcDbXrecord
280
     1
102
RTVSPropertyOp0
 70
     1
102
RTVSPropertyOp1
 70
     1
102
RTVSPropertyOp2
 70
     1
102
RTVSPropertyOp3
 70
     1
102
RTVSPropertyOp4
 70
     1
102
RTVSPropertyOp5
 70
     1
102
RTVSPropertyOp6
 70
     1
102
RTVSPropertyOp7
 70
     1
102
RTVSPropertyOp8
 70
     1
102
RTVSPropertyOp9
 70
     1
102
RTVSPropertyOp10
 70
     1
102
RTVSPropertyOp11
 70
     1
102
RTVSPropertyOp12
 70
     1
102
RTVSPropertyOp13
 70
     1
102
RTVSPropertyOp14
 70
     1
102
RTVSPropertyOp15
 70
     1
102
RTVSPropertyOp16
 70
     1
102
RTVSPropertyOp17
 70
     1
102
RTVSPropertyOp18
 70
     1
102
RTVSPropertyOp19
 70
     1
102
RTVSPropertyOp20
 70
     1
102
RTVSPropertyOp21
 70
     1
102
RTVSPropertyOp22
 70
     1
102
RTVSPropertyOp23
 70
     1
102
RTVSPropertyOp24
 70
     1
102
RTVSPropertyOp25
 70
     1
102
RTVSPropertyOp26
 70
     1
102
RTVSPropertyOp27
 70
     1
102
RTVSPropertyOp28
 70
     1
102
RTVSPropertyOp29
 70
     1
102
RTVSPropertyOp30
 70
     1
102
RTVSPropertyOp31
 70
     1
102
RTVSPropertyOp32
 70
     1
  0
XRECORD
  5
4AE
102
{ACAD_REACTORS
330
4AD
102
}
330
4AD
100
AcDbXrecord
280
     1
102
RTVSPropertyOp0
 70
     1
102
RTVSPropertyOp1
 70
     1
102
RTVSPropertyOp2
 70
     1
102
RTVSPropertyOp3
 70
     1
102
RTVSPropertyOp4
 70
     1
102
RTVSPropertyOp5
 70
     1
102
RTVSPropertyOp6
 70
     1
102
RTVSPropertyOp7
 70
     1
102
RTVSPropertyOp8
 70
     1
102
RTVSPropertyOp9
 70
     1
102
RTVSPropertyOp10
 70
     1
102
RTVSPropertyOp11
 70
     1
102
RTVSPropertyOp12
 70
     1
102
RTVSPropertyOp13
 70
     1
102
RTVSPropertyOp14
 70
     1
102
RTVSPropertyOp15
 70
     1
102
RTVSPropertyOp16
 70
     1
102
RTVSPropertyOp17
 70
     1
102
RTVSPropertyOp18
 70
     1
102
RTVSPropertyOp19
 70
     1
102
RTVSPropertyOp20
 70
     1
102
RTVSPropertyOp21
 70
     1
102
RTVSPropertyOp22
 70
     1
102
RTVSPropertyOp23
 70
     1
102
RTVSPropertyOp24
 70
     1
102
RTVSPropertyOp25
 70
     1
102
RTVSPropertyOp26
 70
     1
102
RTVSPropertyOp27
 70
     1
102
RTVSPropertyOp28
 70
     1
102
RTVSPropertyOp29
 70
     1
102
RTVSPropertyOp30
 70
     1
102
RTVSPropertyOp31
 70
     1
102
RTVSPropertyOp32
 70
     1
  0
XRECORD
  5
492
102
{ACAD_REACTORS
330
491
102
}
330
491
100
AcDbXrecord
280
     1
102
RTVSPropertyOp0
 70
     1
102
RTVSPropertyOp1
 70
     1
102
RTVSPropertyOp2
 70
     1
102
RTVSPropertyOp3
 70
     1
102
RTVSPropertyOp4
 70
     1
102
RTVSPropertyOp5
 70
     1
102
RTVSPropertyOp6
 70
     1
102
RTVSPropertyOp7
 70
     1
102
RTVSPropertyOp8
 70
     1
102
RTVSPropertyOp9
 70
     1
102
RTVSPropertyOp10
 70
     1
102
RTVSPropertyOp11
 70
     1
102
RTVSPropertyOp12
 70
     1
102
RTVSPropertyOp13
 70
     1
102
RTVSPropertyOp14
 70
     1
102
RTVSPropertyOp15
 70
     1
102
RTVSPropertyOp16
 70
     1
102
RTVSPropertyOp17
 70
     1
102
RTVSPropertyOp18
 70
     1
102
RTVSPropertyOp19
 70
     1
102
RTVSPropertyOp20
 70
     1
102
RTVSPropertyOp21
 70
     1
102
RTVSPropertyOp22
 70
     1
102
RTVSPropertyOp23
 70
     1
102
RTVSPropertyOp24
 70
     1
102
RTVSPropertyOp25
 70
     1
102
RTVSPropertyOp26
 70
     1
102
RTVSPropertyOp27
 70
     1
102
RTVSPropertyOp28
 70
     1
102
RTVSPropertyOp29
 70
     1
102
RTVSPropertyOp30
 70
     1
102
RTVSPropertyOp31
 70
     1
102
RTVSPropertyOp32
 70
     1
  0
XRECORD
  5
494
102
{ACAD_REACTORS
330
493
102
}
330
493
100
AcDbXrecord
280
     1
102
RTVSPropertyOp0
 70
     1
102
RTVSPropertyOp1
 70
     1
102
RTVSPropertyOp2
 70
     1
102
RTVSPropertyOp3
 70
     1
102
RTVSPropertyOp4
 70
     1
102
RTVSPropertyOp5
 70
     1
102
RTVSPropertyOp6
 70
     1
102
RTVSPropertyOp7
 70
     1
102
RTVSPropertyOp8
 70
     1
102
RTVSPropertyOp9
 70
     1
102
RTVSPropertyOp10
 70
     1
102
RTVSPropertyOp11
 70
     1
102
RTVSPropertyOp12
 70
     1
102
RTVSPropertyOp13
 70
     1
102
RTVSPropertyOp14
 70
     1
102
RTVSPropertyOp15
 70
     1
102
RTVSPropertyOp16
 70
     1
102
RTVSPropertyOp17
 70
     1
102
RTVSPropertyOp18
 70
     1
102
RTVSPropertyOp19
 70
     1
102
RTVSPropertyOp20
 70
     1
102
RTVSPropertyOp21
 70
     1
102
RTVSPropertyOp22
 70
     1
102
RTVSPropertyOp23
 70
     1
102
RTVSPropertyOp24
 70
     1
102
RTVSPropertyOp25
 70
     1
102
RTVSPropertyOp26
 70
     1
102
RTVSPropertyOp27
 70
     1
102
RTVSPropertyOp28
 70
     1
102
RTVSPropertyOp29
 70
     1
102
RTVSPropertyOp30
 70
     1
102
RTVSPropertyOp31
 70
     1
102
RTVSPropertyOp32
 70
     1
  0
XRECORD
  5
496
102
{ACAD_REACTORS
330
495
102
}
330
495
100
AcDbXrecord
280
     1
102
RTVSPropertyOp0
 70
     1
102
RTVSPropertyOp1
 70
     1
102
RTVSPropertyOp2
 70
     1
102
RTVSPropertyOp3
 70
     1
102
RTVSPropertyOp4
 70
     1
102
RTVSPropertyOp5
 70
     1
102
RTVSPropertyOp6
 70
     1
102
RTVSPropertyOp7
 70
     1
102
RTVSPropertyOp8
 70
     1
102
RTVSPropertyOp9
 70
     1
102
RTVSPropertyOp10
 70
     1
102
RTVSPropertyOp11
 70
     1
102
RTVSPropertyOp12
 70
     1
102
RTVSPropertyOp13
 70
     1
102
RTVSPropertyOp14
 70
     1
102
RTVSPropertyOp15
 70
     1
102
RTVSPropertyOp16
 70
     1
102
RTVSPropertyOp17
 70
     1
102
RTVSPropertyOp18
 70
     1
102
RTVSPropertyOp19
 70
     1
102
RTVSPropertyOp20
 70
     1
102
RTVSPropertyOp21
 70
     1
102
RTVSPropertyOp22
 70
     1
102
RTVSPropertyOp23
 70
     1
102
RTVSPropertyOp24
 70
     1
102
RTVSPropertyOp25
 70
     1
102
RTVSPropertyOp26
 70
     1
102
RTVSPropertyOp27
 70
     1
102
RTVSPropertyOp28
 70
     1
102
RTVSPropertyOp29
 70
     1
102
RTVSPropertyOp30
 70
     1
102
RTVSPropertyOp31
 70
     1
102
RTVSPropertyOp32
 70
     1
  0
XRECORD
  5
498
102
{ACAD_REACTORS
330
497
102
}
330
497
100
AcDbXrecord
280
     1
102
RTVSPropertyOp0
 70
     1
102
RTVSPropertyOp1
 70
     1
102
RTVSPropertyOp2
 70
     1
102
RTVSPropertyOp3
 70
     1
102
RTVSPropertyOp4
 70
     1
102
RTVSPropertyOp5
 70
     1
102
RTVSPropertyOp6
 70
     1
102
RTVSPropertyOp7
 70
     1
102
RTVSPropertyOp8
 70
     1
102
RTVSPropertyOp9
 70
     1
102
RTVSPropertyOp10
 70
     1
102
RTVSPropertyOp11
 70
     1
102
RTVSPropertyOp12
 70
     1
102
RTVSPropertyOp13
 70
     1
102
RTVSPropertyOp14
 70
     1
102
RTVSPropertyOp15
 70
     1
102
RTVSPropertyOp16
 70
     1
102
RTVSPropertyOp17
 70
     1
102
RTVSPropertyOp18
 70
     1
102
RTVSPropertyOp19
 70
     1
102
RTVSPropertyOp20
 70
     1
102
RTVSPropertyOp21
 70
     1
102
RTVSPropertyOp22
 70
     1
102
RTVSPropertyOp23
 70
     1
102
RTVSPropertyOp24
 70
     1
102
RTVSPropertyOp25
 70
     1
102
RTVSPropertyOp26
 70
     1
102
RTVSPropertyOp27
 70
     1
102
RTVSPropertyOp28
 70
     1
102
RTVSPropertyOp29
 70
     1
102
RTVSPropertyOp30
 70
     1
102
RTVSPropertyOp31
 70
     1
102
RTVSPropertyOp32
 70
     1
  0
XRECORD
  5
4AC
102
{ACAD_REACTORS
330
4AB
102
}
330
4AB
100
AcDbXrecord
280
     1
102
RTVSPropertyOp0
 70
     1
102
RTVSPropertyOp1
 70
     1
102
RTVSPropertyOp2
 70
     1
102
RTVSPropertyOp3
 70
     1
102
RTVSPropertyOp4
 70
     1
102
RTVSPropertyOp5
 70
     1
102
RTVSPropertyOp6
 70
     1
102
RTVSPropertyOp7
 70
     1
102
RTVSPropertyOp8
 70
     1
102
RTVSPropertyOp9
 70
     1
102
RTVSPropertyOp10
 70
     1
102
RTVSPropertyOp11
 70
     1
102
RTVSPropertyOp12
 70
     1
102
RTVSPropertyOp13
 70
     1
102
RTVSPropertyOp14
 70
     1
102
RTVSPropertyOp15
 70
     1
102
RTVSPropertyOp16
 70
     1
102
RTVSPropertyOp17
 70
     1
102
RTVSPropertyOp18
 70
     1
102
RTVSPropertyOp19
 70
     1
102
RTVSPropertyOp20
 70
     1
102
RTVSPropertyOp21
 70
     1
102
RTVSPropertyOp22
 70
     1
102
RTVSPropertyOp23
 70
     1
102
RTVSPropertyOp24
 70
     1
102
RTVSPropertyOp25
 70
     1
102
RTVSPropertyOp26
 70
     1
102
RTVSPropertyOp27
 70
     1
102
RTVSPropertyOp28
 70
     1
102
RTVSPropertyOp29
 70
     1
102
RTVSPropertyOp30
 70
     1
102
RTVSPropertyOp31
 70
     1
102
RTVSPropertyOp32
 70
     1
  0
XRECORD
  5
4A2
102
{ACAD_REACTORS
330
4A1
102
}
330
4A1
100
AcDbXrecord
280
     1
102
RTVSPropertyOp0
 70
     1
102
RTVSPropertyOp1
 70
     1
102
RTVSPropertyOp2
 70
     1
102
RTVSPropertyOp3
 70
     1
102
RTVSPropertyOp4
 70
     1
102
RTVSPropertyOp5
 70
     1
102
RTVSPropertyOp6
 70
     1
102
RTVSPropertyOp7
 70
     1
102
RTVSPropertyOp8
 70
     1
102
RTVSPropertyOp9
 70
     1
102
RTVSPropertyOp10
 70
     1
102
RTVSPropertyOp11
 70
     1
102
RTVSPropertyOp12
 70
     1
102
RTVSPropertyOp13
 70
     1
102
RTVSPropertyOp14
 70
     1
102
RTVSPropertyOp15
 70
     1
102
RTVSPropertyOp16
 70
     1
102
RTVSPropertyOp17
 70
     1
102
RTVSPropertyOp18
 70
     1
102
RTVSPropertyOp19
 70
     1
102
RTVSPropertyOp20
 70
     1
102
RTVSPropertyOp21
 70
     1
102
RTVSPropertyOp22
 70
     1
102
RTVSPropertyOp23
 70
     1
102
RTVSPropertyOp24
 70
     1
102
RTVSPropertyOp25
 70
     1
102
RTVSPropertyOp26
 70
     1
102
RTVSPropertyOp27
 70
     1
102
RTVSPropertyOp28
 70
     1
102
RTVSPropertyOp29
 70
     1
102
RTVSPropertyOp30
 70
     1
102
RTVSPropertyOp31
 70
     1
102
RTVSPropertyOp32
 70
     1
  0
XRECORD
  5
4AA
102
{ACAD_REACTORS
330
4A9
102
}
330
4A9
100
AcDbXrecord
280
     1
102
RTVSPropertyOp0
 70
     1
102
RTVSPropertyOp1
 70
     1
102
RTVSPropertyOp2
 70
     1
102
RTVSPropertyOp3
 70
     1
102
RTVSPropertyOp4
 70
     1
102
RTVSPropertyOp5
 70
     1
102
RTVSPropertyOp6
 70
     1
102
RTVSPropertyOp7
 70
     1
102
RTVSPropertyOp8
 70
     1
102
RTVSPropertyOp9
 70
     1
102
RTVSPropertyOp10
 70
     1
102
RTVSPropertyOp11
 70
     1
102
RTVSPropertyOp12
 70
     1
102
RTVSPropertyOp13
 70
     1
102
RTVSPropertyOp14
 70
     1
102
RTVSPropertyOp15
 70
     1
102
RTVSPropertyOp16
 70
     1
102
RTVSPropertyOp17
 70
     1
102
RTVSPropertyOp18
 70
     1
102
RTVSPropertyOp19
 70
     1
102
RTVSPropertyOp20
 70
     1
102
RTVSPropertyOp21
 70
     1
102
RTVSPropertyOp22
 70
     1
102
RTVSPropertyOp23
 70
     1
102
RTVSPropertyOp24
 70
     1
102
RTVSPropertyOp25
 70
     1
102
RTVSPropertyOp26
 70
     1
102
RTVSPropertyOp27
 70
     1
102
RTVSPropertyOp28
 70
     1
102
RTVSPropertyOp29
 70
     1
102
RTVSPropertyOp30
 70
     1
102
RTVSPropertyOp31
 70
     1
102
RTVSPropertyOp32
 70
     1
  0
ENDSEC
  0
EOF
