  0
SECTION
  2
HEADER
  9
$ACADVER
  1
AC1015
  9
$ACADMAINTVER
 70
     6
  9
$DWGCODEPAGE
  3
DOS932
  9
$INSBASE
 10
0.0
 20
0.0
 30
0.0
  9
$EXTMIN
 10
0.0
 20
0.0
 30
0.0
  9
$EXTMAX
 10
630.0
 20
891.0
 30
0.0
  9
$LIMMIN
 10
0.0
 20
0.0
  9
$LIMMAX
 10
12.0
 20
9.0
  9
$ORTHOMODE
 70
     0
  9
$REGENMODE
 70
     1
  9
$FILLMODE
 70
     1
  9
$QTEXTMODE
 70
     0
  9
$MIRRTEXT
 70
     1
  9
$LTSCALE
 40
1.0
  9
$ATTMODE
 70
     1
  9
$TEXTSIZE
 40
0.2
  9
$TRACEWID
 40
0.05
  9
$TEXTSTYLE
  7
Standard
  9
$CLAYER
  8
0
  9
$CELTYPE
  6
ByLayer
  9
$CECOLOR
 62
   256
  9
$CELTSCALE
 40
1.0
  9
$DISPSILH
 70
     0
  9
$DIMSCALE
 40
1.0
  9
$DIMASZ
 40
0.18
  9
$DIMEXO
 40
0.0625
  9
$DIMDLI
 40
0.38
  9
$DIMRND
 40
0.0
  9
$DIMDLE
 40
0.0
  9
$DIMEXE
 40
0.18
  9
$DIMTP
 40
0.0
  9
$DIMTM
 40
0.0
  9
$DIMTXT
 40
0.18
  9
$DIMCEN
 40
0.09
  9
$DIMTSZ
 40
0.0
  9
$DIMTOL
 70
     0
  9
$DIMLIM
 70
     0
  9
$DIMTIH
 70
     1
  9
$DIMTOH
 70
     1
  9
$DIMSE1
 70
     0
  9
$DIMSE2
 70
     0
  9
$DIMTAD
 70
     0
  9
$DIMZIN
 70
     0
  9
$DIMBLK
  1

  9
$DIMASO
 70
     1
  9
$DIMSHO
 70
     1
  9
$DIMPOST
  1

  9
$DIMAPOST
  1

  9
$DIMALT
 70
     0
  9
$DIMALTD
 70
     2
  9
$DIMALTF
 40
25.4
  9
$DIMLFAC
 40
1.0
  9
$DIMTOFL
 70
     0
  9
$DIMTVP
 40
0.0
  9
$DIMTIX
 70
     0
  9
$DIMSOXD
 70
     0
  9
$DIMSAH
 70
     0
  9
$DIMBLK1
  1

  9
$DIMBLK2
  1

  9
$DIMSTYLE
  2
Standard
  9
$DIMCLRD
 70
     0
  9
$DIMCLRE
 70
     0
  9
$DIMCLRT
 70
     0
  9
$DIMTFAC
 40
1.0
  9
$DIMGAP
 40
0.09
  9
$DIMJUST
 70
     0
  9
$DIMSD1
 70
     0
  9
$DIMSD2
 70
     0
  9
$DIMTOLJ
 70
     1
  9
$DIMTZIN
 70
     0
  9
$DIMALTZ
 70
     0
  9
$DIMALTTZ
 70
     0
  9
$DIMUPT
 70
     0
  9
$DIMDEC
 70
     4
  9
$DIMTDEC
 70
     4
  9
$DIMALTU
 70
     2
  9
$DIMALTTD
 70
     2
  9
$DIMTXSTY
  7
Standard
  9
$DIMAUNIT
 70
     0
  9
$DIMADEC
 70
     0
  9
$DIMALTRND
 40
0.0
  9
$DIMAZIN
 70
     0
  9
$DIMDSEP
 70
    46
  9
$DIMATFIT
 70
     3
  9
$DIMFRAC
 70
     0
  9
$DIMLDRBLK
  1

  9
$DIMLUNIT
 70
     2
  9
$DIMLWD
 70
    -2
  9
$DIMLWE
 70
    -2
  9
$DIMTMOVE
 70
     0
  9
$LUNITS
 70
     2
  9
$LUPREC
 70
     4
  9
$SKETCHINC
 40
0.1
  9
$FILLETRAD
 40
0.5
  9
$AUNITS
 70
     0
  9
$AUPREC
 70
     0
  9
$MENU
  1
.
  9
$ELEVATION
 40
0.0
  9
$PELEVATION
 40
0.0
  9
$THICKNESS
 40
0.0
  9
$LIMCHECK
 70
     0
  9
$CHAMFERA
 40
0.5
  9
$CHAMFERB
 40
0.5
  9
$CHAMFERC
 40
1.0
  9
$CHAMFERD
 40
0.0
  9
$SKPOLY
 70
     0
  9
$TDCREATE
 40
2456134.653934456
  9
$TDUCREATE
 40
2456134.278934456
  9
$TDUPDATE
 40
2456134.653934468
  9
$TDUUPDATE
 40
2456134.278934468
  9
$TDINDWG
 40
0.0000000116
  9
$TDUSRTIMER
 40
0.0000000116
  9
$USRTIMER
 70
     1
  9
$ANGBASE
 50
0.0
  9
$ANGDIR
 70
     0
  9
$PDMODE
 70
     0
  9
$PDSIZE
 40
0.0
  9
$PLINEWID
 40
0.0
  9
$SPLFRAME
 70
     0
  9
$SPLINETYPE
 70
     6
  9
$SPLINESEGS
 70
     8
  9
$HANDSEED
  5
22F
  9
$SURFTAB1
 70
     6
  9
$SURFTAB2
 70
     6
  9
$SURFTYPE
 70
     6
  9
$SURFU
 70
     6
  9
$SURFV
 70
     6
  9
$UCSBASE
  2

  9
$UCSNAME
  2

  9
$UCSORG
 10
0.0
 20
0.0
 30
0.0
  9
$UCSXDIR
 10
1.0
 20
0.0
 30
0.0
  9
$UCSYDIR
 10
0.0
 20
1.0
 30
0.0
  9
$UCSORTHOREF
  2

  9
$UCSORTHOVIEW
 70
     0
  9
$UCSORGTOP
 10
0.0
 20
0.0
 30
0.0
  9
$UCSORGBOTTOM
 10
0.0
 20
0.0
 30
0.0
  9
$UCSORGLEFT
 10
0.0
 20
0.0
 30
0.0
  9
$UCSORGRIGHT
 10
0.0
 20
0.0
 30
0.0
  9
$UCSORGFRONT
 10
0.0
 20
0.0
 30
0.0
  9
$UCSORGBACK
 10
0.0
 20
0.0
 30
0.0
  9
$PUCSBASE
  2

  9
$PUCSNAME
  2

  9
$PUCSORG
 10
0.0
 20
0.0
 30
0.0
  9
$PUCSXDIR
 10
1.0
 20
0.0
 30
0.0
  9
$PUCSYDIR
 10
0.0
 20
1.0
 30
0.0
  9
$PUCSORTHOREF
  2

  9
$PUCSORTHOVIEW
 70
     0
  9
$PUCSORGTOP
 10
0.0
 20
0.0
 30
0.0
  9
$PUCSORGBOTTOM
 10
0.0
 20
0.0
 30
0.0
  9
$PUCSORGLEFT
 10
0.0
 20
0.0
 30
0.0
  9
$PUCSORGRIGHT
 10
0.0
 20
0.0
 30
0.0
  9
$PUCSORGFRONT
 10
0.0
 20
0.0
 30
0.0
  9
$PUCSORGBACK
 10
0.0
 20
0.0
 30
0.0
  9
$USERI1
 70
     0
  9
$USERI2
 70
     0
  9
$USERI3
 70
     0
  9
$USERI4
 70
     0
  9
$USERI5
 70
     0
  9
$USERR1
 40
13.2
  9
$USERR2
 40
0.0
  9
$USERR3
 40
0.0
  9
$USERR4
 40
0.0
  9
$USERR5
 40
0.0
  9
$WORLDVIEW
 70
     1
  9
$SHADEDGE
 70
     3
  9
$SHADEDIF
 70
    70
  9
$TILEMODE
 70
     1
  9
$MAXACTVP
 70
    64
  9
$PINSBASE
 10
0.0
 20
0.0
 30
0.0
  9
$PLIMCHECK
 70
     0
  9
$PEXTMIN
 10
1.00000000000000E+20
 20
1.00000000000000E+20
 30
1.00000000000000E+20
  9
$PEXTMAX
 10
-1.00000000000000E+20
 20
-1.00000000000000E+20
 30
-1.00000000000000E+20
  9
$PLIMMIN
 10
0.0
 20
0.0
  9
$PLIMMAX
 10
12.0
 20
9.0
  9
$UNITMODE
 70
     0
  9
$VISRETAIN
 70
     1
  9
$PLINEGEN
 70
     0
  9
$PSLTSCALE
 70
     1
  9
$TREEDEPTH
 70
  3020
  9
$CMLSTYLE
  2
Standard
  9
$CMLJUST
 70
     0
  9
$CMLSCALE
 40
1.0
  9
$PROXYGRAPHICS
 70
     1
  9
$MEASUREMENT
 70
     1
  9
$CELWEIGHT
370
    -1
  9
$ENDCAPS
280
     0
  9
$JOINSTYLE
280
     0
  9
$LWDISPLAY
290
     0
  9
$INSUNITS
 70
     1
  9
$HYPERLINKBASE
  1

  9
$STYLESHEET
  1

  9
$XEDIT
290
     1
  9
$CEPSNTYPE
380
     0
  9
$PSTYLEMODE
290
     0
  9
$FINGERPRINTGUID
  2
{FAEB1C30-E019-11D5-929B-00C0DF256EC4}
  9
$VERSIONGUID
  2
{FAEB1C32-E019-11D5-929B-00C0DF256EC4}
  9
$EXTNAMES
290
     1
  9
$PSVPSCALE
 40
0.0
  9
$OLESTARTUP
290
     0
  0
ENDSEC
  0
SECTION
  2
CLASSES
  0
CLASS
  1
ACDBDICTIONARYWDFLT
  2
AcDbDictionaryWithDefault
  3
ObjectDBX Classes
 90
        0
280
     0
281
     0
  0
CLASS
  1
TABLESTYLE
  2
AcDbTableStyle
  3
ObjectDBX Classes
 90
     2047
280
     0
281
     0
  0
CLASS
  1
DICTIONARYVAR
  2
AcDbDictionaryVar
  3
ObjectDBX Classes
 90
        0
280
     0
281
     0
  0
CLASS
  1

  2
exOdDbCircle
  3

 90
        0
280
     0
281
     1
  0
CLASS
  1

  2
exOdDbSpline
  3

 90
        0
280
     0
281
     1
  0
CLASS
  1
ACDBPLACEHOLDER
  2
AcDbPlaceHolder
  3
ObjectDBX Classes
 90
        0
280
     0
281
     0
  0
CLASS
  1
LAYOUT
  2
AcDbLayout
  3
ObjectDBX Classes
 90
        0
280
     0
281
     0
  0
ENDSEC
  0
SECTION
  2
TABLES
  0
TABLE
  2
VPORT
  5
8
330
0
100
AcDbSymbolTable
 70
     2
  0
VPORT
  5
29
330
8
100
AcDbSymbolTableRecord
100
AcDbViewportTableRecord
  2
*Active
 70
     0
 10
0.0
 20
0.0
 11
1.0
 21
1.0
 12
315.0
 22
445.5
 13
0.0
 23
0.0
 14
0.5
 24
0.5
 15
0.5
 25
0.5
 16
0.0
 26
0.0
 36
1.0
 17
0.0
 27
0.0
 37
0.0
 40
980.1
 41
1.60267857142857
 42
50.0
 43
0.0
 44
0.0
 50
0.0
 51
0.0
 71
     0
 72
   100
 73
     1
 74
     3
 75
     0
 76
     0
 77
     0
 78
     0
281
     0
 65
     1
110
0.0
120
0.0
130
0.0
111
1.0
121
0.0
131
0.0
112
0.0
122
1.0
132
0.0
 79
     0
146
0.0
  0
ENDTAB
  0
TABLE
  2
LTYPE
  5
5
330
0
100
AcDbSymbolTable
 70
     8
  0
LTYPE
  5
14
330
5
100
AcDbSymbolTableRecord
100
AcDbLinetypeTableRecord
  2
ByBlock
 70
     0
  3

 72
    65
 73
     0
 40
0.0
  0
LTYPE
  5
15
330
5
100
AcDbSymbolTableRecord
100
AcDbLinetypeTableRecord
  2
ByLayer
 70
     0
  3

 72
    65
 73
     0
 40
0.0
  0
LTYPE
  5
16
330
5
100
AcDbSymbolTableRecord
100
AcDbLinetypeTableRecord
  2
Continuous
 70
     0
  3
Solid line
 72
    65
 73
     0
 40
0.0
  0
LTYPE
  5
2E
330
5
100
AcDbSymbolTableRecord
100
AcDbLinetypeTableRecord
  2
DASHED
 70
     0
  3
Dashed
 72
    65
 73
     2
 40
15.0
 49
7.0
 74
     0
 49
-8.0
 74
     0
  0
LTYPE
  5
2F
330
5
100
AcDbSymbolTableRecord
100
AcDbLinetypeTableRecord
  2
DOTTED
 70
     0
  3
Dotted
 72
    65
 73
     2
 40
1.0
 49
0.0
 74
     0
 49
-1.0
 74
     0
  0
LTYPE
  5
30
330
5
100
AcDbSymbolTableRecord
100
AcDbLinetypeTableRecord
  2
DOT_CENTER
 70
     0
  3
Dot_Center
 72
    65
 73
     4
 40
14.0
 49
12.0
 74
     0
 49
-1.0
 74
     0
 49
0.0
 74
     0
 49
-1.0
 74
     0
  0
LTYPE
  5
31
330
5
100
AcDbSymbolTableRecord
100
AcDbLinetypeTableRecord
  2
LONG_DASHED
 70
     0
  3
Long_Dashed
 72
    65
 73
     2
 40
15.0
 49
10.0
 74
     0
 49
-5.0
 74
     0
  0
LTYPE
  5
32
330
5
100
AcDbSymbolTableRecord
100
AcDbLinetypeTableRecord
  2
DASH_CENTER
 70
     0
  3
Dash_Center
 72
    65
 73
     4
 40
14.0
 49
11.0
 74
     0
 49
-1.0
 74
     0
 49
1.0
 74
     0
 49
-1.0
 74
     0
  0
LTYPE
  5
33
330
5
100
AcDbSymbolTableRecord
100
AcDbLinetypeTableRecord
  2
PHANTOM
 70
     0
  3
Phantom
 72
    65
 73
     6
 40
13.0
 49
10.0
 74
     0
 49
-1.0
 74
     0
 49
0.0
 74
     0
 49
-1.0
 74
     0
 49
0.0
 74
     0
 49
-1.0
 74
     0
  0
LTYPE
  5
34
330
5
100
AcDbSymbolTableRecord
100
AcDbLinetypeTableRecord
  2
CENTER_DASH_DASH
 70
     0
  3
Center_Dash_Dash
 72
    65
 73
     6
 40
14.0
 49
9.0
 74
     0
 49
-1.0
 74
     0
 49
1.0
 74
     0
 49
-1.0
 74
     0
 49
1.0
 74
     0
 49
-1.0
 74
     0
  0
ENDTAB
  0
TABLE
  2
LAYER
  5
2
330
0
100
AcDbSymbolTable
 70
     2
  0
LAYER
  5
10
330
2
100
AcDbSymbolTableRecord
100
AcDbLayerTableRecord
  2
0
 70
     0
 62
     7
  6
Continuous
370
    -3
390
F
  0
LAYER
  5
35
330
2
100
AcDbSymbolTableRecord
100
AcDbLayerTableRecord
  2
1
 70
     0
 62
     7
  6
Continuous
370
    -3
390
F
  0
ENDTAB
  0
TABLE
  2
STYLE
  5
3
330
0
100
AcDbSymbolTable
 70
     3
  0
STYLE
  5
11
330
3
100
AcDbSymbolTableRecord
100
AcDbTextStyleTableRecord
  2
Standard
 70
     0
 40
0.0
 41
1.0
 50
0.0
 71
     0
 42
0.2
  3
txt
  4

  0
STYLE
  5
A1
330
3
100
AcDbSymbolTableRecord
100
AcDbTextStyleTableRecord
  2
CONVERTER_1
 70
     0
 40
0.0
 41
0.89
 50
0.0
 71
     0
 42
0.2
  3
msmincho.ttc
  4

1001
ACAD
1000
MS Mincho
1071
    32785
  0
STYLE
  5
1D8
330
3
100
AcDbSymbolTableRecord
100
AcDbTextStyleTableRecord
  2
CONVERTER_2
 70
     0
 40
0.0
 41
0.9
 50
0.0
 71
     0
 42
0.2
  3
txt.shx
  4

  0
ENDTAB
  0
TABLE
  2
VIEW
  5
6
330
0
100
AcDbSymbolTable
 70
     0
  0
ENDTAB
  0
TABLE
  2
UCS
  5
7
330
0
100
AcDbSymbolTable
 70
     0
  0
ENDTAB
  0
TABLE
  2
APPID
  5
9
330
0
100
AcDbSymbolTable
 70
     1
  0
APPID
  5
12
330
9
100
AcDbSymbolTableRecord
100
AcDbRegAppTableRecord
  2
ACAD
 70
     0
  0
ENDTAB
  0
TABLE
  2
DIMSTYLE
  5
A
330
0
100
AcDbSymbolTable
 70
     8
100
AcDbDimStyleTable
  0
DIMSTYLE
105
27
330
A
100
AcDbSymbolTableRecord
100
AcDbDimStyleTableRecord
  2
Standard
 70
     0
340
11
  0
DIMSTYLE
105
1E8
102
{ACAD_REACTORS
330
1E9
102
}
330
A
100
AcDbSymbolTableRecord
100
AcDbDimStyleTableRecord
  2
ME10_DIM_0
 70
     0
 41
10.5
 42
0.0
 44
3.0
 73
     0
 74
     0
 77
     1
 78
     8
140
10.5
147
0.625
172
     1
173
     1
176
     2
177
     2
178
     7
271
     2
340
1D8
  0
DIMSTYLE
105
1F3
102
{ACAD_REACTORS
330
1F4
102
}
330
A
100
AcDbSymbolTableRecord
100
AcDbDimStyleTableRecord
  2
ME10_DIM_1
 70
     0
 41
10.5
 42
0.0
 44
3.0
 73
     0
 74
     0
 77
     1
 78
     8
140
10.5
147
0.625
172
     1
173
     1
176
     2
177
     2
178
     7
271
     2
340
1D8
  0
DIMSTYLE
105
1FE
102
{ACAD_REACTORS
330
1FF
102
}
330
A
100
AcDbSymbolTableRecord
100
AcDbDimStyleTableRecord
  2
ME10_DIM_2
 70
     0
 41
10.5
 42
0.0
 44
3.0
 73
     0
 74
     0
 77
     1
 78
     8
140
10.5
147
0.625
172
     1
173
     1
176
     2
177
     2
178
     7
271
     2
340
A1
  0
DIMSTYLE
105
209
102
{ACAD_REACTORS
330
20A
102
}
330
A
100
AcDbSymbolTableRecord
100
AcDbDimStyleTableRecord
  2
ME10_DIM_3
 70
     0
 41
10.5
 42
0.0
 44
3.0
 73
     0
 74
     0
 77
     1
 78
     8
140
10.5
147
0.625
172
     1
173
     1
176
     2
177
     2
178
     7
271
     2
340
1D8
  0
DIMSTYLE
105
214
102
{ACAD_REACTORS
330
215
102
}
330
A
100
AcDbSymbolTableRecord
100
AcDbDimStyleTableRecord
  2
ME10_DIM_4
 70
     0
 41
10.5
 42
0.0
 44
3.0
 73
     0
 74
     0
 77
     1
 78
     8
140
10.5
147
0.625
172
     1
173
     1
176
     2
177
     2
178
     7
271
     0
340
1D8
  0
DIMSTYLE
105
21F
102
{ACAD_REACTORS
330
220
102
}
330
A
100
AcDbSymbolTableRecord
100
AcDbDimStyleTableRecord
  2
ME10_DIM_5
 70
     0
  3
{\Fgdt;n}<>
 41
10.5
 42
0.0
 44
3.0
 73
     0
 74
     0
 77
     1
 78
     8
140
10.5
147
0.625
172
     1
173
     1
176
     2
177
     2
178
     7
271
     2
340
1D8
  0
DIMSTYLE
105
22D
102
{ACAD_REACTORS
330
22E
102
}
330
A
100
AcDbSymbolTableRecord
100
AcDbDimStyleTableRecord
  2
ME10_DIM_6
 70
     0
 41
10.5
 42
0.0
 44
3.0
 73
     0
 74
     0
 77
     1
 78
     8
140
10.5
147
0.625
172
     1
173
     1
176
     2
177
     2
178
     7
271
     2
340
1D8
344
22A
  0
ENDTAB
  0
TABLE
  2
BLOCK_RECORD
  5
1
330
0
100
AcDbSymbolTable
 70
    17
  0
BLOCK_RECORD
  5
1F
330
1
100
AcDbSymbolTableRecord
100
AcDbBlockTableRecord
  2
*Model_Space
340
22
  0
BLOCK_RECORD
  5
1B
330
1
100
AcDbSymbolTableRecord
100
AcDbBlockTableRecord
  2
*Paper_Space
340
1E
  0
BLOCK_RECORD
  5
23
330
1
100
AcDbSymbolTableRecord
100
AcDbBlockTableRecord
  2
*Paper_Space0
340
26
  0
BLOCK_RECORD
  5
36
330
1
100
AcDbSymbolTableRecord
100
AcDbBlockTableRecord
  2
_J__A4
340
0
102
{BLKREFS
331
4E
102
}
  0
BLOCK_RECORD
  5
39
330
1
100
AcDbSymbolTableRecord
100
AcDbBlockTableRecord
  2
60-1-19-170
340
0
102
{BLKREFS
331
4F
102
}
  0
BLOCK_RECORD
  5
3C
330
1
100
AcDbSymbolTableRecord
100
AcDbBlockTableRecord
  2
36-1-20
340
0
102
{BLKREFS
331
50
102
}
  0
BLOCK_RECORD
  5
3F
330
1
100
AcDbSymbolTableRecord
100
AcDbBlockTableRecord
  2
42-1
340
0
102
{BLKREFS
331
51
102
}
  0
BLOCK_RECORD
  5
42
330
1
100
AcDbSymbolTableRecord
100
AcDbBlockTableRecord
  2
21-1A
340
0
102
{BLKREFS
331
52
102
}
  0
BLOCK_RECORD
  5
45
330
1
100
AcDbSymbolTableRecord
100
AcDbBlockTableRecord
  2
37-1-20
340
0
102
{BLKREFS
331
53
102
}
  0
BLOCK_RECORD
  5
48
330
1
100
AcDbSymbolTableRecord
100
AcDbBlockTableRecord
  2
32-1-19
340
0
102
{BLKREFS
331
54
102
}
  0
BLOCK_RECORD
  5
4B
330
1
100
AcDbSymbolTableRecord
100
AcDbBlockTableRecord
  2
A10-0-20
340
0
102
{BLKREFS
331
55
102
}
  0
BLOCK_RECORD
  5
1DF
330
1
100
AcDbSymbolTableRecord
100
AcDbBlockTableRecord
  2
*D09
340
0
  0
BLOCK_RECORD
  5
1EA
330
1
100
AcDbSymbolTableRecord
100
AcDbBlockTableRecord
  2
*D110
340
0
  0
BLOCK_RECORD
  5
1F5
330
1
100
AcDbSymbolTableRecord
100
AcDbBlockTableRecord
  2
*D211
340
0
  0
BLOCK_RECORD
  5
200
330
1
100
AcDbSymbolTableRecord
100
AcDbBlockTableRecord
  2
*D312
340
0
  0
BLOCK_RECORD
  5
20B
330
1
100
AcDbSymbolTableRecord
100
AcDbBlockTableRecord
  2
*D413
340
0
  0
BLOCK_RECORD
  5
216
330
1
100
AcDbSymbolTableRecord
100
AcDbBlockTableRecord
  2
*D514
340
0
  0
BLOCK_RECORD
  5
221
330
1
100
AcDbSymbolTableRecord
100
AcDbBlockTableRecord
  2
*D615
340
0
  0
BLOCK_RECORD
  5
22A
330
1
100
AcDbSymbolTableRecord
100
AcDbBlockTableRecord
  2
_None
340
0
  0
ENDTAB
  0
ENDSEC
  0
SECTION
  2
BLOCKS
  0
BLOCK
  5
20
330
1F
100
AcDbEntity
  8
0
100
AcDbBlockBegin
  2
*Model_Space
 70
     0
 71
     0
 10
0.0
 20
0.0
 30
0.0
  3
*Model_Space
  1

  0
ENDBLK
  5
21
330
1F
100
AcDbEntity
  8
0
100
AcDbBlockEnd
  0
BLOCK
  5
1C
330
1B
100
AcDbEntity
 67
     1
  8
0
100
AcDbBlockBegin
  2
*Paper_Space
 70
     0
 71
     0
 10
0.0
 20
0.0
 30
0.0
  3
*Paper_Space
  1

  0
ENDBLK
  5
1D
330
1B
100
AcDbEntity
 67
     1
  8
0
100
AcDbBlockEnd
  0
BLOCK
  5
24
330
23
100
AcDbEntity
  8
0
100
AcDbBlockBegin
  2
*Paper_Space0
 70
     0
 71
     0
 10
0.0
 20
0.0
 30
0.0
  3
*Paper_Space0
  1

  0
ENDBLK
  5
25
330
23
100
AcDbEntity
  8
0
100
AcDbBlockEnd
  0
BLOCK
  5
37
330
36
100
AcDbEntity
  8
0
100
AcDbBlockBegin
  2
_J__A4
 70
     0
 71
     0
 10
0.0
 20
0.0
 30
0.0
  3
_J__A4
  1

  0
POINT
  5
56
330
36
100
AcDbEntity
  8
1
 62
     4
100
AcDbPoint
 10
34.0
 20
34.00000000000001
 30
0.0
  0
POINT
  5
57
330
36
100
AcDbEntity
  8
1
 62
     4
100
AcDbPoint
 10
57.0
 20
12.25
 30
0.0
  0
POINT
  5
58
330
36
100
AcDbEntity
  8
1
 62
     4
100
AcDbPoint
 10
57.0
 20
20.75000000000001
 30
0.0
  0
POINT
  5
59
330
36
100
AcDbEntity
  8
1
 62
     4
100
AcDbPoint
 10
57.0
 20
24.75000000000001
 30
0.0
  0
POINT
  5
5A
330
36
100
AcDbEntity
  8
1
 62
     4
100
AcDbPoint
 10
57.0
 20
16.25
 30
0.0
  0
POINT
  5
5B
330
36
100
AcDbEntity
  8
1
 62
     4
100
AcDbPoint
 10
157.5
 20
19.00000000000001
 30
0.0
  0
POINT
  5
5C
330
36
100
AcDbEntity
  8
1
 62
     4
100
AcDbPoint
 10
47.5
 20
282.0000000000003
 30
0.0
  0
POINT
  5
5D
330
36
100
AcDbEntity
  8
1
 62
     4
100
AcDbPoint
 10
57.0
 20
22.75000000000001
 30
0.0
  0
POINT
  5
5E
330
36
100
AcDbEntity
  8
1
 62
     4
100
AcDbPoint
 10
57.0
 20
14.25
 30
0.0
  0
POINT
  5
5F
330
36
100
AcDbEntity
  8
1
 62
     4
100
AcDbPoint
 10
157.5
 20
12.5
 30
0.0
  0
POINT
  5
60
330
36
100
AcDbEntity
  8
1
 62
     4
100
AcDbPoint
 10
163.25
 20
12.5
 30
0.0
  0
POINT
  5
61
330
36
100
AcDbEntity
  8
1
 62
     4
100
AcDbPoint
 10
151.75
 20
12.5
 30
0.0
  0
POINT
  5
62
330
36
100
AcDbEntity
  8
1
 62
     4
100
AcDbPoint
 10
134.75
 20
12.5
 30
0.0
  0
POINT
  5
63
330
36
100
AcDbEntity
  8
1
 62
     4
100
AcDbPoint
 10
146.25
 20
12.5
 30
0.0
  0
POINT
  5
64
330
36
100
AcDbEntity
  8
1
 62
     4
100
AcDbPoint
 10
140.5
 20
12.5
 30
0.0
  0
POINT
  5
65
330
36
100
AcDbEntity
  8
1
 62
     4
100
AcDbPoint
 10
140.5
 20
19.00000000000001
 30
0.0
  0
POINT
  5
66
330
36
100
AcDbEntity
  8
1
 62
     4
100
AcDbPoint
 10
117.75
 20
12.5
 30
0.0
  0
POINT
  5
67
330
36
100
AcDbEntity
  8
1
 62
     4
100
AcDbPoint
 10
129.25
 20
12.5
 30
0.0
  0
POINT
  5
68
330
36
100
AcDbEntity
  8
1
 62
     4
100
AcDbPoint
 10
123.5
 20
12.5
 30
0.0
  0
POINT
  5
69
330
36
100
AcDbEntity
  8
1
 62
     4
100
AcDbPoint
 10
123.5
 20
19.00000000000001
 30
0.0
  0
POINT
  5
6A
330
36
100
AcDbEntity
  8
1
 62
     4
100
AcDbPoint
 10
100.75
 20
12.5
 30
0.0
  0
POINT
  5
6B
330
36
100
AcDbEntity
  8
1
 62
     4
100
AcDbPoint
 10
112.25
 20
12.5
 30
0.0
  0
POINT
  5
6C
330
36
100
AcDbEntity
  8
1
 62
     4
100
AcDbPoint
 10
106.5
 20
12.5
 30
0.0
  0
POINT
  5
6D
330
36
100
AcDbEntity
  8
1
 62
     4
100
AcDbPoint
 10
106.5
 20
19.00000000000001
 30
0.0
  0
POINT
  5
6E
330
36
100
AcDbEntity
  8
1
 62
     4
100
AcDbPoint
 10
85.25
 20
17.0
 30
0.0
  0
POINT
  5
6F
330
36
100
AcDbEntity
  8
1
 62
     4
100
AcDbPoint
 10
93.75
 20
17.0
 30
0.0
  0
LINE
  5
70
330
36
100
AcDbEntity
  8
1
  6
Continuous
 62
     2
100
AcDbLine
 10
81.0
 20
27.00000000000001
 30
0.0
 11
81.0
 21
10.0
 31
0.0
  0
LINE
  5
71
330
36
100
AcDbEntity
  8
1
  6
DOT_CENTER
 62
     2
100
AcDbLine
 10
187.0
 20
26.50000000000001
 30
0.0
 11
187.0
 21
20.50000000000001
 31
0.0
  0
LINE
  5
72
330
36
100
AcDbEntity
  8
1
  6
DOT_CENTER
 62
     2
100
AcDbLine
 10
184.0
 20
23.50000000000001
 30
0.0
 11
197.0
 21
23.50000000000001
 31
0.0
  0
LINE
  5
73
330
36
100
AcDbEntity
  8
1
  6
Continuous
 62
     7
100
AcDbLine
 10
196.0
 20
21.50000000000001
 30
0.0
 11
191.0
 21
22.30000000000001
 31
0.0
  0
LINE
  5
74
330
36
100
AcDbEntity
  8
1
  6
Continuous
 62
     7
100
AcDbLine
 10
196.0
 20
25.50000000000001
 30
0.0
 11
196.0
 21
21.50000000000001
 31
0.0
  0
LINE
  5
75
330
36
100
AcDbEntity
  8
1
  6
Continuous
 62
     7
100
AcDbLine
 10
191.0
 20
24.70000000000001
 30
0.0
 11
196.0
 21
25.50000000000001
 31
0.0
  0
LINE
  5
76
330
36
100
AcDbEntity
  8
1
  6
Continuous
 62
     7
100
AcDbLine
 10
191.0
 20
24.70000000000001
 30
0.0
 11
191.0
 21
22.30000000000001
 31
0.0
  0
LINE
  5
77
330
36
100
AcDbEntity
  8
1
  6
Continuous
 62
     2
100
AcDbLine
 10
33.0
 20
27.0
 30
0.0
 11
33.0
 21
10.0
 31
0.0
  0
LINE
  5
78
330
36
100
AcDbEntity
  8
1
  6
Continuous
 62
     2
100
AcDbLine
 10
25.0
 20
18.50000000000001
 30
0.0
 11
81.0
 21
18.50000000000001
 31
0.0
  0
LINE
  5
79
330
36
100
AcDbEntity
  8
1
  6
Continuous
 62
     7
100
AcDbLine
 10
200.0
 20
287.0000000000003
 30
0.0
 11
105.0
 21
287.0000000000003
 31
0.0
  0
LINE
  5
7A
330
36
100
AcDbEntity
  8
1
  6
Continuous
 62
     7
100
AcDbLine
 10
200.0
 20
10.0
 30
0.0
 11
200.0
 21
148.5
 31
0.0
  0
LINE
  5
7B
330
36
100
AcDbEntity
  8
1
  6
Continuous
 62
     7
100
AcDbLine
 10
25.0
 20
10.0
 30
0.0
 11
105.0
 21
10.0
 31
0.0
  0
LINE
  5
7C
330
36
100
AcDbEntity
  8
1
  6
PHANTOM
 62
     4
100
AcDbLine
 10
0.0
 20
297.0
 30
0.0
 11
0.0
 21
0.0
 31
0.0
  0
LINE
  5
7D
330
36
100
AcDbEntity
  8
1
  6
PHANTOM
 62
     4
100
AcDbLine
 10
210.0
 20
297.0
 30
0.0
 11
0.0
 21
297.0
 31
0.0
  0
LINE
  5
7E
330
36
100
AcDbEntity
  8
1
  6
PHANTOM
 62
     4
100
AcDbLine
 10
210.0
 20
0.0
 30
0.0
 11
210.0
 21
297.0
 31
0.0
  0
LINE
  5
7F
330
36
100
AcDbEntity
  8
1
  6
PHANTOM
 62
     4
100
AcDbLine
 10
0.0
 20
0.0
 30
0.0
 11
210.0
 21
0.0
 31
0.0
  0
LINE
  5
80
330
36
100
AcDbEntity
  8
1
  6
Continuous
 62
     7
100
AcDbLine
 10
25.0
 20
41.0
 30
0.0
 11
200.0
 21
41.0
 31
0.0
  0
LINE
  5
81
330
36
100
AcDbEntity
  8
1
  6
Continuous
 62
     7
100
AcDbLine
 10
200.0
 20
27.00000000000001
 30
0.0
 11
25.0
 21
27.00000000000001
 31
0.0
  0
LINE
  5
82
330
36
100
AcDbEntity
  8
1
  6
Continuous
 62
     2
100
AcDbLine
 10
33.0
 20
41.00000000000001
 30
0.0
 11
33.0
 21
27.0
 31
0.0
  0
LINE
  5
83
330
36
100
AcDbEntity
  8
1
  6
Continuous
 62
     2
100
AcDbLine
 10
55.0
 20
287.0000000000003
 30
0.0
 11
55.0
 21
277.0000000000003
 31
0.0
  0
LINE
  5
84
330
36
100
AcDbEntity
  8
1
  6
Continuous
 62
     2
100
AcDbLine
 10
40.0
 20
287.0000000000003
 30
0.0
 11
40.0
 21
277.0000000000003
 31
0.0
  0
LINE
  5
85
330
36
100
AcDbEntity
  8
1
  6
Continuous
 62
     7
100
AcDbLine
 10
25.0
 20
10.0
 30
0.0
 11
25.0
 21
148.5
 31
0.0
  0
LINE
  5
86
330
36
100
AcDbEntity
  8
1
  6
Continuous
 62
     2
100
AcDbLine
 10
55.0
 20
277.0000000000003
 30
0.0
 11
25.0
 21
277.0000000000003
 31
0.0
  0
LINE
  5
87
330
36
100
AcDbEntity
  8
1
  6
Continuous
 62
     2
100
AcDbLine
 10
166.0
 20
27.00000000000001
 30
0.0
 11
166.0
 21
10.0
 31
0.0
  0
LINE
  5
88
330
36
100
AcDbEntity
  8
1
  6
Continuous
 62
     2
100
AcDbLine
 10
132.0
 20
27.00000000000001
 30
0.0
 11
132.0
 21
9.99999999999999
 31
0.0
  0
LINE
  5
89
330
36
100
AcDbEntity
  8
1
  6
Continuous
 62
     2
100
AcDbLine
 10
149.0
 20
27.00000000000001
 30
0.0
 11
149.0
 21
10.0
 31
0.0
  0
LINE
  5
8A
330
36
100
AcDbEntity
  8
1
  6
Continuous
 62
     2
100
AcDbLine
 10
115.0
 20
27.00000000000001
 30
0.0
 11
115.0
 21
9.99999999999999
 31
0.0
  0
LINE
  5
8B
330
36
100
AcDbEntity
  8
1
  6
Continuous
 62
     2
100
AcDbLine
 10
98.0
 20
27.00000000000001
 30
0.0
 11
98.0
 21
9.99999999999999
 31
0.0
  0
LINE
  5
8C
330
36
100
AcDbEntity
  8
1
  6
Continuous
 62
     2
100
AcDbLine
 10
166.0
 20
20.00000000000001
 30
0.0
 11
200.0
 21
20.00000000000001
 31
0.0
  0
LINE
  5
8D
330
36
100
AcDbEntity
  8
1
  6
Continuous
 62
     2
100
AcDbLine
 10
105.0
 20
287.0000000000003
 30
0.0
 11
105.0
 21
292.0000000000003
 31
0.0
  0
LINE
  5
8E
330
36
100
AcDbEntity
  8
1
  6
Continuous
 62
     7
100
AcDbLine
 10
105.0
 20
287.0000000000003
 30
0.0
 11
25.0
 21
287.0000000000003
 31
0.0
  0
LINE
  5
8F
330
36
100
AcDbEntity
  8
1
  6
Continuous
 62
     2
100
AcDbLine
 10
25.0
 20
148.5
 30
0.0
 11
20.0
 21
148.5
 31
0.0
  0
LINE
  5
90
330
36
100
AcDbEntity
  8
1
  6
Continuous
 62
     7
100
AcDbLine
 10
25.0
 20
148.5
 30
0.0
 11
25.0
 21
287.0000000000003
 31
0.0
  0
LINE
  5
91
330
36
100
AcDbEntity
  8
1
  6
Continuous
 62
     2
100
AcDbLine
 10
200.0
 20
148.5
 30
0.0
 11
205.0
 21
148.5
 31
0.0
  0
LINE
  5
92
330
36
100
AcDbEntity
  8
1
  6
Continuous
 62
     7
100
AcDbLine
 10
200.0
 20
148.5
 30
0.0
 11
200.0
 21
287.0000000000003
 31
0.0
  0
LINE
  5
93
330
36
100
AcDbEntity
  8
1
  6
Continuous
 62
     2
100
AcDbLine
 10
105.0
 20
10.0
 30
0.0
 11
105.0
 21
5.0
 31
0.0
  0
LINE
  5
94
330
36
100
AcDbEntity
  8
1
  6
Continuous
 62
     7
100
AcDbLine
 10
105.0
 20
10.0
 30
0.0
 11
200.0
 21
10.0
 31
0.0
  0
CIRCLE
  5
95
330
36
100
AcDbEntity
  8
1
  6
DOT_CENTER
 62
     7
100
AcDbCircle
 10
89.5
 20
18.0
 30
0.0
 40
0.1000000000000227
  0
CIRCLE
  5
96
330
36
100
AcDbEntity
  8
1
  6
DOT_CENTER
 62
     7
100
AcDbCircle
 10
89.5
 20
16.0
 30
0.0
 40
0.1000000000000227
  0
CIRCLE
  5
97
330
36
100
AcDbEntity
  8
1
  6
Continuous
 62
     7
100
AcDbCircle
 10
187.0
 20
23.50000000000001
 30
0.0
 40
2.0
  0
CIRCLE
  5
98
330
36
100
AcDbEntity
  8
1
  6
Continuous
 62
     7
100
AcDbCircle
 10
187.0
 20
23.50000000000001
 30
0.0
 40
1.200000000000102
  0
CIRCLE
  5
99
330
36
100
AcDbEntity
  8
1
  6
Continuous
 62
     7
100
AcDbCircle
 10
154.5
 20
12.5
 30
0.0
 40
0.3000000000000114
  0
CIRCLE
  5
9A
330
36
100
AcDbEntity
  8
1
  6
Continuous
 62
     7
100
AcDbCircle
 10
160.5
 20
12.5
 30
0.0
 40
0.3000000000000114
  0
CIRCLE
  5
9B
330
36
100
AcDbEntity
  8
1
  6
Continuous
 62
     7
100
AcDbCircle
 10
143.5
 20
12.5
 30
0.0
 40
0.3000000000000114
  0
CIRCLE
  5
9C
330
36
100
AcDbEntity
  8
1
  6
Continuous
 62
     7
100
AcDbCircle
 10
137.5
 20
12.5
 30
0.0
 40
0.3000000000000114
  0
CIRCLE
  5
9D
330
36
100
AcDbEntity
  8
1
  6
Continuous
 62
     7
100
AcDbCircle
 10
126.5
 20
12.5
 30
0.0
 40
0.2999999999999972
  0
CIRCLE
  5
9E
330
36
100
AcDbEntity
  8
1
  6
Continuous
 62
     7
100
AcDbCircle
 10
120.5
 20
12.5
 30
0.0
 40
0.2999999999999972
  0
CIRCLE
  5
9F
330
36
100
AcDbEntity
  8
1
  6
Continuous
 62
     7
100
AcDbCircle
 10
109.5
 20
12.5
 30
0.0
 40
0.2999999999999972
  0
CIRCLE
  5
A0
330
36
100
AcDbEntity
  8
1
  6
Continuous
 62
     7
100
AcDbCircle
 10
103.5
 20
12.5
 30
0.0
 40
0.2999999999999972
  0
MTEXT
  5
A2
330
36
100
AcDbEntity
  8
1
 62
   250
100
AcDbMText
 10
25.0
 20
5.0
 30
0.0
 40
3.5
 41
0.0
 71
     4
 72
     1
  1
備考欄の文字列 原点位置=4
  7
CONVERTER_1
 73
     1
 44
0.7202881152461
  0
MTEXT
  5
A3
330
36
100
AcDbEntity
  8
1
 62
     2
100
AcDbMText
 10
89.5
 20
24.00000000000001
 30
0.0
 40
3.5
 41
0.0
 71
     5
 72
     1
  1
尺度
  7
CONVERTER_1
 73
     1
 44
0.7202881152461
  0
MTEXT
  5
A4
330
36
100
AcDbEntity
  8
1
 62
     2
100
AcDbMText
 10
135.5
 20
25.00000000000001
 30
0.0
 40
3.0
 41
0.0
 71
     5
 72
     1
  1
製図
  7
CONVERTER_1
 73
     1
 44
0.78031212484994
  0
MTEXT
  5
A5
330
36
100
AcDbEntity
  8
1
 62
     2
100
AcDbMText
 10
152.5
 20
25.00000000000001
 30
0.0
 40
3.0
 41
0.0
 71
     5
 72
     1
  1
設計
  7
CONVERTER_1
 73
     1
 44
0.78031212484994
  0
MTEXT
  5
A6
330
36
100
AcDbEntity
  8
1
 62
     2
100
AcDbMText
 10
118.5
 20
25.00000000000001
 30
0.0
 40
3.0
 41
0.0
 71
     5
 72
     1
  1
検図
  7
CONVERTER_1
 73
     1
 44
0.78031212484994
  0
MTEXT
  5
A7
330
36
100
AcDbEntity
  8
1
 62
     2
100
AcDbMText
 10
175.0
 20
23.50000000000001
 30
0.0
 40
3.5
 41
0.0
 71
     5
 72
     1
  1
第三角法
  7
CONVERTER_1
 73
     1
 44
0.7202881152461
  0
MTEXT
  5
A8
330
36
100
AcDbEntity
  8
1
 62
     2
100
AcDbMText
 10
101.5
 20
25.00000000000001
 30
0.0
 40
3.0
 41
0.0
 71
     5
 72
     1
  1
承認
  7
CONVERTER_1
 73
     1
 44
0.78031212484994
  0
MTEXT
  5
A9
330
36
100
AcDbEntity
  8
1
 62
     2
100
AcDbMText
 10
29.0
 20
14.25
 30
0.0
 40
3.5
 41
0.0
 71
     5
 72
     1
  1
品番
  7
CONVERTER_1
 73
     1
 44
0.96038415366146
  0
MTEXT
  5
AA
330
36
100
AcDbEntity
  8
1
 62
     2
100
AcDbMText
 10
29.0
 20
22.75
 30
0.0
 40
3.5
 41
0.0
 71
     5
 72
     1
  1
品名
  7
CONVERTER_1
 73
     1
 44
0.96038415366146
  0
MTEXT
  5
AB
330
36
100
AcDbEntity
  8
1
 62
     2
100
AcDbMText
 10
29.0
 20
34.00000000000001
 30
0.0
 40
3.5
 41
0.0
 71
     5
 72
     1
  1
備考
  7
CONVERTER_1
 73
     1
 44
0.60024009603842
  0
MTEXT
  5
AC
330
36
100
AcDbEntity
  8
1
 62
     2
100
AcDbMText
 10
32.5
 20
282.0000000000003
 30
0.0
 40
5.0
 41
0.0
 71
     5
 72
     1
  1
図番
  7
CONVERTER_1
 73
     1
 44
0.60024009603842
  0
MTEXT
  5
AD
330
36
100
AcDbEntity
  8
1
 62
     7
100
AcDbMText
 10
171.5
 20
15.0
 30
0.0
 40
2.5
 41
0.0
 71
     5
 72
     1
  1
株式会社
  7
CONVERTER_1
 73
     1
 44
1.32052821128451
  0
MTEXT
  5
AE
330
36
100
AcDbEntity
  8
1
 62
     7
100
AcDbMText
 10
188.5
 20
15.0
 30
0.0
 40
3.0
 41
0.0
 71
     5
 72
     1
  1
三栄水栓製作所
  7
CONVERTER_1
 73
     1
 44
1.32052821128451
  0
ENDBLK
  5
38
330
36
100
AcDbEntity
  8
0
100
AcDbBlockEnd
  0
BLOCK
  5
3A
330
39
100
AcDbEntity
  8
0
100
AcDbBlockBegin
  2
60-1-19-170
 70
     0
 71
     0
 10
255.2360498862354
 20
185.7606517359428
 30
0.0
  3
60-1-19-170
  1

  0
LINE
  5
AF
330
39
100
AcDbEntity
  8
1
  6
Continuous
 62
     7
100
AcDbLine
 10
162.2360498862354
 20
281.5106517359428
 30
0.0
 11
162.2360498862354
 21
216.5606517359427
 31
0.0
  0
LINE
  5
B0
330
39
100
AcDbEntity
  8
1
  6
Continuous
 62
     7
100
AcDbLine
 10
181.2360498862354
 20
281.5106517359428
 30
0.0
 11
181.2360498862354
 21
216.5606517359427
 31
0.0
  0
LINE
  5
B1
330
39
100
AcDbEntity
  8
1
  6
Continuous
 62
     7
100
AcDbLine
 10
181.2516655898988
 20
216.5606517359427
 30
0.0
 11
162.2441519829945
 21
216.5606517359427
 31
0.0
  0
LINE
  5
B2
330
39
100
AcDbEntity
  8
1
  6
Continuous
 62
     7
100
AcDbLine
 10
163.022743105313
 20
210.7606517359428
 30
0.0
 11
180.4493566671578
 21
210.7606517359428
 31
0.0
  0
LINE
  5
B3
330
39
100
AcDbEntity
  8
0
  6
DASH_CENTER
 62
     2
100
AcDbLine
 10
157.8490031126749
 20
445.5135068298241
 30
0.0
 11
185.8630206549901
 21
445.5135068298241
 31
0.0
  0
LINE
  5
B4
330
39
100
AcDbEntity
  8
1
  6
Continuous
 62
     7
100
AcDbLine
 10
181.2360498862354
 20
602.5231257730575
 30
0.0
 11
181.2360498862354
 21
445.5135068298241
 31
0.0
  0
LINE
  5
B5
330
39
100
AcDbEntity
  8
1
  6
Continuous
 62
     7
100
AcDbLine
 10
162.2360498862354
 20
602.5231257730575
 30
0.0
 11
162.2360498862354
 21
445.5135068298241
 31
0.0
  0
LINE
  5
B6
330
39
100
AcDbEntity
  8
1
  6
Continuous
 62
     7
100
AcDbLine
 10
247.2516655898988
 20
216.5606517359427
 30
0.0
 11
228.2441519829945
 21
216.5606517359427
 31
0.0
  0
LINE
  5
B7
330
39
100
AcDbEntity
  8
1
  6
Continuous
 62
     7
100
AcDbLine
 10
398.2360498862354
 20
278.7606517359428
 30
0.0
 11
398.2360498862354
 21
281.5106517359428
 31
0.0
  0
LINE
  5
B8
330
39
100
AcDbEntity
  8
1
  6
Continuous
 62
     7
100
AcDbLine
 10
417.2360498862354
 20
281.5106517359428
 30
0.0
 11
417.2360498862354
 21
278.7606517359428
 31
0.0
  0
LINE
  5
B9
330
39
100
AcDbEntity
  8
1
  6
Continuous
 62
     7
100
AcDbLine
 10
377.7360498862355
 20
239.2606517359428
 30
0.0
 11
267.7360498862353
 21
239.2606517359428
 31
0.0
  0
LINE
  5
BA
330
39
100
AcDbEntity
  8
1
  6
Continuous
 62
     7
100
AcDbLine
 10
377.7360498862355
 20
258.2606517359428
 30
0.0
 11
267.7360498862353
 21
258.2606517359428
 31
0.0
  0
LINE
  5
BB
330
39
100
AcDbEntity
  8
1
  6
Continuous
 62
     7
100
AcDbLine
 10
229.022743105313
 20
210.7606517359428
 30
0.0
 11
246.4493566671577
 21
210.7606517359428
 31
0.0
  0
LINE
  5
BC
330
39
100
AcDbEntity
  8
1
  6
Continuous
 62
     7
100
AcDbLine
 10
247.2516655898988
 20
219.5606517359427
 30
0.0
 11
247.2516655898988
 21
216.5606517359427
 31
0.0
  0
LINE
  5
BD
330
39
100
AcDbEntity
  8
1
  6
Continuous
 62
     7
100
AcDbLine
 10
228.2441519829945
 20
219.5606517359427
 30
0.0
 11
228.2441519829945
 21
216.5606517359427
 31
0.0
  0
ARC
  5
BE
330
39
100
AcDbEntity
  8
1
  6
Continuous
 62
     7
100
AcDbCircle
 10
171.7360498862354
 20
248.7606517359428
 30
0.0
 40
9.5
100
AcDbArc
 50
0.0
 51
180.0
  0
ARC
  5
BF
330
39
100
AcDbEntity
  8
1
  6
Continuous
 62
     7
100
AcDbCircle
 10
165.0284713817641
 20
213.9857370237838
 30
0.0
 40
3.792442522867952
100
AcDbArc
 50
137.2376153226107
 51
179.809203463204
  0
ARC
  5
C0
330
39
100
AcDbEntity
  8
1
  6
Continuous
 62
     7
100
AcDbCircle
 10
178.4091293561589
 20
213.9983659393548
 30
0.0
 40
3.826920530076594
100
AcDbArc
 50
-57.78315196264283
 51
42.03176167824893
  0
ARC
  5
C1
330
39
100
AcDbEntity
  8
1
  6
Continuous
 62
     7
100
AcDbCircle
 10
165.0629704163119
 20
213.9983659393548
 30
0.0
 40
3.826920530076507
100
AcDbArc
 50
180.0
 51
-122.2168480373575
  0
ARC
  5
C2
330
39
100
AcDbEntity
  8
1
  6
Continuous
 62
     7
100
AcDbCircle
 10
171.7360498862354
 20
445.5135068298241
 30
0.0
 40
9.5
100
AcDbArc
 50
180.0
 51
0.0
  0
ARC
  5
C3
330
39
100
AcDbEntity
  8
1
  6
Continuous
 62
     7
100
AcDbCircle
 10
171.7360498862354
 20
445.5135068298241
 30
0.0
 40
10.50000000000001
100
AcDbArc
 50
154.7912347032415
 51
25.20876529675847
  0
ARC
  5
C4
330
39
100
AcDbEntity
  8
1
  6
Continuous
 62
     7
100
AcDbCircle
 10
377.7360498862355
 20
278.7606517359428
 30
0.0
 40
20.5
100
AcDbArc
 50
-90.0
 51
0.0
  0
ARC
  5
C5
330
39
100
AcDbEntity
  8
1
  6
Continuous
 62
     7
100
AcDbCircle
 10
377.7360498862355
 20
278.7606517359428
 30
0.0
 40
39.50000000000003
100
AcDbArc
 50
-90.0
 51
0.0
  0
ARC
  5
C6
330
39
100
AcDbEntity
  8
1
  6
Continuous
 62
     7
100
AcDbCircle
 10
267.7493910820133
 20
218.7470375462381
 30
0.0
 40
39.51361644193479
100
AcDbArc
 50
90.01934508392523
 51
178.8201547182278
  0
ARC
  5
C7
330
39
100
AcDbEntity
  8
1
  6
Continuous
 62
     7
100
AcDbCircle
 10
267.7360498862353
 20
218.7606517359428
 30
0.0
 40
20.5
100
AcDbArc
 50
90.0
 51
177.7634992335206
  0
ARC
  5
C8
330
39
100
AcDbEntity
  8
1
  6
Continuous
 62
     7
100
AcDbCircle
 10
231.0284713817641
 20
213.9857370237838
 30
0.0
 40
3.792442522867952
100
AcDbArc
 50
137.2376153226107
 51
179.809203463204
  0
ARC
  5
C9
330
39
100
AcDbEntity
  8
1
  6
Continuous
 62
     7
100
AcDbCircle
 10
244.4091293561588
 20
213.9983659393548
 30
0.0
 40
3.826920530076608
100
AcDbArc
 50
-57.78315196264248
 51
42.03176167824779
  0
ARC
  5
CA
330
39
100
AcDbEntity
  8
1
  6
Continuous
 62
     7
100
AcDbCircle
 10
231.0629704163119
 20
213.9983659393548
 30
0.0
 40
3.826920530076507
100
AcDbArc
 50
180.0
 51
-122.2168480373575
  0
ENDBLK
  5
3B
330
39
100
AcDbEntity
  8
0
100
AcDbBlockEnd
  0
BLOCK
  5
3D
330
3C
100
AcDbEntity
  8
0
100
AcDbBlockBegin
  2
36-1-20
 70
     0
 71
     0
 10
651.2900497264111
 20
214.7265397485023
 30
0.0
  3
36-1-20
  1

  0
LINE
  5
CB
330
3C
100
AcDbEntity
  8
1
  6
Continuous
 62
     7
100
AcDbLine
 10
458.2360498862354
 20
377.0067224011035
 30
0.0
 11
458.2360498862354
 21
362.8535788960008
 31
0.0
  0
LINE
  5
CC
330
3C
100
AcDbEntity
  8
1
  6
Continuous
 62
     7
100
AcDbLine
 10
447.2360498862355
 20
362.8535788960008
 30
0.0
 11
447.2360498862355
 21
377.0067224011035
 31
0.0
  0
LINE
  5
CD
330
3C
100
AcDbEntity
  8
1
  6
Continuous
 62
     7
100
AcDbLine
 10
177.2360498862354
 20
377.0067224011035
 30
0.0
 11
177.2360498862354
 21
362.8535788960008
 31
0.0
  0
LINE
  5
CE
330
3C
100
AcDbEntity
  8
1
  6
Continuous
 62
     7
100
AcDbLine
 10
166.2360498862354
 20
362.8535788960008
 30
0.0
 11
166.2360498862354
 21
377.0067224011035
 31
0.0
  0
ENDBLK
  5
3E
330
3C
100
AcDbEntity
  8
0
100
AcDbBlockEnd
  0
BLOCK
  5
40
330
3F
100
AcDbEntity
  8
0
100
AcDbBlockBegin
  2
42-1
 70
     0
 71
     0
 10
-73.97703707960923
 20
342.5802532107201
 30
0.0
  3
42-1
  1

  0
LINE
  5
CF
330
3F
100
AcDbEntity
  8
1
  6
Continuous
 62
     2
100
AcDbLine
 10
170.7360498862354
 20
390.2490605032746
 30
0.0
 11
170.7360498862354
 21
388.9838214126642
 31
0.0
  0
LINE
  5
D0
330
3F
100
AcDbEntity
  8
1
  6
Continuous
 62
     2
100
AcDbLine
 10
169.7360498862354
 20
390.4923757130074
 30
0.0
 11
169.7360498862354
 21
388.7242851889492
 31
0.0
  0
LINE
  5
D1
330
3F
100
AcDbEntity
  8
1
  6
Continuous
 62
     2
100
AcDbLine
 10
168.7360498862354
 20
390.7032488947758
 30
0.0
 11
168.7360498862354
 21
388.3674228813412
 31
0.0
  0
LINE
  5
D2
330
3F
100
AcDbEntity
  8
1
  6
Continuous
 62
     2
100
AcDbLine
 10
167.7360498862354
 20
390.8167959926511
 30
0.0
 11
167.7360498862354
 21
388.1727707135548
 31
0.0
  0
LINE
  5
D3
330
3F
100
AcDbEntity
  8
1
  6
Continuous
 62
     2
100
AcDbLine
 10
166.7360498862354
 20
391.0067224011035
 30
0.0
 11
166.7360498862354
 21
388.0067224011035
 31
0.0
  0
LINE
  5
D4
330
3F
100
AcDbEntity
  8
1
  6
Continuous
 62
     2
100
AcDbLine
 10
165.7360498862354
 20
391.0067224011035
 30
0.0
 11
165.7360498862354
 21
388.0067224011035
 31
0.0
  0
LINE
  5
D5
330
3F
100
AcDbEntity
  8
1
  6
Continuous
 62
     7
100
AcDbLine
 10
164.7360498862354
 20
391.0067224011035
 30
0.0
 11
165.7360498862353
 21
391.2760446001265
 31
0.0
  0
LINE
  5
D6
330
3F
100
AcDbEntity
  8
1
  6
Continuous
 62
     7
100
AcDbLine
 10
164.7360498862354
 20
388.0067224011035
 30
0.0
 11
164.7360498862354
 21
391.0067224011035
 31
0.0
  0
LINE
  5
D7
330
3F
100
AcDbEntity
  8
1
  6
Continuous
 62
     7
100
AcDbLine
 10
165.9860498862354
 20
391.336488121307
 30
0.0
 11
177.4860498862354
 21
391.336488121307
 31
0.0
  0
LINE
  5
D8
330
3F
100
AcDbEntity
  8
1
  6
Continuous
 62
     2
100
AcDbLine
 10
172.7360498862354
 20
388.9838214126642
 30
0.0
 11
172.7360498862354
 21
390.2490605032746
 31
0.0
  0
LINE
  5
D9
330
3F
100
AcDbEntity
  8
1
  6
Continuous
 62
     2
100
AcDbLine
 10
173.7360498862354
 20
388.7242851889492
 30
0.0
 11
173.7360498862354
 21
390.4923757130074
 31
0.0
  0
LINE
  5
DA
330
3F
100
AcDbEntity
  8
1
  6
Continuous
 62
     2
100
AcDbLine
 10
174.7360498862354
 20
388.3674228813412
 30
0.0
 11
174.7360498862354
 21
390.7032488947758
 31
0.0
  0
LINE
  5
DB
330
3F
100
AcDbEntity
  8
1
  6
Continuous
 62
     2
100
AcDbLine
 10
175.7360498862354
 20
388.1727707135548
 30
0.0
 11
175.7360498862354
 21
390.8167959926511
 31
0.0
  0
LINE
  5
DC
330
3F
100
AcDbEntity
  8
1
  6
Continuous
 62
     2
100
AcDbLine
 10
176.7360498862354
 20
388.0067224011035
 30
0.0
 11
176.7360498862354
 21
391.0067224011035
 31
0.0
  0
LINE
  5
DD
330
3F
100
AcDbEntity
  8
1
  6
Continuous
 62
     2
100
AcDbLine
 10
177.7360498862354
 20
388.0067224011035
 30
0.0
 11
177.7360498862354
 21
391.0067224011035
 31
0.0
  0
LINE
  5
DE
330
3F
100
AcDbEntity
  8
1
  6
Continuous
 62
     7
100
AcDbLine
 10
177.7360498862355
 20
391.2760446001265
 30
0.0
 11
178.7360498862354
 21
391.0067224011035
 31
0.0
  0
LINE
  5
DF
330
3F
100
AcDbEntity
  8
1
  6
Continuous
 62
     7
100
AcDbLine
 10
178.7360498862354
 20
391.0067224011035
 30
0.0
 11
178.7360498862354
 21
388.0067224011035
 31
0.0
  0
LINE
  5
E0
330
3F
100
AcDbEntity
  8
1
  6
Continuous
 62
     7
100
AcDbLine
 10
164.7360498862354
 20
391.0067224011035
 30
0.0
 11
178.7360498862354
 21
391.0067224011035
 31
0.0
  0
LINE
  5
E1
330
3F
100
AcDbEntity
  8
1
  6
Continuous
 62
     7
100
AcDbLine
 10
178.7360498862354
 20
388.0067224011035
 30
0.0
 11
164.7360498862354
 21
388.0067224011035
 31
0.0
  0
LINE
  5
E2
330
3F
100
AcDbEntity
  8
1
  6
Continuous
 62
     2
100
AcDbLine
 10
451.7360498862354
 20
390.2490605032746
 30
0.0
 11
451.7360498862354
 21
388.9838214126642
 31
0.0
  0
LINE
  5
E3
330
3F
100
AcDbEntity
  8
1
  6
Continuous
 62
     2
100
AcDbLine
 10
450.7360498862354
 20
390.4923757130074
 30
0.0
 11
450.7360498862354
 21
388.7242851889492
 31
0.0
  0
LINE
  5
E4
330
3F
100
AcDbEntity
  8
1
  6
Continuous
 62
     2
100
AcDbLine
 10
449.7360498862354
 20
390.7032488947758
 30
0.0
 11
449.7360498862354
 21
388.3674228813412
 31
0.0
  0
LINE
  5
E5
330
3F
100
AcDbEntity
  8
1
  6
Continuous
 62
     2
100
AcDbLine
 10
448.7360498862354
 20
390.8167959926511
 30
0.0
 11
448.7360498862354
 21
388.1727707135548
 31
0.0
  0
LINE
  5
E6
330
3F
100
AcDbEntity
  8
1
  6
Continuous
 62
     2
100
AcDbLine
 10
447.7360498862354
 20
391.0067224011035
 30
0.0
 11
447.7360498862354
 21
388.0067224011035
 31
0.0
  0
LINE
  5
E7
330
3F
100
AcDbEntity
  8
1
  6
Continuous
 62
     2
100
AcDbLine
 10
446.7360498862354
 20
391.0067224011035
 30
0.0
 11
446.7360498862354
 21
388.0067224011035
 31
0.0
  0
LINE
  5
E8
330
3F
100
AcDbEntity
  8
1
  6
Continuous
 62
     7
100
AcDbLine
 10
445.7360498862354
 20
391.0067224011035
 30
0.0
 11
446.7360498862353
 21
391.2760446001265
 31
0.0
  0
LINE
  5
E9
330
3F
100
AcDbEntity
  8
1
  6
Continuous
 62
     7
100
AcDbLine
 10
445.7360498862354
 20
388.0067224011035
 30
0.0
 11
445.7360498862354
 21
391.0067224011035
 31
0.0
  0
LINE
  5
EA
330
3F
100
AcDbEntity
  8
1
  6
Continuous
 62
     7
100
AcDbLine
 10
446.9860498862354
 20
391.336488121307
 30
0.0
 11
458.4860498862354
 21
391.336488121307
 31
0.0
  0
LINE
  5
EB
330
3F
100
AcDbEntity
  8
1
  6
Continuous
 62
     2
100
AcDbLine
 10
453.7360498862354
 20
388.9838214126642
 30
0.0
 11
453.7360498862354
 21
390.2490605032746
 31
0.0
  0
LINE
  5
EC
330
3F
100
AcDbEntity
  8
1
  6
Continuous
 62
     2
100
AcDbLine
 10
454.7360498862354
 20
388.7242851889492
 30
0.0
 11
454.7360498862354
 21
390.4923757130074
 31
0.0
  0
LINE
  5
ED
330
3F
100
AcDbEntity
  8
1
  6
Continuous
 62
     2
100
AcDbLine
 10
455.7360498862354
 20
388.3674228813412
 30
0.0
 11
455.7360498862354
 21
390.7032488947758
 31
0.0
  0
LINE
  5
EE
330
3F
100
AcDbEntity
  8
1
  6
Continuous
 62
     2
100
AcDbLine
 10
456.7360498862354
 20
388.1727707135548
 30
0.0
 11
456.7360498862354
 21
390.8167959926511
 31
0.0
  0
LINE
  5
EF
330
3F
100
AcDbEntity
  8
1
  6
Continuous
 62
     2
100
AcDbLine
 10
457.7360498862354
 20
388.0067224011035
 30
0.0
 11
457.7360498862354
 21
391.0067224011035
 31
0.0
  0
LINE
  5
F0
330
3F
100
AcDbEntity
  8
1
  6
Continuous
 62
     2
100
AcDbLine
 10
458.7360498862354
 20
388.0067224011035
 30
0.0
 11
458.7360498862354
 21
391.0067224011035
 31
0.0
  0
LINE
  5
F1
330
3F
100
AcDbEntity
  8
1
  6
Continuous
 62
     7
100
AcDbLine
 10
458.7360498862355
 20
391.2760446001265
 30
0.0
 11
459.7360498862354
 21
391.0067224011035
 31
0.0
  0
LINE
  5
F2
330
3F
100
AcDbEntity
  8
1
  6
Continuous
 62
     7
100
AcDbLine
 10
459.7360498862354
 20
391.0067224011035
 30
0.0
 11
459.7360498862354
 21
388.0067224011035
 31
0.0
  0
LINE
  5
F3
330
3F
100
AcDbEntity
  8
1
  6
Continuous
 62
     7
100
AcDbLine
 10
445.7360498862354
 20
391.0067224011035
 30
0.0
 11
459.7360498862354
 21
391.0067224011035
 31
0.0
  0
LINE
  5
F4
330
3F
100
AcDbEntity
  8
1
  6
Continuous
 62
     7
100
AcDbLine
 10
459.7360498862354
 20
388.0067224011035
 30
0.0
 11
445.7360498862354
 21
388.0067224011035
 31
0.0
  0
ARC
  5
F5
330
3F
100
AcDbEntity
  8
1
  6
Continuous
 62
     7
100
AcDbCircle
 10
171.7360498862354
 20
367.0067224011035
 30
0.0
 40
25.0
100
AcDbArc
 50
90.0
 51
103.8865403626294
  0
ARC
  5
F6
330
3F
100
AcDbEntity
  8
1
  6
Continuous
 62
     7
100
AcDbCircle
 10
171.7360498862354
 20
367.0067224011035
 30
0.0
 40
24.99999999999984
100
AcDbArc
 50
76.11345963737071
 51
90.0
  0
ARC
  5
F7
330
3F
100
AcDbEntity
  8
1
  6
Continuous
 62
     7
100
AcDbCircle
 10
452.7360498862354
 20
367.0067224011035
 30
0.0
 40
25.0
100
AcDbArc
 50
90.0
 51
103.8865403626292
  0
ARC
  5
F8
330
3F
100
AcDbEntity
  8
1
  6
Continuous
 62
     7
100
AcDbCircle
 10
452.7360498862354
 20
367.0067224011035
 30
0.0
 40
24.99999999999985
100
AcDbArc
 50
76.11345963737065
 51
90.0
  0
CIRCLE
  5
F9
330
3F
100
AcDbEntity
  8
1
  6
Continuous
 62
     7
100
AcDbCircle
 10
171.7360498862354
 20
659.277456943589
 30
0.0
 40
5.749999999999886
  0
CIRCLE
  5
FA
330
3F
100
AcDbEntity
  8
1
  6
Continuous
 62
     7
100
AcDbCircle
 10
171.7360498862354
 20
659.277456943589
 30
0.0
 40
6.999999999999886
  0
ENDBLK
  5
41
330
3F
100
AcDbEntity
  8
0
100
AcDbBlockEnd
  0
BLOCK
  5
43
330
42
100
AcDbEntity
  8
0
100
AcDbBlockBegin
  2
21-1A
 70
     0
 71
     0
 10
691.0793810098219
 20
262.5593392813527
 30
0.0
  3
21-1A
  1

  0
LINE
  5
FB
330
42
100
AcDbEntity
  8
1
  6
DASH_CENTER
 62
     2
100
AcDbLine
 10
180.3963039240799
 20
654.2774569435887
 30
0.0
 11
142.2911861575645
 21
676.2774569435886
 31
0.0
  0
LINE
  5
FC
330
42
100
AcDbEntity
  8
1
  6
DASH_CENTER
 62
     2
100
AcDbLine
 10
163.075795848391
 20
654.2774569435887
 30
0.0
 11
201.1809136149063
 21
676.2774569435887
 31
0.0
  0
LINE
  5
FD
330
42
100
AcDbEntity
  8
1
  6
Continuous
 62
     7
100
AcDbLine
 10
178.2065260137986
 20
380.7918021564542
 30
0.0
 11
178.2065260137986
 21
378.8616137723969
 31
0.0
  0
LINE
  5
FE
330
42
100
AcDbEntity
  8
1
  6
Continuous
 62
     7
100
AcDbLine
 10
165.2655737586728
 20
379.0144529337424
 30
0.0
 11
165.2655737586728
 21
380.7918021564542
 31
0.0
  0
LINE
  5
FF
330
42
100
AcDbEntity
  8
1
  6
Continuous
 62
     7
100
AcDbLine
 10
144.5421888562462
 20
380.7918021564542
 30
0.0
 11
144.0902807572538
 21
377.5763089515836
 31
0.0
  0
LINE
  5
100
330
42
100
AcDbEntity
  8
1
  6
Continuous
 62
     7
100
AcDbLine
 10
199.3818190152174
 20
377.5763089515836
 30
0.0
 11
198.929910916225
 21
380.7918021564542
 31
0.0
  0
LINE
  5
101
330
42
100
AcDbEntity
  8
1
  6
Continuous
 62
     7
100
AcDbLine
 10
144.5854147916247
 20
377.0067224011035
 30
0.0
 11
198.8866849808464
 21
377.0067224011035
 31
0.0
  0
LINE
  5
102
330
42
100
AcDbEntity
  8
1
  6
Continuous
 62
     7
100
AcDbLine
 10
165.9404949285009
 20
632.7245426729735
 30
0.0
 11
162.2890857170305
 21
646.3517873694063
 31
0.0
  0
LINE
  5
103
330
42
100
AcDbEntity
  8
1
  6
Continuous
 62
     7
100
AcDbLine
 10
145.8427741045051
 20
667.5348162564694
 30
0.0
 11
155.8186095894675
 21
657.558980771507
 31
0.0
  0
LINE
  5
104
330
42
100
AcDbEntity
  8
1
  6
Continuous
 62
     7
100
AcDbLine
 10
151.6383290622396
 20
677.5730119013231
 30
0.0
 11
165.2655737586723
 21
673.9216026898525
 31
0.0
  0
LINE
  5
105
330
42
100
AcDbEntity
  8
1
  6
Continuous
 62
     7
100
AcDbLine
 10
192.5942756128517
 20
677.77678857582
 30
0.0
 11
178.2065260137984
 21
673.9216026898525
 31
0.0
  0
LINE
  5
106
330
42
100
AcDbEntity
  8
1
  6
Continuous
 62
     7
100
AcDbLine
 10
197.6293256679656
 20
667.5348162564694
 30
0.0
 11
187.6534901830032
 21
657.558980771507
 31
0.0
  0
LINE
  5
107
330
42
100
AcDbEntity
  8
1
  6
Continuous
 62
     7
100
AcDbLine
 10
177.5316048439698
 20
632.7245426729735
 30
0.0
 11
181.1830140554402
 21
646.3517873694063
 31
0.0
  0
LINE
  5
108
330
42
100
AcDbEntity
  8
1
  6
Continuous
 62
     7
100
AcDbLine
 10
422.3112340898459
 20
377.0067224011035
 30
0.0
 11
452.7360498862354
 21
377.0067224011035
 31
0.0
  0
LINE
  5
109
330
42
100
AcDbEntity
  8
1
  6
Continuous
 62
     7
100
AcDbLine
 10
470.5387357405866
 20
381.9657990068471
 30
0.0
 11
471.1559532345942
 21
377.5763443338161
 31
0.0
  0
LINE
  5
10A
330
42
100
AcDbEntity
  8
1
  6
Continuous
 62
     7
100
AcDbLine
 10
422.2680081544675
 20
380.7918021564542
 30
0.0
 11
421.8161000554751
 21
377.5763089515836
 31
0.0
  0
LINE
  5
10B
330
42
100
AcDbEntity
  8
1
  6
Continuous
 62
     7
100
AcDbLine
 10
470.660824174161
 20
377.0067224011035
 30
0.0
 11
452.7360498862354
 21
377.0067224011035
 31
0.0
  0
ARC
  5
10C
330
42
100
AcDbEntity
  8
1
  6
Continuous
 62
     7
100
AcDbCircle
 10
171.7360498862354
 20
381.586266395878
 30
0.0
 40
6.295027727184428
100
AcDbArc
 50
15.00953379391475
 51
164.9904662060853
  0
ARC
  5
10D
330
42
100
AcDbEntity
  8
1
  6
Continuous
 62
     7
100
AcDbCircle
 10
173.3731402371249
 20
260.6365698607792
 30
0.0
 40
127.4948334081408
100
AcDbArc
 50
92.53411689479748
 51
100.8094932463523
  0
ARC
  5
10E
330
42
100
AcDbEntity
  8
1
  6
Continuous
 62
     7
100
AcDbCircle
 10
170.0989595353462
 20
260.6365698607792
 30
0.0
 40
127.4948334081409
100
AcDbArc
 50
79.19050675364777
 51
87.46588310520266
  0
ARC
  5
10F
330
42
100
AcDbEntity
  8
1
  6
Continuous
 62
     7
100
AcDbCircle
 10
171.7360498862354
 20
634.2774569435887
 30
0.0
 40
6.000000000000129
100
AcDbArc
 50
-164.9999999999991
 51
-90.0
  0
ARC
  5
110
330
42
100
AcDbEntity
  8
1
  6
Continuous
 62
     7
100
AcDbCircle
 10
150.0854147916243
 20
671.7774569435886
 30
0.0
 40
6.000000000000088
100
AcDbArc
 50
74.99999999999845
 51
-134.9999999999998
  0
ARC
  5
111
330
42
100
AcDbEntity
  8
1
  6
Continuous
 62
     7
100
AcDbCircle
 10
193.3866849808463
 20
671.7774569435886
 30
0.0
 40
5.999999999999948
100
AcDbArc
 50
-44.99999999999942
 51
97.52424107894032
  0
ARC
  5
112
330
42
100
AcDbEntity
  8
1
  6
Continuous
 62
     7
100
AcDbCircle
 10
171.7360498862354
 20
634.2774569435887
 30
0.0
 40
6.0
100
AcDbArc
 50
-90.0
 51
-15.00000000000116
  0
ARC
  5
113
330
42
100
AcDbEntity
  8
1
  6
Continuous
 62
     7
100
AcDbCircle
 10
453.1002455514821
 20
313.0949013924043
 30
0.0
 40
74.99999999999994
100
AcDbArc
 50
80.4085075173349
 51
87.2213610340373
  0
ARC
  5
114
330
42
100
AcDbEntity
  8
1
  6
Continuous
 62
     7
100
AcDbCircle
 10
452.7360498862354
 20
238.0067224011036
 30
0.0
 40
150.0533238552215
100
AcDbArc
 50
91.52752544221289
 51
99.80290179376775
  0
ARC
  5
115
330
42
100
AcDbEntity
  8
1
  6
Continuous
 62
     7
100
AcDbCircle
 10
150.4837972686955
 20
379.9567635506939
 30
0.0
 40
6.000000000000004
100
AcDbArc
 50
99.80290179376699
 51
172.0000000000007
  0
ARC
  5
116
330
42
100
AcDbEntity
  8
1
  6
Continuous
 62
     7
100
AcDbCircle
 10
144.5854147916247
 20
377.5067224011035
 30
0.0
 40
0.5000000000001147
100
AcDbArc
 50
171.9999999999945
 51
-90.0
  0
ARC
  5
117
330
42
100
AcDbEntity
  8
1
  6
Continuous
 62
     7
100
AcDbCircle
 10
198.8866849808464
 20
377.5067224011035
 30
0.0
 40
0.5
100
AcDbArc
 50
-90.0
 51
8.00000000000415
  0
ARC
  5
118
330
42
100
AcDbEntity
  8
1
  6
Continuous
 62
     7
100
AcDbCircle
 10
192.9883025037756
 20
379.9567635506939
 30
0.0
 40
5.999999999999964
100
AcDbArc
 50
7.99999999999919
 51
80.19709820623302
  0
ARC
  5
119
330
42
100
AcDbEntity
  8
1
  6
Continuous
 62
     7
100
AcDbCircle
 10
138.1409400598038
 20
639.8813112418434
 30
0.0
 40
24.99999999999999
100
AcDbArc
 50
14.99999999999987
 51
44.99999999999982
  0
ARC
  5
11A
330
42
100
AcDbEntity
  8
1
  6
Continuous
 62
     7
100
AcDbCircle
 10
171.7360498862354
 20
698.0697483470793
 30
0.0
 40
25.0000000000001
100
AcDbArc
 50
-105.0000000000001
 51
-75.00000000000011
  0
ARC
  5
11B
330
42
100
AcDbEntity
  8
1
  6
Continuous
 62
     7
100
AcDbCircle
 10
205.3311597126669
 20
639.8813112418434
 30
0.0
 40
24.99999999999994
100
AcDbArc
 50
135.0000000000001
 51
165.0000000000001
  0
ARC
  5
11C
330
42
100
AcDbEntity
  8
1
  6
Continuous
 62
     7
100
AcDbCircle
 10
470.6608241741611
 20
377.5067224011035
 30
0.0
 40
0.5
100
AcDbArc
 50
-90.00000000001303
 51
8.00409437169984
  0
ARC
  5
11D
330
42
100
AcDbEntity
  8
1
  6
Continuous
 62
     7
100
AcDbCircle
 10
422.3112340898459
 20
377.5067224011035
 30
0.0
 40
0.5000000000000584
100
AcDbArc
 50
171.9999999999936
 51
-90.0
  0
ARC
  5
11E
330
42
100
AcDbEntity
  8
1
  6
Continuous
 62
     7
100
AcDbCircle
 10
464.5971870153894
 20
381.1303358142957
 30
0.0
 40
6.000000000000063
100
AcDbArc
 50
8.00409437170091
 51
80.40850751733487
  0
ARC
  5
11F
330
42
100
AcDbEntity
  8
1
  6
Continuous
 62
     7
100
AcDbCircle
 10
428.2096165669169
 20
379.9567635506938
 30
0.0
 40
6.000000000000004
100
AcDbArc
 50
99.80290179376699
 51
171.9999999999997
  0
ENDBLK
  5
44
330
42
100
AcDbEntity
  8
0
100
AcDbBlockEnd
  0
BLOCK
  5
46
330
45
100
AcDbEntity
  8
0
100
AcDbBlockBegin
  2
37-1-20
 70
     0
 71
     0
 10
51.80498183583094
 20
577.7956440219398
 30
0.0
  3
37-1-20
  1

  0
LINE
  5
120
330
45
100
AcDbEntity
  8
1
  6
Continuous
 62
     7
100
AcDbLine
 10
465.6935161270732
 20
354.3535788960011
 30
0.0
 11
452.7360498862353
 21
354.3535788960011
 31
0.0
  0
LINE
  5
121
330
45
100
AcDbEntity
  8
1
  6
Continuous
 62
     7
100
AcDbLine
 10
189.2360498862354
 20
346.8535788960008
 30
0.0
 11
189.2360498862349
 21
354.3535788960011
 31
0.0
  0
LINE
  5
122
330
45
100
AcDbEntity
  8
1
  6
Continuous
 62
     7
100
AcDbLine
 10
184.6935161270732
 20
354.3535788960011
 30
0.0
 11
171.7360498862354
 21
354.3535788960011
 31
0.0
  0
LINE
  5
123
330
45
100
AcDbEntity
  8
1
  6
Continuous
 62
     7
100
AcDbLine
 10
154.2360498862358
 20
354.3535788960011
 30
0.0
 11
154.2360498862354
 21
346.8535788960008
 31
0.0
  0
LINE
  5
124
330
45
100
AcDbEntity
  8
1
  6
Continuous
 62
     7
100
AcDbLine
 10
171.7360498862354
 20
354.3535788960011
 30
0.0
 11
158.7785836453976
 21
354.3535788960011
 31
0.0
  0
LINE
  5
125
330
45
100
AcDbEntity
  8
1
  6
Continuous
 62
     7
100
AcDbLine
 10
189.2360498862354
 20
346.8535788960008
 30
0.0
 11
154.2360498862354
 21
346.8535788960008
 31
0.0
  0
LINE
  5
126
330
45
100
AcDbEntity
  8
1
  6
Continuous
 62
     7
100
AcDbLine
 10
164.7360498862354
 20
362.8535788960008
 30
0.0
 11
178.7360498862354
 21
362.8535788960008
 31
0.0
  0
LINE
  5
127
330
45
100
AcDbEntity
  8
1
  6
Continuous
 62
     7
100
AcDbLine
 10
452.7360498862353
 20
354.3535788960011
 30
0.0
 11
439.7785836453976
 21
354.3535788960011
 31
0.0
  0
LINE
  5
128
330
45
100
AcDbEntity
  8
1
  6
Continuous
 62
     7
100
AcDbLine
 10
470.2360498862354
 20
346.8535788960008
 30
0.0
 11
435.2360498862354
 21
346.8535788960008
 31
0.0
  0
LINE
  5
129
330
45
100
AcDbEntity
  8
1
  6
Continuous
 62
     7
100
AcDbLine
 10
445.7360498862354
 20
362.8535788960008
 30
0.0
 11
459.7360498862354
 21
362.8535788960008
 31
0.0
  0
ARC
  5
12A
330
45
100
AcDbEntity
  8
1
  6
Continuous
 62
     7
100
AcDbCircle
 10
466.3031769678411
 20
350.6035788960008
 30
0.0
 40
5.434150291649921
100
AcDbArc
 50
-43.63646471922049
 51
43.6364647192264
  0
ARC
  5
12B
330
45
100
AcDbEntity
  8
1
  6
Continuous
 62
     7
100
AcDbCircle
 10
483.3773214535579
 20
381.3222084791643
 30
0.0
 40
29.99999999999992
100
AcDbArc
 50
-142.0029438873289
 51
-115.9790441976822
  0
ARC
  5
12C
330
45
100
AcDbEntity
  8
1
  6
Continuous
 62
     7
100
AcDbCircle
 10
202.3773214535581
 20
381.3222084791644
 30
0.0
 40
30.00000000000009
100
AcDbArc
 50
-142.002943887329
 51
-115.9790441976825
  0
ARC
  5
12D
330
45
100
AcDbEntity
  8
1
  6
Continuous
 62
     7
100
AcDbCircle
 10
141.0947783189129
 20
381.3222084791644
 30
0.0
 40
29.99999999999996
100
AcDbArc
 50
-64.02095580231801
 51
-37.9970561126712
  0
ARC
  5
12E
330
45
100
AcDbEntity
  8
1
  6
Continuous
 62
     7
100
AcDbCircle
 10
439.1689228046297
 20
350.6035788960008
 30
0.0
 40
5.43415029164991
100
AcDbArc
 50
136.3635352807744
 51
-136.3635352807799
  0
ARC
  5
12F
330
45
100
AcDbEntity
  8
1
  6
Continuous
 62
     7
100
AcDbCircle
 10
422.0947783189129
 20
381.3222084791643
 30
0.0
 40
29.99999999999988
100
AcDbArc
 50
-64.02095580231806
 51
-37.99705611267118
  0
SPLINE
  5
130
330
45
100
AcDbEntity
  8
1
  6
Continuous
 62
     7
100
AcDbSpline
210
0.0
220
0.0
230
1.0
 70
    11
 71
     3
 72
    79
 73
    75
 74
    73
 42
0.0000000001
 43
0.0000000001
 44
0.00000001
 40
0.0
 40
0.0
 40
0.0
 40
0.0
 40
0.324247900563
 40
0.6484943856359697
 40
0.9730010015826603
 40
1.297504968245919
 40
1.622407078620815
 40
1.947305642101363
 40
2.272691942527161
 40
2.598074240620858
 40
2.92397478392092
 40
3.249871357564323
 40
3.576254180039812
 40
3.902633538362392
 40
4.229408760440833
 40
4.556181427333126
 40
4.883212220105814
 40
5.210241658809968
 40
5.537360696521584
 40
5.864479734233255
 40
6.19150917293743
 40
6.518539965710056
 40
6.845312632602339
 40
7.172087854680806
 40
7.498467213003438
 40
7.824850035478876
 40
8.150746609122228
 40
8.476647152422357
 40
8.802029450515953
 40
9.127415750941887
 40
9.45231431442244
 40
9.777216424797313
 40
10.10172039146064
 40
10.4262270074073
 40
10.75047349248027
 40
11.07472139304324
 40
11.39887890275623
 40
11.72303641246927
 40
12.04728431303227
 40
12.37153079810524
 40
12.69603741405193
 40
13.02054138071516
 40
13.34544349109003
 40
13.67034205457064
 40
13.99572835499653
 40
14.32111065309019
 40
14.64701119639024
 40
14.97290777003369
 40
15.2992905925091
 40
15.62566995083171
 40
15.95244517291028
 40
16.27921783980246
 40
16.60624863257507
 40
16.93327807127929
 40
17.26039710899085
 40
17.58751614670258
 40
17.91454558540665
 40
18.24157637817932
 40
18.56834904507162
 40
18.89512426715013
 40
19.22150362547271
 40
19.54788644794817
 40
19.87378302159162
 40
20.19968356489171
 40
20.5250658629853
 40
20.85045216341121
 40
21.17535072689187
 40
21.50025283726669
 40
21.82475680392994
 40
22.14926341987647
 40
22.47350990494944
 40
22.79775780551249
 40
23.12191531522559
 40
23.44607282493857
 40
23.44607282493857
 40
23.44607282493857
 40
23.44607282493857
 10
467.5677156041652
 20
354.337915291746
 30
0.0
 10
467.4603089284924
 20
354.3252284211168
 30
0.0
 10
467.2454960460257
 20
354.2998547352424
 30
0.0
 10
466.9290517310799
 20
354.2259106382185
 30
0.0
 10
466.6198663379131
 20
354.1265981585437
 30
0.0
 10
466.3205470532374
 20
353.9997453688335
 30
0.0
 10
466.0332850778982
 20
353.847369613218
 30
0.0
 10
465.7603212953443
 20
353.6700865391271
 30
0.0
 10
465.5036735745998
 20
353.4696591512002
 30
0.0
 10
465.265371013637
 20
353.2472436636086
 30
0.0
 10
465.0471251407965
 20
353.0048888475099
 30
0.0
 10
464.8507221315507
 20
352.7441022752744
 30
0.0
 10
464.677498501592
 20
352.4671883300407
 30
0.0
 10
464.5289548852713
 20
352.1759615670005
 30
0.0
 10
464.406006320368
 20
351.8728993969318
 30
0.0
 10
464.3098250499106
 20
351.5600838383302
 30
0.0
 10
464.2408798040323
 20
351.2400739705818
 30
0.0
 10
464.1999729142244
 20
350.9151714924379
 30
0.0
 10
464.1871232882896
 20
350.5879267744498
 30
0.0
 10
464.2027261036287
 20
350.2608017670067
 30
0.0
 10
464.2463654804229
 20
349.9362550080948
 30
0.0
 10
464.3180010510986
 20
349.6168366187728
 30
0.0
 10
464.416811144648
 20
349.3048414653366
 30
0.0
 10
464.5423055137063
 20
349.0028245910455
 30
0.0
 10
464.6932944377421
 20
348.7128580816595
 30
0.0
 10
464.8688420633098
 20
348.437411542007
 30
0.0
 10
465.0674325461789
 20
348.1782869048329
 30
0.0
 10
465.2877100057787
 20
347.9377769678442
 30
0.0
 10
465.5278757249225
 20
347.7173751800142
 30
0.0
 10
465.7862006952835
 20
347.5191122591292
 30
0.0
 10
466.0606472832849
 20
347.3441406447203
 30
0.0
 10
466.3491786741505
 20
347.1941565598536
 30
0.0
 10
466.6495644753101
 20
347.0699422138699
 30
0.0
 10
466.9595384413028
 20
346.972804882941
 30
0.0
 10
467.2767286098924
 20
346.9031299097794
 30
0.0
 10
467.5987239376156
 20
346.8618016241046
 30
0.0
 10
467.9230700518153
 20
346.8487860019849
 30
0.0
 10
468.2472951612892
 20
346.8645304169439
 30
0.0
 10
468.5689313268289
 20
346.9085667120802
 30
0.0
 10
468.8855239763726
 20
346.9809082574741
 30
0.0
 10
469.1946695931266
 20
347.0806504666685
 30
0.0
 10
469.4939995413487
 20
347.2073880514001
 30
0.0
 10
469.7812586560615
 20
347.3597947121557
 30
0.0
 10
470.054223205663
 20
347.5370694993513
 30
0.0
 10
470.3108707205838
 20
347.7374991109234
 30
0.0
 10
470.5491733367421
 20
347.9599140022023
 30
0.0
 10
470.7674191947706
 20
348.2022689783253
 30
0.0
 10
470.9638222079884
 20
348.4630555076469
 30
0.0
 10
471.1370458368813
 20
348.7399694643956
 30
0.0
 10
471.2855894534877
 20
349.0311962243482
 30
0.0
 10
471.4085380183146
 20
349.3342583952454
 30
0.0
 10
471.5047192887924
 20
349.6470739536248
 30
0.0
 10
471.5736645346652
 20
349.9670838214329
 30
0.0
 10
471.6145714244744
 20
350.2919862995606
 30
0.0
 10
471.6274210504087
 20
350.6192310175529
 30
0.0
 10
471.6118182350702
 20
350.9463560249948
 30
0.0
 10
471.5681788582755
 20
351.270902783908
 30
0.0
 10
471.4965432876006
 20
351.5903211732258
 30
0.0
 10
471.3977331940496
 20
351.9023163266779
 30
0.0
 10
471.2722388249968
 20
352.2043332009095
 30
0.0
 10
471.1212499009403
 20
352.4942997105171
 30
0.0
 10
470.9457022754488
 20
352.7697462493429
 30
0.0
 10
470.7471117922951
 20
353.0288708895978
 30
0.0
 10
470.5268343337582
 20
353.2693808150989
 30
0.0
 10
470.2866686106523
 20
353.4897826457362
 30
0.0
 10
470.0283436550665
 20
353.688045406993
 30
0.0
 10
469.7538970120016
 20
353.8630176162908
 30
0.0
 10
469.4653658264907
 20
354.01299948258
 30
0.0
 10
469.1649792598306
 20
354.1372220987462
 30
0.0
 10
468.8550081492545
 20
354.2343285808216
 30
0.0
 10
468.5378073322173
 20
354.3041185958361
 30
0.0
 10
468.2158517348834
 20
354.345017649214
 30
0.0
 10
467.8913573836298
 20
354.3596347691296
 30
0.0
 10
467.6755961973202
 20
354.3451551175405
 30
0.0
 10
467.5677156041653
 20
354.337915291746
 30
0.0
 11
467.5677156041652
 21
354.337915291746
 31
0.0
 11
467.246472144686
 21
354.2938773449121
 31
0.0
 11
466.9303588910957
 21
354.2217095266916
 31
0.0
 11
466.6215438905678
 21
354.1220208149831
 31
0.0
 11
466.322696150961
 21
353.9955579630774
 31
0.0
 11
466.0357092391848
 21
353.8432428495947
 31
0.0
 11
465.7631947782027
 21
353.6663390760133
 31
0.0
 11
465.5067723754005
 21
353.4660298254881
 31
0.0
 11
465.2688547673664
 21
353.2440639459029
 31
0.0
 11
465.0508001988278
 21
353.001858724525
 31
0.0
 11
464.8546922854893
 21
352.741569917546
 31
0.0
 11
464.6816355227463
 21
352.4648442344662
 31
0.0
 11
464.533284579007
 21
352.1741287669886
 31
0.0
 11
464.4104797006383
 21
351.8713070246826
 31
0.0
 11
464.3143896837848
 21
351.55898173834
 31
0.0
 11
464.2455564215654
 21
351.2392769973151
 31
0.0
 11
464.2046519790239
 21
350.9148157818216
 31
0.0
 11
464.1918657948315
 21
350.5879467280292
 31
0.0
 11
464.2074020095979
 21
350.261196837648
 31
0.0
 11
464.2510352261479
 21
349.9370913051548
 31
0.0
 11
464.3225562496045
 21
349.6179770895122
 31
0.0
 11
464.421270967301
 21
349.3064714228896
 31
0.0
 11
464.5466196318698
 21
349.0046937596087
 31
0.0
 11
464.697411587521
 21
348.7152369033244
 31
0.0
 11
464.8727907685927
 21
348.4399772265579
 31
0.0
 11
465.0710819738787
 21
348.181347810948
 31
0.0
 11
465.29116689063
 21
347.9409860137715
 31
0.0
 11
465.5309438370114
 21
347.7210299820364
 31
0.0
 11
465.7890426904299
 21
347.5228855237012
 31
0.0
 11
466.0630360838029
 21
347.3482811224403
 31
0.0
 11
466.3512945110322
 21
347.1983862911174
 31
0.0
 11
466.6511958088723
 21
347.0744426106247
 31
0.0
 11
466.960838720182
 21
346.9773559932731
 31
0.0
 11
467.2775480479404
 21
346.9078507071934
 31
0.0
 11
467.5991506974048
 21
346.8665174654018
 31
0.0
 11
467.9230498862355
 21
346.8535788960008
 31
0.0
 11
468.2468287345333
 21
346.869242500256
 31
0.0
 11
468.5680721940125
 21
346.9132804470899
 31
0.0
 11
468.8841854476029
 21
346.9854482653103
 31
0.0
 11
469.1930004481308
 21
347.0851369770188
 31
0.0
 11
469.4918481877376
 21
347.2115998289245
 31
0.0
 11
469.7788350995137
 21
347.3639149424071
 31
0.0
 11
470.0513495604959
 21
347.5408187159886
 31
0.0
 11
470.3077719632981
 21
347.7411279665138
 31
0.0
 11
470.5456895713322
 21
347.963093846099
 31
0.0
 11
470.7637441398709
 21
348.2052990674769
 31
0.0
 11
470.9598520532094
 21
348.4655878744559
 31
0.0
 11
471.1329088159523
 21
348.7423135575356
 31
0.0
 11
471.2812597596916
 21
349.0330290250133
 31
0.0
 11
471.4040646380603
 21
349.3358507673194
 31
0.0
 11
471.5001546549138
 21
349.6481760536619
 31
0.0
 11
471.5689879171331
 21
349.9678807946867
 31
0.0
 11
471.6098923596748
 21
350.2923420101803
 31
0.0
 11
471.6226785438672
 21
350.6192110639727
 31
0.0
 11
471.6071423291007
 21
350.945960954354
 31
0.0
 11
471.5635091125507
 21
351.270066486847
 31
0.0
 11
471.4919880890941
 21
351.5891807024897
 31
0.0
 11
471.3932733713978
 21
351.9006863691124
 31
0.0
 11
471.2679247068289
 21
352.2024640323932
 31
0.0
 11
471.1171327511777
 21
352.4919208886774
 31
0.0
 11
470.9417535701058
 21
352.7671805654439
 31
0.0
 11
470.7434623648199
 21
353.025809981054
 31
0.0
 11
470.5233774480686
 21
353.2661717782304
 31
0.0
 11
470.2836005016872
 21
353.4861278099656
 31
0.0
 11
470.0255016482687
 21
353.6842722683007
 31
0.0
 11
469.7515082548957
 21
353.8588766695617
 31
0.0
 11
469.4632498276664
 21
354.0087715008845
 31
0.0
 11
469.1633485298264
 21
354.1327151813772
 31
0.0
 11
468.8537056185167
 21
354.2298017987287
 31
0.0
 11
468.5369962907583
 21
354.2993070848084
 31
0.0
 11
468.2153936412939
 21
354.3406403266001
 31
0.0
 11
467.8914944524631
 21
354.3535788960011
 31
0.0
 11
467.5677156041653
 21
354.337915291746
 31
0.0
  0
SPLINE
  5
131
330
45
100
AcDbEntity
  8
1
  6
Continuous
 62
     7
100
AcDbSpline
210
0.0
220
0.0
230
1.0
 70
    11
 71
     3
 72
    79
 73
    75
 74
    73
 42
0.0000000001
 43
0.0000000001
 44
0.00000001
 40
0.0
 40
0.0
 40
0.0
 40
0.0
 40
0.324247900563
 40
0.6484943856359144
 40
0.9730010015826051
 40
1.297504968245916
 40
1.622407078620862
 40
1.947305642101411
 40
2.272691942527253
 40
2.598074240620909
 40
2.923974783921008
 40
3.249871357564411
 40
3.5762541800399
 40
3.902633538362481
 40
4.229408760440921
 40
4.556181427333213
 40
4.883212220105865
 40
5.210241658810034
 40
5.53736069652165
 40
5.864479734233321
 40
6.191509172937495
 40
6.518539965710122
 40
6.84531263260237
 40
7.172087854680902
 40
7.498467213003535
 40
7.824850035478973
 40
8.15074660912229
 40
8.476647152422382
 40
8.80202945051602
 40
9.127415750941909
 40
9.452314314422461
 40
9.777216424797334
 40
10.10172039146066
 40
10.42622700740732
 40
10.75047349248035
 40
11.07472139304332
 40
11.39887890275631
 40
11.72303641246935
 40
12.0472843130324
 40
12.37153079810537
 40
12.69603741405206
 40
13.02054138071535
 40
13.34544349109022
 40
13.67034205457083
 40
13.99572835499672
 40
14.32111065309037
 40
14.64701119639039
 40
14.97290777003381
 40
15.29929059250928
 40
15.62566995083188
 40
15.95244517291041
 40
16.27921783980262
 40
16.60624863257525
 40
16.93327807127945
 40
17.26039710899102
 40
17.58751614670275
 40
17.9145455854068
 40
18.24157637817948
 40
18.56834904507179
 40
18.89512426715034
 40
19.22150362547292
 40
19.54788644794828
 40
19.87378302159184
 40
20.19968356489193
 40
20.52506586298549
 40
20.85045216341134
 40
21.17535072689191
 40
21.50025283726678
 40
21.82475680393009
 40
22.14926341987678
 40
22.47350990494964
 40
22.79775780551268
 40
23.12191531522572
 40
23.44607282493877
 40
23.44607282493877
 40
23.44607282493877
 40
23.44607282493877
 10
437.9043841683056
 20
354.337915291746
 30
0.0
 10
438.0117908439785
 20
354.3252284211168
 30
0.0
 10
438.2266037264452
 20
354.2998547352423
 30
0.0
 10
438.5430480413908
 20
354.2259106382186
 30
0.0
 10
438.8522334345577
 20
354.1265981585436
 30
0.0
 10
439.1515527192335
 20
353.9997453688335
 30
0.0
 10
439.4388146945726
 20
353.8473696132181
 30
0.0
 10
439.7117784771265
 20
353.6700865391271
 30
0.0
 10
439.9684261978712
 20
353.4696591512002
 30
0.0
 10
440.2067287588339
 20
353.2472436636086
 30
0.0
 10
440.4249746316743
 20
353.00488884751
 30
0.0
 10
440.6213776409202
 20
352.7441022752744
 30
0.0
 10
440.7946012708788
 20
352.4671883300407
 30
0.0
 10
440.9431448871997
 20
352.1759615670005
 30
0.0
 10
441.0660934521031
 20
351.8728993969317
 30
0.0
 10
441.1622747225602
 20
351.5600838383302
 30
0.0
 10
441.2312199684386
 20
351.2400739705815
 30
0.0
 10
441.2721268582465
 20
350.9151714924379
 30
0.0
 10
441.2849764841812
 20
350.5879267744499
 30
0.0
 10
441.2693736688423
 20
350.2608017670066
 30
0.0
 10
441.225734292048
 20
349.9362550080948
 30
0.0
 10
441.1540987213722
 20
349.6168366187727
 30
0.0
 10
441.0552886278231
 20
349.3048414653366
 30
0.0
 10
440.9297942587646
 20
349.0028245910455
 30
0.0
 10
440.7788053347287
 20
348.7128580816595
 30
0.0
 10
440.6032577091609
 20
348.4374115420069
 30
0.0
 10
440.404667226292
 20
348.1782869048329
 30
0.0
 10
440.1843897666922
 20
347.9377769678442
 30
0.0
 10
439.9442240475484
 20
347.7173751800142
 30
0.0
 10
439.6858990771872
 20
347.5191122591291
 30
0.0
 10
439.4114524891861
 20
347.3441406447205
 30
0.0
 10
439.1229210983204
 20
347.1941565598534
 30
0.0
 10
438.8225352971607
 20
347.0699422138699
 30
0.0
 10
438.5125613311683
 20
346.9728048829409
 30
0.0
 10
438.1953711625785
 20
346.9031299097795
 30
0.0
 10
437.8733758348552
 20
346.8618016241045
 30
0.0
 10
437.5490297206553
 20
346.8487860019849
 30
0.0
 10
437.2248046111816
 20
346.8645304169438
 30
0.0
 10
436.903168445642
 20
346.9085667120802
 30
0.0
 10
436.5865757960982
 20
346.9809082574741
 30
0.0
 10
436.2774301793442
 20
347.0806504666683
 30
0.0
 10
435.978100231122
 20
347.2073880514002
 30
0.0
 10
435.6908411164092
 20
347.3597947121557
 30
0.0
 10
435.4178765668077
 20
347.5370694993512
 30
0.0
 10
435.1612290518869
 20
347.7374991109234
 30
0.0
 10
434.9229264357289
 20
347.9599140022024
 30
0.0
 10
434.7046805777003
 20
348.2022689783253
 30
0.0
 10
434.5082775644824
 20
348.4630555076469
 30
0.0
 10
434.3350539355894
 20
348.7399694643956
 30
0.0
 10
434.1865103189829
 20
349.0311962243482
 30
0.0
 10
434.0635617541563
 20
349.3342583952455
 30
0.0
 10
433.9673804836784
 20
349.6470739536247
 30
0.0
 10
433.8984352378054
 20
349.9670838214329
 30
0.0
 10
433.8575283479964
 20
350.2919862995606
 30
0.0
 10
433.8446787220618
 20
350.6192310175529
 30
0.0
 10
433.8602815374009
 20
350.9463560249947
 30
0.0
 10
433.9039209141952
 20
351.2709027839081
 30
0.0
 10
433.9755564848703
 20
351.5903211732257
 30
0.0
 10
434.0743665784213
 20
351.9023163266779
 30
0.0
 10
434.1998609474742
 20
352.2043332009095
 30
0.0
 10
434.3508498715305
 20
352.4942997105172
 30
0.0
 10
434.5263974970219
 20
352.769746249343
 30
0.0
 10
434.724987980176
 20
353.0288708895978
 30
0.0
 10
434.9452654387126
 20
353.2693808150989
 30
0.0
 10
435.1854311618184
 20
353.4897826457361
 30
0.0
 10
435.4437561174044
 20
353.688045406993
 30
0.0
 10
435.7182027604692
 20
353.8630176162908
 30
0.0
 10
436.0067339459802
 20
354.0129994825801
 30
0.0
 10
436.3071205126402
 20
354.137222098746
 30
0.0
 10
436.6170916232164
 20
354.2343285808218
 30
0.0
 10
436.9342924402537
 20
354.3041185958361
 30
0.0
 10
437.2562480375875
 20
354.3450176492142
 30
0.0
 10
437.5807423888409
 20
354.3596347691295
 30
0.0
 10
437.7965035751507
 20
354.3451551175405
 30
0.0
 10
437.9043841683056
 20
354.337915291746
 30
0.0
 11
437.9043841683056
 21
354.337915291746
 31
0.0
 11
438.2256276277848
 21
354.2938773449121
 31
0.0
 11
438.5417408813751
 21
354.2217095266916
 31
0.0
 11
438.850555881903
 21
354.1220208149831
 31
0.0
 11
439.1494036215098
 21
353.9955579630774
 31
0.0
 11
439.436390533286
 21
353.8432428495947
 31
0.0
 11
439.7089049942682
 21
353.6663390760133
 31
0.0
 11
439.9653273970704
 21
353.4660298254881
 31
0.0
 11
440.2032450051045
 21
353.2440639459029
 31
0.0
 11
440.4212995736431
 21
353.001858724525
 31
0.0
 11
440.6174074869816
 21
352.741569917546
 31
0.0
 11
440.7904642497246
 21
352.4648442344662
 31
0.0
 11
440.9388151934639
 21
352.1741287669886
 31
0.0
 11
441.0616200718326
 21
351.8713070246826
 31
0.0
 11
441.1577100886861
 21
351.55898173834
 31
0.0
 11
441.2265433509053
 21
351.2392769973151
 31
0.0
 11
441.267447793447
 21
350.9148157818216
 31
0.0
 11
441.2802339776394
 21
350.5879467280292
 31
0.0
 11
441.264697762873
 21
350.261196837648
 31
0.0
 11
441.221064546323
 21
349.9370913051548
 31
0.0
 11
441.1495435228663
 21
349.6179770895122
 31
0.0
 11
441.05082880517
 21
349.3064714228896
 31
0.0
 11
440.9254801406011
 21
349.0046937596087
 31
0.0
 11
440.7746881849499
 21
348.7152369033244
 31
0.0
 11
440.5993090038781
 21
348.4399772265579
 31
0.0
 11
440.4010177985922
 21
348.181347810948
 31
0.0
 11
440.1809328818409
 21
347.9409860137715
 31
0.0
 11
439.9411559354595
 21
347.7210299820364
 31
0.0
 11
439.6830570820411
 21
347.5228855237012
 31
0.0
 11
439.409063688668
 21
347.3482811224403
 31
0.0
 11
439.1208052614387
 21
347.1983862911174
 31
0.0
 11
438.8209039635987
 21
347.0744426106247
 31
0.0
 11
438.5112610522889
 21
346.9773559932731
 31
0.0
 11
438.1945517245305
 21
346.9078507071934
 31
0.0
 11
437.8729490750661
 21
346.8665174654018
 31
0.0
 11
437.5490498862354
 21
346.8535788960008
 31
0.0
 11
437.2252710379376
 21
346.869242500256
 31
0.0
 11
436.9040275784583
 21
346.9132804470899
 31
0.0
 11
436.5879143248679
 21
346.9854482653103
 31
0.0
 11
436.27909932434
 21
347.0851369770188
 31
0.0
 11
435.9802515847332
 21
347.2115998289245
 31
0.0
 11
435.693264672957
 21
347.3639149424071
 31
0.0
 11
435.4207502119749
 21
347.5408187159886
 31
0.0
 11
435.1643278091726
 21
347.7411279665138
 31
0.0
 11
434.9264102011385
 21
347.963093846099
 31
0.0
 11
434.7083556325999
 21
348.2052990674769
 31
0.0
 11
434.5122477192615
 21
348.4655878744559
 31
0.0
 11
434.3391909565185
 21
348.7423135575356
 31
0.0
 11
434.1908400127792
 21
349.0330290250133
 31
0.0
 11
434.0680351344105
 21
349.3358507673194
 31
0.0
 11
433.971945117557
 21
349.6481760536619
 31
0.0
 11
433.9031118553376
 21
349.9678807946867
 31
0.0
 11
433.8622074127961
 21
350.2923420101803
 31
0.0
 11
433.8494212286036
 21
350.6192110639727
 31
0.0
 11
433.8649574433701
 21
350.945960954354
 31
0.0
 11
433.9085906599201
 21
351.270066486847
 31
0.0
 11
433.9801116833767
 21
351.5891807024897
 31
0.0
 11
434.0788264010731
 21
351.9006863691124
 31
0.0
 11
434.2041750656421
 21
352.2024640323932
 31
0.0
 11
434.3549670212933
 21
352.4919208886774
 31
0.0
 11
434.530346202365
 21
352.7671805654439
 31
0.0
 11
434.728637407651
 21
353.025809981054
 31
0.0
 11
434.9487223244023
 21
353.2661717782304
 31
0.0
 11
435.1884992707837
 21
353.4861278099656
 31
0.0
 11
435.4465981242021
 21
353.6842722683007
 31
0.0
 11
435.720591517575
 21
353.8588766695617
 31
0.0
 11
436.0088499448044
 21
354.0087715008845
 31
0.0
 11
436.3087512426445
 21
354.1327151813772
 31
0.0
 11
436.6183941539543
 21
354.2298017987287
 31
0.0
 11
436.9351034817125
 21
354.2993070848084
 31
0.0
 11
437.2567061311769
 21
354.3406403266001
 31
0.0
 11
437.5806053200077
 21
354.3535788960011
 31
0.0
 11
437.9043841683056
 21
354.337915291746
 31
0.0
  0
SPLINE
  5
132
330
45
100
AcDbEntity
  8
1
  6
Continuous
 62
     7
100
AcDbSpline
210
0.0
220
0.0
230
1.0
 70
    11
 71
     3
 72
    79
 73
    75
 74
    73
 42
0.0000000001
 43
0.0000000001
 44
0.00000001
 40
0.0
 40
0.0
 40
0.0
 40
0.0
 40
0.3450399199891064
 40
0.6893941207104768
 40
1.070453639936239
 40
1.450714755085406
 40
1.881165825799948
 40
2.311065842992536
 40
2.795574584309348
 40
3.279748747693989
 40
3.816034404295558
 40
4.352121295730441
 40
4.93296833088371
 40
5.513698735829835
 40
6.12852758105346
 40
6.74329137833546
 40
7.379331450626462
 40
8.015342325238573
 40
8.658578537140688
 40
9.301814749042917
 40
9.937825623655083
 40
10.57386569594597
 40
11.18862949322787
 40
11.80345833845161
 40
12.3841887433978
 40
12.965035778551
 40
13.50112266998581
 40
14.03740832658748
 40
14.5215824899721
 40
15.00609123128892
 40
15.43599124848151
 40
15.86644231919606
 40
16.24670343434523
 40
16.62776295357105
 40
16.9721171542924
 40
17.31715707428151
 40
17.64845857325032
 40
17.97976007221902
 40
18.32479999220814
 40
18.66915419292943
 40
19.05021371215524
 40
19.43047482730434
 40
19.8609258980188
 40
20.2908259152115
 40
20.7753346565284
 40
21.259508819913
 40
21.79579447651462
 40
22.33188136794945
 40
22.9127284031028
 40
23.49345880804889
 40
24.1082876532726
 40
24.72305145055451
 40
25.3590915228454
 40
25.99510239745756
 40
26.63833860935968
 40
27.28157482126185
 40
27.91758569587407
 40
28.55362576816501
 40
29.16838956544702
 40
29.78321841067065
 40
30.36394881561683
 40
30.94479585077004
 40
31.48088274220493
 40
32.01716839880647
 40
32.50134256219119
 40
32.98585130350802
 40
33.41575132070057
 40
33.84620239141495
 40
34.22646350656408
 40
34.60752302579003
 40
34.95187722651143
 40
35.29691714650044
 40
35.62821864546919
 40
35.959520144438
 40
35.959520144438
 40
35.959520144438
 40
35.959520144438
 10
460.1059655312919
 20
350.9335725544509
 30
0.0
 10
460.0807181726119
 20
351.046075514487
 30
0.0
 10
460.0302736308962
 20
351.2708578504378
 30
0.0
 10
459.8798437206395
 20
351.5968593761803
 30
0.0
 10
459.6828990776894
 20
351.9093313895676
 30
0.0
 10
459.4277921240792
 20
352.215224524555
 30
0.0
 10
459.1284361412528
 20
352.501642510427
 30
0.0
 10
458.775314331491
 20
352.778782758539
 30
0.0
 10
458.3841075994083
 20
353.0333847429956
 30
0.0
 10
457.9437131049438
 20
353.2744693181126
 30
0.0
 10
457.4717477798025
 20
353.4909861195167
 30
0.0
 10
456.9573012811728
 20
353.6893953582627
 30
0.0
 10
456.4179594912232
 20
353.8617170375974
 30
0.0
 10
455.8449132527185
 20
354.0118530661132
 30
0.0
 10
455.2538594298426
 20
354.1347545052369
 30
0.0
 10
454.639465328708
 20
354.232358948312
 30
0.0
 10
454.0141642198189
 20
354.3019444865032
 30
0.0
 10
453.3769340317919
 20
354.3443033400407
 30
0.0
 10
452.7360498862398
 20
354.3582428686935
 30
0.0
 10
452.095165740661
 20
354.3443033400434
 30
0.0
 10
451.4579355527136
 20
354.3019444864925
 30
0.0
 10
450.8326344435367
 20
354.2323589483526
 30
0.0
 10
450.2182403434409
 20
354.1347545050906
 30
0.0
 10
449.6271865167863
 20
354.0118530666465
 30
0.0
 10
449.0541402916373
 20
353.8617170357291
 30
0.0
 10
448.5147984537055
 20
353.6893953650221
 30
0.0
 10
448.0003521210224
 20
353.4909860964376
 30
0.0
 10
447.528386206741
 20
353.2744694009654
 30
0.0
 10
447.0879937085206
 20
353.0333844669086
 30
0.0
 10
446.6967799604364
 20
352.7787837439819
 30
0.0
 10
446.3436815495642
 20
352.5016392885733
 30
0.0
 10
446.0442437228504
 20
352.2152360188496
 30
0.0
 10
445.7894087522514
 20
351.9092939792647
 30
0.0
 10
445.5915063080228
 20
351.5969941857734
 30
0.0
 10
445.4443285586358
 20
351.2704078969708
 30
0.0
 10
445.3579057512218
 20
350.9397123738937
 30
0.0
 10
445.3263506282093
 20
350.6035788960007
 30
0.0
 10
445.3579057512217
 20
350.2674454181081
 30
0.0
 10
445.4443285586359
 20
349.9367498950311
 30
0.0
 10
445.5915063080228
 20
349.6101636062285
 30
0.0
 10
445.7894087522515
 20
349.2978638127372
 30
0.0
 10
446.0442437228503
 20
348.9919217731523
 30
0.0
 10
446.3436815495642
 20
348.7055185034288
 30
0.0
 10
446.6967799604362
 20
348.4283740480198
 30
0.0
 10
447.0879937085205
 20
348.1737733250931
 30
0.0
 10
447.5283862067408
 20
347.9326883910364
 30
0.0
 10
448.0003521210224
 20
347.7161716955642
 30
0.0
 10
448.5147984537053
 20
347.5177624269795
 30
0.0
 10
449.0541402916372
 20
347.3454407562728
 30
0.0
 10
449.6271865167865
 20
347.1953047253552
 30
0.0
 10
450.218240343441
 20
347.0724032869113
 30
0.0
 10
450.8326344435366
 20
346.9747988436492
 30
0.0
 10
451.4579355527131
 20
346.9052133055093
 30
0.0
 10
452.0951657406622
 20
346.8628544519584
 30
0.0
 10
452.7360498862356
 20
346.8489149233089
 30
0.0
 10
453.3769340318075
 20
346.8628544519582
 30
0.0
 10
454.0141642197617
 20
346.9052133055102
 30
0.0
 10
454.6394653289182
 20
346.9747988436462
 30
0.0
 10
455.2538594290871
 20
347.0724032869214
 30
0.0
 10
455.8449132554758
 20
347.1953047253178
 30
0.0
 10
456.4179594815643
 20
347.345440756404
 30
0.0
 10
456.9573013161214
 20
347.5177624265043
 30
0.0
 10
457.4717476604758
 20
347.7161716971875
 30
0.0
 10
457.9437135333219
 20
347.9326883852092
 30
0.0
 10
458.3841061719422
 20
348.1737733445111
 30
0.0
 10
458.7753194265764
 20
348.4283739787117
 30
0.0
 10
459.1284194831418
 20
348.7055187300285
 30
0.0
 10
459.4278515536013
 20
348.9919209647341
 30
0.0
 10
459.6827056533429
 20
349.297866443883
 30
0.0
 10
459.8805407333748
 20
349.6101541247837
 30
0.0
 10
460.0279472141373
 20
349.9367815412133
 30
0.0
 10
460.1135445912013
 20
350.2673286456858
 30
0.0
 10
460.148066070616
 20
350.6039954968395
 30
0.0
 10
460.1199990444
 20
350.8237135352471
 30
0.0
 10
460.1059655312919
 20
350.9335725544509
 30
0.0
 11
460.1059655312919
 21
350.9335725544509
 31
0.0
 11
460.018591497615
 21
351.2673663899619
 31
0.0
 11
459.8788568185387
 21
351.5820948999794
 31
0.0
 11
459.6759029532668
 21
351.9046101488651
 31
0.0
 11
459.4336770921047
 21
352.1977400652482
 31
0.0
 11
459.1237214303325
 21
352.4964298910118
 31
0.0
 11
458.7861877844638
 21
352.7626723795232
 31
0.0
 11
458.3808852996906
 21
353.0281504694837
 31
0.0
 11
457.956530463665
 21
353.2612761729805
 31
0.0
 11
457.4695512283088
 21
353.4858948049068
 31
0.0
 11
456.9695526362998
 21
353.6792612010499
 31
0.0
 11
456.4165018320905
 21
353.8567945393551
 31
0.0
 11
455.8548118856036
 21
354.0042808344624
 31
0.0
 11
455.2529677613615
 21
354.1299715621802
 31
0.0
 11
454.6458425210611
 21
354.2265814428281
 31
0.0
 11
454.0137405623561
 21
354.2972502999099
 31
0.0
 11
453.3791307519116
 21
354.3394429664813
 31
0.0
 11
452.7360498862354
 21
354.3535788960011
 31
0.0
 11
452.0929690205592
 21
354.3394429664813
 31
0.0
 11
451.4583592101146
 21
354.2972502999099
 31
0.0
 11
450.8262572514097
 21
354.2265814428281
 31
0.0
 11
450.2191320111094
 21
354.1299715621802
 31
0.0
 11
449.6172878868672
 21
354.0042808344623
 31
0.0
 11
449.0555979403803
 21
353.856794539355
 31
0.0
 11
448.502547136171
 21
353.6792612010498
 31
0.0
 11
448.0025485441621
 21
353.4858948049068
 31
0.0
 11
447.5155693088058
 21
353.2612761729805
 31
0.0
 11
447.0912144727802
 21
353.0281504694836
 31
0.0
 11
446.6859119880069
 21
352.7626723795232
 31
0.0
 11
446.3483783421382
 21
352.4964298910118
 31
0.0
 11
446.038422680366
 21
352.1977400652482
 31
0.0
 11
445.7961968192041
 21
351.904610148865
 31
0.0
 11
445.593242953932
 21
351.5820948999794
 31
0.0
 11
445.4535082748557
 21
351.2673663899618
 31
0.0
 11
445.3661342411788
 21
350.9335725544509
 31
0.0
 11
445.336725592761
 21
350.6035788960008
 31
0.0
 11
445.3661342411788
 21
350.273585237551
 31
0.0
 11
445.4535082748558
 21
349.93979140204
 31
0.0
 11
445.5932429539321
 21
349.6250628920225
 31
0.0
 11
445.7961968192042
 21
349.3025476431369
 31
0.0
 11
446.038422680366
 21
349.0094177267537
 31
0.0
 11
446.3483783421382
 21
348.7107279009902
 31
0.0
 11
446.6859119880069
 21
348.4444854124786
 31
0.0
 11
447.0912144727802
 21
348.1790073225182
 31
0.0
 11
447.5155693088058
 21
347.9458816190213
 31
0.0
 11
448.002548544162
 21
347.721262987095
 31
0.0
 11
448.502547136171
 21
347.5278965909519
 31
0.0
 11
449.0555979403804
 21
347.3503632526468
 31
0.0
 11
449.6172878868672
 21
347.2028769575394
 31
0.0
 11
450.2191320111094
 21
347.0771862298217
 31
0.0
 11
450.8262572514097
 21
346.9805763491737
 31
0.0
 11
451.4583592101146
 21
346.9099074920919
 31
0.0
 11
452.0929690205592
 21
346.8677148255206
 31
0.0
 11
452.7360498862353
 21
346.8535788960007
 31
0.0
 11
453.3791307519115
 21
346.8677148255206
 31
0.0
 11
454.0137405623562
 21
346.9099074920919
 31
0.0
 11
454.6458425210611
 21
346.9805763491737
 31
0.0
 11
455.2529677613615
 21
347.0771862298216
 31
0.0
 11
455.8548118856036
 21
347.2028769575395
 31
0.0
 11
456.4165018320906
 21
347.3503632526468
 31
0.0
 11
456.9695526362998
 21
347.527896590952
 31
0.0
 11
457.4695512283088
 21
347.721262987095
 31
0.0
 11
457.956530463665
 21
347.9458816190213
 31
0.0
 11
458.3808852996906
 21
348.1790073225183
 31
0.0
 11
458.7861877844639
 21
348.4444854124787
 31
0.0
 11
459.1237214303325
 21
348.7107279009902
 31
0.0
 11
459.4336770921046
 21
349.0094177267536
 31
0.0
 11
459.6759029532666
 21
349.3025476431367
 31
0.0
 11
459.8788568185387
 21
349.6250628920225
 31
0.0
 11
460.018591497615
 21
349.9397914020401
 31
0.0
 11
460.1059655312919
 21
350.273585237551
 31
0.0
 11
460.1353741797097
 21
350.6035788960009
 31
0.0
 11
460.1059655312919
 21
350.9335725544509
 31
0.0
  0
SPLINE
  5
133
330
45
100
AcDbEntity
  8
1
  6
Continuous
 62
     7
100
AcDbSpline
210
0.0
220
0.0
230
1.0
 70
    11
 71
     3
 72
    79
 73
    75
 74
    73
 42
0.0000000001
 43
0.0000000001
 44
0.00000001
 40
0.0
 40
0.0
 40
0.0
 40
0.0
 40
0.3391478353884327
 40
0.6779273465513807
 40
1.041834270095854
 40
1.405253429920924
 40
1.804114033307064
 40
2.202571403174475
 40
2.640647344170418
 40
3.078444319021813
 40
3.554838694168061
 40
4.031052348771004
 40
4.540905003636158
 40
5.050645311105742
 40
5.586259710694335
 40
6.121809157155466
 40
6.67359707081401
 40
7.225355244013191
 40
7.782642961038174
 40
8.339930678063215
 40
8.891688851262368
 40
9.44347676492094
 40
9.979026211382109
 40
10.51464061097077
 40
11.02438091844039
 40
11.53423357330555
 40
12.01044722790851
 40
12.48684160305466
 40
12.92463857790601
 40
13.36271451890203
 40
13.76117188876956
 40
14.16003249215555
 40
14.52345165198036
 40
14.88735857552481
 40
15.22613808668766
 40
15.56528592207639
 40
15.89525116254713
 40
16.22521640301786
 40
16.56436423840648
 40
16.90314374956944
 40
17.26705067311394
 40
17.63046983293888
 40
18.02933043632493
 40
18.42778780619226
 40
18.86586374718807
 40
19.30366072203953
 40
19.7800550971857
 40
20.25626875178869
 40
20.76612140665389
 40
21.27586171412351
 40
21.81147611371218
 40
22.34702556017333
 40
22.89881347383193
 40
23.45057164703108
 40
24.00785936405606
 40
24.56514708108108
 40
25.11690525428028
 40
25.6686931679388
 40
26.20424261439993
 40
26.73985701398852
 40
27.24959732145811
 40
27.75944997632324
 40
28.23566363092621
 40
28.71205800607246
 40
29.14985498092394
 40
29.58793092191994
 40
29.98638829178731
 40
30.38524889517332
 40
30.7486680549983
 40
31.11257497854274
 40
31.45135448970562
 40
31.79050232509433
 40
32.12046756556512
 40
32.4504328060358
 40
32.4504328060358
 40
32.4504328060358
 40
32.4504328060358
 10
174.1031776932623
 20
350.93258575316
 30
0.0
 10
174.1247281049515
 20
351.0437809623581
 30
0.0
 10
174.1678055239678
 20
351.2660506195845
 30
0.0
 10
174.2964087966004
 20
351.5904865755598
 30
0.0
 10
174.4662143247458
 20
351.9034652053425
 30
0.0
 10
174.685959057557
 20
352.2089601547029
 30
0.0
 10
174.9453541229752
 20
352.4970005371239
 30
0.0
 10
175.2506216933138
 20
352.7742789467309
 30
0.0
 10
175.5902196303455
 20
353.0303721786255
 30
0.0
 10
175.971447953983
 20
353.2717011846064
 30
0.0
 10
176.3811685878916
 20
353.4892578114323
 30
0.0
 10
176.8267300930769
 20
353.6878841753587
 30
0.0
 10
177.2947367204977
 20
353.8608463971045
 30
0.0
 10
177.7911723743434
 20
354.0111451309105
 30
0.0
 10
178.3038176992206
 20
354.1344059152836
 30
0.0
 10
178.8361636385877
 20
354.2321139153603
 30
0.0
 10
179.3783146110819
 20
354.3018727122944
 30
0.0
 10
179.930541042173
 20
354.3442682012048
 30
0.0
 10
180.4860498862321
 20
354.358257454294
 30
0.0
 10
181.0415587303107
 20
354.3442682012064
 30
0.0
 10
181.5937851613445
 20
354.3018727122877
 30
0.0
 10
182.1359361340459
 20
354.2321139153851
 30
0.0
 10
182.6682820726624
 20
354.1344059151934
 30
0.0
 10
183.180927400279
 20
354.0111451312404
 30
0.0
 10
183.6773630443734
 20
353.8608463959394
 30
0.0
 10
184.1453697070192
 20
353.6878841795943
 30
0.0
 10
184.5909310889984
 20
353.4892577967783
 30
0.0
 10
185.0006521639247
 20
353.2717012375672
 30
0.0
 10
185.3818789681629
 20
353.0303719986389
 30
0.0
 10
185.7214823080076
 20
352.7742795950791
 30
0.0
 10
186.0267314389618
 20
352.4969983584281
 30
0.0
 10
186.2861919788928
 20
352.208968014267
 30
0.0
 10
186.5057128223663
 20
351.903438739194
 30
0.0
 10
186.676319323536
 20
351.5905829110156
 30
0.0
 10
186.8021273731652
 20
351.2657184039427
 30
0.0
 10
186.8763618928268
 20
350.9368265150403
 30
0.0
 10
186.9027767062729
 20
350.603578896001
 30
0.0
 10
186.8763618928268
 20
350.2703312769619
 30
0.0
 10
186.8021273731652
 20
349.9414393880592
 30
0.0
 10
186.6763193235359
 20
349.6165748809865
 30
0.0
 10
186.5057128223663
 20
349.3037190528078
 30
0.0
 10
186.2861919788928
 20
348.9981897777349
 30
0.0
 10
186.0267314389618
 20
348.7101594335737
 30
0.0
 10
185.7214823080076
 20
348.4328781969228
 30
0.0
 10
185.3818789681628
 20
348.1767857933635
 30
0.0
 10
185.0006521639247
 20
347.9354565544348
 30
0.0
 10
184.5909310889986
 20
347.7178999952238
 30
0.0
 10
184.1453697070192
 20
347.519273612408
 30
0.0
 10
183.6773630443734
 20
347.3463113960624
 30
0.0
 10
183.180927400279
 20
347.1960126607615
 30
0.0
 10
182.6682820726625
 20
347.0727518768085
 30
0.0
 10
182.1359361340459
 20
346.9750438766169
 30
0.0
 10
181.5937851613447
 20
346.9052850797141
 30
0.0
 10
181.0415587303099
 20
346.8628895907956
 30
0.0
 10
180.4860498862352
 20
346.8489003377085
 30
0.0
 10
179.9305410421619
 20
346.8628895907954
 30
0.0
 10
179.3783146111229
 20
346.9052850797146
 30
0.0
 10
178.8361636384365
 20
346.975043876615
 30
0.0
 10
178.3038176997668
 20
347.0727518768148
 30
0.0
 10
177.7911723723443
 20
347.1960126607382
 30
0.0
 10
177.2947367275594
 20
347.3463113961449
 30
0.0
 10
176.8267300674079
 20
347.5192736121081
 30
0.0
 10
176.3811686767048
 20
347.7178999962612
 30
0.0
 10
175.9714476330052
 20
347.9354565506849
 30
0.0
 10
175.5902207211844
 20
348.1767858061074
 30
0.0
 10
175.2506177638913
 20
348.4328781510159
 30
0.0
 10
174.9453673273175
 20
348.7101595878384
 30
0.0
 10
174.6859114233765
 20
348.9981892212306
 30
0.0
 10
174.4663747271891
 20
349.3037209267704
 30
0.0
 10
174.2958249397346
 20
349.6165680598559
 30
0.0
 10
174.1698189714787
 20
349.941462910928
 30
0.0
 10
174.0963059777321
 20
350.2702441787022
 30
0.0
 10
174.0672664242368
 20
350.6038942111542
 30
0.0
 10
174.0912072702538
 20
350.8230219058247
 30
0.0
 10
174.1031776932623
 20
350.93258575316
 30
0.0
 11
174.1031776932623
 21
350.93258575316
 31
0.0
 11
174.1779913231912
 21
351.2633790043389
 31
0.0
 11
174.2991604647768
 21
351.5797484028452
 31
0.0
 11
174.4728187585876
 21
351.8995468487362
 31
0.0
 11
174.6839558538057
 21
352.1953417316379
 31
0.0
 11
174.9501585534992
 21
352.4923701875296
 31
0.0
 11
175.2445119582694
 21
352.7609299549965
 31
0.0
 11
175.5936740542612
 21
353.025498208576
 31
0.0
 11
175.963241729349
 21
353.2602021171912
 31
0.0
 11
176.3836015126843
 21
353.4843655692195
 31
0.0
 11
176.8183704123243
 21
353.678673182905
 31
0.0
 11
177.2963856203597
 21
353.8560180180704
 31
0.0
 11
177.7841720665219
 21
354.004003030824
 31
0.0
 11
178.3048397366893
 21
354.129653189157
 31
0.0
 11
178.831562978679
 21
354.2264820895568
 31
0.0
 11
179.3788037536742
 21
354.2971746340176
 31
0.0
 11
179.9289419520342
 21
354.3394244197843
 31
0.0
 11
180.4860498862354
 21
354.3535788960013
 31
0.0
 11
181.0431578204367
 21
354.3394244197843
 31
0.0
 11
181.5932960187966
 21
354.2971746340176
 31
0.0
 11
182.1405367937918
 21
354.2264820895568
 31
0.0
 11
182.6672600357816
 21
354.129653189157
 31
0.0
 11
183.1879277059491
 21
354.004003030824
 31
0.0
 11
183.6757141521113
 21
353.8560180180705
 31
0.0
 11
184.1537293601467
 21
353.6786731829051
 31
0.0
 11
184.5884982597867
 21
353.4843655692195
 31
0.0
 11
185.0088580431219
 21
353.2602021171912
 31
0.0
 11
185.3784257182096
 21
353.025498208576
 31
0.0
 11
185.7275878142014
 21
352.7609299549963
 31
0.0
 11
186.0219412189716
 21
352.4923701875293
 31
0.0
 11
186.2881439186651
 21
352.1953417316377
 31
0.0
 11
186.4992810138831
 21
351.8995468487363
 31
0.0
 11
186.672939307694
 21
351.5797484028453
 31
0.0
 11
186.7941084492796
 21
351.2633790043392
 31
0.0
 11
186.8689220792086
 21
350.93258575316
 31
0.0
 11
186.8940526952237
 21
350.603578896001
 31
0.0
 11
186.8689220792086
 21
350.2745720388421
 31
0.0
 11
186.7941084492796
 21
349.943778787663
 31
0.0
 11
186.672939307694
 21
349.6274093891567
 31
0.0
 11
186.4992810138831
 21
349.3076109432657
 31
0.0
 11
186.288143918665
 21
349.0118160603641
 31
0.0
 11
186.0219412189715
 21
348.7147876044725
 31
0.0
 11
185.7275878142013
 21
348.4462278370057
 31
0.0
 11
185.3784257182097
 21
348.1816595834263
 31
0.0
 11
185.0088580431219
 21
347.946955674811
 31
0.0
 11
184.5884982597867
 21
347.7227922227826
 31
0.0
 11
184.1537293601467
 21
347.528484609097
 31
0.0
 11
183.6757141521113
 21
347.3511397739314
 31
0.0
 11
183.1879277059491
 21
347.2031547611779
 31
0.0
 11
182.6672600357816
 21
347.077504602845
 31
0.0
 11
182.1405367937918
 21
346.9806757024452
 31
0.0
 11
181.5932960187966
 21
346.9099831579844
 31
0.0
 11
181.0431578204366
 21
346.8677333722177
 31
0.0
 11
180.4860498862354
 21
346.8535788960007
 31
0.0
 11
179.9289419520342
 21
346.8677333722176
 31
0.0
 11
179.3788037536742
 21
346.9099831579843
 31
0.0
 11
178.831562978679
 21
346.9806757024451
 31
0.0
 11
178.3048397366893
 21
347.0775046028449
 31
0.0
 11
177.7841720665219
 21
347.2031547611779
 31
0.0
 11
177.2963856203597
 21
347.3511397739315
 31
0.0
 11
176.8183704123243
 21
347.5284846090969
 31
0.0
 11
176.3836015126843
 21
347.7227922227825
 31
0.0
 11
175.963241729349
 21
347.9469556748109
 31
0.0
 11
175.5936740542612
 21
348.1816595834262
 31
0.0
 11
175.2445119582694
 21
348.4462278370057
 31
0.0
 11
174.9501585534992
 21
348.7147876044725
 31
0.0
 11
174.6839558538057
 21
349.0118160603641
 31
0.0
 11
174.4728187585876
 21
349.3076109432657
 31
0.0
 11
174.2991604647768
 21
349.6274093891566
 31
0.0
 11
174.1779913231912
 21
349.9437787876628
 31
0.0
 11
174.1031776932623
 21
350.2745720388421
 31
0.0
 11
174.0780470772473
 21
350.6035788960011
 31
0.0
 11
174.1031776932623
 21
350.93258575316
 31
0.0
  0
SPLINE
  5
134
330
45
100
AcDbEntity
  8
1
  6
Continuous
 62
     7
100
AcDbSpline
210
0.0
220
0.0
230
1.0
 70
    11
 71
     3
 72
    79
 73
    75
 74
    73
 42
0.0000000001
 43
0.0000000001
 44
0.00000001
 40
0.0
 40
0.0
 40
0.0
 40
0.0
 40
0.3391478353884578
 40
0.6779273465514057
 40
1.041834270095907
 40
1.405253429920943
 40
1.804114033307064
 40
2.202571403174454
 40
2.640647344170419
 40
3.078444319021743
 40
3.554838694167915
 40
4.031052348770807
 40
4.540905003635987
 40
5.050645311105626
 40
5.586259710694301
 40
6.121809157155461
 40
6.673597070814033
 40
7.225355244013214
 40
7.782642961038226
 40
8.339930678063181
 40
8.891688851262391
 40
9.443476764920934
 40
9.979026211382076
 40
10.51464061097068
 40
11.02438091844022
 40
11.53423357330536
 40
12.01044722790837
 40
12.48684160305457
 40
12.92463857790596
 40
13.36271451890203
 40
13.76117188876955
 40
14.16003249215557
 40
14.5234516519804
 40
14.88735857552483
 40
15.22613808668766
 40
15.56528592207636
 40
15.89525116254709
 40
16.22521640301783
 40
16.56436423840642
 40
16.90314374956936
 40
17.26705067311383
 40
17.63046983293876
 40
18.02933043632482
 40
18.42778780619219
 40
18.86586374718811
 40
19.30366072203957
 40
19.78005509718584
 40
20.25626875178883
 40
20.76612140665401
 40
21.27586171412357
 40
21.81147611371212
 40
22.34702556017327
 40
22.89881347383179
 40
23.450571647031
 40
24.00785936405598
 40
24.56514708108102
 40
25.11690525428014
 40
25.66869316793875
 40
26.20424261439991
 40
26.73985701398858
 40
27.24959732145822
 40
27.75944997632338
 40
28.23566363092631
 40
28.71205800607251
 40
29.1498549809239
 40
29.5879309219199
 40
29.98638829178723
 40
30.38524889517324
 40
30.7486680549982
 40
31.11257497854264
 40
31.45135448970554
 40
31.79050232509427
 40
32.12046756556507
 40
32.45043280603576
 40
32.45043280603576
 40
32.45043280603576
 40
32.45043280603576
 10
169.3689220792086
 20
350.93258575316
 30
0.0
 10
169.3473716675194
 20
351.0437809623581
 30
0.0
 10
169.304294248503
 20
351.2660506195846
 30
0.0
 10
169.1756909758704
 20
351.5904865755597
 30
0.0
 10
169.0058854477248
 20
351.9034652053424
 30
0.0
 10
168.7861407149138
 20
352.208960154703
 30
0.0
 10
168.5267456494956
 20
352.497000537124
 30
0.0
 10
168.221478079157
 20
352.7742789467308
 30
0.0
 10
167.8818801421253
 20
353.0303721786254
 30
0.0
 10
167.5006518184879
 20
353.2717011846063
 30
0.0
 10
167.0909311845794
 20
353.4892578114325
 30
0.0
 10
166.6453696793941
 20
353.6878841753586
 30
0.0
 10
166.1773630519733
 20
353.8608463971046
 30
0.0
 10
165.6809273981275
 20
354.0111451309104
 30
0.0
 10
165.1682820732502
 20
354.1344059152837
 30
0.0
 10
164.6359361338831
 20
354.2321139153603
 30
0.0
 10
164.0937851613889
 20
354.3018727122944
 30
0.0
 10
163.5415587302978
 20
354.3442682012047
 30
0.0
 10
162.9860498862386
 20
354.358257454294
 30
0.0
 10
162.4305410421601
 20
354.3442682012064
 30
0.0
 10
161.8783146111263
 20
354.3018727122876
 30
0.0
 10
161.3361636384249
 20
354.2321139153852
 30
0.0
 10
160.8038176998084
 20
354.1344059151934
 30
0.0
 10
160.2911723721919
 20
354.0111451312404
 30
0.0
 10
159.7947367280976
 20
353.8608463959394
 30
0.0
 10
159.3267300654518
 20
353.6878841795941
 30
0.0
 10
158.8811686834725
 20
353.4892577967782
 30
0.0
 10
158.4714476085462
 20
353.2717012375672
 30
0.0
 10
158.090220804308
 20
353.0303719986389
 30
0.0
 10
157.7506174644631
 20
352.7742795950791
 30
0.0
 10
157.445368333509
 20
352.4969983584282
 30
0.0
 10
157.185907793578
 20
352.2089680142668
 30
0.0
 10
156.9663869501044
 20
351.9034387391943
 30
0.0
 10
156.7957804489349
 20
351.5905829110155
 30
0.0
 10
156.6699723993055
 20
351.2657184039429
 30
0.0
 10
156.5957378796441
 20
350.93682651504
 30
0.0
 10
156.5693230661982
 20
350.6035788960011
 30
0.0
 10
156.5957378796441
 20
350.2703312769619
 30
0.0
 10
156.6699723993056
 20
349.9414393880593
 30
0.0
 10
156.7957804489348
 20
349.6165748809865
 30
0.0
 10
156.9663869501044
 20
349.3037190528079
 30
0.0
 10
157.1859077935779
 20
348.998189777735
 30
0.0
 10
157.4453683335088
 20
348.7101594335735
 30
0.0
 10
157.7506174644631
 20
348.4328781969229
 30
0.0
 10
158.0902208043081
 20
348.1767857933635
 30
0.0
 10
158.4714476085462
 20
347.9354565544351
 30
0.0
 10
158.8811686834725
 20
347.7178999952237
 30
0.0
 10
159.3267300654519
 20
347.519273612408
 30
0.0
 10
159.7947367280976
 20
347.3463113960626
 30
0.0
 10
160.2911723721919
 20
347.1960126607617
 30
0.0
 10
160.8038176998084
 20
347.0727518768084
 30
0.0
 10
161.336163638425
 20
346.975043876617
 30
0.0
 10
161.878314611126
 20
346.9052850797142
 30
0.0
 10
162.430541042161
 20
346.8628895907956
 30
0.0
 10
162.9860498862356
 20
346.8489003377086
 30
0.0
 10
163.5415587303089
 20
346.8628895907953
 30
0.0
 10
164.0937851613479
 20
346.9052850797146
 30
0.0
 10
164.6359361340344
 20
346.975043876615
 30
0.0
 10
165.1682820727041
 20
347.0727518768148
 30
0.0
 10
165.6809274001266
 20
347.1960126607382
 30
0.0
 10
166.1773630449115
 20
347.3463113961451
 30
0.0
 10
166.6453697050631
 20
347.5192736121079
 30
0.0
 10
167.0909310957662
 20
347.7178999962612
 30
0.0
 10
167.5006521394657
 20
347.9354565506849
 30
0.0
 10
167.8818790512865
 20
348.1767858061076
 30
0.0
 10
168.2214820085795
 20
348.4328781510159
 30
0.0
 10
168.5267324451532
 20
348.7101595878385
 30
0.0
 10
168.7861883490943
 20
348.9981892212304
 30
0.0
 10
169.0057250452816
 20
349.3037209267706
 30
0.0
 10
169.1762748327361
 20
349.6165680598559
 30
0.0
 10
169.3022808009922
 20
349.9414629109278
 30
0.0
 10
169.3757937947388
 20
350.2702441787022
 30
0.0
 10
169.4048333482342
 20
350.6038942111542
 30
0.0
 10
169.3808925022171
 20
350.8230219058248
 30
0.0
 10
169.3689220792086
 20
350.93258575316
 30
0.0
 11
169.3689220792086
 21
350.93258575316
 31
0.0
 11
169.2941084492796
 21
351.2633790043389
 31
0.0
 11
169.172939307694
 21
351.5797484028452
 31
0.0
 11
168.9992810138831
 21
351.8995468487362
 31
0.0
 11
168.7881439186651
 21
352.1953417316379
 31
0.0
 11
168.5219412189716
 21
352.4923701875296
 31
0.0
 11
168.2275878142014
 21
352.7609299549965
 31
0.0
 11
167.8784257182096
 21
353.025498208576
 31
0.0
 11
167.5088580431219
 21
353.2602021171912
 31
0.0
 11
167.0884982597867
 21
353.4843655692195
 31
0.0
 11
166.6537293601467
 21
353.678673182905
 31
0.0
 11
166.1757141521113
 21
353.8560180180704
 31
0.0
 11
165.6879277059491
 21
354.004003030824
 31
0.0
 11
165.1672600357816
 21
354.129653189157
 31
0.0
 11
164.6405367937918
 21
354.2264820895568
 31
0.0
 11
164.0932960187966
 21
354.2971746340176
 31
0.0
 11
163.5431578204366
 21
354.3394244197843
 31
0.0
 11
162.9860498862354
 21
354.3535788960013
 31
0.0
 11
162.4289419520342
 21
354.3394244197843
 31
0.0
 11
161.8788037536742
 21
354.2971746340176
 31
0.0
 11
161.331562978679
 21
354.2264820895568
 31
0.0
 11
160.8048397366893
 21
354.129653189157
 31
0.0
 11
160.2841720665219
 21
354.004003030824
 31
0.0
 11
159.7963856203597
 21
353.8560180180705
 31
0.0
 11
159.3183704123243
 21
353.6786731829051
 31
0.0
 11
158.8836015126843
 21
353.4843655692195
 31
0.0
 11
158.463241729349
 21
353.2602021171912
 31
0.0
 11
158.0936740542612
 21
353.025498208576
 31
0.0
 11
157.7445119582694
 21
352.7609299549963
 31
0.0
 11
157.4501585534992
 21
352.4923701875293
 31
0.0
 11
157.1839558538057
 21
352.1953417316377
 31
0.0
 11
156.9728187585876
 21
351.8995468487363
 31
0.0
 11
156.7991604647768
 21
351.5797484028453
 31
0.0
 11
156.6779913231912
 21
351.2633790043392
 31
0.0
 11
156.6031776932624
 21
350.93258575316
 31
0.0
 11
156.5780470772474
 21
350.603578896001
 31
0.0
 11
156.6031776932624
 21
350.2745720388421
 31
0.0
 11
156.6779913231912
 21
349.943778787663
 31
0.0
 11
156.7991604647768
 21
349.6274093891567
 31
0.0
 11
156.9728187585876
 21
349.3076109432657
 31
0.0
 11
157.1839558538057
 21
349.0118160603641
 31
0.0
 11
157.4501585534992
 21
348.7147876044725
 31
0.0
 11
157.7445119582694
 21
348.4462278370057
 31
0.0
 11
158.0936740542612
 21
348.1816595834263
 31
0.0
 11
158.463241729349
 21
347.946955674811
 31
0.0
 11
158.8836015126843
 21
347.7227922227826
 31
0.0
 11
159.3183704123243
 21
347.528484609097
 31
0.0
 11
159.7963856203597
 21
347.3511397739314
 31
0.0
 11
160.2841720665219
 21
347.2031547611779
 31
0.0
 11
160.8048397366893
 21
347.077504602845
 31
0.0
 11
161.331562978679
 21
346.9806757024452
 31
0.0
 11
161.8788037536742
 21
346.9099831579844
 31
0.0
 11
162.4289419520342
 21
346.8677333722177
 31
0.0
 11
162.9860498862354
 21
346.8535788960007
 31
0.0
 11
163.5431578204367
 21
346.8677333722176
 31
0.0
 11
164.0932960187966
 21
346.9099831579843
 31
0.0
 11
164.6405367937918
 21
346.9806757024451
 31
0.0
 11
165.1672600357816
 21
347.0775046028449
 31
0.0
 11
165.6879277059491
 21
347.2031547611779
 31
0.0
 11
166.1757141521113
 21
347.3511397739315
 31
0.0
 11
166.6537293601467
 21
347.5284846090969
 31
0.0
 11
167.0884982597867
 21
347.7227922227825
 31
0.0
 11
167.5088580431219
 21
347.9469556748109
 31
0.0
 11
167.8784257182096
 21
348.1816595834262
 31
0.0
 11
168.2275878142014
 21
348.4462278370057
 31
0.0
 11
168.5219412189715
 21
348.7147876044725
 31
0.0
 11
168.7881439186651
 21
349.0118160603641
 31
0.0
 11
168.9992810138831
 21
349.3076109432657
 31
0.0
 11
169.172939307694
 21
349.6274093891566
 31
0.0
 11
169.2941084492796
 21
349.9437787876628
 31
0.0
 11
169.3689220792086
 21
350.2745720388421
 31
0.0
 11
169.3940526952237
 21
350.6035788960011
 31
0.0
 11
169.3689220792086
 21
350.93258575316
 31
0.0
  0
ENDBLK
  5
47
330
45
100
AcDbEntity
  8
0
100
AcDbBlockEnd
  0
BLOCK
  5
49
330
48
100
AcDbEntity
  8
0
100
AcDbBlockBegin
  2
32-1-19
 70
     0
 71
     0
 10
-21.85901505515804
 20
507.1004974034588
 30
0.0
  3
32-1-19
  1

  0
LINE
  5
135
330
48
100
AcDbEntity
  8
1
  6
Continuous
 62
     7
100
AcDbLine
 10
183.2360498862354
 20
627.3491873482114
 30
0.0
 11
185.8750644651398
 21
625.8255515706857
 31
0.0
  0
LINE
  5
136
330
48
100
AcDbEntity
  8
1
  6
Continuous
 62
     7
100
AcDbLine
 10
419.7360498862354
 20
282.7988315275725
 30
0.0
 11
419.7360498862354
 21
281.7106517359428
 31
0.0
  0
LINE
  5
137
330
48
100
AcDbEntity
  8
1
  6
Continuous
 62
     7
100
AcDbLine
 10
407.7360498862354
 20
283.2684540755933
 30
0.0
 11
418.2052260812515
 21
283.2684540755933
 31
0.0
  0
LINE
  5
138
330
48
100
AcDbEntity
  8
1
  6
Continuous
 62
     7
100
AcDbLine
 10
155.7360498862355
 20
293.7895406246203
 30
0.0
 11
155.7360498862355
 21
285.4829167617021
 31
0.0
  0
LINE
  5
139
330
48
100
AcDbEntity
  8
1
  6
Continuous
 62
     7
100
AcDbLine
 10
159.7360498862355
 20
281.7106517359428
 30
0.0
 11
159.7360498862355
 21
282.7988315275725
 31
0.0
  0
LINE
  5
13A
330
48
100
AcDbEntity
  8
1
  6
Continuous
 62
     7
100
AcDbLine
 10
161.2668736912194
 20
283.2684540755933
 30
0.0
 11
171.7360498862354
 21
283.2684540755933
 31
0.0
  0
LINE
  5
13B
330
48
100
AcDbEntity
  8
1
  6
Continuous
 62
     7
100
AcDbLine
 10
187.7360498862354
 20
285.4829167617021
 30
0.0
 11
187.7360498862354
 21
293.7895406246203
 31
0.0
  0
LINE
  5
13C
330
48
100
AcDbEntity
  8
1
  6
Continuous
 62
     7
100
AcDbLine
 10
183.7360498862353
 20
282.7988315275725
 30
0.0
 11
183.7360498862353
 21
281.7106517359428
 31
0.0
  0
LINE
  5
13D
330
48
100
AcDbEntity
  8
1
  6
Continuous
 62
     7
100
AcDbLine
 10
156.4360498862354
 20
294.5106517359428
 30
0.0
 11
187.0360498862353
 21
294.5106517359428
 31
0.0
  0
LINE
  5
13E
330
48
100
AcDbEntity
  8
1
  6
Continuous
 62
     7
100
AcDbLine
 10
183.5360498862353
 20
281.5106517359428
 30
0.0
 11
159.9360498862354
 21
281.5106517359428
 31
0.0
  0
LINE
  5
13F
330
48
100
AcDbEntity
  8
1
  6
Continuous
 62
     7
100
AcDbLine
 10
171.7360498862354
 20
283.2684540755933
 30
0.0
 11
182.2052260812514
 21
283.2684540755933
 31
0.0
  0
LINE
  5
140
330
48
100
AcDbEntity
  8
1
  6
Continuous
 62
     7
100
AcDbLine
 10
395.7360498862354
 20
281.7106517359428
 30
0.0
 11
395.7360498862354
 21
282.7988315275725
 31
0.0
  0
LINE
  5
141
330
48
100
AcDbEntity
  8
1
  6
Continuous
 62
     7
100
AcDbLine
 10
392.4360498862354
 20
294.5106517359428
 30
0.0
 11
423.0360498862353
 21
294.5106517359428
 31
0.0
  0
LINE
  5
142
330
48
100
AcDbEntity
  8
1
  6
Continuous
 62
     7
100
AcDbLine
 10
419.5360498862353
 20
281.5106517359428
 30
0.0
 11
395.9360498862354
 21
281.5106517359428
 31
0.0
  0
LINE
  5
143
330
48
100
AcDbEntity
  8
1
  6
Continuous
 62
     7
100
AcDbLine
 10
185.8750644651398
 20
605.2014620889626
 30
0.0
 11
173.597035307331
 21
598.1127386495837
 31
0.0
  0
LINE
  5
144
330
48
100
AcDbEntity
  8
1
  6
Continuous
 62
     7
100
AcDbLine
 10
187.7360498862354
 20
622.602230269203
 30
0.0
 11
187.7360498862354
 21
608.4247833904452
 31
0.0
  0
LINE
  5
145
330
48
100
AcDbEntity
  8
1
  6
Continuous
 62
     7
100
AcDbLine
 10
157.597035307331
 20
625.8255515706857
 30
0.0
 11
160.2360498862354
 21
627.3491873482114
 31
0.0
  0
LINE
  5
146
330
48
100
AcDbEntity
  8
1
  6
Continuous
 62
     7
100
AcDbLine
 10
155.7360498862354
 20
608.4247833904452
 30
0.0
 11
155.7360498862354
 21
622.602230269203
 31
0.0
  0
LINE
  5
147
330
48
100
AcDbEntity
  8
1
  6
Continuous
 62
     7
100
AcDbLine
 10
169.8750644651398
 20
598.1127386495837
 30
0.0
 11
157.597035307331
 21
605.2014620889626
 31
0.0
  0
LINE
  5
148
330
48
100
AcDbEntity
  8
1
  6
Continuous
 62
     7
100
AcDbLine
 10
397.2668736912193
 20
283.2684540755933
 30
0.0
 11
407.7360498862354
 21
283.2684540755933
 31
0.0
  0
ARC
  5
149
330
48
100
AcDbEntity
  8
1
  6
Continuous
 62
     7
100
AcDbCircle
 10
418.7360498862354
 20
289.6362286931611
 30
0.0
 40
6.500000000000005
100
AcDbArc
 50
-77.62637488381073
 51
48.58268958187888
  0
ARC
  5
14A
330
48
100
AcDbEntity
  8
1
  6
Continuous
 62
     7
100
AcDbCircle
 10
160.7360498862355
 20
289.6362286931611
 30
0.0
 40
6.499999999999995
100
AcDbArc
 50
-140.2848627681738
 51
-102.373625116189
  0
ARC
  5
14B
330
48
100
AcDbEntity
  8
1
  6
Continuous
 62
     7
100
AcDbCircle
 10
160.7360498862355
 20
289.6362286931611
 30
0.0
 40
6.500000000000157
100
AcDbArc
 50
131.4173104181224
 51
140.2848627681727
  0
ARC
  5
14C
330
48
100
AcDbEntity
  8
1
  6
Continuous
 62
     7
100
AcDbCircle
 10
182.7360498862353
 20
289.6362286931611
 30
0.0
 40
6.499999999999999
100
AcDbArc
 50
-77.62637488381097
 51
-39.71513723182552
  0
ARC
  5
14D
330
48
100
AcDbEntity
  8
1
  6
Continuous
 62
     7
100
AcDbCircle
 10
182.7360498862353
 20
289.6362286931611
 30
0.0
 40
6.500000000000191
100
AcDbArc
 50
39.71513723182667
 51
48.58268958187813
  0
ARC
  5
14E
330
48
100
AcDbEntity
  8
1
  6
Continuous
 62
     7
100
AcDbCircle
 10
396.7360498862354
 20
289.6362286931611
 30
0.0
 40
6.500000000000063
100
AcDbArc
 50
131.4173104181215
 51
-102.3736251161878
  0
ARC
  5
14F
330
48
100
AcDbEntity
  8
1
  6
Continuous
 62
     7
100
AcDbCircle
 10
171.7360498862354
 20
615.5135068298241
 30
0.0
 40
17.50000000000003
100
AcDbArc
 50
-36.1044918138384
 51
-23.89550818616144
  0
ARC
  5
150
330
48
100
AcDbEntity
  8
1
  6
Continuous
 62
     7
100
AcDbCircle
 10
171.7360498862354
 20
615.5135068298241
 30
0.0
 40
17.49999999999999
100
AcDbArc
 50
23.89550818616144
 51
36.1044918138384
  0
ARC
  5
151
330
48
100
AcDbEntity
  8
1
  6
Continuous
 62
     7
100
AcDbCircle
 10
171.7360498862354
 20
615.5135068298241
 30
0.0
 40
17.50000000000005
100
AcDbArc
 50
143.8955081861617
 51
156.1044918138386
  0
ARC
  5
152
330
48
100
AcDbEntity
  8
1
  6
Continuous
 62
     7
100
AcDbCircle
 10
171.7360498862354
 20
615.5135068298241
 30
0.0
 40
17.49999999999999
100
AcDbArc
 50
-156.1044918138386
 51
-143.8955081861617
  0
ARC
  5
153
330
48
100
AcDbEntity
  8
1
  6
Continuous
 62
     7
100
AcDbCircle
 10
171.7360498862354
 20
615.5135068298241
 30
0.0
 40
17.49999999999997
100
AcDbArc
 50
-96.10449181383838
 51
-83.89550818616172
  0
SPLINE
  5
154
330
48
100
AcDbEntity
  8
1
  6
Continuous
 62
     7
100
AcDbSpline
210
0.0
220
0.0
230
1.0
 70
    11
 71
     3
 72
    79
 73
    75
 74
    73
 42
0.0000000001
 43
0.0000000001
 44
0.00000001
 40
0.0
 40
0.0
 40
0.0
 40
0.0
 40
0.3113974559424378
 40
0.6227604312642949
 40
0.9388848255702734
 40
1.254949283462454
 40
1.578173855363602
 40
1.901326482999293
 40
2.233053332840965
 40
2.564708711828245
 40
2.905253952866857
 40
3.245736834267365
 40
3.594369021339773
 40
3.942952653749239
 40
4.298042695391509
 40
4.653099962686427
 40
5.012341057300069
 40
5.371565729290778
 40
5.732232184612624
 40
6.092898639934582
 40
6.452123311925297
 40
6.811364406538995
 40
7.166421673833843
 40
7.521511715476112
 40
7.870095347885682
 40
8.21872753495809
 40
8.559210416358519
 40
8.899755657397122
 40
9.231411036384442
 40
9.563137886226075
 40
9.886290513861844
 40
10.20951508576295
 40
10.5255795436552
 40
10.84170393796115
 40
11.15306691328299
 40
11.46446436922543
 40
11.77419121958941
 40
12.0839180699534
 40
12.39531552589595
 40
12.70667850121779
 40
13.02280289552368
 40
13.33886735341596
 40
13.66209192531703
 40
13.98524455295276
 40
14.31697140279444
 40
14.64862678178175
 40
14.98917202282032
 40
15.32965490422083
 40
15.67828709129332
 40
16.02687072370278
 40
16.38196076534505
 40
16.7370180326399
 40
17.09625912725368
 40
17.45548379924437
 40
17.81615025456622
 40
18.17681670988801
 40
18.53604138187884
 40
18.89528247649249
 40
19.25033974378734
 40
19.60542978542966
 40
19.95401341783918
 40
20.30264560491162
 40
20.64312848631213
 40
20.98367372735065
 40
21.31532910633797
 40
21.64705595617968
 40
21.97020858381547
 40
22.29343315571659
 40
22.6094976136088
 40
22.92562200791467
 40
23.23698498323643
 40
23.54838243917904
 40
23.85810928954303
 40
24.16783613990702
 40
24.16783613990702
 40
24.16783613990702
 40
24.16783613990702
 10
421.2831362796604
 20
293.7736718531002
 30
0.0
 10
421.1801371166166
 20
293.7600893622612
 30
0.0
 10
420.9741501954876
 20
293.7329258845543
 30
0.0
 10
420.6709660132763
 20
293.6521431056235
 30
0.0
 10
420.3753451307504
 20
293.5436112489319
 30
0.0
 10
420.0884690890814
 20
293.4040781659998
 30
0.0
 10
419.8140908152758
 20
293.2369259262271
 30
0.0
 10
419.5525030481793
 20
293.0415504212347
 30
0.0
 10
419.3075441388543
 20
292.8214857298339
 30
0.0
 10
419.0791913165957
 20
292.5762887427284
 30
0.0
 10
418.8708951666619
 20
292.3101323520911
 30
0.0
 10
418.6826193718782
 20
292.0226994355082
 30
0.0
 10
418.5171181616627
 20
291.7185276888421
 30
0.0
 10
418.3745024257644
 20
291.3976651676192
 30
0.0
 10
418.2566796034921
 20
291.0646237699015
 30
0.0
 10
418.1639128042626
 20
290.7200874429967
 30
0.0
 10
418.0972738381108
 20
290.3681575885008
 30
0.0
 10
418.057045903005
 20
290.0103661978249
 30
0.0
 10
418.0436100254264
 20
289.6500961802828
 30
0.0
 10
418.0570459030045
 20
289.2898261627333
 30
0.0
 10
418.0972738381126
 20
288.9320347720794
 30
0.0
 10
418.1639128042561
 20
288.5801049175032
 30
0.0
 10
418.256679603516
 20
288.2355685908945
 30
0.0
 10
418.3745024256758
 20
287.902527192081
 30
0.0
 10
418.517118161986
 20
287.5816646748756
 30
0.0
 10
418.6826193706816
 20
287.2774929133881
 30
0.0
 10
418.8708951710125
 20
286.9900600508863
 30
0.0
 10
419.0791913005215
 20
286.7239034611321
 30
0.0
 10
419.3075441971108
 20
286.4787071986619
 30
0.0
 10
419.5525028328952
 20
286.2586398405653
 30
0.0
 10
419.8140915957604
 20
286.0632740431268
 30
0.0
 10
420.0884662002917
 20
285.8960860323257
 30
0.0
 10
420.3753556477539
 20
285.7566836398121
 30
0.0
 10
420.6709269755797
 20
285.6476686841689
 30
0.0
 10
420.974293458883
 20
285.5686631224742
 30
0.0
 10
421.2820499113636
 20
285.5213895470836
 30
0.0
 10
421.5924563467864
 20
285.5052972708371
 30
0.0
 10
421.9028627822095
 20
285.5213895470836
 30
0.0
 10
422.2106192346899
 20
285.5686631224742
 30
0.0
 10
422.5139857179932
 20
285.6476686841691
 30
0.0
 10
422.8095570458192
 20
285.756683639812
 30
0.0
 10
423.096446493281
 20
285.8960860323259
 30
0.0
 10
423.3708210978125
 20
286.0632740431269
 30
0.0
 10
423.6324098606776
 20
286.2586398405652
 30
0.0
 10
423.8773684964621
 20
286.478707198662
 30
0.0
 10
424.1057213930514
 20
286.7239034611321
 30
0.0
 10
424.3140175225603
 20
286.9900600508864
 30
0.0
 10
424.5022933228916
 20
287.2774929133881
 30
0.0
 10
424.6677945315868
 20
287.5816646748758
 30
0.0
 10
424.8104102678972
 20
287.902527192081
 30
0.0
 10
424.9282330900568
 20
288.2355685908943
 30
0.0
 10
425.0209998893169
 20
288.5801049175032
 30
0.0
 10
425.0876388554606
 20
288.9320347720793
 30
0.0
 10
425.1278667905685
 20
289.2898261627337
 30
0.0
 10
425.1413026681466
 20
289.6500961802816
 30
0.0
 10
425.1278667905685
 20
290.010366197829
 30
0.0
 10
425.0876388554604
 20
290.3681575884849
 30
0.0
 10
425.0209998893174
 20
290.7200874430553
 30
0.0
 10
424.9282330900553
 20
291.0646237696853
 30
0.0
 10
424.8104102679036
 20
291.3976651684203
 30
0.0
 10
424.6677945315636
 20
291.7185276859132
 30
0.0
 10
424.5022933229773
 20
292.0226994463396
 30
0.0
 10
424.3140175222487
 20
292.3101323127136
 30
0.0
 10
424.1057213942023
 20
292.5762888882106
 30
0.0
 10
423.8773684922908
 20
292.8214852025663
 30
0.0
 10
423.6324098760924
 20
293.0415523697219
 30
0.0
 10
423.3708210419281
 20
293.236918862242
 30
0.0
 10
423.0964467001246
 20
293.4041043117613
 30
0.0
 10
422.8095562927794
 20
293.5435160619869
 30
0.0
 10
422.5139885131753
 20
293.6524964267179
 30
0.0
 10
422.2106089767264
 20
293.7316292409445
 30
0.0
 10
421.9029010028229
 20
293.7784302082886
 30
0.0
 10
421.5923145525189
 20
293.7962774139546
 30
0.0
 10
421.3861957039467
 20
293.7812070400517
 30
0.0
 10
421.2831362796604
 20
293.7736718531002
 30
0.0
 11
421.2831362796604
 21
293.7736718531002
 31
0.0
 11
420.9753602902977
 21
293.7263187545825
 31
0.0
 11
420.6739887785026
 21
293.6480748137334
 31
0.0
 11
420.3773881030768
 21
293.5387008131102
 31
0.0
 11
420.0929907850811
 21
293.4008062626033
 31
0.0
 11
419.816921772702
 21
293.23269908166
 31
0.0
 11
419.5578484677662
 21
293.0395446268382
 31
0.0
 11
419.310983832065
 21
292.8179581774647
 31
0.0
 11
419.0847760802692
 21
292.5754188127448
 31
0.0
 11
418.8747708674318
 21
292.3073351098176
 31
0.0
 11
418.6880399154478
 21
292.0226244775997
 31
0.0
 11
418.5212876374287
 21
291.7164577262397
 31
0.0
 11
418.3795699961206
 21
291.3979822029638
 31
0.0
 11
418.2610329903151
 21
291.063261549391
 31
0.0
 11
418.1686301617523
 21
290.7204388833777
 31
0.0
 11
418.1017269678373
 21
290.3674826159688
 31
0.0
 11
418.0615529718303
 21
290.0105114476489
 31
0.0
 11
418.048094627097
 21
289.6500961802816
 31
0.0
 11
418.0615529718303
 21
289.2896809129142
 31
0.0
 11
418.1017269678373
 21
288.9327097445943
 31
0.0
 11
418.1686301617523
 21
288.5797534771854
 31
0.0
 11
418.2610329903151
 21
288.236930811172
 31
0.0
 11
418.3795699961205
 21
287.9022101575993
 31
0.0
 11
418.5212876374286
 21
287.5837346343233
 31
0.0
 11
418.6880399154478
 21
287.2775678829633
 31
0.0
 11
418.8747708674317
 21
286.9928572507454
 31
0.0
 11
419.0847760802691
 21
286.7247735478182
 31
0.0
 11
419.310983832065
 21
286.4822341830984
 31
0.0
 11
419.5578484677662
 21
286.260647733725
 31
0.0
 11
419.816921772702
 21
286.067493278903
 31
0.0
 11
420.0929907850811
 21
285.8993860979598
 31
0.0
 11
420.3773881030769
 21
285.7614915474528
 31
0.0
 11
420.6739887785026
 21
285.6521175468296
 31
0.0
 11
420.9753602902977
 21
285.5738736059806
 31
0.0
 11
421.2831362796604
 21
285.5265205074629
 31
0.0
 11
421.5924563467864
 21
285.5106517359428
 31
0.0
 11
421.9017764139124
 21
285.5265205074629
 31
0.0
 11
422.2095524032753
 21
285.5738736059806
 31
0.0
 11
422.5109239150704
 21
285.6521175468296
 31
0.0
 11
422.807524590496
 21
285.7614915474528
 31
0.0
 11
423.0919219084918
 21
285.8993860979599
 31
0.0
 11
423.3679909208709
 21
286.067493278903
 31
0.0
 11
423.6270642258066
 21
286.260647733725
 31
0.0
 11
423.873928861508
 21
286.4822341830984
 31
0.0
 11
424.1001366133038
 21
286.7247735478182
 31
0.0
 11
424.3101418261412
 21
286.9928572507454
 31
0.0
 11
424.4968727781252
 21
287.2775678829634
 31
0.0
 11
424.6636250561444
 21
287.5837346343234
 31
0.0
 11
424.8053426974525
 21
287.9022101575993
 31
0.0
 11
424.9238797032579
 21
288.236930811172
 31
0.0
 11
425.0162825318207
 21
288.5797534771854
 31
0.0
 11
425.0831857257358
 21
288.9327097445943
 31
0.0
 11
425.1233597217426
 21
289.2896809129142
 31
0.0
 11
425.1368180664761
 21
289.6500961802815
 31
0.0
 11
425.1233597217427
 21
290.0105114476488
 31
0.0
 11
425.0831857257358
 21
290.3674826159688
 31
0.0
 11
425.0162825318207
 21
290.7204388833777
 31
0.0
 11
424.9238797032579
 21
291.063261549391
 31
0.0
 11
424.8053426974525
 21
291.3979822029638
 31
0.0
 11
424.6636250561444
 21
291.7164577262398
 31
0.0
 11
424.4968727781252
 21
292.0226244775997
 31
0.0
 11
424.3101418261412
 21
292.3073351098176
 31
0.0
 11
424.1001366133038
 21
292.5754188127448
 31
0.0
 11
423.873928861508
 21
292.8179581774646
 31
0.0
 11
423.6270642258066
 21
293.0395446268381
 31
0.0
 11
423.3679909208709
 21
293.2326990816601
 31
0.0
 11
423.0919219084918
 21
293.4008062626033
 31
0.0
 11
422.807524590496
 21
293.5387008131103
 31
0.0
 11
422.5109239150704
 21
293.6480748137335
 31
0.0
 11
422.2095524032753
 21
293.7263187545824
 31
0.0
 11
421.9017764139124
 21
293.7736718531002
 31
0.0
 11
421.5924563467864
 21
293.7895406246203
 31
0.0
 11
421.2831362796604
 21
293.7736718531002
 31
0.0
  0
SPLINE
  5
155
330
48
100
AcDbEntity
  8
1
  6
Continuous
 62
     7
100
AcDbSpline
210
0.0
220
0.0
230
1.0
 70
    11
 71
     3
 72
    79
 73
    75
 74
    73
 42
0.0000000001
 43
0.0000000001
 44
0.00000001
 40
0.0
 40
0.0
 40
0.0
 40
0.0
 40
0.3113974559424378
 40
0.62276043126435
 40
0.9388848255702218
 40
1.254949283462505
 40
1.578173855363653
 40
1.901326482999298
 40
2.233053332841012
 40
2.564708711828331
 40
2.905253952866943
 40
3.245736834267451
 40
3.594369021339886
 40
3.942952653749352
 40
4.298042695391621
 40
4.653099962686524
 40
5.012341057300177
 40
5.37156572929088
 40
5.732232184612726
 40
6.092898639934688
 40
6.452123311925385
 40
6.811364406539093
 40
7.166421673833941
 40
7.52151171547623
 40
7.870095347885799
 40
8.218727534958235
 40
8.559210416358727
 40
8.899755657397259
 40
9.231411036384579
 40
9.563137886226212
 40
9.886290513861891
 40
10.20951508576309
 40
10.52557954365524
 40
10.84170393796119
 40
11.15306691328308
 40
11.46446436922558
 40
11.77419121958956
 40
12.08391806995349
 40
12.39531552589599
 40
12.70667850121777
 40
13.02280289552367
 40
13.338867353416
 40
13.66209192531712
 40
13.98524455295289
 40
14.31697140279448
 40
14.64862678178183
 40
14.98917202282044
 40
15.32965490422095
 40
15.6782870912934
 40
16.02687072370289
 40
16.38196076534518
 40
16.73701803264004
 40
17.0962591272538
 40
17.45548379924449
 40
17.81615025456634
 40
18.17681670988813
 40
18.53604138187894
 40
18.89528247649258
 40
19.25033974378744
 40
19.60542978542978
 40
19.95401341783932
 40
20.30264560491173
 40
20.64312848631227
 40
20.98367372735079
 40
21.31532910633811
 40
21.64705595617978
 40
21.97020858381553
 40
22.29343315571675
 40
22.609497613609
 40
22.92562200791493
 40
23.23698498323674
 40
23.54838243917919
 40
23.85810928954312
 40
24.16783613990711
 40
24.16783613990711
 40
24.16783613990711
 40
24.16783613990711
 10
394.1889634928103
 20
293.7736718531002
 30
0.0
 10
394.2919626558542
 20
293.7600893622613
 30
0.0
 10
394.4979495769832
 20
293.7329258845543
 30
0.0
 10
394.8011337591945
 20
293.6521431056235
 30
0.0
 10
395.0967546417203
 20
293.5436112489319
 30
0.0
 10
395.3836306833892
 20
293.4040781659997
 30
0.0
 10
395.6580089571951
 20
293.2369259262271
 30
0.0
 10
395.9195967242913
 20
293.0415504212347
 30
0.0
 10
396.1645556336167
 20
292.8214857298338
 30
0.0
 10
396.3929084558752
 20
292.5762887427283
 30
0.0
 10
396.601204605809
 20
292.3101323520911
 30
0.0
 10
396.7894804005927
 20
292.0226994355082
 30
0.0
 10
396.9549816108083
 20
291.7185276888421
 30
0.0
 10
397.0975973467067
 20
291.3976651676192
 30
0.0
 10
397.2154201689786
 20
291.0646237699015
 30
0.0
 10
397.3081869682083
 20
290.7200874429966
 30
0.0
 10
397.3748259343602
 20
290.3681575885009
 30
0.0
 10
397.4150538694659
 20
290.0103661978248
 30
0.0
 10
397.4284897470445
 20
289.6500961802827
 30
0.0
 10
397.4150538694663
 20
289.2898261627335
 30
0.0
 10
397.3748259343584
 20
288.9320347720794
 30
0.0
 10
397.3081869682148
 20
288.5801049175032
 30
0.0
 10
397.2154201689548
 20
288.2355685908943
 30
0.0
 10
397.0975973467951
 20
287.902527192081
 30
0.0
 10
396.9549816104847
 20
287.5816646748758
 30
0.0
 10
396.7894804017894
 20
287.277492913388
 30
0.0
 10
396.601204601458
 20
286.9900600508864
 30
0.0
 10
396.3929084719493
 20
286.7239034611322
 30
0.0
 10
396.1645555753599
 20
286.4787071986619
 30
0.0
 10
395.9195969395755
 20
286.2586398405653
 30
0.0
 10
395.6580081767104
 20
286.0632740431267
 30
0.0
 10
395.3836335721789
 20
285.8960860323257
 30
0.0
 10
395.0967441247172
 20
285.756683639812
 30
0.0
 10
394.801172796891
 20
285.647668684169
 30
0.0
 10
394.4978063135881
 20
285.5686631224743
 30
0.0
 10
394.1900498611072
 20
285.5213895470836
 30
0.0
 10
393.8796434256843
 20
285.5052972708371
 30
0.0
 10
393.5692369902614
 20
285.5213895470836
 30
0.0
 10
393.2614805377808
 20
285.5686631224742
 30
0.0
 10
392.9581140544779
 20
285.6476686841689
 30
0.0
 10
392.6625427266516
 20
285.756683639812
 30
0.0
 10
392.3756532791899
 20
285.8960860323259
 30
0.0
 10
392.1012786746582
 20
286.0632740431267
 30
0.0
 10
391.8396899117932
 20
286.2586398405653
 30
0.0
 10
391.5947312760087
 20
286.4787071986619
 30
0.0
 10
391.3663783794194
 20
286.7239034611322
 30
0.0
 10
391.1580822499104
 20
286.9900600508864
 30
0.0
 10
390.9698064495792
 20
287.2774929133881
 30
0.0
 10
390.8043052408841
 20
287.5816646748758
 30
0.0
 10
390.6616895045735
 20
287.902527192081
 30
0.0
 10
390.5438666824138
 20
288.2355685908944
 30
0.0
 10
390.4510998831536
 20
288.5801049175032
 30
0.0
 10
390.3844609170102
 20
288.9320347720794
 30
0.0
 10
390.3442329819023
 20
289.2898261627337
 30
0.0
 10
390.3307971043242
 20
289.6500961802815
 30
0.0
 10
390.3442329819023
 20
290.0103661978291
 30
0.0
 10
390.3844609170104
 20
290.3681575884849
 30
0.0
 10
390.4510998831532
 20
290.7200874430554
 30
0.0
 10
390.5438666824155
 20
291.0646237696853
 30
0.0
 10
390.6616895045671
 20
291.3976651684202
 30
0.0
 10
390.8043052409072
 20
291.7185276859132
 30
0.0
 10
390.9698064494934
 20
292.0226994463396
 30
0.0
 10
391.158082250222
 20
292.3101323127136
 30
0.0
 10
391.3663783782685
 20
292.5762888882106
 30
0.0
 10
391.59473128018
 20
292.8214852025662
 30
0.0
 10
391.8396898963783
 20
293.0415523697219
 30
0.0
 10
392.1012787305426
 20
293.2369188622421
 30
0.0
 10
392.3756530723464
 20
293.4041043117613
 30
0.0
 10
392.6625434796914
 20
293.5435160619868
 30
0.0
 10
392.9581112592957
 20
293.6524964267179
 30
0.0
 10
393.2614907957443
 20
293.7316292409444
 30
0.0
 10
393.5691987696481
 20
293.7784302082887
 30
0.0
 10
393.8797852199517
 20
293.7962774139546
 30
0.0
 10
394.0859040685241
 20
293.7812070400516
 30
0.0
 10
394.1889634928103
 20
293.7736718531002
 30
0.0
 11
394.1889634928103
 21
293.7736718531002
 31
0.0
 11
394.496739482173
 21
293.7263187545825
 31
0.0
 11
394.7981109939682
 21
293.6480748137334
 31
0.0
 11
395.0947116693939
 21
293.5387008131102
 31
0.0
 11
395.3791089873897
 21
293.4008062626033
 31
0.0
 11
395.6551779997689
 21
293.23269908166
 31
0.0
 11
395.9142513047045
 21
293.0395446268382
 31
0.0
 11
396.1611159404059
 21
292.8179581774647
 31
0.0
 11
396.3873236922017
 21
292.5754188127448
 31
0.0
 11
396.597328905039
 21
292.3073351098176
 31
0.0
 11
396.7840598570231
 21
292.0226244775997
 31
0.0
 11
396.9508121350423
 21
291.7164577262397
 31
0.0
 11
397.0925297763504
 21
291.3979822029638
 31
0.0
 11
397.2110667821558
 21
291.063261549391
 31
0.0
 11
397.3034696107186
 21
290.7204388833777
 31
0.0
 11
397.3703728046336
 21
290.3674826159688
 31
0.0
 11
397.4105468006405
 21
290.0105114476489
 31
0.0
 11
397.4240051453739
 21
289.6500961802816
 31
0.0
 11
397.4105468006405
 21
289.2896809129142
 31
0.0
 11
397.3703728046336
 21
288.9327097445943
 31
0.0
 11
397.3034696107186
 21
288.5797534771854
 31
0.0
 11
397.2110667821558
 21
288.236930811172
 31
0.0
 11
397.0925297763503
 21
287.9022101575993
 31
0.0
 11
396.9508121350422
 21
287.5837346343233
 31
0.0
 11
396.784059857023
 21
287.2775678829633
 31
0.0
 11
396.5973289050389
 21
286.9928572507454
 31
0.0
 11
396.3873236922016
 21
286.7247735478182
 31
0.0
 11
396.1611159404058
 21
286.4822341830984
 31
0.0
 11
395.9142513047045
 21
286.260647733725
 31
0.0
 11
395.6551779997689
 21
286.067493278903
 31
0.0
 11
395.3791089873897
 21
285.8993860979598
 31
0.0
 11
395.094711669394
 21
285.7614915474528
 31
0.0
 11
394.7981109939683
 21
285.6521175468296
 31
0.0
 11
394.4967394821731
 21
285.5738736059806
 31
0.0
 11
394.1889634928103
 21
285.5265205074629
 31
0.0
 11
393.8796434256843
 21
285.5106517359428
 31
0.0
 11
393.5703233585584
 21
285.5265205074629
 31
0.0
 11
393.2625473691956
 21
285.5738736059806
 31
0.0
 11
392.9611758574005
 21
285.6521175468296
 31
0.0
 11
392.6645751819749
 21
285.7614915474528
 31
0.0
 11
392.380177863979
 21
285.8993860979599
 31
0.0
 11
392.1041088515999
 21
286.067493278903
 31
0.0
 11
391.8450355466641
 21
286.260647733725
 31
0.0
 11
391.5981709109629
 21
286.4822341830984
 31
0.0
 11
391.371963159167
 21
286.7247735478182
 31
0.0
 11
391.1619579463296
 21
286.9928572507454
 31
0.0
 11
390.9752269943456
 21
287.2775678829634
 31
0.0
 11
390.8084747163264
 21
287.5837346343234
 31
0.0
 11
390.6667570750183
 21
287.9022101575993
 31
0.0
 11
390.5482200692128
 21
288.236930811172
 31
0.0
 11
390.4558172406499
 21
288.5797534771854
 31
0.0
 11
390.388914046735
 21
288.9327097445943
 31
0.0
 11
390.3487400507281
 21
289.2896809129142
 31
0.0
 11
390.3352817059948
 21
289.6500961802815
 31
0.0
 11
390.3487400507281
 21
290.0105114476488
 31
0.0
 11
390.388914046735
 21
290.3674826159688
 31
0.0
 11
390.4558172406499
 21
290.7204388833777
 31
0.0
 11
390.5482200692128
 21
291.063261549391
 31
0.0
 11
390.6667570750183
 21
291.3979822029638
 31
0.0
 11
390.8084747163264
 21
291.7164577262398
 31
0.0
 11
390.9752269943456
 21
292.0226244775997
 31
0.0
 11
391.1619579463297
 21
292.3073351098176
 31
0.0
 11
391.371963159167
 21
292.5754188127448
 31
0.0
 11
391.5981709109628
 21
292.8179581774646
 31
0.0
 11
391.8450355466641
 21
293.0395446268381
 31
0.0
 11
392.1041088515998
 21
293.2326990816601
 31
0.0
 11
392.380177863979
 21
293.4008062626033
 31
0.0
 11
392.6645751819748
 21
293.5387008131103
 31
0.0
 11
392.9611758574005
 21
293.6480748137335
 31
0.0
 11
393.2625473691957
 21
293.7263187545824
 31
0.0
 11
393.5703233585584
 21
293.7736718531002
 31
0.0
 11
393.8796434256843
 21
293.7895406246203
 31
0.0
 11
394.1889634928103
 21
293.7736718531002
 31
0.0
  0
SPLINE
  5
156
330
48
100
AcDbEntity
  8
1
  6
Continuous
 62
     7
100
AcDbSpline
210
0.0
220
0.0
230
1.0
 70
    11
 71
     3
 72
    79
 73
    75
 74
    73
 42
0.0000000001
 43
0.0000000001
 44
0.00000001
 40
0.0
 40
0.0
 40
0.0
 40
0.0
 40
0.3744546876265459
 40
0.7484987740221549
 40
1.150449935852303
 40
1.551858342535476
 40
1.992611583348107
 40
2.432917253486783
 40
2.917187042454992
 40
3.401147822834019
 40
3.927925644324502
 40
4.454503566425297
 40
5.018389237894208
 40
5.582150759023897
 40
6.174603673452004
 40
6.76698485490474
 40
7.377370866462072
 40
7.987724044426755
 40
8.604207966273114
 40
9.220691888119587
 40
9.831045066084148
 40
10.44143107764138
 40
11.03381225909406
 40
11.62626517352233
 40
12.19002669465204
 40
12.753912366121
 40
13.28049028822161
 40
13.80726810971214
 40
14.29122889009117
 40
14.77549867905935
 40
15.21580434919814
 40
15.65655759001078
 40
16.05796599669395
 40
16.45991715852415
 40
16.83396124491969
 40
17.20841593254625
 40
17.57266900162813
 40
17.93692207071002
 40
18.31137675833656
 40
18.68542084473215
 40
19.08737200656228
 40
19.4887804132455
 40
19.9295336540581
 40
20.3698393241969
 40
20.85410911316516
 40
21.33806989354413
 40
21.86484771503457
 40
22.39142563713529
 40
22.95531130860424
 40
23.51907282973391
 40
24.11152574416218
 40
24.70390692561487
 40
25.31429293717222
 40
25.92464611513672
 40
26.54113003698313
 40
27.15761395882961
 40
27.76796713679423
 40
28.37835314835157
 40
28.9707343298042
 40
29.56318724423243
 40
30.12694876536209
 40
30.69083443683102
 40
31.21741235893174
 40
31.74419018042219
 40
32.22815096080128
 40
32.71242074976958
 40
33.1527264199083
 40
33.59347966072093
 40
33.99488806740412
 40
34.39683922923425
 40
34.77088331562983
 40
35.14533800325642
 40
35.50959107233836
 40
35.87384414142019
 40
35.87384414142019
 40
35.87384414142019
 40
35.87384414142019
 10
414.796968155426
 20
290.0132864483868
 30
0.0
 10
414.7731238753884
 20
290.1360488335482
 30
0.0
 10
414.725461461309
 20
290.3814389910909
 30
0.0
 10
414.5831702198245
 20
290.7395946462885
 30
0.0
 10
414.3953138412567
 20
291.0850729861031
 30
0.0
 10
414.1522043491615
 20
291.4223035430076
 30
0.0
 10
413.8652540682609
 20
291.7402350926811
 30
0.0
 10
413.527546592665
 20
292.0463091263036
 30
0.0
 10
413.1518850638728
 20
292.3289750377536
 30
0.0
 10
412.7301546404376
 20
292.5953634040428
 30
0.0
 10
412.2769258371782
 20
292.835496510457
 30
0.0
 10
411.7840323805997
 20
293.0547473470128
 30
0.0
 10
411.2663257894208
 20
293.2456610108808
 30
0.0
 10
410.7171565869826
 20
293.4115659536101
 30
0.0
 10
410.1500673068442
 20
293.547621290248
 30
0.0
 10
409.5611752601463
 20
293.6554747472508
 30
0.0
 10
408.961443414667
 20
293.7324750464828
 30
0.0
 10
408.3505610762131
 20
293.7792727953191
 30
0.0
 10
407.736049886239
 20
293.7947139510972
 30
0.0
 10
407.1215386962434
 20
293.7792727953208
 30
0.0
 10
406.5106563578532
 20
293.7324750464755
 30
0.0
 10
405.9109245121438
 20
293.6554747472785
 30
0.0
 10
405.322032466279
 20
293.5476212901477
 30
0.0
 10
404.7549431831017
 20
293.4115659539769
 30
0.0
 10
404.2057739914787
 20
293.2456610095856
 30
0.0
 10
403.6880673612362
 20
293.0547473517207
 30
0.0
 10
403.1951740412642
 20
292.8354964941717
 30
0.0
 10
402.7419447490848
 20
292.5953634628925
 30
0.0
 10
402.3202160096326
 20
292.3289748378169
 30
0.0
 10
401.9445484938775
 20
292.0463098464145
 30
0.0
 10
401.6068614440584
 20
291.7402326738573
 30
0.0
 10
401.3198386515976
 20
291.4223122674102
 30
0.0
 10
401.0769770082935
 20
291.0850436222996
 30
0.0
 10
400.8882341383645
 20
290.7397015141999
 30
0.0
 10
400.7490353905238
 20
290.381070619501
 30
0.0
 10
400.6669059628287
 20
290.0179948867064
 30
0.0
 10
400.637671886282
 20
289.6500961802815
 30
0.0
 10
400.6669059628285
 20
289.2821974738567
 30
0.0
 10
400.7490353905239
 20
288.919121741062
 30
0.0
 10
400.8882341383644
 20
288.5604908463632
 30
0.0
 10
401.0769770082934
 20
288.2151487382634
 30
0.0
 10
401.3198386515977
 20
287.8778800931529
 30
0.0
 10
401.6068614440583
 20
287.5599596867057
 30
0.0
 10
401.9445484938776
 20
287.2538825141487
 30
0.0
 10
402.3202160096327
 20
286.971217522746
 30
0.0
 10
402.7419447490848
 20
286.7048288976707
 30
0.0
 10
403.1951740412642
 20
286.4646958663913
 30
0.0
 10
403.6880673612363
 20
286.2454450088424
 30
0.0
 10
404.2057739914785
 20
286.0545313509775
 30
0.0
 10
404.754943183102
 20
285.8886264065861
 30
0.0
 10
405.3220324662789
 20
285.7525710704154
 30
0.0
 10
405.9109245121438
 20
285.6447176132843
 30
0.0
 10
406.510656357853
 20
285.5677173140875
 30
0.0
 10
407.1215386962443
 20
285.5209195652419
 30
0.0
 10
407.7360498862357
 20
285.5054784094664
 30
0.0
 10
408.3505610762254
 20
285.5209195652419
 30
0.0
 10
408.9614434146214
 20
285.5677173140881
 30
0.0
 10
409.5611752603143
 20
285.6447176132824
 30
0.0
 10
410.1500673062382
 20
285.7525710704225
 30
0.0
 10
410.7171565892
 20
285.8886264065602
 30
0.0
 10
411.2663257815889
 20
286.0545313510692
 30
0.0
 10
411.7840324090657
 20
286.245445008509
 30
0.0
 10
412.2769257387092
 20
286.4646958675442
 30
0.0
 10
412.7301549962735
 20
286.7048288935039
 30
0.0
 10
413.1518838549511
 20
286.9712175369015
 30
0.0
 10
413.5275509468306
 20
287.253882463165
 30
0.0
 10
413.8652394427906
 20
287.5599598579581
 30
0.0
 10
414.1522571014478
 20
287.8778794754667
 30
0.0
 10
414.3951362923949
 20
288.2151508172147
 30
0.0
 10
414.58381639892
 20
288.5604832801371
 30
0.0
 10
414.7232340946679
 20
288.919147821694
 30
0.0
 10
414.8045654426392
 20
289.2821009094478
 30
0.0
 10
414.8367022780755
 20
289.6504456978521
 30
0.0
 10
414.8102128629759
 20
289.892339531542
 30
0.0
 10
414.796968155426
 20
290.0132864483868
 30
0.0
 11
414.796968155426
 21
290.0132864483868
 31
0.0
 11
414.7141944296558
 21
290.3784779370713
 31
0.0
 11
414.580154944374
 21
290.7276804498815
 31
0.0
 11
414.3880160871366
 21
291.0807348310129
 31
0.0
 11
414.154470286146
 21
291.4072085172352
 31
0.0
 11
413.8599511507654
 21
291.7351138361636
 31
0.0
 11
413.53436177003
 21
292.0315267884929
 31
0.0
 11
413.1480752817566
 21
292.3235883872777
 31
0.0
 11
412.7392840561327
 21
292.5826400631997
 31
0.0
 11
412.2742440909446
 21
292.830092490935
 31
0.0
 11
411.7933212792962
 21
293.0445629021348
 31
0.0
 11
411.2645089046828
 21
293.240329403211
 31
0.0
 11
410.7249298482805
 21
293.4036741141705
 31
0.0
 11
410.1489414033827
 21
293.5423743923196
 31
0.0
 11
409.566282036669
 21
293.6492552910814
 31
0.0
 11
408.9609046302593
 21
293.7272891229334
 31
0.0
 11
408.3523357878436
 21
293.7739256525255
 31
0.0
 11
407.7360498862354
 21
293.7895497804728
 31
0.0
 11
407.1197639846272
 21
293.7739256525255
 31
0.0
 11
406.5111951422116
 21
293.7272891229335
 31
0.0
 11
405.905817735802
 21
293.6492552910814
 31
0.0
 11
405.3231583690883
 21
293.5423743923196
 31
0.0
 11
404.7471699241904
 21
293.4036741141705
 31
0.0
 11
404.207590867788
 21
293.2403294032112
 31
0.0
 11
403.6787784931746
 21
293.0445629021348
 31
0.0
 11
403.1978556815264
 21
292.830092490935
 31
0.0
 11
402.7328157163382
 21
292.5826400631997
 31
0.0
 11
402.3240244907144
 21
292.3235883872777
 31
0.0
 11
401.9377380024409
 21
292.031526788493
 31
0.0
 11
401.6121486217054
 21
291.7351138361636
 31
0.0
 11
401.3176294863249
 21
291.4072085172352
 31
0.0
 11
401.0840836853343
 21
291.0807348310129
 31
0.0
 11
400.8919448280968
 21
290.7276804498814
 31
0.0
 11
400.7579053428152
 21
290.3784779370713
 31
0.0
 11
400.6751316170448
 21
290.0132864483868
 31
0.0
 11
400.6473264468564
 21
289.6500961802815
 31
0.0
 11
400.6751316170448
 21
289.2869059121763
 31
0.0
 11
400.7579053428151
 21
288.9217144234918
 31
0.0
 11
400.8919448280968
 21
288.5725119106816
 31
0.0
 11
401.0840836853343
 21
288.2194575295503
 31
0.0
 11
401.3176294863249
 21
287.8929838433279
 31
0.0
 11
401.6121486217053
 21
287.5650785243994
 31
0.0
 11
401.9377380024409
 21
287.2686655720701
 31
0.0
 11
402.3240244907144
 21
286.9766039732854
 31
0.0
 11
402.7328157163382
 21
286.7175522973633
 31
0.0
 11
403.1978556815263
 21
286.470099869628
 31
0.0
 11
403.6787784931746
 21
286.2556294584283
 31
0.0
 11
404.207590867788
 21
286.0598629573519
 31
0.0
 11
404.7471699241904
 21
285.8965182463925
 31
0.0
 11
405.3231583690883
 21
285.7578179682434
 31
0.0
 11
405.9058177358019
 21
285.6509370694815
 31
0.0
 11
406.5111951422117
 21
285.5729032376295
 31
0.0
 11
407.1197639846272
 21
285.5262667080376
 31
0.0
 11
407.7360498862354
 21
285.5106425800902
 31
0.0
 11
408.3523357878436
 21
285.5262667080376
 31
0.0
 11
408.9609046302593
 21
285.5729032376295
 31
0.0
 11
409.566282036669
 21
285.6509370694815
 31
0.0
 11
410.1489414033826
 21
285.7578179682434
 31
0.0
 11
410.7249298482805
 21
285.8965182463925
 31
0.0
 11
411.2645089046828
 21
286.0598629573519
 31
0.0
 11
411.7933212792962
 21
286.2556294584283
 31
0.0
 11
412.2742440909445
 21
286.470099869628
 31
0.0
 11
412.7392840561327
 21
286.7175522973632
 31
0.0
 11
413.1480752817565
 21
286.9766039732854
 31
0.0
 11
413.5343617700301
 21
287.2686655720701
 31
0.0
 11
413.8599511507655
 21
287.5650785243994
 31
0.0
 11
414.1544702861461
 21
287.8929838433278
 31
0.0
 11
414.3880160871366
 21
288.2194575295502
 31
0.0
 11
414.5801549443742
 21
288.5725119106816
 31
0.0
 11
414.7141944296558
 21
288.9217144234917
 31
0.0
 11
414.796968155426
 21
289.2869059121763
 31
0.0
 11
414.8247733256144
 21
289.6500961802816
 31
0.0
 11
414.796968155426
 21
290.0132864483868
 31
0.0
  0
SPLINE
  5
157
330
48
100
AcDbEntity
  8
1
  6
Continuous
 62
     7
100
AcDbSpline
210
0.0
220
0.0
230
1.0
 70
    11
 71
     3
 72
    79
 73
    75
 74
    73
 42
0.0000000001
 43
0.0000000001
 44
0.00000001
 40
0.0
 40
0.0
 40
0.0
 40
0.0
 40
0.3706045521958633
 40
0.7410099196589476
 40
1.129028527231182
 40
1.51675077492759
 40
1.930011258025348
 40
2.342984812767031
 40
2.78529581715034
 40
3.227378556050558
 40
3.698701857085041
 40
4.169861130707787
 40
4.666948175703324
 40
5.163925546048272
 40
5.681087123632062
 40
6.19818221124891
 40
6.72804037909899
 40
7.257867278294288
 40
7.792055945935843
 40
8.326244613577398
 40
8.856071512772809
 40
9.385929680622946
 40
9.903024768239794
 40
10.42018634582358
 40
10.91716371616856
 40
11.41425076116405
 40
11.88541003478687
 40
12.35673333582133
 40
12.79881607472156
 40
13.24112707910483
 40
13.65410063384641
 40
14.06736111694423
 40
14.45508336464068
 40
14.84310197221287
 40
15.21350733967589
 40
15.58411189187181
 40
15.94839956885729
 40
16.31268724584277
 40
16.6832917980387
 40
17.05369716550177
 40
17.441715773074
 40
17.82943802077043
 40
18.24269850386825
 40
18.65567205860983
 40
19.0979830629931
 40
19.54006580189335
 40
20.01138910292793
 40
20.4825483765507
 40
20.97963542154621
 40
21.47661279189116
 40
21.99377436947487
 40
22.51086945709173
 40
23.04072762494179
 40
23.57055452413707
 40
24.10474319177863
 40
24.63893185942027
 40
25.16875875861572
 40
25.69861692646577
 40
26.21571201408261
 40
26.73287359166638
 40
27.22985096201128
 40
27.72693800700682
 40
28.19809728062962
 40
28.66942058166416
 40
29.11150332056442
 40
29.55381432494769
 40
29.96678787968927
 40
30.38004836278705
 40
30.76777061048351
 40
31.15578921805569
 40
31.52619458551872
 40
31.89679913771463
 40
32.26108681470023
 40
32.6253744916857
 40
32.6253744916857
 40
32.6253744916857
 40
32.6253744916857
 10
157.6208579348156
 20
289.9997365940701
 30
0.0
 10
157.6412693781197
 20
290.121752211115
 30
0.0
 10
157.682081294415
 20
290.3657178668195
 30
0.0
 10
157.8038289799992
 20
290.7233647433441
 30
0.0
 10
157.9657975459873
 20
291.0701091565116
 30
0.0
 10
158.1749978614084
 20
291.4077536914094
 30
0.0
 10
158.4234063009929
 20
291.7280805894919
 30
0.0
 10
158.7150452624541
 20
292.0351368121107
 30
0.0
 10
159.0409704573412
 20
292.3202796127882
 30
0.0
 10
159.4058246518546
 20
292.5877740872448
 30
0.0
 10
159.7992796867654
 20
292.8299459531394
 30
0.0
 10
160.22607236802
 20
293.0501908005161
 30
0.0
 10
160.6754353265058
 20
293.2425858236886
 30
0.0
 10
161.1511800844818
 20
293.4092694013446
 30
0.0
 10
161.6432268024731
 20
293.5462867026675
 30
0.0
 10
162.1535435088375
 20
293.6546531950993
 30
0.0
 10
162.6737170638601
 20
293.732166587147
 30
0.0
 10
163.203234138276
 20
293.7791762426754
 30
0.0
 10
163.736049886233
 20
293.7947440591885
 30
0.0
 10
164.268865634205
 20
293.7791762426766
 30
0.0
 10
164.7983827085759
 20
293.7321665871426
 30
0.0
 10
165.3185562637623
 20
293.6546531951162
 30
0.0
 10
165.8288729695302
 20
293.5462867026063
 30
0.0
 10
166.3209196897082
 20
293.40926940157
 30
0.0
 10
166.7966644398279
 20
293.2425858228834
 30
0.0
 10
167.2460274268868
 20
293.0501908034595
 30
0.0
 10
167.6728200068032
 20
292.8299459427881
 30
0.0
 10
168.0662754079921
 20
292.5877741249461
 30
0.0
 10
168.4311283160966
 20
292.3202794817235
 30
0.0
 10
168.7570581438515
 20
292.0351372888388
 30
0.0
 10
169.0486809018924
 20
291.7280789404692
 30
0.0
 10
169.2971477372927
 20
291.4077597034209
 30
0.0
 10
169.5061428498875
 20
291.070088247658
 30
0.0
 10
169.6688559334855
 20
290.7234415088669
 30
0.0
 10
169.7879440301601
 20
290.3654457169042
 30
0.0
 10
169.8585967159733
 20
290.0028268642494
 30
0.0
 10
169.8832275642323
 20
289.6362286931612
 30
0.0
 10
169.8585967159734
 20
289.2696305220729
 30
0.0
 10
169.7879440301601
 20
288.9070116694182
 30
0.0
 10
169.6688559334855
 20
288.5490158774554
 30
0.0
 10
169.5061428498876
 20
288.2023691386643
 30
0.0
 10
169.2971477372928
 20
287.8646976829014
 30
0.0
 10
169.0486809018925
 20
287.5443784458529
 30
0.0
 10
168.7570581438515
 20
287.2373200974835
 30
0.0
 10
168.4311283160966
 20
286.9521779045988
 30
0.0
 10
168.066275407992
 20
286.6846832613761
 30
0.0
 10
167.6728200068033
 20
286.442511443534
 30
0.0
 10
167.2460274268867
 20
286.2222665828627
 30
0.0
 10
166.7966644398279
 20
286.0298715634387
 30
0.0
 10
166.3209196897081
 20
285.8631879847522
 30
0.0
 10
165.8288729695301
 20
285.7261706837161
 30
0.0
 10
165.3185562637623
 20
285.6178041912061
 30
0.0
 10
164.7983827085761
 20
285.5402907991801
 30
0.0
 10
164.2688656342045
 20
285.4932811436457
 30
0.0
 10
163.7360498862355
 20
285.4777133271342
 30
0.0
 10
163.2032341382673
 20
285.4932811436455
 30
0.0
 10
162.6737170638925
 20
285.5402907991802
 30
0.0
 10
162.1535435087179
 20
285.617804191205
 30
0.0
 10
161.6432268029076
 20
285.7261706837205
 30
0.0
 10
161.1511800828853
 20
285.8631879847362
 30
0.0
 10
160.6754353322063
 20
286.029871563496
 30
0.0
 10
160.2260723471812
 20
286.2222665826532
 30
0.0
 10
159.799279760052
 20
286.4425114442709
 30
0.0
 10
159.4058243849331
 20
286.6846832586928
 30
0.0
 10
159.0409713852676
 20
286.9521779139272
 30
0.0
 10
158.7150418872597
 20
287.2373200635522
 30
0.0
 10
158.4234179759314
 20
287.5443785632231
 30
0.0
 10
158.1749552968859
 20
287.864697254993
 30
0.0
 10
157.9659455788649
 20
288.2023706268637
 30
0.0
 10
157.8032854867255
 20
288.5490104136261
 30
0.0
 10
157.6840080923181
 20
288.9070310398411
 30
0.0
 10
157.6140513066836
 20
289.2695585963127
 30
0.0
 10
157.5868647102736
 20
289.6364920598152
 30
0.0
 10
157.6095268599683
 20
289.8786550826519
 30
0.0
 10
157.6208579348156
 20
289.9997365940701
 30
0.0
 11
157.6208579348156
 21
289.9997365940701
 31
0.0
 11
157.6918710604042
 21
290.3634739582526
 31
0.0
 11
157.8079865813857
 21
290.7152086907324
 31
0.0
 11
157.9725606214606
 21
291.0665971156353
 31
0.0
 11
158.1758873454772
 21
291.3967285813568
 31
0.0
 11
158.4286890330811
 21
291.7236468182828
 31
0.0
 11
158.7125518831536
 21
292.0235952126188
 31
0.0
 11
159.0449879995105
 21
292.3153575356492
 31
0.0
 11
159.401175439257
 21
292.5772118000796
 31
0.0
 11
159.8022254813338
 21
292.8248092916828
 31
0.0
 11
160.2207270815151
 21
293.0412520595601
 31
0.0
 11
160.6774877532493
 21
293.2373775781939
 31
0.0
 11
161.1464169759691
 21
293.4019737224816
 31
0.0
 11
161.64452189419
 21
293.5410693290734
 31
0.0
 11
162.1503065847951
 21
293.6486294350001
 31
0.0
 11
162.6743431345445
 21
293.7269580540618
 31
0.0
 11
163.2020921136854
 21
293.7738361739757
 31
0.0
 11
163.7360498862355
 21
293.7895406246202
 31
0.0
 11
164.2700076587855
 21
293.7738361739757
 31
0.0
 11
164.7977566379265
 21
293.7269580540618
 31
0.0
 11
165.321793187676
 21
293.6486294350001
 31
0.0
 11
165.8275778782812
 21
293.5410693290734
 31
0.0
 11
166.325682796502
 21
293.4019737224816
 31
0.0
 11
166.7946120192219
 21
293.2373775781939
 31
0.0
 11
167.251372690956
 21
293.0412520595602
 31
0.0
 11
167.6698742911374
 21
292.8248092916828
 31
0.0
 11
168.0709243332142
 21
292.5772118000796
 31
0.0
 11
168.4271117729606
 21
292.3153575356491
 31
0.0
 11
168.7595478893175
 21
292.0235952126187
 31
0.0
 11
169.0434107393899
 21
291.7236468182829
 31
0.0
 11
169.2962124269938
 21
291.3967285813568
 31
0.0
 11
169.4995391510105
 21
291.0665971156353
 31
0.0
 11
169.6641131910853
 21
290.7152086907324
 31
0.0
 11
169.7802287120668
 21
290.3634739582527
 31
0.0
 11
169.8512418376554
 21
289.9997365940701
 31
0.0
 11
169.8750644651399
 21
289.6362286931612
 31
0.0
 11
169.8512418376554
 21
289.2727207922522
 31
0.0
 11
169.7802287120668
 21
288.9089834280697
 31
0.0
 11
169.6641131910853
 21
288.5572486955899
 31
0.0
 11
169.4995391510105
 21
288.205860270687
 31
0.0
 11
169.2962124269939
 21
287.8757288049654
 31
0.0
 11
169.0434107393899
 21
287.5488105680394
 31
0.0
 11
168.7595478893175
 21
287.2488621737035
 31
0.0
 11
168.4271117729606
 21
286.9570998506732
 31
0.0
 11
168.0709243332141
 21
286.6952455862427
 31
0.0
 11
167.6698742911373
 21
286.4476480946394
 31
0.0
 11
167.2513726909559
 21
286.2312053267621
 31
0.0
 11
166.7946120192218
 21
286.0350798081283
 31
0.0
 11
166.325682796502
 21
285.8704836638407
 31
0.0
 11
165.8275778782812
 21
285.731388057249
 31
0.0
 11
165.321793187676
 21
285.6238279513223
 31
0.0
 11
164.7977566379265
 21
285.5454993322607
 31
0.0
 11
164.2700076587857
 21
285.4986212123467
 31
0.0
 11
163.7360498862356
 21
285.4829167617021
 31
0.0
 11
163.2020921136855
 21
285.4986212123466
 31
0.0
 11
162.6743431345445
 21
285.5454993322605
 31
0.0
 11
162.150306584795
 21
285.6238279513223
 31
0.0
 11
161.6445218941899
 21
285.7313880572489
 31
0.0
 11
161.1464169759691
 21
285.8704836638407
 31
0.0
 11
160.6774877532493
 21
286.0350798081283
 31
0.0
 11
160.2207270815151
 21
286.2312053267621
 31
0.0
 11
159.8022254813338
 21
286.4476480946395
 31
0.0
 11
159.4011754392569
 21
286.6952455862427
 31
0.0
 11
159.0449879995104
 21
286.9570998506731
 31
0.0
 11
158.7125518831535
 21
287.2488621737035
 31
0.0
 11
158.4286890330812
 21
287.5488105680394
 31
0.0
 11
158.1758873454772
 21
287.8757288049654
 31
0.0
 11
157.9725606214606
 21
288.205860270687
 31
0.0
 11
157.8079865813857
 21
288.5572486955898
 31
0.0
 11
157.6918710604042
 21
288.9089834280696
 31
0.0
 11
157.6208579348156
 21
289.2727207922521
 31
0.0
 11
157.5970353073312
 21
289.6362286931612
 31
0.0
 11
157.6208579348156
 21
289.9997365940701
 31
0.0
  0
SPLINE
  5
158
330
48
100
AcDbEntity
  8
1
  6
Continuous
 62
     7
100
AcDbSpline
210
0.0
220
0.0
230
1.0
 70
    11
 71
     3
 72
    79
 73
    75
 74
    73
 42
0.0000000001
 43
0.0000000001
 44
0.00000001
 40
0.0
 40
0.0
 40
0.0
 40
0.0
 40
0.3706045521958579
 40
0.7410099196589421
 40
1.129028527231189
 40
1.516750774927581
 40
1.930011258025357
 40
2.342984812767001
 40
2.785295817150353
 40
3.22737855605057
 40
3.698701857084981
 40
4.169861130707676
 40
4.666948175703161
 40
5.163925546048163
 40
5.681087123632034
 40
6.198182211248966
 40
6.728040379099046
 40
7.257867278294373
 40
7.792055945935871
 40
8.326244613577424
 40
8.856071512772752
 40
9.38592968062286
 40
9.90302476823968
 40
10.42018634582344
 40
10.91716371616842
 40
11.41425076116401
 40
11.88541003478691
 40
12.35673333582133
 40
12.79881607472151
 40
13.24112707910475
 40
13.65410063384631
 40
14.06736111694415
 40
14.45508336464062
 40
14.84310197221279
 40
15.21350733967581
 40
15.58411189187174
 40
15.94839956885722
 40
16.3126872458427
 40
16.68329179803863
 40
17.0536971655017
 40
17.44171577307393
 40
17.82943802077038
 40
18.24269850386822
 40
18.6556720586098
 40
19.09798306299303
 40
19.54006580189323
 40
20.01138910292773
 40
20.48254837655058
 40
20.97963542154616
 40
21.47661279189109
 40
21.99377436947485
 40
22.51086945709163
 40
23.0407276249417
 40
23.57055452413701
 40
24.10474319177854
 40
24.63893185942009
 40
25.16875875861545
 40
25.69861692646559
 40
26.21571201408245
 40
26.73287359166625
 40
27.22985096201121
 40
27.72693800700675
 40
28.19809728062952
 40
28.66942058166396
 40
29.1115033205642
 40
29.55381432494751
 40
29.96678787968915
 40
30.38004836278691
 40
30.76777061048332
 40
31.15578921805553
 40
31.52619458551856
 40
31.89679913771447
 40
32.26108681470006
 40
32.62537449168554
 40
32.62537449168554
 40
32.62537449168554
 40
32.62537449168554
 10
185.8512418376553
 20
289.9997365940701
 30
0.0
 10
185.8308303943512
 20
290.121752211115
 30
0.0
 10
185.7900184780559
 20
290.3657178668195
 30
0.0
 10
185.6682707924718
 20
290.7233647433441
 30
0.0
 10
185.5063022264836
 20
291.0701091565115
 30
0.0
 10
185.2971019110625
 20
291.4077536914093
 30
0.0
 10
185.048693471478
 20
291.7280805894919
 30
0.0
 10
184.757054510017
 20
292.0351368121108
 30
0.0
 10
184.4311293151297
 20
292.3202796127882
 30
0.0
 10
184.0662751206162
 20
292.5877740872448
 30
0.0
 10
183.6728200857056
 20
292.8299459531395
 30
0.0
 10
183.246027404451
 20
293.050190800516
 30
0.0
 10
182.7966644459653
 20
293.2425858236886
 30
0.0
 10
182.3209196879893
 20
293.4092694013446
 30
0.0
 10
181.8288729699979
 20
293.5462867026677
 30
0.0
 10
181.3185562636333
 20
293.6546531950993
 30
0.0
 10
180.7983827086108
 20
293.7321665871471
 30
0.0
 10
180.2688656341948
 20
293.7791762426754
 30
0.0
 10
179.7360498862379
 20
293.7947440591885
 30
0.0
 10
179.2032341382658
 20
293.7791762426766
 30
0.0
 10
178.673717063895
 20
293.7321665871425
 30
0.0
 10
178.1535435087086
 20
293.6546531951162
 30
0.0
 10
177.6432268029408
 20
293.5462867026062
 30
0.0
 10
177.151180082763
 20
293.4092694015702
 30
0.0
 10
176.675435332643
 20
293.2425858228833
 30
0.0
 10
176.2260723455842
 20
293.0501908034596
 30
0.0
 10
175.7992797656676
 20
292.8299459427882
 30
0.0
 10
175.4058243644788
 20
292.587774124946
 30
0.0
 10
175.0409714563743
 20
292.3202794817235
 30
0.0
 10
174.7150416286196
 20
292.0351372888388
 30
0.0
 10
174.4234188705786
 20
291.7280789404691
 30
0.0
 10
174.1749520351783
 20
291.4077597034209
 30
0.0
 10
173.9659569225834
 20
291.070088247658
 30
0.0
 10
173.8032438389855
 20
290.7234415088669
 30
0.0
 10
173.684155742311
 20
290.3654457169042
 30
0.0
 10
173.6135030564976
 20
290.0028268642494
 30
0.0
 10
173.5888722082387
 20
289.6362286931612
 30
0.0
 10
173.6135030564976
 20
289.2696305220729
 30
0.0
 10
173.6841557423109
 20
288.9070116694183
 30
0.0
 10
173.8032438389856
 20
288.5490158774554
 30
0.0
 10
173.9659569225834
 20
288.2023691386643
 30
0.0
 10
174.1749520351783
 20
287.8646976829014
 30
0.0
 10
174.4234188705786
 20
287.544378445853
 30
0.0
 10
174.7150416286195
 20
287.2373200974835
 30
0.0
 10
175.0409714563743
 20
286.9521779045987
 30
0.0
 10
175.405824364479
 20
286.6846832613763
 30
0.0
 10
175.7992797656676
 20
286.4425114435339
 30
0.0
 10
176.2260723455842
 20
286.2222665828627
 30
0.0
 10
176.6754353326431
 20
286.0298715634388
 30
0.0
 10
177.1511800827629
 20
285.8631879847521
 30
0.0
 10
177.6432268029409
 20
285.7261706837162
 30
0.0
 10
178.1535435087087
 20
285.6178041912061
 30
0.0
 10
178.6737170638948
 20
285.5402907991801
 30
0.0
 10
179.2032341382665
 20
285.4932811436457
 30
0.0
 10
179.7360498862355
 20
285.4777133271341
 30
0.0
 10
180.2688656342035
 20
285.4932811436455
 30
0.0
 10
180.7983827085784
 20
285.5402907991802
 30
0.0
 10
181.318556263753
 20
285.6178041912049
 30
0.0
 10
181.8288729695633
 20
285.7261706837205
 30
0.0
 10
182.3209196895856
 20
285.8631879847361
 30
0.0
 10
182.7966644402646
 20
286.029871563496
 30
0.0
 10
183.2460274252898
 20
286.2222665826532
 30
0.0
 10
183.672820012419
 20
286.4425114442709
 30
0.0
 10
184.0662753875378
 20
286.6846832586929
 30
0.0
 10
184.4311283872031
 20
286.9521779139272
 30
0.0
 10
184.7570578852112
 20
287.2373200635522
 30
0.0
 10
185.0486817965396
 20
287.5443785632231
 30
0.0
 10
185.297144475585
 20
287.8646972549931
 30
0.0
 10
185.506154193606
 20
288.2023706268637
 30
0.0
 10
185.6688142857454
 20
288.5490104136262
 30
0.0
 10
185.7880916801528
 20
288.907031039841
 30
0.0
 10
185.8580484657873
 20
289.2695585963127
 30
0.0
 10
185.8852350621973
 20
289.6364920598153
 30
0.0
 10
185.8625729125026
 20
289.8786550826519
 30
0.0
 10
185.8512418376553
 20
289.9997365940701
 30
0.0
 11
185.8512418376553
 21
289.9997365940701
 31
0.0
 11
185.7802287120667
 21
290.3634739582526
 31
0.0
 11
185.6641131910852
 21
290.7152086907324
 31
0.0
 11
185.4995391510103
 21
291.0665971156353
 31
0.0
 11
185.2962124269937
 21
291.3967285813568
 31
0.0
 11
185.0434107393897
 21
291.7236468182828
 31
0.0
 11
184.7595478893173
 21
292.0235952126188
 31
0.0
 11
184.4271117729604
 21
292.3153575356492
 31
0.0
 11
184.0709243332139
 21
292.5772118000796
 31
0.0
 11
183.6698742911371
 21
292.8248092916828
 31
0.0
 11
183.2513726909559
 21
293.0412520595601
 31
0.0
 11
182.7946120192218
 21
293.2373775781939
 31
0.0
 11
182.3256827965019
 21
293.4019737224816
 31
0.0
 11
181.827577878281
 21
293.5410693290734
 31
0.0
 11
181.3217931876758
 21
293.6486294350001
 31
0.0
 11
180.7977566379263
 21
293.7269580540618
 31
0.0
 11
180.2700076587854
 21
293.7738361739757
 31
0.0
 11
179.7360498862354
 21
293.7895406246202
 31
0.0
 11
179.2020921136854
 21
293.7738361739757
 31
0.0
 11
178.6743431345444
 21
293.7269580540618
 31
0.0
 11
178.150306584795
 21
293.6486294350001
 31
0.0
 11
177.6445218941899
 21
293.5410693290734
 31
0.0
 11
177.146416975969
 21
293.4019737224816
 31
0.0
 11
176.6774877532492
 21
293.2373775781939
 31
0.0
 11
176.220727081515
 21
293.0412520595602
 31
0.0
 11
175.8022254813335
 21
292.8248092916828
 31
0.0
 11
175.4011754392568
 21
292.5772118000796
 31
0.0
 11
175.0449879995104
 21
292.3153575356491
 31
0.0
 11
174.7125518831535
 21
292.0235952126187
 31
0.0
 11
174.4286890330811
 21
291.7236468182829
 31
0.0
 11
174.1758873454772
 21
291.3967285813568
 31
0.0
 11
173.9725606214605
 21
291.0665971156353
 31
0.0
 11
173.8079865813857
 21
290.7152086907324
 31
0.0
 11
173.6918710604042
 21
290.3634739582527
 31
0.0
 11
173.6208579348156
 21
289.9997365940701
 31
0.0
 11
173.5970353073311
 21
289.6362286931612
 31
0.0
 11
173.6208579348156
 21
289.2727207922522
 31
0.0
 11
173.6918710604042
 21
288.9089834280697
 31
0.0
 11
173.8079865813857
 21
288.5572486955899
 31
0.0
 11
173.9725606214605
 21
288.205860270687
 31
0.0
 11
174.1758873454772
 21
287.8757288049654
 31
0.0
 11
174.4286890330811
 21
287.5488105680394
 31
0.0
 11
174.7125518831535
 21
287.2488621737035
 31
0.0
 11
175.0449879995104
 21
286.9570998506732
 31
0.0
 11
175.4011754392568
 21
286.6952455862427
 31
0.0
 11
175.8022254813336
 21
286.4476480946394
 31
0.0
 11
176.220727081515
 21
286.2312053267621
 31
0.0
 11
176.6774877532492
 21
286.0350798081283
 31
0.0
 11
177.146416975969
 21
285.8704836638407
 31
0.0
 11
177.6445218941899
 21
285.731388057249
 31
0.0
 11
178.150306584795
 21
285.6238279513223
 31
0.0
 11
178.6743431345444
 21
285.5454993322607
 31
0.0
 11
179.2020921136853
 21
285.4986212123467
 31
0.0
 11
179.7360498862353
 21
285.4829167617021
 31
0.0
 11
180.2700076587854
 21
285.4986212123466
 31
0.0
 11
180.7977566379263
 21
285.5454993322605
 31
0.0
 11
181.3217931876758
 21
285.6238279513223
 31
0.0
 11
181.827577878281
 21
285.7313880572489
 31
0.0
 11
182.3256827965019
 21
285.8704836638407
 31
0.0
 11
182.7946120192217
 21
286.0350798081283
 31
0.0
 11
183.2513726909559
 21
286.2312053267621
 31
0.0
 11
183.6698742911372
 21
286.4476480946395
 31
0.0
 11
184.0709243332139
 21
286.6952455862427
 31
0.0
 11
184.4271117729604
 21
286.9570998506731
 31
0.0
 11
184.7595478893173
 21
287.2488621737035
 31
0.0
 11
185.0434107393898
 21
287.5488105680394
 31
0.0
 11
185.2962124269937
 21
287.8757288049654
 31
0.0
 11
185.4995391510103
 21
288.205860270687
 31
0.0
 11
185.6641131910852
 21
288.5572486955898
 31
0.0
 11
185.7802287120667
 21
288.9089834280696
 31
0.0
 11
185.8512418376553
 21
289.2727207922521
 31
0.0
 11
185.8750644651397
 21
289.6362286931612
 31
0.0
 11
185.8512418376553
 21
289.9997365940701
 31
0.0
  0
ARC
  5
159
330
48
100
AcDbEntity
  8
1
  6
Continuous
 62
     7
100
AcDbCircle
 10
419.5360498862355
 20
281.7106517359428
 30
0.0
 40
0.1999999999999886
100
AcDbArc
 50
-90.00000000006514
 51
0.0
  0
ARC
  5
15A
330
48
100
AcDbEntity
  8
1
  6
Continuous
 62
     7
100
AcDbCircle
 10
420.2360498862354
 20
282.7988315275725
 30
0.0
 40
0.4999999999999646
100
AcDbArc
 50
102.3736251161799
 51
180.0
  0
ARC
  5
15B
330
48
100
AcDbEntity
  8
1
  6
Continuous
 62
     7
100
AcDbCircle
 10
159.9360498862354
 20
281.7106517359428
 30
0.0
 40
0.1999999999999034
100
AcDbArc
 50
180.0
 51
-90.0
  0
ARC
  5
15C
330
48
100
AcDbEntity
  8
1
  6
Continuous
 62
     7
100
AcDbCircle
 10
159.2360498862355
 20
282.7988315275725
 30
0.0
 40
0.5
100
AcDbArc
 50
0.0
 51
77.62637488381691
  0
ARC
  5
15D
330
48
100
AcDbEntity
  8
1
  6
Continuous
 62
     7
100
AcDbCircle
 10
183.5360498862353
 20
281.7106517359428
 30
0.0
 40
0.1999999999999886
100
AcDbArc
 50
-90.0
 51
0.0
  0
ARC
  5
15E
330
48
100
AcDbEntity
  8
1
  6
Continuous
 62
     7
100
AcDbCircle
 10
184.2360498862353
 20
282.7988315275725
 30
0.0
 40
0.4999999999999707
100
AcDbArc
 50
102.3736251161831
 51
180.0
  0
ARC
  5
15F
330
48
100
AcDbEntity
  8
1
  6
Continuous
 62
     7
100
AcDbCircle
 10
395.9360498862354
 20
281.7106517359428
 30
0.0
 40
0.2000000000000455
100
AcDbArc
 50
180.0
 51
-90.0
  0
ARC
  5
160
330
48
100
AcDbEntity
  8
1
  6
Continuous
 62
     7
100
AcDbCircle
 10
395.2360498862354
 20
282.7988315275725
 30
0.0
 40
0.5
100
AcDbArc
 50
0.0
 51
77.62637488380099
  0
ENDBLK
  5
4A
330
48
100
AcDbEntity
  8
0
100
AcDbBlockEnd
  0
BLOCK
  5
4C
330
4B
100
AcDbEntity
  8
0
100
AcDbBlockBegin
  2
A10-0-20
 70
     0
 71
     0
 10
452.7360498862354
 20
402.5106517359427
 30
0.0
  3
A10-0-20
  1

  0
LINE
  5
161
330
4B
100
AcDbEntity
  8
0
  6
Continuous
 62
     2
100
AcDbLine
 10
185.9230498862354
 20
294.5106517359428
 30
0.0
 11
185.9230498862354
 21
295.0106517359428
 31
0.0
  0
LINE
  5
162
330
4B
100
AcDbEntity
  8
0
  6
Continuous
 62
     2
100
AcDbLine
 10
185.9230498862354
 20
295.0106517359428
 30
0.0
 11
186.7360498862354
 21
296.4188090424962
 31
0.0
  0
LINE
  5
163
330
4B
100
AcDbEntity
  8
0
  6
Continuous
 62
     7
100
AcDbLine
 10
186.7360498862354
 20
294.5106517359428
 30
0.0
 11
186.7360498862354
 21
296.4188090424962
 31
0.0
  0
LINE
  5
164
330
4B
100
AcDbEntity
  8
0
  6
Continuous
 62
     7
100
AcDbLine
 10
185.1097849056944
 20
307.1418160605197
 30
0.0
 11
186.7360498862354
 21
296.4188090424962
 31
0.0
  0
LINE
  5
165
330
4B
100
AcDbEntity
  8
0
  6
Continuous
 62
     7
100
AcDbLine
 10
156.7360498862354
 20
296.4188090424962
 30
0.0
 11
158.3623148667765
 21
307.1418160605197
 31
0.0
  0
LINE
  5
166
330
4B
100
AcDbEntity
  8
0
  6
Continuous
 62
     7
100
AcDbLine
 10
186.7360498862354
 20
295.0106517359428
 30
0.0
 11
156.7360498862354
 21
295.0106517359428
 31
0.0
  0
LINE
  5
167
330
4B
100
AcDbEntity
  8
0
  6
Continuous
 62
     2
100
AcDbLine
 10
157.5490498862354
 20
295.0106517359428
 30
0.0
 11
157.5490498862354
 21
294.5106517359428
 31
0.0
  0
LINE
  5
168
330
4B
100
AcDbEntity
  8
0
  6
Continuous
 62
     2
100
AcDbLine
 10
156.7360498862354
 20
296.4188090424962
 30
0.0
 11
157.5490498862354
 21
295.0106517359428
 31
0.0
  0
LINE
  5
169
330
4B
100
AcDbEntity
  8
0
  6
Continuous
 62
     7
100
AcDbLine
 10
156.7360498862354
 20
296.4188090424962
 30
0.0
 11
156.7360498862354
 21
294.5106517359428
 31
0.0
  0
LINE
  5
16A
330
4B
100
AcDbEntity
  8
0
  6
Continuous
 62
     2
100
AcDbLine
 10
156.5490498862354
 20
345.5106517359428
 30
0.0
 11
156.5490498862354
 21
346.8535788960008
 31
0.0
  0
LINE
  5
16B
330
4B
100
AcDbEntity
  8
0
  6
Continuous
 62
     2
100
AcDbLine
 10
155.7360498862354
 20
344.1024944293892
 30
0.0
 11
156.5490498862354
 21
345.5106517359428
 31
0.0
  0
LINE
  5
16C
330
4B
100
AcDbEntity
  8
0
  6
Continuous
 62
     7
100
AcDbLine
 10
155.7360498862354
 20
345.5106517359428
 30
0.0
 11
156.5490498862354
 21
345.5106517359428
 31
0.0
  0
LINE
  5
16D
330
4B
100
AcDbEntity
  8
0
  6
Continuous
 62
     7
100
AcDbLine
 10
155.7360498862354
 20
319.541780610092
 30
0.0
 11
155.7360498862354
 21
346.8535788960008
 31
0.0
  0
LINE
  5
16E
330
4B
100
AcDbEntity
  8
0
  6
Continuous
 62
     7
100
AcDbLine
 10
186.9230498862354
 20
345.5106517359428
 30
0.0
 11
187.7360498862354
 21
345.5106517359428
 31
0.0
  0
LINE
  5
16F
330
4B
100
AcDbEntity
  8
0
  6
Continuous
 62
     7
100
AcDbLine
 10
187.7360498862354
 20
319.541780610092
 30
0.0
 11
187.7360498862354
 21
346.8535788960008
 31
0.0
  0
LINE
  5
170
330
4B
100
AcDbEntity
  8
0
  6
Continuous
 62
     2
100
AcDbLine
 10
186.9230498862354
 20
345.5106517359428
 30
0.0
 11
187.7360498862354
 21
344.1024944293892
 31
0.0
  0
LINE
  5
171
330
4B
100
AcDbEntity
  8
0
  6
Continuous
 62
     2
100
AcDbLine
 10
186.9230498862354
 20
346.8535788960008
 30
0.0
 11
186.9230498862354
 21
345.5106517359428
 31
0.0
  0
LINE
  5
172
330
4B
100
AcDbEntity
  8
0
  6
Continuous
 62
     7
100
AcDbLine
 10
196.7360498862353
 20
712.2774569435887
 30
0.0
 11
196.7360498862353
 21
714.2774569435887
 31
0.0
  0
LINE
  5
173
330
4B
100
AcDbEntity
  8
1
  6
Continuous
 62
     7
100
AcDbLine
 10
196.2360498862353
 20
711.7774569435887
 30
0.0
 11
147.2360498862353
 21
711.7774569435887
 31
0.0
  0
LINE
  5
174
330
4B
100
AcDbEntity
  8
1
  6
Continuous
 62
     7
100
AcDbLine
 10
183.2360498862356
 20
682.4075239560295
 30
0.0
 11
183.2360498862353
 21
707.7774569435887
 31
0.0
  0
LINE
  5
175
330
4B
100
AcDbEntity
  8
0
  6
DASH_CENTER
 62
     2
100
AcDbLine
 10
189.0249256258801
 20
614.2774569435887
 30
0.0
 11
155.2360498862353
 21
614.2774569435887
 31
0.0
  0
LINE
  5
176
330
4B
100
AcDbEntity
  8
0
  6
DASH_CENTER
 62
     2
100
AcDbLine
 10
191.4123812471819
 20
659.2774569435887
 30
0.0
 11
153.2002228498993
 21
659.2774569435887
 31
0.0
  0
LINE
  5
177
330
4B
100
AcDbEntity
  8
0
  6
Continuous
 62
     7
100
AcDbLine
 10
184.9570498862351
 20
729.1154569435887
 30
0.0
 11
184.9570498862351
 21
714.2774569435887
 31
0.0
  0
LINE
  5
178
330
4B
100
AcDbEntity
  8
0
  6
Continuous
 62
     2
100
AcDbLine
 10
183.7950498862352
 20
716.2900999819838
 30
0.0
 11
184.9570498862351
 21
714.2774569435887
 31
0.0
  0
LINE
  5
179
330
4B
100
AcDbEntity
  8
0
  6
Continuous
 62
     2
100
AcDbLine
 10
183.7950498862352
 20
730.2774569435887
 30
0.0
 11
183.7950498862352
 21
716.2900999819838
 31
0.0
  0
LINE
  5
17A
330
4B
100
AcDbEntity
  8
0
  6
Continuous
 62
     7
100
AcDbLine
 10
184.9570498862351
 20
729.1154569435887
 30
0.0
 11
183.7950498862352
 21
730.2774569435887
 31
0.0
  0
LINE
  5
17B
330
4B
100
AcDbEntity
  8
0
  6
Continuous
 62
     7
100
AcDbLine
 10
183.2360498862353
 20
616.2774569435887
 30
0.0
 11
183.2360498862356
 21
636.1473899311482
 31
0.0
  0
LINE
  5
17C
330
4B
100
AcDbEntity
  8
0
  6
Continuous
 62
     7
100
AcDbLine
 10
160.2360498862353
 20
616.2774569435887
 30
0.0
 11
160.2360498862356
 21
636.1473899311482
 31
0.0
  0
LINE
  5
17D
330
4B
100
AcDbEntity
  8
1
  6
Continuous
 62
     7
100
AcDbLine
 10
160.2360498862356
 20
682.4075239560295
 30
0.0
 11
160.2360498862353
 21
707.7774569435887
 31
0.0
  0
LINE
  5
17E
330
4B
100
AcDbEntity
  8
0
  6
Continuous
 62
     7
100
AcDbLine
 10
158.5150498862353
 20
729.1154569435887
 30
0.0
 11
184.9570498862351
 21
729.1154569435887
 31
0.0
  0
LINE
  5
17F
330
4B
100
AcDbEntity
  8
0
  6
Continuous
 62
     7
100
AcDbLine
 10
158.5150498862353
 20
716.2900999819838
 30
0.0
 11
184.9570498862351
 21
716.2900999819838
 31
0.0
  0
LINE
  5
180
330
4B
100
AcDbEntity
  8
0
  6
Continuous
 62
     7
100
AcDbLine
 10
159.6770498862352
 20
730.2774569435887
 30
0.0
 11
158.5150498862353
 21
729.1154569435887
 31
0.0
  0
LINE
  5
181
330
4B
100
AcDbEntity
  8
0
  6
Continuous
 62
     7
100
AcDbLine
 10
159.6770498862352
 20
730.2774569435887
 30
0.0
 11
183.7950498862352
 21
730.2774569435887
 31
0.0
  0
LINE
  5
182
330
4B
100
AcDbEntity
  8
0
  6
Continuous
 62
     2
100
AcDbLine
 10
159.6770498862352
 20
716.2900999819838
 30
0.0
 11
159.6770498862352
 21
730.2774569435887
 31
0.0
  0
LINE
  5
183
330
4B
100
AcDbEntity
  8
0
  6
Continuous
 62
     2
100
AcDbLine
 10
158.5150498862353
 20
714.2774569435887
 30
0.0
 11
159.6770498862352
 21
716.2900999819838
 31
0.0
  0
LINE
  5
184
330
4B
100
AcDbEntity
  8
0
  6
Continuous
 62
     7
100
AcDbLine
 10
158.5150498862353
 20
714.2774569435887
 30
0.0
 11
158.5150498862353
 21
729.1154569435887
 31
0.0
  0
LINE
  5
185
330
4B
100
AcDbEntity
  8
1
  6
Continuous
 62
     7
100
AcDbLine
 10
146.7360498862353
 20
714.2774569435887
 30
0.0
 11
146.7360498862353
 21
712.2774569435887
 31
0.0
  0
LINE
  5
186
330
4B
100
AcDbEntity
  8
0
  6
Continuous
 62
     7
100
AcDbLine
 10
146.7360498862353
 20
714.2774569435887
 30
0.0
 11
196.7360498862353
 21
714.2774569435887
 31
0.0
  0
LINE
  5
187
330
4B
100
AcDbEntity
  8
0
  6
Continuous
 62
     7
100
AcDbLine
 10
507.7360498862354
 20
290.5106517359428
 30
0.0
 11
505.7360498862354
 21
290.5106517359428
 31
0.0
  0
LINE
  5
188
330
4B
100
AcDbEntity
  8
0
  6
Continuous
 62
     7
100
AcDbLine
 10
505.2335472911157
 20
315.5106517359428
 30
0.0
 11
505.2375912193688
 21
290.9714221880788
 31
0.0
  0
LINE
  5
189
330
4B
100
AcDbEntity
  8
0
  6
Continuous
 62
     7
100
AcDbLine
 10
392.7360498862354
 20
296.4188090424962
 30
0.0
 11
394.3623148667765
 21
307.1418160605197
 31
0.0
  0
LINE
  5
18A
330
4B
100
AcDbEntity
  8
0
  6
Continuous
 62
     7
100
AcDbLine
 10
431.777938952237
 20
327.1018052178695
 30
0.0
 11
410.5855063736821
 21
323.3650075674252
 31
0.0
  0
LINE
  5
18B
330
4B
100
AcDbEntity
  8
0
  6
Continuous
 62
     7
100
AcDbLine
 10
422.1292137902181
 20
301.3603475613276
 30
0.0
 11
422.7360498862354
 21
296.4188090424962
 31
0.0
  0
LINE
  5
18C
330
4B
100
AcDbEntity
  8
0
  6
Continuous
 62
     7
100
AcDbLine
 10
475.866116898676
 20
304.0106517359426
 30
0.0
 11
501.2483805513029
 21
304.0106517359428
 31
0.0
  0
LINE
  5
18D
330
4B
100
AcDbEntity
  8
0
  6
Continuous
 62
     2
100
AcDbLine
 10
421.9230498862354
 20
295.0106517359428
 30
0.0
 11
422.7360498862354
 21
296.4188090424962
 31
0.0
  0
LINE
  5
18E
330
4B
100
AcDbEntity
  8
0
  6
Continuous
 62
     7
100
AcDbLine
 10
422.7360498862354
 20
295.0106517359428
 30
0.0
 11
392.7360498862354
 21
295.0106517359428
 31
0.0
  0
LINE
  5
18F
330
4B
100
AcDbEntity
  8
0
  6
Continuous
 62
     2
100
AcDbLine
 10
392.7360498862354
 20
296.4188090424962
 30
0.0
 11
393.5490498862354
 21
295.0106517359428
 31
0.0
  0
LINE
  5
190
330
4B
100
AcDbEntity
  8
0
  6
Continuous
 62
     7
100
AcDbLine
 10
392.7360498862354
 20
296.4188090424962
 30
0.0
 11
392.7360498862354
 21
294.5106517359428
 31
0.0
  0
LINE
  5
191
330
4B
100
AcDbEntity
  8
0
  6
Continuous
 62
     7
100
AcDbLine
 10
509.7486929246304
 20
315.5106517359428
 30
0.0
 11
509.7486929246304
 21
302.2896517359427
 31
0.0
  0
LINE
  5
192
330
4B
100
AcDbEntity
  8
0
  6
Continuous
 62
     7
100
AcDbLine
 10
509.7486929246304
 20
315.5106517359428
 30
0.0
 11
509.7486929246304
 21
328.7316517359427
 31
0.0
  0
LINE
  5
193
330
4B
100
AcDbEntity
  8
0
  6
Continuous
 62
     2
100
AcDbLine
 10
436.7360498862354
 20
344.1024944293892
 30
0.0
 11
437.5490498862354
 21
345.5106517359428
 31
0.0
  0
LINE
  5
194
330
4B
100
AcDbEntity
  8
0
  6
Continuous
 62
     7
100
AcDbLine
 10
436.7360498862354
 20
333.0106517359428
 30
0.0
 11
436.7360498862354
 21
346.8535788960008
 31
0.0
  0
LINE
  5
195
330
4B
100
AcDbEntity
  8
0
  6
Continuous
 62
     7
100
AcDbLine
 10
501.2483805513029
 20
327.0106517359428
 30
0.0
 11
474.7360498862354
 21
327.0106517359428
 31
0.0
  0
LINE
  5
196
330
4B
100
AcDbEntity
  8
0
  6
Continuous
 62
     7
100
AcDbLine
 10
507.7360498862354
 20
340.5106517359428
 30
0.0
 11
505.7360498862354
 21
340.5106517359428
 31
0.0
  0
LINE
  5
197
330
4B
100
AcDbEntity
  8
0
  6
Continuous
 62
     7
100
AcDbLine
 10
505.2375912193688
 20
340.0498812838067
 30
0.0
 11
505.2335472911157
 21
315.5106517359428
 31
0.0
  0
LINE
  5
198
330
4B
100
AcDbEntity
  8
0
  6
Continuous
 62
     7
100
AcDbLine
 10
507.7360498862354
 20
328.7316517359427
 30
0.0
 11
522.5740498862353
 21
328.7316517359427
 31
0.0
  0
LINE
  5
199
330
4B
100
AcDbEntity
  8
1
  6
Continuous
 62
     7
100
AcDbLine
 10
507.7360498862354
 20
340.5106517359428
 30
0.0
 11
507.7360498862354
 21
290.5106517359428
 31
0.0
  0
LINE
  5
19A
330
4B
100
AcDbEntity
  8
0
  6
Continuous
 62
     2
100
AcDbLine
 10
507.7360498862354
 20
328.7316517359427
 30
0.0
 11
509.7486929246304
 21
327.5696517359427
 31
0.0
  0
LINE
  5
19B
330
4B
100
AcDbEntity
  8
0
  6
Continuous
 62
     7
100
AcDbLine
 10
523.7360498862354
 20
327.5696517359427
 30
0.0
 11
522.5740498862353
 21
328.7316517359427
 31
0.0
  0
LINE
  5
19C
330
4B
100
AcDbEntity
  8
0
  6
Continuous
 62
     7
100
AcDbLine
 10
522.5740498862353
 20
302.2896517359427
 30
0.0
 11
523.7360498862354
 21
303.4516517359427
 31
0.0
  0
LINE
  5
19D
330
4B
100
AcDbEntity
  8
0
  6
Continuous
 62
     7
100
AcDbLine
 10
523.7360498862354
 20
327.5696517359427
 30
0.0
 11
523.7360498862354
 21
303.4516517359427
 31
0.0
  0
LINE
  5
19E
330
4B
100
AcDbEntity
  8
0
  6
Continuous
 62
     2
100
AcDbLine
 10
509.7486929246304
 20
303.4516517359427
 30
0.0
 11
507.7360498862354
 21
302.2896517359427
 31
0.0
  0
LINE
  5
19F
330
4B
100
AcDbEntity
  8
0
  6
Continuous
 62
     7
100
AcDbLine
 10
522.5740498862353
 20
302.2896517359427
 30
0.0
 11
507.7360498862354
 21
302.2896517359427
 31
0.0
  0
LINE
  5
1A0
330
4B
100
AcDbEntity
  8
0
  6
Continuous
 62
     7
100
AcDbLine
 10
436.7360498862354
 20
345.5106517359428
 30
0.0
 11
468.7360498862354
 21
345.5106517359428
 31
0.0
  0
LINE
  5
1A1
330
4B
100
AcDbEntity
  8
0
  6
Continuous
 62
     7
100
AcDbLine
 10
468.7360498862354
 20
333.0106517359428
 30
0.0
 11
468.7360498862354
 21
346.8535788960008
 31
0.0
  0
LINE
  5
1A2
330
4B
100
AcDbEntity
  8
0
  6
Continuous
 62
     2
100
AcDbLine
 10
467.9230498862354
 20
345.5106517359428
 30
0.0
 11
468.7360498862354
 21
344.1024944293892
 31
0.0
  0
LINE
  5
1A3
330
4B
100
AcDbEntity
  8
0
  6
Continuous
 62
     7
100
AcDbLine
 10
422.7360498862354
 20
294.5106517359428
 30
0.0
 11
422.7360498862354
 21
296.4188090424962
 31
0.0
  0
LINE
  5
1A4
330
4B
100
AcDbEntity
  8
0
  6
Continuous
 62
     2
100
AcDbLine
 10
421.9230498862354
 20
294.5106517359428
 30
0.0
 11
421.9230498862354
 21
295.0106517359428
 31
0.0
  0
LINE
  5
1A5
330
4B
100
AcDbEntity
  8
0
  6
Continuous
 62
     2
100
AcDbLine
 10
393.5490498862354
 20
295.0106517359428
 30
0.0
 11
393.5490498862354
 21
294.5106517359428
 31
0.0
  0
LINE
  5
1A6
330
4B
100
AcDbEntity
  8
1
  6
Continuous
 62
     7
100
AcDbLine
 10
522.5740498862353
 20
328.7316517359427
 30
0.0
 11
522.5740498862353
 21
315.5106517359428
 31
0.0
  0
LINE
  5
1A7
330
4B
100
AcDbEntity
  8
0
  6
Continuous
 62
     2
100
AcDbLine
 10
509.7486929246304
 20
327.5696517359427
 30
0.0
 11
523.7360498862354
 21
327.5696517359427
 31
0.0
  0
LINE
  5
1A8
330
4B
100
AcDbEntity
  8
1
  6
Continuous
 62
     7
100
AcDbLine
 10
522.5740498862353
 20
302.2896517359427
 30
0.0
 11
522.5740498862353
 21
315.5106517359428
 31
0.0
  0
LINE
  5
1A9
330
4B
100
AcDbEntity
  8
0
  6
Continuous
 62
     2
100
AcDbLine
 10
523.7360498862354
 20
303.4516517359427
 30
0.0
 11
509.7486929246304
 21
303.4516517359427
 31
0.0
  0
LINE
  5
1AA
330
4B
100
AcDbEntity
  8
0
  6
Continuous
 62
     2
100
AcDbLine
 10
467.9230498862354
 20
346.8535788960008
 30
0.0
 11
467.9230498862354
 21
345.5106517359428
 31
0.0
  0
LINE
  5
1AB
330
4B
100
AcDbEntity
  8
0
  6
Continuous
 62
     2
100
AcDbLine
 10
437.5490498862354
 20
345.5106517359428
 30
0.0
 11
437.5490498862354
 21
346.8535788960008
 31
0.0
  0
ARC
  5
1AC
330
4B
100
AcDbEntity
  8
0
  6
Continuous
 62
     7
100
AcDbCircle
 10
205.2360498862356
 20
659.2774569435887
 30
0.0
 40
49.99999999999995
100
AcDbArc
 50
155.6042478880917
 51
160.6412741066295
  0
ARC
  5
1AD
330
4B
100
AcDbEntity
  8
0
  6
Continuous
 62
     7
100
AcDbCircle
 10
138.2360498862356
 20
659.2774569435887
 30
0.0
 40
49.99999999999992
100
AcDbArc
 50
-24.39575211190789
 51
-1.31691396735228
  0
ARC
  5
1AE
330
4B
100
AcDbEntity
  8
0
  6
Continuous
 62
     7
100
AcDbCircle
 10
171.7360498862354
 20
315.5106517359428
 30
0.0
 40
25.0
100
AcDbArc
 50
-53.13010235415598
 51
50.20818050044269
  0
ARC
  5
1AF
330
4B
100
AcDbEntity
  8
0
  6
Continuous
 62
     7
100
AcDbCircle
 10
171.7360498862354
 20
315.5106517359428
 30
0.0
 40
24.99999999999995
100
AcDbArc
 50
129.7918194995573
 51
-126.869897645844
  0
ARC
  5
1B0
330
4B
100
AcDbEntity
  8
1
  6
Continuous
 62
     7
100
AcDbCircle
 10
171.7360498862354
 20
315.5106517359428
 30
0.0
 40
16.50000000000017
100
AcDbArc
 50
-34.88132688252778
 51
14.14111023393141
  0
ARC
  5
1B1
330
4B
100
AcDbEntity
  8
1
  6
Continuous
 62
     7
100
AcDbCircle
 10
171.7360498862354
 20
315.5106517359428
 30
0.0
 40
16.49999999999998
100
AcDbArc
 50
165.8588897660686
 51
-145.118673117472
  0
ARC
  5
1B2
330
4B
100
AcDbEntity
  8
0
  6
Continuous
 62
     7
100
AcDbCircle
 10
138.2360498862356
 20
659.2774569435887
 30
0.0
 40
49.99999999999949
100
AcDbArc
 50
19.35872589337058
 51
24.39575211190824
  0
ARC
  5
1B3
330
4B
100
AcDbEntity
  8
0
  6
Continuous
 62
     7
100
AcDbCircle
 10
205.2360498862356
 20
659.2774569435887
 30
0.0
 40
50.00000000000038
100
AcDbArc
 50
-178.6830860326478
 51
-155.6042478880921
  0
ARC
  5
1B4
330
4B
100
AcDbEntity
  8
0
  6
Continuous
 62
     7
100
AcDbCircle
 10
171.7360498862353
 20
614.2774569435887
 30
0.0
 40
15.0
100
AcDbArc
 50
140.0554948101851
 51
39.94450518981488
  0
ARC
  5
1B5
330
4B
100
AcDbEntity
  8
0
  6
Continuous
 62
     7
100
AcDbCircle
 10
430.7360498862354
 20
333.0106517359428
 30
0.0
 40
6.000000000000044
100
AcDbArc
 50
-79.99999999999989
 51
0.0
  0
ARC
  5
1B6
330
4B
100
AcDbEntity
  8
0
  6
Continuous
 62
     7
100
AcDbCircle
 10
452.7360498862354
 20
349.0106517359426
 30
0.0
 40
49.99999999999987
100
AcDbArc
 50
-119.5935867298177
 51
-65.60424788809203
  0
ARC
  5
1B7
330
4B
100
AcDbEntity
  8
0
  6
Continuous
 62
     7
100
AcDbCircle
 10
426.0684448022669
 20
302.0549402719953
 30
0.0
 40
3.999999999999869
100
AcDbArc
 50
60.40641327018388
 51
-170.0000000000006
  0
ARC
  5
1B8
330
4B
100
AcDbEntity
  8
0
  6
Continuous
 62
     7
100
AcDbCircle
 10
505.7360498862354
 20
340.0106517359428
 30
0.0
 40
0.5
100
AcDbArc
 50
90.0
 51
175.5000000000028
  0
ARC
  5
1B9
330
4B
100
AcDbEntity
  8
0
  6
Continuous
 62
     7
100
AcDbCircle
 10
165.4136298454503
 20
303.668852507181
 30
0.0
 40
19.99999999999997
100
AcDbArc
 50
10.00000000000037
 51
52.97702336025304
  0
ARC
  5
1BA
330
4B
100
AcDbEntity
  8
0
  6
Continuous
 62
     7
100
AcDbCircle
 10
178.0584699270206
 20
303.668852507181
 30
0.0
 40
19.99999999999995
100
AcDbArc
 50
127.0229766397467
 51
169.9999999999996
  0
ARC
  5
1BB
330
4B
100
AcDbEntity
  8
1
  6
Continuous
 62
     7
100
AcDbCircle
 10
147.2360498862353
 20
712.2774569435887
 30
0.0
 40
0.5
100
AcDbArc
 50
180.0
 51
-90.0
  0
ARC
  5
1BC
330
4B
100
AcDbEntity
  8
1
  6
Continuous
 62
     7
100
AcDbCircle
 10
196.2360498862353
 20
712.2774569435887
 30
0.0
 40
0.5
100
AcDbArc
 50
-90.0
 51
0.0
  0
ARC
  5
1BD
330
4B
100
AcDbEntity
  8
1
  6
Continuous
 62
     7
100
AcDbCircle
 10
156.2360498862353
 20
707.7774569435887
 30
0.0
 40
4.0
100
AcDbArc
 50
0.0
 51
90.0
  0
ARC
  5
1BE
330
4B
100
AcDbEntity
  8
1
  6
Continuous
 62
     7
100
AcDbCircle
 10
187.2360498862353
 20
707.7774569435887
 30
0.0
 40
4.0
100
AcDbArc
 50
90.0
 51
180.0
  0
ARC
  5
1BF
330
4B
100
AcDbEntity
  8
0
  6
Continuous
 62
     7
100
AcDbCircle
 10
189.2360498862353
 20
636.1473899311479
 30
0.0
 40
5.999999999999823
100
AcDbArc
 50
155.6042478880879
 51
179.9999999999978
  0
ARC
  5
1C0
330
4B
100
AcDbEntity
  8
0
  6
Continuous
 62
     7
100
AcDbCircle
 10
189.2360498862353
 20
682.4075239560293
 30
0.0
 40
5.999999999999687
100
AcDbArc
 50
179.9999999999978
 51
-155.6042478880928
  0
ARC
  5
1C1
330
4B
100
AcDbEntity
  8
0
  6
Continuous
 62
     7
100
AcDbCircle
 10
154.2360498862356
 20
636.1473899311482
 30
0.0
 40
6.0
100
AcDbArc
 50
0.0
 51
24.39575211190848
  0
ARC
  5
1C2
330
4B
100
AcDbEntity
  8
0
  6
Continuous
 62
     7
100
AcDbCircle
 10
154.2360498862356
 20
682.4075239560295
 30
0.0
 40
6.00000000000007
100
AcDbArc
 50
-24.39575211190749
 51
0.0
  0
ARC
  5
1C3
330
4B
100
AcDbEntity
  8
0
  6
Continuous
 62
     7
100
AcDbCircle
 10
185.2360498862353
 20
616.2774569435887
 30
0.0
 40
2.0
100
AcDbArc
 50
180.0
 51
-90.0
  0
ARC
  5
1C4
330
4B
100
AcDbEntity
  8
0
  6
Continuous
 62
     7
100
AcDbCircle
 10
158.2360498862353
 20
616.2774569435887
 30
0.0
 40
2.0
100
AcDbArc
 50
-90.0
 51
0.0
  0
ARC
  5
1C5
330
4B
100
AcDbEntity
  8
0
  6
Continuous
 62
     7
100
AcDbCircle
 10
505.7360498862354
 20
291.0106517359428
 30
0.0
 40
0.4999999999999972
100
AcDbArc
 50
-175.4999999999898
 51
-90.0
  0
ARC
  5
1C6
330
4B
100
AcDbEntity
  8
0
  6
Continuous
 62
     7
100
AcDbCircle
 10
414.0584699270206
 20
303.668852507181
 30
0.0
 40
20.00000000000004
100
AcDbArc
 50
99.99999999999969
 51
169.9999999999996
  0
ARC
  5
1C7
330
4B
100
AcDbEntity
  8
0
  6
Continuous
 62
     7
100
AcDbCircle
 10
475.866116898676
 20
298.0106517359426
 30
0.0
 40
6.0
100
AcDbArc
 50
90.0
 51
114.3957521119088
  0
ARC
  5
1C8
330
4B
100
AcDbEntity
  8
0
  6
Continuous
 62
     7
100
AcDbCircle
 10
474.7360498862354
 20
333.0106517359428
 30
0.0
 40
6.0
100
AcDbArc
 50
180.0
 51
-90.0
  0
ARC
  5
1C9
330
4B
100
AcDbEntity
  8
0
  6
Continuous
 62
     7
100
AcDbCircle
 10
501.2483805513029
 20
331.0106517359428
 30
0.0
 40
4.0
100
AcDbArc
 50
-90.0
 51
-4.50000000000199
  0
ARC
  5
1CA
330
4B
100
AcDbEntity
  8
0
  6
Continuous
 62
     7
100
AcDbCircle
 10
501.2483805513029
 20
300.0106517359428
 30
0.0
 40
3.999999999999972
100
AcDbArc
 50
4.49999999999875
 51
90.0
  0
ARC
  5
1CB
330
4B
100
AcDbEntity
  8
1
  6
Continuous
 62
     7
100
AcDbCircle
 10
171.7360498862355
 20
312.0519906324822
 30
0.0
 40
9.499999999999949
100
AcDbArc
 50
52.97702336025298
 51
127.0229766397469
  0
ENDBLK
  5
4D
330
4B
100
AcDbEntity
  8
0
100
AcDbBlockEnd
  0
BLOCK
  5
1E6
330
1DF
100
AcDbEntity
  8
0
100
AcDbBlockBegin
  2
*D09
 70
     1
 71
     0
 10
0.0
 20
0.0
 30
0.0
  3
*D09
  1

  0
LINE
  5
1E0
330
1DF
100
AcDbEntity
  8
1
  6
Continuous
 62
     2
100
AcDbLine
 10
452.7360498862354
 20
180.7606517359428
 30
0.0
 11
507.7360498862354
 21
180.7606517359428
 31
0.0
  0
LINE
  5
1E1
330
1DF
100
AcDbEntity
  8
1
  6
Continuous
 62
     2
100
AcDbLine
 10
452.7360498862354
 20
294.5367006144559
 30
0.0
 11
452.7360498862354
 21
177.7606517359428
 31
0.0
  0
LINE
  5
1E2
330
1DF
100
AcDbEntity
  8
1
  6
Continuous
 62
     2
100
AcDbLine
 10
507.7360498862354
 20
290.5106517359428
 30
0.0
 11
507.7360498862354
 21
177.7606517359428
 31
0.0
  0
SOLID
  5
1E3
330
1DF
100
AcDbEntity
  8
1
 62
     2
100
AcDbTrace
 10
463.2360498862354
 20
182.1430029606104
 30
0.0
 11
463.2360498862354
 21
179.3783005112751
 31
0.0
 12
452.7360498862354
 22
180.7606517359428
 32
0.0
 13
452.7360498862354
 23
180.7606517359428
 33
0.0
  0
SOLID
  5
1E4
330
1DF
100
AcDbEntity
  8
1
 62
     2
100
AcDbTrace
 10
497.2360498862354
 20
179.3783005112751
 30
0.0
 11
497.2360498862354
 21
182.1430029606104
 31
0.0
 12
507.7360498862354
 22
180.7606517359428
 32
0.0
 13
507.7360498862354
 23
180.7606517359428
 33
0.0
  0
MTEXT
  5
1E5
330
1DF
100
AcDbEntity
  8
1
 62
     7
100
AcDbMText
 10
472.3610498862354
 20
183.7606517359428
 30
0.0
 40
10.5
 41
0.0
 71
     7
 72
     1
  1
55
  7
CONVERTER_2
 11
0.9999999999970621
 21
2.424068405545307E-6
 31
0.0
 73
     1
 44
0.60024009603842
  0
ENDBLK
  5
1E7
330
1DF
100
AcDbEntity
  8
0
100
AcDbBlockEnd
  0
BLOCK
  5
1F1
330
1EA
100
AcDbEntity
  8
0
100
AcDbBlockBegin
  2
*D110
 70
     1
 71
     0
 10
0.0
 20
0.0
 30
0.0
  3
*D110
  1

  0
LINE
  5
1EB
330
1EA
100
AcDbEntity
  8
1
  6
Continuous
 62
     2
100
AcDbLine
 10
407.7360498862354
 20
180.7606517359428
 30
0.0
 11
452.7360498862354
 21
180.7606517359428
 31
0.0
  0
LINE
  5
1EC
330
1EA
100
AcDbEntity
  8
1
  6
Continuous
 62
     2
100
AcDbLine
 10
407.7360498862354
 20
278.7606517359428
 30
0.0
 11
407.7360498862354
 21
177.7606517359428
 31
0.0
  0
LINE
  5
1ED
330
1EA
100
AcDbEntity
  8
1
  6
Continuous
 62
     2
100
AcDbLine
 10
452.7360498862354
 20
294.5367006144559
 30
0.0
 11
452.7360498862354
 21
177.7606517359428
 31
0.0
  0
SOLID
  5
1EE
330
1EA
100
AcDbEntity
  8
1
 62
     2
100
AcDbTrace
 10
418.2360498862354
 20
182.1430029606104
 30
0.0
 11
418.2360498862354
 21
179.3783005112751
 31
0.0
 12
407.7360498862354
 22
180.7606517359428
 32
0.0
 13
407.7360498862354
 23
180.7606517359428
 33
0.0
  0
SOLID
  5
1EF
330
1EA
100
AcDbEntity
  8
1
 62
     2
100
AcDbTrace
 10
442.2360498862354
 20
179.3783005112751
 30
0.0
 11
442.2360498862354
 21
182.1430029606104
 31
0.0
 12
452.7360498862354
 22
180.7606517359428
 32
0.0
 13
452.7360498862354
 23
180.7606517359428
 33
0.0
  0
MTEXT
  5
1F0
330
1EA
100
AcDbEntity
  8
1
 62
     7
100
AcDbMText
 10
422.3610498862353
 20
183.7606517359428
 30
0.0
 40
10.5
 41
0.0
 71
     7
 72
     1
  1
45
  7
CONVERTER_2
 11
0.9999999999970621
 21
2.424068405545307E-6
 31
0.0
 73
     1
 44
0.60024009603842
  0
ENDBLK
  5
1F2
330
1EA
100
AcDbEntity
  8
0
100
AcDbBlockEnd
  0
BLOCK
  5
1FC
330
1F5
100
AcDbEntity
  8
0
100
AcDbBlockBegin
  2
*D211
 70
     1
 71
     0
 10
0.0
 20
0.0
 30
0.0
  3
*D211
  1

  0
LINE
  5
1F6
330
1F5
100
AcDbEntity
  8
0
  6
Continuous
 62
     2
100
AcDbLine
 10
356.4999999999999
 20
392.0067224011035
 30
0.0
 11
356.4999999999999
 21
315.5106517359428
 31
0.0
  0
LINE
  5
1F7
330
1F5
100
AcDbEntity
  8
0
  6
Continuous
 62
     2
100
AcDbLine
 10
452.7360498862354
 20
392.0067224011035
 30
0.0
 11
353.4999999999999
 21
392.0067224011035
 31
0.0
  0
LINE
  5
1F8
330
1F5
100
AcDbEntity
  8
0
  6
Continuous
 62
     2
100
AcDbLine
 10
395.159786535669
 20
315.5106517359428
 30
0.0
 11
353.4999999999999
 21
315.5106517359428
 31
0.0
  0
SOLID
  5
1F9
330
1F5
100
AcDbEntity
  8
0
 62
     2
100
AcDbTrace
 10
357.8823512246676
 20
381.5067224011035
 30
0.0
 11
355.1176487753322
 21
381.5067224011035
 31
0.0
 12
356.4999999999999
 22
392.0067224011035
 32
0.0
 13
356.4999999999999
 23
392.0067224011035
 33
0.0
  0
SOLID
  5
1FA
330
1F5
100
AcDbEntity
  8
0
 62
     2
100
AcDbTrace
 10
355.1176487753322
 20
326.0106517359428
 30
0.0
 11
357.8823512246676
 21
326.0106517359428
 31
0.0
 12
356.4999999999999
 22
315.5106517359428
 32
0.0
 13
356.4999999999999
 23
315.5106517359428
 33
0.0
  0
MTEXT
  5
1FB
330
1F5
100
AcDbEntity
  8
0
 62
     7
100
AcDbMText
 10
353.4999999999999
 20
327.6963884585327
 30
0.0
 40
10.5
 41
0.0
 71
     7
 72
     1
  1
77リフト7
  7
CONVERTER_1
 11
0.0
 21
1.0
 31
0.0
 73
     1
 44
0.60024009603842
  0
ENDBLK
  5
1FD
330
1F5
100
AcDbEntity
  8
0
100
AcDbBlockEnd
  0
BLOCK
  5
207
330
200
100
AcDbEntity
  8
0
100
AcDbBlockBegin
  2
*D312
 70
     1
 71
     0
 10
0.0
 20
0.0
 30
0.0
  3
*D312
  1

  0
LINE
  5
201
330
200
100
AcDbEntity
  8
1
  6
Continuous
 62
     2
100
AcDbLine
 10
237.7360498862354
 20
180.7606517359428
 30
0.0
 11
407.7360498862354
 21
180.7606517359428
 31
0.0
  0
LINE
  5
202
330
200
100
AcDbEntity
  8
1
  6
Continuous
 62
     2
100
AcDbLine
 10
237.7360498862354
 20
207.0774723374496
 30
0.0
 11
237.7360498862354
 21
177.7606517359428
 31
0.0
  0
LINE
  5
203
330
200
100
AcDbEntity
  8
1
  6
Continuous
 62
     2
100
AcDbLine
 10
407.7360498862354
 20
278.7606517359428
 30
0.0
 11
407.7360498862354
 21
177.7606517359428
 31
0.0
  0
SOLID
  5
204
330
200
100
AcDbEntity
  8
1
 62
     2
100
AcDbTrace
 10
248.2360498862354
 20
182.1430029606104
 30
0.0
 11
248.2360498862354
 21
179.3783005112751
 31
0.0
 12
237.7360498862354
 22
180.7606517359428
 32
0.0
 13
237.7360498862354
 23
180.7606517359428
 33
0.0
  0
SOLID
  5
205
330
200
100
AcDbEntity
  8
1
 62
     2
100
AcDbTrace
 10
397.2360498862354
 20
179.3783005112751
 30
0.0
 11
397.2360498862354
 21
182.1430029606104
 31
0.0
 12
407.7360498862354
 22
180.7606517359428
 32
0.0
 13
407.7360498862354
 23
180.7606517359428
 33
0.0
  0
MTEXT
  5
206
330
200
100
AcDbEntity
  8
1
 62
     7
100
AcDbMText
 10
311.7110498862353
 20
183.7606517359428
 30
0.0
 40
10.5
 41
0.0
 71
     7
 72
     1
  1
170
  7
CONVERTER_2
 11
0.9999999999970621
 21
2.424068405545307E-6
 31
0.0
 73
     1
 44
0.60024009603842
  0
ENDBLK
  5
208
330
200
100
AcDbEntity
  8
0
100
AcDbBlockEnd
  0
BLOCK
  5
212
330
20B
100
AcDbEntity
  8
0
100
AcDbBlockBegin
  2
*D413
 70
     1
 71
     0
 10
0.0
 20
0.0
 30
0.0
  3
*D413
  1

  0
LINE
  5
20C
330
20B
100
AcDbEntity
  8
1
  6
Continuous
 62
     2
100
AcDbLine
 10
356.4999999999999
 20
315.5106517359429
 30
0.0
 11
356.4999999999999
 21
210.7606517359428
 31
0.0
  0
LINE
  5
20D
330
20B
100
AcDbEntity
  8
1
  6
Continuous
 62
     2
100
AcDbLine
 10
395.159786535669
 20
315.5106517359429
 30
0.0
 11
353.4999999999999
 21
315.5106517359429
 31
0.0
  0
LINE
  5
20E
330
20B
100
AcDbEntity
  8
1
  6
Continuous
 62
     2
100
AcDbLine
 10
246.4493566671577
 20
210.7606517359428
 30
0.0
 11
359.4999999999999
 21
210.7606517359428
 31
0.0
  0
SOLID
  5
20F
330
20B
100
AcDbEntity
  8
1
 62
     2
100
AcDbTrace
 10
357.8823512246676
 20
305.0106517359429
 30
0.0
 11
355.1176487753322
 21
305.0106517359429
 31
0.0
 12
356.4999999999999
 22
315.5106517359429
 32
0.0
 13
356.4999999999999
 23
315.5106517359429
 33
0.0
  0
SOLID
  5
210
330
20B
100
AcDbEntity
  8
1
 62
     2
100
AcDbTrace
 10
355.1176487753322
 20
221.2606517359428
 30
0.0
 11
357.8823512246676
 21
221.2606517359428
 31
0.0
 12
356.4999999999999
 22
210.7606517359428
 32
0.0
 13
356.4999999999999
 23
210.7606517359428
 33
0.0
  0
MTEXT
  5
211
330
20B
100
AcDbEntity
  8
1
 62
     7
100
AcDbMText
 10
353.4999999999999
 20
265.324547725823
 30
0.0
 40
10.5
 41
0.0
 71
     7
 72
     1
  1
105
  7
CONVERTER_2
 11
0.0
 21
1.0
 31
0.0
 73
     1
 44
0.60024009603842
  0
ENDBLK
  5
213
330
20B
100
AcDbEntity
  8
0
100
AcDbBlockEnd
  0
BLOCK
  5
21D
330
216
100
AcDbEntity
  8
0
100
AcDbBlockBegin
  2
*D514
 70
     1
 71
     0
 10
0.0
 20
0.0
 30
0.0
  3
*D514
  1

  0
LINE
  5
217
330
216
100
AcDbEntity
  8
1
  6
Continuous
 62
     2
100
AcDbLine
 10
553.7360498862354
 20
340.5106517359428
 30
0.0
 11
553.7360498862354
 21
290.5106517359428
 31
0.0
  0
LINE
  5
218
330
216
100
AcDbEntity
  8
1
  6
Continuous
 62
     2
100
AcDbLine
 10
507.7360498862354
 20
340.5106517359428
 30
0.0
 11
556.7360498862354
 21
340.5106517359428
 31
0.0
  0
LINE
  5
219
330
216
100
AcDbEntity
  8
1
  6
Continuous
 62
     2
100
AcDbLine
 10
507.7360498862354
 20
290.5106517359428
 30
0.0
 11
556.7360498862354
 21
290.5106517359428
 31
0.0
  0
SOLID
  5
21A
330
216
100
AcDbEntity
  8
1
 62
     2
100
AcDbTrace
 10
555.1184011109031
 20
330.0106517359428
 30
0.0
 11
552.3536986615677
 21
330.0106517359428
 31
0.0
 12
553.7360498862354
 22
340.5106517359428
 32
0.0
 13
553.7360498862354
 23
340.5106517359428
 33
0.0
  0
SOLID
  5
21B
330
216
100
AcDbEntity
  8
1
 62
     2
100
AcDbTrace
 10
552.3536986615677
 20
301.0106517359428
 30
0.0
 11
555.1184011109031
 21
301.0106517359428
 31
0.0
 12
553.7360498862354
 22
290.5106517359428
 32
0.0
 13
553.7360498862354
 23
290.5106517359428
 33
0.0
  0
MTEXT
  5
21C
330
216
100
AcDbEntity
  8
1
 62
     7
100
AcDbMText
 10
550.7360498862354
 20
296.7156517359429
 30
0.0
 40
10.5
 41
0.0
 71
     7
 72
     1
  1
\C7;{\Fgdt;n}\C7;50
  7
CONVERTER_2
 11
0.0
 21
1.0
 31
0.0
 73
     1
 44
0.60024009603842
  0
ENDBLK
  5
21E
330
216
100
AcDbEntity
  8
0
100
AcDbBlockEnd
  0
BLOCK
  5
228
330
221
100
AcDbEntity
  8
0
100
AcDbBlockBegin
  2
*D615
 70
     1
 71
     0
 10
0.0
 20
0.0
 30
0.0
  3
*D615
  1

  0
LINE
  5
222
330
221
100
AcDbEntity
  8
0
  6
Continuous
 62
     2
100
AcDbLine
 10
523.7360498862354
 20
180.7606517359428
 30
0.0
 11
546.7846002382939
 21
180.7606517359428
 31
0.0
  0
LINE
  5
223
330
221
100
AcDbEntity
  8
0
  6
Continuous
 62
     2
100
AcDbLine
 10
507.7360498862354
 20
180.7606517359428
 30
0.0
 11
523.7360498862354
 21
180.7606517359428
 31
0.0
  0
LINE
  5
224
330
221
100
AcDbEntity
  8
0
  6
Continuous
 62
     2
100
AcDbLine
 10
507.7360498862354
 20
290.5106517359428
 30
0.0
 11
507.7360498862354
 21
177.7606517359428
 31
0.0
  0
LINE
  5
225
330
221
100
AcDbEntity
  8
0
  6
Continuous
 62
     2
100
AcDbLine
 10
523.7360498862354
 20
303.4516517359427
 30
0.0
 11
523.7360498862354
 21
177.7606517359428
 31
0.0
  0
SOLID
  5
226
330
221
100
AcDbEntity
  8
0
 62
     2
100
AcDbTrace
 10
534.2360498862354
 20
182.1430029606104
 30
0.0
 11
534.2360498862354
 21
179.3783005112751
 31
0.0
 12
523.7360498862354
 22
180.7606517359428
 32
0.0
 13
523.7360498862354
 23
180.7606517359428
 33
0.0
  0
MTEXT
  5
227
330
221
100
AcDbEntity
  8
0
 62
     7
100
AcDbMText
 10
534.184600238294
 20
183.7606517359428
 30
0.0
 40
10.5
 41
0.0
 71
     7
 72
     1
  1
16
  7
CONVERTER_2
 11
0.9999999999970621
 21
2.424068405545307E-6
 31
0.0
 73
     1
 44
0.60024009603842
  0
ENDBLK
  5
229
330
221
100
AcDbEntity
  8
0
100
AcDbBlockEnd
  0
BLOCK
  5
22B
330
22A
100
AcDbEntity
  8
0
100
AcDbBlockBegin
  2
_None
 70
     0
 71
     0
 10
0.0
 20
0.0
 30
0.0
  3
_None
  1

  0
ENDBLK
  5
22C
330
22A
100
AcDbEntity
  8
0
100
AcDbBlockEnd
  0
ENDSEC
  0
SECTION
  2
ENTITIES
  0
INSERT
  5
4E
330
1F
100
AcDbEntity
  8
1
100
AcDbBlockReference
  2
_J__A4
 10
0.0
 20
0.0
 30
0.0
 41
3.0
 42
3.0
 43
3.0
  0
INSERT
  5
4F
330
1F
100
AcDbEntity
  8
1
100
AcDbBlockReference
  2
60-1-19-170
 10
255.2360498862354
 20
185.7606517359428
 30
0.0
  0
INSERT
  5
50
330
1F
100
AcDbEntity
  8
1
100
AcDbBlockReference
  2
36-1-20
 10
651.2900497264111
 20
214.7265397485023
 30
0.0
  0
INSERT
  5
51
330
1F
100
AcDbEntity
  8
1
100
AcDbBlockReference
  2
42-1
 10
-73.97703707960923
 20
342.5802532107201
 30
0.0
  0
INSERT
  5
52
330
1F
100
AcDbEntity
  8
0
100
AcDbBlockReference
  2
21-1A
 10
691.0793810098219
 20
262.5593392813527
 30
0.0
  0
INSERT
  5
53
330
1F
100
AcDbEntity
  8
1
100
AcDbBlockReference
  2
37-1-20
 10
51.80498183583094
 20
577.7956440219398
 30
0.0
  0
INSERT
  5
54
330
1F
100
AcDbEntity
  8
1
100
AcDbBlockReference
  2
32-1-19
 10
-21.85901505515804
 20
507.1004974034588
 30
0.0
  0
INSERT
  5
55
330
1F
100
AcDbEntity
  8
0
100
AcDbBlockReference
  2
A10-0-20
 10
452.7360498862354
 20
402.5106517359427
 30
0.0
  0
LINE
  5
1CC
330
1F
100
AcDbEntity
  8
1
  6
DASH_CENTER
 62
     2
100
AcDbLine
 10
237.7360498862354
 20
207.0774723374496
 30
0.0
 11
237.7360498862354
 21
219.1602002965899
 31
0.0
  0
LINE
  5
1CD
330
1F
100
AcDbEntity
  8
1
  6
DASH_CENTER
 62
     2
100
AcDbLine
 10
377.7360498862355
 20
248.7606517359428
 30
0.0
 11
267.7360498862353
 21
248.7606517359428
 31
0.0
  0
LINE
  5
1CE
330
1F
100
AcDbEntity
  8
0
  6
DASH_CENTER
 62
     2
100
AcDbLine
 10
171.7360498862354
 20
430.3904101700282
 30
0.0
 11
171.7360498862354
 21
733.2462735116359
 31
0.0
  0
LINE
  5
1CF
330
1F
100
AcDbEntity
  8
1
  6
DASH_CENTER
 62
     2
100
AcDbLine
 10
452.7360498862354
 20
294.5367006144559
 30
0.0
 11
452.7360498862354
 21
395.5067224011035
 31
0.0
  0
LINE
  5
1D0
330
1F
100
AcDbEntity
  8
0
  6
DASH_CENTER
 62
     2
100
AcDbLine
 10
527.7360498862354
 20
315.5106517359428
 30
0.0
 11
395.159786535669
 21
315.5106517359428
 31
0.0
  0
LINE
  5
1D1
330
1F
100
AcDbEntity
  8
0
  6
DASH_CENTER
 62
     2
100
AcDbLine
 10
407.7360498862354
 20
278.7606517359428
 30
0.0
 11
407.7360498862354
 21
318.0430097919439
 31
0.0
  0
LINE
  5
1D2
330
1F
100
AcDbEntity
  8
0
  6
DASH_CENTER
 62
     2
100
AcDbLine
 10
171.7360498862354
 20
394.4801481060527
 30
0.0
 11
171.7360498862354
 21
207.0774723374496
 31
0.0
  0
LINE
  5
1D3
330
1F
100
AcDbEntity
  8
0
  6
DASH_CENTER
 62
     2
100
AcDbLine
 10
143.1360498862355
 20
315.5106517359428
 30
0.0
 11
200.3360498862355
 21
315.5106517359428
 31
0.0
  0
ARC
  5
1D4
330
1F
100
AcDbEntity
  8
1
  6
DASH_CENTER
 62
     2
100
AcDbCircle
 10
267.7360498862353
 20
218.7606517359428
 30
0.0
 40
30.0
100
AcDbArc
 50
90.0
 51
180.0
  0
ARC
  5
1D5
330
1F
100
AcDbEntity
  8
1
  6
DASH_CENTER
 62
     2
100
AcDbCircle
 10
377.7360498862355
 20
278.7606517359428
 30
0.0
 40
30.00000000000003
100
AcDbArc
 50
-90.0
 51
0.0
  0
SOLID
  5
1D6
330
1F
100
AcDbEntity
  8
1
 62
     2
100
AcDbTrace
 10
189.0098986087205
 20
731.4808992956591
 30
0.0
 11
191.4042011637499
 21
730.0985480709915
 31
0.0
 12
184.9570498862351
 22
721.6964569435887
 32
0.0
 13
184.9570498862351
 23
721.6964569435887
 33
0.0
  0
LEADER
  5
1D7
330
1F
100
AcDbEntity
  8
1
  6
Continuous
 62
     2
100
AcDbLeader
  3
Standard
 71
     0
 76
     3
 10
184.9570498862351
 20
721.6964569435887
 30
0.0
 10
204.5567186723376
 20
755.6440790926399
 30
0.0
 10
256.9339584538619
 20
755.6440790926399
 30
0.0
  0
MTEXT
  5
1D9
330
1F
100
AcDbEntity
  8
1
 62
     7
100
AcDbMText
 10
281.25
 20
51.0
 30
0.0
 40
10.5
 41
0.0
 71
     5
 72
     1
  1
3
  7
CONVERTER_2
 73
     1
 44
0.7202881152461
  0
MTEXT
  5
1DA
330
1F
100
AcDbEntity
  8
1
 62
     7
100
AcDbMText
 10
255.75
 20
51.0
 30
0.0
 40
10.5
 41
0.0
 71
     5
 72
     1
  1
1
  7
CONVERTER_2
 73
     1
 44
0.7202881152461
  0
MTEXT
  5
1DB
330
1F
100
AcDbEntity
  8
0
 62
     7
100
AcDbMText
 10
171.0
 20
42.75
 30
0.0
 40
10.5
 41
0.0
 71
     5
 72
     1
  1
A10J-20
  7
CONVERTER_2
 73
     1
 44
1.32052821128451
  0
MTEXT
  5
1DC
330
1F
100
AcDbEntity
  8
0
 62
     7
100
AcDbMText
 10
171.0
 20
68.25000000000003
 30
0.0
 40
10.5
 41
0.0
 71
     5
 72
     1
  1
自在水栓
  7
CONVERTER_1
 73
     1
 44
1.32052821128451
  0
MTEXT
  5
1DD
330
1F
100
AcDbEntity
  8
1
 62
     7
100
AcDbMText
 10
230.7453385630997
 20
764.6440790926399
 30
0.0
 40
10.5
 41
0.0
 71
     5
 72
     1
  1
PJ3/4
  7
CONVERTER_2
 73
     1
 44
0.90036014405762
  0
MTEXT
  5
1DE
330
1F
100
AcDbEntity
  8
0
 62
     7
100
AcDbMText
 10
102.0
 20
102.0
 30
0.0
 40
10.5
 41
0.0
 71
     4
 72
     1
  1
JIS
  7
CONVERTER_2
 73
     1
 44
1.32052821128451
  0
DIMENSION
  5
1E9
330
1F
100
AcDbEntity
  8
1
100
AcDbDimension
  2
*D09
 10
452.7360498862354
 20
180.7606517359428
 30
0.0
 11
480.2360498862354
 21
189.0106517359428
 31
0.0
  1
<>
 71
     5
 42
0.0
 53
0.00013888888889
  3
ME10_DIM_0
100
AcDbAlignedDimension
 13
507.7360498862354
 23
290.5106517359428
 33
0.0
 14
452.7360498862354
 24
294.5367006144559
 34
0.0
100
AcDbRotatedDimension
  0
DIMENSION
  5
1F4
330
1F
100
AcDbEntity
  8
1
100
AcDbDimension
  2
*D110
 10
407.7360498862354
 20
180.7606517359428
 30
0.0
 11
430.2360498862353
 21
189.0106517359428
 31
0.0
  1
<>
 71
     5
 42
0.0
 53
0.00013888888889
  3
ME10_DIM_1
100
AcDbAlignedDimension
 13
452.7360498862354
 23
294.5367006144559
 33
0.0
 14
407.7360498862354
 24
278.7606517359428
 34
0.0
100
AcDbRotatedDimension
  0
DIMENSION
  5
1FF
330
1F
100
AcDbEntity
  8
0
100
AcDbDimension
  2
*D211
 10
356.4999999999999
 20
392.0067224011035
 30
0.0
 11
348.2499999999999
 21
356.0463884585327
 31
0.0
  1
77リフト7
 71
     5
 42
0.0
 53
90.0
  3
ME10_DIM_2
100
AcDbAlignedDimension
 13
395.159786535669
 23
315.5106517359428
 33
0.0
 14
452.7360498862353
 24
392.0067224011035
 34
0.0
 50
90.0
100
AcDbRotatedDimension
  0
DIMENSION
  5
20A
330
1F
100
AcDbEntity
  8
1
100
AcDbDimension
  2
*D312
 10
237.7360498862354
 20
180.7606517359428
 30
0.0
 11
322.7360498862353
 21
189.0106517359428
 31
0.0
  1
<>
 71
     5
 42
0.0
 53
0.00013888888889
  3
ME10_DIM_3
100
AcDbAlignedDimension
 13
407.7360498862354
 23
278.7606517359428
 33
0.0
 14
237.7360498862354
 24
207.0774723374496
 34
0.0
100
AcDbRotatedDimension
  0
DIMENSION
  5
215
330
1F
100
AcDbEntity
  8
1
100
AcDbDimension
  2
*D413
 10
356.4999999999999
 20
315.5106517359429
 30
0.0
 11
348.2499999999999
 21
276.349547725823
 31
0.0
  1
105
 71
     5
 42
0.0
 53
90.0
  3
ME10_DIM_4
100
AcDbAlignedDimension
 13
246.4493566671577
 23
210.7606517359428
 33
0.0
 14
395.159786535669
 24
315.5106517359428
 34
0.0
 50
90.0
100
AcDbRotatedDimension
  0
DIMENSION
  5
220
330
1F
100
AcDbEntity
  8
1
100
AcDbDimension
  2
*D514
 10
553.7360498862354
 20
340.5106517359428
 30
0.0
 11
545.4860498862354
 21
315.5106517359428
 31
0.0
  1
<>
 71
     5
 42
0.0
 53
90.0
  3
ME10_DIM_5
100
AcDbAlignedDimension
 13
507.7360498862354
 23
290.5106517359428
 33
0.0
 14
507.7360498862354
 24
340.5106517359428
 34
0.0
 50
90.0
100
AcDbRotatedDimension
  0
DIMENSION
  5
22E
330
1F
100
AcDbEntity
  8
0
100
AcDbDimension
  2
*D615
 10
507.7360498862354
 20
180.7606517359428
 30
0.0
 11
540.484600238294
 21
189.0106517359428
 31
0.0
  1
<>
 71
     5
 42
0.0
 53
0.00013888888889
  3
ME10_DIM_6
100
AcDbAlignedDimension
 13
523.7360498862354
 23
303.4516517359427
 33
0.0
 14
507.7360498862354
 24
290.5106517359428
 34
0.0
100
AcDbRotatedDimension
  0
ENDSEC
  0
SECTION
  2
OBJECTS
  0
DICTIONARY
  5
C
330
0
100
AcDbDictionary
281
     1
  3
ACAD_GROUP
350
D
  3
ACAD_LAYOUT
350
1A
  3
ACAD_MLINESTYLE
350
17
  3
ACAD_PLOTSETTINGS
350
19
  3
ACAD_PLOTSTYLENAME
350
E
  3
ACAD_TABLESTYLE
350
2A
  3
AcDbVariableDictionary
350
2C
  0
DICTIONARY
  5
D
102
{ACAD_REACTORS
330
C
102
}
330
C
100
AcDbDictionary
281
     1
  0
DICTIONARY
  5
1A
102
{ACAD_REACTORS
330
C
102
}
330
C
100
AcDbDictionary
281
     1
  3
Layout1
350
1E
  3
Layout2
350
26
  3
Model
350
22
  0
DICTIONARY
  5
17
102
{ACAD_REACTORS
330
C
102
}
330
C
100
AcDbDictionary
281
     1
  3
Standard
350
18
  0
DICTIONARY
  5
19
102
{ACAD_REACTORS
330
C
102
}
330
C
100
AcDbDictionary
281
     1
  0
ACDBDICTIONARYWDFLT
  5
E
102
{ACAD_REACTORS
330
C
102
}
330
C
100
AcDbDictionary
281
     1
  3
Normal
350
F
100
AcDbDictionaryWithDefault
340
F
  0
DICTIONARY
  5
2A
102
{ACAD_REACTORS
330
C
102
}
330
C
100
AcDbDictionary
281
     1
  3
Standard
350
2B
  0
DICTIONARY
  5
2C
102
{ACAD_REACTORS
330
C
102
}
330
C
100
AcDbDictionary
281
     1
  3
CTABLESTYLE
350
2D
  0
LAYOUT
  5
1E
102
{ACAD_REACTORS
330
1A
102
}
330
1A
100
AcDbPlotSettings
  1

  2

  4

  6

 40
0.0
 41
0.0
 42
0.0
 43
0.0
 44
0.0
 45
0.0
 46
0.0
 47
0.0
 48
0.0
 49
0.0
140
0.0
141
0.0
142
1.0
143
1.0
 70
   688
 72
     0
 73
     0
 74
     5
  7

 75
    16
147
1.0
148
0.0
149
0.0
100
AcDbLayout
  1
Layout1
 70
     1
 71
     1
 10
0.0
 20
0.0
 11
12.0
 21
9.0
 12
0.0
 22
0.0
 32
0.0
 14
1.00000000000000E+20
 24
1.00000000000000E+20
 34
1.00000000000000E+20
 15
-1.00000000000000E+20
 25
-1.00000000000000E+20
 35
-1.00000000000000E+20
146
0.0
 13
0.0
 23
0.0
 33
0.0
 16
1.0
 26
0.0
 36
0.0
 17
0.0
 27
1.0
 37
0.0
 76
     0
330
1B
  0
LAYOUT
  5
26
102
{ACAD_REACTORS
330
1A
102
}
330
1A
100
AcDbPlotSettings
  1

  2

  4

  6

 40
0.0
 41
0.0
 42
0.0
 43
0.0
 44
0.0
 45
0.0
 46
0.0
 47
0.0
 48
0.0
 49
0.0
140
0.0
141
0.0
142
1.0
143
1.0
 70
   688
 72
     0
 73
     0
 74
     5
  7

 75
    16
147
1.0
148
0.0
149
0.0
100
AcDbLayout
  1
Layout2
 70
     1
 71
     2
 10
0.0
 20
0.0
 11
0.0
 21
0.0
 12
0.0
 22
0.0
 32
0.0
 14
0.0
 24
0.0
 34
0.0
 15
0.0
 25
0.0
 35
0.0
146
0.0
 13
0.0
 23
0.0
 33
0.0
 16
1.0
 26
0.0
 36
0.0
 17
0.0
 27
1.0
 37
0.0
 76
     0
330
23
  0
LAYOUT
  5
22
102
{ACAD_REACTORS
330
1A
102
}
330
1A
100
AcDbPlotSettings
  1

  2

  4

  6

 40
0.0
 41
0.0
 42
0.0
 43
0.0
 44
0.0
 45
0.0
 46
0.0
 47
0.0
 48
0.0
 49
0.0
140
0.0
141
0.0
142
1.0
143
1.0
 70
  1712
 72
     0
 73
     0
 74
     0
  7

 75
     0
147
1.0
148
0.0
149
0.0
100
AcDbLayout
  1
Model
 70
     1
 71
     0
 10
0.0
 20
0.0
 11
0.0
 21
0.0
 12
0.0
 22
0.0
 32
0.0
 14
0.0
 24
0.0
 34
0.0
 15
630.0
 25
891.0
 35
0.0
146
0.0
 13
0.0
 23
0.0
 33
0.0
 16
1.0
 26
0.0
 36
0.0
 17
0.0
 27
1.0
 37
0.0
 76
     0
330
1F
  0
MLINESTYLE
  5
18
102
{ACAD_REACTORS
330
17
102
}
330
17
100
AcDbMlineStyle
  2
Standard
 70
     0
  3

 62
   256
 51
90.0
 52
90.0
 71
     2
 49
0.5
 62
   256
  6
BYLAYER
 49
-0.5
 62
   256
  6
BYLAYER
  0
ACDBPLACEHOLDER
  5
F
102
{ACAD_REACTORS
330
E
102
}
330
E
  0
TABLESTYLE
  5
2B
102
{ACAD_REACTORS
330
2A
102
}
330
2A
100
AcDbTableStyle
  3
Standard
 70
     0
 71
     0
 40
0.06
 41
0.06
280
     0
281
     0
  7
Standard
140
0.18
170
     2
 62
     0
 63
     7
283
     0
274
    -2
284
     1
 64
     0
275
    -2
285
     1
 65
     0
276
    -2
286
     1
 66
     0
277
    -2
287
     1
 67
     0
278
    -2
288
     1
 68
     0
279
    -2
289
     1
 69
     0
  7
Standard
140
0.25
170
     5
 62
     0
 63
     7
283
     0
274
    -2
284
     1
 64
     0
275
    -2
285
     1
 65
     0
276
    -2
286
     1
 66
     0
277
    -2
287
     1
 67
     0
278
    -2
288
     1
 68
     0
279
    -2
289
     1
 69
     0
  7
Standard
140
0.18
170
     5
 62
     0
 63
     7
283
     0
274
    -2
284
     1
 64
     0
275
    -2
285
     1
 65
     0
276
    -2
286
     1
 66
     0
277
    -2
287
     1
 67
     0
278
    -2
288
     1
 68
     0
279
    -2
289
     1
 69
     0
  0
DICTIONARYVAR
  5
2D
102
{ACAD_REACTORS
330
2C
102
}
330
2C
100
DictionaryVariables
280
     0
  1
Standard
  0
ENDSEC
  0
EOF
