  0
SECTION
  2
HEADER
  9
$ACADVER
  1
AC1015
  9
$ACADMAINTVER
 70
     6
  9
$DWGCODEPAGE
  3
ANSI_932
  9
$INSBASE
 10
0.0
 20
0.0
 30
0.0
  9
$EXTMIN
 10
0.0
 20
0.0
 30
0.0
  9
$EXTMAX
 10
630.0
 20
891.0
 30
0.0
  9
$LIMMIN
 10
0.0
 20
0.0
  9
$LIMMAX
 10
12.0
 20
9.0
  9
$ORTHOMODE
 70
     0
  9
$REGENMODE
 70
     1
  9
$FILLMODE
 70
     1
  9
$QTEXTMODE
 70
     0
  9
$MIRRTEXT
 70
     1
  9
$LTSCALE
 40
1.0
  9
$ATTMODE
 70
     1
  9
$TEXTSIZE
 40
0.2
  9
$TRACEWID
 40
0.05
  9
$TEXTSTYLE
  7
Standard
  9
$CLAYER
  8
0
  9
$CELTYPE
  6
ByLayer
  9
$CECOLOR
 62
   256
  9
$CELTSCALE
 40
1.0
  9
$DISPSILH
 70
     0
  9
$DIMSCALE
 40
1.0
  9
$DIMASZ
 40
0.18
  9
$DIMEXO
 40
0.0625
  9
$DIMDLI
 40
0.38
  9
$DIMRND
 40
0.0
  9
$DIMDLE
 40
0.0
  9
$DIMEXE
 40
0.18
  9
$DIMTP
 40
0.0
  9
$DIMTM
 40
0.0
  9
$DIMTXT
 40
0.18
  9
$DIMCEN
 40
0.09
  9
$DIMTSZ
 40
0.0
  9
$DIMTOL
 70
     0
  9
$DIMLIM
 70
     0
  9
$DIMTIH
 70
     1
  9
$DIMTOH
 70
     1
  9
$DIMSE1
 70
     0
  9
$DIMSE2
 70
     0
  9
$DIMTAD
 70
     0
  9
$DIMZIN
 70
     0
  9
$DIMBLK
  1

  9
$DIMASO
 70
     1
  9
$DIMSHO
 70
     1
  9
$DIMPOST
  1

  9
$DIMAPOST
  1

  9
$DIMALT
 70
     0
  9
$DIMALTD
 70
     2
  9
$DIMALTF
 40
25.4
  9
$DIMLFAC
 40
1.0
  9
$DIMTOFL
 70
     0
  9
$DIMTVP
 40
0.0
  9
$DIMTIX
 70
     0
  9
$DIMSOXD
 70
     0
  9
$DIMSAH
 70
     0
  9
$DIMBLK1
  1

  9
$DIMBLK2
  1

  9
$DIMSTYLE
  2
Standard
  9
$DIMCLRD
 70
     0
  9
$DIMCLRE
 70
     0
  9
$DIMCLRT
 70
     0
  9
$DIMTFAC
 40
1.0
  9
$DIMGAP
 40
0.09
  9
$DIMJUST
 70
     0
  9
$DIMSD1
 70
     0
  9
$DIMSD2
 70
     0
  9
$DIMTOLJ
 70
     1
  9
$DIMTZIN
 70
     0
  9
$DIMALTZ
 70
     0
  9
$DIMALTTZ
 70
     0
  9
$DIMUPT
 70
     0
  9
$DIMDEC
 70
     4
  9
$DIMTDEC
 70
     4
  9
$DIMALTU
 70
     2
  9
$DIMALTTD
 70
     2
  9
$DIMTXSTY
  7
Standard
  9
$DIMAUNIT
 70
     0
  9
$DIMADEC
 70
     0
  9
$DIMALTRND
 40
0.0
  9
$DIMAZIN
 70
     0
  9
$DIMDSEP
 70
    46
  9
$DIMATFIT
 70
     3
  9
$DIMFRAC
 70
     0
  9
$DIMLDRBLK
  1

  9
$DIMLUNIT
 70
     2
  9
$DIMLWD
 70
    -2
  9
$DIMLWE
 70
    -2
  9
$DIMTMOVE
 70
     0
  9
$LUNITS
 70
     2
  9
$LUPREC
 70
     4
  9
$SKETCHINC
 40
0.1
  9
$FILLETRAD
 40
0.5
  9
$AUNITS
 70
     0
  9
$AUPREC
 70
     0
  9
$MENU
  1
.
  9
$ELEVATION
 40
0.0
  9
$PELEVATION
 40
0.0
  9
$THICKNESS
 40
0.0
  9
$LIMCHECK
 70
     0
  9
$CHAMFERA
 40
0.5
  9
$CHAMFERB
 40
0.5
  9
$CHAMFERC
 40
1.0
  9
$CHAMFERD
 40
0.0
  9
$SKPOLY
 70
     0
  9
$TDCREATE
 40
2457186.565017245
  9
$TDUCREATE
 40
2457186.190017245
  9
$TDUPDATE
 40
2457186.565018507
  9
$TDUUPDATE
 40
2457186.190018507
  9
$TDINDWG
 40
0.0000000116
  9
$TDUSRTIMER
 40
0.0000000116
  9
$USRTIMER
 70
     1
  9
$ANGBASE
 50
0.0
  9
$ANGDIR
 70
     0
  9
$PDMODE
 70
     0
  9
$PDSIZE
 40
0.0
  9
$PLINEWID
 40
0.0
  9
$SPLFRAME
 70
     0
  9
$SPLINETYPE
 70
     6
  9
$SPLINESEGS
 70
     8
  9
$HANDSEED
  5
298
  9
$SURFTAB1
 70
     6
  9
$SURFTAB2
 70
     6
  9
$SURFTYPE
 70
     6
  9
$SURFU
 70
     6
  9
$SURFV
 70
     6
  9
$UCSBASE
  2

  9
$UCSNAME
  2

  9
$UCSORG
 10
0.0
 20
0.0
 30
0.0
  9
$UCSXDIR
 10
1.0
 20
0.0
 30
0.0
  9
$UCSYDIR
 10
0.0
 20
1.0
 30
0.0
  9
$UCSORTHOREF
  2

  9
$UCSORTHOVIEW
 70
     0
  9
$UCSORGTOP
 10
0.0
 20
0.0
 30
0.0
  9
$UCSORGBOTTOM
 10
0.0
 20
0.0
 30
0.0
  9
$UCSORGLEFT
 10
0.0
 20
0.0
 30
0.0
  9
$UCSORGRIGHT
 10
0.0
 20
0.0
 30
0.0
  9
$UCSORGFRONT
 10
0.0
 20
0.0
 30
0.0
  9
$UCSORGBACK
 10
0.0
 20
0.0
 30
0.0
  9
$PUCSBASE
  2

  9
$PUCSNAME
  2

  9
$PUCSORG
 10
0.0
 20
0.0
 30
0.0
  9
$PUCSXDIR
 10
1.0
 20
0.0
 30
0.0
  9
$PUCSYDIR
 10
0.0
 20
1.0
 30
0.0
  9
$PUCSORTHOREF
  2

  9
$PUCSORTHOVIEW
 70
     0
  9
$PUCSORGTOP
 10
0.0
 20
0.0
 30
0.0
  9
$PUCSORGBOTTOM
 10
0.0
 20
0.0
 30
0.0
  9
$PUCSORGLEFT
 10
0.0
 20
0.0
 30
0.0
  9
$PUCSORGRIGHT
 10
0.0
 20
0.0
 30
0.0
  9
$PUCSORGFRONT
 10
0.0
 20
0.0
 30
0.0
  9
$PUCSORGBACK
 10
0.0
 20
0.0
 30
0.0
  9
$USERI1
 70
     0
  9
$USERI2
 70
     0
  9
$USERI3
 70
     0
  9
$USERI4
 70
     0
  9
$USERI5
 70
     0
  9
$USERR1
 40
18.1
  9
$USERR2
 40
0.0
  9
$USERR3
 40
0.0
  9
$USERR4
 40
0.0
  9
$USERR5
 40
0.0
  9
$WORLDVIEW
 70
     1
  9
$SHADEDGE
 70
     3
  9
$SHADEDIF
 70
    70
  9
$TILEMODE
 70
     1
  9
$MAXACTVP
 70
    64
  9
$PINSBASE
 10
0.0
 20
0.0
 30
0.0
  9
$PLIMCHECK
 70
     0
  9
$PEXTMIN
 10
1.00000000000000E+20
 20
1.00000000000000E+20
 30
1.00000000000000E+20
  9
$PEXTMAX
 10
-1.00000000000000E+20
 20
-1.00000000000000E+20
 30
-1.00000000000000E+20
  9
$PLIMMIN
 10
0.0
 20
0.0
  9
$PLIMMAX
 10
12.0
 20
9.0
  9
$UNITMODE
 70
     0
  9
$VISRETAIN
 70
     1
  9
$PLINEGEN
 70
     0
  9
$PSLTSCALE
 70
     1
  9
$TREEDEPTH
 70
  3020
  9
$CMLSTYLE
  2
Standard
  9
$CMLJUST
 70
     0
  9
$CMLSCALE
 40
1.0
  9
$PROXYGRAPHICS
 70
     1
  9
$MEASUREMENT
 70
     1
  9
$CELWEIGHT
370
    -1
  9
$ENDCAPS
280
     0
  9
$JOINSTYLE
280
     0
  9
$LWDISPLAY
290
     0
  9
$INSUNITS
 70
     4
  9
$HYPERLINKBASE
  1

  9
$STYLESHEET
  1

  9
$XEDIT
290
     1
  9
$CEPSNTYPE
380
     0
  9
$PSTYLEMODE
290
     1
  9
$FINGERPRINTGUID
  2
{C97DF237-F3D5-4743-83F9-5B14F29847ED}
  9
$VERSIONGUID
  2
{FAEB1C32-E019-11D5-929B-00C0DF256EC4}
  9
$EXTNAMES
290
     1
  9
$PSVPSCALE
 40
0.0
  9
$OLESTARTUP
290
     0
  0
ENDSEC
  0
SECTION
  2
CLASSES
  0
CLASS
  1
ACDBDICTIONARYWDFLT
  2
AcDbDictionaryWithDefault
  3
ObjectDBX Classes
 90
        0
280
     0
281
     0
  0
CLASS
  1
VISUALSTYLE
  2
AcDbVisualStyle
  3
ObjectDBX Classes
 90
     4095
280
     0
281
     0
  0
CLASS
  1
MATERIAL
  2
AcDbMaterial
  3
ObjectDBX Classes
 90
     1153
280
     0
281
     0
  0
CLASS
  1
DICTIONARYVAR
  2
AcDbDictionaryVar
  3
ObjectDBX Classes
 90
        0
280
     0
281
     0
  0
CLASS
  1
ACDBPLACEHOLDER
  2
AcDbPlaceHolder
  3
ObjectDBX Classes
 90
        0
280
     0
281
     0
  0
CLASS
  1
LAYOUT
  2
AcDbLayout
  3
ObjectDBX Classes
 90
        0
280
     0
281
     0
  0
ENDSEC
  0
SECTION
  2
TABLES
  0
TABLE
  2
VPORT
  5
8
330
0
100
AcDbSymbolTable
 70
     1
  0
VPORT
  5
29
330
8
100
AcDbSymbolTableRecord
100
AcDbViewportTableRecord
  2
*Active
 70
     0
 10
0.0
 20
0.0
 11
1.0
 21
1.0
 12
315.0
 22
445.5
 13
0.0
 23
0.0
 14
0.5
 24
0.5
 15
0.5
 25
0.5
 16
0.0
 26
0.0
 36
1.0
 17
0.0
 27
0.0
 37
0.0
 40
980.1
 41
1.60267857142857
 42
50.0
 43
0.0
 44
0.0
 50
0.0
 51
0.0
 71
     0
 72
   100
 73
     1
 74
     3
 75
     0
 76
     0
 77
     0
 78
     0
281
     0
 65
     1
110
0.0
120
0.0
130
0.0
111
1.0
121
0.0
131
0.0
112
0.0
122
1.0
132
0.0
 79
     0
146
0.0
  0
ENDTAB
  0
TABLE
  2
LTYPE
  5
5
330
0
100
AcDbSymbolTable
 70
     8
  0
LTYPE
  5
14
330
5
100
AcDbSymbolTableRecord
100
AcDbLinetypeTableRecord
  2
ByBlock
 70
     0
  3

 72
    65
 73
     0
 40
0.0
  0
LTYPE
  5
15
330
5
100
AcDbSymbolTableRecord
100
AcDbLinetypeTableRecord
  2
ByLayer
 70
     0
  3

 72
    65
 73
     0
 40
0.0
  0
LTYPE
  5
16
330
5
100
AcDbSymbolTableRecord
100
AcDbLinetypeTableRecord
  2
Continuous
 70
     0
  3
Solid line
 72
    65
 73
     0
 40
0.0
  0
LTYPE
  5
3F
330
5
100
AcDbSymbolTableRecord
100
AcDbLinetypeTableRecord
  2
DASHED
 70
     0
  3
Dashed
 72
    65
 73
     2
 40
15.0
 49
7.0
 74
     0
 49
-8.0
 74
     0
  0
LTYPE
  5
40
330
5
100
AcDbSymbolTableRecord
100
AcDbLinetypeTableRecord
  2
DOTTED
 70
     0
  3
Dotted
 72
    65
 73
     2
 40
1.0
 49
0.0
 74
     0
 49
-1.0
 74
     0
  0
LTYPE
  5
41
330
5
100
AcDbSymbolTableRecord
100
AcDbLinetypeTableRecord
  2
DOT_CENTER
 70
     0
  3
Dot_Center
 72
    65
 73
     4
 40
14.0
 49
12.0
 74
     0
 49
-1.0
 74
     0
 49
0.0
 74
     0
 49
-1.0
 74
     0
  0
LTYPE
  5
42
330
5
100
AcDbSymbolTableRecord
100
AcDbLinetypeTableRecord
  2
LONG_DASHED
 70
     0
  3
Long_Dashed
 72
    65
 73
     2
 40
15.0
 49
10.0
 74
     0
 49
-5.0
 74
     0
  0
LTYPE
  5
43
330
5
100
AcDbSymbolTableRecord
100
AcDbLinetypeTableRecord
  2
DASH_CENTER
 70
     0
  3
Dash_Center
 72
    65
 73
     4
 40
14.0
 49
11.0
 74
     0
 49
-1.0
 74
     0
 49
1.0
 74
     0
 49
-1.0
 74
     0
  0
LTYPE
  5
44
330
5
100
AcDbSymbolTableRecord
100
AcDbLinetypeTableRecord
  2
PHANTOM
 70
     0
  3
Phantom
 72
    65
 73
     6
 40
13.0
 49
10.0
 74
     0
 49
-1.0
 74
     0
 49
0.0
 74
     0
 49
-1.0
 74
     0
 49
0.0
 74
     0
 49
-1.0
 74
     0
  0
LTYPE
  5
45
330
5
100
AcDbSymbolTableRecord
100
AcDbLinetypeTableRecord
  2
CENTER_DASH_DASH
 70
     0
  3
Center_Dash_Dash
 72
    65
 73
     6
 40
14.0
 49
9.0
 74
     0
 49
-1.0
 74
     0
 49
1.0
 74
     0
 49
-1.0
 74
     0
 49
1.0
 74
     0
 49
-1.0
 74
     0
  0
ENDTAB
  0
TABLE
  2
LAYER
  5
2
330
0
100
AcDbSymbolTable
 70
     2
  0
LAYER
  5
10
330
2
100
AcDbSymbolTableRecord
100
AcDbLayerTableRecord
  2
0
 70
     0
 62
     7
  6
Continuous
370
    -3
390
F
  0
LAYER
  5
46
330
2
100
AcDbSymbolTableRecord
100
AcDbLayerTableRecord
  2
1
 70
     0
 62
     7
  6
Continuous
370
    -3
390
F
  0
ENDTAB
  0
TABLE
  2
STYLE
  5
3
330
0
100
AcDbSymbolTable
 70
     3
  0
STYLE
  5
11
330
3
100
AcDbSymbolTableRecord
100
AcDbTextStyleTableRecord
  2
Standard
 70
     0
 40
0.0
 41
1.0
 50
0.0
 71
     0
 42
0.2
  3
txt
  4

  0
STYLE
  5
1F6
330
3
100
AcDbSymbolTableRecord
100
AcDbTextStyleTableRecord
  2
CONVERTER_11
 70
     0
 40
0.0
 41
0.89
 50
0.0
 71
     0
 42
0.2
  3
MS Mincho.ttf
  4

1001
ACAD
1000
MS Mincho
1071
    32785
  0
STYLE
  5
216
330
3
100
AcDbSymbolTableRecord
100
AcDbTextStyleTableRecord
  2
CONVERTER_12
 70
     0
 40
0.0
 41
0.9
 50
0.0
 71
     0
 42
0.2
  3
txt.shx
  4

  0
ENDTAB
  0
TABLE
  2
VIEW
  5
6
330
0
100
AcDbSymbolTable
 70
     0
  0
ENDTAB
  0
TABLE
  2
UCS
  5
7
330
0
100
AcDbSymbolTable
 70
     0
  0
ENDTAB
  0
TABLE
  2
APPID
  5
9
330
0
100
AcDbSymbolTable
 70
     1
  0
APPID
  5
12
330
9
100
AcDbSymbolTableRecord
100
AcDbRegAppTableRecord
  2
ACAD
 70
     0
  0
ENDTAB
  0
TABLE
  2
DIMSTYLE
  5
A
330
0
100
AcDbSymbolTable
 70
     8
100
AcDbDimStyleTable
  0
DIMSTYLE
105
27
330
A
100
AcDbSymbolTableRecord
100
AcDbDimStyleTableRecord
  2
Standard
 70
     0
178
     0
340
11
  0
DIMSTYLE
105
226
102
{ACAD_REACTORS
330
227
102
}
330
A
100
AcDbSymbolTableRecord
100
AcDbDimStyleTableRecord
  2
ME10_DIM_10
 70
     0
 41
10.5
 42
0.0
 44
3.0
 73
     0
 74
     0
 77
     1
 78
     8
140
10.5
147
3.0
172
     1
173
     1
174
     1
175
     1
176
     2
177
     2
271
     2
178
     7
271
     2
340
216
  0
DIMSTYLE
105
231
102
{ACAD_REACTORS
330
232
102
}
330
A
100
AcDbSymbolTableRecord
100
AcDbDimStyleTableRecord
  2
ME10_DIM_11
 70
     0
  3
{\Fgdt;n}<>
 41
10.5
 42
0.0
 44
3.0
 73
     0
 74
     0
 77
     1
 78
     8
140
10.5
147
3.0
172
     1
173
     1
174
     1
175
     1
176
     2
177
     2
271
     2
178
     7
271
     2
340
216
  0
DIMSTYLE
105
23C
102
{ACAD_REACTORS
330
23D
102
}
330
A
100
AcDbSymbolTableRecord
100
AcDbDimStyleTableRecord
  2
ME10_DIM_12
 70
     0
 41
10.5
 42
0.0
 44
3.0
 73
     0
 74
     0
 77
     1
 78
     8
140
10.5
147
3.0
172
     1
173
     1
174
     1
175
     1
176
     2
177
     2
271
     2
178
     7
271
     2
340
1F6
  0
DIMSTYLE
105
24A
102
{ACAD_REACTORS
330
24B
102
}
330
A
100
AcDbSymbolTableRecord
100
AcDbDimStyleTableRecord
  2
ME10_DIM_13
 70
     0
 41
10.5
 42
0.0
 44
3.0
 73
     0
 74
     0
 77
     1
 78
     8
140
10.5
147
3.0
172
     1
173
     1
174
     1
175
     1
176
     2
177
     2
271
     2
178
     7
271
     2
340
216
344
247
  0
DIMSTYLE
105
255
102
{ACAD_REACTORS
330
256
102
}
330
A
100
AcDbSymbolTableRecord
100
AcDbDimStyleTableRecord
  2
ME10_DIM_14
 70
     0
 41
10.5
 42
0.0
 44
3.0
 73
     0
 74
     0
 77
     1
 78
     8
140
10.5
147
3.0
172
     1
173
     1
174
     1
175
     1
176
     2
177
     2
271
     2
178
     7
271
     2
340
216
  0
DIMSTYLE
105
260
102
{ACAD_REACTORS
330
261
102
}
330
A
100
AcDbSymbolTableRecord
100
AcDbDimStyleTableRecord
  2
ME10_DIM_15
 70
     0
 41
10.5
 42
0.0
 44
3.0
 73
     0
 74
     0
 77
     1
 78
     8
140
10.5
147
3.0
172
     1
173
     1
174
     1
175
     1
176
     2
177
     2
271
     2
178
     7
271
     2
340
216
  0
DIMSTYLE
105
26B
102
{ACAD_REACTORS
330
26C
102
}
330
A
100
AcDbSymbolTableRecord
100
AcDbDimStyleTableRecord
  2
ME10_DIM_16
 70
     0
 41
10.5
 42
0.0
 44
3.0
 73
     0
 74
     0
 77
     1
 78
     8
140
10.5
147
3.0
172
     1
173
     1
174
     1
175
     1
176
     2
177
     2
271
     2
178
     7
271
     2
340
216
  0
ENDTAB
  0
TABLE
  2
BLOCK_RECORD
  5
1
330
0
100
AcDbSymbolTable
 70
    17
  0
BLOCK_RECORD
  5
1F
330
1
100
AcDbSymbolTableRecord
100
AcDbBlockTableRecord
  2
*Model_Space
340
22
  0
BLOCK_RECORD
  5
1B
330
1
100
AcDbSymbolTableRecord
100
AcDbBlockTableRecord
  2
*Paper_Space
340
1E
  0
BLOCK_RECORD
  5
23
330
1
100
AcDbSymbolTableRecord
100
AcDbBlockTableRecord
  2
*Paper_Space0
340
26
  0
BLOCK_RECORD
  5
47
330
1
100
AcDbSymbolTableRecord
100
AcDbBlockTableRecord
  2
21-1D
340
0
102
{BLKREFS
331
5F
102
}
  0
BLOCK_RECORD
  5
4A
330
1
100
AcDbSymbolTableRecord
100
AcDbBlockTableRecord
  2
42-1
340
0
102
{BLKREFS
331
60
102
}
  0
BLOCK_RECORD
  5
4D
330
1
100
AcDbSymbolTableRecord
100
AcDbBlockTableRecord
  2
37-1-13
340
0
102
{BLKREFS
331
61
102
}
  0
BLOCK_RECORD
  5
50
330
1
100
AcDbSymbolTableRecord
100
AcDbBlockTableRecord
  2
36-1A-13-M11
340
0
102
{BLKREFS
331
62
102
}
  0
BLOCK_RECORD
  5
53
330
1
100
AcDbSymbolTableRecord
100
AcDbBlockTableRecord
  2
A10-0A-13
340
0
102
{BLKREFS
331
63
102
}
  0
BLOCK_RECORD
  5
56
330
1
100
AcDbSymbolTableRecord
100
AcDbBlockTableRecord
  2
32-1-16
340
0
102
{BLKREFS
331
64
102
}
  0
BLOCK_RECORD
  5
59
330
1
100
AcDbSymbolTableRecord
100
AcDbBlockTableRecord
  2
60-1-16-240
340
0
102
{BLKREFS
331
65
102
}
  0
BLOCK_RECORD
  5
5C
330
1
100
AcDbSymbolTableRecord
100
AcDbBlockTableRecord
  2
開示A4
340
0
102
{BLKREFS
331
66
102
}
  0
BLOCK_RECORD
  5
21D
330
1
100
AcDbSymbolTableRecord
100
AcDbBlockTableRecord
  2
*D9
340
0
  0
BLOCK_RECORD
  5
228
330
1
100
AcDbSymbolTableRecord
100
AcDbBlockTableRecord
  2
*D10
340
0
  0
BLOCK_RECORD
  5
233
330
1
100
AcDbSymbolTableRecord
100
AcDbBlockTableRecord
  2
*D11
340
0
  0
BLOCK_RECORD
  5
23E
330
1
100
AcDbSymbolTableRecord
100
AcDbBlockTableRecord
  2
*D12
340
0
  0
BLOCK_RECORD
  5
247
330
1
100
AcDbSymbolTableRecord
100
AcDbBlockTableRecord
  2
_NONE
340
0
  0
BLOCK_RECORD
  5
24C
330
1
100
AcDbSymbolTableRecord
100
AcDbBlockTableRecord
  2
*D14
340
0
  0
BLOCK_RECORD
  5
257
330
1
100
AcDbSymbolTableRecord
100
AcDbBlockTableRecord
  2
*D15
340
0
  0
BLOCK_RECORD
  5
262
330
1
100
AcDbSymbolTableRecord
100
AcDbBlockTableRecord
  2
*D16
340
0
  0
ENDTAB
  0
ENDSEC
  0
SECTION
  2
BLOCKS
  0
BLOCK
  5
20
330
1F
100
AcDbEntity
  8
0
100
AcDbBlockBegin
  2
*Model_Space
 70
     0
 10
0.0
 20
0.0
 30
0.0
  3
*Model_Space
  1

  0
ENDBLK
  5
21
330
1F
100
AcDbEntity
  8
0
100
AcDbBlockEnd
  0
BLOCK
  5
1C
330
1B
100
AcDbEntity
 67
     1
  8
0
100
AcDbBlockBegin
  2
*Paper_Space
 70
     0
 10
0.0
 20
0.0
 30
0.0
  3
*Paper_Space
  1

  0
ENDBLK
  5
1D
330
1B
100
AcDbEntity
 67
     1
  8
0
100
AcDbBlockEnd
  0
BLOCK
  5
24
330
23
100
AcDbEntity
  8
0
100
AcDbBlockBegin
  2
*Paper_Space0
 70
     0
 10
0.0
 20
0.0
 30
0.0
  3
*Paper_Space0
  1

  0
ENDBLK
  5
25
330
23
100
AcDbEntity
  8
0
100
AcDbBlockEnd
  0
BLOCK
  5
48
330
47
100
AcDbEntity
  8
0
100
AcDbBlockBegin
  2
21-1D
 70
     0
 10
1660.575891435571
 20
2837.087459863109
 30
0.0
  3
21-1D
  1

  0
LINE
  5
67
330
47
100
AcDbEntity
  8
1
  6
Continuous
 62
     7
100
AcDbLine
 10
494.8755684285283
 20
348.1137913450993
 30
0.0
 11
502.8755684285271
 21
348.1137913450993
 31
0.0
  0
LINE
  5
68
330
47
100
AcDbEntity
  8
1
  6
Continuous
 62
     7
100
AcDbLine
 10
468.4075266967592
 20
340.8988711004499
 30
0.0
 11
467.9556185977668
 21
337.6833778955793
 31
0.0
  0
LINE
  5
69
330
47
100
AcDbEntity
  8
1
  6
Continuous
 62
     7
100
AcDbLine
 10
516.6782542828784
 20
342.0728679508429
 30
0.0
 11
517.2954717768858
 21
337.683413277812
 31
0.0
  0
LINE
  5
6A
330
47
100
AcDbEntity
  8
1
  6
Continuous
 62
     7
100
AcDbLine
 10
516.8003427164527
 20
337.1137913450993
 30
0.0
 11
468.4507526321378
 21
337.1137913450993
 31
0.0
  0
LINE
  5
6B
330
47
100
AcDbEntity
  8
1
  6
Continuous
 62
     7
100
AcDbLine
 10
170.6547684209667
 20
657.2451256415
 30
0.0
 11
174.3061776324371
 21
670.872370337933
 31
0.0
  0
LINE
  5
6C
330
47
100
AcDbEntity
  8
1
  6
Continuous
 62
     7
100
AcDbLine
 10
190.7524892449624
 20
692.0553992249959
 30
0.0
 11
180.77665376
 21
682.0795637400336
 31
0.0
  0
LINE
  5
6D
330
47
100
AcDbEntity
  8
1
  6
Continuous
 62
     7
100
AcDbLine
 10
185.7174391898485
 20
702.2973715443466
 30
0.0
 11
171.3296895907952
 21
698.4421856583792
 31
0.0
  0
LINE
  5
6E
330
47
100
AcDbEntity
  8
1
  6
Continuous
 62
     7
100
AcDbLine
 10
144.7614926392363
 20
702.0935948698498
 30
0.0
 11
158.3887373356691
 21
698.4421856583792
 31
0.0
  0
LINE
  5
6F
330
47
100
AcDbEntity
  8
1
  6
Continuous
 62
     7
100
AcDbLine
 10
138.9659376815019
 20
692.0553992249959
 30
0.0
 11
148.9417731664644
 21
682.0795637400336
 31
0.0
  0
LINE
  5
70
330
47
100
AcDbEntity
  8
1
  6
Continuous
 62
     7
100
AcDbLine
 10
159.0636585054978
 20
657.2451256415
 30
0.0
 11
155.4122492940273
 21
670.872370337933
 31
0.0
  0
LINE
  5
71
330
47
100
AcDbEntity
  8
1
  6
Continuous
 62
     7
100
AcDbLine
 10
137.7085783686213
 20
337.1137913450992
 30
0.0
 11
192.0098485578432
 21
337.1137913450992
 31
0.0
  0
LINE
  5
72
330
47
100
AcDbEntity
  8
1
  6
Continuous
 62
     7
100
AcDbLine
 10
192.5049825922141
 20
337.6833778955794
 30
0.0
 11
192.0530744932216
 21
340.8988711004498
 31
0.0
  0
LINE
  5
73
330
47
100
AcDbEntity
  8
1
  6
Continuous
 62
     7
100
AcDbLine
 10
137.6653524332429
 20
340.8988711004498
 30
0.0
 11
137.2134443342505
 21
337.6833778955794
 31
0.0
  0
ARC
  5
74
330
47
100
AcDbEntity
  8
1
  6
Continuous
 62
     7
100
AcDbCircle
 10
498.8755684285271
 20
198.1137913450993
 30
0.0
 40
150.0533238552215
100
AcDbArc
 50
91.52752544221293
 51
99.80290179376779
  0
ARC
  5
75
330
47
100
AcDbEntity
  8
1
  6
Continuous
 62
     7
100
AcDbCircle
 10
499.2397640937739
 20
273.2019703364001
 30
0.0
 40
74.99999999999989
100
AcDbArc
 50
80.40850751733493
 51
87.22136103403743
  0
ARC
  5
76
330
47
100
AcDbEntity
  8
1
  6
Continuous
 62
     7
100
AcDbCircle
 10
164.8592134632321
 20
658.7980399121154
 30
0.0
 40
6.0
100
AcDbArc
 50
270.0
 51
344.9999999999972
  0
ARC
  5
77
330
47
100
AcDbEntity
  8
1
  6
Continuous
 62
     7
100
AcDbCircle
 10
186.5098485578432
 20
696.2980399121154
 30
0.0
 40
6.000000000000109
100
AcDbArc
 50
314.9999999999975
 51
97.52424107894262
  0
ARC
  5
78
330
47
100
AcDbEntity
  8
1
  6
Continuous
 62
     7
100
AcDbCircle
 10
143.2085783686213
 20
696.2980399121154
 30
0.0
 40
5.999999999999905
100
AcDbArc
 50
75.0000000000008
 51
225.0000000000012
  0
ARC
  5
79
330
47
100
AcDbEntity
  8
1
  6
Continuous
 62
     7
100
AcDbCircle
 10
164.8592134632321
 20
658.7980399121154
 30
0.0
 40
5.999999999999967
100
AcDbArc
 50
195.0000000000036
 51
270.0
  0
ARC
  5
7A
330
47
100
AcDbEntity
  8
1
  6
Continuous
 62
     7
100
AcDbCircle
 10
163.222123112343
 20
220.7436388047748
 30
0.0
 40
127.494833408141
100
AcDbArc
 50
79.19050675364782
 51
87.46588310520265
  0
ARC
  5
7B
330
47
100
AcDbEntity
  8
1
  6
Continuous
 62
     7
100
AcDbCircle
 10
166.4963038141215
 20
220.7436388047748
 30
0.0
 40
127.4948334081408
100
AcDbArc
 50
92.53411689479738
 51
100.8094932463522
  0
ARC
  5
7C
330
47
100
AcDbEntity
  8
1
  6
Continuous
 62
     7
100
AcDbCircle
 10
474.3491351092085
 20
340.0638324946895
 30
0.0
 40
5.999999999999994
100
AcDbArc
 50
99.80290179376647
 51
171.9999999999996
  0
ARC
  5
7D
330
47
100
AcDbEntity
  8
1
  6
Continuous
 62
     7
100
AcDbCircle
 10
510.7367055576812
 20
341.2374047582914
 30
0.0
 40
6.000000000000022
100
AcDbArc
 50
8.00409437170206
 51
80.40850751733541
  0
ARC
  5
7E
330
47
100
AcDbEntity
  8
1
  6
Continuous
 62
     7
100
AcDbCircle
 10
468.4507526321378
 20
337.6137913450993
 30
0.0
 40
0.5000000000002194
100
AcDbArc
 50
172.0000000000028
 51
270.0
  0
ARC
  5
7F
330
47
100
AcDbEntity
  8
1
  6
Continuous
 62
     7
100
AcDbCircle
 10
516.8003427164527
 20
337.6137913450993
 30
0.0
 40
0.5
100
AcDbArc
 50
270.0
 51
8.00409437171274
  0
ARC
  5
80
330
47
100
AcDbEntity
  8
1
  6
Continuous
 62
     7
100
AcDbCircle
 10
198.4543232896638
 20
664.4018942103701
 30
0.0
 40
24.99999999999994
100
AcDbArc
 50
135.0000000000005
 51
165.0000000000001
  0
ARC
  5
81
330
47
100
AcDbEntity
  8
1
  6
Continuous
 62
     7
100
AcDbCircle
 10
164.8592134632321
 20
722.5903313156059
 30
0.0
 40
24.99999999999996
100
AcDbArc
 50
255.0
 51
285.0000000000002
  0
ARC
  5
82
330
47
100
AcDbEntity
  8
1
  6
Continuous
 62
     7
100
AcDbCircle
 10
131.2641036368007
 20
664.4018942103701
 30
0.0
 40
24.99999999999988
100
AcDbArc
 50
14.99999999999994
 51
44.99999999999968
  0
ARC
  5
83
330
47
100
AcDbEntity
  8
1
  6
Continuous
 62
     7
100
AcDbCircle
 10
186.1114660807722
 20
340.0638324946898
 30
0.0
 40
5.999999999999925
100
AcDbArc
 50
7.9999999999965
 51
80.19709820623193
  0
ARC
  5
84
330
47
100
AcDbEntity
  8
1
  6
Continuous
 62
     7
100
AcDbCircle
 10
192.0098485578432
 20
337.6137913450992
 30
0.0
 40
0.5
100
AcDbArc
 50
270.0
 51
8.00000000001841
  0
ARC
  5
85
330
47
100
AcDbEntity
  8
1
  6
Continuous
 62
     7
100
AcDbCircle
 10
137.7085783686213
 20
337.6137913450992
 30
0.0
 40
0.500000000000018
100
AcDbArc
 50
171.9999999999798
 51
270.0
  0
ARC
  5
86
330
47
100
AcDbEntity
  8
1
  6
Continuous
 62
     7
100
AcDbCircle
 10
143.6069608456922
 20
340.0638324946898
 30
0.0
 40
5.999999999999855
100
AcDbArc
 50
99.80290179376834
 51
172.0000000000034
  0
ENDBLK
  5
49
330
47
100
AcDbEntity
  8
0
100
AcDbBlockEnd
  0
BLOCK
  5
4B
330
4A
100
AcDbEntity
  8
0
100
AcDbBlockBegin
  2
42-1
 70
     0
 10
410.7713083419234
 20
142.3241423355146
 30
0.0
  3
42-1
  1

  0
LINE
  5
87
330
4A
100
AcDbEntity
  8
1
  6
Continuous
 62
     7
100
AcDbLine
 10
491.8755684285269
 20
351.1137913450993
 30
0.0
 11
505.8755684285269
 21
351.1137913450993
 31
0.0
  0
LINE
  5
88
330
4A
100
AcDbEntity
  8
1
  6
Continuous
 62
     7
100
AcDbLine
 10
493.1255684285269
 20
351.4435570653031
 30
0.0
 11
504.6255684285268
 21
351.4435570653031
 31
0.0
  0
LINE
  5
89
330
4A
100
AcDbEntity
  8
1
  6
Continuous
 62
     2
100
AcDbLine
 10
497.8755684285269
 20
350.3561294472706
 30
0.0
 11
497.8755684285269
 21
349.0908903566602
 31
0.0
  0
LINE
  5
8A
330
4A
100
AcDbEntity
  8
1
  6
Continuous
 62
     2
100
AcDbLine
 10
496.8755684285269
 20
350.5994446570034
 30
0.0
 11
496.8755684285269
 21
348.8313541329452
 31
0.0
  0
LINE
  5
8B
330
4A
100
AcDbEntity
  8
1
  6
Continuous
 62
     2
100
AcDbLine
 10
495.8755684285269
 20
350.8103178387718
 30
0.0
 11
495.8755684285269
 21
348.4744918253372
 31
0.0
  0
LINE
  5
8C
330
4A
100
AcDbEntity
  8
1
  6
Continuous
 62
     2
100
AcDbLine
 10
494.8755684285269
 20
350.9238649366471
 30
0.0
 11
494.8755684285269
 21
348.279839657551
 31
0.0
  0
LINE
  5
8D
330
4A
100
AcDbEntity
  8
1
  6
Continuous
 62
     2
100
AcDbLine
 10
493.8755684285269
 20
351.1137913450993
 30
0.0
 11
493.8755684285269
 21
348.1137913450993
 31
0.0
  0
LINE
  5
8E
330
4A
100
AcDbEntity
  8
1
  6
Continuous
 62
     7
100
AcDbLine
 10
491.8755684285269
 20
348.1137913450993
 30
0.0
 11
505.8755684285269
 21
348.1137913450993
 31
0.0
  0
LINE
  5
8F
330
4A
100
AcDbEntity
  8
1
  6
Continuous
 62
     2
100
AcDbLine
 10
492.8755684285269
 20
351.1137913450993
 30
0.0
 11
492.8755684285269
 21
348.1137913450993
 31
0.0
  0
LINE
  5
90
330
4A
100
AcDbEntity
  8
1
  6
Continuous
 62
     7
100
AcDbLine
 10
491.8755684285269
 20
351.1137913450993
 30
0.0
 11
492.8755684285268
 21
351.3831135441226
 31
0.0
  0
LINE
  5
91
330
4A
100
AcDbEntity
  8
1
  6
Continuous
 62
     7
100
AcDbLine
 10
491.8755684285269
 20
348.1137913450993
 30
0.0
 11
491.8755684285269
 21
351.1137913450993
 31
0.0
  0
LINE
  5
92
330
4A
100
AcDbEntity
  8
1
  6
Continuous
 62
     7
100
AcDbLine
 10
505.8755684285269
 20
351.1137913450993
 30
0.0
 11
505.8755684285269
 21
348.1137913450993
 31
0.0
  0
LINE
  5
93
330
4A
100
AcDbEntity
  8
1
  6
Continuous
 62
     7
100
AcDbLine
 10
504.8755684285269
 20
351.3831135441226
 30
0.0
 11
505.8755684285269
 21
351.1137913450993
 31
0.0
  0
LINE
  5
94
330
4A
100
AcDbEntity
  8
1
  6
Continuous
 62
     2
100
AcDbLine
 10
504.8755684285269
 20
348.1137913450993
 30
0.0
 11
504.8755684285269
 21
351.1137913450993
 31
0.0
  0
LINE
  5
95
330
4A
100
AcDbEntity
  8
1
  6
Continuous
 62
     2
100
AcDbLine
 10
503.8755684285268
 20
348.1137913450993
 30
0.0
 11
503.8755684285268
 21
351.1137913450993
 31
0.0
  0
LINE
  5
96
330
4A
100
AcDbEntity
  8
1
  6
Continuous
 62
     2
100
AcDbLine
 10
502.8755684285268
 20
348.279839657551
 30
0.0
 11
502.8755684285268
 21
350.9238649366471
 31
0.0
  0
LINE
  5
97
330
4A
100
AcDbEntity
  8
1
  6
Continuous
 62
     2
100
AcDbLine
 10
501.8755684285268
 20
348.4744918253372
 30
0.0
 11
501.8755684285268
 21
350.8103178387718
 31
0.0
  0
LINE
  5
98
330
4A
100
AcDbEntity
  8
1
  6
Continuous
 62
     2
100
AcDbLine
 10
500.8755684285268
 20
348.8313541329452
 30
0.0
 11
500.8755684285268
 21
350.5994446570034
 31
0.0
  0
LINE
  5
99
330
4A
100
AcDbEntity
  8
1
  6
Continuous
 62
     2
100
AcDbLine
 10
499.8755684285268
 20
349.0908903566602
 30
0.0
 11
499.8755684285268
 21
350.3561294472706
 31
0.0
  0
LINE
  5
9A
330
4A
100
AcDbEntity
  8
1
  6
Continuous
 62
     7
100
AcDbLine
 10
157.8592134632322
 20
351.1137913450993
 30
0.0
 11
171.8592134632322
 21
351.1137913450993
 31
0.0
  0
LINE
  5
9B
330
4A
100
AcDbEntity
  8
1
  6
Continuous
 62
     7
100
AcDbLine
 10
159.1092134632322
 20
351.4435570653031
 30
0.0
 11
170.6092134632321
 21
351.4435570653031
 31
0.0
  0
LINE
  5
9C
330
4A
100
AcDbEntity
  8
1
  6
Continuous
 62
     2
100
AcDbLine
 10
163.8592134632322
 20
350.3561294472706
 30
0.0
 11
163.8592134632322
 21
349.0908903566602
 31
0.0
  0
LINE
  5
9D
330
4A
100
AcDbEntity
  8
1
  6
Continuous
 62
     2
100
AcDbLine
 10
162.8592134632322
 20
350.5994446570034
 30
0.0
 11
162.8592134632322
 21
348.8313541329452
 31
0.0
  0
LINE
  5
9E
330
4A
100
AcDbEntity
  8
1
  6
Continuous
 62
     2
100
AcDbLine
 10
161.8592134632322
 20
350.8103178387718
 30
0.0
 11
161.8592134632322
 21
348.4744918253372
 31
0.0
  0
LINE
  5
9F
330
4A
100
AcDbEntity
  8
1
  6
Continuous
 62
     2
100
AcDbLine
 10
160.8592134632322
 20
350.9238649366471
 30
0.0
 11
160.8592134632322
 21
348.279839657551
 31
0.0
  0
LINE
  5
A0
330
4A
100
AcDbEntity
  8
1
  6
Continuous
 62
     2
100
AcDbLine
 10
159.8592134632322
 20
351.1137913450993
 30
0.0
 11
159.8592134632322
 21
348.1137913450993
 31
0.0
  0
LINE
  5
A1
330
4A
100
AcDbEntity
  8
1
  6
Continuous
 62
     7
100
AcDbLine
 10
157.8592134632322
 20
348.1137913450993
 30
0.0
 11
171.8592134632322
 21
348.1137913450993
 31
0.0
  0
LINE
  5
A2
330
4A
100
AcDbEntity
  8
1
  6
Continuous
 62
     2
100
AcDbLine
 10
158.8592134632322
 20
351.1137913450993
 30
0.0
 11
158.8592134632322
 21
348.1137913450993
 31
0.0
  0
LINE
  5
A3
330
4A
100
AcDbEntity
  8
1
  6
Continuous
 62
     7
100
AcDbLine
 10
157.8592134632322
 20
351.1137913450993
 30
0.0
 11
158.8592134632321
 21
351.3831135441226
 31
0.0
  0
LINE
  5
A4
330
4A
100
AcDbEntity
  8
1
  6
Continuous
 62
     7
100
AcDbLine
 10
157.8592134632322
 20
348.1137913450993
 30
0.0
 11
157.8592134632322
 21
351.1137913450993
 31
0.0
  0
LINE
  5
A5
330
4A
100
AcDbEntity
  8
1
  6
Continuous
 62
     7
100
AcDbLine
 10
171.8592134632322
 20
351.1137913450993
 30
0.0
 11
171.8592134632322
 21
348.1137913450993
 31
0.0
  0
LINE
  5
A6
330
4A
100
AcDbEntity
  8
1
  6
Continuous
 62
     7
100
AcDbLine
 10
170.8592134632322
 20
351.3831135441226
 30
0.0
 11
171.8592134632322
 21
351.1137913450993
 31
0.0
  0
LINE
  5
A7
330
4A
100
AcDbEntity
  8
1
  6
Continuous
 62
     2
100
AcDbLine
 10
170.8592134632322
 20
348.1137913450993
 30
0.0
 11
170.8592134632322
 21
351.1137913450993
 31
0.0
  0
LINE
  5
A8
330
4A
100
AcDbEntity
  8
1
  6
Continuous
 62
     2
100
AcDbLine
 10
169.8592134632321
 20
348.1137913450993
 30
0.0
 11
169.8592134632321
 21
351.1137913450993
 31
0.0
  0
LINE
  5
A9
330
4A
100
AcDbEntity
  8
1
  6
Continuous
 62
     2
100
AcDbLine
 10
168.8592134632321
 20
348.279839657551
 30
0.0
 11
168.8592134632321
 21
350.9238649366471
 31
0.0
  0
LINE
  5
AA
330
4A
100
AcDbEntity
  8
1
  6
Continuous
 62
     2
100
AcDbLine
 10
167.8592134632321
 20
348.4744918253372
 30
0.0
 11
167.8592134632321
 21
350.8103178387718
 31
0.0
  0
LINE
  5
AB
330
4A
100
AcDbEntity
  8
1
  6
Continuous
 62
     2
100
AcDbLine
 10
166.8592134632321
 20
348.8313541329452
 30
0.0
 11
166.8592134632321
 21
350.5994446570034
 31
0.0
  0
LINE
  5
AC
330
4A
100
AcDbEntity
  8
1
  6
Continuous
 62
     2
100
AcDbLine
 10
165.8592134632321
 20
349.0908903566602
 30
0.0
 11
165.8592134632321
 21
350.3561294472706
 31
0.0
  0
ARC
  5
AD
330
4A
100
AcDbEntity
  8
1
  6
Continuous
 62
     7
100
AcDbCircle
 10
498.8755684285269
 20
327.1137913450993
 30
0.0
 40
25.0
100
AcDbArc
 50
90.0
 51
103.8865403626292
  0
ARC
  5
AE
330
4A
100
AcDbEntity
  8
1
  6
Continuous
 62
     7
100
AcDbCircle
 10
498.8755684285269
 20
327.1137913450993
 30
0.0
 40
25.0000000000001
100
AcDbArc
 50
76.11345963737108
 51
90.0
  0
ARC
  5
AF
330
4A
100
AcDbEntity
  8
1
  6
Continuous
 62
     7
100
AcDbCircle
 10
164.8592134632322
 20
327.1137913450993
 30
0.0
 40
25.0
100
AcDbArc
 50
90.0
 51
103.8865403626292
  0
ARC
  5
B0
330
4A
100
AcDbEntity
  8
1
  6
Continuous
 62
     7
100
AcDbCircle
 10
164.8592134632322
 20
327.1137913450993
 30
0.0
 40
25.0000000000001
100
AcDbArc
 50
76.11345963737108
 51
90.0
  0
CIRCLE
  5
B1
330
4A
100
AcDbEntity
  8
1
  6
Continuous
 62
     7
100
AcDbCircle
 10
164.8592134632322
 20
683.7980399121154
 30
0.0
 40
5.749999999999886
  0
CIRCLE
  5
B2
330
4A
100
AcDbEntity
  8
1
  6
Continuous
 62
     7
100
AcDbCircle
 10
164.8592134632322
 20
683.7980399121154
 30
0.0
 40
6.999999999999886
  0
ENDBLK
  5
4C
330
4A
100
AcDbEntity
  8
0
100
AcDbBlockEnd
  0
BLOCK
  5
4E
330
4D
100
AcDbEntity
  8
0
100
AcDbBlockBegin
  2
37-1-13
 70
     0
 10
407.0743382117558
 20
178.1180854549548
 30
0.0
  3
37-1-13
  1

  0
LINE
  5
B3
330
4D
100
AcDbEntity
  8
1
  6
Continuous
 62
     7
100
AcDbLine
 10
504.8755684285269
 20
334.1137913450993
 30
0.0
 11
492.8755684285269
 21
334.1137913450993
 31
0.0
  0
LINE
  5
B4
330
4D
100
AcDbEntity
  8
1
  6
Continuous
 62
     7
100
AcDbLine
 10
511.9462826427983
 20
320.1137913450993
 30
0.0
 11
485.8048542142554
 21
320.1137913450993
 31
0.0
  0
LINE
  5
B5
330
4D
100
AcDbEntity
  8
1
  6
Continuous
 62
     7
100
AcDbLine
 10
164.8592134632322
 20
334.1137913450993
 30
0.0
 11
159.8592134632322
 21
334.1137913450993
 31
0.0
  0
LINE
  5
B6
330
4D
100
AcDbEntity
  8
1
  6
Continuous
 62
     7
100
AcDbLine
 10
164.8592134632322
 20
334.1137913450993
 30
0.0
 11
170.8592134632322
 21
334.1137913450993
 31
0.0
  0
LINE
  5
B7
330
4D
100
AcDbEntity
  8
1
  6
Continuous
 62
     7
100
AcDbLine
 10
159.8592134632322
 20
334.1137913450993
 30
0.0
 11
158.8592134632322
 21
334.1137913450993
 31
0.0
  0
LINE
  5
B8
330
4D
100
AcDbEntity
  8
1
  6
Continuous
 62
     7
100
AcDbLine
 10
164.8592134632322
 20
320.1137913450993
 30
0.0
 11
177.8592134632322
 21
320.1137913450993
 31
0.0
  0
LINE
  5
B9
330
4D
100
AcDbEntity
  8
1
  6
Continuous
 62
     7
100
AcDbLine
 10
164.8592134632322
 20
320.1137913450993
 30
0.0
 11
151.8592134632322
 21
320.1137913450993
 31
0.0
  0
LINE
  5
BA
330
4D
100
AcDbEntity
  8
1
  6
Continuous
 62
     7
100
AcDbLine
 10
177.8592134632322
 20
327.1845055593709
 30
0.0
 11
177.8592134632322
 21
320.1137913450993
 31
0.0
  0
LINE
  5
BB
330
4D
100
AcDbEntity
  8
1
  6
Continuous
 62
     7
100
AcDbLine
 10
151.8592134632322
 20
320.1137913450993
 30
0.0
 11
151.8592134632322
 21
327.1845055593709
 31
0.0
  0
LINE
  5
BC
330
4D
100
AcDbEntity
  8
1
  6
PHANTOM
 62
     4
100
AcDbLine
 10
149.2929034081863
 20
683.7980399121155
 30
0.0
 11
180.3559102062294
 21
683.7980399121155
 31
0.0
  0
LINE
  5
BD
330
4D
100
AcDbEntity
  8
1
  6
PHANTOM
 62
     4
100
AcDbLine
 10
164.8592134632315
 20
665.7991313416359
 30
0.0
 11
164.8592134632315
 21
701.5030256095063
 31
0.0
  0
LINE
  5
BE
330
4D
100
AcDbEntity
  8
1
  6
Continuous
 62
     7
100
AcDbLine
 10
176.9213623285533
 20
675.7510178075842
 30
0.0
 11
175.8835826275104
 21
675.1518554178274
 31
0.0
  0
LINE
  5
BF
330
4D
100
AcDbEntity
  8
1
  6
Continuous
 62
     7
100
AcDbLine
 10
165.7970645979098
 20
698.2676783059795
 30
0.0
 11
166.834844298953
 21
697.6685159162226
 31
0.0
  0
LINE
  5
C0
330
4D
100
AcDbEntity
  8
1
  6
Continuous
 62
     7
100
AcDbLine
 10
162.8835826275101
 20
697.6685159162228
 30
0.0
 11
163.9213623285533
 21
698.2676783059795
 31
0.0
  0
LINE
  5
C1
330
4D
100
AcDbEntity
  8
1
  6
Continuous
 62
     7
100
AcDbLine
 10
177.8592134632315
 20
678.5737484022965
 30
0.0
 11
177.8592134632315
 21
677.3754236227829
 31
0.0
  0
LINE
  5
C2
330
4D
100
AcDbEntity
  8
1
  6
Continuous
 62
     7
100
AcDbLine
 10
151.8592134632315
 20
677.3754236227829
 30
0.0
 11
151.8592134632315
 21
678.5737484022965
 31
0.0
  0
LINE
  5
C3
330
4D
100
AcDbEntity
  8
1
  6
Continuous
 62
     7
100
AcDbLine
 10
153.8348442989528
 20
675.1518554178274
 30
0.0
 11
152.7970645979098
 21
675.7510178075842
 31
0.0
  0
ARC
  5
C4
330
4D
100
AcDbEntity
  8
1
  6
Continuous
 62
     7
100
AcDbCircle
 10
489.3755684285269
 20
323.6137913450993
 30
0.0
 40
5.000000000000114
100
AcDbArc
 50
126.8698976458414
 51
224.4270040008051
  0
ARC
  5
C5
330
4D
100
AcDbEntity
  8
1
  6
Continuous
 62
     7
100
AcDbCircle
 10
472.9691132234119
 20
347.5202465502143
 30
0.0
 40
24.0
100
AcDbArc
 50
303.959192500098
 51
326.0408074999024
  0
ARC
  5
C6
330
4D
100
AcDbEntity
  8
1
  6
Continuous
 62
     7
100
AcDbCircle
 10
508.3755684285269
 20
323.6137913450993
 30
0.0
 40
4.999999999999975
100
AcDbArc
 50
315.572995999194
 51
53.13010235415911
  0
ARC
  5
C7
330
4D
100
AcDbEntity
  8
1
  6
Continuous
 62
     7
100
AcDbCircle
 10
524.7820236336418
 20
347.5202465502143
 30
0.0
 40
24.00000000000002
100
AcDbArc
 50
213.9591925000978
 51
236.0408074999021
  0
ARC
  5
C8
330
4D
100
AcDbEntity
  8
1
  6
Continuous
 62
     7
100
AcDbCircle
 10
190.7656686683472
 20
347.5202465502143
 30
0.0
 40
24.00000000000011
100
AcDbArc
 50
213.9591925000976
 51
236.0408074999022
  0
ARC
  5
C9
330
4D
100
AcDbEntity
  8
1
  6
Continuous
 62
     7
100
AcDbCircle
 10
174.3592134632322
 20
323.6137913450993
 30
0.0
 40
5.000000000000138
100
AcDbArc
 50
45.57299599919585
 51
53.13010235415754
  0
ARC
  5
CA
330
4D
100
AcDbEntity
  8
1
  6
Continuous
 62
     7
100
AcDbCircle
 10
138.9527582581175
 20
347.5202465502143
 30
0.0
 40
23.99999999999989
100
AcDbArc
 50
303.9591925000976
 51
326.040807499902
  0
ARC
  5
CB
330
4D
100
AcDbEntity
  8
1
  6
Continuous
 62
     7
100
AcDbCircle
 10
155.3592134632322
 20
323.6137913450993
 30
0.0
 40
5.000000000000062
100
AcDbArc
 50
126.8698976458406
 51
134.4270040008042
  0
ARC
  5
CC
330
4D
100
AcDbEntity
  8
1
  6
Continuous
 62
     7
100
AcDbCircle
 10
164.8592134632316
 20
683.7980399121155
 30
0.0
 40
14.5
100
AcDbArc
 50
86.29155527472959
 51
90.00000000000045
  0
ARC
  5
CD
330
4D
100
AcDbEntity
  8
1
  6
Continuous
 62
     7
100
AcDbCircle
 10
164.8592134632316
 20
683.7980399121155
 30
0.0
 40
14.49999999999993
100
AcDbArc
 50
326.2915552747294
 51
333.7084447252703
  0
ARC
  5
CE
330
4D
100
AcDbEntity
  8
1
  6
Continuous
 62
     7
100
AcDbCircle
 10
164.8592134632316
 20
683.7980399121155
 30
0.0
 40
14.5
100
AcDbArc
 50
90.00000000000045
 51
93.70844472527087
  0
ARC
  5
CF
330
4D
100
AcDbEntity
  8
1
  6
Continuous
 62
     7
100
AcDbCircle
 10
164.8592134632316
 20
683.7980399121155
 30
0.0
 40
14.50000000000012
100
AcDbArc
 50
206.2915552747293
 51
213.7084447252704
  0
SPLINE
  5
D0
330
4D
100
AcDbEntity
  8
1
  6
Continuous
 62
     7
100
AcDbSpline
210
0.0
220
0.0
230
1.0
 70
    11
 71
     3
 72
    79
 73
    75
 74
    73
 42
0.000000001
 43
0.0000000001
 44
0.00000001
 40
0.0
 40
0.0
 40
0.0
 40
0.0
 40
0.2811775335844351
 40
0.5623408853746961
 40
0.8457466557585445
 40
1.129126823298267
 40
1.415908896080606
 40
1.70265853223071
 40
1.993527426214329
 40
2.284362049291676
 40
2.579517793968314
 40
2.874641775544838
 40
3.17376997576413
 40
3.472872116266226
 40
3.775199685813717
 40
4.077508951322272
 40
4.381905218576987
 40
4.686292084807004
 40
4.99140045287395
 40
5.296508820930386
 40
5.6008956871288
 40
5.905291954330392
 40
6.20760121976435
 40
6.509928789214295
 40
6.809030929596583
 40
7.108159129671075
 40
7.403283111078618
 40
7.698438855558328
 40
7.98927347841124
 40
8.280142372135925
 40
8.566892007989395
 40
8.853674080420433
 40
9.137054247521679
 40
9.420460017266826
 40
9.701623367658348
 40
9.982800910067835
 40
10.26319551269451
 40
10.54359011531996
 40
10.82476765772628
 40
11.10593100811251
 40
11.38933677785028
 40
11.67271694494229
 40
11.9594990173622
 40
12.24624865320284
 40
12.5371175469131
 40
12.82795216975013
 40
13.12310791421281
 40
13.41823189560218
 40
13.71736009565739
 40
14.01646223601968
 40
14.31878980544867
 40
14.62109907086112
 40
14.92549533804046
 40
15.22988220421604
 40
15.53499057224907
 40
15.84009894029248
 40
16.14448580649852
 40
16.4488820737288
 40
16.75119133921251
 40
17.05351890873457
 40
17.35262104921096
 40
17.6517492494036
 40
17.94687323095237
 40
18.2420289755995
 40
18.5328635986447
 40
18.82373249259081
 40
19.11048212869365
 40
19.39726420140861
 40
19.68064436883128
 40
19.96405013895116
 40
20.24521348980366
 40
20.52639103287066
 40
20.8067856369165
 40
21.08718023073305
 40
21.08718023073305
 40
21.08718023073305
 40
21.08718023073305
 10
509.8538235831269
 20
327.1004094662179
 30
0.0
 10
509.7607275110249
 20
327.0889583444956
 30
0.0
 10
509.5745400616387
 20
327.0660566839223
 30
0.0
 10
509.3003026102357
 20
326.9980193945313
 30
0.0
 10
509.0325759421463
 20
326.9063972660158
 30
0.0
 10
508.7730154535296
 20
326.7887862784663
 30
0.0
 10
508.5242811608449
 20
326.647567955438
 30
0.0
 10
508.2874670557831
 20
326.4827459848458
 30
0.0
 10
508.0652086914774
 20
326.2966686878095
 30
0.0
 10
507.8583533041196
 20
326.0896438383127
 30
0.0
 10
507.6692395003983
 20
325.8644450406994
 30
0.0
 10
507.4985911160464
 20
325.621580135262
 30
0.0
 10
507.3482737986043
 20
325.3641115043353
 30
0.0
 10
507.2189504630555
 20
325.0928336071411
 30
0.0
 10
507.1119175354337
 20
324.8108804533047
 30
0.0
 10
507.0277703975913
 20
324.5194433000012
 30
0.0
 10
506.967225888705
 20
324.2215053566051
 30
0.0
 10
506.9307386917891
 20
323.9187396918621
 30
0.0
 10
506.9185116352616
 20
323.6137913546964
 30
0.0
 10
506.9307386914364
 20
323.3088430175217
 30
0.0
 10
506.9672258880008
 20
323.006077352785
 30
0.0
 10
507.0277703965253
 20
322.708139409309
 30
0.0
 10
507.1119175340303
 20
322.4167022562091
 30
0.0
 10
507.2189504612069
 20
322.1347491014886
 30
0.0
 10
507.3482737966849
 20
321.8634712073919
 30
0.0
 10
507.4985911126381
 20
321.6060025647708
 30
0.0
 10
507.6692395006995
 20
321.363137702162
 30
0.0
 10
507.8583532888456
 20
321.1379387456091
 30
0.0
 10
508.0652087316414
 20
320.9309144806267
 30
0.0
 10
508.2874668886698
 20
320.7448350184599
 30
0.0
 10
508.5242817548062
 20
320.58002101872
 30
0.0
 10
508.7730132242498
 20
320.4387731503157
 30
0.0
 10
509.0325841279356
 20
320.3212711828676
 30
0.0
 10
509.3002721190045
 20
320.2292442354998
 30
0.0
 10
509.5746528296846
 20
320.1627064078775
 30
0.0
 10
509.8531438409447
 20
320.1228036242588
 30
0.0
 10
510.1338986771308
 20
320.1092915029193
 30
0.0
 10
510.4146535133171
 20
320.1228036242343
 30
0.0
 10
510.6931445245774
 20
320.1627064078286
 30
0.0
 10
510.9675252352581
 20
320.2292442354265
 30
0.0
 10
511.2352132263273
 20
320.3212711827701
 30
0.0
 10
511.494784130014
 20
320.4387731501944
 30
0.0
 10
511.7435155994588
 20
320.5800210185746
 30
0.0
 10
511.9803304655954
 20
320.744835018291
 30
0.0
 10
512.2025886226255
 20
320.9309144804341
 30
0.0
 10
512.4094440654221
 20
321.1379387453933
 30
0.0
 10
512.5985578535699
 20
321.3631377019222
 30
0.0
 10
512.7692062416328
 20
321.6060025645082
 30
0.0
 10
512.9195235575871
 20
321.8634712071062
 30
0.0
 10
513.0488468930671
 20
322.1347491011801
 30
0.0
 10
513.1558798202456
 20
322.4167022558773
 30
0.0
 10
513.2400269577524
 20
322.7081394089545
 30
0.0
 10
513.300571466279
 20
323.0060773524073
 30
0.0
 10
513.3370586628456
 20
323.308843017121
 30
0.0
 10
513.3492857190229
 20
323.6137913542713
 30
0.0
 10
513.3370586624993
 20
323.9187396914176
 30
0.0
 10
513.3005714655852
 20
324.2215053561214
 30
0.0
 10
513.2400269567099
 20
324.5194432995509
 30
0.0
 10
513.1558798188496
 20
324.8108804526175
 30
0.0
 10
513.0488468913215
 20
325.0928336072185
 30
0.0
 10
512.9195235554598
 20
325.3641115014731
 30
0.0
 10
512.7692062392202
 20
325.6215801431822
 30
0.0
 10
512.5985578504914
 20
325.864445008778
 30
0.0
 10
512.409444063054
 20
326.0896439538407
 30
0.0
 10
512.2025886158642
 20
326.2966682606224
 30
0.0
 10
511.9803304732691
 20
326.4827475674372
 30
0.0
 10
511.7435155521219
 20
326.6475621385144
 30
0.0
 10
511.494784284631
 20
326.7888078884799
 30
0.0
 10
511.2352126337267
 20
326.9063176720266
 30
0.0
 10
510.9675274150765
 20
326.9983155953427
 30
0.0
 10
510.6931364328101
 20
327.0649609279318
 30
0.0
 10
510.4146836552273
 20
327.1044635132678
 30
0.0
 10
510.1337865001844
 20
327.119465291824
 30
0.0
 10
509.9471445544563
 20
327.1067614062165
 30
0.0
 10
509.8538235831269
 20
327.1004094662179
 30
0.0
 11
509.8538235831269
 21
327.1004094662179
 31
0.0
 11
509.5754968293933
 21
327.060471656754
 31
0.0
 11
509.3022227948444
 21
326.9943344376149
 31
0.0
 11
509.0342181240152
 21
326.9021806159491
 31
0.0
 11
508.7759964859974
 21
326.7854505646744
 31
0.0
 11
508.526609842647
 21
326.6438516265124
 31
0.0
 11
508.2911634647908
 21
326.4801740259883
 31
0.0
 11
508.0681116159666
 21
326.2934855524116
 31
0.0
 11
507.8624435593714
 21
326.0878513421409
 31
0.0
 11
507.672592154627
 21
325.8618571880145
 31
0.0
 11
507.5028192232555
 21
325.6204543788923
 31
0.0
 11
507.3519575408221
 21
325.3621552636689
 31
0.0
 11
507.2231576738906
 21
325.0922058522508
 31
0.0
 11
507.115825441877
 21
324.8095722532564
 31
0.0
 11
507.0318974203146
 21
324.519146739196
 31
0.0
 11
506.9712627696189
 21
324.2208507005551
 31
0.0
 11
506.9348044187029
 21
323.918655146313
 31
0.0
 11
506.9225905330583
 21
323.6137913450993
 31
0.0
 11
506.9348044187029
 21
323.3089275438857
 31
0.0
 11
506.9712627696191
 21
323.0067319896436
 31
0.0
 11
507.0318974203146
 21
322.7084359510027
 31
0.0
 11
507.115825441877
 21
322.4180104369423
 31
0.0
 11
507.2231576738906
 21
322.1353768379479
 31
0.0
 11
507.3519575408222
 21
321.8654274265298
 31
0.0
 11
507.5028192232556
 21
321.6071283113065
 31
0.0
 11
507.6725921546271
 21
321.3657255021843
 31
0.0
 11
507.8624435593714
 21
321.1397313480578
 31
0.0
 11
508.0681116159666
 21
320.9340971377869
 31
0.0
 11
508.2911634647909
 21
320.7474086642104
 31
0.0
 11
508.5266098426471
 21
320.5837310636864
 31
0.0
 11
508.7759964859976
 21
320.4421321255243
 31
0.0
 11
509.0342181240152
 21
320.3254020742496
 31
0.0
 11
509.3022227948443
 21
320.2332482525838
 31
0.0
 11
509.5754968293932
 21
320.1671110334448
 31
0.0
 11
509.8538235831269
 21
320.1271732239809
 31
0.0
 11
510.1338986777247
 21
320.1137913450994
 31
0.0
 11
510.4139737723224
 21
320.1271732239808
 31
0.0
 11
510.6923005260561
 21
320.1671110334447
 31
0.0
 11
510.965574560605
 21
320.2332482525838
 31
0.0
 11
511.2335792314341
 21
320.3254020742496
 31
0.0
 11
511.4918008694517
 21
320.4421321255244
 31
0.0
 11
511.7411875128022
 21
320.5837310636864
 31
0.0
 11
511.9766338906583
 21
320.7474086642105
 31
0.0
 11
512.1996857394826
 21
320.934097137787
 31
0.0
 11
512.4053537960776
 21
321.1397313480578
 31
0.0
 11
512.5952052008222
 21
321.3657255021842
 31
0.0
 11
512.7649781321936
 21
321.6071283113064
 31
0.0
 11
512.9158398146269
 21
321.8654274265298
 31
0.0
 11
513.0446396815586
 21
322.1353768379479
 31
0.0
 11
513.1519719135723
 21
322.4180104369423
 31
0.0
 11
513.2358999351347
 21
322.7084359510027
 31
0.0
 11
513.2965345858303
 21
323.0067319896436
 31
0.0
 11
513.3329929367462
 21
323.3089275438857
 31
0.0
 11
513.3452068223908
 21
323.6137913450992
 31
0.0
 11
513.3329929367462
 21
323.9186551463129
 31
0.0
 11
513.2965345858302
 21
324.2208507005551
 31
0.0
 11
513.2358999351346
 21
324.5191467391961
 31
0.0
 11
513.1519719135723
 21
324.8095722532564
 31
0.0
 11
513.0446396815586
 21
325.0922058522508
 31
0.0
 11
512.915839814627
 21
325.3621552636689
 31
0.0
 11
512.7649781321936
 21
325.6204543788924
 31
0.0
 11
512.5952052008222
 21
325.8618571880146
 31
0.0
 11
512.4053537960777
 21
326.0878513421409
 31
0.0
 11
512.1996857394826
 21
326.2934855524117
 31
0.0
 11
511.9766338906583
 21
326.4801740259883
 31
0.0
 11
511.7411875128022
 21
326.6438516265123
 31
0.0
 11
511.4918008694517
 21
326.7854505646744
 31
0.0
 11
511.2335792314341
 21
326.9021806159491
 31
0.0
 11
510.9655745606049
 21
326.994334437615
 31
0.0
 11
510.6923005260561
 21
327.060471656754
 31
0.0
 11
510.4139737723224
 21
327.1004094662179
 31
0.0
 11
510.1338986777246
 21
327.1137913450993
 31
0.0
 11
509.8538235831269
 21
327.1004094662179
 31
0.0
  0
SPLINE
  5
D1
330
4D
100
AcDbEntity
  8
1
  6
Continuous
 62
     7
100
AcDbSpline
210
0.0
220
0.0
230
1.0
 70
    11
 71
     3
 72
    79
 73
    75
 74
    73
 42
0.000000001
 43
0.0000000001
 44
0.00000001
 40
0.0
 40
0.0
 40
0.0
 40
0.0
 40
0.3064252319455049
 40
0.6126997233758951
 40
0.932716375069092
 40
1.252505945220245
 40
1.592278738949076
 40
1.931827974846293
 40
2.29440361720451
 40
2.65679854291693
 40
3.04220585823136
 40
3.427481647718382
 40
3.83320618820375
 40
4.238841962941712
 40
4.660421097758395
 40
5.081946081728747
 40
5.513562419111617
 40
5.945153199642244
 40
6.380194329060314
 40
6.815235458475741
 40
7.246826238997924
 40
7.678442576365682
 40
8.099967560313067
 40
8.52154669509648
 40
8.927182469789146
 40
9.332907010211388
 40
9.718182799616649
 40
10.10359011482054
 40
10.46598504039368
 40
10.82856068256597
 40
11.1681099182304
 40
11.50788271164383
 40
11.82767228136819
 40
12.14768893235876
 40
12.45396342186598
 40
12.7603886616458
 40
13.06189449120694
 40
13.36340032076688
 40
13.66982556054323
 40
13.97610005004475
 40
14.29611670102779
 40
14.61590627074313
 40
14.95567906414606
 40
15.29522829979938
 40
15.65780394195962
 40
16.02019886752051
 40
16.40560618271164
 40
16.79088197210464
 40
17.1966065125146
 40
17.6022422871951
 40
18.02382142196649
 40
18.44534640590259
 40
18.87696274325934
 40
19.30855352377098
 40
19.74359465317637
 40
20.1786357825851
 40
20.61022656310671
 40
21.0418429004811
 40
21.4633678844434
 40
21.88494701925238
 40
22.29058279398299
 40
22.69630733446046
 40
23.08158312393927
 40
23.46699043924349
 40
23.82938536494308
 40
24.19196100728219
 40
24.53151024314992
 40
24.8712830368245
 40
25.1910726068636
 40
25.51108925825612
 40
25.8173637482812
 40
26.12378898883606
 40
26.4252948204037
 40
26.7268006422741
 40
26.7268006422741
 40
26.7268006422741
 40
26.7268006422741
 10
503.8554110142566
 20
323.9760655952663
 30
0.0
 10
503.8388079311198
 20
324.0769917576127
 30
0.0
 10
503.80560994016
 20
324.2787944348279
 30
0.0
 10
503.7065918980287
 20
324.5747457058155
 30
0.0
 10
503.5747581977531
 20
324.8618155195912
 30
0.0
 10
503.4045269871518
 20
325.1412805383624
 30
0.0
 10
503.2022584596006
 20
325.4065837472822
 30
0.0
 10
502.9648567558918
 20
325.6607861189149
 30
0.0
 10
502.6994017578675
 20
325.896991845485
 30
0.0
 10
502.4023357563014
 20
326.1184706053061
 30
0.0
 10
502.0818482620874
 20
326.3190848158113
 30
0.0
 10
501.7343093475283
 20
326.5014539391073
 30
0.0
 10
501.3682793974472
 20
326.6608255473946
 30
0.0
 10
500.9808511672214
 20
326.7988489783619
 30
0.0
 10
500.5800649544571
 20
326.9123411414582
 30
0.0
 10
500.1644627882629
 20
327.002076156802
 30
0.0
 10
499.740783408065
 20
327.0662784482519
 30
0.0
 10
499.3095274857284
 20
327.1052046860065
 30
0.0
 10
498.8755684384299
 20
327.1181017656672
 30
0.0
 10
498.4416093911193
 20
327.1052046861007
 30
0.0
 10
498.010353468819
 20
327.0662784484391
 30
0.0
 10
497.5866740884902
 20
327.002076157111
 30
0.0
 10
497.1710719227713
 20
326.9123411418227
 30
0.0
 10
496.770285708261
 20
326.7988489790832
 30
0.0
 10
496.3828574843045
 20
326.6608255474598
 30
0.0
 10
496.0168275113826
 20
326.5014539422918
 30
0.0
 10
495.6692886779391
 20
326.3190848087434
 30
0.0
 10
495.3488008901337
 20
326.1184706363213
 30
0.0
 10
495.0517359220187
 20
325.8969917435528
 30
0.0
 10
494.786277196433
 20
325.6607864978301
 30
0.0
 10
494.5488885666024
 20
325.4065824412012
 30
0.0
 10
494.3465728437232
 20
325.1412853167889
 30
0.0
 10
494.1765079705202
 20
324.8617988557544
 30
0.0
 10
494.0440698701404
 20
324.5748069575999
 30
0.0
 10
493.9472160649947
 20
324.2785766889886
 30
0.0
 10
493.889718583034
 20
323.9784946549954
 30
0.0
 10
493.869714419928
 20
323.6751832227527
 30
0.0
 10
493.8897185830205
 20
323.3718717905105
 30
0.0
 10
493.9472160649675
 20
323.071789756518
 30
0.0
 10
494.0440698701001
 20
322.7755594879083
 30
0.0
 10
494.1765079704668
 20
322.4885675897558
 30
0.0
 10
494.3465728436574
 20
322.2090811287244
 30
0.0
 10
494.5488885665245
 20
321.9437840043155
 30
0.0
 10
494.7862771963437
 20
321.6895799476911
 30
0.0
 10
495.051735921918
 20
321.4533747019735
 30
0.0
 10
495.3488008900224
 20
321.2318958092112
 30
0.0
 10
495.6692886778173
 20
321.031281636796
 30
0.0
 10
496.0168275112512
 20
320.8489125032557
 30
0.0
 10
496.3828574841639
 20
320.6895408980967
 30
0.0
 10
496.7702857081109
 20
320.5515174664834
 30
0.0
 10
497.1710719226122
 20
320.4380253037558
 30
0.0
 10
497.5866740883225
 20
320.3482902884806
 30
0.0
 10
498.0103534686421
 20
320.2840879971674
 30
0.0
 10
498.4416093909343
 20
320.2451617595223
 30
0.0
 10
498.875568438233
 20
320.2322646799744
 30
0.0
 10
499.3095274855302
 20
320.245161759654
 30
0.0
 10
499.7407834078233
 20
320.2840879974355
 30
0.0
 10
500.16446278813
 20
320.3482902888909
 30
0.0
 10
500.5800649538688
 20
320.4380253043261
 30
0.0
 10
500.9808511682375
 20
320.5515174672084
 30
0.0
 10
501.3682793926187
 20
320.6895408990701
 30
0.0
 10
501.7343093638874
 20
320.8489125042322
 30
0.0
 10
502.081848203073
 20
321.0312816387586
 30
0.0
 10
502.4023359699272
 20
321.2318958087479
 30
0.0
 10
502.6994010115801
 20
321.4533747113035
 30
0.0
 10
502.9648594716477
 20
321.6895799231413
 30
0.0
 10
503.2022490324016
 20
321.9437841001699
 30
0.0
 10
503.4045613942981
 20
322.2090807917462
 30
0.0
 10
503.5746381125498
 20
322.4885687802545
 30
0.0
 10
503.7070331722637
 20
322.7755551305158
 30
0.0
 10
503.8040410966632
 20
323.0718052677097
 30
0.0
 10
503.8609715212389
 20
323.3718142023603
 30
0.0
 10
503.8830601980062
 20
323.675394352482
 30
0.0
 10
503.8646274060449
 20
323.8758418485369
 30
0.0
 10
503.8554110142567
 20
323.9760655952663
 30
0.0
 11
503.8554110142566
 21
323.9760655952663
 31
0.0
 11
503.7976361510051
 21
324.2769949770866
 31
0.0
 11
503.7030802270708
 21
324.5683079363898
 31
0.0
 11
503.569215060424
 21
324.8589809040967
 31
0.0
 11
503.403554614231
 21
325.132516981329
 31
0.0
 11
503.1978955140832
 21
325.4029793368335
 31
0.0
 11
502.9665712024678
 21
325.6515406901441
 31
0.0
 11
502.6960618637731
 21
325.8929652001605
 31
0.0
 11
502.405803475088
 21
326.1099448073349
 31
0.0
 11
502.0793869869564
 21
326.3148620465686
 31
0.0
 11
501.7383877599946
 21
326.494185667854
 31
0.0
 11
501.3665583675684
 21
326.6565288403686
 31
0.0
 11
500.9845241614779
 21
326.7928748968328
 31
0.0
 11
500.5789763795967
 21
326.9080268117874
 31
0.0
 11
500.1669726484826
 21
326.9971123754697
 31
0.0
 11
499.7402564519874
 21
327.0619656741111
 31
0.0
 11
499.3104151280992
 21
327.1007862629714
 31
0.0
 11
498.8755684285269
 21
327.1137913450994
 31
0.0
 11
498.4407217289546
 21
327.1007862629714
 31
0.0
 11
498.0108804050664
 21
327.0619656741111
 31
0.0
 11
497.5841642085713
 21
326.9971123754697
 31
0.0
 11
497.1721604774572
 21
326.9080268117874
 31
0.0
 11
496.7666126955759
 21
326.7928748968328
 31
0.0
 11
496.3845784894852
 21
326.6565288403687
 31
0.0
 11
496.0127490970592
 21
326.494185667854
 31
0.0
 11
495.6717498700974
 21
326.3148620465686
 31
0.0
 11
495.3453333819658
 21
326.1099448073348
 31
0.0
 11
495.0550749932806
 21
325.8929652001605
 31
0.0
 11
494.784565654586
 21
325.6515406901441
 31
0.0
 11
494.5532413429705
 21
325.4029793368335
 31
0.0
 11
494.3475822428228
 21
325.132516981329
 31
0.0
 11
494.1819217966299
 21
324.8589809040967
 31
0.0
 11
494.048056629983
 21
324.5683079363898
 31
0.0
 11
493.9535007060487
 21
324.2769949770866
 31
0.0
 11
493.8957258427972
 21
323.9760655952663
 31
0.0
 11
493.8763463948471
 21
323.6751832223207
 31
0.0
 11
493.8957258427972
 21
323.3743008493751
 31
0.0
 11
493.9535007060487
 21
323.0733714675548
 31
0.0
 11
494.048056629983
 21
322.7820585082516
 31
0.0
 11
494.1819217966298
 21
322.4913855405446
 31
0.0
 11
494.3475822428227
 21
322.2178494633123
 31
0.0
 11
494.5532413429705
 21
321.9473871078078
 31
0.0
 11
494.784565654586
 21
321.6988257544973
 31
0.0
 11
495.0550749932806
 21
321.4574012444808
 31
0.0
 11
495.3453333819657
 21
321.2404216373064
 31
0.0
 11
495.6717498700972
 21
321.0355043980727
 31
0.0
 11
496.0127490970591
 21
320.8561807767873
 31
0.0
 11
496.3845784894853
 21
320.6938376042725
 31
0.0
 11
496.7666126955758
 21
320.5574915478084
 31
0.0
 11
497.1721604774569
 21
320.4423396328536
 31
0.0
 11
497.5841642085712
 21
320.3532540691715
 31
0.0
 11
498.0108804050663
 21
320.2884007705301
 31
0.0
 11
498.4407217289545
 21
320.2495801816699
 31
0.0
 11
498.8755684285268
 21
320.2365750995419
 31
0.0
 11
499.3104151280992
 21
320.2495801816699
 31
0.0
 11
499.7402564519874
 21
320.2884007705301
 31
0.0
 11
500.1669726484825
 21
320.3532540691715
 31
0.0
 11
500.5789763795966
 21
320.4423396328537
 31
0.0
 11
500.9845241614778
 21
320.5574915478084
 31
0.0
 11
501.3665583675684
 21
320.6938376042726
 31
0.0
 11
501.7383877599945
 21
320.8561807767871
 31
0.0
 11
502.0793869869564
 21
321.0355043980726
 31
0.0
 11
502.4058034750879
 21
321.2404216373064
 31
0.0
 11
502.696061863773
 21
321.4574012444808
 31
0.0
 11
502.9665712024677
 21
321.6988257544972
 31
0.0
 11
503.1978955140832
 21
321.9473871078078
 31
0.0
 11
503.403554614231
 21
322.2178494633123
 31
0.0
 11
503.5692150604237
 21
322.4913855405446
 31
0.0
 11
503.7030802270707
 21
322.7820585082516
 31
0.0
 11
503.7976361510049
 21
323.0733714675547
 31
0.0
 11
503.8554110142566
 21
323.3743008493751
 31
0.0
 11
503.8747904622066
 21
323.6751832223207
 31
0.0
 11
503.8554110142567
 21
323.9760655952663
 31
0.0
  0
SPLINE
  5
D2
330
4D
100
AcDbEntity
  8
1
  6
Continuous
 62
     7
100
AcDbSpline
210
0.0
220
0.0
230
1.0
 70
    11
 71
     3
 72
    79
 73
    75
 74
    73
 42
0.000000001
 43
0.0000000001
 44
0.00000001
 40
0.0
 40
0.0
 40
0.0
 40
0.0
 40
0.2811775335846602
 40
0.5623408853748106
 40
0.845746655758659
 40
1.129126823298278
 40
1.415908896080666
 40
1.702658532230631
 40
1.993527426214205
 40
2.284362049291673
 40
2.579517793968348
 40
2.874641775544839
 40
3.173769975764102
 40
3.472872116266247
 40
3.775199685813718
 40
4.077508951322288
 40
4.381905218576982
 40
4.686292084807019
 40
4.99140045287396
 40
5.296508820930391
 40
5.600895687128799
 40
5.905291954330402
 40
6.207601219764345
 40
6.50992878921435
 40
6.809030929596614
 40
7.108159129671078
 40
7.403283111078654
 40
7.698438855558472
 40
7.989273478411385
 40
8.280142372135982
 40
8.56689200798936
 40
8.853674080420495
 40
9.13705424752169
 40
9.420460017266837
 40
9.701623367658414
 40
9.982800910067901
 40
10.26319551269446
 40
10.54359011531991
 40
10.82476765772618
 40
11.10593100811246
 40
11.38933677785029
 40
11.67271694494234
 40
11.9594990173622
 40
12.24624865320285
 40
12.53711754691301
 40
12.82795216975025
 40
13.12310791421286
 40
13.41823189560226
 40
13.71736009565747
 40
14.01646223601974
 40
14.3187898054487
 40
14.62109907086113
 40
14.92549533804049
 40
15.22988220421609
 40
15.53499057224912
 40
15.84009894029254
 40
16.14448580649858
 40
16.44888207372887
 40
16.75119133921261
 40
17.05351890873469
 40
17.35262104921111
 40
17.65174924940366
 40
17.9468732309525
 40
18.24202897559959
 40
18.53286359864478
 40
18.8237324925909
 40
19.11048212869374
 40
19.39726420140875
 40
19.68064436883142
 40
19.9640501389513
 40
20.2452134898038
 40
20.52639103287069
 40
20.80678563691647
 40
21.08718023073307
 40
21.08718023073307
 40
21.08718023073307
 40
21.08718023073307
 10
487.897313273927
 20
327.1004094662179
 30
0.0
 10
487.9904093460289
 20
327.0889583444957
 30
0.0
 10
488.1765967954154
 20
327.0660566839224
 30
0.0
 10
488.4508342468183
 20
326.9980193945312
 30
0.0
 10
488.7185609149077
 20
326.9063972660158
 30
0.0
 10
488.9781214035244
 20
326.7887862784663
 30
0.0
 10
489.2268556962093
 20
326.647567955438
 30
0.0
 10
489.4636698012708
 20
326.4827459848458
 30
0.0
 10
489.6859281655761
 20
326.2966686878094
 30
0.0
 10
489.8927835529342
 20
326.0896438383127
 30
0.0
 10
490.0818973566559
 20
325.8644450406994
 30
0.0
 10
490.2525457410073
 20
325.6215801352621
 30
0.0
 10
490.4028630584495
 20
325.3641115043353
 30
0.0
 10
490.5321863939986
 20
325.0928336071411
 30
0.0
 10
490.63921932162
 20
324.8108804533047
 30
0.0
 10
490.7233664594627
 20
324.5194433000012
 30
0.0
 10
490.7839109683488
 20
324.2215053566051
 30
0.0
 10
490.820398165265
 20
323.918739691862
 30
0.0
 10
490.8326252217922
 20
323.6137913546966
 30
0.0
 10
490.8203981656176
 20
323.3088430175216
 30
0.0
 10
490.7839109690532
 20
323.006077352785
 30
0.0
 10
490.7233664605286
 20
322.7081394093091
 30
0.0
 10
490.639219323024
 20
322.416702256209
 30
0.0
 10
490.5321863958471
 20
322.1347491014888
 30
0.0
 10
490.4028630603689
 20
321.8634712073917
 30
0.0
 10
490.2525457444161
 20
321.6060025647708
 30
0.0
 10
490.0818973563545
 20
321.3631377021619
 30
0.0
 10
489.8927835682083
 20
321.1379387456092
 30
0.0
 10
489.6859281254124
 20
320.9309144806268
 30
0.0
 10
489.463669968384
 20
320.7448350184599
 30
0.0
 10
489.2268551022478
 20
320.5800210187199
 30
0.0
 10
488.9781236328042
 20
320.4387731503157
 30
0.0
 10
488.7185527291182
 20
320.3212711828676
 30
0.0
 10
488.4508647380496
 20
320.2292442354998
 30
0.0
 10
488.1764840273693
 20
320.1627064078774
 30
0.0
 10
487.8979930161092
 20
320.1228036242587
 30
0.0
 10
487.6172381799232
 20
320.1092915029194
 30
0.0
 10
487.3364833437367
 20
320.1228036242341
 30
0.0
 10
487.0579923324767
 20
320.1627064078286
 30
0.0
 10
486.7836116217959
 20
320.2292442354265
 30
0.0
 10
486.5159236307265
 20
320.3212711827701
 30
0.0
 10
486.2563527270399
 20
320.4387731501944
 30
0.0
 10
486.0076212575954
 20
320.5800210185745
 30
0.0
 10
485.7708063914583
 20
320.744835018291
 30
0.0
 10
485.5485482344288
 20
320.9309144804342
 30
0.0
 10
485.3416927916315
 20
321.1379387453931
 30
0.0
 10
485.152579003484
 20
321.3631377019224
 30
0.0
 10
484.9819306154211
 20
321.6060025645081
 30
0.0
 10
484.8316132994667
 20
321.8634712071062
 30
0.0
 10
484.702289963987
 20
322.13474910118
 30
0.0
 10
484.5952570368083
 20
322.4167022558773
 30
0.0
 10
484.5111098993016
 20
322.7081394089545
 30
0.0
 10
484.4505653907748
 20
323.0060773524073
 30
0.0
 10
484.4140781942082
 20
323.3088430171209
 30
0.0
 10
484.4018511380308
 20
323.6137913542713
 30
0.0
 10
484.4140781945545
 20
323.9187396914176
 30
0.0
 10
484.4505653914686
 20
324.2215053561214
 30
0.0
 10
484.5111099003439
 20
324.5194432995509
 30
0.0
 10
484.5952570382045
 20
324.8108804526176
 30
0.0
 10
484.7022899657323
 20
325.0928336072185
 30
0.0
 10
484.8316133015942
 20
325.364111501473
 30
0.0
 10
484.9819306178337
 20
325.6215801431823
 30
0.0
 10
485.1525790065627
 20
325.864445008778
 30
0.0
 10
485.341692794
 20
326.0896439538406
 30
0.0
 10
485.5485482411896
 20
326.2966682606223
 30
0.0
 10
485.7708063837849
 20
326.4827475674372
 30
0.0
 10
486.0076213049319
 20
326.6475621385146
 30
0.0
 10
486.2563525724232
 20
326.7888078884798
 30
0.0
 10
486.5159242233273
 20
326.9063176720267
 30
0.0
 10
486.7836094419778
 20
326.9983155953427
 30
0.0
 10
487.0580004242437
 20
327.0649609279319
 30
0.0
 10
487.3364532018267
 20
327.1044635132678
 30
0.0
 10
487.6173503568693
 20
327.1194652918239
 30
0.0
 10
487.8039923025976
 20
327.1067614062166
 30
0.0
 10
487.897313273927
 20
327.1004094662179
 30
0.0
 11
487.897313273927
 21
327.1004094662179
 31
0.0
 11
488.1756400276608
 21
327.060471656754
 31
0.0
 11
488.4489140622096
 21
326.9943344376149
 31
0.0
 11
488.7169187330388
 21
326.9021806159491
 31
0.0
 11
488.9751403710565
 21
326.7854505646744
 31
0.0
 11
489.2245270144069
 21
326.6438516265124
 31
0.0
 11
489.459973392263
 21
326.4801740259883
 31
0.0
 11
489.6830252410871
 21
326.2934855524116
 31
0.0
 11
489.8886932976825
 21
326.0878513421409
 31
0.0
 11
490.0785447024269
 21
325.8618571880145
 31
0.0
 11
490.2483176337984
 21
325.6204543788923
 31
0.0
 11
490.3991793162317
 21
325.3621552636689
 31
0.0
 11
490.5279791831633
 21
325.0922058522508
 31
0.0
 11
490.6353114151769
 21
324.8095722532564
 31
0.0
 11
490.7192394367393
 21
324.519146739196
 31
0.0
 11
490.7798740874349
 21
324.2208507005551
 31
0.0
 11
490.8163324383511
 21
323.918655146313
 31
0.0
 11
490.8285463239956
 21
323.6137913450993
 31
0.0
 11
490.8163324383511
 21
323.3089275438857
 31
0.0
 11
490.779874087435
 21
323.0067319896436
 31
0.0
 11
490.7192394367394
 21
322.7084359510027
 31
0.0
 11
490.6353114151771
 21
322.4180104369423
 31
0.0
 11
490.5279791831633
 21
322.1353768379479
 31
0.0
 11
490.3991793162318
 21
321.8654274265298
 31
0.0
 11
490.2483176337984
 21
321.6071283113065
 31
0.0
 11
490.0785447024269
 21
321.3657255021843
 31
0.0
 11
489.8886932976824
 21
321.1397313480578
 31
0.0
 11
489.6830252410872
 21
320.9340971377869
 31
0.0
 11
489.459973392263
 21
320.7474086642104
 31
0.0
 11
489.2245270144069
 21
320.5837310636864
 31
0.0
 11
488.9751403710563
 21
320.4421321255243
 31
0.0
 11
488.7169187330388
 21
320.3254020742496
 31
0.0
 11
488.4489140622096
 21
320.2332482525838
 31
0.0
 11
488.1756400276607
 21
320.1671110334448
 31
0.0
 11
487.897313273927
 21
320.1271732239809
 31
0.0
 11
487.6172381793293
 21
320.1137913450994
 31
0.0
 11
487.3371630847316
 21
320.1271732239808
 31
0.0
 11
487.058836330998
 21
320.1671110334447
 31
0.0
 11
486.785562296449
 21
320.2332482525838
 31
0.0
 11
486.5175576256198
 21
320.3254020742496
 31
0.0
 11
486.2593359876022
 21
320.4421321255244
 31
0.0
 11
486.0099493442518
 21
320.5837310636864
 31
0.0
 11
485.7745029663956
 21
320.7474086642105
 31
0.0
 11
485.5514511175714
 21
320.934097137787
 31
0.0
 11
485.3457830609761
 21
321.1397313480578
 31
0.0
 11
485.1559316562317
 21
321.3657255021842
 31
0.0
 11
484.9861587248603
 21
321.6071283113064
 31
0.0
 11
484.8352970424269
 21
321.8654274265298
 31
0.0
 11
484.7064971754953
 21
322.1353768379479
 31
0.0
 11
484.5991649434816
 21
322.4180104369423
 31
0.0
 11
484.5152369219193
 21
322.7084359510027
 31
0.0
 11
484.4546022712237
 21
323.0067319896436
 31
0.0
 11
484.4181439203076
 21
323.3089275438857
 31
0.0
 11
484.405930034663
 21
323.6137913450992
 31
0.0
 11
484.4181439203076
 21
323.9186551463129
 31
0.0
 11
484.4546022712236
 21
324.2208507005551
 31
0.0
 11
484.5152369219193
 21
324.5191467391961
 31
0.0
 11
484.5991649434817
 21
324.8095722532564
 31
0.0
 11
484.7064971754954
 21
325.0922058522508
 31
0.0
 11
484.835297042427
 21
325.3621552636689
 31
0.0
 11
484.9861587248603
 21
325.6204543788924
 31
0.0
 11
485.1559316562318
 21
325.8618571880146
 31
0.0
 11
485.3457830609762
 21
326.0878513421409
 31
0.0
 11
485.5514511175714
 21
326.2934855524117
 31
0.0
 11
485.7745029663956
 21
326.4801740259883
 31
0.0
 11
486.0099493442518
 21
326.6438516265123
 31
0.0
 11
486.2593359876023
 21
326.7854505646744
 31
0.0
 11
486.5175576256199
 21
326.9021806159491
 31
0.0
 11
486.7855622964491
 21
326.994334437615
 31
0.0
 11
487.0588363309979
 21
327.060471656754
 31
0.0
 11
487.3371630847315
 21
327.1004094662179
 31
0.0
 11
487.6172381793293
 21
327.1137913450993
 31
0.0
 11
487.897313273927
 21
327.1004094662179
 31
0.0
  0
SPLINE
  5
D3
330
4D
100
AcDbEntity
  8
1
  6
Continuous
 62
     7
100
AcDbSpline
210
0.0
220
0.0
230
1.0
 70
    11
 71
     3
 72
    79
 73
    75
 74
    73
 42
0.000000001
 43
0.0000000001
 44
0.00000001
 40
0.0
 40
0.0
 40
0.0
 40
0.0
 40
0.3160436387995633
 40
0.6318966285517196
 40
0.9639391265079161
 40
1.295702693009241
 40
1.650847222609209
 40
2.005727784477178
 40
2.387357017978317
 40
2.768780710150931
 40
3.176769167226606
 40
3.58461238953041
 40
4.015944746705176
 40
4.447181167981085
 40
4.896666768954089
 40
5.346094677408992
 40
5.807047416077045
 40
6.267973147891068
 40
6.732835055932668
 40
7.197696963972409
 40
7.658622695780631
 40
8.119575434438145
 40
8.569003342876453
 40
9.018488943823776
 40
9.449725365063225
 40
9.88105772218522
 40
10.28890094441815
 40
10.69688940139464
 40
11.07831309343919
 40
11.45994232676479
 40
11.81482288840932
 40
12.16996741770037
 40
12.50173098377959
 40
12.83377348103122
 40
13.14962646880607
 40
13.46567011525734
 40
13.7758925499164
 40
14.08611498457418
 40
14.40215863102208
 40
14.71801161879137
 40
15.05005411603549
 40
15.38181768210603
 40
15.7369622113869
 40
16.09184277302084
 40
16.47347200633507
 40
16.85489569836835
 40
17.26288415533302
 40
17.67072737755462
 40
18.10205973466513
 40
18.53329615589373
 40
18.98278175683047
 40
19.4322096652588
 40
19.89316240390691
 40
20.35408813570627
 40
20.81895004373781
 40
21.28381195177169
 40
21.74473768357873
 40
22.20569042224062
 40
22.65511833069017
 40
23.10460393165806
 40
23.53584035292944
 40
23.9671727100995
 40
24.37501593239838
 40
24.78300438946758
 40
25.16442808163118
 40
25.54605731511714
 40
25.9009378769594
 40
26.25608240650905
 40
26.58784597290256
 40
26.91988847056015
 40
27.23574145885955
 40
27.55178510609562
 40
27.86200754281989
 40
28.17222997000354
 40
28.17222997000354
 40
28.17222997000354
 40
28.17222997000354
 10
165.8178274880017
 20
323.9586752870215
 30
0.0
 10
165.8356193969151
 20
324.0626693114407
 30
0.0
 10
165.8711924739455
 20
324.2705946287948
 30
0.0
 10
165.9773331964947
 20
324.5752403518743
 30
0.0
 10
166.1183865346384
 20
324.8703986429671
 30
0.0
 10
166.3006364533113
 20
325.1579100923693
 30
0.0
 10
166.5168517020168
 20
325.430433317849
 30
0.0
 10
166.7707905985303
 20
325.6918213866912
 30
0.0
 10
167.0543794180929
 20
325.9343548328413
 30
0.0
 10
167.3719769006517
 20
326.1620274943469
 30
0.0
 10
167.7142815843527
 20
326.3680083013845
 30
0.0
 10
168.0857372772286
 20
326.5554503959892
 30
0.0
 10
168.4766808519509
 20
326.719105656874
 30
0.0
 10
168.8907048612755
 20
326.8609582286389
 30
0.0
 10
169.3188020106574
 20
326.9775183263918
 30
0.0
 10
169.7628863189272
 20
327.0697396995409
 30
0.0
 10
170.2154795685516
 20
327.1356836392735
 30
0.0
 10
170.6762494395406
 20
327.175690921911
 30
0.0
 10
171.1398669176245
 20
327.1889316148431
 30
0.0
 10
171.6034843957217
 20
327.175690921971
 30
0.0
 10
172.0642542666695
 20
327.1356836393912
 30
0.0
 10
172.51684751644
 20
327.0697396997498
 30
0.0
 10
172.9609318241744
 20
326.9775183266128
 30
0.0
 10
173.3890289755131
 20
326.8609582292229
 30
0.0
 10
173.8030529778177
 20
326.7191056566366
 30
0.0
 10
174.1939965780479
 20
326.555450399325
 30
0.0
 10
174.5654521806817
 20
326.3680082927767
 30
0.0
 10
174.907757190076
 20
326.162027529699
 30
0.0
 10
175.225353532354
 20
325.9343547152867
 30
0.0
 10
175.5089464504485
 20
325.691821819956
 30
0.0
 10
175.7628710667171
 20
325.4304318333574
 30
0.0
 10
175.9791376658834
 20
325.157915505741
 30
0.0
 10
176.1612078655625
 20
324.8703799170493
 30
0.0
 10
176.3029119428035
 20
324.575309034635
 30
0.0
 10
176.4067357305778
 20
324.2703520987639
 30
0.0
 10
176.468280638276
 20
323.9614909685737
 30
0.0
 10
176.48979667981
 20
323.649148452648
 30
0.0
 10
176.4682806382885
 20
323.3368059367227
 30
0.0
 10
176.4067357306029
 20
323.0279448065334
 30
0.0
 10
176.3029119428408
 20
322.722987870664
 30
0.0
 10
176.1612078656116
 20
322.4279169882518
 30
0.0
 10
175.9791376659441
 20
322.1403813995631
 30
0.0
 10
175.7628710667885
 20
321.8678650719507
 30
0.0
 10
175.5089464505303
 20
321.6064750853569
 30
0.0
 10
175.2253535324457
 20
321.3639421900316
 30
0.0
 10
174.907757190177
 20
321.1362693756258
 30
0.0
 10
174.5654521807917
 20
320.9302886125555
 30
0.0
 10
174.1939965781663
 20
320.742846506016
 30
0.0
 10
173.8030529779442
 20
320.5791912487142
 30
0.0
 10
173.3890289756472
 20
320.4373386761392
 30
0.0
 10
172.9609318243159
 20
320.3207785787622
 30
0.0
 10
172.5168475165887
 20
320.2285572056395
 30
0.0
 10
172.0642542668253
 20
320.1626132660143
 30
0.0
 10
171.6034843958841
 20
320.1226059834529
 30
0.0
 10
171.1398669177972
 20
320.1093652906013
 30
0.0
 10
170.6762494397116
 20
320.1226059835546
 30
0.0
 10
170.2154795687686
 20
320.162613266223
 30
0.0
 10
169.7628863190179
 20
320.2285572059612
 30
0.0
 10
169.3188020112563
 20
320.3207785792169
 30
0.0
 10
168.8907048600701
 20
320.4373386767193
 30
0.0
 10
168.4766808572831
 20
320.5791912495275
 30
0.0
 10
168.085737258889
 20
320.7428465067759
 30
0.0
 10
167.7142816498653
 20
320.9302886143988
 30
0.0
 10
167.3719766636733
 20
321.13626937461
 30
0.0
 10
167.0543802403417
 20
321.3639422002014
 30
0.0
 10
166.7707876138196
 20
321.606475056701
 30
0.0
 10
166.5168619819515
 20
321.8678651801013
 30
0.0
 10
166.3005990351989
 20
322.1403810175571
 30
0.0
 10
166.11851605313
 20
322.4279183236907
 30
0.0
 10
165.9768582599657
 20
322.7229829897856
 30
0.0
 10
165.8728696800895
 20
323.0279620613507
 30
0.0
 10
165.8119298787767
 20
323.3367419146589
 30
0.0
 10
165.7881944300086
 20
323.6493825411552
 30
0.0
 10
165.8079498049378
 20
323.8555777058967
 30
0.0
 10
165.8178274880017
 20
323.9586752870214
 30
0.0
 11
165.8178274880017
 21
323.9586752870215
 31
0.0
 11
165.8797098372881
 21
324.2686013449783
 31
0.0
 11
165.9807659642175
 21
324.56785169031
 31
0.0
 11
166.1242196836861
 21
324.8673066125206
 31
0.0
 11
166.3010503970812
 21
325.1480163605728
 31
0.0
 11
166.5213609679176
 21
325.4265677725878
 31
0.0
 11
166.7681685140412
 21
325.6815702201648
 31
0.0
 11
167.0577788025667
 21
325.9300993986666
 31
0.0
 11
167.3674811214954
 21
326.1527392570703
 31
0.0
 11
167.7167577036444
 21
326.3635957253873
 31
0.0
 11
168.0807015049044
 21
326.5476636570845
 31
0.0
 11
168.4783979969778
 21
326.71465198758
 31
0.0
 11
168.8862738301329
 21
326.854659686487
 31
0.0
 11
169.3198822114936
 21
326.9730703156137
 31
0.0
 11
169.7598949689461
 21
327.0645810700351
 31
0.0
 11
170.2160008523086
 21
327.1312507816534
 31
0.0
 11
170.6751971494483
 21
327.1711417698922
 31
0.0
 11
171.1398669275505
 21
327.1845055593708
 31
0.0
 11
171.6045367056525
 21
327.1711417698922
 31
0.0
 11
172.0637330027921
 21
327.1312507816534
 31
0.0
 11
172.5198388861547
 21
327.0645810700352
 31
0.0
 11
172.9598516436073
 21
326.9730703156139
 31
0.0
 11
173.393460024968
 21
326.8546596864871
 31
0.0
 11
173.801335858123
 21
326.71465198758
 31
0.0
 11
174.1990323501964
 21
326.5476636570845
 31
0.0
 11
174.5629761514564
 21
326.3635957253873
 31
0.0
 11
174.9122527336054
 21
326.1527392570703
 31
0.0
 11
175.221955052534
 21
325.9300993986666
 31
0.0
 11
175.5115653410595
 21
325.6815702201649
 31
0.0
 11
175.7583728871831
 21
325.4265677725878
 31
0.0
 11
175.9786834580196
 21
325.1480163605728
 31
0.0
 11
176.1555141714148
 21
324.8673066125205
 31
0.0
 11
176.2989678908834
 21
324.56785169031
 31
0.0
 11
176.4000240178129
 21
324.2686013449783
 31
0.0
 11
176.4619063670993
 21
323.9586752870215
 31
0.0
 11
176.4826692571907
 21
323.6491484522351
 31
0.0
 11
176.4619063670992
 21
323.3396216174488
 31
0.0
 11
176.4000240178129
 21
323.0296955594919
 31
0.0
 11
176.2989678908835
 21
322.7304452141602
 31
0.0
 11
176.1555141714149
 21
322.4309902919497
 31
0.0
 11
175.9786834580198
 21
322.1502805438973
 31
0.0
 11
175.7583728871833
 21
321.8717291318824
 31
0.0
 11
175.5115653410597
 21
321.6167266843054
 31
0.0
 11
175.2219550525341
 21
321.3681975058035
 31
0.0
 11
174.9122527336054
 21
321.1455576473998
 31
0.0
 11
174.5629761514565
 21
320.9347011790827
 31
0.0
 11
174.1990323501965
 21
320.7506332473855
 31
0.0
 11
173.8013358581231
 21
320.5836449168902
 31
0.0
 11
173.3934600249681
 21
320.4436372179831
 31
0.0
 11
172.9598516436074
 21
320.3252265888564
 31
0.0
 11
172.5198388861547
 21
320.233715834435
 31
0.0
 11
172.063733002792
 21
320.1670461228168
 31
0.0
 11
171.6045367056524
 21
320.1271551345781
 31
0.0
 11
171.1398669275503
 21
320.1137913450993
 31
0.0
 11
170.6751971494483
 21
320.127155134578
 31
0.0
 11
170.2160008523088
 21
320.1670461228168
 31
0.0
 11
169.7598949689462
 21
320.233715834435
 31
0.0
 11
169.3198822114936
 21
320.3252265888564
 31
0.0
 11
168.886273830133
 21
320.4436372179831
 31
0.0
 11
168.478397996978
 21
320.5836449168903
 31
0.0
 11
168.0807015049046
 21
320.7506332473856
 31
0.0
 11
167.7167577036446
 21
320.9347011790829
 31
0.0
 11
167.3674811214955
 21
321.1455576473999
 31
0.0
 11
167.0577788025667
 21
321.3681975058035
 31
0.0
 11
166.7681685140412
 21
321.6167266843053
 31
0.0
 11
166.5213609679177
 21
321.8717291318824
 31
0.0
 11
166.3010503970812
 21
322.1502805438973
 31
0.0
 11
166.124219683686
 21
322.4309902919496
 31
0.0
 11
165.9807659642175
 21
322.7304452141602
 31
0.0
 11
165.8797098372881
 21
323.0296955594919
 31
0.0
 11
165.8178274880017
 21
323.3396216174488
 31
0.0
 11
165.7970645979103
 21
323.6491484522351
 31
0.0
 11
165.8178274880017
 21
323.9586752870214
 31
0.0
  0
SPLINE
  5
D4
330
4D
100
AcDbEntity
  8
1
  6
Continuous
 62
     7
100
AcDbSpline
210
0.0
220
0.0
230
1.0
 70
    11
 71
     3
 72
    79
 73
    75
 74
    73
 42
0.000000001
 43
0.0000000001
 44
0.00000001
 40
0.0
 40
0.0
 40
0.0
 40
0.0
 40
0.3160436387995521
 40
0.6318966285517267
 40
0.9639391265078987
 40
1.295702693009269
 40
1.650847222609272
 40
2.005727784477221
 40
2.387357017978383
 40
2.768780710150996
 40
3.176769167226671
 40
3.584612389530424
 40
4.015944746705164
 40
4.447181167981099
 40
4.896666768954103
 40
5.346094677409035
 40
5.807047416077144
 40
6.267973147891139
 40
6.732835055932739
 40
7.197696963972452
 40
7.658622695780673
 40
8.11957543443816
 40
8.56900334287641
 40
9.018488943823733
 40
9.449725365063182
 40
9.88105772218523
 40
10.28890094441818
 40
10.69688940139468
 40
11.07831309343925
 40
11.45994232676485
 40
11.81482288840935
 40
12.16996741770037
 40
12.5017309837796
 40
12.83377348103121
 40
13.14962646880607
 40
13.46567011525732
 40
13.77589254991638
 40
14.08611498457416
 40
14.40215863102206
 40
14.71801161879135
 40
15.05005411603544
 40
15.38181768210599
 40
15.73696221138684
 40
16.0918427730208
 40
16.47347200633499
 40
16.85489569836828
 40
17.26288415533294
 40
17.67072737755459
 40
18.10205973466513
 40
18.53329615589375
 40
18.98278175683047
 40
19.43220966525877
 40
19.8931624039068
 40
20.35408813570622
 40
20.81895004373773
 40
21.28381195177161
 40
21.74473768357868
 40
22.20569042224056
 40
22.65511833069012
 40
23.10460393165809
 40
23.53584035292944
 40
23.96717271009953
 40
24.37501593239841
 40
24.78300438946754
 40
25.16442808163114
 40
25.54605731511709
 40
25.90093787695935
 40
26.25608240650902
 40
26.58784597290256
 40
26.91988847056014
 40
27.23574145885955
 40
27.55178510609561
 40
27.86200754281987
 40
28.17222997000351
 40
28.17222997000351
 40
28.17222997000351
 40
28.17222997000351
 10
163.900599438463
 20
323.9586752870215
 30
0.0
 10
163.8828075295497
 20
324.0626693114407
 30
0.0
 10
163.8472344525192
 20
324.2705946287949
 30
0.0
 10
163.74109372997
 20
324.5752403518742
 30
0.0
 10
163.6000403918263
 20
324.8703986429672
 30
0.0
 10
163.4177904731533
 20
325.1579100923692
 30
0.0
 10
163.2015752244478
 20
325.4304333178491
 30
0.0
 10
162.9476363279344
 20
325.6918213866911
 30
0.0
 10
162.6640475083717
 20
325.9343548328413
 30
0.0
 10
162.3464500258128
 20
326.1620274943469
 30
0.0
 10
162.0041453421119
 20
326.3680083013845
 30
0.0
 10
161.6326896492361
 20
326.5554503959892
 30
0.0
 10
161.2417460745137
 20
326.719105656874
 30
0.0
 10
160.8277220651892
 20
326.8609582286389
 30
0.0
 10
160.3996249158073
 20
326.9775183263919
 30
0.0
 10
159.9555406075375
 20
327.0697396995408
 30
0.0
 10
159.502947357913
 20
327.1356836392736
 30
0.0
 10
159.042177486924
 20
327.1756909219109
 30
0.0
 10
158.5785600088401
 20
327.188931614843
 30
0.0
 10
158.1149425307429
 20
327.1756909219711
 30
0.0
 10
157.6541726597951
 20
327.1356836393911
 30
0.0
 10
157.2015794100246
 20
327.0697396997498
 30
0.0
 10
156.7574951022903
 20
326.9775183266127
 30
0.0
 10
156.3293979509516
 20
326.860958229223
 30
0.0
 10
155.9153739486469
 20
326.7191056566366
 30
0.0
 10
155.5244303484168
 20
326.555450399325
 30
0.0
 10
155.1529747457828
 20
326.3680082927768
 30
0.0
 10
154.8106697363887
 20
326.162027529699
 30
0.0
 10
154.4930733941106
 20
325.9343547152866
 30
0.0
 10
154.209480476016
 20
325.6918218199561
 30
0.0
 10
153.9555558597475
 20
325.4304318333574
 30
0.0
 10
153.7392892605812
 20
325.157915505741
 30
0.0
 10
153.5572190609021
 20
324.8703799170495
 30
0.0
 10
153.4155149836612
 20
324.5753090346348
 30
0.0
 10
153.3116911958869
 20
324.2703520987639
 30
0.0
 10
153.2501462881887
 20
323.9614909685736
 30
0.0
 10
153.2286302466547
 20
323.649148452648
 30
0.0
 10
153.2501462881762
 20
323.3368059367227
 30
0.0
 10
153.3116911958618
 20
323.0279448065334
 30
0.0
 10
153.4155149836239
 20
322.722987870664
 30
0.0
 10
153.557219060853
 20
322.4279169882517
 30
0.0
 10
153.7392892605206
 20
322.1403813995632
 30
0.0
 10
153.9555558596761
 20
321.8678650719507
 30
0.0
 10
154.2094804759343
 20
321.6064750853569
 30
0.0
 10
154.4930733940189
 20
321.3639421900315
 30
0.0
 10
154.8106697362876
 20
321.1362693756258
 30
0.0
 10
155.1529747456729
 20
320.9302886125554
 30
0.0
 10
155.5244303482983
 20
320.7428465060159
 30
0.0
 10
155.9153739485205
 20
320.5791912487142
 30
0.0
 10
156.3293979508175
 20
320.4373386761392
 30
0.0
 10
156.7574951021488
 20
320.3207785787621
 30
0.0
 10
157.201579409876
 20
320.2285572056394
 30
0.0
 10
157.6541726596393
 20
320.1626132660144
 30
0.0
 10
158.1149425305805
 20
320.1226059834528
 30
0.0
 10
158.5785600086674
 20
320.1093652906013
 30
0.0
 10
159.0421774867531
 20
320.1226059835546
 30
0.0
 10
159.502947357696
 20
320.162613266223
 30
0.0
 10
159.9555406074467
 20
320.2285572059612
 30
0.0
 10
160.3996249152083
 20
320.3207785792169
 30
0.0
 10
160.8277220663945
 20
320.4373386767192
 30
0.0
 10
161.2417460691816
 20
320.5791912495275
 30
0.0
 10
161.6326896675757
 20
320.7428465067759
 30
0.0
 10
162.0041452765994
 20
320.9302886143988
 30
0.0
 10
162.3464502627914
 20
321.13626937461
 30
0.0
 10
162.6640466861228
 20
321.3639422002014
 30
0.0
 10
162.9476393126451
 20
321.606475056701
 30
0.0
 10
163.2015649445131
 20
321.8678651801013
 30
0.0
 10
163.4178278912657
 20
322.1403810175571
 30
0.0
 10
163.5999108733347
 20
322.4279183236906
 30
0.0
 10
163.7415686664989
 20
322.7229829897857
 30
0.0
 10
163.8455572463752
 20
323.0279620613506
 30
0.0
 10
163.9064970476881
 20
323.3367419146591
 30
0.0
 10
163.930232496456
 20
323.6493825411551
 30
0.0
 10
163.9104771215268
 20
323.8555777058967
 30
0.0
 10
163.900599438463
 20
323.9586752870214
 30
0.0
 11
163.900599438463
 21
323.9586752870215
 31
0.0
 11
163.8387170891766
 21
324.2686013449783
 31
0.0
 11
163.7376609622472
 21
324.56785169031
 31
0.0
 11
163.5942072427787
 21
324.8673066125206
 31
0.0
 11
163.4173765293835
 21
325.1480163605728
 31
0.0
 11
163.1970659585469
 21
325.4265677725878
 31
0.0
 11
162.9502584124234
 21
325.6815702201648
 31
0.0
 11
162.6606481238979
 21
325.9300993986666
 31
0.0
 11
162.3509458049692
 21
326.1527392570703
 31
0.0
 11
162.0016692228202
 21
326.3635957253873
 31
0.0
 11
161.6377254215603
 21
326.5476636570845
 31
0.0
 11
161.2400289294868
 21
326.71465198758
 31
0.0
 11
160.8321530963318
 21
326.854659686487
 31
0.0
 11
160.398544714971
 21
326.9730703156137
 31
0.0
 11
159.9585319575185
 21
327.0645810700351
 31
0.0
 11
159.5024260741559
 21
327.1312507816534
 31
0.0
 11
159.0432297770163
 21
327.1711417698922
 31
0.0
 11
158.5785599989141
 21
327.1845055593708
 31
0.0
 11
158.1138902208121
 21
327.1711417698922
 31
0.0
 11
157.6546939236725
 21
327.1312507816534
 31
0.0
 11
157.19858804031
 21
327.0645810700352
 31
0.0
 11
156.7585752828574
 21
326.9730703156139
 31
0.0
 11
156.3249669014967
 21
326.8546596864871
 31
0.0
 11
155.9170910683417
 21
326.71465198758
 31
0.0
 11
155.5193945762682
 21
326.5476636570845
 31
0.0
 11
155.1554507750082
 21
326.3635957253873
 31
0.0
 11
154.8061741928593
 21
326.1527392570703
 31
0.0
 11
154.4964718739306
 21
325.9300993986666
 31
0.0
 11
154.2068615854051
 21
325.6815702201649
 31
0.0
 11
153.9600540392815
 21
325.4265677725878
 31
0.0
 11
153.7397434684451
 21
325.1480163605728
 31
0.0
 11
153.5629127550499
 21
324.8673066125205
 31
0.0
 11
153.4194590355813
 21
324.56785169031
 31
0.0
 11
153.3184029086518
 21
324.2686013449783
 31
0.0
 11
153.2565205593655
 21
323.9586752870215
 31
0.0
 11
153.2357576692741
 21
323.6491484522351
 31
0.0
 11
153.2565205593655
 21
323.3396216174488
 31
0.0
 11
153.3184029086518
 21
323.0296955594919
 31
0.0
 11
153.4194590355812
 21
322.7304452141602
 31
0.0
 11
153.5629127550497
 21
322.4309902919497
 31
0.0
 11
153.7397434684448
 21
322.1502805438973
 31
0.0
 11
153.9600540392813
 21
321.8717291318824
 31
0.0
 11
154.206861585405
 21
321.6167266843054
 31
0.0
 11
154.4964718739305
 21
321.3681975058035
 31
0.0
 11
154.8061741928591
 21
321.1455576473998
 31
0.0
 11
155.1554507750081
 21
320.9347011790827
 31
0.0
 11
155.5193945762681
 21
320.7506332473855
 31
0.0
 11
155.9170910683416
 21
320.5836449168902
 31
0.0
 11
156.3249669014966
 21
320.4436372179831
 31
0.0
 11
156.7585752828573
 21
320.3252265888564
 31
0.0
 11
157.1985880403099
 21
320.233715834435
 31
0.0
 11
157.6546939236725
 21
320.1670461228168
 31
0.0
 11
158.1138902208122
 21
320.1271551345781
 31
0.0
 11
158.5785599989143
 21
320.1137913450993
 31
0.0
 11
159.0432297770163
 21
320.127155134578
 31
0.0
 11
159.5024260741558
 21
320.1670461228168
 31
0.0
 11
159.9585319575184
 21
320.233715834435
 31
0.0
 11
160.398544714971
 21
320.3252265888564
 31
0.0
 11
160.8321530963317
 21
320.4436372179831
 31
0.0
 11
161.2400289294866
 21
320.5836449168903
 31
0.0
 11
161.6377254215601
 21
320.7506332473856
 31
0.0
 11
162.0016692228201
 21
320.9347011790829
 31
0.0
 11
162.3509458049691
 21
321.1455576473999
 31
0.0
 11
162.6606481238979
 21
321.3681975058035
 31
0.0
 11
162.9502584124234
 21
321.6167266843053
 31
0.0
 11
163.1970659585469
 21
321.8717291318824
 31
0.0
 11
163.4173765293834
 21
322.1502805438973
 31
0.0
 11
163.5942072427787
 21
322.4309902919496
 31
0.0
 11
163.7376609622472
 21
322.7304452141602
 31
0.0
 11
163.8387170891766
 21
323.0296955594919
 31
0.0
 11
163.900599438463
 21
323.3396216174488
 31
0.0
 11
163.9213623285543
 21
323.6491484522351
 31
0.0
 11
163.900599438463
 21
323.9586752870214
 31
0.0
  0
ENDBLK
  5
4F
330
4D
100
AcDbEntity
  8
0
100
AcDbBlockEnd
  0
BLOCK
  5
51
330
50
100
AcDbEntity
  8
0
100
AcDbBlockBegin
  2
36-1A-13-M11
 70
     0
 10
253.0617100065786
 20
196.0446653356632
 30
0.0
  3
36-1A-13-M11
  1

  0
LINE
  5
D5
330
50
100
AcDbEntity
  8
1
  6
Continuous
 62
     7
100
AcDbLine
 10
494.1255684285268
 20
334.1137913450993
 30
0.0
 11
494.1255684285268
 21
337.1137913450993
 31
0.0
  0
LINE
  5
D6
330
50
100
AcDbEntity
  8
1
  6
Continuous
 62
     7
100
AcDbLine
 10
503.6255684285269
 20
337.1137913450993
 30
0.0
 11
503.6255684285269
 21
334.1137913450993
 31
0.0
  0
LINE
  5
D7
330
50
100
AcDbEntity
  8
1
  6
Continuous
 62
     7
100
AcDbLine
 10
160.1092134632322
 20
334.1137913450993
 30
0.0
 11
160.1092134632322
 21
337.1137913450993
 31
0.0
  0
LINE
  5
D8
330
50
100
AcDbEntity
  8
1
  6
Continuous
 62
     7
100
AcDbLine
 10
169.6092134632322
 20
337.1137913450993
 30
0.0
 11
169.6092134632322
 21
334.1137913450993
 31
0.0
  0
ENDBLK
  5
52
330
50
100
AcDbEntity
  8
0
100
AcDbBlockEnd
  0
BLOCK
  5
54
330
53
100
AcDbEntity
  8
0
100
AcDbBlockBegin
  2
A10-0A-13
 70
     0
 10
498.8755684285269
 20
294.6137913450993
 30
0.0
  3
A10-0A-13
  1

  0
LINE
  5
D9
330
53
100
AcDbEntity
  8
0
  6
PHANTOM
 62
     4
100
AcDbLine
 10
187.8592134632322
 20
294.6137913450993
 30
0.0
 11
190.8592134632322
 21
294.6137913450993
 31
0.0
  0
LINE
  5
DA
330
53
100
AcDbEntity
  8
1
  6
Continuous
 62
     7
100
AcDbLine
 10
557.8755684285269
 20
285.1137913450993
 30
0.0
 11
557.8755684285268
 21
304.1137913450993
 31
0.0
  0
LINE
  5
DB
330
53
100
AcDbEntity
  8
1
  6
Continuous
 62
     7
100
AcDbLine
 10
450.8755684285267
 20
278.8458421526682
 30
0.0
 11
450.8755684285267
 21
278.9737364004593
 31
0.0
  0
LINE
  5
DC
330
53
100
AcDbEntity
  8
1
  6
Continuous
 62
     7
100
AcDbLine
 10
486.8755684285267
 20
320.1137913450993
 30
0.0
 11
486.8755684285267
 21
316.8817405375307
 31
0.0
  0
LINE
  5
DD
330
53
100
AcDbEntity
  8
1
  6
Continuous
 62
     2
100
AcDbLine
 10
487.8755684285267
 20
318.6137913450993
 30
0.0
 11
487.8755684285269
 21
320.1137913450993
 31
0.0
  0
LINE
  5
DE
330
53
100
AcDbEntity
  8
1
  6
Continuous
 62
     2
100
AcDbLine
 10
486.8755684285267
 20
316.8817405375307
 30
0.0
 11
487.8755684285267
 21
318.6137913450993
 31
0.0
  0
LINE
  5
DF
330
53
100
AcDbEntity
  8
1
  6
Continuous
 62
     7
100
AcDbLine
 10
510.8755684285268
 20
316.8817405375307
 30
0.0
 11
510.8755684285268
 21
320.1137913450993
 31
0.0
  0
LINE
  5
E0
330
53
100
AcDbEntity
  8
1
  6
Continuous
 62
     2
100
AcDbLine
 10
509.8755684285267
 20
318.6137913450993
 30
0.0
 11
510.8755684285268
 21
316.8817405375307
 31
0.0
  0
LINE
  5
E1
330
53
100
AcDbEntity
  8
1
  6
Continuous
 62
     7
100
AcDbLine
 10
510.8755684285268
 20
316.8817405375307
 30
0.0
 11
511.1681456281759
 21
316.8817405375307
 31
0.0
  0
LINE
  5
E2
330
53
100
AcDbEntity
  8
1
  6
Continuous
 62
     7
100
AcDbLine
 10
486.5829912288789
 20
316.8817405375307
 30
0.0
 11
486.8755684285267
 21
316.8817405375307
 31
0.0
  0
LINE
  5
E3
330
53
100
AcDbEntity
  8
1
  6
Continuous
 62
     2
100
AcDbLine
 10
451.8755684285267
 20
275.6137913450995
 30
0.0
 11
451.8755684285267
 21
277.1137913450993
 31
0.0
  0
LINE
  5
E4
330
53
100
AcDbEntity
  8
1
  6
Continuous
 62
     2
100
AcDbLine
 10
475.8755684285267
 20
277.1137913450993
 30
0.0
 11
475.8755684285267
 21
275.6137913450995
 31
0.0
  0
LINE
  5
E5
330
53
100
AcDbEntity
  8
1
  6
Continuous
 62
     2
100
AcDbLine
 10
475.8755684285267
 20
277.1137913450993
 30
0.0
 11
476.8755684285267
 21
278.8458421526683
 31
0.0
  0
LINE
  5
E6
330
53
100
AcDbEntity
  8
1
  6
Continuous
 62
     7
100
AcDbLine
 10
450.8755684285267
 20
275.6137913450995
 30
0.0
 11
450.8755684285267
 21
278.8458421526682
 31
0.0
  0
LINE
  5
E7
330
53
100
AcDbEntity
  8
1
  6
Continuous
 62
     2
100
AcDbLine
 10
450.8755684285267
 20
278.8458421526682
 30
0.0
 11
451.8755684285267
 21
277.1137913450993
 31
0.0
  0
LINE
  5
E8
330
53
100
AcDbEntity
  8
1
  6
Continuous
 62
     7
100
AcDbLine
 10
476.8755684285267
 20
278.9737364004593
 30
0.0
 11
476.8755684285267
 21
275.6137913450995
 31
0.0
  0
LINE
  5
E9
330
53
100
AcDbEntity
  8
1
  6
Continuous
 62
     7
100
AcDbLine
 10
541.3755684285268
 20
307.3637913450993
 30
0.0
 11
541.3755684285268
 21
317.1137913450993
 31
0.0
  0
LINE
  5
EA
330
53
100
AcDbEntity
  8
1
  6
Continuous
 62
     7
100
AcDbLine
 10
543.8755684285269
 20
317.6137913450993
 30
0.0
 11
541.8755684285268
 21
317.6137913450993
 31
0.0
  0
LINE
  5
EB
330
53
100
AcDbEntity
  8
1
  6
Continuous
 62
     7
100
AcDbLine
 10
543.8755684285269
 20
317.6137913450993
 30
0.0
 11
543.8755684285268
 21
305.1137913450993
 31
0.0
  0
LINE
  5
EC
330
53
100
AcDbEntity
  8
1
  6
Continuous
 62
     2
100
AcDbLine
 10
543.8755684285268
 20
305.1137913450993
 30
0.0
 11
545.6076192360958
 21
304.1137913450993
 31
0.0
  0
LINE
  5
ED
330
53
100
AcDbEntity
  8
1
  6
Continuous
 62
     7
100
AcDbLine
 10
557.8755684285268
 20
304.1137913450993
 30
0.0
 11
556.8755684285268
 21
305.1137913450993
 31
0.0
  0
LINE
  5
EE
330
53
100
AcDbEntity
  8
1
  6
Continuous
 62
     7
100
AcDbLine
 10
543.8755684285268
 20
305.1137913450993
 30
0.0
 11
556.8755684285268
 21
305.1137913450993
 31
0.0
  0
LINE
  5
EF
330
53
100
AcDbEntity
  8
1
  6
Continuous
 62
     2
100
AcDbLine
 10
545.6076192360958
 20
304.1137913450993
 30
0.0
 11
557.8755684285268
 21
304.1137913450993
 31
0.0
  0
LINE
  5
F0
330
53
100
AcDbEntity
  8
1
  6
Continuous
 62
     7
100
AcDbLine
 10
543.8755684285268
 20
284.1137913450993
 30
0.0
 11
543.8755684285269
 21
271.6137913450993
 31
0.0
  0
LINE
  5
F1
330
53
100
AcDbEntity
  8
1
  6
Continuous
 62
     7
100
AcDbLine
 10
543.8755684285269
 20
271.6137913450993
 30
0.0
 11
541.8755684285268
 21
271.6137913450993
 31
0.0
  0
LINE
  5
F2
330
53
100
AcDbEntity
  8
1
  6
Continuous
 62
     7
100
AcDbLine
 10
541.3755684285268
 20
281.8637913450993
 30
0.0
 11
541.3755684285269
 21
272.1137913450993
 31
0.0
  0
LINE
  5
F3
330
53
100
AcDbEntity
  8
1
  6
Continuous
 62
     7
100
AcDbLine
 10
556.8755684285268
 20
284.1137913450993
 30
0.0
 11
557.8755684285269
 21
285.1137913450993
 31
0.0
  0
LINE
  5
F4
330
53
100
AcDbEntity
  8
1
  6
Continuous
 62
     2
100
AcDbLine
 10
557.8755684285269
 20
285.1137913450993
 30
0.0
 11
545.6076192360958
 21
285.1137913450993
 31
0.0
  0
LINE
  5
F5
330
53
100
AcDbEntity
  8
1
  6
Continuous
 62
     2
100
AcDbLine
 10
545.6076192360958
 20
285.1137913450993
 30
0.0
 11
543.8755684285268
 21
284.1137913450993
 31
0.0
  0
LINE
  5
F6
330
53
100
AcDbEntity
  8
1
  6
Continuous
 62
     7
100
AcDbLine
 10
556.8755684285268
 20
284.1137913450993
 30
0.0
 11
543.8755684285268
 21
284.1137913450993
 31
0.0
  0
LINE
  5
F7
330
53
100
AcDbEntity
  8
1
  6
Continuous
 62
     2
100
AcDbLine
 10
509.8755684285267
 20
320.1137913450993
 30
0.0
 11
509.8755684285267
 21
318.6137913450993
 31
0.0
  0
LINE
  5
F8
330
53
100
AcDbEntity
  8
1
  6
Continuous
 62
     7
100
AcDbLine
 10
475.8567152456478
 20
282.5397225405371
 30
0.0
 11
476.8755684285267
 21
278.9737364004593
 31
0.0
  0
LINE
  5
F9
330
53
100
AcDbEntity
  8
1
  6
Continuous
 62
     7
100
AcDbLine
 10
480.4432598373599
 20
286.1137913450993
 30
0.0
 11
479.6170423185538
 21
286.1137913450993
 31
0.0
  0
LINE
  5
FA
330
53
100
AcDbEntity
  8
1
  6
Continuous
 62
     7
100
AcDbLine
 10
521.0552325377948
 20
285.8637913450992
 30
0.0
 11
537.3755684285268
 21
285.8637913450993
 31
0.0
  0
LINE
  5
FB
330
53
100
AcDbEntity
  8
1
  6
Continuous
 62
     7
100
AcDbLine
 10
511.1681456281759
 20
316.8817405375307
 30
0.0
 11
511.3202436207168
 21
312.0906537724926
 31
0.0
  0
LINE
  5
FC
330
53
100
AcDbEntity
  8
1
  6
Continuous
 62
     7
100
AcDbLine
 10
537.3755684285268
 20
303.3637913450993
 30
0.0
 11
521.0552325377957
 21
303.3637913450996
 31
0.0
  0
LINE
  5
FD
330
53
100
AcDbEntity
  8
1
  6
Continuous
 62
     7
100
AcDbLine
 10
451.8543741457077
 20
282.3995564105921
 30
0.0
 11
450.8755684285267
 21
278.9737364004593
 31
0.0
  0
LINE
  5
FE
330
53
100
AcDbEntity
  8
1
  6
Continuous
 62
     7
100
AcDbLine
 10
486.4212122012617
 20
311.785701167611
 30
0.0
 11
486.5829912288789
 21
316.8817405375307
 31
0.0
  0
LINE
  5
FF
330
53
100
AcDbEntity
  8
1
  6
Continuous
 62
     7
100
AcDbLine
 10
476.8755684285269
 20
277.1137913450993
 30
0.0
 11
450.8755684285267
 21
277.1137913450993
 31
0.0
  0
LINE
  5
100
330
53
100
AcDbEntity
  8
1
  6
Continuous
 62
     7
100
AcDbLine
 10
510.8755684285268
 20
318.6137913450993
 30
0.0
 11
486.8755684285269
 21
318.6137913450993
 31
0.0
  0
LINE
  5
101
330
53
100
AcDbEntity
  8
1
  6
Continuous
 62
     7
100
AcDbLine
 10
510.8755684285268
 20
316.8817405375307
 30
0.0
 11
486.8755684285267
 21
316.8817405375307
 31
0.0
  0
LINE
  5
102
330
53
100
AcDbEntity
  8
1
  6
Continuous
 62
     7
100
AcDbLine
 10
545.6076192360958
 20
305.1137913450993
 30
0.0
 11
545.6076192360958
 21
284.1137913450993
 31
0.0
  0
LINE
  5
103
330
53
100
AcDbEntity
  8
1
  6
Continuous
 62
     7
100
AcDbLine
 10
543.8755684285268
 20
284.1137913450993
 30
0.0
 11
543.8755684285268
 21
305.1137913450993
 31
0.0
  0
LINE
  5
104
330
53
100
AcDbEntity
  8
1
  6
Continuous
 62
     7
100
AcDbLine
 10
541.3755684285268
 20
307.3637913450993
 30
0.0
 11
541.3755684285268
 21
281.8637913450993
 31
0.0
  0
LINE
  5
105
330
53
100
AcDbEntity
  8
1
  6
Continuous
 62
     7
100
AcDbLine
 10
556.8755684285268
 20
305.1137913450993
 30
0.0
 11
556.8755684285268
 21
284.1137913450993
 31
0.0
  0
LINE
  5
106
330
53
100
AcDbEntity
  8
0
  6
PHANTOM
 62
     4
100
AcDbLine
 10
138.8592134632322
 20
294.6137913450993
 30
0.0
 11
187.8592134632322
 21
294.6137913450993
 31
0.0
  0
LINE
  5
107
330
53
100
AcDbEntity
  8
1
  6
PHANTOM
 62
     4
100
AcDbLine
 10
181.8592134632322
 20
683.7980399121152
 30
0.0
 11
147.8592134632322
 21
683.7980399121152
 31
0.0
  0
LINE
  5
108
330
53
100
AcDbEntity
  8
1
  6
Continuous
 62
     2
100
AcDbLine
 10
174.3592134632322
 20
730.530090719684
 30
0.0
 11
174.3592134632322
 21
742.7980399121152
 31
0.0
  0
LINE
  5
109
330
53
100
AcDbEntity
  8
1
  6
Continuous
 62
     2
100
AcDbLine
 10
174.3592134632322
 20
730.530090719684
 30
0.0
 11
175.3592134632322
 21
728.7980399121152
 31
0.0
  0
LINE
  5
10A
330
53
100
AcDbEntity
  8
1
  6
Continuous
 62
     7
100
AcDbLine
 10
187.8592134632322
 20
728.7980399121152
 30
0.0
 11
141.8592134632322
 21
728.7980399121152
 31
0.0
  0
LINE
  5
10B
330
53
100
AcDbEntity
  8
1
  6
Continuous
 62
     7
100
AcDbLine
 10
187.8592134632322
 20
726.7602351579443
 30
0.0
 11
187.8592134632322
 21
728.7980399121152
 31
0.0
  0
LINE
  5
10C
330
53
100
AcDbEntity
  8
1
  6
Continuous
 62
     7
100
AcDbLine
 10
173.6092134632322
 20
722.2617764910776
 30
0.0
 11
173.6092134632322
 21
707.8175632212901
 31
0.0
  0
LINE
  5
10D
330
53
100
AcDbEntity
  8
1
  6
Continuous
 62
     7
100
AcDbLine
 10
141.8592134632322
 20
728.7980399121152
 30
0.0
 11
141.8592134632322
 21
726.7602351579443
 31
0.0
  0
LINE
  5
10E
330
53
100
AcDbEntity
  8
1
  6
Continuous
 62
     2
100
AcDbLine
 10
154.3592134632322
 20
728.7980399121152
 30
0.0
 11
155.3592134632322
 21
730.530090719684
 31
0.0
  0
LINE
  5
10F
330
53
100
AcDbEntity
  8
1
  6
Continuous
 62
     2
100
AcDbLine
 10
155.3592134632322
 20
730.530090719684
 30
0.0
 11
155.3592134632322
 21
742.7980399121152
 31
0.0
  0
LINE
  5
110
330
53
100
AcDbEntity
  8
1
  6
Continuous
 62
     7
100
AcDbLine
 10
156.1092134632322
 20
722.2617764910776
 30
0.0
 11
156.1092134632322
 21
707.8175632212901
 31
0.0
  0
LINE
  5
111
330
53
100
AcDbEntity
  8
1
  6
Continuous
 62
     7
100
AcDbLine
 10
154.3592134632322
 20
728.7980399121152
 30
0.0
 11
154.3592134632322
 21
741.7980399121152
 31
0.0
  0
LINE
  5
112
330
53
100
AcDbEntity
  8
1
  6
Continuous
 62
     7
100
AcDbLine
 10
155.3592134632322
 20
742.7980399121152
 30
0.0
 11
154.3592134632322
 21
741.7980399121152
 31
0.0
  0
LINE
  5
113
330
53
100
AcDbEntity
  8
1
  6
Continuous
 62
     7
100
AcDbLine
 10
175.3592134632322
 20
741.7980399121152
 30
0.0
 11
175.3592134632322
 21
728.7980399121152
 31
0.0
  0
LINE
  5
114
330
53
100
AcDbEntity
  8
1
  6
Continuous
 62
     7
100
AcDbLine
 10
175.3592134632322
 20
741.7980399121152
 30
0.0
 11
174.3592134632322
 21
742.7980399121152
 31
0.0
  0
LINE
  5
115
330
53
100
AcDbEntity
  8
1
  6
Continuous
 62
     7
100
AcDbLine
 10
155.3592134632322
 20
742.7980399121152
 30
0.0
 11
174.3592134632322
 21
742.7980399121152
 31
0.0
  0
LINE
  5
116
330
53
100
AcDbEntity
  8
1
  6
Continuous
 62
     7
100
AcDbLine
 10
156.1092134632322
 20
650.7980399121152
 30
0.0
 11
156.1092134632322
 21
659.7785166029402
 31
0.0
  0
LINE
  5
117
330
53
100
AcDbEntity
  8
1
  6
Continuous
 62
     7
100
AcDbLine
 10
173.6092134632322
 20
650.7980399121152
 30
0.0
 11
173.6092134632322
 21
659.7785166029402
 31
0.0
  0
LINE
  5
118
330
53
100
AcDbEntity
  8
1
  6
Continuous
 62
     7
100
AcDbLine
 10
154.3592134632322
 20
730.530090719684
 30
0.0
 11
175.3592134632322
 21
730.530090719684
 31
0.0
  0
LINE
  5
119
330
53
100
AcDbEntity
  8
1
  6
Continuous
 62
     7
100
AcDbLine
 10
175.3592134632322
 20
741.7980399121152
 30
0.0
 11
154.3592134632322
 21
741.7980399121152
 31
0.0
  0
LINE
  5
11A
330
53
100
AcDbEntity
  8
1
  6
Continuous
 62
     7
100
AcDbLine
 10
142.3199839153683
 20
726.2617764910776
 30
0.0
 11
187.3984430110961
 21
726.2617764910776
 31
0.0
  0
LINE
  5
11B
330
53
100
AcDbEntity
  8
1
  6
PHANTOM
 62
     4
100
AcDbLine
 10
180.8592134632322
 20
648.7980399121152
 30
0.0
 11
148.8592134632322
 21
648.7980399121152
 31
0.0
  0
LINE
  5
11C
330
53
100
AcDbEntity
  8
1
  6
Continuous
 62
     7
100
AcDbLine
 10
151.8592134632321
 20
278.8458421526682
 30
0.0
 11
151.8592134632321
 21
278.9737364004593
 31
0.0
  0
LINE
  5
11D
330
53
100
AcDbEntity
  8
1
  6
Continuous
 62
     7
100
AcDbLine
 10
152.8592134632321
 20
320.1137913450993
 30
0.0
 11
152.8592134632321
 21
316.8817405375307
 31
0.0
  0
LINE
  5
11E
330
53
100
AcDbEntity
  8
1
  6
Continuous
 62
     2
100
AcDbLine
 10
153.8592134632321
 20
318.6137913450993
 30
0.0
 11
153.8592134632322
 21
320.1137913450993
 31
0.0
  0
LINE
  5
11F
330
53
100
AcDbEntity
  8
1
  6
Continuous
 62
     2
100
AcDbLine
 10
152.8592134632321
 20
316.8817405375307
 30
0.0
 11
153.8592134632321
 21
318.6137913450993
 31
0.0
  0
LINE
  5
120
330
53
100
AcDbEntity
  8
1
  6
Continuous
 62
     7
100
AcDbLine
 10
176.8592134632321
 20
316.8817405375307
 30
0.0
 11
176.8592134632321
 21
320.1137913450993
 31
0.0
  0
LINE
  5
121
330
53
100
AcDbEntity
  8
1
  6
Continuous
 62
     2
100
AcDbLine
 10
175.8592134632321
 20
318.6137913450993
 30
0.0
 11
176.8592134632321
 21
316.8817405375307
 31
0.0
  0
LINE
  5
122
330
53
100
AcDbEntity
  8
1
  6
Continuous
 62
     7
100
AcDbLine
 10
176.8592134632321
 20
316.8817405375307
 30
0.0
 11
177.1517906628812
 21
316.8817405375307
 31
0.0
  0
LINE
  5
123
330
53
100
AcDbEntity
  8
1
  6
Continuous
 62
     7
100
AcDbLine
 10
152.5666362635842
 20
316.8817405375307
 30
0.0
 11
152.8592134632321
 21
316.8817405375307
 31
0.0
  0
LINE
  5
124
330
53
100
AcDbEntity
  8
1
  6
Continuous
 62
     2
100
AcDbLine
 10
152.859213463232
 20
275.6137913450995
 30
0.0
 11
152.8592134632321
 21
277.1137913450993
 31
0.0
  0
LINE
  5
125
330
53
100
AcDbEntity
  8
1
  6
Continuous
 62
     7
100
AcDbLine
 10
151.8592134632321
 20
275.6137913450995
 30
0.0
 11
151.8592134632321
 21
278.8458421526682
 31
0.0
  0
LINE
  5
126
330
53
100
AcDbEntity
  8
1
  6
Continuous
 62
     2
100
AcDbLine
 10
151.8592134632321
 20
278.8458421526682
 30
0.0
 11
152.8592134632321
 21
277.1137913450993
 31
0.0
  0
LINE
  5
127
330
53
100
AcDbEntity
  8
1
  6
Continuous
 62
     2
100
AcDbLine
 10
175.8592134632321
 20
320.1137913450993
 30
0.0
 11
175.8592134632321
 21
318.6137913450993
 31
0.0
  0
LINE
  5
128
330
53
100
AcDbEntity
  8
1
  6
Continuous
 62
     7
100
AcDbLine
 10
177.1517906628812
 20
316.8817405375307
 30
0.0
 11
177.8592041330631
 21
294.5982162268218
 31
0.0
  0
LINE
  5
129
330
53
100
AcDbEntity
  8
1
  6
Continuous
 62
     7
100
AcDbLine
 10
152.8380191804131
 20
282.3995564105921
 30
0.0
 11
151.8592134632321
 21
278.9737364004593
 31
0.0
  0
LINE
  5
12A
330
53
100
AcDbEntity
  8
1
  6
Continuous
 62
     7
100
AcDbLine
 10
177.8592134632322
 20
277.1137913450993
 30
0.0
 11
151.8592134632321
 21
277.1137913450993
 31
0.0
  0
LINE
  5
12B
330
53
100
AcDbEntity
  8
1
  6
Continuous
 62
     7
100
AcDbLine
 10
176.8592134632321
 20
318.6137913450993
 30
0.0
 11
152.8592134632322
 21
318.6137913450993
 31
0.0
  0
LINE
  5
12C
330
53
100
AcDbEntity
  8
1
  6
Continuous
 62
     7
100
AcDbLine
 10
176.8592134632321
 20
316.8817405375307
 30
0.0
 11
152.8592134632321
 21
316.8817405375307
 31
0.0
  0
LINE
  5
12D
330
53
100
AcDbEntity
  8
1
  6
Continuous
 62
     7
100
AcDbLine
 10
151.8592227934013
 20
294.5982162268218
 30
0.0
 11
152.5666362635842
 21
316.8817405375307
 31
0.0
  0
LINE
  5
12E
330
53
100
AcDbEntity
  8
1
  6
Continuous
 62
     7
100
AcDbLine
 10
177.8592134632323
 20
278.9737364004593
 30
0.0
 11
177.8592134632323
 21
278.8458421526682
 31
0.0
  0
LINE
  5
12F
330
53
100
AcDbEntity
  8
1
  6
Continuous
 62
     2
100
AcDbLine
 10
176.8592134632323
 20
277.1137913450993
 30
0.0
 11
176.8592134632322
 21
275.6137913450995
 31
0.0
  0
LINE
  5
130
330
53
100
AcDbEntity
  8
1
  6
Continuous
 62
     7
100
AcDbLine
 10
177.8592134632323
 20
278.8458421526682
 30
0.0
 11
177.8592134632323
 21
275.6137913450995
 31
0.0
  0
LINE
  5
131
330
53
100
AcDbEntity
  8
1
  6
Continuous
 62
     2
100
AcDbLine
 10
176.8592134632323
 20
277.1137913450993
 30
0.0
 11
177.8592134632323
 21
278.8458421526682
 31
0.0
  0
LINE
  5
132
330
53
100
AcDbEntity
  8
1
  6
Continuous
 62
     7
100
AcDbLine
 10
177.8592134632323
 20
278.9737364004593
 30
0.0
 11
176.8804077460513
 21
282.3995564105921
 31
0.0
  0
ARC
  5
133
330
53
100
AcDbEntity
  8
1
  6
Continuous
 62
     7
100
AcDbCircle
 10
164.8592134632322
 20
294.6137913450993
 30
0.0
 40
23.00000000000008
100
AcDbArc
 50
122.5778011728606
 51
235.582611289558
  0
ARC
  5
134
330
53
100
AcDbEntity
  8
1
  6
Continuous
 62
     7
100
AcDbCircle
 10
164.8592134632322
 20
294.6137913450993
 30
0.0
 40
23.0
100
AcDbArc
 50
0.0
 51
57.42219882713945
  0
ARC
  5
135
330
53
100
AcDbEntity
  8
1
  6
Continuous
 62
     7
100
AcDbCircle
 10
164.8592134632322
 20
294.6137913450993
 30
0.0
 40
22.99999999999991
100
AcDbArc
 50
304.417388710442
 51
0.0
  0
ARC
  5
136
330
53
100
AcDbEntity
  8
1
  6
Continuous
 62
     7
100
AcDbCircle
 10
477.4257439236001
 20
312.0712715891253
 30
0.0
 40
9.000000000003725
100
AcDbArc
 50
272.1940450997746
 51
358.1816970355406
  0
ARC
  5
137
330
53
100
AcDbEntity
  8
1
  6
Continuous
 62
     7
100
AcDbCircle
 10
479.6462131901881
 20
254.11379134464
 30
0.0
 40
49.00000000045976
100
AcDbArc
 50
92.19404509977879
 51
99.3606621203044
  0
ARC
  5
138
330
53
100
AcDbEntity
  8
1
  6
Continuous
 62
     7
100
AcDbCircle
 10
475.5799990025191
 20
278.7808929620344
 30
0.0
 40
24.00000000000217
100
AcDbArc
 50
99.36066212030302
 51
171.3280051740369
  0
ARC
  5
139
330
53
100
AcDbEntity
  8
1
  6
Continuous
 62
     7
100
AcDbCircle
 10
537.3755684285268
 20
307.3637913450993
 30
0.0
 40
4.0
100
AcDbArc
 50
270.0
 51
0.0
  0
ARC
  5
13A
330
53
100
AcDbEntity
  8
1
  6
Continuous
 62
     7
100
AcDbCircle
 10
537.3755684285268
 20
281.8637913450993
 30
0.0
 40
4.0
100
AcDbArc
 50
0.0
 51
90.0
  0
ARC
  5
13B
330
53
100
AcDbEntity
  8
1
  6
Continuous
 62
     7
100
AcDbCircle
 10
479.8346030529479
 20
282.1197123114756
 30
0.0
 40
3.999999999997794
100
AcDbArc
 50
93.11786651757347
 51
173.9726861048974
  0
ARC
  5
13C
330
53
100
AcDbEntity
  8
1
  6
Continuous
 62
     7
100
AcDbCircle
 10
498.8755684285267
 20
310.6137913450992
 30
0.0
 40
28.99999999999982
100
AcDbArc
 50
242.5607598493186
 51
291.6947160223859
  0
ARC
  5
13D
330
53
100
AcDbEntity
  8
1
  6
Continuous
 62
     7
100
AcDbCircle
 10
164.8592134632322
 20
648.7980399121152
 30
0.0
 40
12.9999999999999
100
AcDbArc
 50
132.3049897071832
 51
47.69501029281675
  0
ARC
  5
13E
330
53
100
AcDbEntity
  8
1
  6
Continuous
 62
     7
100
AcDbCircle
 10
191.8592134632322
 20
683.7980399121152
 30
0.0
 40
39.99999999999989
100
AcDbArc
 50
188.4484011749223
 51
200.0680546208193
  0
ARC
  5
13F
330
53
100
AcDbEntity
  8
1
  6
Continuous
 62
     7
100
AcDbCircle
 10
152.1092134632322
 20
722.2617764910776
 30
0.0
 40
4.0
100
AcDbArc
 50
0.0
 51
90.0
  0
ARC
  5
140
330
53
100
AcDbEntity
  8
1
  6
Continuous
 62
     7
100
AcDbCircle
 10
177.6092134632322
 20
722.2617764910776
 30
0.0
 40
4.0
100
AcDbArc
 50
90.0
 51
180.0
  0
ARC
  5
141
330
53
100
AcDbEntity
  8
1
  6
Continuous
 62
     7
100
AcDbCircle
 10
176.5636440372244
 20
278.7808929620344
 30
0.0
 40
24.00000000000145
100
AcDbArc
 50
152.1298826058549
 51
171.3280051740368
  0
ARC
  5
142
330
53
100
AcDbEntity
  8
1
  6
Continuous
 62
     7
100
AcDbCircle
 10
164.8592134632322
 20
294.6137913450993
 30
0.0
 40
12.99999999999997
100
AcDbArc
 50
325.6899072066113
 51
359.931354711061
  0
ARC
  5
143
330
53
100
AcDbEntity
  8
1
  6
Continuous
 62
     7
100
AcDbCircle
 10
164.8592134632322
 20
294.6137913450993
 30
0.0
 40
13.0
100
AcDbArc
 50
180.0
 51
180.068645288939
  0
ARC
  5
144
330
53
100
AcDbEntity
  8
1
  6
Continuous
 62
     7
100
AcDbCircle
 10
153.15478288924
 20
278.7808929620344
 30
0.0
 40
24.00000000000145
100
AcDbArc
 50
8.67199482596319
 51
27.87011739414499
  0
ARC
  5
145
330
53
100
AcDbEntity
  8
1
  6
Continuous
 62
     7
100
AcDbCircle
 10
164.8592134632322
 20
294.6137913450993
 30
0.0
 40
13.0
100
AcDbArc
 50
180.068645288939
 51
214.3100927933889
  0
ARC
  5
146
330
53
100
AcDbEntity
  8
1
  6
Continuous
 62
     7
100
AcDbCircle
 10
137.8592134632322
 20
683.7980399121152
 30
0.0
 40
40.00000000000014
100
AcDbArc
 50
339.9319453791808
 51
351.5515988250779
  0
ARC
  5
147
330
53
100
AcDbEntity
  8
1
  6
Continuous
 62
     7
100
AcDbCircle
 10
164.8592134632322
 20
294.6137913450993
 30
0.0
 40
8.351995935906132
100
AcDbArc
 50
90.0
 51
179.8094249769217
  0
ARC
  5
148
330
53
100
AcDbEntity
  8
1
  6
Continuous
 62
     7
100
AcDbCircle
 10
164.8592134632322
 20
294.6137913450993
 30
0.0
 40
8.35199593590604
100
AcDbArc
 50
0.19057502307832
 51
90.0
  0
ARC
  5
149
330
53
100
AcDbEntity
  8
1
  6
Continuous
 62
     7
100
AcDbCircle
 10
541.8755684285268
 20
317.1137913450993
 30
0.0
 40
0.5
100
AcDbArc
 50
90.0
 51
180.0
  0
ARC
  5
14A
330
53
100
AcDbEntity
  8
1
  6
Continuous
 62
     7
100
AcDbCircle
 10
541.8755684285268
 20
272.1137913450993
 30
0.0
 40
0.4999999999998863
100
AcDbArc
 50
180.0
 51
270.0
  0
ARC
  5
14B
330
53
100
AcDbEntity
  8
1
  6
Continuous
 62
     7
100
AcDbCircle
 10
480.4432598373599
 20
275.1137913450993
 30
0.0
 40
11.0000000000001
100
AcDbArc
 50
62.56075984931903
 51
90.0
  0
ARC
  5
14C
330
53
100
AcDbEntity
  8
1
  6
Continuous
 62
     7
100
AcDbCircle
 10
521.0552325377957
 20
254.8637913450992
 30
0.0
 40
30.99999999999997
100
AcDbArc
 50
90.00000000000168
 51
111.6947160223877
  0
ARC
  5
14D
330
53
100
AcDbEntity
  8
1
  6
Continuous
 62
     7
100
AcDbCircle
 10
520.3157118983738
 20
312.3762241940055
 30
0.0
 40
8.99999999999873
100
AcDbArc
 50
181.8183029644516
 51
268.0736638597967
  0
ARC
  5
14E
330
53
100
AcDbEntity
  8
1
  6
Continuous
 62
     7
100
AcDbCircle
 10
521.0552325377957
 20
334.3637913450996
 30
0.0
 40
31.00000000000004
100
AcDbArc
 50
268.0736638597938
 51
270.0
  0
ARC
  5
14F
330
53
100
AcDbEntity
  8
1
  6
Continuous
 62
     7
100
AcDbCircle
 10
187.3592134632322
 20
726.7602351579443
 30
0.0
 40
0.5000000000001016
100
AcDbArc
 50
274.4999999999961
 51
0.0
  0
ARC
  5
150
330
53
100
AcDbEntity
  8
1
  6
Continuous
 62
     7
100
AcDbCircle
 10
142.3592134632322
 20
726.7602351579443
 30
0.0
 40
0.5
100
AcDbArc
 50
180.0
 51
265.5000000000039
  0
ARC
  5
151
330
53
100
AcDbEntity
  8
1
  6
Continuous
 62
     7
100
AcDbCircle
 10
203.6092134632322
 20
659.7785166029402
 30
0.0
 40
29.99999999999988
100
AcDbArc
 50
159.9319453791808
 51
180.0
  0
ARC
  5
152
330
53
100
AcDbEntity
  8
1
  6
Continuous
 62
     7
100
AcDbCircle
 10
126.1092134632322
 20
659.7785166029402
 30
0.0
 40
30.00000000000001
100
AcDbArc
 50
0.0
 51
20.0680546208191
  0
ARC
  5
153
330
53
100
AcDbEntity
  8
1
  6
Continuous
 62
     7
100
AcDbCircle
 10
126.1092134632322
 20
707.8175632212901
 30
0.0
 40
30.00000000000011
100
AcDbArc
 50
343.6603718092954
 51
0.0
  0
ARC
  5
154
330
53
100
AcDbEntity
  8
1
  6
Continuous
 62
     7
100
AcDbCircle
 10
154.1092134632322
 20
650.7980399121152
 30
0.0
 40
2.0
100
AcDbArc
 50
270.0
 51
0.0
  0
ARC
  5
155
330
53
100
AcDbEntity
  8
1
  6
Continuous
 62
     7
100
AcDbCircle
 10
175.6092134632322
 20
650.7980399121152
 30
0.0
 40
2.0
100
AcDbArc
 50
180.0
 51
270.0
  0
ARC
  5
156
330
53
100
AcDbEntity
  8
1
  6
Continuous
 62
     7
100
AcDbCircle
 10
203.6092134632322
 20
707.8175632212901
 30
0.0
 40
30.0
100
AcDbArc
 50
180.0
 51
196.3396281907047
  0
ARC
  5
157
330
53
100
AcDbEntity
  8
1
  6
Continuous
 62
     7
100
AcDbCircle
 10
146.5073190445203
 20
294.674832937165
 30
0.0
 40
10.00000000000008
100
AcDbArc
 50
332.1298826058545
 51
359.8094249769229
  0
ARC
  5
158
330
53
100
AcDbEntity
  8
1
  6
Continuous
 62
     7
100
AcDbCircle
 10
183.2111078819441
 20
294.674832937165
 30
0.0
 40
9.999999999999954
100
AcDbArc
 50
180.1905750230771
 51
207.8701173941458
  0
ENDBLK
  5
55
330
53
100
AcDbEntity
  8
0
100
AcDbBlockEnd
  0
BLOCK
  5
57
330
56
100
AcDbEntity
  8
0
100
AcDbBlockBegin
  2
32-1-16
 70
     0
 10
167.329828592858
 20
475.0996234752084
 30
0.0
  3
32-1-16
  1

  0
LINE
  5
159
330
56
100
AcDbEntity
  8
1
  6
Continuous
 62
     7
100
AcDbLine
 10
454.1076192360957
 20
265.6137913450993
 30
0.0
 11
463.8755684285269
 21
265.6137913450993
 31
0.0
  0
LINE
  5
15A
330
56
100
AcDbEntity
  8
1
  6
Continuous
 62
     7
100
AcDbLine
 10
452.3755684285269
 20
266.6137913450993
 30
0.0
 11
452.3175473667963
 21
266.6137913450993
 31
0.0
  0
LINE
  5
15B
330
56
100
AcDbEntity
  8
1
  6
Continuous
 62
     7
100
AcDbLine
 10
450.5755684285268
 20
275.6137913450993
 30
0.0
 11
450.6885684285268
 21
275.6137913450993
 31
0.0
  0
LINE
  5
15C
330
56
100
AcDbEntity
  8
1
  6
Continuous
 62
     7
100
AcDbLine
 10
463.8755684285269
 20
275.6137913450993
 30
0.0
 11
450.5755684285268
 21
275.6137913450993
 31
0.0
  0
LINE
  5
15D
330
56
100
AcDbEntity
  8
1
  6
Continuous
 62
     7
100
AcDbLine
 10
178.8592134632322
 20
655.4501072599402
 30
0.0
 11
178.8592134632322
 21
642.1459725642901
 31
0.0
  0
LINE
  5
15E
330
56
100
AcDbEntity
  8
1
  6
Continuous
 62
     7
100
AcDbLine
 10
150.8592134632322
 20
655.4501072599402
 30
0.0
 11
150.8592134632322
 21
642.1459725642901
 31
0.0
  0
LINE
  5
15F
330
56
100
AcDbEntity
  8
1
  6
Continuous
 62
     7
100
AcDbLine
 10
152.0983541523308
 20
639.9997179330455
 30
0.0
 11
163.6200727741338
 21
633.3476505852204
 31
0.0
  0
LINE
  5
160
330
56
100
AcDbEntity
  8
1
  6
Continuous
 62
     7
100
AcDbLine
 10
166.0983541523308
 20
633.3476505852204
 30
0.0
 11
177.6200727741338
 21
639.9997179330455
 31
0.0
  0
LINE
  5
161
330
56
100
AcDbEntity
  8
1
  6
Continuous
 62
     7
100
AcDbLine
 10
463.8755684285269
 20
265.6137913450993
 30
0.0
 11
473.643517620958
 21
265.6137913450993
 31
0.0
  0
LINE
  5
162
330
56
100
AcDbEntity
  8
1
  6
Continuous
 62
     7
100
AcDbLine
 10
475.4335894902574
 20
266.6137913450993
 30
0.0
 11
475.3755684285269
 21
266.6137913450993
 31
0.0
  0
LINE
  5
163
330
56
100
AcDbEntity
  8
1
  6
Continuous
 62
     7
100
AcDbLine
 10
477.0625684285268
 20
275.6137913450993
 30
0.0
 11
477.1755684285268
 21
275.6137913450993
 31
0.0
  0
LINE
  5
164
330
56
100
AcDbEntity
  8
1
  6
Continuous
 62
     7
100
AcDbLine
 10
477.1755684285268
 20
275.6137913450993
 30
0.0
 11
463.8755684285269
 21
275.6137913450993
 31
0.0
  0
LINE
  5
165
330
56
100
AcDbEntity
  8
1
  6
Continuous
 62
     7
100
AcDbLine
 10
155.0912642708009
 20
265.6137913450993
 30
0.0
 11
164.8592134632321
 21
265.6137913450993
 31
0.0
  0
LINE
  5
166
330
56
100
AcDbEntity
  8
1
  6
Continuous
 62
     7
100
AcDbLine
 10
153.3592134632321
 20
266.6137913450993
 30
0.0
 11
153.3011924015016
 21
266.6137913450993
 31
0.0
  0
LINE
  5
167
330
56
100
AcDbEntity
  8
1
  6
Continuous
 62
     7
100
AcDbLine
 10
164.8592134632321
 20
275.6137913450993
 30
0.0
 11
151.5592134632321
 21
275.6137913450993
 31
0.0
  0
LINE
  5
168
330
56
100
AcDbEntity
  8
1
  6
Continuous
 62
     7
100
AcDbLine
 10
150.8592134632322
 20
275.0420425239292
 30
0.0
 11
150.8592134632322
 21
267.9006140953862
 31
0.0
  0
LINE
  5
169
330
56
100
AcDbEntity
  8
1
  6
Continuous
 62
     7
100
AcDbLine
 10
164.8592134632321
 20
265.6137913450993
 30
0.0
 11
174.6271626556634
 21
265.6137913450993
 31
0.0
  0
LINE
  5
16A
330
56
100
AcDbEntity
  8
1
  6
Continuous
 62
     7
100
AcDbLine
 10
176.4172345249629
 20
266.6137913450993
 30
0.0
 11
176.3592134632322
 21
266.6137913450993
 31
0.0
  0
LINE
  5
16B
330
56
100
AcDbEntity
  8
1
  6
Continuous
 62
     7
100
AcDbLine
 10
178.1592134632323
 20
275.6137913450993
 30
0.0
 11
164.8592134632321
 21
275.6137913450993
 31
0.0
  0
LINE
  5
16C
330
56
100
AcDbEntity
  8
1
  6
Continuous
 62
     7
100
AcDbLine
 10
178.8592134632322
 20
267.9006140953862
 30
0.0
 11
178.8592134632322
 21
275.0420425239292
 31
0.0
  0
LINE
  5
16D
330
56
100
AcDbEntity
  8
1
  6
Continuous
 62
     7
100
AcDbLine
 10
156.10891711409
 20
659.9118614967585
 30
0.0
 11
152.0983541523308
 21
657.5963618911848
 31
0.0
  0
LINE
  5
16E
330
56
100
AcDbEntity
  8
1
  6
Continuous
 62
     7
100
AcDbLine
 10
173.6095098123744
 20
659.9118614967585
 30
0.0
 11
177.6200727741338
 21
657.5963618911848
 31
0.0
  0
ARC
  5
16F
330
56
100
AcDbEntity
  8
1
  6
Continuous
 62
     7
100
AcDbCircle
 10
453.3755684285269
 20
271.4713283096578
 30
0.0
 40
4.999999999999954
100
AcDbArc
 50
124.0557977425692
 51
254.6624423304446
  0
ARC
  5
170
330
56
100
AcDbEntity
  8
1
  6
Continuous
 62
     7
100
AcDbCircle
 10
164.8592134632322
 20
648.7980399121152
 30
0.0
 40
15.49999999999998
100
AcDbArc
 50
25.4146209151608
 51
34.58537908483853
  0
ARC
  5
171
330
56
100
AcDbEntity
  8
1
  6
Continuous
 62
     7
100
AcDbCircle
 10
164.8592134632322
 20
648.7980399121152
 30
0.0
 40
15.49999999999991
100
AcDbArc
 50
145.4146209151611
 51
154.5853790848392
  0
ARC
  5
172
330
56
100
AcDbEntity
  8
1
  6
Continuous
 62
     7
100
AcDbCircle
 10
164.8592134632322
 20
648.7980399121152
 30
0.0
 40
15.50000000000002
100
AcDbArc
 50
205.4146209151612
 51
214.5853790848393
  0
ARC
  5
173
330
56
100
AcDbEntity
  8
1
  6
Continuous
 62
     7
100
AcDbCircle
 10
164.8592134632322
 20
648.7980399121152
 30
0.0
 40
15.50000000000009
100
AcDbArc
 50
265.4146209151615
 51
270.0
  0
ARC
  5
174
330
56
100
AcDbEntity
  8
1
  6
Continuous
 62
     7
100
AcDbCircle
 10
164.8592134632322
 20
648.7980399121152
 30
0.0
 40
15.50000000000014
100
AcDbArc
 50
325.4146209151612
 51
334.5853790848388
  0
ARC
  5
175
330
56
100
AcDbEntity
  8
1
  6
Continuous
 62
     7
100
AcDbCircle
 10
164.8592134632322
 20
648.7980399121152
 30
0.0
 40
15.5
100
AcDbArc
 50
270.0
 51
274.5853790848392
  0
ARC
  5
176
330
56
100
AcDbEntity
  8
1
  6
Continuous
 62
     7
100
AcDbCircle
 10
474.3755684285269
 20
271.4713283096578
 30
0.0
 40
4.999999999999985
100
AcDbArc
 50
285.3375576695541
 51
55.94420225743242
  0
ARC
  5
177
330
56
100
AcDbEntity
  8
1
  6
Continuous
 62
     7
100
AcDbCircle
 10
154.3592134632321
 20
271.4713283096578
 30
0.0
 40
5.000000000000059
100
AcDbArc
 50
225.5729959991968
 51
254.6624423304459
  0
ARC
  5
178
330
56
100
AcDbEntity
  8
1
  6
Continuous
 62
     7
100
AcDbCircle
 10
154.3592134632321
 20
271.4713283096578
 30
0.0
 40
4.999999999999906
100
AcDbArc
 50
124.0557977425684
 51
134.4270040008051
  0
ARC
  5
179
330
56
100
AcDbEntity
  8
1
  6
Continuous
 62
     7
100
AcDbCircle
 10
175.3592134632322
 20
271.4713283096578
 30
0.0
 40
5.000000000000014
100
AcDbArc
 50
285.3375576695554
 51
314.4270040008041
  0
ARC
  5
17A
330
56
100
AcDbEntity
  8
1
  6
Continuous
 62
     7
100
AcDbCircle
 10
175.3592134632322
 20
271.4713283096578
 30
0.0
 40
4.999999999999975
100
AcDbArc
 50
45.57299599919402
 51
55.94420225743053
  0
SPLINE
  5
17B
330
56
100
AcDbEntity
  8
1
  6
Continuous
 62
     7
100
AcDbSpline
210
0.0
220
0.0
230
1.0
 70
    11
 71
     3
 72
    79
 73
    75
 74
    73
 42
0.000000001
 43
0.0000000001
 44
0.00000001
 40
0.0
 40
0.0
 40
0.0
 40
0.0
 40
0.3210813056648458
 40
0.6418951396082615
 40
0.9828988891666228
 40
1.323531051596661
 40
1.692967055112429
 40
2.062075178394368
 40
2.463733854380086
 40
2.865152862487712
 40
3.298564779288493
 40
3.731815223729075
 40
4.193131260568956
 40
4.654344167617236
 40
5.137240966499045
 40
5.620077099452366
 40
6.116559525296548
 40
6.613013903592263
 40
7.114121230352414
 40
7.615228557112388
 40
8.111682935406975
 40
8.608165361248071
 40
9.091001494194725
 40
9.573898293063738
 40
10.03511120009052
 40
10.49642723689468
 40
10.92967768128263
 40
11.36308959800335
 40
11.76450860600187
 40
12.16616728182981
 40
12.53527540490469
 40
12.90471140812304
 40
13.24534357014035
 40
13.58634731899457
 40
13.90716115088663
 40
14.22824246386915
 40
14.54200444896854
 40
14.85576643406682
 40
15.17684774704594
 40
15.49766157893258
 40
15.83866532777952
 40
16.17929748978876
 40
16.54873349299789
 40
16.91784161606312
 40
17.31950029188062
 40
17.72091929986918
 40
18.15433121657966
 40
18.58758166095784
 40
19.04889769775241
 40
19.51011060477024
 40
19.99300740363069
 40
20.47584353656963
 40
20.97232596240356
 40
21.4687803406918
 40
21.9698876674463
 40
22.470994994202
 40
22.9674493724944
 40
23.46393179833624
 40
23.94676793128834
 40
24.42966473016987
 40
24.89087763721873
 40
25.35219367405979
 40
25.78544411850145
 40
26.21885603530225
 40
26.62027504340748
 40
27.02193371938511
 40
27.39104184264882
 40
27.76047784612195
 40
28.10111000845249
 40
28.44211375771954
 40
28.76292759014616
 40
29.08400890392579
 40
29.3977708911677
 40
29.71153286919184
 40
29.71153286919184
 40
29.71153286919184
 40
29.71153286919184
 10
152.1208451341325
 20
271.1583734580921
 30
0.0
 10
152.1401249848818
 20
271.0529123750283
 30
0.0
 10
152.1786686169493
 20
270.8420780598574
 30
0.0
 10
152.2937219291011
 20
270.5337384367979
 30
0.0
 10
152.4461103949483
 20
270.2356503422419
 30
0.0
 10
152.6431870394045
 20
269.944978257924
 30
0.0
 10
152.8763735492319
 20
269.6702126794968
 30
0.0
 10
153.1505420157796
 20
269.406183734259
 30
0.0
 10
153.4560852158633
 20
269.1617997581834
 30
0.0
 10
153.7987028067559
 20
268.9319281837874
 30
0.0
 10
154.1673990235222
 20
268.724360931553
 30
0.0
 10
154.5679537656594
 20
268.535143971905
 30
0.0
 10
154.9890582628083
 20
268.3701793567018
 30
0.0
 10
155.4354165687681
 20
268.2269953350396
 30
0.0
 10
155.8966124266003
 20
268.1094681080843
 30
0.0
 10
156.3753075229561
 20
268.016384301575
 30
0.0
 10
156.8629748319529
 20
267.9498815030115
 30
0.0
 10
157.359592637704
 20
267.9094959405546
 30
0.0
 10
157.8592134532754
 20
267.8961524603523
 30
0.0
 10
158.3588342688624
 20
267.9094959405516
 30
0.0
 10
158.8554520745647
 20
267.9498815030088
 30
0.0
 10
159.3431193837326
 20
268.0163843015324
 30
0.0
 10
159.821814479459
 20
268.1094681081033
 30
0.0
 10
160.2830103395802
 20
268.2269953346811
 30
0.0
 10
160.7293686373526
 20
268.3701793574524
 30
0.0
 10
161.1504731641413
 20
268.5351439682863
 30
0.0
 10
161.551027802064
 20
268.7243609428144
 30
0.0
 10
161.919724393246
 20
268.9319281409377
 30
0.0
 10
162.262340684718
 20
269.1617999023094
 30
0.0
 10
162.5678885283517
 20
269.4061832091548
 30
0.0
 10
162.8420409940254
 20
269.6702144591545
 30
0.0
 10
163.0752846590041
 20
269.9449718032937
 30
0.0
 10
163.2721636924706
 20
270.2356723551173
 30
0.0
 10
163.425263234686
 20
270.533658009797
 30
0.0
 10
163.5378107051975
 20
270.8423586291759
 30
0.0
 10
163.6043622155622
 20
271.1549292662762
 30
0.0
 10
163.6278374722542
 20
271.4713283092761
 30
0.0
 10
163.6043622155732
 20
271.7877273522759
 30
0.0
 10
163.5378107052193
 20
272.1002979893749
 30
0.0
 10
163.4252632347182
 20
272.4089986087522
 30
0.0
 10
163.2721636925129
 20
272.7069842634292
 30
0.0
 10
163.0752846590561
 20
272.9976848152496
 30
0.0
 10
162.8420409940865
 20
273.2724421593849
 30
0.0
 10
162.5678885284215
 20
273.5364734093793
 30
0.0
 10
162.2623406847955
 20
273.7808567162188
 30
0.0
 10
161.9197243933311
 20
274.0107284775833
 30
0.0
 10
161.551027802156
 20
274.2182956756986
 30
0.0
 10
161.1504731642397
 20
274.4075126502172
 30
0.0
 10
160.7293686374569
 20
274.5724772610404
 30
0.0
 10
160.28301033969
 20
274.7156612837991
 30
0.0
 10
159.8218144795737
 20
274.8331885103627
 30
0.0
 10
159.343119383852
 20
274.9262723169176
 30
0.0
 10
158.855452074689
 20
274.9927751154223
 30
0.0
 10
158.3588342689904
 20
275.0331606778589
 30
0.0
 10
157.8592134534113
 20
275.0465041580335
 30
0.0
 10
157.3595926378332
 20
275.0331606778067
 30
0.0
 10
156.8629748321313
 20
274.9927751153126
 30
0.0
 10
156.375307522981
 20
274.9262723167429
 30
0.0
 10
155.8966124272158
 20
274.8331885101007
 30
0.0
 10
155.4354165672648
 20
274.7156612834603
 30
0.0
 10
154.9890582689218
 20
274.572477260494
 30
0.0
 10
154.5679537442508
 20
274.4075126498213
 30
0.0
 10
154.1673990989525
 20
274.2182956740505
 30
0.0
 10
153.798702534368
 20
274.0107284795398
 30
0.0
 10
153.456086150722
 20
273.7808567046227
 30
0.0
 10
153.1505386366648
 20
273.5364734449429
 30
0.0
 10
152.8763850355749
 20
273.2724420309999
 30
0.0
 10
152.6431454266508
 20
272.9976852707529
 30
0.0
 10
152.4462523700356
 20
272.706982698224
 30
0.0
 10
152.2932032888605
 20
272.4090043124506
 30
0.0
 10
152.1804779937766
 20
272.1002780746355
 30
0.0
 10
152.1145770486422
 20
271.7878011576374
 30
0.0
 10
152.0887255388139
 20
271.4710597890595
 30
0.0
 10
152.1101386055293
 20
271.2626022343177
 30
0.0
 10
152.1208451341325
 20
271.1583734580921
 30
0.0
 11
152.1208451341325
 21
271.1583734580921
 31
0.0
 11
152.1878406758352
 21
270.844359434479
 31
0.0
 11
152.2967955079797
 21
270.542613913609
 31
0.0
 11
152.4522203745571
 21
270.2390901622134
 31
0.0
 11
152.6424560986627
 21
269.9565293030305
 31
0.0
 11
152.880949395218
 21
269.6743876576848
 31
0.0
 11
153.1462865243229
 21
269.4178004123045
 31
0.0
 11
153.4594478815446
 21
269.1662856885577
 31
0.0
 11
153.7924750007255
 21
268.9421648329644
 31
0.0
 11
154.1698033634438
 21
268.7289297601492
 31
0.0
 11
154.5613710326374
 21
268.5435094051984
 31
0.0
 11
154.9907043843766
 21
268.3747333437514
 31
0.0
 11
155.429793472877
 21
268.2336017810812
 31
0.0
 11
155.8976393632778
 21
268.1139792865301
 31
0.0
 11
156.3715713907766
 21
268.021679965864
 31
0.0
 11
156.8634680974702
 21
267.9543566480908
 31
0.0
 11
157.3582876494525
 21
267.9141004596837
 31
0.0
 11
157.8592134632321
 21
267.9006140953863
 31
0.0
 11
158.3601392770118
 21
267.9141004596837
 31
0.0
 11
158.8549588289941
 21
267.9543566480907
 31
0.0
 11
159.3468555356878
 21
268.021679965864
 31
0.0
 11
159.8207875631865
 21
268.1139792865301
 31
0.0
 11
160.2886334535874
 21
268.2336017810812
 31
0.0
 11
160.7277225420879
 21
268.3747333437514
 31
0.0
 11
161.157055893827
 21
268.5435094051984
 31
0.0
 11
161.5486235630206
 21
268.7289297601493
 31
0.0
 11
161.9259519257388
 21
268.9421648329644
 31
0.0
 11
162.2589790449197
 21
269.1662856885577
 31
0.0
 11
162.5721404021413
 21
269.4178004123045
 31
0.0
 11
162.8374775312463
 21
269.6743876576849
 31
0.0
 11
163.0759708278016
 21
269.9565293030305
 31
0.0
 11
163.2662065519072
 21
270.2390901622134
 31
0.0
 11
163.4216314184846
 21
270.542613913609
 31
0.0
 11
163.530586250629
 21
270.844359434479
 31
0.0
 11
163.5975817923317
 21
271.1583734580921
 31
0.0
 11
163.6200727741336
 21
271.4713283096578
 31
0.0
 11
163.5975817923317
 21
271.7842831612236
 31
0.0
 11
163.530586250629
 21
272.0982971848367
 31
0.0
 11
163.4216314184846
 21
272.4000427057065
 31
0.0
 11
163.2662065519073
 21
272.7035664571021
 31
0.0
 11
163.0759708278017
 21
272.986127316285
 31
0.0
 11
162.8374775312463
 21
273.2682689616308
 31
0.0
 11
162.5721404021414
 21
273.5248562070112
 31
0.0
 11
162.2589790449197
 21
273.7763709307579
 31
0.0
 11
161.9259519257388
 21
274.0004917863512
 31
0.0
 11
161.5486235630206
 21
274.2137268591663
 31
0.0
 11
161.157055893827
 21
274.3991472141172
 31
0.0
 11
160.7277225420878
 21
274.5679232755642
 31
0.0
 11
160.2886334535874
 21
274.7090548382344
 31
0.0
 11
159.8207875631865
 21
274.8286773327854
 31
0.0
 11
159.3468555356878
 21
274.9209766534516
 31
0.0
 11
158.8549588289941
 21
274.9882999712249
 31
0.0
 11
158.3601392770119
 21
275.028556159632
 31
0.0
 11
157.8592134632322
 21
275.0420425239293
 31
0.0
 11
157.3582876494526
 21
275.028556159632
 31
0.0
 11
156.8634680974702
 21
274.9882999712249
 31
0.0
 11
156.3715713907766
 21
274.9209766534516
 31
0.0
 11
155.8976393632778
 21
274.8286773327855
 31
0.0
 11
155.429793472877
 21
274.7090548382344
 31
0.0
 11
154.9907043843766
 21
274.5679232755642
 31
0.0
 11
154.5613710326373
 21
274.3991472141172
 31
0.0
 11
154.1698033634438
 21
274.2137268591663
 31
0.0
 11
153.7924750007256
 21
274.0004917863511
 31
0.0
 11
153.4594478815448
 21
273.7763709307578
 31
0.0
 11
153.1462865243231
 21
273.5248562070111
 31
0.0
 11
152.8809493952181
 21
273.2682689616308
 31
0.0
 11
152.6424560986628
 21
272.9861273162851
 31
0.0
 11
152.4522203745571
 21
272.7035664571022
 31
0.0
 11
152.2967955079799
 21
272.4000427057065
 31
0.0
 11
152.1878406758355
 21
272.0982971848366
 31
0.0
 11
152.1208451341327
 21
271.7842831612235
 31
0.0
 11
152.0983541523307
 21
271.4713283096578
 31
0.0
 11
152.1208451341325
 21
271.1583734580921
 31
0.0
  0
SPLINE
  5
17C
330
56
100
AcDbEntity
  8
1
  6
Continuous
 62
     7
100
AcDbSpline
210
0.0
220
0.0
230
1.0
 70
    11
 71
     3
 72
    79
 73
    75
 74
    73
 42
0.000000001
 43
0.0000000001
 44
0.00000001
 40
0.0
 40
0.0
 40
0.0
 40
0.0
 40
0.3210813056648518
 40
0.6418951396082481
 40
0.9828988891666095
 40
1.323531051596663
 40
1.692967055112468
 40
2.062075178394408
 40
2.463733854380126
 40
2.865152862487751
 40
3.298564779288533
 40
3.731815223729063
 40
4.19313126056889
 40
4.654344167617197
 40
5.137240966499034
 40
5.620077099452355
 40
6.116559525296537
 40
6.613013903592252
 40
7.114121230352432
 40
7.615228557112378
 40
8.111682935407021
 40
8.608165361248117
 40
9.09100149419477
 40
9.57389829306373
 40
10.03511120009046
 40
10.49642723689461
 40
10.92967768128254
 40
11.36308959800323
 40
11.76450860600178
 40
12.16616728182976
 40
12.53527540490468
 40
12.90471140812307
 40
13.24534357014038
 40
13.58634731899459
 40
13.90716115088665
 40
14.22824246386918
 40
14.54200444896856
 40
14.85576643406685
 40
15.17684774704599
 40
15.49766157893262
 40
15.83866532777954
 40
16.17929748978879
 40
16.54873349299791
 40
16.91784161606319
 40
17.31950029188067
 40
17.72091929986923
 40
18.15433121657968
 40
18.58758166095786
 40
19.04889769775237
 40
19.5101106047702
 40
19.99300740363066
 40
20.4758435365696
 40
20.97232596240353
 40
21.46878034069183
 40
21.96988766744635
 40
22.47099499420203
 40
22.96744937249437
 40
23.46393179833621
 40
23.94676793128822
 40
24.42966473016983
 40
24.89087763721877
 40
25.35219367405976
 40
25.78544411850144
 40
26.21885603530226
 40
26.62027504340749
 40
27.02193371938512
 40
27.39104184264882
 40
27.7604778461219
 40
28.10111000845246
 40
28.44211375771954
 40
28.76292759014616
 40
29.08400890392579
 40
29.3977708911677
 40
29.71153286919185
 40
29.71153286919185
 40
29.71153286919185
 40
29.71153286919185
 10
177.5975817923319
 20
271.1583734580921
 30
0.0
 10
177.5783019415826
 20
271.0529123750283
 30
0.0
 10
177.539758309515
 20
270.8420780598574
 30
0.0
 10
177.4247049973633
 20
270.5337384367979
 30
0.0
 10
177.2723165315161
 20
270.235650342242
 30
0.0
 10
177.0752398870599
 20
269.9449782579239
 30
0.0
 10
176.8420533772324
 20
269.6702126794968
 30
0.0
 10
176.5678849106848
 20
269.406183734259
 30
0.0
 10
176.262341710601
 20
269.1617997581835
 30
0.0
 10
175.9197241197083
 20
268.9319281837874
 30
0.0
 10
175.5510279029421
 20
268.724360931553
 30
0.0
 10
175.1504731608049
 20
268.5351439719049
 30
0.0
 10
174.7293686636561
 20
268.3701793567018
 30
0.0
 10
174.2830103576963
 20
268.2269953350396
 30
0.0
 10
173.821814499864
 20
268.1094681080842
 30
0.0
 10
173.3431194035082
 20
268.016384301575
 30
0.0
 10
172.8554520945114
 20
267.9498815030114
 30
0.0
 10
172.3588342887604
 20
267.9094959405547
 30
0.0
 10
171.8592134731889
 20
267.8961524603523
 30
0.0
 10
171.3595926576019
 20
267.9094959405517
 30
0.0
 10
170.8629748518995
 20
267.9498815030088
 30
0.0
 10
170.3753075427318
 20
268.0163843015325
 30
0.0
 10
169.8966124470054
 20
268.1094681081033
 30
0.0
 10
169.4354165868841
 20
268.2269953346811
 30
0.0
 10
168.9890582891118
 20
268.3701793574524
 30
0.0
 10
168.5679537623231
 20
268.5351439682863
 30
0.0
 10
168.1673991244005
 20
268.7243609428144
 30
0.0
 10
167.7987025332184
 20
268.9319281409378
 30
0.0
 10
167.4560862417465
 20
269.1617999023093
 30
0.0
 10
167.1505383981126
 20
269.406183209155
 30
0.0
 10
166.876385932439
 20
269.6702144591544
 30
0.0
 10
166.6431422674602
 20
269.9449718032938
 30
0.0
 10
166.4462632339937
 20
270.2356723551172
 30
0.0
 10
166.2931636917784
 20
270.5336580097971
 30
0.0
 10
166.1806162212668
 20
270.8423586291759
 30
0.0
 10
166.1140647109021
 20
271.1549292662762
 30
0.0
 10
166.0905894542101
 20
271.4713283092762
 30
0.0
 10
166.1140647108912
 20
271.7877273522758
 30
0.0
 10
166.1806162212451
 20
272.100297989375
 30
0.0
 10
166.2931636917461
 20
272.408998608752
 30
0.0
 10
166.4462632339515
 20
272.7069842634294
 30
0.0
 10
166.6431422674083
 20
272.9976848152494
 30
0.0
 10
166.876385932378
 20
273.2724421593849
 30
0.0
 10
167.150538398043
 20
273.5364734093793
 30
0.0
 10
167.4560862416689
 20
273.7808567162188
 30
0.0
 10
167.7987025331332
 20
274.0107284775834
 30
0.0
 10
168.1673991243085
 20
274.2182956756986
 30
0.0
 10
168.5679537622246
 20
274.4075126502173
 30
0.0
 10
168.9890582890075
 20
274.5724772610404
 30
0.0
 10
169.4354165867744
 20
274.7156612837991
 30
0.0
 10
169.8966124468907
 20
274.8331885103628
 30
0.0
 10
170.3753075426123
 20
274.9262723169174
 30
0.0
 10
170.8629748517754
 20
274.9927751154223
 30
0.0
 10
171.359592657474
 20
275.033160677859
 30
0.0
 10
171.8592134730532
 20
275.0465041580335
 30
0.0
 10
172.3588342886312
 20
275.0331606778066
 30
0.0
 10
172.8554520943331
 20
274.9927751153127
 30
0.0
 10
173.3431194034835
 20
274.9262723167429
 30
0.0
 10
173.8218144992485
 20
274.8331885101007
 30
0.0
 10
174.2830103591996
 20
274.7156612834605
 30
0.0
 10
174.7293686575426
 20
274.572477260494
 30
0.0
 10
175.1504731822136
 20
274.4075126498213
 30
0.0
 10
175.5510278275119
 20
274.2182956740505
 30
0.0
 10
175.9197243920963
 20
274.0107284795397
 30
0.0
 10
176.2623407757425
 20
273.7808567046227
 30
0.0
 10
176.5678882897996
 20
273.5364734449429
 30
0.0
 10
176.8420418908894
 20
273.2724420309999
 30
0.0
 10
177.0752814998136
 20
272.9976852707528
 30
0.0
 10
177.2721745564288
 20
272.7069826982239
 30
0.0
 10
177.4252236376039
 20
272.4090043124507
 30
0.0
 10
177.5379489326879
 20
272.1002780746355
 30
0.0
 10
177.6038498778222
 20
271.7878011576373
 30
0.0
 10
177.6297013876505
 20
271.4710597890596
 30
0.0
 10
177.6082883209351
 20
271.2626022343177
 30
0.0
 10
177.5975817923318
 20
271.1583734580921
 30
0.0
 11
177.5975817923319
 21
271.1583734580921
 31
0.0
 11
177.5305862506291
 21
270.844359434479
 31
0.0
 11
177.4216314184847
 21
270.542613913609
 31
0.0
 11
177.2662065519073
 21
270.2390901622134
 31
0.0
 11
177.0759708278017
 21
269.9565293030305
 31
0.0
 11
176.8374775312463
 21
269.6743876576848
 31
0.0
 11
176.5721404021414
 21
269.4178004123045
 31
0.0
 11
176.2589790449197
 21
269.1662856885577
 31
0.0
 11
175.9259519257388
 21
268.9421648329644
 31
0.0
 11
175.5486235630205
 21
268.7289297601492
 31
0.0
 11
175.157055893827
 21
268.5435094051984
 31
0.0
 11
174.7277225420879
 21
268.3747333437514
 31
0.0
 11
174.2886334535874
 21
268.2336017810812
 31
0.0
 11
173.8207875631865
 21
268.1139792865301
 31
0.0
 11
173.3468555356877
 21
268.021679965864
 31
0.0
 11
172.8549588289941
 21
267.9543566480908
 31
0.0
 11
172.3601392770119
 21
267.9141004596837
 31
0.0
 11
171.8592134632322
 21
267.9006140953863
 31
0.0
 11
171.3582876494526
 21
267.9141004596837
 31
0.0
 11
170.8634680974702
 21
267.9543566480907
 31
0.0
 11
170.3715713907765
 21
268.021679965864
 31
0.0
 11
169.8976393632778
 21
268.1139792865301
 31
0.0
 11
169.429793472877
 21
268.2336017810812
 31
0.0
 11
168.9907043843766
 21
268.3747333437514
 31
0.0
 11
168.5613710326374
 21
268.5435094051984
 31
0.0
 11
168.1698033634439
 21
268.7289297601493
 31
0.0
 11
167.7924750007256
 21
268.9421648329644
 31
0.0
 11
167.4594478815448
 21
269.1662856885577
 31
0.0
 11
167.146286524323
 21
269.4178004123045
 31
0.0
 11
166.880949395218
 21
269.6743876576849
 31
0.0
 11
166.6424560986627
 21
269.9565293030305
 31
0.0
 11
166.452220374557
 21
270.2390901622134
 31
0.0
 11
166.2967955079797
 21
270.542613913609
 31
0.0
 11
166.1878406758353
 21
270.844359434479
 31
0.0
 11
166.1208451341326
 21
271.1583734580921
 31
0.0
 11
166.0983541523307
 21
271.4713283096578
 31
0.0
 11
166.1208451341327
 21
271.7842831612236
 31
0.0
 11
166.1878406758355
 21
272.0982971848367
 31
0.0
 11
166.2967955079799
 21
272.4000427057065
 31
0.0
 11
166.4522203745571
 21
272.7035664571021
 31
0.0
 11
166.6424560986628
 21
272.986127316285
 31
0.0
 11
166.8809493952181
 21
273.2682689616308
 31
0.0
 11
167.1462865243231
 21
273.5248562070112
 31
0.0
 11
167.4594478815448
 21
273.7763709307579
 31
0.0
 11
167.7924750007256
 21
274.0004917863512
 31
0.0
 11
168.1698033634439
 21
274.2137268591663
 31
0.0
 11
168.5613710326374
 21
274.3991472141172
 31
0.0
 11
168.9907043843765
 21
274.5679232755642
 31
0.0
 11
169.429793472877
 21
274.7090548382344
 31
0.0
 11
169.8976393632778
 21
274.8286773327854
 31
0.0
 11
170.3715713907766
 21
274.9209766534516
 31
0.0
 11
170.8634680974702
 21
274.9882999712249
 31
0.0
 11
171.3582876494526
 21
275.028556159632
 31
0.0
 11
171.8592134632322
 21
275.0420425239293
 31
0.0
 11
172.3601392770119
 21
275.028556159632
 31
0.0
 11
172.8549588289941
 21
274.9882999712249
 31
0.0
 11
173.3468555356878
 21
274.9209766534516
 31
0.0
 11
173.8207875631865
 21
274.8286773327855
 31
0.0
 11
174.2886334535874
 21
274.7090548382344
 31
0.0
 11
174.7277225420879
 21
274.5679232755642
 31
0.0
 11
175.157055893827
 21
274.3991472141172
 31
0.0
 11
175.5486235630206
 21
274.2137268591663
 31
0.0
 11
175.9259519257388
 21
274.0004917863511
 31
0.0
 11
176.2589790449196
 21
273.7763709307578
 31
0.0
 11
176.5721404021413
 21
273.5248562070111
 31
0.0
 11
176.8374775312463
 21
273.2682689616308
 31
0.0
 11
177.0759708278016
 21
272.9861273162851
 31
0.0
 11
177.2662065519072
 21
272.7035664571022
 31
0.0
 11
177.4216314184845
 21
272.4000427057065
 31
0.0
 11
177.5305862506289
 21
272.0982971848366
 31
0.0
 11
177.5975817923317
 21
271.7842831612235
 31
0.0
 11
177.6200727741337
 21
271.4713283096578
 31
0.0
 11
177.5975817923318
 21
271.1583734580921
 31
0.0
  0
SPLINE
  5
17D
330
56
100
AcDbEntity
  8
1
  6
Continuous
 62
     7
100
AcDbSpline
210
0.0
220
0.0
230
1.0
 70
    11
 71
     3
 72
    79
 73
    75
 74
    73
 42
0.000000001
 43
0.0000000001
 44
0.00000001
 40
0.0
 40
0.0
 40
0.0
 40
0.0
 40
0.3261285556949888
 40
0.6517434271655956
 40
1.00759795716023
 40
1.36282187405781
 40
1.759927762702773
 40
2.156564331822694
 40
2.599261971676202
 40
3.041659938558
 40
3.528366323927012
 40
4.014888769904472
 40
4.539679834098589
 40
5.064360625072593
 40
5.618299486721114
 40
6.172176028709627
 40
6.744347784597146
 40
7.316491363302517
 40
7.89485413755997
 40
8.473216911820504
 40
9.045360490534257
 40
9.617532246434536
 40
10.17140878843788
 40
10.72534765010102
 40
11.25002844108499
 40
11.77481950528009
 40
12.26134195124348
 40
12.74804833657453
 40
13.19044630338876
 40
13.63314394312465
 40
14.02978051207473
 40
14.42688640045128
 40
14.7821103169637
 40
15.13796484627041
 40
15.46357971561314
 40
15.78970827779588
 40
16.10463414468589
 40
16.41956001157485
 40
16.74568857375447
 40
17.07130344309254
 40
17.42715797239317
 40
17.78238188889885
 40
18.17948777726789
 40
18.57612434621059
 40
19.01882198593879
 40
19.46121995274589
 40
19.94792633806965
 40
20.43444878402671
 40
20.95923984821564
 40
21.48392063919429
 40
22.03785950085272
 40
22.59173604285247
 40
23.16390779875008
 40
23.73605137746231
 40
24.31441415172274
 40
24.892776925982
 40
25.46492050469109
 40
26.03709226058457
 40
26.59096880258131
 40
27.14490766424057
 40
27.66958845522724
 40
28.19437951943626
 40
28.68090196542947
 40
29.16760835081519
 40
29.61000631771176
 40
30.05270395757574
 40
30.44934052669629
 40
30.84644641531886
 40
31.20167033214138
 40
31.55752486187554
 40
31.88313973177066
 40
32.20926829476166
 40
32.52419416384866
 40
32.83912002468838
 40
32.83912002468838
 40
32.83912002468838
 40
32.83912002468838
 10
470.5013476689207
 20
271.1575015467445
 30
0.0
 10
470.478790473086
 20
271.0509085206687
 30
0.0
 10
470.4337116210729
 20
270.8378903605827
 30
0.0
 10
470.2991842562255
 20
270.5280618493898
 30
0.0
 10
470.1224403489331
 20
270.2302679176681
 30
0.0
 10
469.893559217143
 20
269.939112215531
 30
0.0
 10
469.6243412661487
 20
269.6657104817452
 30
0.0
 10
469.3070712744685
 20
269.4017418887051
 30
0.0
 10
468.9550186551929
 20
269.1587272241038
 30
0.0
 10
468.5591453220449
 20
268.9290652346839
 30
0.0
 10
468.1344366689724
 20
268.7225071360588
 30
0.0
 10
467.6719192842343
 20
268.5334980097243
 30
0.0
 10
467.1866785625459
 20
268.3691785781871
 30
0.0
 10
466.6714370350569
 20
268.2261582562894
 30
0.0
 10
466.139771590733
 20
268.1090018234945
 30
0.0
 10
465.5873224786533
 20
268.0160247996473
 30
0.0
 10
465.0249314922473
 20
267.9497034846709
 30
0.0
 10
464.4519147556693
 20
267.9093558689808
 30
0.0
 10
463.8755684385219
 20
267.8960650819491
 30
0.0
 10
463.2992221213517
 20
267.9093558690968
 30
0.0
 10
462.7262053848401
 20
267.9497034849109
 30
0.0
 10
462.1638143981939
 20
268.0160247999494
 30
0.0
 10
461.6113652869841
 20
268.1090018240305
 30
0.0
 10
461.0796998394959
 20
268.2261582563567
 30
0.0
 10
460.5644583232281
 20
268.3691785801849
 30
0.0
 10
460.0792175611565
 20
268.5334980049177
 30
0.0
 10
459.6167003166906
 20
268.7225071548664
 30
0.0
 10
459.1919911640937
 20
268.9290651691904
 30
0.0
 10
458.7961195343329
 20
269.1587274456544
 30
0.0
 10
458.4440609011448
 20
269.4017410961332
 30
0.0
 10
458.1268111482729
 20
269.6657131010537
 30
0.0
 10
457.8575219791628
 20
269.9391028274034
 30
0.0
 10
457.628880265341
 20
270.2302988937238
 30
0.0
 10
457.4512877293949
 20
270.5279497493775
 30
0.0
 10
457.319675060381
 20
270.8382696657372
 30
0.0
 10
457.2422502347069
 20
271.1524383464192
 30
0.0
 10
457.2142903432753
 20
271.4713283093406
 30
0.0
 10
457.2422502346989
 20
271.7902182722616
 30
0.0
 10
457.319675060365
 20
272.1043869529426
 30
0.0
 10
457.4512877293715
 20
272.4147068693007
 30
0.0
 10
457.6288802653106
 20
272.7123577249517
 30
0.0
 10
457.8575219791261
 20
273.0035537912686
 30
0.0
 10
458.1268111482303
 20
273.276943517614
 30
0.0
 10
458.4440609010968
 20
273.5409155225294
 30
0.0
 10
458.7961195342802
 20
273.7839291730019
 30
0.0
 10
459.1919911640369
 20
274.0135914494581
 30
0.0
 10
459.6167003166304
 20
274.2201494637737
 30
0.0
 10
460.0792175610936
 20
274.4091586137119
 30
0.0
 10
460.564458323163
 20
274.5734780384328
 30
0.0
 10
461.0796998394293
 20
274.7164983622462
 30
0.0
 10
461.6113652869165
 20
274.8336547945556
 30
0.0
 10
462.1638143981263
 20
274.9266318186167
 30
0.0
 10
462.7262053847722
 20
274.9929531336317
 30
0.0
 10
463.2992221212855
 20
275.0333007494188
 30
0.0
 10
463.8755684384522
 20
275.0465915365342
 30
0.0
 10
464.4519147556171
 20
275.0333007494697
 30
0.0
 10
465.0249314921355
 20
274.9929531337269
 30
0.0
 10
465.5873224787654
 20
274.9266318187479
 30
0.0
 10
466.1397715900373
 20
274.8336547946927
 30
0.0
 10
466.671437037302
 20
274.7164983624136
 30
0.0
 10
467.1866785543604
 20
274.5734780384302
 30
0.0
 10
467.67191931358
 20
274.4091586141183
 30
0.0
 10
468.1344365679347
 20
274.2201494623991
 30
0.0
 10
468.5591456852865
 20
274.0135914538648
 30
0.0
 10
468.955017435181
 20
273.7839291569376
 30
0.0
 10
469.3070756441442
 20
273.5409155777111
 30
0.0
 10
469.6243268245408
 20
273.2769433317728
 30
0.0
 10
469.893610970142
 20
273.0035544519479
 30
0.0
 10
470.122269571473
 20
272.712355537958
 30
0.0
 10
470.2998022483401
 20
272.4147147736657
 30
0.0
 10
470.4316205084668
 20
272.1043601948082
 30
0.0
 10
470.5083002169316
 20
271.7903171361289
 30
0.0
 10
470.5389519071745
 20
271.4709733490233
 30
0.0
 10
470.5138824113357
 20
271.2619921469266
 30
0.0
 10
470.5013476689207
 20
271.1575015467445
 30
0.0
 11
470.5013476689207
 21
271.1575015467445
 31
0.0
 11
470.4231752169093
 21
270.8408804689647
 31
0.0
 11
470.2974689212231
 21
270.5405090814643
 31
0.0
 11
470.1159130519775
 21
270.2344536740007
 31
0.0
 11
469.8975506561949
 21
269.954271777683
 31
0.0
 11
469.6198036421609
 21
269.6704590175216
 31
0.0
 11
469.3155035949137
 21
269.4160537323712
 31
0.0
 11
468.9518564063222
 21
269.1635821052691
 31
0.0
 11
468.5695229045258
 21
268.9410128925093
 31
0.0
 11
468.1322546678458
 21
268.7272850404875
 31
0.0
 11
467.6820588230886
 21
268.5428188056399
 31
0.0
 11
467.1852193218859
 21
268.373833092909
 31
0.0
 11
466.6797323360972
 21
268.2332171634263
 31
0.0
 11
466.1388746563048
 21
268.1135458106932
 31
0.0
 11
465.5927041282781
 21
268.0214753046148
 31
0.0
 11
465.024504202151
 21
267.9541747682769
 31
0.0
 11
464.4537743954191
 21
267.9139782216022
 31
0.0
 11
463.8755684285269
 21
267.9005112807425
 31
0.0
 11
463.2973624616345
 21
267.9139782216022
 31
0.0
 11
462.7266326549026
 21
267.9541747682769
 31
0.0
 11
462.1584327287754
 21
268.0214753046148
 31
0.0
 11
461.6122622007487
 21
268.1135458106932
 31
0.0
 11
461.0714045209564
 21
268.2332171634263
 31
0.0
 11
460.5659175351677
 21
268.373833092909
 31
0.0
 11
460.0690780339651
 21
268.5428188056399
 31
0.0
 11
459.618882189208
 21
268.7272850404875
 31
0.0
 11
459.1816139525278
 21
268.9410128925093
 31
0.0
 11
458.7992804507313
 21
269.1635821052693
 31
0.0
 11
458.4356332621398
 21
269.4160537323713
 31
0.0
 11
458.1313332148927
 21
269.6704590175216
 31
0.0
 11
457.8535862008588
 21
269.9542717776829
 31
0.0
 11
457.6352238050761
 21
270.2344536740006
 31
0.0
 11
457.4536679358305
 21
270.5405090814642
 31
0.0
 11
457.3279616401442
 21
270.8408804689646
 31
0.0
 11
457.2497891881329
 21
271.1575015467445
 31
0.0
 11
457.2235010807018
 21
271.4713283096577
 31
0.0
 11
457.249789188133
 21
271.785155072571
 31
0.0
 11
457.3279616401443
 21
272.1017761503508
 31
0.0
 11
457.4536679358305
 21
272.4021475378512
 31
0.0
 11
457.6352238050761
 21
272.7082029453148
 31
0.0
 11
457.8535862008587
 21
272.9883848416324
 31
0.0
 11
458.1313332148927
 21
273.2721976017938
 31
0.0
 11
458.4356332621398
 21
273.5266028869441
 31
0.0
 11
458.7992804507313
 21
273.7790745140463
 31
0.0
 11
459.1816139525279
 21
274.0016437268062
 31
0.0
 11
459.618882189208
 21
274.215371578828
 31
0.0
 11
460.0690780339651
 21
274.3998378136757
 31
0.0
 11
460.5659175351676
 21
274.5688235264066
 31
0.0
 11
461.0714045209563
 21
274.7094394558893
 31
0.0
 11
461.6122622007486
 21
274.8291108086225
 31
0.0
 11
462.1584327287754
 21
274.9211813147008
 31
0.0
 11
462.7266326549026
 21
274.9884818510387
 31
0.0
 11
463.2973624616345
 21
275.0286783977133
 31
0.0
 11
463.8755684285268
 21
275.0421453385731
 31
0.0
 11
464.4537743954191
 21
275.0286783977133
 31
0.0
 11
465.024504202151
 21
274.9884818510387
 31
0.0
 11
465.5927041282782
 21
274.9211813147008
 31
0.0
 11
466.138874656305
 21
274.8291108086225
 31
0.0
 11
466.6797323360973
 21
274.7094394558894
 31
0.0
 11
467.1852193218861
 21
274.5688235264066
 31
0.0
 11
467.6820588230886
 21
274.3998378136757
 31
0.0
 11
468.1322546678456
 21
274.215371578828
 31
0.0
 11
468.5695229045257
 21
274.0016437268062
 31
0.0
 11
468.9518564063222
 21
273.7790745140463
 31
0.0
 11
469.3155035949136
 21
273.5266028869441
 31
0.0
 11
469.6198036421608
 21
273.2721976017938
 31
0.0
 11
469.8975506561948
 21
272.9883848416325
 31
0.0
 11
470.1159130519775
 21
272.708202945315
 31
0.0
 11
470.2974689212232
 21
272.4021475378512
 31
0.0
 11
470.4231752169093
 21
272.1017761503508
 31
0.0
 11
470.5013476689206
 21
271.785155072571
 31
0.0
 11
470.5276357763518
 21
271.4713283096578
 31
0.0
 11
470.5013476689207
 21
271.1575015467445
 31
0.0
  0
SPLINE
  5
17E
330
56
100
AcDbEntity
  8
1
  6
Continuous
 62
     7
100
AcDbSpline
210
0.0
220
0.0
230
1.0
 70
    11
 71
     3
 72
    79
 73
    75
 74
    73
 42
0.000000001
 43
0.0000000001
 44
0.00000001
 40
0.0
 40
0.0
 40
0.0
 40
0.0
 40
0.2910229063171951
 40
0.5820342199790167
 40
0.8749339259796911
 40
1.167812540311922
 40
1.463561181730128
 40
1.7592827995539
 40
2.058487804326687
 40
2.357663878865674
 40
2.660503334662572
 40
2.963315618548147
 40
3.26953081965372
 40
3.575723462230695
 40
3.884662737575104
 40
4.193586021287304
 40
4.504289078951632
 40
4.814983875317537
 40
5.126294424223405
 40
5.437604973118192
 40
5.748299769451076
 40
6.059002827059855
 40
6.367926110694087
 40
6.676865385937243
 40
6.983058028389941
 40
7.28927322934603
 40
7.592085513057739
 40
7.894924968652896
 40
8.194101042962751
 40
8.493306047472934
 40
8.789027664997013
 40
9.084776306062352
 40
9.377654919956345
 40
9.670554625323133
 40
9.961565937614827
 40
10.2525888527922
 40
10.54295309049253
 40
10.83331732819186
 40
11.12434024336606
 40
11.41535155565259
 40
11.70825126101209
 40
12.00112987489699
 40
12.2968785159512
 40
12.59260013346266
 40
12.89180513795858
 40
13.19098121225262
 40
13.49382066783068
 40
13.79663295152413
 40
14.10284815246084
 40
14.40904079489309
 40
14.71798007011507
 40
15.02690335372735
 40
15.33760641131348
 40
15.64830120762312
 40
15.95961175649412
 40
16.27092230537565
 40
16.58161710171697
 40
16.89232015935607
 40
17.20124344304268
 40
17.5101827183611
 40
17.81637536091155
 40
18.12259056198975
 40
18.42540284584701
 40
18.72824230161376
 40
19.02741837612003
 40
19.32662338085499
 40
19.62234499863126
 40
19.91809363998218
 40
20.21097225419831
 40
20.50387195993891
 40
20.79488327268876
 40
21.08590618851633
 40
21.37627042760434
 40
21.6666346564566
 40
21.6666346564566
 40
21.6666346564566
 40
21.6666346564566
 10
475.7098806267585
 20
275.0283975610589
 30
0.0
 10
475.6135055710434
 20
275.0167218936213
 30
0.0
 10
475.4207592979756
 20
274.9933710290354
 30
0.0
 10
475.1368227906461
 20
274.9240150372696
 30
0.0
 10
474.8595585240209
 20
274.8305722801546
 30
0.0
 10
474.5908061397282
 20
274.71066529442
 30
0.0
 10
474.3331607558936
 20
274.5666197894276
 30
0.0
 10
474.0879338083896
 20
274.3985531887392
 30
0.0
 10
473.8576704520941
 20
274.2087184557983
 30
0.0
 10
473.6434382433544
 20
273.9975823272495
 30
0.0
 10
473.4474838143817
 20
273.7678027237209
 30
0.0
 10
473.2707264705576
 20
273.5200741915933
 30
0.0
 10
473.1149556363947
 20
273.2573419518474
 30
0.0
 10
472.980987218833
 20
272.9805909402874
 30
0.0
 10
472.8700641873596
 20
272.6928589625992
 30
0.0
 10
472.7828873948018
 20
272.3955055162469
 30
0.0
 10
472.720139384525
 20
272.0914595201695
 30
0.0
 10
472.6823390051295
 20
271.7825179244766
 30
0.0
 10
472.6696619314588
 20
271.4713283192312
 30
0.0
 10
472.682339004764
 20
271.1601387139764
 30
0.0
 10
472.720139383795
 20
270.8511971182892
 30
0.0
 10
472.782887393698
 20
270.5471511221308
 30
0.0
 10
472.8700641859054
 20
270.2497976759801
 30
0.0
 10
472.9809872169241
 20
269.9620656974049
 30
0.0
 10
473.1149556344008
 20
269.6853146889491
 30
0.0
 10
473.2707264670776
 20
269.4225824374574
 30
0.0
 10
473.4474838145662
 20
269.1748539484285
 30
0.0
 10
473.6434382280746
 20
268.9450741847332
 30
0.0
 10
473.8576704919489
 20
268.7339386466475
 30
0.0
 10
474.0879336417844
 20
268.5441017235378
 30
0.0
 10
474.3331613491786
 20
268.3760432054573
 30
0.0
 10
474.5908039106556
 20
268.2319677036745
 30
0.0
 10
474.8595667283428
 20
268.1121716332009
 30
0.0
 10
475.1367922138301
 20
268.0183166363618
 30
0.0
 10
475.4208725671265
 20
267.9504897297699
 30
0.0
 10
475.7092400474329
 20
267.9097947681396
 30
0.0
 10
475.9999240809056
 20
267.8960289745644
 30
0.0
 10
476.2906081143784
 20
267.9097947681145
 30
0.0
 10
476.5789755946852
 20
267.9504897297194
 30
0.0
 10
476.8630559479823
 20
268.0183166362864
 30
0.0
 10
477.1402814334704
 20
268.1121716331006
 30
0.0
 10
477.4090442511586
 20
268.2319677035492
 30
0.0
 10
477.666686812637
 20
268.3760432053073
 30
0.0
 10
477.9119145200328
 20
268.5441017233633
 30
0.0
 10
478.14217766987
 20
268.7339386464485
 30
0.0
 10
478.356409933746
 20
268.94507418451
 30
0.0
 10
478.5523643472567
 20
269.1748539481813
 30
0.0
 10
478.7291216947474
 20
269.4225824371862
 30
0.0
 10
478.8848925274268
 20
269.6853146886538
 30
0.0
 10
479.018860944906
 20
269.9620656970857
 30
0.0
 10
479.1297839759276
 20
270.2497976756371
 30
0.0
 10
479.2169607681383
 20
270.5471511217642
 30
0.0
 10
479.2797087780446
 20
270.8511971178986
 30
0.0
 10
479.3175091570793
 20
271.1601387135623
 30
0.0
 10
479.3301862303886
 20
271.4713283187921
 30
0.0
 10
479.317509156723
 20
271.7825179240175
 30
0.0
 10
479.2797087773314
 20
272.0914595196707
 30
0.0
 10
479.2169607670667
 20
272.3955055157811
 30
0.0
 10
479.1297839744936
 20
272.6928589618964
 30
0.0
 10
479.0188609431141
 20
272.9805909403499
 30
0.0
 10
478.8848925252458
 20
273.2573419489618
 30
0.0
 10
478.7291216922739
 20
273.520074199535
 30
0.0
 10
478.5523643441144
 20
273.7678026915687
 30
0.0
 10
478.3564099313012
 20
273.9975824436807
 30
0.0
 10
478.1421776630502
 20
274.2087180240017
 30
0.0
 10
477.9119145275897
 20
274.3985547899206
 30
0.0
 10
477.6666867652539
 20
274.5666138875022
 30
0.0
 10
477.4090444057189
 20
274.7106872379129
 30
0.0
 10
477.1402808393041
 20
274.8304912624567
 30
0.0
 10
476.8630581344364
 20
274.9243166954034
 30
0.0
 10
476.5789674647793
 20
274.9922532597466
 30
0.0
 10
476.2906384030296
 20
275.032539816057
 30
0.0
 10
475.999811292568
 20
275.0478265604511
 30
0.0
 10
475.8065241810008
 20
275.0348738923605
 30
0.0
 10
475.7098806267585
 20
275.0283975610589
 30
0.0
 11
475.7098806267585
 21
275.0283975610589
 31
0.0
 11
475.4217211304837
 21
274.9876735879726
 31
0.0
 11
475.1386389241012
 21
274.9202047179072
 31
0.0
 11
474.8612148815573
 21
274.8262571892683
 31
0.0
 11
474.5936531294399
 21
274.7071413154689
 31
0.0
 11
474.3355207607248
 21
274.5627981860117
 31
0.0
 11
474.0915081081135
 21
274.395738015596
 31
0.0
 11
473.8606286025827
 21
274.2054269839953
 31
0.0
 11
473.6474533076315
 21
273.9955160096398
 31
0.0
 11
473.4509189836233
 21
273.7651120265133
 31
0.0
 11
473.2749454478237
 21
273.5186803038256
 31
0.0
 11
473.1187483073508
 21
273.2552980669877
 31
0.0
 11
472.9852526193866
 21
272.9797389342099
 31
0.0
 11
472.8741026938295
 21
272.6914870133127
 31
0.0
 11
472.7871260398031
 21
272.3950605352723
 31
0.0
 11
472.7243209654817
 21
272.0907713427293
 31
0.0
 11
472.6865456038101
 21
271.7823815268088
 31
0.0
 11
472.6738904075965
 21
271.4713283096578
 31
0.0
 11
472.6865456038101
 21
271.1602750925068
 31
0.0
 11
472.7243209654817
 21
270.8518852765862
 31
0.0
 11
472.7871260398032
 21
270.5475960840434
 31
0.0
 11
472.8741026938295
 21
270.251169606003
 31
0.0
 11
472.9852526193866
 21
269.9629176851058
 31
0.0
 11
473.1187483073509
 21
269.687358552328
 31
0.0
 11
473.2749454478237
 21
269.4239763154901
 31
0.0
 11
473.4509189836233
 21
269.1775445928022
 31
0.0
 11
473.6474533076315
 21
268.9471406096758
 31
0.0
 11
473.8606286025828
 21
268.7372296353204
 31
0.0
 11
474.0915081081137
 21
268.5469186037195
 31
0.0
 11
474.3355207607248
 21
268.3798584333038
 31
0.0
 11
474.59365312944
 21
268.2355153038466
 31
0.0
 11
474.8612148815574
 21
268.1163994300472
 31
0.0
 11
475.1386389241012
 21
268.0224519014084
 31
0.0
 11
475.4217211304837
 21
267.9549830313431
 31
0.0
 11
475.7098806267585
 21
267.9142590582566
 31
0.0
 11
475.999924081509
 21
267.9006140953863
 31
0.0
 11
476.2899675362595
 21
267.9142590582566
 31
0.0
 11
476.5781270325344
 21
267.9549830313431
 31
0.0
 11
476.8612092389169
 21
268.0224519014084
 31
0.0
 11
477.1386332814607
 21
268.1163994300472
 31
0.0
 11
477.4061950335781
 21
268.2355153038466
 31
0.0
 11
477.6643274022932
 21
268.3798584333038
 31
0.0
 11
477.9083400549044
 21
268.5469186037195
 31
0.0
 11
478.1392195604353
 21
268.7372296353204
 31
0.0
 11
478.3523948553865
 21
268.9471406096758
 31
0.0
 11
478.5489291793947
 21
269.1775445928023
 31
0.0
 11
478.7249027151944
 21
269.4239763154901
 31
0.0
 11
478.8810998556673
 21
269.687358552328
 31
0.0
 11
479.0145955436315
 21
269.9629176851057
 31
0.0
 11
479.1257454691886
 21
270.251169606003
 31
0.0
 11
479.2127221232149
 21
270.5475960840433
 31
0.0
 11
479.2755271975363
 21
270.8518852765862
 31
0.0
 11
479.313302559208
 21
271.1602750925068
 31
0.0
 11
479.3259577554216
 21
271.4713283096578
 31
0.0
 11
479.313302559208
 21
271.7823815268088
 31
0.0
 11
479.2755271975365
 21
272.0907713427294
 31
0.0
 11
479.2127221232149
 21
272.3950605352723
 31
0.0
 11
479.1257454691886
 21
272.6914870133126
 31
0.0
 11
479.0145955436315
 21
272.9797389342099
 31
0.0
 11
478.8810998556673
 21
273.2552980669877
 31
0.0
 11
478.7249027151945
 21
273.5186803038256
 31
0.0
 11
478.5489291793948
 21
273.7651120265133
 31
0.0
 11
478.3523948553866
 21
273.9955160096398
 31
0.0
 11
478.1392195604353
 21
274.2054269839953
 31
0.0
 11
477.9083400549044
 21
274.3957380155961
 31
0.0
 11
477.6643274022933
 21
274.5627981860117
 31
0.0
 11
477.406195033578
 21
274.7071413154689
 31
0.0
 11
477.1386332814607
 21
274.8262571892683
 31
0.0
 11
476.8612092389168
 21
274.9202047179072
 31
0.0
 11
476.5781270325344
 21
274.9876735879726
 31
0.0
 11
476.2899675362595
 21
275.0283975610589
 31
0.0
 11
475.999924081509
 21
275.0420425239291
 31
0.0
 11
475.7098806267585
 21
275.0283975610589
 31
0.0
  0
SPLINE
  5
17F
330
56
100
AcDbEntity
  8
1
  6
Continuous
 62
     7
100
AcDbSpline
210
0.0
220
0.0
230
1.0
 70
    11
 71
     3
 72
    79
 73
    75
 74
    73
 42
0.000000001
 43
0.0000000001
 44
0.00000001
 40
0.0
 40
0.0
 40
0.0
 40
0.0
 40
0.2910229063171388
 40
0.5820342199790711
 40
0.8749339259796918
 40
1.167812540311975
 40
1.46356118173023
 40
1.759282799553908
 40
2.05848780432674
 40
2.357663878865686
 40
2.660503334662584
 40
2.963315618548159
 40
3.26953081965376
 40
3.575723462230735
 40
3.884662737575145
 40
4.193586021287297
 40
4.504289078951659
 40
4.814983875317565
 40
5.126294424223434
 40
5.437604973118228
 40
5.748299769451112
 40
6.059002827059868
 40
6.367926110694118
 40
6.676865385937253
 40
6.983058028389951
 40
7.28927322934604
 40
7.592085513057782
 40
7.894924968652975
 40
8.194101042962709
 40
8.493306047472979
 40
8.789027664997057
 40
9.084776306062347
 40
9.377654919956393
 40
9.67055462532318
 40
9.961565937614932
 40
10.2525888527923
 40
10.54295309049264
 40
10.83331732819191
 40
11.1243402433661
 40
11.41535155565252
 40
11.70825126101208
 40
12.00112987489698
 40
12.29687851595139
 40
12.59260013346271
 40
12.89180513795854
 40
13.19098121225262
 40
13.49382066783069
 40
13.79663295152413
 40
14.10284815246081
 40
14.40904079489309
 40
14.71798007011502
 40
15.02690335372735
 40
15.33760641131349
 40
15.64830120762313
 40
15.95961175649412
 40
16.27092230537565
 40
16.58161710171699
 40
16.89232015935607
 40
17.20124344304268
 40
17.51018271836112
 40
17.81637536091159
 40
18.12259056198979
 40
18.42540284584702
 40
18.7282423016138
 40
19.02741837611999
 40
19.32662338085494
 40
19.62234499863117
 40
19.918093639982
 40
20.21097225419834
 40
20.50387195993878
 40
20.7948832726888
 40
21.08590618851625
 40
21.37627042760421
 40
21.66663465645652
 40
21.66663465645652
 40
21.66663465645652
 40
21.66663465645652
 10
452.0412562302952
 20
275.0283975610589
 30
0.0
 10
452.1376312860103
 20
275.0167218936213
 30
0.0
 10
452.3303775590781
 20
274.9933710290353
 30
0.0
 10
452.6143140664076
 20
274.9240150372698
 30
0.0
 10
452.8915783330328
 20
274.8305722801545
 30
0.0
 10
453.1603307173257
 20
274.71066529442
 30
0.0
 10
453.4179761011601
 20
274.5666197894276
 30
0.0
 10
453.6632030486642
 20
274.3985531887391
 30
0.0
 10
453.8934664049599
 20
274.2087184557984
 30
0.0
 10
454.1076986136993
 20
273.9975823272495
 30
0.0
 10
454.3036530426722
 20
273.767802723721
 30
0.0
 10
454.4804103864962
 20
273.5200741915933
 30
0.0
 10
454.6361812206594
 20
273.2573419518475
 30
0.0
 10
454.7701496382207
 20
272.9805909402873
 30
0.0
 10
454.8810726696944
 20
272.6928589625994
 30
0.0
 10
454.9682494622518
 20
272.3955055162469
 30
0.0
 10
455.0309974725288
 20
272.0914595201694
 30
0.0
 10
455.0687978519243
 20
271.7825179244766
 30
0.0
 10
455.0814749255951
 20
271.4713283192312
 30
0.0
 10
455.0687978522895
 20
271.1601387139764
 30
0.0
 10
455.030997473259
 20
270.8511971182892
 30
0.0
 10
454.968249463356
 20
270.5471511221308
 30
0.0
 10
454.8810726711483
 20
270.2497976759802
 30
0.0
 10
454.7701496401297
 20
269.9620656974048
 30
0.0
 10
454.636181222653
 20
269.6853146889492
 30
0.0
 10
454.4804103899762
 20
269.4225824374573
 30
0.0
 10
454.3036530424877
 20
269.1748539484286
 30
0.0
 10
454.1076986289791
 20
268.9450741847333
 30
0.0
 10
453.893466365105
 20
268.7339386466474
 30
0.0
 10
453.6632032152694
 20
268.5441017235378
 30
0.0
 10
453.4179755078752
 20
268.3760432054572
 30
0.0
 10
453.1603329463982
 20
268.2319677036746
 30
0.0
 10
452.891570128711
 20
268.1121716332009
 30
0.0
 10
452.6143446432236
 20
268.0183166363618
 30
0.0
 10
452.3302642899273
 20
267.9504897297698
 30
0.0
 10
452.0418968096209
 20
267.9097947681397
 30
0.0
 10
451.7512127761481
 20
267.8960289745643
 30
0.0
 10
451.4605287426754
 20
267.9097947681145
 30
0.0
 10
451.1721612623685
 20
267.9504897297194
 30
0.0
 10
450.8880809090717
 20
268.0183166362865
 30
0.0
 10
450.6108554235835
 20
268.1121716331007
 30
0.0
 10
450.3420926058951
 20
268.2319677035493
 30
0.0
 10
450.0844500444167
 20
268.3760432053073
 30
0.0
 10
449.8392223370209
 20
268.5441017233633
 30
0.0
 10
449.6089591871839
 20
268.7339386464486
 30
0.0
 10
449.3947269233078
 20
268.94507418451
 30
0.0
 10
449.1987725097973
 20
269.1748539481812
 30
0.0
 10
449.0220151623064
 20
269.4225824371861
 30
0.0
 10
448.8662443296272
 20
269.6853146886538
 30
0.0
 10
448.7322759121477
 20
269.9620656970858
 30
0.0
 10
448.6213528811264
 20
270.2497976756371
 30
0.0
 10
448.5341760889156
 20
270.5471511217642
 30
0.0
 10
448.4714280790092
 20
270.8511971178987
 30
0.0
 10
448.4336276999745
 20
271.1601387135623
 30
0.0
 10
448.4209506266653
 20
271.4713283187922
 30
0.0
 10
448.4336277003306
 20
271.7825179240174
 30
0.0
 10
448.4714280797228
 20
272.0914595196708
 30
0.0
 10
448.5341760899868
 20
272.395505515781
 30
0.0
 10
448.6213528825605
 20
272.6928589618964
 30
0.0
 10
448.7322759139396
 20
272.98059094035
 30
0.0
 10
448.866244331808
 20
273.2573419489617
 30
0.0
 10
449.0220151647801
 20
273.5200741995351
 30
0.0
 10
449.1987725129396
 20
273.7678026915686
 30
0.0
 10
449.3947269257527
 20
273.9975824436807
 30
0.0
 10
449.6089591940037
 20
274.2087180240016
 30
0.0
 10
449.8392223294642
 20
274.3985547899206
 30
0.0
 10
450.0844500917998
 20
274.5666138875021
 30
0.0
 10
450.342092451335
 20
274.710687237913
 30
0.0
 10
450.6108560177497
 20
274.8304912624566
 30
0.0
 10
450.8880787226174
 20
274.9243166954035
 30
0.0
 10
451.1721693922745
 20
274.9922532597465
 30
0.0
 10
451.4604984540241
 20
275.0325398160571
 30
0.0
 10
451.7513255644859
 20
275.047826560451
 30
0.0
 10
451.9446126760528
 20
275.0348738923605
 30
0.0
 10
452.0412562302952
 20
275.0283975610589
 30
0.0
 11
452.0412562302952
 21
275.0283975610589
 31
0.0
 11
452.3294157265701
 21
274.9876735879726
 31
0.0
 11
452.6124979329526
 21
274.9202047179072
 31
0.0
 11
452.8899219754965
 21
274.8262571892683
 31
0.0
 11
453.1574837276139
 21
274.7071413154689
 31
0.0
 11
453.4156160963291
 21
274.5627981860117
 31
0.0
 11
453.6596287489402
 21
274.395738015596
 31
0.0
 11
453.8905082544711
 21
274.2054269839953
 31
0.0
 11
454.1036835494223
 21
273.9955160096398
 31
0.0
 11
454.3002178734305
 21
273.7651120265133
 31
0.0
 11
454.4761914092301
 21
273.5186803038256
 31
0.0
 11
454.632388549703
 21
273.2552980669877
 31
0.0
 11
454.7658842376673
 21
272.9797389342099
 31
0.0
 11
454.8770341632244
 21
272.6914870133127
 31
0.0
 11
454.9640108172506
 21
272.3950605352723
 31
0.0
 11
455.0268158915721
 21
272.0907713427293
 31
0.0
 11
455.0645912532437
 21
271.7823815268088
 31
0.0
 11
455.0772464494574
 21
271.4713283096578
 31
0.0
 11
455.0645912532436
 21
271.1602750925068
 31
0.0
 11
455.026815891572
 21
270.8518852765862
 31
0.0
 11
454.9640108172506
 21
270.5475960840434
 31
0.0
 11
454.8770341632243
 21
270.251169606003
 31
0.0
 11
454.7658842376672
 21
269.9629176851058
 31
0.0
 11
454.632388549703
 21
269.687358552328
 31
0.0
 11
454.4761914092302
 21
269.4239763154901
 31
0.0
 11
454.3002178734305
 21
269.1775445928022
 31
0.0
 11
454.1036835494222
 21
268.9471406096758
 31
0.0
 11
453.8905082544711
 21
268.7372296353204
 31
0.0
 11
453.6596287489401
 21
268.5469186037195
 31
0.0
 11
453.415616096329
 21
268.3798584333038
 31
0.0
 11
453.1574837276138
 21
268.2355153038466
 31
0.0
 11
452.8899219754964
 21
268.1163994300472
 31
0.0
 11
452.6124979329526
 21
268.0224519014084
 31
0.0
 11
452.3294157265701
 21
267.9549830313431
 31
0.0
 11
452.0412562302952
 21
267.9142590582566
 31
0.0
 11
451.7512127755447
 21
267.9006140953863
 31
0.0
 11
451.4611693207943
 21
267.9142590582566
 31
0.0
 11
451.1730098245194
 21
267.9549830313431
 31
0.0
 11
450.889927618137
 21
268.0224519014084
 31
0.0
 11
450.6125035755932
 21
268.1163994300472
 31
0.0
 11
450.3449418234758
 21
268.2355153038466
 31
0.0
 11
450.0868094547604
 21
268.3798584333038
 31
0.0
 11
449.8427968021493
 21
268.5469186037195
 31
0.0
 11
449.6119172966186
 21
268.7372296353204
 31
0.0
 11
449.3987420016674
 21
268.9471406096758
 31
0.0
 11
449.2022076776591
 21
269.1775445928023
 31
0.0
 11
449.0262341418594
 21
269.4239763154901
 31
0.0
 11
448.8700370013866
 21
269.687358552328
 31
0.0
 11
448.7365413134224
 21
269.9629176851057
 31
0.0
 11
448.6253913878653
 21
270.251169606003
 31
0.0
 11
448.5384147338389
 21
270.5475960840433
 31
0.0
 11
448.4756096595174
 21
270.8518852765862
 31
0.0
 11
448.4378342978458
 21
271.1602750925068
 31
0.0
 11
448.4251791016322
 21
271.4713283096578
 31
0.0
 11
448.4378342978458
 21
271.7823815268088
 31
0.0
 11
448.4756096595175
 21
272.0907713427294
 31
0.0
 11
448.538414733839
 21
272.3950605352723
 31
0.0
 11
448.6253913878652
 21
272.6914870133126
 31
0.0
 11
448.7365413134224
 21
272.9797389342099
 31
0.0
 11
448.8700370013866
 21
273.2552980669877
 31
0.0
 11
449.0262341418594
 21
273.5186803038256
 31
0.0
 11
449.2022076776591
 21
273.7651120265133
 31
0.0
 11
449.3987420016674
 21
273.9955160096398
 31
0.0
 11
449.6119172966185
 21
274.2054269839953
 31
0.0
 11
449.8427968021494
 21
274.3957380155961
 31
0.0
 11
450.0868094547605
 21
274.5627981860117
 31
0.0
 11
450.3449418234757
 21
274.7071413154689
 31
0.0
 11
450.6125035755932
 21
274.8262571892683
 31
0.0
 11
450.8899276181369
 21
274.9202047179072
 31
0.0
 11
451.1730098245195
 21
274.9876735879726
 31
0.0
 11
451.4611693207943
 21
275.0283975610589
 31
0.0
 11
451.7512127755447
 21
275.0420425239291
 31
0.0
 11
452.0412562302952
 21
275.0283975610589
 31
0.0
  0
ARC
  5
180
330
56
100
AcDbEntity
  8
1
  6
Continuous
 62
     7
100
AcDbCircle
 10
452.3755684285269
 20
265.6137913450993
 30
0.0
 40
0.9999999999999836
100
AcDbArc
 50
30.00000000000054
 51
90.0
  0
ARC
  5
181
330
56
100
AcDbEntity
  8
1
  6
Continuous
 62
     7
100
AcDbCircle
 10
454.1076192360957
 20
266.6137913450993
 30
0.0
 40
0.9999999999999344
100
AcDbArc
 50
210.0000000000022
 51
270.0
  0
ARC
  5
182
330
56
100
AcDbEntity
  8
1
  6
Continuous
 62
     7
100
AcDbCircle
 10
452.3175473667963
 20
267.6137913450993
 30
0.0
 40
0.9999999999999193
100
AcDbArc
 50
254.6624423304399
 51
270.0
  0
ARC
  5
183
330
56
100
AcDbEntity
  8
1
  6
Continuous
 62
     7
100
AcDbCircle
 10
475.3755684285269
 20
265.6137913450993
 30
0.0
 40
1.0
100
AcDbArc
 50
90.0
 51
150.0000000000011
  0
ARC
  5
184
330
56
100
AcDbEntity
  8
1
  6
Continuous
 62
     7
100
AcDbCircle
 10
473.643517620958
 20
266.6137913450993
 30
0.0
 40
1.0
100
AcDbArc
 50
270.0
 51
329.9999999999995
  0
ARC
  5
185
330
56
100
AcDbEntity
  8
1
  6
Continuous
 62
     7
100
AcDbCircle
 10
475.4335894902574
 20
267.6137913450993
 30
0.0
 40
1.0
100
AcDbArc
 50
270.0
 51
285.3375576695569
  0
ARC
  5
186
330
56
100
AcDbEntity
  8
1
  6
Continuous
 62
     7
100
AcDbCircle
 10
153.3592134632321
 20
265.6137913450993
 30
0.0
 40
0.9999999999999589
100
AcDbArc
 50
30.00000000000136
 51
90.0
  0
ARC
  5
187
330
56
100
AcDbEntity
  8
1
  6
Continuous
 62
     7
100
AcDbCircle
 10
155.0912642708009
 20
266.6137913450993
 30
0.0
 40
0.9999999999999836
100
AcDbArc
 50
210.0000000000005
 51
270.0
  0
ARC
  5
188
330
56
100
AcDbEntity
  8
1
  6
Continuous
 62
     7
100
AcDbCircle
 10
153.3011924015016
 20
267.6137913450993
 30
0.0
 40
0.9999999999999117
100
AcDbArc
 50
254.6624423304415
 51
270.0
  0
ARC
  5
189
330
56
100
AcDbEntity
  8
1
  6
Continuous
 62
     7
100
AcDbCircle
 10
176.3592134632322
 20
265.6137913450993
 30
0.0
 40
1.0
100
AcDbArc
 50
90.0
 51
149.9999999999995
  0
ARC
  5
18A
330
56
100
AcDbEntity
  8
1
  6
Continuous
 62
     7
100
AcDbCircle
 10
174.6271626556634
 20
266.6137913450993
 30
0.0
 40
1.0
100
AcDbArc
 50
270.0
 51
329.9999999999987
  0
ARC
  5
18B
330
56
100
AcDbEntity
  8
1
  6
Continuous
 62
     7
100
AcDbCircle
 10
176.4172345249629
 20
267.6137913450993
 30
0.0
 40
1.0
100
AcDbArc
 50
270.0
 51
285.3375576695537
  0
ENDBLK
  5
58
330
56
100
AcDbEntity
  8
0
100
AcDbBlockEnd
  0
BLOCK
  5
5A
330
59
100
AcDbEntity
  8
0
100
AcDbBlockBegin
  2
60-1-16-240
 70
     0
 10
325.7093344231131
 20
169.7476935151055
 30
0.0
  3
60-1-16-240
  1

  0
LINE
  5
18C
330
59
100
AcDbEntity
  8
1
  6
Continuous
 62
     7
100
AcDbLine
 10
438.8755684285252
 20
225.1137913450992
 30
0.0
 11
248.8737690241163
 21
225.1137913450992
 31
0.0
  0
LINE
  5
18D
330
59
100
AcDbEntity
  8
1
  6
Continuous
 62
     7
100
AcDbLine
 10
231.8737690241163
 20
205.1137913450992
 30
0.0
 11
231.8737690241163
 21
208.1137913450992
 31
0.0
  0
LINE
  5
18E
330
59
100
AcDbEntity
  8
1
  6
Continuous
 62
     7
100
AcDbLine
 10
215.8737690241163
 20
205.1137913450992
 30
0.0
 11
215.8737690241163
 21
208.1137913450992
 31
0.0
  0
LINE
  5
18F
330
59
100
AcDbEntity
  8
1
  6
Continuous
 62
     7
100
AcDbLine
 10
471.875568428527
 20
265.6137913450993
 30
0.0
 11
471.875568428527
 21
258.1137913450993
 31
0.0
  0
LINE
  5
190
330
59
100
AcDbEntity
  8
1
  6
Continuous
 62
     7
100
AcDbLine
 10
455.875568428527
 20
258.1137913450993
 30
0.0
 11
455.875568428527
 21
265.6137913450993
 31
0.0
  0
LINE
  5
191
330
59
100
AcDbEntity
  8
1
  6
Continuous
 62
     7
100
AcDbLine
 10
438.8755684285252
 20
241.1137913450992
 30
0.0
 11
248.8737690241163
 21
241.1137913450992
 31
0.0
  0
LINE
  5
192
330
59
100
AcDbEntity
  8
1
  6
Continuous
 62
     7
100
AcDbLine
 10
231.8737690241163
 20
205.1137913450992
 30
0.0
 11
215.8737690241163
 21
205.1137913450992
 31
0.0
  0
LINE
  5
193
330
59
100
AcDbEntity
  8
1
  6
Continuous
 62
     7
100
AcDbLine
 10
216.4873620181302
 20
200.1137913450992
 30
0.0
 11
231.2601760301022
 21
200.1137913450992
 31
0.0
  0
LINE
  5
194
330
59
100
AcDbEntity
  8
1
  6
Continuous
 62
     7
100
AcDbLine
 10
172.8592134632322
 20
637.2510345283226
 30
0.0
 11
172.8592134632322
 21
408.7962405077045
 31
0.0
  0
LINE
  5
195
330
59
100
AcDbEntity
  8
1
  6
Continuous
 62
     7
100
AcDbLine
 10
156.8592134632322
 20
637.2510345283226
 30
0.0
 11
156.8592134632322
 21
408.7962405077045
 31
0.0
  0
LINE
  5
196
330
59
100
AcDbEntity
  8
1
  6
PHANTOM
 62
     4
100
AcDbLine
 10
176.2334356570943
 20
408.7962405077045
 30
0.0
 11
153.8812622510113
 21
408.7962405077045
 31
0.0
  0
LINE
  5
197
330
59
100
AcDbEntity
  8
1
  6
Continuous
 62
     7
100
AcDbLine
 10
172.8592134632322
 20
205.1137913450993
 30
0.0
 11
156.8592134632322
 21
205.1137913450993
 31
0.0
  0
LINE
  5
198
330
59
100
AcDbEntity
  8
1
  6
Continuous
 62
     7
100
AcDbLine
 10
157.4728064572462
 20
200.1137913450993
 30
0.0
 11
172.2456204692182
 21
200.1137913450993
 31
0.0
  0
LINE
  5
199
330
59
100
AcDbEntity
  8
1
  6
Continuous
 62
     7
100
AcDbLine
 10
172.8592134632322
 20
205.1137913450993
 30
0.0
 11
172.8592134632322
 21
265.6137913450993
 31
0.0
  0
LINE
  5
19A
330
59
100
AcDbEntity
  8
1
  6
Continuous
 62
     7
100
AcDbLine
 10
156.8592134632322
 20
205.1137913450993
 30
0.0
 11
156.8592134632322
 21
265.6137913450993
 31
0.0
  0
ARC
  5
19B
330
59
100
AcDbEntity
  8
1
  6
Continuous
 62
     7
100
AcDbCircle
 10
228.663742729398
 20
202.9700716378771
 30
0.0
 40
3.86002629471821
100
AcDbArc
 50
0.0
 51
33.73579100002481
  0
ARC
  5
19C
330
59
100
AcDbEntity
  8
1
  6
Continuous
 62
     7
100
AcDbCircle
 10
219.0837953188344
 20
202.9700716378771
 30
0.0
 40
3.86002629471821
100
AcDbArc
 50
180.0
 51
227.7283445035851
  0
ARC
  5
19D
330
59
100
AcDbEntity
  8
1
  6
Continuous
 62
     7
100
AcDbCircle
 10
219.0837953188344
 20
202.9700716378771
 30
0.0
 40
3.860026294717942
100
AcDbArc
 50
146.2642089999733
 51
180.0
  0
ARC
  5
19E
330
59
100
AcDbEntity
  8
1
  6
Continuous
 62
     7
100
AcDbCircle
 10
228.663742729398
 20
202.9700716378771
 30
0.0
 40
3.860026294718367
100
AcDbArc
 50
312.2716554964149
 51
0.0
  0
ARC
  5
19F
330
59
100
AcDbEntity
  8
1
  6
Continuous
 62
     7
100
AcDbCircle
 10
164.8592134632322
 20
408.7962405077045
 30
0.0
 40
8.0
100
AcDbArc
 50
180.0
 51
0.0
  0
ARC
  5
1A0
330
59
100
AcDbEntity
  8
1
  6
Continuous
 62
     7
100
AcDbCircle
 10
164.8592134632322
 20
408.7962405077045
 30
0.0
 40
8.650000000000091
100
AcDbArc
 50
270.0
 51
22.35342559933236
  0
ARC
  5
1A1
330
59
100
AcDbEntity
  8
1
  6
Continuous
 62
     7
100
AcDbCircle
 10
164.8592134632322
 20
408.7962405077045
 30
0.0
 40
8.650000000000071
100
AcDbArc
 50
157.6465744006676
 51
270.0
  0
ARC
  5
1A2
330
59
100
AcDbEntity
  8
1
  6
Continuous
 62
     7
100
AcDbCircle
 10
169.6491871685139
 20
202.9700716378771
 30
0.0
 40
3.860026294718296
100
AcDbArc
 50
0.0
 51
33.73579100002586
  0
ARC
  5
1A3
330
59
100
AcDbEntity
  8
1
  6
Continuous
 62
     7
100
AcDbCircle
 10
160.0692397579503
 20
202.9700716378771
 30
0.0
 40
3.86002629471821
100
AcDbArc
 50
180.0
 51
227.7283445035855
  0
ARC
  5
1A4
330
59
100
AcDbEntity
  8
1
  6
Continuous
 62
     7
100
AcDbCircle
 10
160.0692397579503
 20
202.9700716378771
 30
0.0
 40
3.860026294717989
100
AcDbArc
 50
146.2642089999723
 51
180.0
  0
ARC
  5
1A5
330
59
100
AcDbEntity
  8
1
  6
Continuous
 62
     7
100
AcDbCircle
 10
169.6491871685139
 20
202.9700716378771
 30
0.0
 40
3.86002629471838
100
AcDbArc
 50
312.271655496417
 51
0.0
  0
ARC
  5
1A6
330
59
100
AcDbEntity
  8
1
  6
Continuous
 62
     7
100
AcDbCircle
 10
164.8592134632322
 20
233.1137913450994
 30
0.0
 40
8.0
100
AcDbArc
 50
0.0
 51
180.0
  0
ARC
  5
1A7
330
59
100
AcDbEntity
  8
1
  6
Continuous
 62
     7
100
AcDbCircle
 10
248.8737690241163
 20
208.1137913450992
 30
0.0
 40
17.0
100
AcDbArc
 50
90.0
 51
180.0
  0
ARC
  5
1A8
330
59
100
AcDbEntity
  8
1
  6
Continuous
 62
     7
100
AcDbCircle
 10
248.8737690241163
 20
208.1137913450992
 30
0.0
 40
33.0
100
AcDbArc
 50
90.0
 51
180.0
  0
ARC
  5
1A9
330
59
100
AcDbEntity
  8
1
  6
Continuous
 62
     7
100
AcDbCircle
 10
438.8755684285252
 20
258.1137913450993
 30
0.0
 40
17.00000000000009
100
AcDbArc
 50
270.0
 51
0.0
  0
ARC
  5
1AA
330
59
100
AcDbEntity
  8
1
  6
Continuous
 62
     7
100
AcDbCircle
 10
438.8755684285252
 20
258.1137913450993
 30
0.0
 40
33.00000000000009
100
AcDbArc
 50
270.0
 51
0.0
  0
ENDBLK
  5
5B
330
59
100
AcDbEntity
  8
0
100
AcDbBlockEnd
  0
BLOCK
  5
5D
330
5C
100
AcDbEntity
  8
0
100
AcDbBlockBegin
  2
開示A4
 70
     0
 10
0.0
 20
0.0
 30
0.0
  3
開示A4
  1

  0
POINT
  5
1AB
330
5C
100
AcDbEntity
  8
1
 62
     4
100
AcDbPoint
 10
93.75
 20
17.0
 30
0.0
  0
POINT
  5
1AC
330
5C
100
AcDbEntity
  8
1
 62
     4
100
AcDbPoint
 10
85.25
 20
17.0
 30
0.0
  0
POINT
  5
1AD
330
5C
100
AcDbEntity
  8
1
 62
     4
100
AcDbPoint
 10
106.5
 20
19.00000000000001
 30
0.0
  0
POINT
  5
1AE
330
5C
100
AcDbEntity
  8
1
 62
     4
100
AcDbPoint
 10
106.5
 20
12.5
 30
0.0
  0
POINT
  5
1AF
330
5C
100
AcDbEntity
  8
1
 62
     4
100
AcDbPoint
 10
112.25
 20
12.5
 30
0.0
  0
POINT
  5
1B0
330
5C
100
AcDbEntity
  8
1
 62
     4
100
AcDbPoint
 10
100.75
 20
12.5
 30
0.0
  0
POINT
  5
1B1
330
5C
100
AcDbEntity
  8
1
 62
     4
100
AcDbPoint
 10
123.5
 20
19.00000000000001
 30
0.0
  0
POINT
  5
1B2
330
5C
100
AcDbEntity
  8
1
 62
     4
100
AcDbPoint
 10
123.5
 20
12.5
 30
0.0
  0
POINT
  5
1B3
330
5C
100
AcDbEntity
  8
1
 62
     4
100
AcDbPoint
 10
129.25
 20
12.5
 30
0.0
  0
POINT
  5
1B4
330
5C
100
AcDbEntity
  8
1
 62
     4
100
AcDbPoint
 10
117.75
 20
12.5
 30
0.0
  0
POINT
  5
1B5
330
5C
100
AcDbEntity
  8
1
 62
     4
100
AcDbPoint
 10
140.5
 20
19.00000000000001
 30
0.0
  0
POINT
  5
1B6
330
5C
100
AcDbEntity
  8
1
 62
     4
100
AcDbPoint
 10
140.5
 20
12.5
 30
0.0
  0
POINT
  5
1B7
330
5C
100
AcDbEntity
  8
1
 62
     4
100
AcDbPoint
 10
146.25
 20
12.5
 30
0.0
  0
POINT
  5
1B8
330
5C
100
AcDbEntity
  8
1
 62
     4
100
AcDbPoint
 10
134.75
 20
12.5
 30
0.0
  0
POINT
  5
1B9
330
5C
100
AcDbEntity
  8
1
 62
     4
100
AcDbPoint
 10
151.75
 20
12.5
 30
0.0
  0
POINT
  5
1BA
330
5C
100
AcDbEntity
  8
1
 62
     4
100
AcDbPoint
 10
163.25
 20
12.5
 30
0.0
  0
POINT
  5
1BB
330
5C
100
AcDbEntity
  8
1
 62
     4
100
AcDbPoint
 10
157.5
 20
12.5
 30
0.0
  0
POINT
  5
1BC
330
5C
100
AcDbEntity
  8
1
 62
     4
100
AcDbPoint
 10
57.0
 20
14.25
 30
0.0
  0
POINT
  5
1BD
330
5C
100
AcDbEntity
  8
1
 62
     4
100
AcDbPoint
 10
57.0
 20
22.75000000000001
 30
0.0
  0
POINT
  5
1BE
330
5C
100
AcDbEntity
  8
1
 62
     4
100
AcDbPoint
 10
47.5
 20
282.0000000000003
 30
0.0
  0
POINT
  5
1BF
330
5C
100
AcDbEntity
  8
1
 62
     4
100
AcDbPoint
 10
157.5
 20
19.00000000000001
 30
0.0
  0
POINT
  5
1C0
330
5C
100
AcDbEntity
  8
1
 62
     4
100
AcDbPoint
 10
57.0
 20
16.25
 30
0.0
  0
POINT
  5
1C1
330
5C
100
AcDbEntity
  8
1
 62
     4
100
AcDbPoint
 10
57.0
 20
24.75000000000001
 30
0.0
  0
POINT
  5
1C2
330
5C
100
AcDbEntity
  8
1
 62
     4
100
AcDbPoint
 10
57.0
 20
20.75000000000001
 30
0.0
  0
POINT
  5
1C3
330
5C
100
AcDbEntity
  8
1
 62
     4
100
AcDbPoint
 10
57.0
 20
12.25
 30
0.0
  0
POINT
  5
1C4
330
5C
100
AcDbEntity
  8
1
 62
     4
100
AcDbPoint
 10
34.0
 20
34.00000000000001
 30
0.0
  0
LINE
  5
1C5
330
5C
100
AcDbEntity
  8
1
  6
Continuous
 62
     7
100
AcDbLine
 10
105.0
 20
10.0
 30
0.0
 11
200.0
 21
10.0
 31
0.0
  0
LINE
  5
1C6
330
5C
100
AcDbEntity
  8
1
  6
Continuous
 62
     2
100
AcDbLine
 10
105.0
 20
10.0
 30
0.0
 11
105.0
 21
5.0
 31
0.0
  0
LINE
  5
1C7
330
5C
100
AcDbEntity
  8
1
  6
Continuous
 62
     7
100
AcDbLine
 10
200.0
 20
148.5
 30
0.0
 11
200.0
 21
287.0000000000003
 31
0.0
  0
LINE
  5
1C8
330
5C
100
AcDbEntity
  8
1
  6
Continuous
 62
     2
100
AcDbLine
 10
200.0
 20
148.5
 30
0.0
 11
205.0
 21
148.5
 31
0.0
  0
LINE
  5
1C9
330
5C
100
AcDbEntity
  8
1
  6
Continuous
 62
     7
100
AcDbLine
 10
25.0
 20
148.5
 30
0.0
 11
25.0
 21
287.0000000000003
 31
0.0
  0
LINE
  5
1CA
330
5C
100
AcDbEntity
  8
1
  6
Continuous
 62
     2
100
AcDbLine
 10
25.0
 20
148.5
 30
0.0
 11
20.0
 21
148.5
 31
0.0
  0
LINE
  5
1CB
330
5C
100
AcDbEntity
  8
1
  6
Continuous
 62
     7
100
AcDbLine
 10
105.0
 20
287.0000000000003
 30
0.0
 11
25.0
 21
287.0000000000003
 31
0.0
  0
LINE
  5
1CC
330
5C
100
AcDbEntity
  8
1
  6
Continuous
 62
     2
100
AcDbLine
 10
105.0
 20
287.0000000000003
 30
0.0
 11
105.0
 21
292.0000000000003
 31
0.0
  0
LINE
  5
1CD
330
5C
100
AcDbEntity
  8
1
  6
Continuous
 62
     2
100
AcDbLine
 10
166.0
 20
20.00000000000001
 30
0.0
 11
200.0
 21
20.00000000000001
 31
0.0
  0
LINE
  5
1CE
330
5C
100
AcDbEntity
  8
1
  6
Continuous
 62
     2
100
AcDbLine
 10
98.0
 20
27.00000000000001
 30
0.0
 11
98.0
 21
9.99999999999999
 31
0.0
  0
LINE
  5
1CF
330
5C
100
AcDbEntity
  8
1
  6
Continuous
 62
     2
100
AcDbLine
 10
115.0
 20
27.00000000000001
 30
0.0
 11
115.0
 21
9.99999999999999
 31
0.0
  0
LINE
  5
1D0
330
5C
100
AcDbEntity
  8
1
  6
Continuous
 62
     2
100
AcDbLine
 10
149.0
 20
27.00000000000001
 30
0.0
 11
149.0
 21
10.0
 31
0.0
  0
LINE
  5
1D1
330
5C
100
AcDbEntity
  8
1
  6
Continuous
 62
     2
100
AcDbLine
 10
132.0
 20
27.00000000000001
 30
0.0
 11
132.0
 21
9.99999999999999
 31
0.0
  0
LINE
  5
1D2
330
5C
100
AcDbEntity
  8
1
  6
Continuous
 62
     2
100
AcDbLine
 10
166.0
 20
27.00000000000001
 30
0.0
 11
166.0
 21
10.0
 31
0.0
  0
LINE
  5
1D3
330
5C
100
AcDbEntity
  8
1
  6
Continuous
 62
     2
100
AcDbLine
 10
55.0
 20
277.0000000000003
 30
0.0
 11
25.0
 21
277.0000000000003
 31
0.0
  0
LINE
  5
1D4
330
5C
100
AcDbEntity
  8
1
  6
Continuous
 62
     7
100
AcDbLine
 10
25.0
 20
10.0
 30
0.0
 11
25.0
 21
148.5
 31
0.0
  0
LINE
  5
1D5
330
5C
100
AcDbEntity
  8
1
  6
Continuous
 62
     2
100
AcDbLine
 10
40.0
 20
287.0000000000003
 30
0.0
 11
40.0
 21
277.0000000000003
 31
0.0
  0
LINE
  5
1D6
330
5C
100
AcDbEntity
  8
1
  6
Continuous
 62
     2
100
AcDbLine
 10
55.0
 20
287.0000000000003
 30
0.0
 11
55.0
 21
277.0000000000003
 31
0.0
  0
LINE
  5
1D7
330
5C
100
AcDbEntity
  8
1
  6
Continuous
 62
     2
100
AcDbLine
 10
33.0
 20
41.00000000000001
 30
0.0
 11
33.0
 21
27.0
 31
0.0
  0
LINE
  5
1D8
330
5C
100
AcDbEntity
  8
1
  6
Continuous
 62
     7
100
AcDbLine
 10
200.0
 20
27.00000000000001
 30
0.0
 11
25.0
 21
27.00000000000001
 31
0.0
  0
LINE
  5
1D9
330
5C
100
AcDbEntity
  8
1
  6
Continuous
 62
     7
100
AcDbLine
 10
25.0
 20
41.0
 30
0.0
 11
200.0
 21
41.0
 31
0.0
  0
LINE
  5
1DA
330
5C
100
AcDbEntity
  8
1
  6
PHANTOM
 62
     4
100
AcDbLine
 10
0.0
 20
0.0
 30
0.0
 11
210.0
 21
0.0
 31
0.0
  0
LINE
  5
1DB
330
5C
100
AcDbEntity
  8
1
  6
PHANTOM
 62
     4
100
AcDbLine
 10
210.0
 20
0.0
 30
0.0
 11
210.0
 21
297.0
 31
0.0
  0
LINE
  5
1DC
330
5C
100
AcDbEntity
  8
1
  6
PHANTOM
 62
     4
100
AcDbLine
 10
210.0
 20
297.0
 30
0.0
 11
0.0
 21
297.0
 31
0.0
  0
LINE
  5
1DD
330
5C
100
AcDbEntity
  8
1
  6
PHANTOM
 62
     4
100
AcDbLine
 10
0.0
 20
297.0
 30
0.0
 11
0.0
 21
0.0
 31
0.0
  0
LINE
  5
1DE
330
5C
100
AcDbEntity
  8
1
  6
Continuous
 62
     7
100
AcDbLine
 10
25.0
 20
10.0
 30
0.0
 11
105.0
 21
10.0
 31
0.0
  0
LINE
  5
1DF
330
5C
100
AcDbEntity
  8
1
  6
Continuous
 62
     7
100
AcDbLine
 10
200.0
 20
10.0
 30
0.0
 11
200.0
 21
148.5
 31
0.0
  0
LINE
  5
1E0
330
5C
100
AcDbEntity
  8
1
  6
Continuous
 62
     7
100
AcDbLine
 10
200.0
 20
287.0000000000003
 30
0.0
 11
105.0
 21
287.0000000000003
 31
0.0
  0
LINE
  5
1E1
330
5C
100
AcDbEntity
  8
1
  6
Continuous
 62
     2
100
AcDbLine
 10
25.0
 20
18.50000000000001
 30
0.0
 11
81.0
 21
18.50000000000001
 31
0.0
  0
LINE
  5
1E2
330
5C
100
AcDbEntity
  8
1
  6
Continuous
 62
     2
100
AcDbLine
 10
33.0
 20
27.0
 30
0.0
 11
33.0
 21
10.0
 31
0.0
  0
LINE
  5
1E3
330
5C
100
AcDbEntity
  8
1
  6
Continuous
 62
     7
100
AcDbLine
 10
191.0
 20
24.70000000000001
 30
0.0
 11
191.0
 21
22.30000000000001
 31
0.0
  0
LINE
  5
1E4
330
5C
100
AcDbEntity
  8
1
  6
Continuous
 62
     7
100
AcDbLine
 10
191.0
 20
24.70000000000001
 30
0.0
 11
196.0
 21
25.50000000000001
 31
0.0
  0
LINE
  5
1E5
330
5C
100
AcDbEntity
  8
1
  6
Continuous
 62
     7
100
AcDbLine
 10
196.0
 20
25.50000000000001
 30
0.0
 11
196.0
 21
21.50000000000001
 31
0.0
  0
LINE
  5
1E6
330
5C
100
AcDbEntity
  8
1
  6
Continuous
 62
     7
100
AcDbLine
 10
196.0
 20
21.50000000000001
 30
0.0
 11
191.0
 21
22.30000000000001
 31
0.0
  0
LINE
  5
1E7
330
5C
100
AcDbEntity
  8
1
  6
DOT_CENTER
 62
     2
100
AcDbLine
 10
184.0
 20
23.50000000000001
 30
0.0
 11
197.0
 21
23.50000000000001
 31
0.0
  0
LINE
  5
1E8
330
5C
100
AcDbEntity
  8
1
  6
DOT_CENTER
 62
     2
100
AcDbLine
 10
187.0
 20
26.50000000000001
 30
0.0
 11
187.0
 21
20.50000000000001
 31
0.0
  0
LINE
  5
1E9
330
5C
100
AcDbEntity
  8
1
  6
Continuous
 62
     2
100
AcDbLine
 10
81.0
 20
27.00000000000001
 30
0.0
 11
81.0
 21
10.0
 31
0.0
  0
CIRCLE
  5
1EA
330
5C
100
AcDbEntity
  8
1
  6
Continuous
 62
     7
100
AcDbCircle
 10
103.5
 20
12.5
 30
0.0
 40
0.2999999999999972
  0
CIRCLE
  5
1EB
330
5C
100
AcDbEntity
  8
1
  6
Continuous
 62
     7
100
AcDbCircle
 10
109.5
 20
12.5
 30
0.0
 40
0.2999999999999972
  0
CIRCLE
  5
1EC
330
5C
100
AcDbEntity
  8
1
  6
Continuous
 62
     7
100
AcDbCircle
 10
120.5
 20
12.5
 30
0.0
 40
0.2999999999999972
  0
CIRCLE
  5
1ED
330
5C
100
AcDbEntity
  8
1
  6
Continuous
 62
     7
100
AcDbCircle
 10
126.5
 20
12.5
 30
0.0
 40
0.2999999999999972
  0
CIRCLE
  5
1EE
330
5C
100
AcDbEntity
  8
1
  6
Continuous
 62
     7
100
AcDbCircle
 10
137.5
 20
12.5
 30
0.0
 40
0.3000000000000114
  0
CIRCLE
  5
1EF
330
5C
100
AcDbEntity
  8
1
  6
Continuous
 62
     7
100
AcDbCircle
 10
143.5
 20
12.5
 30
0.0
 40
0.3000000000000114
  0
CIRCLE
  5
1F0
330
5C
100
AcDbEntity
  8
1
  6
Continuous
 62
     7
100
AcDbCircle
 10
160.5
 20
12.5
 30
0.0
 40
0.3000000000000114
  0
CIRCLE
  5
1F1
330
5C
100
AcDbEntity
  8
1
  6
Continuous
 62
     7
100
AcDbCircle
 10
154.5
 20
12.5
 30
0.0
 40
0.3000000000000114
  0
CIRCLE
  5
1F2
330
5C
100
AcDbEntity
  8
1
  6
Continuous
 62
     7
100
AcDbCircle
 10
187.0
 20
23.50000000000001
 30
0.0
 40
1.200000000000102
  0
CIRCLE
  5
1F3
330
5C
100
AcDbEntity
  8
1
  6
Continuous
 62
     7
100
AcDbCircle
 10
187.0
 20
23.50000000000001
 30
0.0
 40
2.0
  0
CIRCLE
  5
1F4
330
5C
100
AcDbEntity
  8
1
  6
DOT_CENTER
 62
     7
100
AcDbCircle
 10
89.5
 20
16.0
 30
0.0
 40
0.1000000000000227
  0
CIRCLE
  5
1F5
330
5C
100
AcDbEntity
  8
1
  6
DOT_CENTER
 62
     7
100
AcDbCircle
 10
89.5
 20
18.0
 30
0.0
 40
0.1000000000000227
  0
MTEXT
  5
1F7
330
5C
100
AcDbEntity
  8
1
 62
     7
100
AcDbMText
 10
188.5
 20
15.0
 30
0.0
 40
3.0
 41
0.0
 71
     5
 72
     1
  1
三栄水栓製作所
  7
CONVERTER_11
 73
     1
 44
1.0
  0
MTEXT
  5
1F8
330
5C
100
AcDbEntity
  8
1
 62
     7
100
AcDbMText
 10
171.5
 20
15.0
 30
0.0
 40
2.5
 41
0.0
 71
     5
 72
     1
  1
株式会社
  7
CONVERTER_11
 73
     1
 44
1.0
  0
MTEXT
  5
1F9
330
5C
100
AcDbEntity
  8
1
 62
     2
100
AcDbMText
 10
32.5
 20
282.0000000000003
 30
0.0
 40
5.0
 41
0.0
 71
     5
 72
     1
  1
図番
  7
CONVERTER_11
 73
     1
 44
0.45454545454545
  0
MTEXT
  5
1FA
330
5C
100
AcDbEntity
  8
1
 62
     2
100
AcDbMText
 10
29.0
 20
34.00000000000001
 30
0.0
 40
3.5
 41
0.0
 71
     5
 72
     1
  1
備考
  7
CONVERTER_11
 73
     1
 44
0.45454545454545
  0
MTEXT
  5
1FB
330
5C
100
AcDbEntity
  8
1
 62
     2
100
AcDbMText
 10
29.0
 20
22.75
 30
0.0
 40
3.5
 41
0.0
 71
     5
 72
     1
  1
品名
  7
CONVERTER_11
 73
     1
 44
0.72727272727273
  0
MTEXT
  5
1FC
330
5C
100
AcDbEntity
  8
1
 62
     2
100
AcDbMText
 10
29.0
 20
14.25
 30
0.0
 40
3.5
 41
0.0
 71
     5
 72
     1
  1
品番
  7
CONVERTER_11
 73
     1
 44
0.72727272727273
  0
MTEXT
  5
1FD
330
5C
100
AcDbEntity
  8
1
 62
     2
100
AcDbMText
 10
101.5
 20
25.00000000000001
 30
0.0
 40
3.0
 41
0.0
 71
     5
 72
     1
  1
承認
  7
CONVERTER_11
 73
     1
 44
0.59090909090909
  0
MTEXT
  5
1FE
330
5C
100
AcDbEntity
  8
1
 62
     2
100
AcDbMText
 10
175.0
 20
23.50000000000001
 30
0.0
 40
3.5
 41
0.0
 71
     5
 72
     1
  1
第三角法
  7
CONVERTER_11
 73
     1
 44
0.54545454545455
  0
MTEXT
  5
1FF
330
5C
100
AcDbEntity
  8
1
 62
     2
100
AcDbMText
 10
118.5
 20
25.00000000000001
 30
0.0
 40
3.0
 41
0.0
 71
     5
 72
     1
  1
検図
  7
CONVERTER_11
 73
     1
 44
0.59090909090909
  0
MTEXT
  5
200
330
5C
100
AcDbEntity
  8
1
 62
     2
100
AcDbMText
 10
152.5
 20
25.00000000000001
 30
0.0
 40
3.0
 41
0.0
 71
     5
 72
     1
  1
設計
  7
CONVERTER_11
 73
     1
 44
0.59090909090909
  0
MTEXT
  5
201
330
5C
100
AcDbEntity
  8
1
 62
     2
100
AcDbMText
 10
135.5
 20
25.00000000000001
 30
0.0
 40
3.0
 41
0.0
 71
     5
 72
     1
  1
製図
  7
CONVERTER_11
 73
     1
 44
0.59090909090909
  0
MTEXT
  5
202
330
5C
100
AcDbEntity
  8
1
 62
     2
100
AcDbMText
 10
89.5
 20
24.00000000000001
 30
0.0
 40
3.5
 41
0.0
 71
     5
 72
     1
  1
尺度
  7
CONVERTER_11
 73
     1
 44
0.54545454545455
  0
MTEXT
  5
203
330
5C
100
AcDbEntity
  8
1
 62
   250
100
AcDbMText
 10
25.0
 20
5.0
 30
0.0
 40
3.5
 41
0.0
 71
     4
 72
     1
  1
備考欄の文字列 原点位置=4
  7
CONVERTER_11
 73
     1
 44
0.54545454545455
  0
ENDBLK
  5
5E
330
5C
100
AcDbEntity
  8
0
100
AcDbBlockEnd
  0
BLOCK
  5
224
330
21D
100
AcDbEntity
  8
0
100
AcDbBlockBegin
  2
*D9
 70
     1
 10
0.0
 20
0.0
 30
0.0
  3
*D9
  1

  0
LINE
  5
21E
330
21D
100
AcDbEntity
  8
1
  6
Continuous
 62
     2
100
AcDbLine
 10
419.3993907800349
 20
200.1137913450992
 30
0.0
 11
419.3993907800349
 21
294.6137913450992
 31
0.0
  0
LINE
  5
21F
330
21D
100
AcDbEntity
  8
1
  6
Continuous
 62
     2
100
AcDbLine
 10
449.0803021563374
 20
294.6137913450992
 30
0.0
 11
416.3993907800349
 21
294.6137913450992
 31
0.0
  0
LINE
  5
220
330
21D
100
AcDbEntity
  8
1
  6
Continuous
 62
     2
100
AcDbLine
 10
231.2601760301022
 20
200.1137913450992
 30
0.0
 11
422.3993907800349
 21
200.1137913450992
 31
0.0
  0
SOLID
  5
221
330
21D
100
AcDbEntity
  8
1
 62
     2
100
AcDbTrace
 10
418.0170395553672
 20
210.6137913450992
 30
0.0
 11
420.7817420047026
 21
210.6137913450992
 31
0.0
 12
419.3993907800349
 22
200.1137913450992
 32
0.0
 13
419.3993907800349
 23
200.1137913450992
 33
0.0
  0
SOLID
  5
222
330
21D
100
AcDbEntity
  8
1
 62
     2
100
AcDbTrace
 10
420.7817420047026
 20
284.1137913450992
 30
0.0
 11
418.0170395553672
 21
284.1137913450992
 31
0.0
 12
419.3993907800349
 22
294.6137913450992
 32
0.0
 13
419.3993907800349
 23
294.6137913450992
 33
0.0
  0
MTEXT
  5
223
330
21D
100
AcDbEntity
  8
1
 62
     7
100
AcDbMText
 10
416.3993907800349
 20
259.9887913450992
 30
0.0
 40
10.5
 41
0.0
 71
     7
 72
     1
  1
95
  7
CONVERTER_12
 11
0.0
 21
1.0
 31
0.0
 73
     1
 44
0.60024009603842
  0
ENDBLK
  5
225
330
21D
100
AcDbEntity
  8
0
100
AcDbBlockEnd
  0
BLOCK
  5
22F
330
228
100
AcDbEntity
  8
0
100
AcDbBlockBegin
  2
*D10
 70
     1
 10
0.0
 20
0.0
 30
0.0
  3
*D10
  1

  0
LINE
  5
229
330
228
100
AcDbEntity
  8
1
  6
Continuous
 62
     2
100
AcDbLine
 10
587.8755684285269
 20
271.6137913450993
 30
0.0
 11
587.8755684285269
 21
317.6137913450993
 31
0.0
  0
LINE
  5
22A
330
228
100
AcDbEntity
  8
1
  6
Continuous
 62
     2
100
AcDbLine
 10
543.8755684285269
 20
317.6137913450993
 30
0.0
 11
590.8755684285269
 21
317.6137913450993
 31
0.0
  0
LINE
  5
22B
330
228
100
AcDbEntity
  8
1
  6
Continuous
 62
     2
100
AcDbLine
 10
543.8755684285269
 20
271.6137913450993
 30
0.0
 11
590.8755684285269
 21
271.6137913450993
 31
0.0
  0
SOLID
  5
22C
330
228
100
AcDbEntity
  8
1
 62
     2
100
AcDbTrace
 10
586.4932172038592
 20
282.1137913450993
 30
0.0
 11
589.2579196531946
 21
282.1137913450993
 31
0.0
 12
587.8755684285269
 22
271.6137913450993
 32
0.0
 13
587.8755684285269
 23
271.6137913450993
 33
0.0
  0
SOLID
  5
22D
330
228
100
AcDbEntity
  8
1
 62
     2
100
AcDbTrace
 10
589.2579196531946
 20
307.1137913450993
 30
0.0
 11
586.4932172038592
 21
307.1137913450993
 31
0.0
 12
587.8755684285269
 22
317.6137913450993
 32
0.0
 13
587.8755684285269
 23
317.6137913450993
 33
0.0
  0
MTEXT
  5
22E
330
228
100
AcDbEntity
  8
1
 62
     7
100
AcDbMText
 10
584.8755684285269
 20
284.4287913450993
 30
0.0
 40
10.5
 41
0.0
 71
     7
 72
     1
  1
\C7;{\Fgdt;n}\C7;46
  7
CONVERTER_12
 11
0.0
 21
1.0
 31
0.0
 73
     1
 44
0.60024009603842
  0
ENDBLK
  5
230
330
228
100
AcDbEntity
  8
0
100
AcDbBlockEnd
  0
BLOCK
  5
23A
330
233
100
AcDbEntity
  8
0
100
AcDbBlockBegin
  2
*D11
 70
     1
 10
0.0
 20
0.0
 30
0.0
  3
*D11
  1

  0
LINE
  5
234
330
233
100
AcDbEntity
  8
0
  6
Continuous
 62
     2
100
AcDbLine
 10
419.399390780035
 20
294.6137913450993
 30
0.0
 11
419.399390780035
 21
352.1137913450993
 31
0.0
  0
LINE
  5
235
330
233
100
AcDbEntity
  8
0
  6
Continuous
 62
     2
100
AcDbLine
 10
449.0803021563375
 20
294.6137913450993
 30
0.0
 11
416.399390780035
 21
294.6137913450993
 31
0.0
  0
LINE
  5
236
330
233
100
AcDbEntity
  8
0
  6
Continuous
 62
     2
100
AcDbLine
 10
498.8755684285269
 20
352.1137913450993
 30
0.0
 11
416.399390780035
 21
352.1137913450993
 31
0.0
  0
SOLID
  5
237
330
233
100
AcDbEntity
  8
0
 62
     2
100
AcDbTrace
 10
418.0170395553673
 20
305.1137913450993
 30
0.0
 11
420.7817420047027
 21
305.1137913450993
 31
0.0
 12
419.399390780035
 22
294.6137913450993
 32
0.0
 13
419.399390780035
 23
294.6137913450993
 33
0.0
  0
SOLID
  5
238
330
233
100
AcDbEntity
  8
0
 62
     2
100
AcDbTrace
 10
420.7817420047027
 20
341.6137913450993
 30
0.0
 11
418.0170395553673
 21
341.6137913450993
 31
0.0
 12
419.399390780035
 22
352.1137913450993
 32
0.0
 13
419.399390780035
 23
352.1137913450993
 33
0.0
  0
MTEXT
  5
239
330
233
100
AcDbEntity
  8
0
 62
     7
100
AcDbMText
 10
416.399390780035
 20
296.301776222452
 30
0.0
 40
10.5
 41
0.0
 71
     7
 72
     1
  1
58リフト5
  7
CONVERTER_11
 11
0.0
 21
1.0
 31
0.0
 73
     1
 44
0.45454545454545
  0
ENDBLK
  5
23B
330
233
100
AcDbEntity
  8
0
100
AcDbBlockEnd
  0
BLOCK
  5
245
330
23E
100
AcDbEntity
  8
0
100
AcDbBlockBegin
  2
*D12
 70
     1
 10
0.0
 20
0.0
 30
0.0
  3
*D12
  1

  0
LINE
  5
23F
330
23E
100
AcDbEntity
  8
1
  6
Continuous
 62
     2
100
AcDbLine
 10
543.8755684285269
 20
170.1137913450993
 30
0.0
 11
557.8755684285269
 21
170.1137913450993
 31
0.0
  0
LINE
  5
240
330
23E
100
AcDbEntity
  8
1
  6
Continuous
 62
     2
100
AcDbLine
 10
557.8755684285269
 20
170.1137913450993
 30
0.0
 11
580.43184562846
 21
170.1137913450993
 31
0.0
  0
LINE
  5
241
330
23E
100
AcDbEntity
  8
1
  6
Continuous
 62
     2
100
AcDbLine
 10
557.8755684285269
 20
285.1137913450993
 30
0.0
 11
557.8755684285269
 21
167.1137913450993
 31
0.0
  0
LINE
  5
242
330
23E
100
AcDbEntity
  8
1
  6
Continuous
 62
     2
100
AcDbLine
 10
543.8755684285269
 20
268.1344548803722
 30
0.0
 11
543.8755684285269
 21
167.1137913450993
 31
0.0
  0
SOLID
  5
243
330
23E
100
AcDbEntity
  8
1
 62
     2
100
AcDbTrace
 10
568.3755684285269
 20
171.4961425697669
 30
0.0
 11
568.3755684285269
 21
168.7314401204316
 31
0.0
 12
557.8755684285269
 22
170.1137913450993
 32
0.0
 13
557.8755684285269
 23
170.1137913450993
 33
0.0
  0
MTEXT
  5
244
330
23E
100
AcDbEntity
  8
1
 62
     7
100
AcDbMText
 10
567.8318456284601
 20
173.1137913450993
 30
0.0
 40
10.5
 41
0.0
 71
     7
 72
     1
  1
14
  7
CONVERTER_12
 11
0.9999999999970619
 21
2.424068405545306E-6
 31
0.0
 73
     1
 44
0.60024009603842
  0
ENDBLK
  5
246
330
23E
100
AcDbEntity
  8
0
100
AcDbBlockEnd
  0
BLOCK
  5
248
330
247
100
AcDbEntity
  8
0
100
AcDbBlockBegin
  2
_NONE
 70
     0
 10
0.0
 20
0.0
 30
0.0
  3
_NONE
  1

  0
ENDBLK
  5
249
330
247
100
AcDbEntity
  8
0
100
AcDbBlockEnd
  0
BLOCK
  5
253
330
24C
100
AcDbEntity
  8
0
100
AcDbBlockBegin
  2
*D14
 70
     1
 10
0.0
 20
0.0
 30
0.0
  3
*D14
  1

  0
LINE
  5
24D
330
24C
100
AcDbEntity
  8
0
  6
Continuous
 62
     2
100
AcDbLine
 10
223.8737690241162
 20
170.1137913450993
 30
0.0
 11
463.8755684285269
 21
170.1137913450993
 31
0.0
  0
LINE
  5
24E
330
24C
100
AcDbEntity
  8
0
  6
Continuous
 62
     2
100
AcDbLine
 10
463.8755684285269
 20
258.1137913450993
 30
0.0
 11
463.8755684285269
 21
167.1137913450993
 31
0.0
  0
LINE
  5
24F
330
24C
100
AcDbEntity
  8
0
  6
Continuous
 62
     2
100
AcDbLine
 10
223.8737690241162
 20
191.1137913450992
 30
0.0
 11
223.8737690241162
 21
167.1137913450993
 31
0.0
  0
SOLID
  5
250
330
24C
100
AcDbEntity
  8
0
 62
     2
100
AcDbTrace
 10
234.3737690241162
 20
171.4961425697669
 30
0.0
 11
234.3737690241162
 21
168.7314401204316
 31
0.0
 12
223.8737690241162
 22
170.1137913450993
 32
0.0
 13
223.8737690241162
 23
170.1137913450993
 33
0.0
  0
SOLID
  5
251
330
24C
100
AcDbEntity
  8
0
 62
     2
100
AcDbTrace
 10
453.3755684285269
 20
168.7314401204316
 30
0.0
 11
453.3755684285269
 21
171.4961425697669
 31
0.0
 12
463.8755684285269
 22
170.1137913450993
 32
0.0
 13
463.8755684285269
 23
170.1137913450993
 33
0.0
  0
MTEXT
  5
252
330
24C
100
AcDbEntity
  8
0
 62
     7
100
AcDbMText
 10
331.2746687263215
 20
173.1137913450993
 30
0.0
 40
10.5
 41
0.0
 71
     7
 72
     1
  1
240
  7
CONVERTER_12
 11
0.9999999999970619
 21
2.424068405545306E-6
 31
0.0
 73
     1
 44
0.60024009603842
  0
ENDBLK
  5
254
330
24C
100
AcDbEntity
  8
0
100
AcDbBlockEnd
  0
BLOCK
  5
25E
330
257
100
AcDbEntity
  8
0
100
AcDbBlockBegin
  2
*D15
 70
     1
 10
0.0
 20
0.0
 30
0.0
  3
*D15
  1

  0
LINE
  5
258
330
257
100
AcDbEntity
  8
0
  6
Continuous
 62
     2
100
AcDbLine
 10
463.8755684285269
 20
170.1137913450993
 30
0.0
 11
498.8755684285269
 21
170.1137913450993
 31
0.0
  0
LINE
  5
259
330
257
100
AcDbEntity
  8
0
  6
Continuous
 62
     2
100
AcDbLine
 10
498.8755684285269
 20
278.9625063951354
 30
0.0
 11
498.8755684285269
 21
167.1137913450993
 31
0.0
  0
LINE
  5
25A
330
257
100
AcDbEntity
  8
0
  6
Continuous
 62
     2
100
AcDbLine
 10
463.8755684285269
 20
258.1137913450993
 30
0.0
 11
463.8755684285269
 21
167.1137913450993
 31
0.0
  0
SOLID
  5
25B
330
257
100
AcDbEntity
  8
0
 62
     2
100
AcDbTrace
 10
474.3755684285269
 20
171.4961425697669
 30
0.0
 11
474.3755684285269
 21
168.7314401204316
 31
0.0
 12
463.8755684285269
 22
170.1137913450993
 32
0.0
 13
463.8755684285269
 23
170.1137913450993
 33
0.0
  0
SOLID
  5
25C
330
257
100
AcDbEntity
  8
0
 62
     2
100
AcDbTrace
 10
488.3755684285269
 20
168.7314401204316
 30
0.0
 11
488.3755684285269
 21
171.4961425697669
 31
0.0
 12
498.8755684285269
 22
170.1137913450993
 32
0.0
 13
498.8755684285269
 23
170.1137913450993
 33
0.0
  0
MTEXT
  5
25D
330
257
100
AcDbEntity
  8
0
 62
     7
100
AcDbMText
 10
473.5005684285269
 20
173.1137913450993
 30
0.0
 40
10.5
 41
0.0
 71
     7
 72
     1
  1
35
  7
CONVERTER_12
 11
0.9999999999970619
 21
2.424068405545306E-6
 31
0.0
 73
     1
 44
0.60024009603842
  0
ENDBLK
  5
25F
330
257
100
AcDbEntity
  8
0
100
AcDbBlockEnd
  0
BLOCK
  5
269
330
262
100
AcDbEntity
  8
0
100
AcDbBlockBegin
  2
*D16
 70
     1
 10
0.0
 20
0.0
 30
0.0
  3
*D16
  1

  0
LINE
  5
263
330
262
100
AcDbEntity
  8
0
  6
Continuous
 62
     2
100
AcDbLine
 10
498.8755684285269
 20
170.1137913450993
 30
0.0
 11
543.8755684285269
 21
170.1137913450993
 31
0.0
  0
LINE
  5
264
330
262
100
AcDbEntity
  8
0
  6
Continuous
 62
     2
100
AcDbLine
 10
543.8755684285269
 20
268.1344548803722
 30
0.0
 11
543.8755684285269
 21
167.1137913450993
 31
0.0
  0
LINE
  5
265
330
262
100
AcDbEntity
  8
0
  6
Continuous
 62
     2
100
AcDbLine
 10
498.8755684285269
 20
278.9625063951354
 30
0.0
 11
498.8755684285269
 21
167.1137913450993
 31
0.0
  0
SOLID
  5
266
330
262
100
AcDbEntity
  8
0
 62
     2
100
AcDbTrace
 10
509.3755684285269
 20
171.4961425697669
 30
0.0
 11
509.3755684285269
 21
168.7314401204316
 31
0.0
 12
498.8755684285269
 22
170.1137913450993
 32
0.0
 13
498.8755684285269
 23
170.1137913450993
 33
0.0
  0
SOLID
  5
267
330
262
100
AcDbEntity
  8
0
 62
     2
100
AcDbTrace
 10
533.3755684285269
 20
168.7314401204316
 30
0.0
 11
533.3755684285269
 21
171.4961425697669
 31
0.0
 12
543.8755684285269
 22
170.1137913450993
 32
0.0
 13
543.8755684285269
 23
170.1137913450993
 33
0.0
  0
MTEXT
  5
268
330
262
100
AcDbEntity
  8
0
 62
     7
100
AcDbMText
 10
513.5005684285268
 20
173.1137913450993
 30
0.0
 40
10.5
 41
0.0
 71
     7
 72
     1
  1
45
  7
CONVERTER_12
 11
0.9999999999970619
 21
2.424068405545306E-6
 31
0.0
 73
     1
 44
0.60024009603842
  0
ENDBLK
  5
26A
330
262
100
AcDbEntity
  8
0
100
AcDbBlockEnd
  0
ENDSEC
  0
SECTION
  2
ENTITIES
  0
INSERT
  5
5F
330
1F
100
AcDbEntity
  8
1
100
AcDbBlockReference
  2
21-1D
 10
1660.575891435569
 20
2837.087459863106
 30
0.0
 41
1.0
 42
1.0
 43
1.0
  0
INSERT
  5
60
330
1F
100
AcDbEntity
  8
0
100
AcDbBlockReference
  2
42-1
 10
410.7713083419234
 20
142.3241423355146
 30
0.0
  0
INSERT
  5
61
330
1F
100
AcDbEntity
  8
0
100
AcDbBlockReference
  2
37-1-13
 10
407.0743382117558
 20
178.1180854549548
 30
0.0
  0
INSERT
  5
62
330
1F
100
AcDbEntity
  8
0
100
AcDbBlockReference
  2
36-1A-13-M11
 10
253.0617100065786
 20
196.0446653356632
 30
0.0
  0
INSERT
  5
63
330
1F
100
AcDbEntity
  8
1
100
AcDbBlockReference
  2
A10-0A-13
 10
498.8755684285269
 20
294.6137913450993
 30
0.0
  0
INSERT
  5
64
330
1F
100
AcDbEntity
  8
1
100
AcDbBlockReference
  2
32-1-16
 10
167.329828592858
 20
475.0996234752084
 30
0.0
  0
INSERT
  5
65
330
1F
100
AcDbEntity
  8
0
100
AcDbBlockReference
  2
60-1-16-240
 10
325.7093344231131
 20
169.7476935151055
 30
0.0
  0
INSERT
  5
66
330
1F
100
AcDbEntity
  8
1
100
AcDbBlockReference
  2
開示A4
 10
0.0
 20
0.0
 30
0.0
 41
3.0
 42
3.0
 43
3.0
  0
LINE
  5
204
330
1F
100
AcDbEntity
  8
1
  6
DASH_CENTER
 62
     2
100
AcDbLine
 10
248.8737690241163
 20
233.1137913450992
 30
0.0
 11
438.875568428527
 21
233.1137913450992
 31
0.0
  0
LINE
  5
205
330
1F
100
AcDbEntity
  8
1
  6
DASH_CENTER
 62
     2
100
AcDbLine
 10
223.8737690241161
 20
191.1137913450992
 30
0.0
 11
223.8737690241163
 21
208.1137913450992
 31
0.0
  0
LINE
  5
206
330
1F
100
AcDbEntity
  8
1
  6
DASH_CENTER
 62
     2
100
AcDbLine
 10
141.8592134632322
 20
648.7980399121152
 30
0.0
 11
187.8592134632322
 21
648.7980399121152
 31
0.0
  0
LINE
  5
207
330
1F
100
AcDbEntity
  8
1
  6
DASH_CENTER
 62
     2
100
AcDbLine
 10
132.8592134632323
 20
294.6137913450993
 30
0.0
 11
196.8592134632322
 21
294.6137913450993
 31
0.0
  0
LINE
  5
208
330
1F
100
AcDbEntity
  8
1
  6
DASH_CENTER
 62
     2
100
AcDbLine
 10
147.559213463232
 20
408.7962405077045
 30
0.0
 11
182.1592134632323
 21
408.7962405077045
 31
0.0
  0
LINE
  5
209
330
1F
100
AcDbEntity
  8
1
  6
DASH_CENTER
 62
     2
100
AcDbLine
 10
156.1989594253878
 20
678.7980399121152
 30
0.0
 11
194.3040771919032
 21
700.7980399121154
 31
0.0
  0
LINE
  5
20A
330
1F
100
AcDbEntity
  8
1
  6
DASH_CENTER
 62
     2
100
AcDbLine
 10
173.5194675010766
 20
678.7980399121152
 30
0.0
 11
135.4143497345614
 21
700.7980399121152
 31
0.0
  0
LINE
  5
20B
330
1F
100
AcDbEntity
  8
1
  6
DASH_CENTER
 62
     2
100
AcDbLine
 10
181.8592134632322
 20
683.7980399121152
 30
0.0
 11
147.8592134632322
 21
683.7980399121152
 31
0.0
  0
LINE
  5
20C
330
1F
100
AcDbEntity
  8
1
  6
DASH_CENTER
 62
     2
100
AcDbLine
 10
560.9133749602798
 20
294.6137913450993
 30
0.0
 11
449.0803021563375
 21
294.6137913450993
 31
0.0
  0
LINE
  5
20D
330
1F
100
AcDbEntity
  8
1
  6
DASH_CENTER
 62
     2
100
AcDbLine
 10
498.8755684285269
 20
278.9625063951354
 30
0.0
 11
498.8755684285268
 21
361.1137913450992
 31
0.0
  0
LINE
  5
20E
330
1F
100
AcDbEntity
  8
0
  6
DASH_CENTER
 62
     2
100
AcDbLine
 10
164.8592134632322
 20
361.1137913450992
 30
0.0
 11
164.8592134632322
 21
191.1137913450993
 31
0.0
  0
LINE
  5
20F
330
1F
100
AcDbEntity
  8
1
  6
DASH_CENTER
 62
     2
100
AcDbLine
 10
463.8755684285269
 20
258.1137913450993
 30
0.0
 11
463.8755684285269
 21
303.2395300733872
 31
0.0
  0
LINE
  5
210
330
1F
100
AcDbEntity
  8
0
  6
Continuous
 62
     2
100
AcDbLine
 10
543.8755684285269
 20
271.6137913450993
 30
0.0
 11
543.8755684285269
 21
268.1344548803722
 31
0.0
  0
LINE
  5
211
330
1F
100
AcDbEntity
  8
1
  6
DASH_CENTER
 62
     2
100
AcDbLine
 10
164.8592134632322
 20
751.7980399121152
 30
0.0
 11
164.8592134632322
 21
391.1462405077044
 31
0.0
  0
ARC
  5
212
330
1F
100
AcDbEntity
  8
1
  6
DASH_CENTER
 62
     2
100
AcDbCircle
 10
248.8737690241163
 20
208.1137913450992
 30
0.0
 40
25.0
100
AcDbArc
 50
90.0
 51
180.0
  0
ARC
  5
213
330
1F
100
AcDbEntity
  8
1
  6
DASH_CENTER
 62
     2
100
AcDbCircle
 10
438.875568428527
 20
258.1137913450992
 30
0.0
 40
24.99999999999997
100
AcDbArc
 50
270.0
 51
0.00000000000026
  0
SOLID
  5
214
330
1F
100
AcDbEntity
  8
1
 62
     2
100
AcDbTrace
 10
179.4120621857176
 20
745.0824822641856
 30
0.0
 11
181.806364740747
 21
743.7001310395179
 31
0.0
 12
175.3592134632322
 22
735.2980399121152
 32
0.0
 13
175.3592134632322
 23
735.2980399121152
 33
0.0
  0
LEADER
  5
215
330
1F
100
AcDbEntity
  8
1
  6
Continuous
 62
     2
100
AcDbLeader
  3
Standard
 71
     0
 76
     3
 10
175.3592134632322
 20
735.2980399121152
 30
0.0
 10
192.3020251651038
 20
764.6438506028294
 30
0.0
 10
240.916118965201
 20
764.6438506028294
 30
0.0
  0
MTEXT
  5
217
330
1F
100
AcDbEntity
  8
1
 62
     7
100
AcDbMText
 10
281.25
 20
51.0
 30
0.0
 40
10.5
 41
0.0
 71
     5
 72
     1
  1
3
  7
CONVERTER_12
 73
     1
 44
0.7202881152461
  0
MTEXT
  5
218
330
1F
100
AcDbEntity
  8
1
 62
     7
100
AcDbMText
 10
255.75
 20
51.0
 30
0.0
 40
10.5
 41
0.0
 71
     5
 72
     1
  1
1
  7
CONVERTER_12
 73
     1
 44
0.7202881152461
  0
MTEXT
  5
219
330
1F
100
AcDbEntity
  8
0
 62
     7
100
AcDbMText
 10
171.0
 20
42.75
 30
0.0
 40
10.5
 41
0.0
 71
     5
 72
     1
  1
A10J-L2-13X240
  7
CONVERTER_12
 73
     1
 44
0.90036014405762
  0
MTEXT
  5
21A
330
1F
100
AcDbEntity
  8
1
 62
     7
100
AcDbMText
 10
216.6090720651524
 20
773.6438506028294
 30
0.0
 40
10.5
 41
0.0
 71
     5
 72
     1
  1
PJ1/2
  7
CONVERTER_12
 73
     1
 44
1.32052821128451
  0
MTEXT
  5
21B
330
1F
100
AcDbEntity
  8
0
 62
     7
100
AcDbMText
 10
171.0
 20
68.25
 30
0.0
 40
10.5
 41
0.0
 71
     5
 72
     1
  1
自在水栓
  7
CONVERTER_11
 73
     1
 44
1.0
  0
MTEXT
  5
21C
330
1F
100
AcDbEntity
  8
0
 62
     7
100
AcDbMText
 10
102.0
 20
102.0
 30
0.0
 40
10.5
 41
0.0
 71
     4
 72
     1
  1
JIS
  7
CONVERTER_12
 73
     1
 44
1.32052821128451
  0
DIMENSION
  5
227
330
1F
100
AcDbEntity
  8
1
100
AcDbDimension
  2
*D9
 10
419.3993907800349
 20
200.1137913450992
 30
0.0
 11
411.1493907800349
 21
267.8637913450992
 31
0.0
 70
    32
  1
95
 71
     5
 42
-1.0
 53
90.0
  3
ME10_DIM_10
100
AcDbAlignedDimension
 13
449.0803021563375
 23
294.6137913450993
 33
0.0
 14
231.2601760301022
 24
200.1137913450992
 34
0.0
 50
90.0
100
AcDbRotatedDimension
  0
DIMENSION
  5
232
330
1F
100
AcDbEntity
  8
1
100
AcDbDimension
  2
*D10
 10
587.8755684285269
 20
271.6137913450993
 30
0.0
 11
579.6255684285269
 21
294.6137913450993
 31
0.0
 70
    32
  1
<>
 71
     5
 42
-1.0
 53
90.0
  3
ME10_DIM_11
100
AcDbAlignedDimension
 13
543.8755684285268
 23
317.6137913450992
 33
0.0
 14
543.8755684285269
 24
271.6137913450993
 34
0.0
 50
90.0
100
AcDbRotatedDimension
  0
DIMENSION
  5
23D
330
1F
100
AcDbEntity
  8
0
100
AcDbDimension
  2
*D11
 10
419.399390780035
 20
294.6137913450993
 30
0.0
 11
411.149390780035
 21
324.651776222452
 31
0.0
 70
    32
  1
58リフト5
 71
     5
 42
-1.0
 53
90.0
  3
ME10_DIM_12
100
AcDbAlignedDimension
 13
498.8755684285268
 23
352.1137913450992
 33
0.0
 14
449.0803021563375
 24
294.6137913450993
 34
0.0
 50
90.0
100
AcDbRotatedDimension
  0
DIMENSION
  5
24B
330
1F
100
AcDbEntity
  8
1
100
AcDbDimension
  2
*D12
 10
543.8755684285269
 20
170.1137913450993
 30
0.0
 11
574.13184562846
 21
178.3637913450993
 31
0.0
 70
    32
  1
<>
 71
     5
 42
-1.0
 53
0.00013888888889
  3
ME10_DIM_13
100
AcDbAlignedDimension
 13
557.8755684285269
 23
285.1137913450993
 33
0.0
 14
543.8755684285269
 24
268.1344548803722
 34
0.0
100
AcDbRotatedDimension
  0
DIMENSION
  5
256
330
1F
100
AcDbEntity
  8
0
100
AcDbDimension
  2
*D14
 10
223.8737690241162
 20
170.1137913450993
 30
0.0
 11
343.8746687263215
 21
178.3637913450993
 31
0.0
 70
    32
  1
<>
 71
     5
 42
-1.0
 53
0.00013888888889
  3
ME10_DIM_14
100
AcDbAlignedDimension
 13
463.8755684285269
 23
258.1137913450993
 33
0.0
 14
223.8737690241161
 24
191.1137913450992
 34
0.0
100
AcDbRotatedDimension
  0
DIMENSION
  5
261
330
1F
100
AcDbEntity
  8
0
100
AcDbDimension
  2
*D15
 10
463.8755684285269
 20
170.1137913450993
 30
0.0
 11
481.3755684285269
 21
178.3637913450993
 31
0.0
 70
    32
  1
<>
 71
     5
 42
-1.0
 53
0.00013888888889
  3
ME10_DIM_15
100
AcDbAlignedDimension
 13
498.8755684285269
 23
278.9625063951354
 33
0.0
 14
463.8755684285269
 24
258.1137913450993
 34
0.0
100
AcDbRotatedDimension
  0
DIMENSION
  5
26C
330
1F
100
AcDbEntity
  8
0
100
AcDbDimension
  2
*D16
 10
498.8755684285269
 20
170.1137913450993
 30
0.0
 11
521.3755684285268
 21
178.3637913450993
 31
0.0
 70
    32
  1
<>
 71
     5
 42
-1.0
 53
0.00013888888889
  3
ME10_DIM_16
100
AcDbAlignedDimension
 13
543.8755684285269
 23
268.1344548803722
 33
0.0
 14
498.8755684285269
 24
278.9625063951354
 34
0.0
100
AcDbRotatedDimension
  0
ENDSEC
  0
SECTION
  2
OBJECTS
  0
DICTIONARY
  5
C
330
0
100
AcDbDictionary
281
     1
  3
ACAD_GROUP
350
D
  3
ACAD_LAYOUT
350
1A
  3
ACAD_MATERIAL
350
3B
  3
ACAD_MLEADERSTYLE
350
26F
  3
ACAD_MLINESTYLE
350
17
  3
ACAD_PLOTSETTINGS
350
19
  3
ACAD_PLOTSTYLENAME
350
E
  3
ACAD_VISUALSTYLE
350
2A
  3
AcDbVariableDictionary
350
26D
  0
DICTIONARY
  5
D
102
{ACAD_REACTORS
330
C
102
}
330
C
100
AcDbDictionary
281
     1
  0
DICTIONARY
  5
1A
102
{ACAD_REACTORS
330
C
102
}
330
C
100
AcDbDictionary
281
     1
  3
Layout1
350
1E
  3
Layout2
350
26
  3
Model
350
22
  0
DICTIONARY
  5
3B
102
{ACAD_REACTORS
330
C
102
}
330
C
100
AcDbDictionary
281
     1
  3
ByBlock
350
3D
  3
ByLayer
350
3C
  3
Global
350
3E
  0
DICTIONARY
  5
26F
102
{ACAD_REACTORS
330
C
102
}
330
C
100
AcDbDictionary
281
     1
  0
DICTIONARY
  5
17
102
{ACAD_REACTORS
330
C
102
}
330
C
100
AcDbDictionary
281
     1
  3
Standard
350
18
  0
DICTIONARY
  5
19
102
{ACAD_REACTORS
330
C
102
}
330
C
100
AcDbDictionary
281
     1
  0
ACDBDICTIONARYWDFLT
  5
E
102
{ACAD_REACTORS
330
C
102
}
330
C
100
AcDbDictionary
281
     1
  3
Normal
350
F
100
AcDbDictionaryWithDefault
340
F
  0
DICTIONARY
  5
2A
102
{ACAD_REACTORS
330
C
102
}
330
C
100
AcDbDictionary
281
     1
  3
2dWireframe
350
2F
  3
3D Hidden
350
31
  3
3dWireframe
350
30
  3
Basic
350
32
  3
Brighten
350
36
  3
ColorChange
350
3A
  3
Conceptual
350
34
  3
Dim
350
35
  3
Facepattern
350
39
  3
Flat
350
2B
  3
FlatWithEdges
350
2C
  3
Gouraud
350
2D
  3
GouraudWithEdges
350
2E
  3
Linepattern
350
38
  3
Realistic
350
33
  3
Thicken
350
37
  0
DICTIONARY
  5
26D
102
{ACAD_REACTORS
330
C
102
}
330
C
100
AcDbDictionary
281
     1
  3
DIMASSOC
350
270
  3
HIDETEXT
350
271
  0
LAYOUT
  5
1E
102
{ACAD_REACTORS
330
1A
102
}
330
1A
100
AcDbPlotSettings
  1

  2
none_device
  4

  6

 40
0.0
 41
0.0
 42
0.0
 43
0.0
 44
0.0
 45
0.0
 46
0.0
 47
0.0
 48
0.0
 49
0.0
140
0.0
141
0.0
142
1.0
143
1.0
 70
   688
 72
     0
 73
     0
 74
     5
  7

 75
    16
147
1.0
148
0.0
149
0.0
100
AcDbLayout
  1
Layout1
 70
     1
 71
     1
 10
0.0
 20
0.0
 11
12.0
 21
9.0
 12
0.0
 22
0.0
 32
0.0
 14
1.00000000000000E+20
 24
1.00000000000000E+20
 34
1.00000000000000E+20
 15
-1.00000000000000E+20
 25
-1.00000000000000E+20
 35
-1.00000000000000E+20
146
0.0
 13
0.0
 23
0.0
 33
0.0
 16
1.0
 26
0.0
 36
0.0
 17
0.0
 27
1.0
 37
0.0
 76
     0
330
1B
  0
LAYOUT
  5
26
102
{ACAD_REACTORS
330
1A
102
}
330
1A
100
AcDbPlotSettings
  1

  2
none_device
  4

  6

 40
0.0
 41
0.0
 42
0.0
 43
0.0
 44
0.0
 45
0.0
 46
0.0
 47
0.0
 48
0.0
 49
0.0
140
0.0
141
0.0
142
1.0
143
1.0
 70
   688
 72
     0
 73
     0
 74
     5
  7

 75
    16
147
1.0
148
0.0
149
0.0
100
AcDbLayout
  1
Layout2
 70
     1
 71
     2
 10
0.0
 20
0.0
 11
0.0
 21
0.0
 12
0.0
 22
0.0
 32
0.0
 14
0.0
 24
0.0
 34
0.0
 15
0.0
 25
0.0
 35
0.0
146
0.0
 13
0.0
 23
0.0
 33
0.0
 16
1.0
 26
0.0
 36
0.0
 17
0.0
 27
1.0
 37
0.0
 76
     0
330
23
  0
LAYOUT
  5
22
102
{ACAD_REACTORS
330
1A
102
}
330
1A
100
AcDbPlotSettings
  1

  2
none_device
  4

  6

 40
0.0
 41
0.0
 42
0.0
 43
0.0
 44
0.0
 45
0.0
 46
0.0
 47
0.0
 48
0.0
 49
0.0
140
0.0
141
0.0
142
1.0
143
1.0
 70
  1712
 72
     0
 73
     0
 74
     0
  7

 75
     0
147
1.0
148
0.0
149
0.0
100
AcDbLayout
  1
Model
 70
     1
 71
     0
 10
0.0
 20
0.0
 11
12.0
 21
9.0
 12
0.0
 22
0.0
 32
0.0
 14
0.0
 24
0.0
 34
0.0
 15
630.0
 25
891.0
 35
0.0
146
0.0
 13
0.0
 23
0.0
 33
0.0
 16
1.0
 26
0.0
 36
0.0
 17
0.0
 27
1.0
 37
0.0
 76
     0
330
1F
331
29
  0
MATERIAL
  5
3D
102
{ACAD_REACTORS
330
3B
102
}
102
{ACAD_XDICTIONARY
360
294
102
}
330
3B
100
AcDbMaterial
  1
ByBlock
  0
MATERIAL
  5
3C
102
{ACAD_REACTORS
330
3B
102
}
102
{ACAD_XDICTIONARY
360
292
102
}
330
3B
100
AcDbMaterial
  1
ByLayer
  0
MATERIAL
  5
3E
102
{ACAD_REACTORS
330
3B
102
}
102
{ACAD_XDICTIONARY
360
296
102
}
330
3B
100
AcDbMaterial
  1
Global
  0
MLINESTYLE
  5
18
102
{ACAD_REACTORS
330
17
102
}
330
17
100
AcDbMlineStyle
  2
Standard
 70
     0
  3

 62
   256
 51
90.0
 52
90.0
 71
     2
 49
0.5
 62
   256
  6
BYLAYER
 49
-0.5
 62
   256
  6
BYLAYER
  0
ACDBPLACEHOLDER
  5
F
102
{ACAD_REACTORS
330
E
102
}
330
E
  0
VISUALSTYLE
  5
2F
102
{ACAD_REACTORS
330
2A
102
}
102
{ACAD_XDICTIONARY
360
27A
102
}
330
2A
100
AcDbVisualStyle
  2
2dWireframe
 70
     4
 71
     0
 72
     2
 73
     0
 90
        0
 40
-0.6
 41
-30.0
 62
     5
 63
     7
 74
     1
 91
        4
 64
     7
 65
   257
 75
     1
175
     1
 42
1.0
 92
        0
 66
   257
 43
1.0
 76
     1
 77
     6
 78
     2
 67
     7
 79
     5
170
     0
171
     0
290
     0
174
     0
 93
        1
 44
0.0
173
     0
291
     0
 45
0.0
1001
ACAD
1000
AcDbSavedByObjectVersion
1070
     0
  0
VISUALSTYLE
  5
31
102
{ACAD_REACTORS
330
2A
102
}
102
{ACAD_XDICTIONARY
360
27E
102
}
330
2A
100
AcDbVisualStyle
  2
3D Hidden
 70
     6
 71
     1
 72
     2
 73
     2
 90
        0
 40
-0.6
 41
-30.0
 62
     5
 63
     7
 74
     2
 91
        2
 64
     7
 65
   257
 75
     2
175
     1
 42
40.0
 92
        0
 66
   257
 43
1.0
 76
     1
 77
     6
 78
     2
 67
     7
 79
     3
170
     0
171
     0
290
     0
174
     0
 93
        1
 44
0.0
173
     0
291
     0
 45
0.0
1001
ACAD
1000
AcDbSavedByObjectVersion
1070
     0
  0
VISUALSTYLE
  5
30
102
{ACAD_REACTORS
330
2A
102
}
102
{ACAD_XDICTIONARY
360
27C
102
}
330
2A
100
AcDbVisualStyle
  2
3dWireframe
 70
     5
 71
     0
 72
     2
 73
     0
 90
        0
 40
-0.6
 41
-30.0
 62
     5
 63
     7
 74
     1
 91
        4
 64
     7
 65
   257
 75
     1
175
     1
 42
1.0
 92
        0
 66
   257
 43
1.0
 76
     1
 77
     6
 78
     2
 67
     7
 79
     5
170
     0
171
     0
290
     0
174
     0
 93
        1
 44
0.0
173
     0
291
     0
 45
0.0
1001
ACAD
1000
AcDbSavedByObjectVersion
1070
     0
  0
VISUALSTYLE
  5
32
102
{ACAD_REACTORS
330
2A
102
}
102
{ACAD_XDICTIONARY
360
280
102
}
330
2A
100
AcDbVisualStyle
  2
Basic
 70
     7
 71
     1
 72
     0
 73
     1
 90
        0
 40
-0.6
 41
-30.0
 62
     5
 63
     7
 74
     0
 91
        4
 64
     7
 65
   257
 75
     1
175
     1
 42
1.0
 92
        8
 66
     7
 43
1.0
 76
     1
 77
     6
 78
     2
 67
     7
 79
     5
170
     0
171
     0
290
     0
174
     0
 93
        1
 44
0.0
173
     0
291
     1
 45
0.0
1001
ACAD
1000
AcDbSavedByObjectVersion
1070
     0
  0
VISUALSTYLE
  5
36
102
{ACAD_REACTORS
330
2A
102
}
102
{ACAD_XDICTIONARY
360
288
102
}
330
2A
100
AcDbVisualStyle
  2
Brighten
 70
    12
 71
     2
 72
     2
 73
     0
 90
        0
 40
-0.6
 41
-30.0
 62
     5
 63
     7
 74
     1
 91
        4
 64
     7
 65
   257
 75
     1
175
     1
 42
1.0
 92
        8
 66
     7
 43
1.0
 76
     1
 77
     6
 78
     2
 67
     7
 79
     5
170
     0
171
     0
290
     0
174
     0
 93
        1
 44
50.0
173
     0
291
     1
 45
0.0
1001
ACAD
1000
AcDbSavedByObjectVersion
1070
     0
  0
VISUALSTYLE
  5
3A
102
{ACAD_REACTORS
330
2A
102
}
102
{ACAD_XDICTIONARY
360
290
102
}
330
2A
100
AcDbVisualStyle
  2
ColorChange
 70
    16
 71
     2
 72
     2
 73
     3
 90
        0
 40
-0.6
 41
-30.0
 62
     5
 63
     8
 74
     1
 91
        4
 64
     7
 65
   257
 75
     1
175
     1
 42
1.0
 92
        8
 66
     8
 43
1.0
 76
     1
 77
     6
 78
     2
 67
     7
 79
     5
170
     0
171
     0
290
     0
174
     0
 93
        1
 44
0.0
173
     0
291
     1
 45
0.0
1001
ACAD
1000
AcDbSavedByObjectVersion
1070
     0
  0
VISUALSTYLE
  5
34
102
{ACAD_REACTORS
330
2A
102
}
102
{ACAD_XDICTIONARY
360
284
102
}
330
2A
100
AcDbVisualStyle
  2
Conceptual
 70
     9
 71
     3
 72
     2
 73
     0
 90
        0
 40
-0.6
 41
-30.0
 62
     5
 63
     7
 74
     2
 91
        2
 64
     7
 65
   257
 75
     1
175
     1
 42
40.0
 92
        8
 66
     7
 43
1.0
 76
     1
 77
     6
 78
     2
 67
     7
 79
     3
170
     0
171
     0
290
     0
174
     0
 93
        1
 44
0.0
173
     0
291
     0
 45
0.0
1001
ACAD
1000
AcDbSavedByObjectVersion
1070
     0
  0
VISUALSTYLE
  5
35
102
{ACAD_REACTORS
330
2A
102
}
102
{ACAD_XDICTIONARY
360
286
102
}
330
2A
100
AcDbVisualStyle
  2
Dim
 70
    11
 71
     2
 72
     2
 73
     0
 90
        0
 40
-0.6
 41
-30.0
 62
     5
 63
     7
 74
     1
 91
        4
 64
     7
 65
   257
 75
     1
175
     1
 42
1.0
 92
        8
 66
     7
 43
1.0
 76
     1
 77
     6
 78
     2
 67
     7
 79
     5
170
     0
171
     0
290
     0
174
     0
 93
        1
 44
-50.0
173
     0
291
     1
 45
0.0
1001
ACAD
1000
AcDbSavedByObjectVersion
1070
     0
  0
VISUALSTYLE
  5
39
102
{ACAD_REACTORS
330
2A
102
}
102
{ACAD_XDICTIONARY
360
28E
102
}
330
2A
100
AcDbVisualStyle
  2
Facepattern
 70
    15
 71
     2
 72
     2
 73
     0
 90
        0
 40
-0.6
 41
-30.0
 62
     5
 63
     7
 74
     1
 91
        4
 64
     7
 65
   257
 75
     1
175
     1
 42
1.0
 92
        8
 66
     7
 43
1.0
 76
     1
 77
     6
 78
     2
 67
     7
 79
     5
170
     0
171
     0
290
     0
174
     0
 93
        1
 44
0.0
173
     0
291
     1
 45
0.0
1001
ACAD
1000
AcDbSavedByObjectVersion
1070
     0
  0
VISUALSTYLE
  5
2B
102
{ACAD_REACTORS
330
2A
102
}
102
{ACAD_XDICTIONARY
360
272
102
}
330
2A
100
AcDbVisualStyle
  2
Flat
 70
     0
 71
     2
 72
     1
 73
     1
 90
        2
 40
-0.6
 41
30.0
 62
     5
 63
     7
 74
     0
 91
        4
 64
     7
 65
   257
 75
     1
175
     1
 42
1.0
 92
        8
 66
     7
 43
1.0
 76
     1
 77
     6
 78
     2
 67
     7
 79
     5
170
     0
171
     0
290
     0
174
     0
 93
       13
 44
0.0
173
     0
291
     1
 45
0.0
1001
ACAD
1000
AcDbSavedByObjectVersion
1070
     0
  0
VISUALSTYLE
  5
2C
102
{ACAD_REACTORS
330
2A
102
}
102
{ACAD_XDICTIONARY
360
274
102
}
330
2A
100
AcDbVisualStyle
  2
FlatWithEdges
 70
     1
 71
     2
 72
     1
 73
     1
 90
        2
 40
-0.6
 41
30.0
 62
     5
 63
     7
 74
     1
 91
        4
 64
     7
 65
   257
 75
     1
175
     1
 42
1.0
 92
        0
 66
   257
 43
1.0
 76
     1
 77
     6
 78
     2
 67
     7
 79
     5
170
     0
171
     0
290
     0
174
     0
 93
       13
 44
0.0
173
     0
291
     1
 45
0.0
1001
ACAD
1000
AcDbSavedByObjectVersion
1070
     0
  0
VISUALSTYLE
  5
2D
102
{ACAD_REACTORS
330
2A
102
}
102
{ACAD_XDICTIONARY
360
276
102
}
330
2A
100
AcDbVisualStyle
  2
Gouraud
 70
     2
 71
     2
 72
     2
 73
     1
 90
        2
 40
-0.6
 41
30.0
 62
     5
 63
     7
 74
     0
 91
        4
 64
     7
 65
   257
 75
     1
175
     1
 42
1.0
 92
        0
 66
     7
 43
1.0
 76
     1
 77
     6
 78
     2
 67
     7
 79
     5
170
     0
171
     0
290
     0
174
     0
 93
       13
 44
0.0
173
     0
291
     1
 45
0.0
1001
ACAD
1000
AcDbSavedByObjectVersion
1070
     0
  0
VISUALSTYLE
  5
2E
102
{ACAD_REACTORS
330
2A
102
}
102
{ACAD_XDICTIONARY
360
278
102
}
330
2A
100
AcDbVisualStyle
  2
GouraudWithEdges
 70
     3
 71
     2
 72
     2
 73
     1
 90
        2
 40
-0.6
 41
30.0
 62
     5
 63
     7
 74
     1
 91
        4
 64
     7
 65
   257
 75
     1
175
     1
 42
1.0
 92
        0
 66
   257
 43
1.0
 76
     1
 77
     6
 78
     2
 67
     7
 79
     5
170
     0
171
     0
290
     0
174
     0
 93
       13
 44
0.0
173
     0
291
     1
 45
0.0
1001
ACAD
1000
AcDbSavedByObjectVersion
1070
     0
  0
VISUALSTYLE
  5
38
102
{ACAD_REACTORS
330
2A
102
}
102
{ACAD_XDICTIONARY
360
28C
102
}
330
2A
100
AcDbVisualStyle
  2
Linepattern
 70
    14
 71
     2
 72
     2
 73
     0
 90
        0
 40
-0.6
 41
-30.0
 62
     5
 63
     7
 74
     1
 91
        4
 64
     7
 65
   257
 75
     7
175
     7
 42
1.0
 92
        8
 66
     7
 43
1.0
 76
     1
 77
     6
 78
     2
 67
     7
 79
     5
170
     0
171
     0
290
     0
174
     0
 93
        1
 44
0.0
173
     0
291
     1
 45
0.0
1001
ACAD
1000
AcDbSavedByObjectVersion
1070
     0
  0
VISUALSTYLE
  5
33
102
{ACAD_REACTORS
330
2A
102
}
102
{ACAD_XDICTIONARY
360
282
102
}
330
2A
100
AcDbVisualStyle
  2
Realistic
 70
     8
 71
     2
 72
     2
 73
     0
 90
        0
 40
-0.6
 41
-30.0
 62
     5
 63
     7
 74
     1
 91
        0
 64
     7
 65
   257
 75
     1
175
     1
 42
1.0
 92
        8
 66
     8
 43
1.0
 76
     1
 77
     6
 78
     2
 67
     7
 79
     5
170
     0
171
     0
290
     0
174
     0
 93
       13
 44
0.0
173
     0
291
     0
 45
0.0
1001
ACAD
1000
AcDbSavedByObjectVersion
1070
     0
  0
VISUALSTYLE
  5
37
102
{ACAD_REACTORS
330
2A
102
}
102
{ACAD_XDICTIONARY
360
28A
102
}
330
2A
100
AcDbVisualStyle
  2
Thicken
 70
    13
 71
     2
 72
     2
 73
     0
 90
        0
 40
-0.6
 41
-30.0
 62
     5
 63
     7
 74
     1
 91
        4
 64
     7
 65
   257
 75
     1
175
     1
 42
1.0
 92
       12
 66
     7
 43
1.0
 76
     1
 77
     6
 78
     2
 67
     7
 79
     5
170
     0
171
     0
290
     0
174
     0
 93
        1
 44
0.0
173
     0
291
     1
 45
0.0
1001
ACAD
1000
AcDbSavedByObjectVersion
1070
     0
  0
DICTIONARYVAR
  5
270
102
{ACAD_REACTORS
330
26D
102
}
330
26D
100
DictionaryVariables
280
     0
  1
2
  0
DICTIONARYVAR
  5
271
102
{ACAD_REACTORS
330
26D
102
}
330
26D
100
DictionaryVariables
280
     0
  1
1
  0
DICTIONARY
  5
294
330
3D
100
AcDbDictionary
280
     1
281
     1
  3
ACAD_XREC_ROUNDTRIP
360
295
  0
DICTIONARY
  5
292
330
3C
100
AcDbDictionary
280
     1
281
     1
  3
ACAD_XREC_ROUNDTRIP
360
293
  0
DICTIONARY
  5
296
330
3E
100
AcDbDictionary
280
     1
281
     1
  3
ACAD_XREC_ROUNDTRIP
360
297
  0
DICTIONARY
  5
27A
330
2F
100
AcDbDictionary
280
     1
281
     1
  3
ACAD_XREC_ROUNDTRIP
360
27B
  0
DICTIONARY
  5
27E
330
31
100
AcDbDictionary
280
     1
281
     1
  3
ACAD_XREC_ROUNDTRIP
360
27F
  0
DICTIONARY
  5
27C
330
30
100
AcDbDictionary
280
     1
281
     1
  3
ACAD_XREC_ROUNDTRIP
360
27D
  0
DICTIONARY
  5
280
330
32
100
AcDbDictionary
280
     1
281
     1
  3
ACAD_XREC_ROUNDTRIP
360
281
  0
DICTIONARY
  5
288
330
36
100
AcDbDictionary
280
     1
281
     1
  3
ACAD_XREC_ROUNDTRIP
360
289
  0
DICTIONARY
  5
290
330
3A
100
AcDbDictionary
280
     1
281
     1
  3
ACAD_XREC_ROUNDTRIP
360
291
  0
DICTIONARY
  5
284
330
34
100
AcDbDictionary
280
     1
281
     1
  3
ACAD_XREC_ROUNDTRIP
360
285
  0
DICTIONARY
  5
286
330
35
100
AcDbDictionary
280
     1
281
     1
  3
ACAD_XREC_ROUNDTRIP
360
287
  0
DICTIONARY
  5
28E
330
39
100
AcDbDictionary
280
     1
281
     1
  3
ACAD_XREC_ROUNDTRIP
360
28F
  0
DICTIONARY
  5
272
330
2B
100
AcDbDictionary
280
     1
281
     1
  3
ACAD_XREC_ROUNDTRIP
360
273
  0
DICTIONARY
  5
274
330
2C
100
AcDbDictionary
280
     1
281
     1
  3
ACAD_XREC_ROUNDTRIP
360
275
  0
DICTIONARY
  5
276
330
2D
100
AcDbDictionary
280
     1
281
     1
  3
ACAD_XREC_ROUNDTRIP
360
277
  0
DICTIONARY
  5
278
330
2E
100
AcDbDictionary
280
     1
281
     1
  3
ACAD_XREC_ROUNDTRIP
360
279
  0
DICTIONARY
  5
28C
330
38
100
AcDbDictionary
280
     1
281
     1
  3
ACAD_XREC_ROUNDTRIP
360
28D
  0
DICTIONARY
  5
282
330
33
100
AcDbDictionary
280
     1
281
     1
  3
ACAD_XREC_ROUNDTRIP
360
283
  0
DICTIONARY
  5
28A
330
37
100
AcDbDictionary
280
     1
281
     1
  3
ACAD_XREC_ROUNDTRIP
360
28B
  0
XRECORD
  5
295
102
{ACAD_REACTORS
330
294
102
}
330
294
100
AcDbXrecord
280
     1
102
MATERIAL
148
0.0
149
0.0
149
0.0
 93
        0
 94
      127
282
     0
 72
     1
 77
     1
171
     1
175
     1
179
     1
273
     0
  0
XRECORD
  5
293
102
{ACAD_REACTORS
330
292
102
}
330
292
100
AcDbXrecord
280
     1
102
MATERIAL
148
0.0
149
0.0
149
0.0
 93
        0
 94
      127
282
     0
 72
     1
 77
     1
171
     1
175
     1
179
     1
273
     0
  0
XRECORD
  5
297
102
{ACAD_REACTORS
330
296
102
}
330
296
100
AcDbXrecord
280
     1
102
MATERIAL
148
0.0
149
0.0
149
0.0
 93
        0
 94
      127
282
     0
 72
     1
 77
     1
171
     1
175
     1
179
     1
273
     0
  0
XRECORD
  5
27B
102
{ACAD_REACTORS
330
27A
102
}
330
27A
100
AcDbXrecord
280
     1
102
RTVSPropertyOp0
 70
     1
102
RTVSPropertyOp1
 70
     1
102
RTVSPropertyOp2
 70
     1
102
RTVSPropertyOp3
 70
     1
102
RTVSPropertyOp4
 70
     1
102
RTVSPropertyOp5
 70
     1
102
RTVSPropertyOp6
 70
     1
102
RTVSPropertyOp7
 70
     1
102
RTVSPropertyOp8
 70
     1
102
RTVSPropertyOp9
 70
     1
102
RTVSPropertyOp10
 70
     1
102
RTVSPropertyOp11
 70
     1
102
RTVSPropertyOp12
 70
     1
102
RTVSPropertyOp13
 70
     1
102
RTVSPropertyOp14
 70
     1
102
RTVSPropertyOp15
 70
     1
102
RTVSPropertyOp16
 70
     1
102
RTVSPropertyOp17
 70
     1
102
RTVSPropertyOp18
 70
     1
102
RTVSPropertyOp19
 70
     1
102
RTVSPropertyOp20
 70
     1
102
RTVSPropertyOp21
 70
     1
102
RTVSPropertyOp22
 70
     1
102
RTVSPropertyOp23
 70
     1
102
RTVSPropertyOp24
 70
     1
102
RTVSPropertyOp25
 70
     1
102
RTVSPropertyOp26
 70
     1
102
RTVSPropertyOp27
 70
     1
102
RTVSPropertyOp28
 70
     1
102
RTVSPropertyOp29
 70
     1
102
RTVSPropertyOp30
 70
     1
102
RTVSPropertyOp31
 70
     1
102
RTVSPropertyOp32
 70
     1
  0
XRECORD
  5
27F
102
{ACAD_REACTORS
330
27E
102
}
330
27E
100
AcDbXrecord
280
     1
102
RTVSPropertyOp0
 70
     1
102
RTVSPropertyOp1
 70
     1
102
RTVSPropertyOp2
 70
     1
102
RTVSPropertyOp3
 70
     1
102
RTVSPropertyOp4
 70
     1
102
RTVSPropertyOp5
 70
     1
102
RTVSPropertyOp6
 70
     1
102
RTVSPropertyOp7
 70
     1
102
RTVSPropertyOp8
 70
     1
102
RTVSPropertyOp9
 70
     1
102
RTVSPropertyOp10
 70
     1
102
RTVSPropertyOp11
 70
     1
102
RTVSPropertyOp12
 70
     1
102
RTVSPropertyOp13
 70
     1
102
RTVSPropertyOp14
 70
     1
102
RTVSPropertyOp15
 70
     1
102
RTVSPropertyOp16
 70
     1
102
RTVSPropertyOp17
 70
     1
102
RTVSPropertyOp18
 70
     1
102
RTVSPropertyOp19
 70
     1
102
RTVSPropertyOp20
 70
     1
102
RTVSPropertyOp21
 70
     1
102
RTVSPropertyOp22
 70
     1
102
RTVSPropertyOp23
 70
     1
102
RTVSPropertyOp24
 70
     1
102
RTVSPropertyOp25
 70
     1
102
RTVSPropertyOp26
 70
     1
102
RTVSPropertyOp27
 70
     1
102
RTVSPropertyOp28
 70
     1
102
RTVSPropertyOp29
 70
     1
102
RTVSPropertyOp30
 70
     1
102
RTVSPropertyOp31
 70
     1
102
RTVSPropertyOp32
 70
     1
  0
XRECORD
  5
27D
102
{ACAD_REACTORS
330
27C
102
}
330
27C
100
AcDbXrecord
280
     1
102
RTVSPropertyOp0
 70
     1
102
RTVSPropertyOp1
 70
     1
102
RTVSPropertyOp2
 70
     1
102
RTVSPropertyOp3
 70
     1
102
RTVSPropertyOp4
 70
     1
102
RTVSPropertyOp5
 70
     1
102
RTVSPropertyOp6
 70
     1
102
RTVSPropertyOp7
 70
     1
102
RTVSPropertyOp8
 70
     1
102
RTVSPropertyOp9
 70
     1
102
RTVSPropertyOp10
 70
     1
102
RTVSPropertyOp11
 70
     1
102
RTVSPropertyOp12
 70
     1
102
RTVSPropertyOp13
 70
     1
102
RTVSPropertyOp14
 70
     1
102
RTVSPropertyOp15
 70
     1
102
RTVSPropertyOp16
 70
     1
102
RTVSPropertyOp17
 70
     1
102
RTVSPropertyOp18
 70
     1
102
RTVSPropertyOp19
 70
     1
102
RTVSPropertyOp20
 70
     1
102
RTVSPropertyOp21
 70
     1
102
RTVSPropertyOp22
 70
     1
102
RTVSPropertyOp23
 70
     1
102
RTVSPropertyOp24
 70
     1
102
RTVSPropertyOp25
 70
     1
102
RTVSPropertyOp26
 70
     1
102
RTVSPropertyOp27
 70
     1
102
RTVSPropertyOp28
 70
     1
102
RTVSPropertyOp29
 70
     1
102
RTVSPropertyOp30
 70
     1
102
RTVSPropertyOp31
 70
     1
102
RTVSPropertyOp32
 70
     1
  0
XRECORD
  5
281
102
{ACAD_REACTORS
330
280
102
}
330
280
100
AcDbXrecord
280
     1
102
RTVSPropertyOp0
 70
     1
102
RTVSPropertyOp1
 70
     1
102
RTVSPropertyOp2
 70
     1
102
RTVSPropertyOp3
 70
     1
102
RTVSPropertyOp4
 70
     1
102
RTVSPropertyOp5
 70
     1
102
RTVSPropertyOp6
 70
     1
102
RTVSPropertyOp7
 70
     1
102
RTVSPropertyOp8
 70
     1
102
RTVSPropertyOp9
 70
     1
102
RTVSPropertyOp10
 70
     1
102
RTVSPropertyOp11
 70
     1
102
RTVSPropertyOp12
 70
     1
102
RTVSPropertyOp13
 70
     1
102
RTVSPropertyOp14
 70
     1
102
RTVSPropertyOp15
 70
     1
102
RTVSPropertyOp16
 70
     1
102
RTVSPropertyOp17
 70
     1
102
RTVSPropertyOp18
 70
     1
102
RTVSPropertyOp19
 70
     1
102
RTVSPropertyOp20
 70
     1
102
RTVSPropertyOp21
 70
     1
102
RTVSPropertyOp22
 70
     1
102
RTVSPropertyOp23
 70
     1
102
RTVSPropertyOp24
 70
     1
102
RTVSPropertyOp25
 70
     1
102
RTVSPropertyOp26
 70
     1
102
RTVSPropertyOp27
 70
     1
102
RTVSPropertyOp28
 70
     1
102
RTVSPropertyOp29
 70
     1
102
RTVSPropertyOp30
 70
     1
102
RTVSPropertyOp31
 70
     1
102
RTVSPropertyOp32
 70
     1
  0
XRECORD
  5
289
102
{ACAD_REACTORS
330
288
102
}
330
288
100
AcDbXrecord
280
     1
102
RTVSPropertyOp0
 70
     1
102
RTVSPropertyOp1
 70
     1
102
RTVSPropertyOp2
 70
     1
102
RTVSPropertyOp3
 70
     1
102
RTVSPropertyOp4
 70
     1
102
RTVSPropertyOp5
 70
     1
102
RTVSPropertyOp6
 70
     1
102
RTVSPropertyOp7
 70
     1
102
RTVSPropertyOp8
 70
     1
102
RTVSPropertyOp9
 70
     1
102
RTVSPropertyOp10
 70
     1
102
RTVSPropertyOp11
 70
     1
102
RTVSPropertyOp12
 70
     1
102
RTVSPropertyOp13
 70
     1
102
RTVSPropertyOp14
 70
     1
102
RTVSPropertyOp15
 70
     1
102
RTVSPropertyOp16
 70
     1
102
RTVSPropertyOp17
 70
     1
102
RTVSPropertyOp18
 70
     1
102
RTVSPropertyOp19
 70
     1
102
RTVSPropertyOp20
 70
     1
102
RTVSPropertyOp21
 70
     1
102
RTVSPropertyOp22
 70
     1
102
RTVSPropertyOp23
 70
     1
102
RTVSPropertyOp24
 70
     1
102
RTVSPropertyOp25
 70
     1
102
RTVSPropertyOp26
 70
     1
102
RTVSPropertyOp27
 70
     1
102
RTVSPropertyOp28
 70
     1
102
RTVSPropertyOp29
 70
     1
102
RTVSPropertyOp30
 70
     1
102
RTVSPropertyOp31
 70
     1
102
RTVSPropertyOp32
 70
     1
  0
XRECORD
  5
291
102
{ACAD_REACTORS
330
290
102
}
330
290
100
AcDbXrecord
280
     1
102
RTVSPropertyOp0
 70
     1
102
RTVSPropertyOp1
 70
     1
102
RTVSPropertyOp2
 70
     1
102
RTVSPropertyOp3
 70
     1
102
RTVSPropertyOp4
 70
     1
102
RTVSPropertyOp5
 70
     1
102
RTVSPropertyOp6
 70
     1
102
RTVSPropertyOp7
 70
     1
102
RTVSPropertyOp8
 70
     1
102
RTVSPropertyOp9
 70
     1
102
RTVSPropertyOp10
 70
     1
102
RTVSPropertyOp11
 70
     1
102
RTVSPropertyOp12
 70
     1
102
RTVSPropertyOp13
 70
     1
102
RTVSPropertyOp14
 70
     1
102
RTVSPropertyOp15
 70
     1
102
RTVSPropertyOp16
 70
     1
102
RTVSPropertyOp17
 70
     1
102
RTVSPropertyOp18
 70
     1
102
RTVSPropertyOp19
 70
     1
102
RTVSPropertyOp20
 70
     1
102
RTVSPropertyOp21
 70
     1
102
RTVSPropertyOp22
 70
     1
102
RTVSPropertyOp23
 70
     1
102
RTVSPropertyOp24
 70
     1
102
RTVSPropertyOp25
 70
     1
102
RTVSPropertyOp26
 70
     1
102
RTVSPropertyOp27
 70
     1
102
RTVSPropertyOp28
 70
     1
102
RTVSPropertyOp29
 70
     1
102
RTVSPropertyOp30
 70
     1
102
RTVSPropertyOp31
 70
     1
102
RTVSPropertyOp32
 70
     1
  0
XRECORD
  5
285
102
{ACAD_REACTORS
330
284
102
}
330
284
100
AcDbXrecord
280
     1
102
RTVSPropertyOp0
 70
     1
102
RTVSPropertyOp1
 70
     1
102
RTVSPropertyOp2
 70
     1
102
RTVSPropertyOp3
 70
     1
102
RTVSPropertyOp4
 70
     1
102
RTVSPropertyOp5
 70
     1
102
RTVSPropertyOp6
 70
     1
102
RTVSPropertyOp7
 70
     1
102
RTVSPropertyOp8
 70
     1
102
RTVSPropertyOp9
 70
     1
102
RTVSPropertyOp10
 70
     1
102
RTVSPropertyOp11
 70
     1
102
RTVSPropertyOp12
 70
     1
102
RTVSPropertyOp13
 70
     1
102
RTVSPropertyOp14
 70
     1
102
RTVSPropertyOp15
 70
     1
102
RTVSPropertyOp16
 70
     1
102
RTVSPropertyOp17
 70
     1
102
RTVSPropertyOp18
 70
     1
102
RTVSPropertyOp19
 70
     1
102
RTVSPropertyOp20
 70
     1
102
RTVSPropertyOp21
 70
     1
102
RTVSPropertyOp22
 70
     1
102
RTVSPropertyOp23
 70
     1
102
RTVSPropertyOp24
 70
     1
102
RTVSPropertyOp25
 70
     1
102
RTVSPropertyOp26
 70
     1
102
RTVSPropertyOp27
 70
     1
102
RTVSPropertyOp28
 70
     1
102
RTVSPropertyOp29
 70
     1
102
RTVSPropertyOp30
 70
     1
102
RTVSPropertyOp31
 70
     1
102
RTVSPropertyOp32
 70
     1
  0
XRECORD
  5
287
102
{ACAD_REACTORS
330
286
102
}
330
286
100
AcDbXrecord
280
     1
102
RTVSPropertyOp0
 70
     1
102
RTVSPropertyOp1
 70
     1
102
RTVSPropertyOp2
 70
     1
102
RTVSPropertyOp3
 70
     1
102
RTVSPropertyOp4
 70
     1
102
RTVSPropertyOp5
 70
     1
102
RTVSPropertyOp6
 70
     1
102
RTVSPropertyOp7
 70
     1
102
RTVSPropertyOp8
 70
     1
102
RTVSPropertyOp9
 70
     1
102
RTVSPropertyOp10
 70
     1
102
RTVSPropertyOp11
 70
     1
102
RTVSPropertyOp12
 70
     1
102
RTVSPropertyOp13
 70
     1
102
RTVSPropertyOp14
 70
     1
102
RTVSPropertyOp15
 70
     1
102
RTVSPropertyOp16
 70
     1
102
RTVSPropertyOp17
 70
     1
102
RTVSPropertyOp18
 70
     1
102
RTVSPropertyOp19
 70
     1
102
RTVSPropertyOp20
 70
     1
102
RTVSPropertyOp21
 70
     1
102
RTVSPropertyOp22
 70
     1
102
RTVSPropertyOp23
 70
     1
102
RTVSPropertyOp24
 70
     1
102
RTVSPropertyOp25
 70
     1
102
RTVSPropertyOp26
 70
     1
102
RTVSPropertyOp27
 70
     1
102
RTVSPropertyOp28
 70
     1
102
RTVSPropertyOp29
 70
     1
102
RTVSPropertyOp30
 70
     1
102
RTVSPropertyOp31
 70
     1
102
RTVSPropertyOp32
 70
     1
  0
XRECORD
  5
28F
102
{ACAD_REACTORS
330
28E
102
}
330
28E
100
AcDbXrecord
280
     1
102
RTVSPropertyOp0
 70
     1
102
RTVSPropertyOp1
 70
     1
102
RTVSPropertyOp2
 70
     1
102
RTVSPropertyOp3
 70
     1
102
RTVSPropertyOp4
 70
     1
102
RTVSPropertyOp5
 70
     1
102
RTVSPropertyOp6
 70
     1
102
RTVSPropertyOp7
 70
     1
102
RTVSPropertyOp8
 70
     1
102
RTVSPropertyOp9
 70
     1
102
RTVSPropertyOp10
 70
     1
102
RTVSPropertyOp11
 70
     1
102
RTVSPropertyOp12
 70
     1
102
RTVSPropertyOp13
 70
     1
102
RTVSPropertyOp14
 70
     1
102
RTVSPropertyOp15
 70
     1
102
RTVSPropertyOp16
 70
     1
102
RTVSPropertyOp17
 70
     1
102
RTVSPropertyOp18
 70
     1
102
RTVSPropertyOp19
 70
     1
102
RTVSPropertyOp20
 70
     1
102
RTVSPropertyOp21
 70
     1
102
RTVSPropertyOp22
 70
     1
102
RTVSPropertyOp23
 70
     1
102
RTVSPropertyOp24
 70
     1
102
RTVSPropertyOp25
 70
     1
102
RTVSPropertyOp26
 70
     1
102
RTVSPropertyOp27
 70
     1
102
RTVSPropertyOp28
 70
     1
102
RTVSPropertyOp29
 70
     1
102
RTVSPropertyOp30
 70
     1
102
RTVSPropertyOp31
 70
     1
102
RTVSPropertyOp32
 70
     1
  0
XRECORD
  5
273
102
{ACAD_REACTORS
330
272
102
}
330
272
100
AcDbXrecord
280
     1
102
RTVSPropertyOp0
 70
     1
102
RTVSPropertyOp1
 70
     1
102
RTVSPropertyOp2
 70
     1
102
RTVSPropertyOp3
 70
     1
102
RTVSPropertyOp4
 70
     1
102
RTVSPropertyOp5
 70
     1
102
RTVSPropertyOp6
 70
     1
102
RTVSPropertyOp7
 70
     1
102
RTVSPropertyOp8
 70
     1
102
RTVSPropertyOp9
 70
     1
102
RTVSPropertyOp10
 70
     1
102
RTVSPropertyOp11
 70
     1
102
RTVSPropertyOp12
 70
     1
102
RTVSPropertyOp13
 70
     1
102
RTVSPropertyOp14
 70
     1
102
RTVSPropertyOp15
 70
     1
102
RTVSPropertyOp16
 70
     1
102
RTVSPropertyOp17
 70
     1
102
RTVSPropertyOp18
 70
     1
102
RTVSPropertyOp19
 70
     1
102
RTVSPropertyOp20
 70
     1
102
RTVSPropertyOp21
 70
     1
102
RTVSPropertyOp22
 70
     1
102
RTVSPropertyOp23
 70
     1
102
RTVSPropertyOp24
 70
     1
102
RTVSPropertyOp25
 70
     1
102
RTVSPropertyOp26
 70
     1
102
RTVSPropertyOp27
 70
     1
102
RTVSPropertyOp28
 70
     1
102
RTVSPropertyOp29
 70
     1
102
RTVSPropertyOp30
 70
     1
102
RTVSPropertyOp31
 70
     1
102
RTVSPropertyOp32
 70
     1
  0
XRECORD
  5
275
102
{ACAD_REACTORS
330
274
102
}
330
274
100
AcDbXrecord
280
     1
102
RTVSPropertyOp0
 70
     1
102
RTVSPropertyOp1
 70
     1
102
RTVSPropertyOp2
 70
     1
102
RTVSPropertyOp3
 70
     1
102
RTVSPropertyOp4
 70
     1
102
RTVSPropertyOp5
 70
     1
102
RTVSPropertyOp6
 70
     1
102
RTVSPropertyOp7
 70
     1
102
RTVSPropertyOp8
 70
     1
102
RTVSPropertyOp9
 70
     1
102
RTVSPropertyOp10
 70
     1
102
RTVSPropertyOp11
 70
     1
102
RTVSPropertyOp12
 70
     1
102
RTVSPropertyOp13
 70
     1
102
RTVSPropertyOp14
 70
     1
102
RTVSPropertyOp15
 70
     1
102
RTVSPropertyOp16
 70
     1
102
RTVSPropertyOp17
 70
     1
102
RTVSPropertyOp18
 70
     1
102
RTVSPropertyOp19
 70
     1
102
RTVSPropertyOp20
 70
     1
102
RTVSPropertyOp21
 70
     1
102
RTVSPropertyOp22
 70
     1
102
RTVSPropertyOp23
 70
     1
102
RTVSPropertyOp24
 70
     1
102
RTVSPropertyOp25
 70
     1
102
RTVSPropertyOp26
 70
     1
102
RTVSPropertyOp27
 70
     1
102
RTVSPropertyOp28
 70
     1
102
RTVSPropertyOp29
 70
     1
102
RTVSPropertyOp30
 70
     1
102
RTVSPropertyOp31
 70
     1
102
RTVSPropertyOp32
 70
     1
  0
XRECORD
  5
277
102
{ACAD_REACTORS
330
276
102
}
330
276
100
AcDbXrecord
280
     1
102
RTVSPropertyOp0
 70
     1
102
RTVSPropertyOp1
 70
     1
102
RTVSPropertyOp2
 70
     1
102
RTVSPropertyOp3
 70
     1
102
RTVSPropertyOp4
 70
     1
102
RTVSPropertyOp5
 70
     1
102
RTVSPropertyOp6
 70
     1
102
RTVSPropertyOp7
 70
     1
102
RTVSPropertyOp8
 70
     1
102
RTVSPropertyOp9
 70
     1
102
RTVSPropertyOp10
 70
     1
102
RTVSPropertyOp11
 70
     1
102
RTVSPropertyOp12
 70
     1
102
RTVSPropertyOp13
 70
     1
102
RTVSPropertyOp14
 70
     1
102
RTVSPropertyOp15
 70
     1
102
RTVSPropertyOp16
 70
     1
102
RTVSPropertyOp17
 70
     1
102
RTVSPropertyOp18
 70
     1
102
RTVSPropertyOp19
 70
     1
102
RTVSPropertyOp20
 70
     1
102
RTVSPropertyOp21
 70
     1
102
RTVSPropertyOp22
 70
     1
102
RTVSPropertyOp23
 70
     1
102
RTVSPropertyOp24
 70
     1
102
RTVSPropertyOp25
 70
     1
102
RTVSPropertyOp26
 70
     1
102
RTVSPropertyOp27
 70
     1
102
RTVSPropertyOp28
 70
     1
102
RTVSPropertyOp29
 70
     1
102
RTVSPropertyOp30
 70
     1
102
RTVSPropertyOp31
 70
     1
102
RTVSPropertyOp32
 70
     1
  0
XRECORD
  5
279
102
{ACAD_REACTORS
330
278
102
}
330
278
100
AcDbXrecord
280
     1
102
RTVSPropertyOp0
 70
     1
102
RTVSPropertyOp1
 70
     1
102
RTVSPropertyOp2
 70
     1
102
RTVSPropertyOp3
 70
     1
102
RTVSPropertyOp4
 70
     1
102
RTVSPropertyOp5
 70
     1
102
RTVSPropertyOp6
 70
     1
102
RTVSPropertyOp7
 70
     1
102
RTVSPropertyOp8
 70
     1
102
RTVSPropertyOp9
 70
     1
102
RTVSPropertyOp10
 70
     1
102
RTVSPropertyOp11
 70
     1
102
RTVSPropertyOp12
 70
     1
102
RTVSPropertyOp13
 70
     1
102
RTVSPropertyOp14
 70
     1
102
RTVSPropertyOp15
 70
     1
102
RTVSPropertyOp16
 70
     1
102
RTVSPropertyOp17
 70
     1
102
RTVSPropertyOp18
 70
     1
102
RTVSPropertyOp19
 70
     1
102
RTVSPropertyOp20
 70
     1
102
RTVSPropertyOp21
 70
     1
102
RTVSPropertyOp22
 70
     1
102
RTVSPropertyOp23
 70
     1
102
RTVSPropertyOp24
 70
     1
102
RTVSPropertyOp25
 70
     1
102
RTVSPropertyOp26
 70
     1
102
RTVSPropertyOp27
 70
     1
102
RTVSPropertyOp28
 70
     1
102
RTVSPropertyOp29
 70
     1
102
RTVSPropertyOp30
 70
     1
102
RTVSPropertyOp31
 70
     1
102
RTVSPropertyOp32
 70
     1
  0
XRECORD
  5
28D
102
{ACAD_REACTORS
330
28C
102
}
330
28C
100
AcDbXrecord
280
     1
102
RTVSPropertyOp0
 70
     1
102
RTVSPropertyOp1
 70
     1
102
RTVSPropertyOp2
 70
     1
102
RTVSPropertyOp3
 70
     1
102
RTVSPropertyOp4
 70
     1
102
RTVSPropertyOp5
 70
     1
102
RTVSPropertyOp6
 70
     1
102
RTVSPropertyOp7
 70
     1
102
RTVSPropertyOp8
 70
     1
102
RTVSPropertyOp9
 70
     1
102
RTVSPropertyOp10
 70
     1
102
RTVSPropertyOp11
 70
     1
102
RTVSPropertyOp12
 70
     1
102
RTVSPropertyOp13
 70
     1
102
RTVSPropertyOp14
 70
     1
102
RTVSPropertyOp15
 70
     1
102
RTVSPropertyOp16
 70
     1
102
RTVSPropertyOp17
 70
     1
102
RTVSPropertyOp18
 70
     1
102
RTVSPropertyOp19
 70
     1
102
RTVSPropertyOp20
 70
     1
102
RTVSPropertyOp21
 70
     1
102
RTVSPropertyOp22
 70
     1
102
RTVSPropertyOp23
 70
     1
102
RTVSPropertyOp24
 70
     1
102
RTVSPropertyOp25
 70
     1
102
RTVSPropertyOp26
 70
     1
102
RTVSPropertyOp27
 70
     1
102
RTVSPropertyOp28
 70
     1
102
RTVSPropertyOp29
 70
     1
102
RTVSPropertyOp30
 70
     1
102
RTVSPropertyOp31
 70
     1
102
RTVSPropertyOp32
 70
     1
  0
XRECORD
  5
283
102
{ACAD_REACTORS
330
282
102
}
330
282
100
AcDbXrecord
280
     1
102
RTVSPropertyOp0
 70
     1
102
RTVSPropertyOp1
 70
     1
102
RTVSPropertyOp2
 70
     1
102
RTVSPropertyOp3
 70
     1
102
RTVSPropertyOp4
 70
     1
102
RTVSPropertyOp5
 70
     1
102
RTVSPropertyOp6
 70
     1
102
RTVSPropertyOp7
 70
     1
102
RTVSPropertyOp8
 70
     1
102
RTVSPropertyOp9
 70
     1
102
RTVSPropertyOp10
 70
     1
102
RTVSPropertyOp11
 70
     1
102
RTVSPropertyOp12
 70
     1
102
RTVSPropertyOp13
 70
     1
102
RTVSPropertyOp14
 70
     1
102
RTVSPropertyOp15
 70
     1
102
RTVSPropertyOp16
 70
     1
102
RTVSPropertyOp17
 70
     1
102
RTVSPropertyOp18
 70
     1
102
RTVSPropertyOp19
 70
     1
102
RTVSPropertyOp20
 70
     1
102
RTVSPropertyOp21
 70
     1
102
RTVSPropertyOp22
 70
     1
102
RTVSPropertyOp23
 70
     1
102
RTVSPropertyOp24
 70
     1
102
RTVSPropertyOp25
 70
     1
102
RTVSPropertyOp26
 70
     1
102
RTVSPropertyOp27
 70
     1
102
RTVSPropertyOp28
 70
     1
102
RTVSPropertyOp29
 70
     1
102
RTVSPropertyOp30
 70
     1
102
RTVSPropertyOp31
 70
     1
102
RTVSPropertyOp32
 70
     1
  0
XRECORD
  5
28B
102
{ACAD_REACTORS
330
28A
102
}
330
28A
100
AcDbXrecord
280
     1
102
RTVSPropertyOp0
 70
     1
102
RTVSPropertyOp1
 70
     1
102
RTVSPropertyOp2
 70
     1
102
RTVSPropertyOp3
 70
     1
102
RTVSPropertyOp4
 70
     1
102
RTVSPropertyOp5
 70
     1
102
RTVSPropertyOp6
 70
     1
102
RTVSPropertyOp7
 70
     1
102
RTVSPropertyOp8
 70
     1
102
RTVSPropertyOp9
 70
     1
102
RTVSPropertyOp10
 70
     1
102
RTVSPropertyOp11
 70
     1
102
RTVSPropertyOp12
 70
     1
102
RTVSPropertyOp13
 70
     1
102
RTVSPropertyOp14
 70
     1
102
RTVSPropertyOp15
 70
     1
102
RTVSPropertyOp16
 70
     1
102
RTVSPropertyOp17
 70
     1
102
RTVSPropertyOp18
 70
     1
102
RTVSPropertyOp19
 70
     1
102
RTVSPropertyOp20
 70
     1
102
RTVSPropertyOp21
 70
     1
102
RTVSPropertyOp22
 70
     1
102
RTVSPropertyOp23
 70
     1
102
RTVSPropertyOp24
 70
     1
102
RTVSPropertyOp25
 70
     1
102
RTVSPropertyOp26
 70
     1
102
RTVSPropertyOp27
 70
     1
102
RTVSPropertyOp28
 70
     1
102
RTVSPropertyOp29
 70
     1
102
RTVSPropertyOp30
 70
     1
102
RTVSPropertyOp31
 70
     1
102
RTVSPropertyOp32
 70
     1
  0
ENDSEC
  0
EOF
