  0
SECTION
  2
HEADER
  9
$ACADVER
  1
AC1015
  9
$ACADMAINTVER
 70
     6
  9
$DWGCODEPAGE
  3
ANSI_932
  9
$INSBASE
 10
0.0
 20
0.0
 30
0.0
  9
$EXTMIN
 10
0.0
 20
0.0
 30
0.0
  9
$EXTMAX
 10
735.0
 20
1039.5
 30
0.0
  9
$LIMMIN
 10
0.0
 20
0.0
  9
$LIMMAX
 10
12.0
 20
9.0
  9
$ORTHOMODE
 70
     0
  9
$REGENMODE
 70
     1
  9
$FILLMODE
 70
     1
  9
$QTEXTMODE
 70
     0
  9
$MIRRTEXT
 70
     1
  9
$LTSCALE
 40
1.0
  9
$ATTMODE
 70
     1
  9
$TEXTSIZE
 40
0.2
  9
$TRACEWID
 40
0.05
  9
$TEXTSTYLE
  7
Standard
  9
$CLAYER
  8
0
  9
$CELTYPE
  6
ByLayer
  9
$CECOLOR
 62
   256
  9
$CELTSCALE
 40
1.0
  9
$DISPSILH
 70
     0
  9
$DIMSCALE
 40
1.0
  9
$DIMASZ
 40
0.18
  9
$DIMEXO
 40
0.0625
  9
$DIMDLI
 40
0.38
  9
$DIMRND
 40
0.0
  9
$DIMDLE
 40
0.0
  9
$DIMEXE
 40
0.18
  9
$DIMTP
 40
0.0
  9
$DIMTM
 40
0.0
  9
$DIMTXT
 40
0.18
  9
$DIMCEN
 40
0.09
  9
$DIMTSZ
 40
0.0
  9
$DIMTOL
 70
     0
  9
$DIMLIM
 70
     0
  9
$DIMTIH
 70
     1
  9
$DIMTOH
 70
     1
  9
$DIMSE1
 70
     0
  9
$DIMSE2
 70
     0
  9
$DIMTAD
 70
     0
  9
$DIMZIN
 70
     0
  9
$DIMBLK
  1

  9
$DIMASO
 70
     1
  9
$DIMSHO
 70
     1
  9
$DIMPOST
  1

  9
$DIMAPOST
  1

  9
$DIMALT
 70
     0
  9
$DIMALTD
 70
     2
  9
$DIMALTF
 40
25.4
  9
$DIMLFAC
 40
1.0
  9
$DIMTOFL
 70
     0
  9
$DIMTVP
 40
0.0
  9
$DIMTIX
 70
     0
  9
$DIMSOXD
 70
     0
  9
$DIMSAH
 70
     0
  9
$DIMBLK1
  1

  9
$DIMBLK2
  1

  9
$DIMSTYLE
  2
Standard
  9
$DIMCLRD
 70
     0
  9
$DIMCLRE
 70
     0
  9
$DIMCLRT
 70
     0
  9
$DIMTFAC
 40
1.0
  9
$DIMGAP
 40
0.09
  9
$DIMJUST
 70
     0
  9
$DIMSD1
 70
     0
  9
$DIMSD2
 70
     0
  9
$DIMTOLJ
 70
     1
  9
$DIMTZIN
 70
     0
  9
$DIMALTZ
 70
     0
  9
$DIMALTTZ
 70
     0
  9
$DIMUPT
 70
     0
  9
$DIMDEC
 70
     4
  9
$DIMTDEC
 70
     4
  9
$DIMALTU
 70
     2
  9
$DIMALTTD
 70
     2
  9
$DIMTXSTY
  7
Standard
  9
$DIMAUNIT
 70
     0
  9
$DIMADEC
 70
     0
  9
$DIMALTRND
 40
0.0
  9
$DIMAZIN
 70
     0
  9
$DIMDSEP
 70
    46
  9
$DIMATFIT
 70
     3
  9
$DIMFRAC
 70
     0
  9
$DIMLDRBLK
  1

  9
$DIMLUNIT
 70
     2
  9
$DIMLWD
 70
    -2
  9
$DIMLWE
 70
    -2
  9
$DIMTMOVE
 70
     0
  9
$LUNITS
 70
     2
  9
$LUPREC
 70
     4
  9
$SKETCHINC
 40
0.1
  9
$FILLETRAD
 40
0.5
  9
$AUNITS
 70
     0
  9
$AUPREC
 70
     0
  9
$MENU
  1
.
  9
$ELEVATION
 40
0.0
  9
$PELEVATION
 40
0.0
  9
$THICKNESS
 40
0.0
  9
$LIMCHECK
 70
     0
  9
$CHAMFERA
 40
0.5
  9
$CHAMFERB
 40
0.5
  9
$CHAMFERC
 40
1.0
  9
$CHAMFERD
 40
0.0
  9
$SKPOLY
 70
     0
  9
$TDCREATE
 40
2457186.565358495
  9
$TDUCREATE
 40
2457186.190358495
  9
$TDUPDATE
 40
2457186.565359757
  9
$TDUUPDATE
 40
2457186.190359757
  9
$TDINDWG
 40
0.0000000116
  9
$TDUSRTIMER
 40
0.0000000116
  9
$USRTIMER
 70
     1
  9
$ANGBASE
 50
0.0
  9
$ANGDIR
 70
     0
  9
$PDMODE
 70
     0
  9
$PDSIZE
 40
0.0
  9
$PLINEWID
 40
0.0
  9
$SPLFRAME
 70
     0
  9
$SPLINETYPE
 70
     6
  9
$SPLINESEGS
 70
     8
  9
$HANDSEED
  5
298
  9
$SURFTAB1
 70
     6
  9
$SURFTAB2
 70
     6
  9
$SURFTYPE
 70
     6
  9
$SURFU
 70
     6
  9
$SURFV
 70
     6
  9
$UCSBASE
  2

  9
$UCSNAME
  2

  9
$UCSORG
 10
0.0
 20
0.0
 30
0.0
  9
$UCSXDIR
 10
1.0
 20
0.0
 30
0.0
  9
$UCSYDIR
 10
0.0
 20
1.0
 30
0.0
  9
$UCSORTHOREF
  2

  9
$UCSORTHOVIEW
 70
     0
  9
$UCSORGTOP
 10
0.0
 20
0.0
 30
0.0
  9
$UCSORGBOTTOM
 10
0.0
 20
0.0
 30
0.0
  9
$UCSORGLEFT
 10
0.0
 20
0.0
 30
0.0
  9
$UCSORGRIGHT
 10
0.0
 20
0.0
 30
0.0
  9
$UCSORGFRONT
 10
0.0
 20
0.0
 30
0.0
  9
$UCSORGBACK
 10
0.0
 20
0.0
 30
0.0
  9
$PUCSBASE
  2

  9
$PUCSNAME
  2

  9
$PUCSORG
 10
0.0
 20
0.0
 30
0.0
  9
$PUCSXDIR
 10
1.0
 20
0.0
 30
0.0
  9
$PUCSYDIR
 10
0.0
 20
1.0
 30
0.0
  9
$PUCSORTHOREF
  2

  9
$PUCSORTHOVIEW
 70
     0
  9
$PUCSORGTOP
 10
0.0
 20
0.0
 30
0.0
  9
$PUCSORGBOTTOM
 10
0.0
 20
0.0
 30
0.0
  9
$PUCSORGLEFT
 10
0.0
 20
0.0
 30
0.0
  9
$PUCSORGRIGHT
 10
0.0
 20
0.0
 30
0.0
  9
$PUCSORGFRONT
 10
0.0
 20
0.0
 30
0.0
  9
$PUCSORGBACK
 10
0.0
 20
0.0
 30
0.0
  9
$USERI1
 70
     0
  9
$USERI2
 70
     0
  9
$USERI3
 70
     0
  9
$USERI4
 70
     0
  9
$USERI5
 70
     0
  9
$USERR1
 40
18.1
  9
$USERR2
 40
0.0
  9
$USERR3
 40
0.0
  9
$USERR4
 40
0.0
  9
$USERR5
 40
0.0
  9
$WORLDVIEW
 70
     1
  9
$SHADEDGE
 70
     3
  9
$SHADEDIF
 70
    70
  9
$TILEMODE
 70
     1
  9
$MAXACTVP
 70
    64
  9
$PINSBASE
 10
0.0
 20
0.0
 30
0.0
  9
$PLIMCHECK
 70
     0
  9
$PEXTMIN
 10
1.00000000000000E+20
 20
1.00000000000000E+20
 30
1.00000000000000E+20
  9
$PEXTMAX
 10
-1.00000000000000E+20
 20
-1.00000000000000E+20
 30
-1.00000000000000E+20
  9
$PLIMMIN
 10
0.0
 20
0.0
  9
$PLIMMAX
 10
12.0
 20
9.0
  9
$UNITMODE
 70
     0
  9
$VISRETAIN
 70
     1
  9
$PLINEGEN
 70
     0
  9
$PSLTSCALE
 70
     1
  9
$TREEDEPTH
 70
  3020
  9
$CMLSTYLE
  2
Standard
  9
$CMLJUST
 70
     0
  9
$CMLSCALE
 40
1.0
  9
$PROXYGRAPHICS
 70
     1
  9
$MEASUREMENT
 70
     1
  9
$CELWEIGHT
370
    -1
  9
$ENDCAPS
280
     0
  9
$JOINSTYLE
280
     0
  9
$LWDISPLAY
290
     0
  9
$INSUNITS
 70
     4
  9
$HYPERLINKBASE
  1

  9
$STYLESHEET
  1

  9
$XEDIT
290
     1
  9
$CEPSNTYPE
380
     0
  9
$PSTYLEMODE
290
     1
  9
$FINGERPRINTGUID
  2
{504C2BEF-2BCD-44C8-8C64-ECD023680E49}
  9
$VERSIONGUID
  2
{FAEB1C32-E019-11D5-929B-00C0DF256EC4}
  9
$EXTNAMES
290
     1
  9
$PSVPSCALE
 40
0.0
  9
$OLESTARTUP
290
     0
  0
ENDSEC
  0
SECTION
  2
CLASSES
  0
CLASS
  1
ACDBDICTIONARYWDFLT
  2
AcDbDictionaryWithDefault
  3
ObjectDBX Classes
 90
        0
280
     0
281
     0
  0
CLASS
  1
VISUALSTYLE
  2
AcDbVisualStyle
  3
ObjectDBX Classes
 90
     4095
280
     0
281
     0
  0
CLASS
  1
MATERIAL
  2
AcDbMaterial
  3
ObjectDBX Classes
 90
     1153
280
     0
281
     0
  0
CLASS
  1
DICTIONARYVAR
  2
AcDbDictionaryVar
  3
ObjectDBX Classes
 90
        0
280
     0
281
     0
  0
CLASS
  1
ACDBPLACEHOLDER
  2
AcDbPlaceHolder
  3
ObjectDBX Classes
 90
        0
280
     0
281
     0
  0
CLASS
  1
LAYOUT
  2
AcDbLayout
  3
ObjectDBX Classes
 90
        0
280
     0
281
     0
  0
ENDSEC
  0
SECTION
  2
TABLES
  0
TABLE
  2
VPORT
  5
8
330
0
100
AcDbSymbolTable
 70
     1
  0
VPORT
  5
29
330
8
100
AcDbSymbolTableRecord
100
AcDbViewportTableRecord
  2
*Active
 70
     0
 10
0.0
 20
0.0
 11
1.0
 21
1.0
 12
367.5
 22
519.75
 13
0.0
 23
0.0
 14
0.5
 24
0.5
 15
0.5
 25
0.5
 16
0.0
 26
0.0
 36
1.0
 17
0.0
 27
0.0
 37
0.0
 40
1143.45
 41
1.60267857142857
 42
50.0
 43
0.0
 44
0.0
 50
0.0
 51
0.0
 71
     0
 72
   100
 73
     1
 74
     3
 75
     0
 76
     0
 77
     0
 78
     0
281
     0
 65
     1
110
0.0
120
0.0
130
0.0
111
1.0
121
0.0
131
0.0
112
0.0
122
1.0
132
0.0
 79
     0
146
0.0
  0
ENDTAB
  0
TABLE
  2
LTYPE
  5
5
330
0
100
AcDbSymbolTable
 70
     8
  0
LTYPE
  5
14
330
5
100
AcDbSymbolTableRecord
100
AcDbLinetypeTableRecord
  2
ByBlock
 70
     0
  3

 72
    65
 73
     0
 40
0.0
  0
LTYPE
  5
15
330
5
100
AcDbSymbolTableRecord
100
AcDbLinetypeTableRecord
  2
ByLayer
 70
     0
  3

 72
    65
 73
     0
 40
0.0
  0
LTYPE
  5
16
330
5
100
AcDbSymbolTableRecord
100
AcDbLinetypeTableRecord
  2
Continuous
 70
     0
  3
Solid line
 72
    65
 73
     0
 40
0.0
  0
LTYPE
  5
3F
330
5
100
AcDbSymbolTableRecord
100
AcDbLinetypeTableRecord
  2
DASHED
 70
     0
  3
Dashed
 72
    65
 73
     2
 40
15.0
 49
7.0
 74
     0
 49
-8.0
 74
     0
  0
LTYPE
  5
40
330
5
100
AcDbSymbolTableRecord
100
AcDbLinetypeTableRecord
  2
DOTTED
 70
     0
  3
Dotted
 72
    65
 73
     2
 40
1.0
 49
0.0
 74
     0
 49
-1.0
 74
     0
  0
LTYPE
  5
41
330
5
100
AcDbSymbolTableRecord
100
AcDbLinetypeTableRecord
  2
DOT_CENTER
 70
     0
  3
Dot_Center
 72
    65
 73
     4
 40
14.0
 49
12.0
 74
     0
 49
-1.0
 74
     0
 49
0.0
 74
     0
 49
-1.0
 74
     0
  0
LTYPE
  5
42
330
5
100
AcDbSymbolTableRecord
100
AcDbLinetypeTableRecord
  2
LONG_DASHED
 70
     0
  3
Long_Dashed
 72
    65
 73
     2
 40
15.0
 49
10.0
 74
     0
 49
-5.0
 74
     0
  0
LTYPE
  5
43
330
5
100
AcDbSymbolTableRecord
100
AcDbLinetypeTableRecord
  2
DASH_CENTER
 70
     0
  3
Dash_Center
 72
    65
 73
     4
 40
14.0
 49
11.0
 74
     0
 49
-1.0
 74
     0
 49
1.0
 74
     0
 49
-1.0
 74
     0
  0
LTYPE
  5
44
330
5
100
AcDbSymbolTableRecord
100
AcDbLinetypeTableRecord
  2
PHANTOM
 70
     0
  3
Phantom
 72
    65
 73
     6
 40
13.0
 49
10.0
 74
     0
 49
-1.0
 74
     0
 49
0.0
 74
     0
 49
-1.0
 74
     0
 49
0.0
 74
     0
 49
-1.0
 74
     0
  0
LTYPE
  5
45
330
5
100
AcDbSymbolTableRecord
100
AcDbLinetypeTableRecord
  2
CENTER_DASH_DASH
 70
     0
  3
Center_Dash_Dash
 72
    65
 73
     6
 40
14.0
 49
9.0
 74
     0
 49
-1.0
 74
     0
 49
1.0
 74
     0
 49
-1.0
 74
     0
 49
1.0
 74
     0
 49
-1.0
 74
     0
  0
ENDTAB
  0
TABLE
  2
LAYER
  5
2
330
0
100
AcDbSymbolTable
 70
     2
  0
LAYER
  5
10
330
2
100
AcDbSymbolTableRecord
100
AcDbLayerTableRecord
  2
0
 70
     0
 62
     7
  6
Continuous
370
    -3
390
F
  0
LAYER
  5
46
330
2
100
AcDbSymbolTableRecord
100
AcDbLayerTableRecord
  2
1
 70
     0
 62
     7
  6
Continuous
370
    -3
390
F
  0
ENDTAB
  0
TABLE
  2
STYLE
  5
3
330
0
100
AcDbSymbolTable
 70
     3
  0
STYLE
  5
11
330
3
100
AcDbSymbolTableRecord
100
AcDbTextStyleTableRecord
  2
Standard
 70
     0
 40
0.0
 41
1.0
 50
0.0
 71
     0
 42
0.2
  3
txt
  4

  0
STYLE
  5
D2
330
3
100
AcDbSymbolTableRecord
100
AcDbTextStyleTableRecord
  2
CONVERTER_11
 70
     0
 40
0.0
 41
0.89
 50
0.0
 71
     0
 42
0.2
  3
MS Mincho.ttf
  4

1001
ACAD
1000
MS Mincho
1071
    32785
  0
STYLE
  5
216
330
3
100
AcDbSymbolTableRecord
100
AcDbTextStyleTableRecord
  2
CONVERTER_12
 70
     0
 40
0.0
 41
0.9
 50
0.0
 71
     0
 42
0.2
  3
txt.shx
  4

  0
ENDTAB
  0
TABLE
  2
VIEW
  5
6
330
0
100
AcDbSymbolTable
 70
     0
  0
ENDTAB
  0
TABLE
  2
UCS
  5
7
330
0
100
AcDbSymbolTable
 70
     0
  0
ENDTAB
  0
TABLE
  2
APPID
  5
9
330
0
100
AcDbSymbolTable
 70
     1
  0
APPID
  5
12
330
9
100
AcDbSymbolTableRecord
100
AcDbRegAppTableRecord
  2
ACAD
 70
     0
  0
ENDTAB
  0
TABLE
  2
DIMSTYLE
  5
A
330
0
100
AcDbSymbolTable
 70
     8
100
AcDbDimStyleTable
  0
DIMSTYLE
105
27
330
A
100
AcDbSymbolTableRecord
100
AcDbDimStyleTableRecord
  2
Standard
 70
     0
178
     0
340
11
  0
DIMSTYLE
105
226
102
{ACAD_REACTORS
330
227
102
}
330
A
100
AcDbSymbolTableRecord
100
AcDbDimStyleTableRecord
  2
ME10_DIM_10
 70
     0
 41
12.25
 42
0.0
 44
3.5
 73
     0
 74
     0
 77
     1
 78
     8
140
12.25
147
3.5
172
     1
173
     1
174
     1
175
     1
176
     2
177
     2
271
     2
178
     7
271
     2
340
216
  0
DIMSTYLE
105
231
102
{ACAD_REACTORS
330
232
102
}
330
A
100
AcDbSymbolTableRecord
100
AcDbDimStyleTableRecord
  2
ME10_DIM_11
 70
     0
 41
12.25
 42
0.0
 44
3.5
 73
     0
 74
     0
 77
     1
 78
     8
140
12.25
147
3.5
172
     1
173
     1
174
     1
175
     1
176
     2
177
     2
271
     2
178
     7
271
     2
340
216
  0
DIMSTYLE
105
23F
102
{ACAD_REACTORS
330
240
102
}
330
A
100
AcDbSymbolTableRecord
100
AcDbDimStyleTableRecord
  2
ME10_DIM_12
 70
     0
 41
12.25
 42
0.0
 44
3.5
 73
     0
 74
     0
 77
     1
 78
     8
140
12.25
147
3.5
172
     1
173
     1
174
     1
175
     1
176
     2
177
     2
271
     2
178
     7
271
     2
340
216
344
23C
  0
DIMSTYLE
105
24A
102
{ACAD_REACTORS
330
24B
102
}
330
A
100
AcDbSymbolTableRecord
100
AcDbDimStyleTableRecord
  2
ME10_DIM_13
 70
     0
 41
12.25
 42
0.0
 44
3.5
 73
     0
 74
     0
 77
     1
 78
     8
140
12.25
147
3.5
172
     1
173
     1
174
     1
175
     1
176
     2
177
     2
271
     2
178
     7
271
     2
340
D2
  0
DIMSTYLE
105
255
102
{ACAD_REACTORS
330
256
102
}
330
A
100
AcDbSymbolTableRecord
100
AcDbDimStyleTableRecord
  2
ME10_DIM_14
 70
     0
  3
{\Fgdt;n}<>
 41
12.25
 42
0.0
 44
3.5
 73
     0
 74
     0
 77
     1
 78
     8
140
12.25
147
3.5
172
     1
173
     1
174
     1
175
     1
176
     2
177
     2
271
     2
178
     7
271
     2
340
216
  0
DIMSTYLE
105
260
102
{ACAD_REACTORS
330
261
102
}
330
A
100
AcDbSymbolTableRecord
100
AcDbDimStyleTableRecord
  2
ME10_DIM_15
 70
     0
 41
12.25
 42
0.0
 44
3.5
 73
     0
 74
     0
 77
     1
 78
     8
140
12.25
147
3.5
172
     1
173
     1
174
     1
175
     1
176
     2
177
     2
271
     2
178
     7
271
     2
340
216
  0
DIMSTYLE
105
26B
102
{ACAD_REACTORS
330
26C
102
}
330
A
100
AcDbSymbolTableRecord
100
AcDbDimStyleTableRecord
  2
ME10_DIM_16
 70
     0
 41
12.25
 42
0.0
 44
3.5
 73
     0
 74
     0
 77
     1
 78
     8
140
12.25
147
3.5
172
     1
173
     1
174
     1
175
     1
176
     2
177
     2
271
     2
178
     7
271
     2
340
216
  0
ENDTAB
  0
TABLE
  2
BLOCK_RECORD
  5
1
330
0
100
AcDbSymbolTable
 70
    17
  0
BLOCK_RECORD
  5
1F
330
1
100
AcDbSymbolTableRecord
100
AcDbBlockTableRecord
  2
*Model_Space
340
22
  0
BLOCK_RECORD
  5
1B
330
1
100
AcDbSymbolTableRecord
100
AcDbBlockTableRecord
  2
*Paper_Space
340
1E
  0
BLOCK_RECORD
  5
23
330
1
100
AcDbSymbolTableRecord
100
AcDbBlockTableRecord
  2
*Paper_Space0
340
26
  0
BLOCK_RECORD
  5
47
330
1
100
AcDbSymbolTableRecord
100
AcDbBlockTableRecord
  2
21-1D
340
0
102
{BLKREFS
331
5F
102
}
  0
BLOCK_RECORD
  5
4A
330
1
100
AcDbSymbolTableRecord
100
AcDbBlockTableRecord
  2
開示A4
340
0
102
{BLKREFS
331
60
102
}
  0
BLOCK_RECORD
  5
4D
330
1
100
AcDbSymbolTableRecord
100
AcDbBlockTableRecord
  2
42-1
340
0
102
{BLKREFS
331
61
102
}
  0
BLOCK_RECORD
  5
50
330
1
100
AcDbSymbolTableRecord
100
AcDbBlockTableRecord
  2
37-1-13
340
0
102
{BLKREFS
331
62
102
}
  0
BLOCK_RECORD
  5
53
330
1
100
AcDbSymbolTableRecord
100
AcDbBlockTableRecord
  2
36-1A-13-M4
340
0
102
{BLKREFS
331
63
102
}
  0
BLOCK_RECORD
  5
56
330
1
100
AcDbSymbolTableRecord
100
AcDbBlockTableRecord
  2
A10-0A-13
340
0
102
{BLKREFS
331
64
102
}
  0
BLOCK_RECORD
  5
59
330
1
100
AcDbSymbolTableRecord
100
AcDbBlockTableRecord
  2
32-1-16
340
0
102
{BLKREFS
331
65
102
}
  0
BLOCK_RECORD
  5
5C
330
1
100
AcDbSymbolTableRecord
100
AcDbBlockTableRecord
  2
60-1-16-300
340
0
102
{BLKREFS
331
66
102
}
  0
BLOCK_RECORD
  5
21D
330
1
100
AcDbSymbolTableRecord
100
AcDbBlockTableRecord
  2
*D9
340
0
  0
BLOCK_RECORD
  5
228
330
1
100
AcDbSymbolTableRecord
100
AcDbBlockTableRecord
  2
*D10
340
0
  0
BLOCK_RECORD
  5
233
330
1
100
AcDbSymbolTableRecord
100
AcDbBlockTableRecord
  2
*D11
340
0
  0
BLOCK_RECORD
  5
23C
330
1
100
AcDbSymbolTableRecord
100
AcDbBlockTableRecord
  2
_NONE
340
0
  0
BLOCK_RECORD
  5
241
330
1
100
AcDbSymbolTableRecord
100
AcDbBlockTableRecord
  2
*D13
340
0
  0
BLOCK_RECORD
  5
24C
330
1
100
AcDbSymbolTableRecord
100
AcDbBlockTableRecord
  2
*D14
340
0
  0
BLOCK_RECORD
  5
257
330
1
100
AcDbSymbolTableRecord
100
AcDbBlockTableRecord
  2
*D15
340
0
  0
BLOCK_RECORD
  5
262
330
1
100
AcDbSymbolTableRecord
100
AcDbBlockTableRecord
  2
*D16
340
0
  0
ENDTAB
  0
ENDSEC
  0
SECTION
  2
BLOCKS
  0
BLOCK
  5
20
330
1F
100
AcDbEntity
  8
0
100
AcDbBlockBegin
  2
*Model_Space
 70
     0
 10
0.0
 20
0.0
 30
0.0
  3
*Model_Space
  1

  0
ENDBLK
  5
21
330
1F
100
AcDbEntity
  8
0
100
AcDbBlockEnd
  0
BLOCK
  5
1C
330
1B
100
AcDbEntity
 67
     1
  8
0
100
AcDbBlockBegin
  2
*Paper_Space
 70
     0
 10
0.0
 20
0.0
 30
0.0
  3
*Paper_Space
  1

  0
ENDBLK
  5
1D
330
1B
100
AcDbEntity
 67
     1
  8
0
100
AcDbBlockEnd
  0
BLOCK
  5
24
330
23
100
AcDbEntity
  8
0
100
AcDbBlockBegin
  2
*Paper_Space0
 70
     0
 10
0.0
 20
0.0
 30
0.0
  3
*Paper_Space0
  1

  0
ENDBLK
  5
25
330
23
100
AcDbEntity
  8
0
100
AcDbBlockEnd
  0
BLOCK
  5
48
330
47
100
AcDbEntity
  8
0
100
AcDbBlockBegin
  2
21-1D
 70
     0
 10
2395.575891435572
 20
2837.087459863109
 30
0.0
  3
21-1D
  1

  0
LINE
  5
67
330
47
100
AcDbEntity
  8
1
  6
Continuous
 62
     7
100
AcDbLine
 10
572.8755684285286
 20
388.1137913450992
 30
0.0
 11
580.8755684285275
 21
388.1137913450992
 31
0.0
  0
LINE
  5
68
330
47
100
AcDbEntity
  8
1
  6
Continuous
 62
     7
100
AcDbLine
 10
546.4075266967595
 20
380.8988711004498
 30
0.0
 11
545.9556185977672
 21
377.6833778955792
 31
0.0
  0
LINE
  5
69
330
47
100
AcDbEntity
  8
1
  6
Continuous
 62
     7
100
AcDbLine
 10
594.6782542828787
 20
382.0728679508428
 30
0.0
 11
595.2954717768862
 21
377.6834132778119
 31
0.0
  0
LINE
  5
6A
330
47
100
AcDbEntity
  8
1
  6
Continuous
 62
     7
100
AcDbLine
 10
594.8003427164531
 20
377.1137913450992
 30
0.0
 11
546.4507526321381
 21
377.1137913450992
 31
0.0
  0
LINE
  5
6B
330
47
100
AcDbEntity
  8
1
  6
Continuous
 62
     7
100
AcDbLine
 10
188.6547684209673
 20
757.2451256415001
 30
0.0
 11
192.3061776324378
 21
770.8723703379331
 31
0.0
  0
LINE
  5
6C
330
47
100
AcDbEntity
  8
1
  6
Continuous
 62
     7
100
AcDbLine
 10
208.752489244963
 20
792.055399224996
 30
0.0
 11
198.7766537600006
 21
782.0795637400337
 31
0.0
  0
LINE
  5
6D
330
47
100
AcDbEntity
  8
1
  6
Continuous
 62
     7
100
AcDbLine
 10
203.7174391898492
 20
802.2973715443467
 30
0.0
 11
189.3296895907959
 21
798.4421856583793
 31
0.0
  0
LINE
  5
6E
330
47
100
AcDbEntity
  8
1
  6
Continuous
 62
     7
100
AcDbLine
 10
162.761492639237
 20
802.0935948698499
 30
0.0
 11
176.3887373356698
 21
798.4421856583793
 31
0.0
  0
LINE
  5
6F
330
47
100
AcDbEntity
  8
1
  6
Continuous
 62
     7
100
AcDbLine
 10
156.9659376815026
 20
792.055399224996
 30
0.0
 11
166.9417731664651
 21
782.0795637400337
 31
0.0
  0
LINE
  5
70
330
47
100
AcDbEntity
  8
1
  6
Continuous
 62
     7
100
AcDbLine
 10
177.0636585054984
 20
757.2451256415001
 30
0.0
 11
173.412249294028
 21
770.8723703379331
 31
0.0
  0
LINE
  5
71
330
47
100
AcDbEntity
  8
1
  6
Continuous
 62
     7
100
AcDbLine
 10
155.7085783686219
 20
377.1137913450991
 30
0.0
 11
210.0098485578438
 21
377.1137913450991
 31
0.0
  0
LINE
  5
72
330
47
100
AcDbEntity
  8
1
  6
Continuous
 62
     7
100
AcDbLine
 10
210.5049825922148
 20
377.6833778955793
 30
0.0
 11
210.0530744932223
 21
380.8988711004497
 31
0.0
  0
LINE
  5
73
330
47
100
AcDbEntity
  8
1
  6
Continuous
 62
     7
100
AcDbLine
 10
155.6653524332436
 20
380.8988711004497
 30
0.0
 11
155.2134443342512
 21
377.6833778955793
 31
0.0
  0
ARC
  5
74
330
47
100
AcDbEntity
  8
1
  6
Continuous
 62
     7
100
AcDbCircle
 10
576.8755684285275
 20
238.1137913450992
 30
0.0
 40
150.0533238552215
100
AcDbArc
 50
91.52752544221293
 51
99.8029017937678
  0
ARC
  5
75
330
47
100
AcDbEntity
  8
1
  6
Continuous
 62
     7
100
AcDbCircle
 10
577.2397640937743
 20
313.2019703364
 30
0.0
 40
74.99999999999987
100
AcDbArc
 50
80.40850751733502
 51
87.22136103403747
  0
ARC
  5
76
330
47
100
AcDbEntity
  8
1
  6
Continuous
 62
     7
100
AcDbCircle
 10
182.8592134632328
 20
758.7980399121155
 30
0.0
 40
6.0
100
AcDbArc
 50
270.0
 51
344.999999999997
  0
ARC
  5
77
330
47
100
AcDbEntity
  8
1
  6
Continuous
 62
     7
100
AcDbCircle
 10
204.5098485578438
 20
796.2980399121155
 30
0.0
 40
6.000000000000109
100
AcDbArc
 50
314.9999999999975
 51
97.52424107894154
  0
ARC
  5
78
330
47
100
AcDbEntity
  8
1
  6
Continuous
 62
     7
100
AcDbCircle
 10
161.2085783686219
 20
796.2980399121155
 30
0.0
 40
5.999999999999926
100
AcDbArc
 50
75.0
 51
225.0000000000017
  0
ARC
  5
79
330
47
100
AcDbEntity
  8
1
  6
Continuous
 62
     7
100
AcDbCircle
 10
182.8592134632328
 20
758.7980399121155
 30
0.0
 40
6.000000000000077
100
AcDbArc
 50
195.0000000000033
 51
270.0
  0
ARC
  5
7A
330
47
100
AcDbEntity
  8
1
  6
Continuous
 62
     7
100
AcDbCircle
 10
181.2221231123436
 20
260.7436388047747
 30
0.0
 40
127.494833408141
100
AcDbArc
 50
79.19050675364778
 51
87.46588310520262
  0
ARC
  5
7B
330
47
100
AcDbEntity
  8
1
  6
Continuous
 62
     7
100
AcDbCircle
 10
184.4963038141221
 20
260.7436388047747
 30
0.0
 40
127.4948334081409
100
AcDbArc
 50
92.53411689479734
 51
100.8094932463522
  0
ARC
  5
7C
330
47
100
AcDbEntity
  8
1
  6
Continuous
 62
     7
100
AcDbCircle
 10
552.3491351092089
 20
380.0638324946894
 30
0.0
 40
6.000000000000004
100
AcDbArc
 50
99.80290179376699
 51
171.9999999999997
  0
ARC
  5
7D
330
47
100
AcDbEntity
  8
1
  6
Continuous
 62
     7
100
AcDbCircle
 10
588.7367055576815
 20
381.2374047582913
 30
0.0
 40
6.000000000000078
100
AcDbArc
 50
8.00409437170199
 51
80.40850751733541
  0
ARC
  5
7E
330
47
100
AcDbEntity
  8
1
  6
Continuous
 62
     7
100
AcDbCircle
 10
546.4507526321381
 20
377.6137913450992
 30
0.0
 40
0.5000000000001631
100
AcDbArc
 50
172.0000000000018
 51
270.0
  0
ARC
  5
7F
330
47
100
AcDbEntity
  8
1
  6
Continuous
 62
     7
100
AcDbCircle
 10
594.8003427164531
 20
377.6137913450992
 30
0.0
 40
0.5
100
AcDbArc
 50
270.0
 51
8.00409437171274
  0
ARC
  5
80
330
47
100
AcDbEntity
  8
1
  6
Continuous
 62
     7
100
AcDbCircle
 10
216.4543232896644
 20
764.4018942103702
 30
0.0
 40
24.99999999999992
100
AcDbArc
 50
135.0000000000005
 51
165.0000000000001
  0
ARC
  5
81
330
47
100
AcDbEntity
  8
1
  6
Continuous
 62
     7
100
AcDbCircle
 10
182.8592134632328
 20
822.590331315606
 30
0.0
 40
24.99999999999997
100
AcDbArc
 50
255.0
 51
285.0000000000002
  0
ARC
  5
82
330
47
100
AcDbEntity
  8
1
  6
Continuous
 62
     7
100
AcDbCircle
 10
149.2641036368015
 20
764.4018942103702
 30
0.0
 40
24.99999999999977
100
AcDbArc
 50
15.0
 51
44.99999999999982
  0
ARC
  5
83
330
47
100
AcDbEntity
  8
1
  6
Continuous
 62
     7
100
AcDbCircle
 10
204.1114660807729
 20
380.0638324946897
 30
0.0
 40
5.999999999999925
100
AcDbArc
 50
7.9999999999965
 51
80.19709820623193
  0
ARC
  5
84
330
47
100
AcDbEntity
  8
1
  6
Continuous
 62
     7
100
AcDbCircle
 10
210.0098485578438
 20
377.6137913450991
 30
0.0
 40
0.5
100
AcDbArc
 50
270.0
 51
8.00000000001705
  0
ARC
  5
85
330
47
100
AcDbEntity
  8
1
  6
Continuous
 62
     7
100
AcDbCircle
 10
155.7085783686219
 20
377.6137913450991
 30
0.0
 40
0.4999999999999336
100
AcDbArc
 50
171.9999999999784
 51
270.0
  0
ARC
  5
86
330
47
100
AcDbEntity
  8
1
  6
Continuous
 62
     7
100
AcDbCircle
 10
161.6069608456929
 20
380.0638324946897
 30
0.0
 40
5.999999999999851
100
AcDbArc
 50
99.80290179376809
 51
172.0000000000034
  0
ENDBLK
  5
49
330
47
100
AcDbEntity
  8
0
100
AcDbBlockEnd
  0
BLOCK
  5
4B
330
4A
100
AcDbEntity
  8
0
100
AcDbBlockBegin
  2
開示A4
 70
     0
 10
0.0
 20
0.0
 30
0.0
  3
開示A4
  1

  0
POINT
  5
87
330
4A
100
AcDbEntity
  8
1
 62
     4
100
AcDbPoint
 10
93.75
 20
17.0
 30
0.0
  0
POINT
  5
88
330
4A
100
AcDbEntity
  8
1
 62
     4
100
AcDbPoint
 10
85.25
 20
17.0
 30
0.0
  0
POINT
  5
89
330
4A
100
AcDbEntity
  8
1
 62
     4
100
AcDbPoint
 10
106.5
 20
19.00000000000001
 30
0.0
  0
POINT
  5
8A
330
4A
100
AcDbEntity
  8
1
 62
     4
100
AcDbPoint
 10
106.5
 20
12.5
 30
0.0
  0
POINT
  5
8B
330
4A
100
AcDbEntity
  8
1
 62
     4
100
AcDbPoint
 10
112.25
 20
12.5
 30
0.0
  0
POINT
  5
8C
330
4A
100
AcDbEntity
  8
1
 62
     4
100
AcDbPoint
 10
100.75
 20
12.5
 30
0.0
  0
POINT
  5
8D
330
4A
100
AcDbEntity
  8
1
 62
     4
100
AcDbPoint
 10
123.5
 20
19.00000000000001
 30
0.0
  0
POINT
  5
8E
330
4A
100
AcDbEntity
  8
1
 62
     4
100
AcDbPoint
 10
123.5
 20
12.5
 30
0.0
  0
POINT
  5
8F
330
4A
100
AcDbEntity
  8
1
 62
     4
100
AcDbPoint
 10
129.25
 20
12.5
 30
0.0
  0
POINT
  5
90
330
4A
100
AcDbEntity
  8
1
 62
     4
100
AcDbPoint
 10
117.75
 20
12.5
 30
0.0
  0
POINT
  5
91
330
4A
100
AcDbEntity
  8
1
 62
     4
100
AcDbPoint
 10
140.5
 20
19.00000000000001
 30
0.0
  0
POINT
  5
92
330
4A
100
AcDbEntity
  8
1
 62
     4
100
AcDbPoint
 10
140.5
 20
12.5
 30
0.0
  0
POINT
  5
93
330
4A
100
AcDbEntity
  8
1
 62
     4
100
AcDbPoint
 10
146.25
 20
12.5
 30
0.0
  0
POINT
  5
94
330
4A
100
AcDbEntity
  8
1
 62
     4
100
AcDbPoint
 10
134.75
 20
12.5
 30
0.0
  0
POINT
  5
95
330
4A
100
AcDbEntity
  8
1
 62
     4
100
AcDbPoint
 10
151.75
 20
12.5
 30
0.0
  0
POINT
  5
96
330
4A
100
AcDbEntity
  8
1
 62
     4
100
AcDbPoint
 10
163.25
 20
12.5
 30
0.0
  0
POINT
  5
97
330
4A
100
AcDbEntity
  8
1
 62
     4
100
AcDbPoint
 10
157.5
 20
12.5
 30
0.0
  0
POINT
  5
98
330
4A
100
AcDbEntity
  8
1
 62
     4
100
AcDbPoint
 10
57.0
 20
14.25
 30
0.0
  0
POINT
  5
99
330
4A
100
AcDbEntity
  8
1
 62
     4
100
AcDbPoint
 10
57.0
 20
22.75000000000001
 30
0.0
  0
POINT
  5
9A
330
4A
100
AcDbEntity
  8
1
 62
     4
100
AcDbPoint
 10
47.5
 20
282.0000000000003
 30
0.0
  0
POINT
  5
9B
330
4A
100
AcDbEntity
  8
1
 62
     4
100
AcDbPoint
 10
157.5
 20
19.00000000000001
 30
0.0
  0
POINT
  5
9C
330
4A
100
AcDbEntity
  8
1
 62
     4
100
AcDbPoint
 10
57.0
 20
16.25
 30
0.0
  0
POINT
  5
9D
330
4A
100
AcDbEntity
  8
1
 62
     4
100
AcDbPoint
 10
57.0
 20
24.75000000000001
 30
0.0
  0
POINT
  5
9E
330
4A
100
AcDbEntity
  8
1
 62
     4
100
AcDbPoint
 10
57.0
 20
20.75000000000001
 30
0.0
  0
POINT
  5
9F
330
4A
100
AcDbEntity
  8
1
 62
     4
100
AcDbPoint
 10
57.0
 20
12.25
 30
0.0
  0
POINT
  5
A0
330
4A
100
AcDbEntity
  8
1
 62
     4
100
AcDbPoint
 10
34.0
 20
34.00000000000001
 30
0.0
  0
LINE
  5
A1
330
4A
100
AcDbEntity
  8
1
  6
Continuous
 62
     7
100
AcDbLine
 10
105.0
 20
10.0
 30
0.0
 11
200.0
 21
10.0
 31
0.0
  0
LINE
  5
A2
330
4A
100
AcDbEntity
  8
1
  6
Continuous
 62
     2
100
AcDbLine
 10
105.0
 20
10.0
 30
0.0
 11
105.0
 21
5.0
 31
0.0
  0
LINE
  5
A3
330
4A
100
AcDbEntity
  8
1
  6
Continuous
 62
     7
100
AcDbLine
 10
200.0
 20
148.5
 30
0.0
 11
200.0
 21
287.0000000000003
 31
0.0
  0
LINE
  5
A4
330
4A
100
AcDbEntity
  8
1
  6
Continuous
 62
     2
100
AcDbLine
 10
200.0
 20
148.5
 30
0.0
 11
205.0
 21
148.5
 31
0.0
  0
LINE
  5
A5
330
4A
100
AcDbEntity
  8
1
  6
Continuous
 62
     7
100
AcDbLine
 10
25.0
 20
148.5
 30
0.0
 11
25.0
 21
287.0000000000003
 31
0.0
  0
LINE
  5
A6
330
4A
100
AcDbEntity
  8
1
  6
Continuous
 62
     2
100
AcDbLine
 10
25.0
 20
148.5
 30
0.0
 11
20.0
 21
148.5
 31
0.0
  0
LINE
  5
A7
330
4A
100
AcDbEntity
  8
1
  6
Continuous
 62
     7
100
AcDbLine
 10
105.0
 20
287.0000000000003
 30
0.0
 11
25.0
 21
287.0000000000003
 31
0.0
  0
LINE
  5
A8
330
4A
100
AcDbEntity
  8
1
  6
Continuous
 62
     2
100
AcDbLine
 10
105.0
 20
287.0000000000003
 30
0.0
 11
105.0
 21
292.0000000000003
 31
0.0
  0
LINE
  5
A9
330
4A
100
AcDbEntity
  8
1
  6
Continuous
 62
     2
100
AcDbLine
 10
166.0
 20
20.00000000000001
 30
0.0
 11
200.0
 21
20.00000000000001
 31
0.0
  0
LINE
  5
AA
330
4A
100
AcDbEntity
  8
1
  6
Continuous
 62
     2
100
AcDbLine
 10
98.0
 20
27.00000000000001
 30
0.0
 11
98.0
 21
9.99999999999999
 31
0.0
  0
LINE
  5
AB
330
4A
100
AcDbEntity
  8
1
  6
Continuous
 62
     2
100
AcDbLine
 10
115.0
 20
27.00000000000001
 30
0.0
 11
115.0
 21
9.99999999999999
 31
0.0
  0
LINE
  5
AC
330
4A
100
AcDbEntity
  8
1
  6
Continuous
 62
     2
100
AcDbLine
 10
149.0
 20
27.00000000000001
 30
0.0
 11
149.0
 21
10.0
 31
0.0
  0
LINE
  5
AD
330
4A
100
AcDbEntity
  8
1
  6
Continuous
 62
     2
100
AcDbLine
 10
132.0
 20
27.00000000000001
 30
0.0
 11
132.0
 21
9.99999999999999
 31
0.0
  0
LINE
  5
AE
330
4A
100
AcDbEntity
  8
1
  6
Continuous
 62
     2
100
AcDbLine
 10
166.0
 20
27.00000000000001
 30
0.0
 11
166.0
 21
10.0
 31
0.0
  0
LINE
  5
AF
330
4A
100
AcDbEntity
  8
1
  6
Continuous
 62
     2
100
AcDbLine
 10
55.0
 20
277.0000000000003
 30
0.0
 11
25.0
 21
277.0000000000003
 31
0.0
  0
LINE
  5
B0
330
4A
100
AcDbEntity
  8
1
  6
Continuous
 62
     7
100
AcDbLine
 10
25.0
 20
10.0
 30
0.0
 11
25.0
 21
148.5
 31
0.0
  0
LINE
  5
B1
330
4A
100
AcDbEntity
  8
1
  6
Continuous
 62
     2
100
AcDbLine
 10
40.0
 20
287.0000000000003
 30
0.0
 11
40.0
 21
277.0000000000003
 31
0.0
  0
LINE
  5
B2
330
4A
100
AcDbEntity
  8
1
  6
Continuous
 62
     2
100
AcDbLine
 10
55.0
 20
287.0000000000003
 30
0.0
 11
55.0
 21
277.0000000000003
 31
0.0
  0
LINE
  5
B3
330
4A
100
AcDbEntity
  8
1
  6
Continuous
 62
     2
100
AcDbLine
 10
33.0
 20
41.00000000000001
 30
0.0
 11
33.0
 21
27.0
 31
0.0
  0
LINE
  5
B4
330
4A
100
AcDbEntity
  8
1
  6
Continuous
 62
     7
100
AcDbLine
 10
200.0
 20
27.00000000000001
 30
0.0
 11
25.0
 21
27.00000000000001
 31
0.0
  0
LINE
  5
B5
330
4A
100
AcDbEntity
  8
1
  6
Continuous
 62
     7
100
AcDbLine
 10
25.0
 20
41.0
 30
0.0
 11
200.0
 21
41.0
 31
0.0
  0
LINE
  5
B6
330
4A
100
AcDbEntity
  8
1
  6
PHANTOM
 62
     4
100
AcDbLine
 10
0.0
 20
0.0
 30
0.0
 11
210.0
 21
0.0
 31
0.0
  0
LINE
  5
B7
330
4A
100
AcDbEntity
  8
1
  6
PHANTOM
 62
     4
100
AcDbLine
 10
210.0
 20
0.0
 30
0.0
 11
210.0
 21
297.0
 31
0.0
  0
LINE
  5
B8
330
4A
100
AcDbEntity
  8
1
  6
PHANTOM
 62
     4
100
AcDbLine
 10
210.0
 20
297.0
 30
0.0
 11
0.0
 21
297.0
 31
0.0
  0
LINE
  5
B9
330
4A
100
AcDbEntity
  8
1
  6
PHANTOM
 62
     4
100
AcDbLine
 10
0.0
 20
297.0
 30
0.0
 11
0.0
 21
0.0
 31
0.0
  0
LINE
  5
BA
330
4A
100
AcDbEntity
  8
1
  6
Continuous
 62
     7
100
AcDbLine
 10
25.0
 20
10.0
 30
0.0
 11
105.0
 21
10.0
 31
0.0
  0
LINE
  5
BB
330
4A
100
AcDbEntity
  8
1
  6
Continuous
 62
     7
100
AcDbLine
 10
200.0
 20
10.0
 30
0.0
 11
200.0
 21
148.5
 31
0.0
  0
LINE
  5
BC
330
4A
100
AcDbEntity
  8
1
  6
Continuous
 62
     7
100
AcDbLine
 10
200.0
 20
287.0000000000003
 30
0.0
 11
105.0
 21
287.0000000000003
 31
0.0
  0
LINE
  5
BD
330
4A
100
AcDbEntity
  8
1
  6
Continuous
 62
     2
100
AcDbLine
 10
25.0
 20
18.50000000000001
 30
0.0
 11
81.0
 21
18.50000000000001
 31
0.0
  0
LINE
  5
BE
330
4A
100
AcDbEntity
  8
1
  6
Continuous
 62
     2
100
AcDbLine
 10
33.0
 20
27.0
 30
0.0
 11
33.0
 21
10.0
 31
0.0
  0
LINE
  5
BF
330
4A
100
AcDbEntity
  8
1
  6
Continuous
 62
     7
100
AcDbLine
 10
191.0
 20
24.70000000000001
 30
0.0
 11
191.0
 21
22.30000000000001
 31
0.0
  0
LINE
  5
C0
330
4A
100
AcDbEntity
  8
1
  6
Continuous
 62
     7
100
AcDbLine
 10
191.0
 20
24.70000000000001
 30
0.0
 11
196.0
 21
25.50000000000001
 31
0.0
  0
LINE
  5
C1
330
4A
100
AcDbEntity
  8
1
  6
Continuous
 62
     7
100
AcDbLine
 10
196.0
 20
25.50000000000001
 30
0.0
 11
196.0
 21
21.50000000000001
 31
0.0
  0
LINE
  5
C2
330
4A
100
AcDbEntity
  8
1
  6
Continuous
 62
     7
100
AcDbLine
 10
196.0
 20
21.50000000000001
 30
0.0
 11
191.0
 21
22.30000000000001
 31
0.0
  0
LINE
  5
C3
330
4A
100
AcDbEntity
  8
1
  6
DOT_CENTER
 62
     2
100
AcDbLine
 10
184.0
 20
23.50000000000001
 30
0.0
 11
197.0
 21
23.50000000000001
 31
0.0
  0
LINE
  5
C4
330
4A
100
AcDbEntity
  8
1
  6
DOT_CENTER
 62
     2
100
AcDbLine
 10
187.0
 20
26.50000000000001
 30
0.0
 11
187.0
 21
20.50000000000001
 31
0.0
  0
LINE
  5
C5
330
4A
100
AcDbEntity
  8
1
  6
Continuous
 62
     2
100
AcDbLine
 10
81.0
 20
27.00000000000001
 30
0.0
 11
81.0
 21
10.0
 31
0.0
  0
CIRCLE
  5
C6
330
4A
100
AcDbEntity
  8
1
  6
Continuous
 62
     7
100
AcDbCircle
 10
103.5
 20
12.5
 30
0.0
 40
0.2999999999999972
  0
CIRCLE
  5
C7
330
4A
100
AcDbEntity
  8
1
  6
Continuous
 62
     7
100
AcDbCircle
 10
109.5
 20
12.5
 30
0.0
 40
0.2999999999999972
  0
CIRCLE
  5
C8
330
4A
100
AcDbEntity
  8
1
  6
Continuous
 62
     7
100
AcDbCircle
 10
120.5
 20
12.5
 30
0.0
 40
0.2999999999999972
  0
CIRCLE
  5
C9
330
4A
100
AcDbEntity
  8
1
  6
Continuous
 62
     7
100
AcDbCircle
 10
126.5
 20
12.5
 30
0.0
 40
0.2999999999999972
  0
CIRCLE
  5
CA
330
4A
100
AcDbEntity
  8
1
  6
Continuous
 62
     7
100
AcDbCircle
 10
137.5
 20
12.5
 30
0.0
 40
0.3000000000000114
  0
CIRCLE
  5
CB
330
4A
100
AcDbEntity
  8
1
  6
Continuous
 62
     7
100
AcDbCircle
 10
143.5
 20
12.5
 30
0.0
 40
0.3000000000000114
  0
CIRCLE
  5
CC
330
4A
100
AcDbEntity
  8
1
  6
Continuous
 62
     7
100
AcDbCircle
 10
160.5
 20
12.5
 30
0.0
 40
0.3000000000000114
  0
CIRCLE
  5
CD
330
4A
100
AcDbEntity
  8
1
  6
Continuous
 62
     7
100
AcDbCircle
 10
154.5
 20
12.5
 30
0.0
 40
0.3000000000000114
  0
CIRCLE
  5
CE
330
4A
100
AcDbEntity
  8
1
  6
Continuous
 62
     7
100
AcDbCircle
 10
187.0
 20
23.50000000000001
 30
0.0
 40
1.200000000000102
  0
CIRCLE
  5
CF
330
4A
100
AcDbEntity
  8
1
  6
Continuous
 62
     7
100
AcDbCircle
 10
187.0
 20
23.50000000000001
 30
0.0
 40
2.0
  0
CIRCLE
  5
D0
330
4A
100
AcDbEntity
  8
1
  6
DOT_CENTER
 62
     7
100
AcDbCircle
 10
89.5
 20
16.0
 30
0.0
 40
0.1000000000000227
  0
CIRCLE
  5
D1
330
4A
100
AcDbEntity
  8
1
  6
DOT_CENTER
 62
     7
100
AcDbCircle
 10
89.5
 20
18.0
 30
0.0
 40
0.1000000000000227
  0
MTEXT
  5
D3
330
4A
100
AcDbEntity
  8
1
 62
     7
100
AcDbMText
 10
188.5
 20
15.0
 30
0.0
 40
3.0
 41
0.0
 71
     5
 72
     1
  1
三栄水栓製作所
  7
CONVERTER_11
 73
     1
 44
1.0
  0
MTEXT
  5
D4
330
4A
100
AcDbEntity
  8
1
 62
     7
100
AcDbMText
 10
171.5
 20
15.0
 30
0.0
 40
2.5
 41
0.0
 71
     5
 72
     1
  1
株式会社
  7
CONVERTER_11
 73
     1
 44
1.0
  0
MTEXT
  5
D5
330
4A
100
AcDbEntity
  8
1
 62
     2
100
AcDbMText
 10
32.5
 20
282.0000000000003
 30
0.0
 40
5.0
 41
0.0
 71
     5
 72
     1
  1
図番
  7
CONVERTER_11
 73
     1
 44
0.45454545454545
  0
MTEXT
  5
D6
330
4A
100
AcDbEntity
  8
1
 62
     2
100
AcDbMText
 10
29.0
 20
34.00000000000001
 30
0.0
 40
3.5
 41
0.0
 71
     5
 72
     1
  1
備考
  7
CONVERTER_11
 73
     1
 44
0.45454545454545
  0
MTEXT
  5
D7
330
4A
100
AcDbEntity
  8
1
 62
     2
100
AcDbMText
 10
29.0
 20
22.75
 30
0.0
 40
3.5
 41
0.0
 71
     5
 72
     1
  1
品名
  7
CONVERTER_11
 73
     1
 44
0.72727272727273
  0
MTEXT
  5
D8
330
4A
100
AcDbEntity
  8
1
 62
     2
100
AcDbMText
 10
29.0
 20
14.25
 30
0.0
 40
3.5
 41
0.0
 71
     5
 72
     1
  1
品番
  7
CONVERTER_11
 73
     1
 44
0.72727272727273
  0
MTEXT
  5
D9
330
4A
100
AcDbEntity
  8
1
 62
     2
100
AcDbMText
 10
101.5
 20
25.00000000000001
 30
0.0
 40
3.0
 41
0.0
 71
     5
 72
     1
  1
承認
  7
CONVERTER_11
 73
     1
 44
0.59090909090909
  0
MTEXT
  5
DA
330
4A
100
AcDbEntity
  8
1
 62
     2
100
AcDbMText
 10
175.0
 20
23.50000000000001
 30
0.0
 40
3.5
 41
0.0
 71
     5
 72
     1
  1
第三角法
  7
CONVERTER_11
 73
     1
 44
0.54545454545455
  0
MTEXT
  5
DB
330
4A
100
AcDbEntity
  8
1
 62
     2
100
AcDbMText
 10
118.5
 20
25.00000000000001
 30
0.0
 40
3.0
 41
0.0
 71
     5
 72
     1
  1
検図
  7
CONVERTER_11
 73
     1
 44
0.59090909090909
  0
MTEXT
  5
DC
330
4A
100
AcDbEntity
  8
1
 62
     2
100
AcDbMText
 10
152.5
 20
25.00000000000001
 30
0.0
 40
3.0
 41
0.0
 71
     5
 72
     1
  1
設計
  7
CONVERTER_11
 73
     1
 44
0.59090909090909
  0
MTEXT
  5
DD
330
4A
100
AcDbEntity
  8
1
 62
     2
100
AcDbMText
 10
135.5
 20
25.00000000000001
 30
0.0
 40
3.0
 41
0.0
 71
     5
 72
     1
  1
製図
  7
CONVERTER_11
 73
     1
 44
0.59090909090909
  0
MTEXT
  5
DE
330
4A
100
AcDbEntity
  8
1
 62
     2
100
AcDbMText
 10
89.5
 20
24.00000000000001
 30
0.0
 40
3.5
 41
0.0
 71
     5
 72
     1
  1
尺度
  7
CONVERTER_11
 73
     1
 44
0.54545454545455
  0
MTEXT
  5
DF
330
4A
100
AcDbEntity
  8
1
 62
   250
100
AcDbMText
 10
25.0
 20
5.0
 30
0.0
 40
3.5
 41
0.0
 71
     4
 72
     1
  1
備考欄の文字列 原点位置=4
  7
CONVERTER_11
 73
     1
 44
0.54545454545455
  0
ENDBLK
  5
4C
330
4A
100
AcDbEntity
  8
0
100
AcDbBlockEnd
  0
BLOCK
  5
4E
330
4D
100
AcDbEntity
  8
0
100
AcDbBlockBegin
  2
42-1
 70
     0
 10
488.771308341923
 20
182.3241423355145
 30
0.0
  3
42-1
  1

  0
LINE
  5
E0
330
4D
100
AcDbEntity
  8
1
  6
Continuous
 62
     2
100
AcDbLine
 10
183.8592134632318
 20
389.0908903566601
 30
0.0
 11
183.8592134632318
 21
390.3561294472706
 31
0.0
  0
LINE
  5
E1
330
4D
100
AcDbEntity
  8
1
  6
Continuous
 62
     2
100
AcDbLine
 10
184.8592134632318
 20
388.8313541329451
 30
0.0
 11
184.8592134632318
 21
390.5994446570033
 31
0.0
  0
LINE
  5
E2
330
4D
100
AcDbEntity
  8
1
  6
Continuous
 62
     2
100
AcDbLine
 10
185.8592134632318
 20
388.4744918253371
 30
0.0
 11
185.8592134632318
 21
390.8103178387717
 31
0.0
  0
LINE
  5
E3
330
4D
100
AcDbEntity
  8
1
  6
Continuous
 62
     2
100
AcDbLine
 10
186.8592134632318
 20
388.2798396575509
 30
0.0
 11
186.8592134632318
 21
390.923864936647
 31
0.0
  0
LINE
  5
E4
330
4D
100
AcDbEntity
  8
1
  6
Continuous
 62
     2
100
AcDbLine
 10
187.8592134632318
 20
388.1137913450993
 30
0.0
 11
187.8592134632318
 21
391.1137913450993
 31
0.0
  0
LINE
  5
E5
330
4D
100
AcDbEntity
  8
1
  6
Continuous
 62
     2
100
AcDbLine
 10
188.8592134632319
 20
388.1137913450993
 30
0.0
 11
188.8592134632319
 21
391.1137913450993
 31
0.0
  0
LINE
  5
E6
330
4D
100
AcDbEntity
  8
1
  6
Continuous
 62
     7
100
AcDbLine
 10
188.8592134632319
 20
391.3831135441225
 30
0.0
 11
189.8592134632319
 21
391.1137913450993
 31
0.0
  0
LINE
  5
E7
330
4D
100
AcDbEntity
  8
1
  6
Continuous
 62
     7
100
AcDbLine
 10
189.8592134632319
 20
391.1137913450993
 30
0.0
 11
189.8592134632319
 21
388.1137913450993
 31
0.0
  0
LINE
  5
E8
330
4D
100
AcDbEntity
  8
1
  6
Continuous
 62
     7
100
AcDbLine
 10
175.8592134632319
 20
388.1137913450993
 30
0.0
 11
175.8592134632319
 21
391.1137913450993
 31
0.0
  0
LINE
  5
E9
330
4D
100
AcDbEntity
  8
1
  6
Continuous
 62
     7
100
AcDbLine
 10
175.8592134632319
 20
391.1137913450993
 30
0.0
 11
176.8592134632318
 21
391.3831135441225
 31
0.0
  0
LINE
  5
EA
330
4D
100
AcDbEntity
  8
1
  6
Continuous
 62
     2
100
AcDbLine
 10
176.8592134632319
 20
391.1137913450993
 30
0.0
 11
176.8592134632319
 21
388.1137913450993
 31
0.0
  0
LINE
  5
EB
330
4D
100
AcDbEntity
  8
1
  6
Continuous
 62
     7
100
AcDbLine
 10
175.8592134632319
 20
388.1137913450993
 30
0.0
 11
189.8592134632319
 21
388.1137913450993
 31
0.0
  0
LINE
  5
EC
330
4D
100
AcDbEntity
  8
1
  6
Continuous
 62
     2
100
AcDbLine
 10
177.8592134632319
 20
391.1137913450993
 30
0.0
 11
177.8592134632319
 21
388.1137913450993
 31
0.0
  0
LINE
  5
ED
330
4D
100
AcDbEntity
  8
1
  6
Continuous
 62
     2
100
AcDbLine
 10
178.8592134632319
 20
390.923864936647
 30
0.0
 11
178.8592134632319
 21
388.2798396575509
 31
0.0
  0
LINE
  5
EE
330
4D
100
AcDbEntity
  8
1
  6
Continuous
 62
     2
100
AcDbLine
 10
179.8592134632319
 20
390.8103178387717
 30
0.0
 11
179.8592134632319
 21
388.4744918253371
 31
0.0
  0
LINE
  5
EF
330
4D
100
AcDbEntity
  8
1
  6
Continuous
 62
     2
100
AcDbLine
 10
180.8592134632319
 20
390.5994446570033
 30
0.0
 11
180.8592134632319
 21
388.8313541329451
 31
0.0
  0
LINE
  5
F0
330
4D
100
AcDbEntity
  8
1
  6
Continuous
 62
     2
100
AcDbLine
 10
181.8592134632319
 20
390.3561294472706
 30
0.0
 11
181.8592134632319
 21
389.0908903566601
 31
0.0
  0
LINE
  5
F1
330
4D
100
AcDbEntity
  8
1
  6
Continuous
 62
     7
100
AcDbLine
 10
177.1092134632319
 20
391.4435570653031
 30
0.0
 11
188.6092134632318
 21
391.4435570653031
 31
0.0
  0
LINE
  5
F2
330
4D
100
AcDbEntity
  8
1
  6
Continuous
 62
     7
100
AcDbLine
 10
175.8592134632319
 20
391.1137913450993
 30
0.0
 11
189.8592134632319
 21
391.1137913450993
 31
0.0
  0
LINE
  5
F3
330
4D
100
AcDbEntity
  8
1
  6
Continuous
 62
     2
100
AcDbLine
 10
577.8755684285264
 20
389.0908903566601
 30
0.0
 11
577.8755684285264
 21
390.3561294472706
 31
0.0
  0
LINE
  5
F4
330
4D
100
AcDbEntity
  8
1
  6
Continuous
 62
     2
100
AcDbLine
 10
578.8755684285264
 20
388.8313541329451
 30
0.0
 11
578.8755684285264
 21
390.5994446570033
 31
0.0
  0
LINE
  5
F5
330
4D
100
AcDbEntity
  8
1
  6
Continuous
 62
     2
100
AcDbLine
 10
579.8755684285264
 20
388.4744918253371
 30
0.0
 11
579.8755684285264
 21
390.8103178387717
 31
0.0
  0
LINE
  5
F6
330
4D
100
AcDbEntity
  8
1
  6
Continuous
 62
     2
100
AcDbLine
 10
580.8755684285264
 20
388.2798396575509
 30
0.0
 11
580.8755684285264
 21
390.923864936647
 31
0.0
  0
LINE
  5
F7
330
4D
100
AcDbEntity
  8
1
  6
Continuous
 62
     2
100
AcDbLine
 10
581.8755684285264
 20
388.1137913450993
 30
0.0
 11
581.8755684285264
 21
391.1137913450993
 31
0.0
  0
LINE
  5
F8
330
4D
100
AcDbEntity
  8
1
  6
Continuous
 62
     2
100
AcDbLine
 10
582.8755684285265
 20
388.1137913450993
 30
0.0
 11
582.8755684285265
 21
391.1137913450993
 31
0.0
  0
LINE
  5
F9
330
4D
100
AcDbEntity
  8
1
  6
Continuous
 62
     7
100
AcDbLine
 10
582.8755684285265
 20
391.3831135441225
 30
0.0
 11
583.8755684285265
 21
391.1137913450993
 31
0.0
  0
LINE
  5
FA
330
4D
100
AcDbEntity
  8
1
  6
Continuous
 62
     7
100
AcDbLine
 10
583.8755684285265
 20
391.1137913450993
 30
0.0
 11
583.8755684285265
 21
388.1137913450993
 31
0.0
  0
LINE
  5
FB
330
4D
100
AcDbEntity
  8
1
  6
Continuous
 62
     7
100
AcDbLine
 10
569.8755684285265
 20
388.1137913450993
 30
0.0
 11
569.8755684285265
 21
391.1137913450993
 31
0.0
  0
LINE
  5
FC
330
4D
100
AcDbEntity
  8
1
  6
Continuous
 62
     7
100
AcDbLine
 10
569.8755684285265
 20
391.1137913450993
 30
0.0
 11
570.8755684285264
 21
391.3831135441225
 31
0.0
  0
LINE
  5
FD
330
4D
100
AcDbEntity
  8
1
  6
Continuous
 62
     2
100
AcDbLine
 10
570.8755684285265
 20
391.1137913450993
 30
0.0
 11
570.8755684285265
 21
388.1137913450993
 31
0.0
  0
LINE
  5
FE
330
4D
100
AcDbEntity
  8
1
  6
Continuous
 62
     7
100
AcDbLine
 10
569.8755684285265
 20
388.1137913450993
 30
0.0
 11
583.8755684285265
 21
388.1137913450993
 31
0.0
  0
LINE
  5
FF
330
4D
100
AcDbEntity
  8
1
  6
Continuous
 62
     2
100
AcDbLine
 10
571.8755684285265
 20
391.1137913450993
 30
0.0
 11
571.8755684285265
 21
388.1137913450993
 31
0.0
  0
LINE
  5
100
330
4D
100
AcDbEntity
  8
1
  6
Continuous
 62
     2
100
AcDbLine
 10
572.8755684285265
 20
390.923864936647
 30
0.0
 11
572.8755684285265
 21
388.2798396575509
 31
0.0
  0
LINE
  5
101
330
4D
100
AcDbEntity
  8
1
  6
Continuous
 62
     2
100
AcDbLine
 10
573.8755684285265
 20
390.8103178387717
 30
0.0
 11
573.8755684285265
 21
388.4744918253371
 31
0.0
  0
LINE
  5
102
330
4D
100
AcDbEntity
  8
1
  6
Continuous
 62
     2
100
AcDbLine
 10
574.8755684285265
 20
390.5994446570033
 30
0.0
 11
574.8755684285265
 21
388.8313541329451
 31
0.0
  0
LINE
  5
103
330
4D
100
AcDbEntity
  8
1
  6
Continuous
 62
     2
100
AcDbLine
 10
575.8755684285265
 20
390.3561294472706
 30
0.0
 11
575.8755684285265
 21
389.0908903566601
 31
0.0
  0
LINE
  5
104
330
4D
100
AcDbEntity
  8
1
  6
Continuous
 62
     7
100
AcDbLine
 10
571.1255684285265
 20
391.4435570653031
 30
0.0
 11
582.6255684285264
 21
391.4435570653031
 31
0.0
  0
LINE
  5
105
330
4D
100
AcDbEntity
  8
1
  6
Continuous
 62
     7
100
AcDbLine
 10
569.8755684285265
 20
391.1137913450993
 30
0.0
 11
583.8755684285265
 21
391.1137913450993
 31
0.0
  0
ARC
  5
106
330
4D
100
AcDbEntity
  8
1
  6
Continuous
 62
     7
100
AcDbCircle
 10
182.8592134632319
 20
367.1137913450993
 30
0.0
 40
25.00000000000004
100
AcDbArc
 50
76.11345963737104
 51
90.0
  0
ARC
  5
107
330
4D
100
AcDbEntity
  8
1
  6
Continuous
 62
     7
100
AcDbCircle
 10
182.8592134632319
 20
367.1137913450993
 30
0.0
 40
25.0
100
AcDbArc
 50
90.0
 51
103.8865403626292
  0
ARC
  5
108
330
4D
100
AcDbEntity
  8
1
  6
Continuous
 62
     7
100
AcDbCircle
 10
576.8755684285265
 20
367.1137913450993
 30
0.0
 40
25.00000000000004
100
AcDbArc
 50
76.11345963737104
 51
90.0
  0
ARC
  5
109
330
4D
100
AcDbEntity
  8
1
  6
Continuous
 62
     7
100
AcDbCircle
 10
576.8755684285265
 20
367.1137913450993
 30
0.0
 40
25.0
100
AcDbArc
 50
90.0
 51
103.8865403626292
  0
CIRCLE
  5
10A
330
4D
100
AcDbEntity
  8
1
  6
Continuous
 62
     7
100
AcDbCircle
 10
182.8592134632319
 20
783.7980399121153
 30
0.0
 40
6.999999999999915
  0
CIRCLE
  5
10B
330
4D
100
AcDbEntity
  8
1
  6
Continuous
 62
     7
100
AcDbCircle
 10
182.8592134632319
 20
783.7980399121153
 30
0.0
 40
5.749999999999915
  0
ENDBLK
  5
4F
330
4D
100
AcDbEntity
  8
0
100
AcDbBlockEnd
  0
BLOCK
  5
51
330
50
100
AcDbEntity
  8
0
100
AcDbBlockBegin
  2
37-1-13
 70
     0
 10
485.0743382117555
 20
218.1180854549547
 30
0.0
  3
37-1-13
  1

  0
LINE
  5
10C
330
50
100
AcDbEntity
  8
1
  6
Continuous
 62
     7
100
AcDbLine
 10
169.8592134632319
 20
360.1137913450993
 30
0.0
 11
169.8592134632319
 21
367.1845055593708
 31
0.0
  0
LINE
  5
10D
330
50
100
AcDbEntity
  8
1
  6
Continuous
 62
     7
100
AcDbLine
 10
195.8592134632319
 20
367.1845055593708
 30
0.0
 11
195.8592134632319
 21
360.1137913450993
 31
0.0
  0
LINE
  5
10E
330
50
100
AcDbEntity
  8
1
  6
Continuous
 62
     7
100
AcDbLine
 10
182.8592134632319
 20
360.1137913450993
 30
0.0
 11
169.8592134632319
 21
360.1137913450993
 31
0.0
  0
LINE
  5
10F
330
50
100
AcDbEntity
  8
1
  6
Continuous
 62
     7
100
AcDbLine
 10
182.8592134632319
 20
360.1137913450993
 30
0.0
 11
195.8592134632319
 21
360.1137913450993
 31
0.0
  0
LINE
  5
110
330
50
100
AcDbEntity
  8
1
  6
Continuous
 62
     7
100
AcDbLine
 10
177.8592134632319
 20
374.1137913450993
 30
0.0
 11
176.8592134632319
 21
374.1137913450993
 31
0.0
  0
LINE
  5
111
330
50
100
AcDbEntity
  8
1
  6
Continuous
 62
     7
100
AcDbLine
 10
182.8592134632319
 20
374.1137913450993
 30
0.0
 11
188.8592134632319
 21
374.1137913450993
 31
0.0
  0
LINE
  5
112
330
50
100
AcDbEntity
  8
1
  6
Continuous
 62
     7
100
AcDbLine
 10
182.8592134632319
 20
374.1137913450993
 30
0.0
 11
177.8592134632319
 21
374.1137913450993
 31
0.0
  0
LINE
  5
113
330
50
100
AcDbEntity
  8
1
  6
Continuous
 62
     7
100
AcDbLine
 10
589.946282642798
 20
360.1137913450993
 30
0.0
 11
563.8048542142551
 21
360.1137913450993
 31
0.0
  0
LINE
  5
114
330
50
100
AcDbEntity
  8
1
  6
Continuous
 62
     7
100
AcDbLine
 10
582.8755684285265
 20
374.1137913450993
 30
0.0
 11
570.8755684285265
 21
374.1137913450993
 31
0.0
  0
LINE
  5
115
330
50
100
AcDbEntity
  8
1
  6
PHANTOM
 62
     4
100
AcDbLine
 10
167.2929034081861
 20
783.7980399121152
 30
0.0
 11
198.3559102062293
 21
783.7980399121152
 31
0.0
  0
LINE
  5
116
330
50
100
AcDbEntity
  8
1
  6
PHANTOM
 62
     4
100
AcDbLine
 10
182.8592134632314
 20
765.7991313416355
 30
0.0
 11
182.8592134632314
 21
801.5030256095059
 31
0.0
  0
LINE
  5
117
330
50
100
AcDbEntity
  8
1
  6
Continuous
 62
     7
100
AcDbLine
 10
194.9213623285532
 20
775.7510178075838
 30
0.0
 11
193.8835826275102
 21
775.151855417827
 31
0.0
  0
LINE
  5
118
330
50
100
AcDbEntity
  8
1
  6
Continuous
 62
     7
100
AcDbLine
 10
183.7970645979096
 20
798.2676783059792
 30
0.0
 11
184.8348442989529
 21
797.6685159162223
 31
0.0
  0
LINE
  5
119
330
50
100
AcDbEntity
  8
1
  6
Continuous
 62
     7
100
AcDbLine
 10
180.88358262751
 20
797.6685159162224
 30
0.0
 11
181.9213623285532
 21
798.2676783059792
 31
0.0
  0
LINE
  5
11A
330
50
100
AcDbEntity
  8
1
  6
Continuous
 62
     7
100
AcDbLine
 10
195.8592134632314
 20
778.5737484022961
 30
0.0
 11
195.8592134632314
 21
777.3754236227826
 31
0.0
  0
LINE
  5
11B
330
50
100
AcDbEntity
  8
1
  6
Continuous
 62
     7
100
AcDbLine
 10
169.8592134632314
 20
777.3754236227826
 30
0.0
 11
169.8592134632314
 21
778.5737484022961
 31
0.0
  0
LINE
  5
11C
330
50
100
AcDbEntity
  8
1
  6
Continuous
 62
     7
100
AcDbLine
 10
171.8348442989527
 20
775.151855417827
 30
0.0
 11
170.7970645979096
 21
775.7510178075838
 31
0.0
  0
ARC
  5
11D
330
50
100
AcDbEntity
  8
1
  6
Continuous
 62
     7
100
AcDbCircle
 10
173.3592134632319
 20
363.6137913450993
 30
0.0
 40
4.999999999999972
100
AcDbArc
 50
126.8698976458414
 51
134.4270040008051
  0
ARC
  5
11E
330
50
100
AcDbEntity
  8
1
  6
Continuous
 62
     7
100
AcDbCircle
 10
156.9527582581171
 20
387.5202465502142
 30
0.0
 40
23.99999999999995
100
AcDbArc
 50
303.9591925000979
 51
326.0408074999024
  0
ARC
  5
11F
330
50
100
AcDbEntity
  8
1
  6
Continuous
 62
     7
100
AcDbCircle
 10
192.3592134632319
 20
363.6137913450993
 30
0.0
 40
5.000000000000057
100
AcDbArc
 50
45.57299599919494
 51
53.13010235415676
  0
ARC
  5
120
330
50
100
AcDbEntity
  8
1
  6
Continuous
 62
     7
100
AcDbCircle
 10
208.7656686683469
 20
387.5202465502142
 30
0.0
 40
24.00000000000007
100
AcDbArc
 50
213.9591925000974
 51
236.0408074999022
  0
ARC
  5
121
330
50
100
AcDbEntity
  8
1
  6
Continuous
 62
     7
100
AcDbCircle
 10
602.7820236336414
 20
387.5202465502143
 30
0.0
 40
24.00000000000002
100
AcDbArc
 50
213.9591925000978
 51
236.0408074999022
  0
ARC
  5
122
330
50
100
AcDbEntity
  8
1
  6
Continuous
 62
     7
100
AcDbCircle
 10
586.3755684285265
 20
363.6137913450993
 30
0.0
 40
5.000000000000016
100
AcDbArc
 50
315.5729959991945
 51
53.13010235415884
  0
ARC
  5
123
330
50
100
AcDbEntity
  8
1
  6
Continuous
 62
     7
100
AcDbCircle
 10
550.9691132234116
 20
387.5202465502143
 30
0.0
 40
24.00000000000003
100
AcDbArc
 50
303.9591925000976
 51
326.0408074999024
  0
ARC
  5
124
330
50
100
AcDbEntity
  8
1
  6
Continuous
 62
     7
100
AcDbCircle
 10
567.3755684285265
 20
363.6137913450993
 30
0.0
 40
5.000000000000091
100
AcDbArc
 50
126.8698976458433
 51
224.4270040008055
  0
ARC
  5
125
330
50
100
AcDbEntity
  8
1
  6
Continuous
 62
     7
100
AcDbCircle
 10
182.8592134632315
 20
783.7980399121152
 30
0.0
 40
14.49999999999999
100
AcDbArc
 50
86.29155527472992
 51
90.00000000000034
  0
ARC
  5
126
330
50
100
AcDbEntity
  8
1
  6
Continuous
 62
     7
100
AcDbCircle
 10
182.8592134632315
 20
783.7980399121152
 30
0.0
 40
14.49999999999993
100
AcDbArc
 50
326.2915552747294
 51
333.7084447252703
  0
ARC
  5
127
330
50
100
AcDbEntity
  8
1
  6
Continuous
 62
     7
100
AcDbCircle
 10
182.8592134632315
 20
783.7980399121152
 30
0.0
 40
14.5
100
AcDbArc
 50
90.00000000000034
 51
93.70844472527087
  0
ARC
  5
128
330
50
100
AcDbEntity
  8
1
  6
Continuous
 62
     7
100
AcDbCircle
 10
182.8592134632315
 20
783.7980399121152
 30
0.0
 40
14.5000000000001
100
AcDbArc
 50
206.2915552747294
 51
213.7084447252702
  0
SPLINE
  5
129
330
50
100
AcDbEntity
  8
1
  6
Continuous
 62
     7
100
AcDbSpline
210
0.0
220
0.0
230
1.0
 70
    11
 71
     3
 72
    79
 73
    75
 74
    73
 42
0.000000001
 43
0.0000000001
 44
0.00000001
 40
0.0
 40
0.0
 40
0.0
 40
0.0
 40
0.316043638799619
 40
0.6318966285517844
 40
0.9639391265079442
 40
1.295702693009362
 40
1.650847222609268
 40
2.005727784477278
 40
2.387357017978381
 40
2.768780710151028
 40
3.176769167226698
 40
3.584612389530502
 40
4.015944746705272
 40
4.447181167981154
 40
4.896666768954172
 40
5.346094677409075
 40
5.807047416077176
 40
6.267973147891171
 40
6.732835055932771
 40
7.197696963972484
 40
7.658622695780677
 40
8.119575434438163
 40
8.569003342876414
 40
9.018488943823792
 40
9.449725365063268
 40
9.881057722185293
 40
10.28890094441822
 40
10.69688940139464
 40
11.07831309343928
 40
11.45994232676487
 40
11.81482288840936
 40
12.16996741770039
 40
12.50173098377973
 40
12.8337734810313
 40
13.14962646880611
 40
13.46567011525741
 40
13.77589254991647
 40
14.08611498457424
 40
14.40215863102213
 40
14.71801161879143
 40
15.05005411603555
 40
15.38181768210612
 40
15.73696221138694
 40
16.09184277302092
 40
16.47347200633504
 40
16.85489569836832
 40
17.26288415533299
 40
17.67072737755459
 40
18.10205973466512
 40
18.53329615589371
 40
18.98278175683046
 40
19.4322096652588
 40
19.89316240390685
 40
20.35408813570627
 40
20.81895004373775
 40
21.28381195177163
 40
21.74473768357872
 40
22.20569042224058
 40
22.65511833069016
 40
23.10460393165807
 40
23.53584035292942
 40
23.96717271009948
 40
24.37501593239838
 40
24.7830043894676
 40
25.1644280816312
 40
25.54605731511714
 40
25.90093787695942
 40
26.25608240650899
 40
26.5878459729025
 40
26.91988847056004
 40
27.23574145885956
 40
27.55178510609556
 40
27.86200754281983
 40
28.17222997000348
 40
28.17222997000348
 40
28.17222997000348
 40
28.17222997000348
 10
181.9005994384626
 20
363.9586752870213
 30
0.0
 10
181.8828075295493
 20
364.0626693114406
 30
0.0
 10
181.8472344525188
 20
364.2705946287947
 30
0.0
 10
181.7410937299695
 20
364.5752403518741
 30
0.0
 10
181.600040391826
 20
364.8703986429672
 30
0.0
 10
181.417790473153
 20
365.157910092369
 30
0.0
 10
181.2015752244475
 20
365.430433317849
 30
0.0
 10
180.9476363279341
 20
365.6918213866911
 30
0.0
 10
180.6640475083713
 20
365.9343548328412
 30
0.0
 10
180.3464500258126
 20
366.1620274943469
 30
0.0
 10
180.0041453421116
 20
366.3680083013844
 30
0.0
 10
179.6326896492357
 20
366.5554503959892
 30
0.0
 10
179.2417460745134
 20
366.7191056568739
 30
0.0
 10
178.8277220651888
 20
366.8609582286387
 30
0.0
 10
178.3996249158069
 20
366.9775183263919
 30
0.0
 10
177.9555406075372
 20
367.0697396995409
 30
0.0
 10
177.5029473579126
 20
367.1356836392733
 30
0.0
 10
177.0421774869237
 20
367.1756909219108
 30
0.0
 10
176.5785600088398
 20
367.188931614843
 30
0.0
 10
176.1149425307425
 20
367.1756909219708
 30
0.0
 10
175.6541726597949
 20
367.1356836393911
 30
0.0
 10
175.2015794100244
 20
367.0697396997497
 30
0.0
 10
174.7574951022899
 20
366.9775183266125
 30
0.0
 10
174.3293979509513
 20
366.8609582292228
 30
0.0
 10
173.9153739486466
 20
366.7191056566365
 30
0.0
 10
173.5244303484164
 20
366.5554503993249
 30
0.0
 10
173.1529747457826
 20
366.3680082927768
 30
0.0
 10
172.8106697363883
 20
366.1620275296989
 30
0.0
 10
172.4930733941104
 20
365.9343547152866
 30
0.0
 10
172.2094804760158
 20
365.6918218199559
 30
0.0
 10
171.9555558597471
 20
365.4304318333573
 30
0.0
 10
171.7392892605808
 20
365.157915505741
 30
0.0
 10
171.5572190609018
 20
364.8703799170493
 30
0.0
 10
171.4155149836608
 20
364.5753090346347
 30
0.0
 10
171.3116911958864
 20
364.2703520987636
 30
0.0
 10
171.2501462881884
 20
363.9614909685737
 30
0.0
 10
171.2286302466544
 20
363.6491484526478
 30
0.0
 10
171.2501462881759
 20
363.3368059367227
 30
0.0
 10
171.3116911958614
 20
363.0279448065332
 30
0.0
 10
171.4155149836236
 20
362.7229878706639
 30
0.0
 10
171.5572190608526
 20
362.4279169882517
 30
0.0
 10
171.7392892605203
 20
362.140381399563
 30
0.0
 10
171.9555558596758
 20
361.8678650719507
 30
0.0
 10
172.209480475934
 20
361.6064750853567
 30
0.0
 10
172.4930733940187
 20
361.3639421900317
 30
0.0
 10
172.8106697362873
 20
361.1362693756257
 30
0.0
 10
173.1529747456727
 20
360.9302886125556
 30
0.0
 10
173.5244303482979
 20
360.7428465060159
 30
0.0
 10
173.9153739485201
 20
360.5791912487143
 30
0.0
 10
174.3293979508171
 20
360.4373386761391
 30
0.0
 10
174.7574951021484
 20
360.3207785787621
 30
0.0
 10
175.2015794098757
 20
360.2285572056393
 30
0.0
 10
175.654172659639
 20
360.1626132660143
 30
0.0
 10
176.1149425305801
 20
360.1226059834526
 30
0.0
 10
176.5785600086671
 20
360.1093652906013
 30
0.0
 10
177.0421774867527
 20
360.1226059835546
 30
0.0
 10
177.5029473576957
 20
360.1626132662228
 30
0.0
 10
177.9555406074464
 20
360.2285572059611
 30
0.0
 10
178.399624915208
 20
360.3207785792167
 30
0.0
 10
178.8277220663942
 20
360.4373386767193
 30
0.0
 10
179.2417460691811
 20
360.5791912495274
 30
0.0
 10
179.6326896675753
 20
360.7428465067758
 30
0.0
 10
180.004145276599
 20
360.9302886143987
 30
0.0
 10
180.3464502627911
 20
361.13626937461
 30
0.0
 10
180.6640466861224
 20
361.3639422002013
 30
0.0
 10
180.9476393126448
 20
361.606475056701
 30
0.0
 10
181.2015649445127
 20
361.8678651801011
 30
0.0
 10
181.4178278912654
 20
362.1403810175571
 30
0.0
 10
181.5999108733343
 20
362.4279183236905
 30
0.0
 10
181.7415686664985
 20
362.7229829897855
 30
0.0
 10
181.8455572463748
 20
363.0279620613505
 30
0.0
 10
181.9064970476876
 20
363.3367419146588
 30
0.0
 10
181.9302324964558
 20
363.6493825411552
 30
0.0
 10
181.9104771215264
 20
363.8555777058966
 30
0.0
 10
181.9005994384626
 20
363.9586752870213
 30
0.0
 11
181.9005994384626
 21
363.9586752870213
 31
0.0
 11
181.8387170891762
 21
364.2686013449782
 31
0.0
 11
181.7376609622468
 21
364.5678516903099
 31
0.0
 11
181.5942072427783
 21
364.8673066125205
 31
0.0
 11
181.4173765293831
 21
365.1480163605727
 31
0.0
 11
181.1970659585467
 21
365.4265677725876
 31
0.0
 11
180.9502584124231
 21
365.6815702201648
 31
0.0
 11
180.6606481238976
 21
365.9300993986665
 31
0.0
 11
180.3509458049689
 21
366.1527392570702
 31
0.0
 11
180.0016692228199
 21
366.3635957253872
 31
0.0
 11
179.6377254215599
 21
366.5476636570845
 31
0.0
 11
179.2400289294864
 21
366.7146519875799
 31
0.0
 11
178.8321530963314
 21
366.8546596864869
 31
0.0
 11
178.3985447149707
 21
366.9730703156137
 31
0.0
 11
177.9585319575182
 21
367.064581070035
 31
0.0
 11
177.5024260741556
 21
367.1312507816533
 31
0.0
 11
177.043229777016
 21
367.1711417698921
 31
0.0
 11
176.5785599989138
 21
367.1845055593707
 31
0.0
 11
176.1138902208118
 21
367.1711417698921
 31
0.0
 11
175.6546939236722
 21
367.1312507816533
 31
0.0
 11
175.1985880403097
 21
367.0645810700351
 31
0.0
 11
174.7585752828571
 21
366.9730703156138
 31
0.0
 11
174.3249669014964
 21
366.854659686487
 31
0.0
 11
173.9170910683414
 21
366.7146519875799
 31
0.0
 11
173.5193945762678
 21
366.5476636570845
 31
0.0
 11
173.1554507750079
 21
366.3635957253873
 31
0.0
 11
172.806174192859
 21
366.1527392570703
 31
0.0
 11
172.4964718739303
 21
365.9300993986665
 31
0.0
 11
172.2068615854048
 21
365.6815702201648
 31
0.0
 11
171.9600540392812
 21
365.4265677725877
 31
0.0
 11
171.7397434684447
 21
365.1480163605727
 31
0.0
 11
171.5629127550495
 21
364.8673066125203
 31
0.0
 11
171.4194590355809
 21
364.5678516903099
 31
0.0
 11
171.3184029086514
 21
364.2686013449782
 31
0.0
 11
171.2565205593651
 21
363.9586752870214
 31
0.0
 11
171.2357576692738
 21
363.649148452235
 31
0.0
 11
171.2565205593651
 21
363.3396216174486
 31
0.0
 11
171.3184029086514
 21
363.0296955594918
 31
0.0
 11
171.4194590355808
 21
362.7304452141601
 31
0.0
 11
171.5629127550494
 21
362.4309902919496
 31
0.0
 11
171.7397434684445
 21
362.1502805438972
 31
0.0
 11
171.9600540392811
 21
361.8717291318824
 31
0.0
 11
172.2068615854047
 21
361.6167266843053
 31
0.0
 11
172.4964718739302
 21
361.3681975058035
 31
0.0
 11
172.8061741928589
 21
361.1455576473998
 31
0.0
 11
173.1554507750078
 21
360.9347011790827
 31
0.0
 11
173.5193945762678
 21
360.7506332473855
 31
0.0
 11
173.9170910683413
 21
360.5836449168902
 31
0.0
 11
174.3249669014962
 21
360.4436372179831
 31
0.0
 11
174.758575282857
 21
360.3252265888563
 31
0.0
 11
175.1985880403096
 21
360.2337158344349
 31
0.0
 11
175.6546939236722
 21
360.1670461228167
 31
0.0
 11
176.1138902208119
 21
360.1271551345779
 31
0.0
 11
176.5785599989139
 21
360.1137913450992
 31
0.0
 11
177.0432297770159
 21
360.1271551345779
 31
0.0
 11
177.5024260741555
 21
360.1670461228167
 31
0.0
 11
177.9585319575181
 21
360.2337158344349
 31
0.0
 11
178.3985447149707
 21
360.3252265888563
 31
0.0
 11
178.8321530963313
 21
360.4436372179831
 31
0.0
 11
179.2400289294862
 21
360.5836449168902
 31
0.0
 11
179.6377254215597
 21
360.7506332473855
 31
0.0
 11
180.0016692228197
 21
360.9347011790828
 31
0.0
 11
180.3509458049688
 21
361.1455576473999
 31
0.0
 11
180.6606481238976
 21
361.3681975058035
 31
0.0
 11
180.9502584124231
 21
361.6167266843053
 31
0.0
 11
181.1970659585466
 21
361.8717291318824
 31
0.0
 11
181.4173765293831
 21
362.1502805438972
 31
0.0
 11
181.5942072427783
 21
362.4309902919495
 31
0.0
 11
181.7376609622468
 21
362.7304452141601
 31
0.0
 11
181.8387170891762
 21
363.0296955594918
 31
0.0
 11
181.9005994384626
 21
363.3396216174486
 31
0.0
 11
181.921362328554
 21
363.649148452235
 31
0.0
 11
181.9005994384626
 21
363.9586752870213
 31
0.0
  0
SPLINE
  5
12A
330
50
100
AcDbEntity
  8
1
  6
Continuous
 62
     7
100
AcDbSpline
210
0.0
220
0.0
230
1.0
 70
    11
 71
     3
 72
    79
 73
    75
 74
    73
 42
0.000000001
 43
0.0000000001
 44
0.00000001
 40
0.0
 40
0.0
 40
0.0
 40
0.0
 40
0.316043638799619
 40
0.6318966285517662
 40
0.9639391265079504
 40
1.295702693009338
 40
1.650847222609279
 40
2.005727784477289
 40
2.387357017978371
 40
2.768780710151064
 40
3.176769167226709
 40
3.584612389530488
 40
4.015944746705232
 40
4.447181167981141
 40
4.896666768954159
 40
5.346094677409091
 40
5.807047416077164
 40
6.267973147891187
 40
6.732835055932759
 40
7.197696963972528
 40
7.658622695780693
 40
8.119575434438179
 40
8.569003342876403
 40
9.018488943823781
 40
9.44972536506323
 40
9.881057722185256
 40
10.28890094441824
 40
10.69688940139468
 40
11.07831309343929
 40
11.45994232676491
 40
11.81482288840938
 40
12.16996741770039
 40
12.50173098377972
 40
12.83377348103127
 40
13.14962646880608
 40
13.46567011525739
 40
13.77589254991645
 40
14.08611498457423
 40
14.40215863102213
 40
14.71801161879141
 40
15.0500541160355
 40
15.38181768210606
 40
15.73696221138689
 40
16.09184277302087
 40
16.47347200633498
 40
16.85489569836827
 40
17.26288415533296
 40
17.67072737755453
 40
18.10205973466504
 40
18.53329615589371
 40
18.98278175683049
 40
19.4322096652588
 40
19.89316240390685
 40
20.35408813570627
 40
20.81895004373773
 40
21.28381195177163
 40
21.74473768357864
 40
22.20569042224058
 40
22.6551183306901
 40
23.10460393165804
 40
23.53584035292939
 40
23.96717271009948
 40
24.37501593239841
 40
24.78300438946762
 40
25.1644280816312
 40
25.54605731511712
 40
25.90093787695939
 40
26.25608240650901
 40
26.58784597290251
 40
26.91988847056004
 40
27.23574145885953
 40
27.55178510609555
 40
27.86200754281982
 40
28.17222997000346
 40
28.17222997000346
 40
28.17222997000346
 40
28.17222997000346
 10
183.8178274880014
 20
363.9586752870213
 30
0.0
 10
183.8356193969147
 20
364.0626693114406
 30
0.0
 10
183.8711924739453
 20
364.2705946287946
 30
0.0
 10
183.9773331964942
 20
364.5752403518741
 30
0.0
 10
184.1183865346381
 20
364.8703986429671
 30
0.0
 10
184.3006364533109
 20
365.1579100923692
 30
0.0
 10
184.5168517020166
 20
365.430433317849
 30
0.0
 10
184.7707905985298
 20
365.6918213866911
 30
0.0
 10
185.0543794180927
 20
365.9343548328412
 30
0.0
 10
185.3719769006514
 20
366.162027494347
 30
0.0
 10
185.7142815843524
 20
366.3680083013844
 30
0.0
 10
186.0857372772282
 20
366.5554503959892
 30
0.0
 10
186.4766808519506
 20
366.7191056568739
 30
0.0
 10
186.8907048612751
 20
366.8609582286387
 30
0.0
 10
187.318802010657
 20
366.9775183263919
 30
0.0
 10
187.7628863189268
 20
367.0697396995408
 30
0.0
 10
188.2154795685514
 20
367.1356836392735
 30
0.0
 10
188.6762494395403
 20
367.1756909219107
 30
0.0
 10
189.1398669176242
 20
367.1889316148429
 30
0.0
 10
189.6034843957214
 20
367.1756909219708
 30
0.0
 10
190.0642542666691
 20
367.1356836393911
 30
0.0
 10
190.5168475164396
 20
367.0697396997496
 30
0.0
 10
190.9609318241741
 20
366.9775183266127
 30
0.0
 10
191.3890289755126
 20
366.8609582292227
 30
0.0
 10
191.8030529778174
 20
366.7191056566367
 30
0.0
 10
192.1939965780476
 20
366.5554503993249
 30
0.0
 10
192.5654521806813
 20
366.3680082927767
 30
0.0
 10
192.9077571900757
 20
366.1620275296989
 30
0.0
 10
193.2253535323537
 20
365.9343547152865
 30
0.0
 10
193.5089464504482
 20
365.691821819956
 30
0.0
 10
193.7628710667169
 20
365.4304318333573
 30
0.0
 10
193.9791376658831
 20
365.157915505741
 30
0.0
 10
194.1612078655622
 20
364.8703799170493
 30
0.0
 10
194.3029119428031
 20
364.5753090346348
 30
0.0
 10
194.4067357305775
 20
364.2703520987638
 30
0.0
 10
194.4682806382756
 20
363.9614909685735
 30
0.0
 10
194.4897966798095
 20
363.649148452648
 30
0.0
 10
194.4682806382882
 20
363.3368059367226
 30
0.0
 10
194.4067357306024
 20
363.0279448065332
 30
0.0
 10
194.3029119428404
 20
362.7229878706639
 30
0.0
 10
194.1612078656114
 20
362.4279169882516
 30
0.0
 10
193.9791376659438
 20
362.1403813995631
 30
0.0
 10
193.7628710667881
 20
361.8678650719506
 30
0.0
 10
193.5089464505301
 20
361.6064750853568
 30
0.0
 10
193.2253535324454
 20
361.3639421900317
 30
0.0
 10
192.9077571901767
 20
361.1362693756257
 30
0.0
 10
192.5654521807914
 20
360.9302886125556
 30
0.0
 10
192.1939965781661
 20
360.742846506016
 30
0.0
 10
191.8030529779439
 20
360.5791912487142
 30
0.0
 10
191.3890289756469
 20
360.4373386761392
 30
0.0
 10
190.9609318243155
 20
360.3207785787621
 30
0.0
 10
190.5168475165883
 20
360.2285572056393
 30
0.0
 10
190.0642542668251
 20
360.1626132660144
 30
0.0
 10
189.6034843958838
 20
360.1226059834526
 30
0.0
 10
189.139866917797
 20
360.1093652906013
 30
0.0
 10
188.6762494397113
 20
360.1226059835545
 30
0.0
 10
188.2154795687683
 20
360.1626132662229
 30
0.0
 10
187.7628863190176
 20
360.2285572059611
 30
0.0
 10
187.318802011256
 20
360.3207785792168
 30
0.0
 10
186.8907048600698
 20
360.4373386767193
 30
0.0
 10
186.4766808572828
 20
360.5791912495274
 30
0.0
 10
186.0857372588886
 20
360.7428465067759
 30
0.0
 10
185.714281649865
 20
360.9302886143986
 30
0.0
 10
185.3719766636729
 20
361.1362693746099
 30
0.0
 10
185.0543802403415
 20
361.3639422002015
 30
0.0
 10
184.7707876138192
 20
361.6064750567009
 30
0.0
 10
184.5168619819512
 20
361.8678651801012
 30
0.0
 10
184.3005990351985
 20
362.140381017557
 30
0.0
 10
184.1185160531298
 20
362.4279183236907
 30
0.0
 10
183.9768582599654
 20
362.7229829897855
 30
0.0
 10
183.8728696800894
 20
363.0279620613506
 30
0.0
 10
183.8119298787763
 20
363.3367419146588
 30
0.0
 10
183.7881944300084
 20
363.6493825411551
 30
0.0
 10
183.8079498049375
 20
363.8555777058966
 30
0.0
 10
183.8178274880014
 20
363.9586752870213
 30
0.0
 11
183.8178274880014
 21
363.9586752870213
 31
0.0
 11
183.8797098372878
 21
364.2686013449782
 31
0.0
 11
183.9807659642172
 21
364.5678516903099
 31
0.0
 11
184.1242196836857
 21
364.8673066125205
 31
0.0
 11
184.3010503970808
 21
365.1480163605727
 31
0.0
 11
184.5213609679173
 21
365.4265677725876
 31
0.0
 11
184.7681685140409
 21
365.6815702201648
 31
0.0
 11
185.0577788025664
 21
365.9300993986665
 31
0.0
 11
185.3674811214951
 21
366.1527392570702
 31
0.0
 11
185.7167577036441
 21
366.3635957253872
 31
0.0
 11
186.080701504904
 21
366.5476636570845
 31
0.0
 11
186.4783979969775
 21
366.7146519875799
 31
0.0
 11
186.8862738301326
 21
366.8546596864869
 31
0.0
 11
187.3198822114933
 21
366.9730703156137
 31
0.0
 11
187.7598949689458
 21
367.064581070035
 31
0.0
 11
188.2160008523084
 21
367.1312507816533
 31
0.0
 11
188.675197149448
 21
367.1711417698921
 31
0.0
 11
189.1398669275501
 21
367.1845055593707
 31
0.0
 11
189.6045367056522
 21
367.1711417698921
 31
0.0
 11
190.0637330027918
 21
367.1312507816533
 31
0.0
 11
190.5198388861543
 21
367.0645810700351
 31
0.0
 11
190.9598516436068
 21
366.9730703156138
 31
0.0
 11
191.3934600249676
 21
366.854659686487
 31
0.0
 11
191.8013358581226
 21
366.7146519875799
 31
0.0
 11
192.1990323501961
 21
366.5476636570845
 31
0.0
 11
192.5629761514561
 21
366.3635957253873
 31
0.0
 11
192.912252733605
 21
366.1527392570703
 31
0.0
 11
193.2219550525337
 21
365.9300993986665
 31
0.0
 11
193.5115653410592
 21
365.6815702201648
 31
0.0
 11
193.7583728871828
 21
365.4265677725877
 31
0.0
 11
193.9786834580192
 21
365.1480163605727
 31
0.0
 11
194.1555141714144
 21
364.8673066125203
 31
0.0
 11
194.298967890883
 21
364.5678516903099
 31
0.0
 11
194.4000240178125
 21
364.2686013449782
 31
0.0
 11
194.4619063670988
 21
363.9586752870214
 31
0.0
 11
194.4826692571902
 21
363.649148452235
 31
0.0
 11
194.4619063670988
 21
363.3396216174486
 31
0.0
 11
194.4000240178125
 21
363.0296955594918
 31
0.0
 11
194.2989678908831
 21
362.7304452141601
 31
0.0
 11
194.1555141714147
 21
362.4309902919496
 31
0.0
 11
193.9786834580195
 21
362.1502805438972
 31
0.0
 11
193.758372887183
 21
361.8717291318824
 31
0.0
 11
193.5115653410593
 21
361.6167266843053
 31
0.0
 11
193.2219550525338
 21
361.3681975058035
 31
0.0
 11
192.9122527336052
 21
361.1455576473998
 31
0.0
 11
192.5629761514562
 21
360.9347011790827
 31
0.0
 11
192.1990323501963
 21
360.7506332473855
 31
0.0
 11
191.8013358581228
 21
360.5836449168902
 31
0.0
 11
191.3934600249677
 21
360.4436372179831
 31
0.0
 11
190.959851643607
 21
360.3252265888563
 31
0.0
 11
190.5198388861544
 21
360.2337158344349
 31
0.0
 11
190.0637330027918
 21
360.1670461228167
 31
0.0
 11
189.6045367056521
 21
360.1271551345779
 31
0.0
 11
189.1398669275501
 21
360.1137913450992
 31
0.0
 11
188.675197149448
 21
360.1271551345779
 31
0.0
 11
188.2160008523085
 21
360.1670461228167
 31
0.0
 11
187.7598949689459
 21
360.2337158344349
 31
0.0
 11
187.3198822114934
 21
360.3252265888563
 31
0.0
 11
186.8862738301327
 21
360.4436372179831
 31
0.0
 11
186.4783979969777
 21
360.5836449168902
 31
0.0
 11
186.0807015049043
 21
360.7506332473855
 31
0.0
 11
185.7167577036442
 21
360.9347011790828
 31
0.0
 11
185.3674811214952
 21
361.1455576473999
 31
0.0
 11
185.0577788025664
 21
361.3681975058035
 31
0.0
 11
184.7681685140409
 21
361.6167266843053
 31
0.0
 11
184.5213609679174
 21
361.8717291318824
 31
0.0
 11
184.3010503970809
 21
362.1502805438972
 31
0.0
 11
184.1242196836857
 21
362.4309902919495
 31
0.0
 11
183.9807659642172
 21
362.7304452141601
 31
0.0
 11
183.8797098372878
 21
363.0296955594918
 31
0.0
 11
183.8178274880014
 21
363.3396216174486
 31
0.0
 11
183.79706459791
 21
363.649148452235
 31
0.0
 11
183.8178274880014
 21
363.9586752870213
 31
0.0
  0
SPLINE
  5
12B
330
50
100
AcDbEntity
  8
1
  6
Continuous
 62
     7
100
AcDbSpline
210
0.0
220
0.0
230
1.0
 70
    11
 71
     3
 72
    79
 73
    75
 74
    73
 42
0.000000001
 43
0.0000000001
 44
0.00000001
 40
0.0
 40
0.0
 40
0.0
 40
0.0
 40
0.2811775335844833
 40
0.5623408853746338
 40
0.845746655758536
 40
1.129126823298051
 40
1.415908896080567
 40
1.702658532230484
 40
1.993527426213986
 40
2.284362049291494
 40
2.579517793968169
 40
2.87464177554474
 40
3.173769975764023
 40
3.472872116266041
 40
3.775199685813519
 40
4.077508951322058
 40
4.381905218576808
 40
4.686292084806789
 40
4.991400452873791
 40
5.296508820930173
 40
5.600895687128636
 40
5.90529195433024
 40
6.207601219764182
 40
6.509928789214241
 40
6.809030929596431
 40
7.108159129670923
 40
7.403283111078518
 40
7.698438855558264
 40
7.989273478411297
 40
8.28014237213593
 40
8.566892007989308
 40
8.853674080420346
 40
9.137054247521592
 40
9.420460017266631
 40
9.701623367658248
 40
9.982800910067688
 40
10.26319551269419
 40
10.54359011531976
 40
10.82476765772607
 40
11.10593100811224
 40
11.38933677785018
 40
11.67271694494213
 40
11.95949901736202
 40
12.24624865320274
 40
12.53711754691294
 40
12.82795216975014
 40
13.12310791421275
 40
13.41823189560216
 40
13.71736009565737
 40
14.01646223601962
 40
14.31878980544861
 40
14.62109907086102
 40
14.92549533804036
 40
15.22988220421602
 40
15.53499057224916
 40
15.84009894029246
 40
16.14448580649849
 40
16.44888207372881
 40
16.75119133921255
 40
17.05351890873461
 40
17.35262104921095
 40
17.65174924940353
 40
17.94687323095231
 40
18.2420289755994
 40
18.53286359864464
 40
18.82373249259072
 40
19.11048212869364
 40
19.39726420140857
 40
19.68064436883137
 40
19.96405013895118
 40
20.24521348980369
 40
20.52639103287063
 40
20.80678563691641
 40
21.08718023073302
 40
21.08718023073302
 40
21.08718023073302
 40
21.08718023073302
 10
565.8973132739268
 20
367.1004094662178
 30
0.0
 10
565.9904093460287
 20
367.0889583444956
 30
0.0
 10
566.1765967954149
 20
367.0660566839223
 30
0.0
 10
566.4508342468182
 20
366.9980193945312
 30
0.0
 10
566.7185609149072
 20
366.9063972660158
 30
0.0
 10
566.9781214035239
 20
366.7887862784661
 30
0.0
 10
567.2268556962088
 20
366.647567955438
 30
0.0
 10
567.4636698012705
 20
366.4827459848456
 30
0.0
 10
567.6859281655759
 20
366.2966686878094
 30
0.0
 10
567.8927835529337
 20
366.0896438383126
 30
0.0
 10
568.0818973566554
 20
365.8644450406994
 30
0.0
 10
568.2525457410071
 20
365.621580135262
 30
0.0
 10
568.4028630584492
 20
365.3641115043351
 30
0.0
 10
568.532186393998
 20
365.092833607141
 30
0.0
 10
568.63921932162
 20
364.8108804533047
 30
0.0
 10
568.7233664594622
 20
364.5194433000012
 30
0.0
 10
568.7839109683483
 20
364.221505356605
 30
0.0
 10
568.8203981652646
 20
363.9187396918621
 30
0.0
 10
568.832625221792
 20
363.6137913546964
 30
0.0
 10
568.820398165617
 20
363.3088430175216
 30
0.0
 10
568.783910969053
 20
363.006077352785
 30
0.0
 10
568.723366460528
 20
362.7081394093091
 30
0.0
 10
568.6392193230236
 20
362.4167022562089
 30
0.0
 10
568.5321863958466
 20
362.1347491014887
 30
0.0
 10
568.4028630603686
 20
361.8634712073916
 30
0.0
 10
568.2525457444158
 20
361.6060025647707
 30
0.0
 10
568.0818973563537
 20
361.3631377021618
 30
0.0
 10
567.8927835682081
 20
361.1379387456091
 30
0.0
 10
567.6859281254117
 20
360.9309144806268
 30
0.0
 10
567.4636699683836
 20
360.7448350184598
 30
0.0
 10
567.2268551022472
 20
360.5800210187199
 30
0.0
 10
566.9781236328038
 20
360.4387731503156
 30
0.0
 10
566.718552729118
 20
360.3212711828676
 30
0.0
 10
566.4508647380492
 20
360.2292442354996
 30
0.0
 10
566.1764840273689
 20
360.1627064078774
 30
0.0
 10
565.8979930161088
 20
360.1228036242586
 30
0.0
 10
565.6172381799229
 20
360.1092915029192
 30
0.0
 10
565.3364833437366
 20
360.1228036242342
 30
0.0
 10
565.0579923324763
 20
360.1627064078284
 30
0.0
 10
564.7836116217954
 20
360.2292442354263
 30
0.0
 10
564.5159236307263
 20
360.3212711827701
 30
0.0
 10
564.2563527270395
 20
360.4387731501942
 30
0.0
 10
564.0076212575951
 20
360.5800210185746
 30
0.0
 10
563.7708063914578
 20
360.7448350182907
 30
0.0
 10
563.5485482344285
 20
360.9309144804341
 30
0.0
 10
563.341692791631
 20
361.1379387453929
 30
0.0
 10
563.1525790034834
 20
361.3631377019221
 30
0.0
 10
562.9819306154209
 20
361.6060025645082
 30
0.0
 10
562.8316132994661
 20
361.8634712071059
 30
0.0
 10
562.7022899639866
 20
362.1347491011801
 30
0.0
 10
562.5952570368079
 20
362.4167022558772
 30
0.0
 10
562.5111098993011
 20
362.7081394089544
 30
0.0
 10
562.4505653907745
 20
363.0060773524072
 30
0.0
 10
562.414078194208
 20
363.308843017121
 30
0.0
 10
562.4018511380305
 20
363.6137913542711
 30
0.0
 10
562.4140781945542
 20
363.9187396914176
 30
0.0
 10
562.450565391468
 20
364.2215053561214
 30
0.0
 10
562.5111099003435
 20
364.5194432995507
 30
0.0
 10
562.5952570382042
 20
364.8108804526176
 30
0.0
 10
562.702289965732
 20
365.0928336072183
 30
0.0
 10
562.8316133015937
 20
365.364111501473
 30
0.0
 10
562.9819306178334
 20
365.6215801431821
 30
0.0
 10
563.1525790065623
 20
365.8644450087779
 30
0.0
 10
563.3416927939995
 20
366.0896439538406
 30
0.0
 10
563.5485482411889
 20
366.2966682606224
 30
0.0
 10
563.7708063837846
 20
366.4827475674371
 30
0.0
 10
564.0076213049314
 20
366.6475621385144
 30
0.0
 10
564.2563525724229
 20
366.7888078884798
 30
0.0
 10
564.5159242233269
 20
366.9063176720266
 30
0.0
 10
564.7836094419773
 20
366.9983155953424
 30
0.0
 10
565.0580004242433
 20
367.0649609279318
 30
0.0
 10
565.3364532018263
 20
367.1044635132677
 30
0.0
 10
565.617350356869
 20
367.1194652918239
 30
0.0
 10
565.8039923025972
 20
367.1067614062164
 30
0.0
 10
565.8973132739267
 20
367.1004094662178
 30
0.0
 11
565.8973132739268
 21
367.1004094662178
 31
0.0
 11
566.1756400276604
 21
367.060471656754
 31
0.0
 11
566.4489140622093
 21
366.9943344376148
 31
0.0
 11
566.7169187330385
 21
366.9021806159491
 31
0.0
 11
566.975140371056
 21
366.7854505646743
 31
0.0
 11
567.2245270144066
 21
366.6438516265123
 31
0.0
 11
567.4599733922627
 21
366.4801740259882
 31
0.0
 11
567.6830252410867
 21
366.2934855524116
 31
0.0
 11
567.888693297682
 21
366.0878513421409
 31
0.0
 11
568.0785447024265
 21
365.8618571880145
 31
0.0
 11
568.248317633798
 21
365.6204543788922
 31
0.0
 11
568.3991793162313
 21
365.3621552636687
 31
0.0
 11
568.5279791831629
 21
365.0922058522507
 31
0.0
 11
568.6353114151766
 21
364.8095722532564
 31
0.0
 11
568.7192394367389
 21
364.519146739196
 31
0.0
 11
568.7798740874345
 21
364.220850700555
 31
0.0
 11
568.8163324383506
 21
363.918655146313
 31
0.0
 11
568.8285463239953
 21
363.6137913450993
 31
0.0
 11
568.8163324383506
 21
363.3089275438857
 31
0.0
 11
568.7798740874346
 21
363.0067319896436
 31
0.0
 11
568.7192394367389
 21
362.7084359510026
 31
0.0
 11
568.6353114151766
 21
362.4180104369422
 31
0.0
 11
568.5279791831629
 21
362.1353768379478
 31
0.0
 11
568.3991793162314
 21
361.8654274265297
 31
0.0
 11
568.248317633798
 21
361.6071283113064
 31
0.0
 11
568.0785447024265
 21
361.3657255021842
 31
0.0
 11
567.888693297682
 21
361.1397313480577
 31
0.0
 11
567.6830252410867
 21
360.9340971377869
 31
0.0
 11
567.4599733922626
 21
360.7474086642103
 31
0.0
 11
567.2245270144064
 21
360.5837310636863
 31
0.0
 11
566.975140371056
 21
360.4421321255242
 31
0.0
 11
566.7169187330384
 21
360.3254020742495
 31
0.0
 11
566.4489140622093
 21
360.2332482525837
 31
0.0
 11
566.1756400276603
 21
360.1671110334447
 31
0.0
 11
565.8973132739267
 21
360.1271732239808
 31
0.0
 11
565.617238179329
 21
360.1137913450993
 31
0.0
 11
565.3371630847313
 21
360.1271732239808
 31
0.0
 11
565.0588363309976
 21
360.1671110334446
 31
0.0
 11
564.7855622964487
 21
360.2332482525837
 31
0.0
 11
564.5175576256194
 21
360.3254020742494
 31
0.0
 11
564.2593359876018
 21
360.4421321255243
 31
0.0
 11
564.0099493442514
 21
360.5837310636863
 31
0.0
 11
563.7745029663952
 21
360.7474086642104
 31
0.0
 11
563.551451117571
 21
360.9340971377869
 31
0.0
 11
563.3457830609757
 21
361.1397313480577
 31
0.0
 11
563.1559316562312
 21
361.3657255021841
 31
0.0
 11
562.9861587248598
 21
361.6071283113063
 31
0.0
 11
562.8352970424264
 21
361.8654274265297
 31
0.0
 11
562.7064971754949
 21
362.1353768379478
 31
0.0
 11
562.5991649434811
 21
362.4180104369422
 31
0.0
 11
562.5152369219188
 21
362.7084359510026
 31
0.0
 11
562.4546022712233
 21
363.0067319896435
 31
0.0
 11
562.4181439203072
 21
363.3089275438856
 31
0.0
 11
562.4059300346627
 21
363.6137913450992
 31
0.0
 11
562.4181439203072
 21
363.9186551463129
 31
0.0
 11
562.4546022712232
 21
364.220850700555
 31
0.0
 11
562.5152369219189
 21
364.519146739196
 31
0.0
 11
562.5991649434814
 21
364.8095722532564
 31
0.0
 11
562.7064971754951
 21
365.0922058522507
 31
0.0
 11
562.8352970424266
 21
365.3621552636688
 31
0.0
 11
562.9861587248599
 21
365.6204543788922
 31
0.0
 11
563.1559316562314
 21
365.8618571880145
 31
0.0
 11
563.3457830609757
 21
366.0878513421409
 31
0.0
 11
563.5514511175709
 21
366.2934855524117
 31
0.0
 11
563.7745029663952
 21
366.4801740259882
 31
0.0
 11
564.0099493442514
 21
366.6438516265123
 31
0.0
 11
564.2593359876018
 21
366.7854505646743
 31
0.0
 11
564.5175576256196
 21
366.902180615949
 31
0.0
 11
564.7855622964487
 21
366.9943344376148
 31
0.0
 11
565.0588363309975
 21
367.0604716567539
 31
0.0
 11
565.3371630847312
 21
367.1004094662178
 31
0.0
 11
565.6172381793289
 21
367.1137913450993
 31
0.0
 11
565.8973132739267
 21
367.1004094662178
 31
0.0
  0
SPLINE
  5
12C
330
50
100
AcDbEntity
  8
1
  6
Continuous
 62
     7
100
AcDbSpline
210
0.0
220
0.0
230
1.0
 70
    11
 71
     3
 72
    79
 73
    75
 74
    73
 42
0.000000001
 43
0.0000000001
 44
0.00000001
 40
0.0
 40
0.0
 40
0.0
 40
0.0
 40
0.2811775335844833
 40
0.5623408853747442
 40
0.8457466557586464
 40
1.129126823298369
 40
1.415908896080785
 40
1.702658532230703
 40
1.993527426214379
 40
2.284362049291726
 40
2.579517793968474
 40
2.874641775544979
 40
3.173769975764263
 40
3.47287211626628
 40
3.775199685813718
 40
4.077508951322288
 40
4.38190521857706
 40
4.686292084807027
 40
4.991400452874025
 40
5.296508820930402
 40
5.60089568712888
 40
5.905291954330461
 40
6.207601219764435
 40
6.509928789214452
 40
6.809030929596691
 40
7.108159129671184
 40
7.403283111078713
 40
7.698438855558459
 40
7.989273478411412
 40
8.280142372136133
 40
8.56689200798951
 40
8.853674080420646
 40
9.137054247521789
 40
9.420460017266828
 40
9.701623367658446
 40
9.982800910067999
 40
10.26319551269462
 40
10.54359011532007
 40
10.82476765772638
 40
11.10593100811266
 40
11.38933677785039
 40
11.67271694494234
 40
11.95949901736222
 40
12.24624865320294
 40
12.53711754691323
 40
12.82795216975035
 40
13.12310791421296
 40
13.41823189560237
 40
13.71736009565753
 40
14.01646223601983
 40
14.31878980544877
 40
14.62109907086122
 40
14.92549533804056
 40
15.22988220421622
 40
15.53499057224936
 40
15.84009894029266
 40
16.1444858064987
 40
16.448882073729
 40
16.75119133921274
 40
17.05351890873476
 40
17.35262104921109
 40
17.65174924940368
 40
17.94687323095245
 40
18.24202897559969
 40
18.53286359864493
 40
18.82373249259092
 40
19.11048212869385
 40
19.39726420140877
 40
19.68064436883147
 40
19.96405013895128
 40
20.2452134898039
 40
20.52639103287095
 40
20.80678563691674
 40
21.08718023073323
 40
21.08718023073323
 40
21.08718023073323
 40
21.08718023073323
 10
587.8538235831265
 20
367.1004094662178
 30
0.0
 10
587.7607275110247
 20
367.0889583444956
 30
0.0
 10
587.5745400616382
 20
367.0660566839222
 30
0.0
 10
587.3003026102353
 20
366.9980193945312
 30
0.0
 10
587.0325759421459
 20
366.9063972660157
 30
0.0
 10
586.7730154535291
 20
366.7887862784662
 30
0.0
 10
586.5242811608443
 20
366.647567955438
 30
0.0
 10
586.2874670557827
 20
366.4827459848455
 30
0.0
 10
586.065208691477
 20
366.2966686878096
 30
0.0
 10
585.8583533041193
 20
366.0896438383126
 30
0.0
 10
585.6692395003975
 20
365.8644450406994
 30
0.0
 10
585.498591116046
 20
365.621580135262
 30
0.0
 10
585.3482737986039
 20
365.3641115043351
 30
0.0
 10
585.2189504630552
 20
365.092833607141
 30
0.0
 10
585.1119175354333
 20
364.8108804533047
 30
0.0
 10
585.0277703975909
 20
364.5194433000012
 30
0.0
 10
584.9672258887047
 20
364.2215053566051
 30
0.0
 10
584.9307386917884
 20
363.918739691862
 30
0.0
 10
584.9185116352612
 20
363.6137913546965
 30
0.0
 10
584.9307386914361
 20
363.3088430175216
 30
0.0
 10
584.9672258880005
 20
363.006077352785
 30
0.0
 10
585.0277703965246
 20
362.708139409309
 30
0.0
 10
585.11191753403
 20
362.416702256209
 30
0.0
 10
585.2189504612064
 20
362.1347491014886
 30
0.0
 10
585.3482737966845
 20
361.8634712073916
 30
0.0
 10
585.4985911126377
 20
361.6060025647707
 30
0.0
 10
585.6692395006991
 20
361.3631377021618
 30
0.0
 10
585.8583532888451
 20
361.137938745609
 30
0.0
 10
586.0652087316411
 20
360.9309144806267
 30
0.0
 10
586.2874668886695
 20
360.7448350184599
 30
0.0
 10
586.5242817548059
 20
360.5800210187198
 30
0.0
 10
586.7730132242493
 20
360.4387731503156
 30
0.0
 10
587.0325841279353
 20
360.3212711828675
 30
0.0
 10
587.3002721190041
 20
360.2292442354996
 30
0.0
 10
587.5746528296842
 20
360.1627064078774
 30
0.0
 10
587.8531438409443
 20
360.1228036242587
 30
0.0
 10
588.1338986771303
 20
360.1092915029191
 30
0.0
 10
588.4146535133168
 20
360.1228036242343
 30
0.0
 10
588.6931445245768
 20
360.1627064078284
 30
0.0
 10
588.9675252352575
 20
360.2292442354264
 30
0.0
 10
589.2352132263272
 20
360.3212711827701
 30
0.0
 10
589.4947841300135
 20
360.4387731501942
 30
0.0
 10
589.7435155994581
 20
360.5800210185746
 30
0.0
 10
589.9803304655952
 20
360.7448350182908
 30
0.0
 10
590.202588622625
 20
360.930914480434
 30
0.0
 10
590.4094440654221
 20
361.137938745393
 30
0.0
 10
590.5985578535694
 20
361.3631377019221
 30
0.0
 10
590.7692062416323
 20
361.6060025645081
 30
0.0
 10
590.9195235575869
 20
361.863471207106
 30
0.0
 10
591.0488468930666
 20
362.1347491011799
 30
0.0
 10
591.1558798202451
 20
362.4167022558773
 30
0.0
 10
591.240026957752
 20
362.7081394089543
 30
0.0
 10
591.3005714662786
 20
363.0060773524073
 30
0.0
 10
591.3370586628455
 20
363.3088430171209
 30
0.0
 10
591.3492857190225
 20
363.6137913542713
 30
0.0
 10
591.3370586624991
 20
363.9187396914175
 30
0.0
 10
591.300571465585
 20
364.2215053561214
 30
0.0
 10
591.2400269567096
 20
364.5194432995507
 30
0.0
 10
591.155879818849
 20
364.8108804526175
 30
0.0
 10
591.0488468913214
 20
365.0928336072184
 30
0.0
 10
590.9195235554595
 20
365.364111501473
 30
0.0
 10
590.76920623922
 20
365.6215801431821
 30
0.0
 10
590.598557850491
 20
365.8644450087778
 30
0.0
 10
590.4094440630536
 20
366.0896439538406
 30
0.0
 10
590.2025886158642
 20
366.2966682606224
 30
0.0
 10
589.9803304732685
 20
366.4827475674371
 30
0.0
 10
589.7435155521216
 20
366.6475621385144
 30
0.0
 10
589.4947842846304
 20
366.7888078884797
 30
0.0
 10
589.2352126337264
 20
366.9063176720265
 30
0.0
 10
588.967527415076
 20
366.9983155953425
 30
0.0
 10
588.6931364328098
 20
367.0649609279318
 30
0.0
 10
588.4146836552268
 20
367.1044635132675
 30
0.0
 10
588.133786500184
 20
367.1194652918241
 30
0.0
 10
587.947144554456
 20
367.1067614062164
 30
0.0
 10
587.8538235831265
 20
367.1004094662178
 30
0.0
 11
587.8538235831265
 21
367.1004094662178
 31
0.0
 11
587.5754968293929
 21
367.060471656754
 31
0.0
 11
587.3022227948439
 21
366.9943344376148
 31
0.0
 11
587.0342181240147
 21
366.9021806159491
 31
0.0
 11
586.775996485997
 21
366.7854505646743
 31
0.0
 11
586.5266098426465
 21
366.6438516265123
 31
0.0
 11
586.2911634647904
 21
366.4801740259882
 31
0.0
 11
586.0681116159661
 21
366.2934855524116
 31
0.0
 11
585.8624435593711
 21
366.0878513421409
 31
0.0
 11
585.6725921546265
 21
365.8618571880145
 31
0.0
 11
585.5028192232551
 21
365.6204543788922
 31
0.0
 11
585.3519575408218
 21
365.3621552636687
 31
0.0
 11
585.2231576738902
 21
365.0922058522507
 31
0.0
 11
585.1158254418766
 21
364.8095722532564
 31
0.0
 11
585.0318974203142
 21
364.519146739196
 31
0.0
 11
584.9712627696185
 21
364.220850700555
 31
0.0
 11
584.9348044187025
 21
363.918655146313
 31
0.0
 11
584.9225905330579
 21
363.6137913450993
 31
0.0
 11
584.9348044187025
 21
363.3089275438857
 31
0.0
 11
584.9712627696186
 21
363.0067319896436
 31
0.0
 11
585.0318974203142
 21
362.7084359510026
 31
0.0
 11
585.1158254418766
 21
362.4180104369422
 31
0.0
 11
585.2231576738902
 21
362.1353768379478
 31
0.0
 11
585.3519575408218
 21
361.8654274265297
 31
0.0
 11
585.5028192232552
 21
361.6071283113064
 31
0.0
 11
585.6725921546266
 21
361.3657255021842
 31
0.0
 11
585.8624435593711
 21
361.1397313480577
 31
0.0
 11
586.0681116159662
 21
360.9340971377869
 31
0.0
 11
586.2911634647905
 21
360.7474086642103
 31
0.0
 11
586.5266098426467
 21
360.5837310636863
 31
0.0
 11
586.7759964859972
 21
360.4421321255242
 31
0.0
 11
587.0342181240147
 21
360.3254020742495
 31
0.0
 11
587.3022227948438
 21
360.2332482525837
 31
0.0
 11
587.5754968293928
 21
360.1671110334447
 31
0.0
 11
587.8538235831265
 21
360.1271732239808
 31
0.0
 11
588.1338986777243
 21
360.1137913450993
 31
0.0
 11
588.4139737723219
 21
360.1271732239808
 31
0.0
 11
588.6923005260556
 21
360.1671110334446
 31
0.0
 11
588.9655745606046
 21
360.2332482525837
 31
0.0
 11
589.2335792314337
 21
360.3254020742494
 31
0.0
 11
589.4918008694513
 21
360.4421321255243
 31
0.0
 11
589.7411875128017
 21
360.5837310636863
 31
0.0
 11
589.9766338906579
 21
360.7474086642104
 31
0.0
 11
590.1996857394822
 21
360.9340971377869
 31
0.0
 11
590.4053537960774
 21
361.1397313480577
 31
0.0
 11
590.5952052008219
 21
361.3657255021841
 31
0.0
 11
590.7649781321933
 21
361.6071283113063
 31
0.0
 11
590.9158398146266
 21
361.8654274265297
 31
0.0
 11
591.0446396815582
 21
362.1353768379478
 31
0.0
 11
591.1519719135719
 21
362.4180104369422
 31
0.0
 11
591.2358999351343
 21
362.7084359510026
 31
0.0
 11
591.2965345858298
 21
363.0067319896435
 31
0.0
 11
591.332992936746
 21
363.3089275438856
 31
0.0
 11
591.3452068223904
 21
363.6137913450992
 31
0.0
 11
591.332992936746
 21
363.9186551463129
 31
0.0
 11
591.2965345858299
 21
364.220850700555
 31
0.0
 11
591.2358999351343
 21
364.519146739196
 31
0.0
 11
591.1519719135719
 21
364.8095722532564
 31
0.0
 11
591.0446396815582
 21
365.0922058522507
 31
0.0
 11
590.9158398146267
 21
365.3621552636688
 31
0.0
 11
590.7649781321934
 21
365.6204543788922
 31
0.0
 11
590.595205200822
 21
365.8618571880145
 31
0.0
 11
590.4053537960774
 21
366.0878513421409
 31
0.0
 11
590.1996857394822
 21
366.2934855524117
 31
0.0
 11
589.976633890658
 21
366.4801740259882
 31
0.0
 11
589.7411875128018
 21
366.6438516265123
 31
0.0
 11
589.4918008694514
 21
366.7854505646743
 31
0.0
 11
589.2335792314337
 21
366.902180615949
 31
0.0
 11
588.9655745606046
 21
366.9943344376148
 31
0.0
 11
588.6923005260558
 21
367.0604716567539
 31
0.0
 11
588.4139737723219
 21
367.1004094662178
 31
0.0
 11
588.1338986777242
 21
367.1137913450993
 31
0.0
 11
587.8538235831265
 21
367.1004094662178
 31
0.0
  0
SPLINE
  5
12D
330
50
100
AcDbEntity
  8
1
  6
Continuous
 62
     7
100
AcDbSpline
210
0.0
220
0.0
230
1.0
 70
    11
 71
     3
 72
    79
 73
    75
 74
    73
 42
0.000000001
 43
0.0000000001
 44
0.00000001
 40
0.0
 40
0.0
 40
0.0
 40
0.0
 40
0.3064252319454941
 40
0.6126997233759559
 40
0.932716375069125
 40
1.25250594522019
 40
1.592278738949089
 40
1.931827974846271
 40
2.294403617204652
 40
2.656798542916993
 40
3.042205858231453
 40
3.427481647718476
 40
3.833206188203873
 40
4.238841962941747
 40
4.660421097758375
 40
5.081946081728727
 40
5.513562419111653
 40
5.945153199642219
 40
6.380194329060285
 40
6.815235458475764
 40
7.246826238997895
 40
7.678442576365645
 40
8.099967560313184
 40
8.521546695096559
 40
8.927182469789171
 40
9.332907010211517
 40
9.718182799616628
 40
10.10359011482057
 40
10.46598504039375
 40
10.82856068256612
 40
11.16810991823047
 40
11.50788271164391
 40
11.82767228136824
 40
12.14768893235881
 40
12.45396342186606
 40
12.7603886616459
 40
13.06189449120703
 40
13.36340032076696
 40
13.66982556054332
 40
13.97610005004483
 40
14.29611670102781
 40
14.6159062707432
 40
14.95567906414614
 40
15.29522829979937
 40
15.65780394195979
 40
16.02019886752077
 40
16.40560618271185
 40
16.79088197210491
 40
17.19660651251461
 40
17.60224228719521
 40
18.0238214219665
 40
18.4453464059026
 40
18.87696274325937
 40
19.30855352377107
 40
19.74359465317646
 40
20.17863578258524
 40
20.61022656310692
 40
21.0418429004812
 40
21.46336788444356
 40
21.88494701925253
 40
22.29058279398308
 40
22.69630733446051
 40
23.08158312393922
 40
23.46699043924339
 40
23.82938536494307
 40
24.19196100728231
 40
24.53151024314995
 40
24.87128303682453
 40
25.19107260686365
 40
25.51108925825612
 40
25.81736374828123
 40
26.12378898883608
 40
26.42529482040371
 40
26.72680064227411
 40
26.72680064227411
 40
26.72680064227411
 40
26.72680064227411
 10
581.8554110142561
 20
363.9760655952662
 30
0.0
 10
581.8388079311194
 20
364.0769917576126
 30
0.0
 10
581.8056099401597
 20
364.2787944348277
 30
0.0
 10
581.7065918980284
 20
364.5747457058155
 30
0.0
 10
581.5747581977525
 20
364.8618155195911
 30
0.0
 10
581.4045269871513
 20
365.1412805383622
 30
0.0
 10
581.2022584596001
 20
365.4065837472821
 30
0.0
 10
580.9648567558916
 20
365.6607861189149
 30
0.0
 10
580.6994017578667
 20
365.8969918454848
 30
0.0
 10
580.4023357563011
 20
366.1184706053062
 30
0.0
 10
580.081848262087
 20
366.3190848158113
 30
0.0
 10
579.7343093475279
 20
366.5014539391072
 30
0.0
 10
579.3682793974466
 20
366.6608255473944
 30
0.0
 10
578.9808511672211
 20
366.798848978362
 30
0.0
 10
578.5800649544568
 20
366.9123411414582
 30
0.0
 10
578.1644627882624
 20
367.0020761568021
 30
0.0
 10
577.7407834080645
 20
367.0662784482518
 30
0.0
 10
577.309527485728
 20
367.1052046860065
 30
0.0
 10
576.8755684384296
 20
367.1181017656669
 30
0.0
 10
576.441609391119
 20
367.1052046861008
 30
0.0
 10
576.0103534688185
 20
367.0662784484389
 30
0.0
 10
575.5866740884899
 20
367.002076157111
 30
0.0
 10
575.1710719227707
 20
366.9123411418227
 30
0.0
 10
574.7702857082606
 20
366.7988489790832
 30
0.0
 10
574.3828574843043
 20
366.6608255474599
 30
0.0
 10
574.0168275113822
 20
366.5014539422918
 30
0.0
 10
573.6692886779385
 20
366.3190848087431
 30
0.0
 10
573.3488008901335
 20
366.1184706363213
 30
0.0
 10
573.0517359220181
 20
365.896991743553
 30
0.0
 10
572.7862771964327
 20
365.66078649783
 30
0.0
 10
572.5488885666019
 20
365.4065824412012
 30
0.0
 10
572.3465728437228
 20
365.1412853167887
 30
0.0
 10
572.17650797052
 20
364.8617988557543
 30
0.0
 10
572.0440698701401
 20
364.5748069575997
 30
0.0
 10
571.9472160649943
 20
364.2785766889886
 30
0.0
 10
571.8897185830335
 20
363.9784946549951
 30
0.0
 10
571.8697144199277
 20
363.6751832227527
 30
0.0
 10
571.8897185830201
 20
363.3718717905104
 30
0.0
 10
571.9472160649674
 20
363.0717897565179
 30
0.0
 10
572.0440698700995
 20
362.7755594879081
 30
0.0
 10
572.1765079704667
 20
362.4885675897558
 30
0.0
 10
572.3465728436569
 20
362.2090811287241
 30
0.0
 10
572.548888566524
 20
361.9437840043154
 30
0.0
 10
572.7862771963432
 20
361.6895799476909
 30
0.0
 10
573.0517359219175
 20
361.4533747019734
 30
0.0
 10
573.3488008900222
 20
361.231895809211
 30
0.0
 10
573.6692886778171
 20
361.0312816367959
 30
0.0
 10
574.0168275112509
 20
360.8489125032556
 30
0.0
 10
574.3828574841637
 20
360.6895408980966
 30
0.0
 10
574.7702857081106
 20
360.5515174664836
 30
0.0
 10
575.1710719226119
 20
360.4380253037557
 30
0.0
 10
575.5866740883222
 20
360.3482902884807
 30
0.0
 10
576.0103534686416
 20
360.2840879971671
 30
0.0
 10
576.4416093909338
 20
360.2451617595221
 30
0.0
 10
576.8755684382328
 20
360.2322646799744
 30
0.0
 10
577.3095274855301
 20
360.2451617596539
 30
0.0
 10
577.7407834078228
 20
360.2840879974354
 30
0.0
 10
578.1644627881299
 20
360.3482902888909
 30
0.0
 10
578.5800649538685
 20
360.4380253043261
 30
0.0
 10
578.980851168237
 20
360.5515174672084
 30
0.0
 10
579.3682793926184
 20
360.6895408990699
 30
0.0
 10
579.734309363887
 20
360.8489125042322
 30
0.0
 10
580.0818482030726
 20
361.0312816387585
 30
0.0
 10
580.4023359699268
 20
361.2318958087479
 30
0.0
 10
580.6994010115794
 20
361.4533747113032
 30
0.0
 10
580.9648594716475
 20
361.6895799231411
 30
0.0
 10
581.2022490324013
 20
361.9437841001698
 30
0.0
 10
581.4045613942976
 20
362.209080791746
 30
0.0
 10
581.5746381125496
 20
362.4885687802546
 30
0.0
 10
581.7070331722633
 20
362.7755551305157
 30
0.0
 10
581.804041096663
 20
363.0718052677095
 30
0.0
 10
581.8609715212384
 20
363.3718142023602
 30
0.0
 10
581.8830601980053
 20
363.6753943524817
 30
0.0
 10
581.8646274060444
 20
363.8758418485368
 30
0.0
 10
581.8554110142562
 20
363.9760655952662
 30
0.0
 11
581.8554110142561
 21
363.9760655952662
 31
0.0
 11
581.7976361510047
 21
364.2769949770865
 31
0.0
 11
581.7030802270704
 21
364.5683079363897
 31
0.0
 11
581.5692150604235
 21
364.8589809040966
 31
0.0
 11
581.4035546142306
 21
365.1325169813289
 31
0.0
 11
581.1978955140828
 21
365.4029793368334
 31
0.0
 11
580.9665712024674
 21
365.651540690144
 31
0.0
 11
580.6960618637727
 21
365.8929652001605
 31
0.0
 11
580.4058034750875
 21
366.1099448073348
 31
0.0
 11
580.0793869869559
 21
366.3148620465686
 31
0.0
 11
579.7383877599941
 21
366.494185667854
 31
0.0
 11
579.3665583675679
 21
366.6565288403685
 31
0.0
 11
578.9845241614776
 21
366.7928748968328
 31
0.0
 11
578.5789763795964
 21
366.9080268117874
 31
0.0
 11
578.1669726484822
 21
366.9971123754697
 31
0.0
 11
577.7402564519871
 21
367.0619656741111
 31
0.0
 11
577.3104151280988
 21
367.1007862629714
 31
0.0
 11
576.8755684285265
 21
367.1137913450992
 31
0.0
 11
576.4407217289543
 21
367.1007862629714
 31
0.0
 11
576.010880405066
 21
367.0619656741111
 31
0.0
 11
575.5841642085709
 21
366.9971123754697
 31
0.0
 11
575.1721604774567
 21
366.9080268117875
 31
0.0
 11
574.7666126955754
 21
366.7928748968328
 31
0.0
 11
574.3845784894849
 21
366.6565288403687
 31
0.0
 11
574.0127490970588
 21
366.494185667854
 31
0.0
 11
573.6717498700971
 21
366.3148620465686
 31
0.0
 11
573.3453333819655
 21
366.1099448073348
 31
0.0
 11
573.0550749932802
 21
365.8929652001605
 31
0.0
 11
572.7845656545855
 21
365.651540690144
 31
0.0
 11
572.5532413429701
 21
365.4029793368334
 31
0.0
 11
572.3475822428225
 21
365.1325169813289
 31
0.0
 11
572.1819217966296
 21
364.8589809040966
 31
0.0
 11
572.0480566299826
 21
364.5683079363897
 31
0.0
 11
571.9535007060483
 21
364.2769949770865
 31
0.0
 11
571.8957258427968
 21
363.9760655952662
 31
0.0
 11
571.8763463948468
 21
363.6751832223206
 31
0.0
 11
571.8957258427968
 21
363.374300849375
 31
0.0
 11
571.9535007060483
 21
363.0733714675546
 31
0.0
 11
572.0480566299825
 21
362.7820585082515
 31
0.0
 11
572.1819217966295
 21
362.4913855405445
 31
0.0
 11
572.3475822428223
 21
362.2178494633122
 31
0.0
 11
572.5532413429701
 21
361.9473871078077
 31
0.0
 11
572.7845656545855
 21
361.6988257544972
 31
0.0
 11
573.0550749932803
 21
361.4574012444806
 31
0.0
 11
573.3453333819655
 21
361.2404216373063
 31
0.0
 11
573.671749870097
 21
361.0355043980726
 31
0.0
 11
574.0127490970589
 21
360.8561807767871
 31
0.0
 11
574.384578489485
 21
360.6938376042725
 31
0.0
 11
574.7666126955755
 21
360.5574915478084
 31
0.0
 11
575.1721604774566
 21
360.4423396328536
 31
0.0
 11
575.5841642085708
 21
360.3532540691715
 31
0.0
 11
576.0108804050659
 21
360.28840077053
 31
0.0
 11
576.4407217289541
 21
360.2495801816698
 31
0.0
 11
576.8755684285264
 21
360.2365750995418
 31
0.0
 11
577.3104151280988
 21
360.2495801816698
 31
0.0
 11
577.7402564519871
 21
360.28840077053
 31
0.0
 11
578.1669726484821
 21
360.3532540691715
 31
0.0
 11
578.5789763795963
 21
360.4423396328537
 31
0.0
 11
578.9845241614776
 21
360.5574915478084
 31
0.0
 11
579.366558367568
 21
360.6938376042725
 31
0.0
 11
579.7383877599941
 21
360.8561807767871
 31
0.0
 11
580.0793869869559
 21
361.0355043980725
 31
0.0
 11
580.4058034750874
 21
361.2404216373063
 31
0.0
 11
580.6960618637727
 21
361.4574012444806
 31
0.0
 11
580.9665712024673
 21
361.6988257544972
 31
0.0
 11
581.1978955140829
 21
361.9473871078077
 31
0.0
 11
581.4035546142306
 21
362.2178494633122
 31
0.0
 11
581.5692150604234
 21
362.4913855405446
 31
0.0
 11
581.7030802270702
 21
362.7820585082515
 31
0.0
 11
581.7976361510046
 21
363.0733714675546
 31
0.0
 11
581.8554110142561
 21
363.3743008493749
 31
0.0
 11
581.8747904622062
 21
363.6751832223206
 31
0.0
 11
581.8554110142562
 21
363.9760655952662
 31
0.0
  0
ENDBLK
  5
52
330
50
100
AcDbEntity
  8
0
100
AcDbBlockEnd
  0
BLOCK
  5
54
330
53
100
AcDbEntity
  8
0
100
AcDbBlockBegin
  2
36-1A-13-M4
 70
     0
 10
331.0617100065782
 20
236.0446653356632
 30
0.0
  3
36-1A-13-M4
  1

  0
LINE
  5
12E
330
53
100
AcDbEntity
  8
1
  6
Continuous
 62
     7
100
AcDbLine
 10
187.6092134632319
 20
377.1137913450993
 30
0.0
 11
187.6092134632319
 21
374.1137913450993
 31
0.0
  0
LINE
  5
12F
330
53
100
AcDbEntity
  8
1
  6
Continuous
 62
     7
100
AcDbLine
 10
178.1092134632319
 20
374.1137913450993
 30
0.0
 11
178.1092134632319
 21
377.1137913450993
 31
0.0
  0
LINE
  5
130
330
53
100
AcDbEntity
  8
1
  6
Continuous
 62
     7
100
AcDbLine
 10
581.6255684285265
 20
377.1137913450993
 30
0.0
 11
581.6255684285265
 21
374.1137913450993
 31
0.0
  0
LINE
  5
131
330
53
100
AcDbEntity
  8
1
  6
Continuous
 62
     7
100
AcDbLine
 10
572.1255684285264
 20
374.1137913450993
 30
0.0
 11
572.1255684285264
 21
377.1137913450993
 31
0.0
  0
ENDBLK
  5
55
330
53
100
AcDbEntity
  8
0
100
AcDbBlockEnd
  0
BLOCK
  5
57
330
56
100
AcDbEntity
  8
0
100
AcDbBlockBegin
  2
A10-0A-13
 70
     0
 10
576.8755684285265
 20
334.6137913450993
 30
0.0
  3
A10-0A-13
  1

  0
LINE
  5
132
330
56
100
AcDbEntity
  8
0
  6
PHANTOM
 62
     4
100
AcDbLine
 10
205.8592134632319
 20
334.6137913450993
 30
0.0
 11
208.8592134632319
 21
334.6137913450993
 31
0.0
  0
LINE
  5
133
330
56
100
AcDbEntity
  8
1
  6
Continuous
 62
     7
100
AcDbLine
 10
195.859213463232
 20
318.9737364004592
 30
0.0
 11
194.880407746051
 21
322.3995564105921
 31
0.0
  0
LINE
  5
134
330
56
100
AcDbEntity
  8
1
  6
Continuous
 62
     2
100
AcDbLine
 10
194.859213463232
 20
317.1137913450993
 30
0.0
 11
195.859213463232
 21
318.8458421526681
 31
0.0
  0
LINE
  5
135
330
56
100
AcDbEntity
  8
1
  6
Continuous
 62
     7
100
AcDbLine
 10
195.859213463232
 20
318.8458421526681
 30
0.0
 11
195.859213463232
 21
315.6137913450993
 31
0.0
  0
LINE
  5
136
330
56
100
AcDbEntity
  8
1
  6
Continuous
 62
     2
100
AcDbLine
 10
194.859213463232
 20
317.1137913450993
 30
0.0
 11
194.859213463232
 21
315.6137913450993
 31
0.0
  0
LINE
  5
137
330
56
100
AcDbEntity
  8
1
  6
Continuous
 62
     7
100
AcDbLine
 10
195.859213463232
 20
318.9737364004592
 30
0.0
 11
195.859213463232
 21
318.8458421526681
 31
0.0
  0
LINE
  5
138
330
56
100
AcDbEntity
  8
1
  6
Continuous
 62
     7
100
AcDbLine
 10
169.8592227934009
 20
334.5982162268218
 30
0.0
 11
170.5666362635828
 21
356.8817405375306
 31
0.0
  0
LINE
  5
139
330
56
100
AcDbEntity
  8
1
  6
Continuous
 62
     7
100
AcDbLine
 10
194.8592134632318
 20
356.8817405375306
 30
0.0
 11
170.8592134632318
 21
356.8817405375306
 31
0.0
  0
LINE
  5
13A
330
56
100
AcDbEntity
  8
1
  6
Continuous
 62
     7
100
AcDbLine
 10
194.8592134632318
 20
358.6137913450993
 30
0.0
 11
170.8592134632319
 21
358.6137913450993
 31
0.0
  0
LINE
  5
13B
330
56
100
AcDbEntity
  8
1
  6
Continuous
 62
     7
100
AcDbLine
 10
195.8592134632319
 20
317.1137913450993
 30
0.0
 11
169.8592134632318
 21
317.1137913450993
 31
0.0
  0
LINE
  5
13C
330
56
100
AcDbEntity
  8
1
  6
Continuous
 62
     7
100
AcDbLine
 10
170.8380191804127
 20
322.3995564105921
 30
0.0
 11
169.8592134632318
 21
318.9737364004592
 31
0.0
  0
LINE
  5
13D
330
56
100
AcDbEntity
  8
1
  6
Continuous
 62
     7
100
AcDbLine
 10
195.1517906628809
 20
356.8817405375306
 30
0.0
 11
195.8592041330628
 21
334.5982162268218
 31
0.0
  0
LINE
  5
13E
330
56
100
AcDbEntity
  8
1
  6
Continuous
 62
     2
100
AcDbLine
 10
193.8592134632318
 20
360.1137913450993
 30
0.0
 11
193.8592134632318
 21
358.6137913450993
 31
0.0
  0
LINE
  5
13F
330
56
100
AcDbEntity
  8
1
  6
Continuous
 62
     2
100
AcDbLine
 10
169.8592134632318
 20
318.8458421526681
 30
0.0
 11
170.8592134632318
 21
317.1137913450993
 31
0.0
  0
LINE
  5
140
330
56
100
AcDbEntity
  8
1
  6
Continuous
 62
     7
100
AcDbLine
 10
169.8592134632318
 20
315.6137913450993
 30
0.0
 11
169.8592134632318
 21
318.8458421526681
 31
0.0
  0
LINE
  5
141
330
56
100
AcDbEntity
  8
1
  6
Continuous
 62
     2
100
AcDbLine
 10
170.8592134632318
 20
315.6137913450993
 30
0.0
 11
170.8592134632318
 21
317.1137913450993
 31
0.0
  0
LINE
  5
142
330
56
100
AcDbEntity
  8
1
  6
Continuous
 62
     7
100
AcDbLine
 10
170.5666362635839
 20
356.8817405375306
 30
0.0
 11
170.8592134632318
 21
356.8817405375306
 31
0.0
  0
LINE
  5
143
330
56
100
AcDbEntity
  8
1
  6
Continuous
 62
     7
100
AcDbLine
 10
194.8592134632318
 20
356.8817405375306
 30
0.0
 11
195.1517906628809
 21
356.8817405375306
 31
0.0
  0
LINE
  5
144
330
56
100
AcDbEntity
  8
1
  6
Continuous
 62
     2
100
AcDbLine
 10
193.8592134632318
 20
358.6137913450993
 30
0.0
 11
194.8592134632318
 21
356.8817405375306
 31
0.0
  0
LINE
  5
145
330
56
100
AcDbEntity
  8
1
  6
Continuous
 62
     7
100
AcDbLine
 10
194.8592134632318
 20
356.8817405375306
 30
0.0
 11
194.8592134632318
 21
360.1137913450993
 31
0.0
  0
LINE
  5
146
330
56
100
AcDbEntity
  8
1
  6
Continuous
 62
     2
100
AcDbLine
 10
170.8592134632318
 20
356.8817405375306
 30
0.0
 11
171.8592134632318
 21
358.6137913450993
 31
0.0
  0
LINE
  5
147
330
56
100
AcDbEntity
  8
1
  6
Continuous
 62
     2
100
AcDbLine
 10
171.8592134632318
 20
358.6137913450993
 30
0.0
 11
171.8592134632319
 21
360.1137913450993
 31
0.0
  0
LINE
  5
148
330
56
100
AcDbEntity
  8
1
  6
Continuous
 62
     7
100
AcDbLine
 10
170.8592134632318
 20
360.1137913450993
 30
0.0
 11
170.8592134632318
 21
356.8817405375306
 31
0.0
  0
LINE
  5
149
330
56
100
AcDbEntity
  8
1
  6
Continuous
 62
     7
100
AcDbLine
 10
169.8592134632318
 20
318.8458421526681
 30
0.0
 11
169.8592134632318
 21
318.9737364004592
 31
0.0
  0
LINE
  5
14A
330
56
100
AcDbEntity
  8
1
  6
PHANTOM
 62
     4
100
AcDbLine
 10
198.8592134632319
 20
748.7980399121151
 30
0.0
 11
166.8592134632319
 21
748.7980399121151
 31
0.0
  0
LINE
  5
14B
330
56
100
AcDbEntity
  8
1
  6
Continuous
 62
     7
100
AcDbLine
 10
160.319983915368
 20
826.2617764910776
 30
0.0
 11
205.3984430110958
 21
826.2617764910776
 31
0.0
  0
LINE
  5
14C
330
56
100
AcDbEntity
  8
1
  6
Continuous
 62
     7
100
AcDbLine
 10
193.3592134632319
 20
841.7980399121151
 30
0.0
 11
172.3592134632319
 21
841.7980399121151
 31
0.0
  0
LINE
  5
14D
330
56
100
AcDbEntity
  8
1
  6
Continuous
 62
     7
100
AcDbLine
 10
172.3592134632319
 20
830.530090719684
 30
0.0
 11
193.3592134632319
 21
830.530090719684
 31
0.0
  0
LINE
  5
14E
330
56
100
AcDbEntity
  8
1
  6
Continuous
 62
     7
100
AcDbLine
 10
191.6092134632319
 20
750.7980399121151
 30
0.0
 11
191.6092134632319
 21
759.77851660294
 31
0.0
  0
LINE
  5
14F
330
56
100
AcDbEntity
  8
1
  6
Continuous
 62
     7
100
AcDbLine
 10
174.1092134632319
 20
750.7980399121151
 30
0.0
 11
174.1092134632319
 21
759.77851660294
 31
0.0
  0
LINE
  5
150
330
56
100
AcDbEntity
  8
1
  6
Continuous
 62
     7
100
AcDbLine
 10
173.3592134632319
 20
842.7980399121151
 30
0.0
 11
192.3592134632319
 21
842.7980399121151
 31
0.0
  0
LINE
  5
151
330
56
100
AcDbEntity
  8
1
  6
Continuous
 62
     7
100
AcDbLine
 10
193.3592134632319
 20
841.7980399121151
 30
0.0
 11
192.3592134632319
 21
842.7980399121151
 31
0.0
  0
LINE
  5
152
330
56
100
AcDbEntity
  8
1
  6
Continuous
 62
     7
100
AcDbLine
 10
193.3592134632319
 20
841.7980399121151
 30
0.0
 11
193.3592134632319
 21
828.7980399121151
 31
0.0
  0
LINE
  5
153
330
56
100
AcDbEntity
  8
1
  6
Continuous
 62
     7
100
AcDbLine
 10
173.3592134632319
 20
842.7980399121151
 30
0.0
 11
172.3592134632319
 21
841.7980399121151
 31
0.0
  0
LINE
  5
154
330
56
100
AcDbEntity
  8
1
  6
Continuous
 62
     7
100
AcDbLine
 10
172.3592134632319
 20
828.7980399121151
 30
0.0
 11
172.3592134632319
 21
841.7980399121151
 31
0.0
  0
LINE
  5
155
330
56
100
AcDbEntity
  8
1
  6
Continuous
 62
     7
100
AcDbLine
 10
174.1092134632319
 20
822.2617764910776
 30
0.0
 11
174.1092134632319
 21
807.8175632212901
 31
0.0
  0
LINE
  5
156
330
56
100
AcDbEntity
  8
1
  6
Continuous
 62
     2
100
AcDbLine
 10
173.3592134632319
 20
830.530090719684
 30
0.0
 11
173.3592134632319
 21
842.7980399121151
 31
0.0
  0
LINE
  5
157
330
56
100
AcDbEntity
  8
1
  6
Continuous
 62
     2
100
AcDbLine
 10
172.3592134632319
 20
828.7980399121151
 30
0.0
 11
173.3592134632319
 21
830.530090719684
 31
0.0
  0
LINE
  5
158
330
56
100
AcDbEntity
  8
1
  6
Continuous
 62
     7
100
AcDbLine
 10
159.8592134632319
 20
828.7980399121151
 30
0.0
 11
159.8592134632319
 21
826.7602351579442
 31
0.0
  0
LINE
  5
159
330
56
100
AcDbEntity
  8
1
  6
Continuous
 62
     7
100
AcDbLine
 10
191.6092134632319
 20
822.2617764910776
 30
0.0
 11
191.6092134632319
 21
807.8175632212901
 31
0.0
  0
LINE
  5
15A
330
56
100
AcDbEntity
  8
1
  6
Continuous
 62
     7
100
AcDbLine
 10
205.8592134632319
 20
826.7602351579442
 30
0.0
 11
205.8592134632319
 21
828.7980399121151
 31
0.0
  0
LINE
  5
15B
330
56
100
AcDbEntity
  8
1
  6
Continuous
 62
     7
100
AcDbLine
 10
205.8592134632319
 20
828.7980399121151
 30
0.0
 11
159.8592134632319
 21
828.7980399121151
 31
0.0
  0
LINE
  5
15C
330
56
100
AcDbEntity
  8
1
  6
Continuous
 62
     2
100
AcDbLine
 10
192.3592134632319
 20
830.530090719684
 30
0.0
 11
193.3592134632319
 21
828.7980399121151
 31
0.0
  0
LINE
  5
15D
330
56
100
AcDbEntity
  8
1
  6
Continuous
 62
     2
100
AcDbLine
 10
192.3592134632319
 20
830.530090719684
 30
0.0
 11
192.3592134632319
 21
842.7980399121151
 31
0.0
  0
LINE
  5
15E
330
56
100
AcDbEntity
  8
1
  6
PHANTOM
 62
     4
100
AcDbLine
 10
199.8592134632319
 20
783.7980399121151
 30
0.0
 11
165.8592134632319
 21
783.7980399121151
 31
0.0
  0
LINE
  5
15F
330
56
100
AcDbEntity
  8
0
  6
PHANTOM
 62
     4
100
AcDbLine
 10
156.8592134632319
 20
334.6137913450993
 30
0.0
 11
205.8592134632319
 21
334.6137913450993
 31
0.0
  0
LINE
  5
160
330
56
100
AcDbEntity
  8
1
  6
Continuous
 62
     7
100
AcDbLine
 10
634.8755684285264
 20
345.1137913450993
 30
0.0
 11
634.8755684285264
 21
324.1137913450993
 31
0.0
  0
LINE
  5
161
330
56
100
AcDbEntity
  8
1
  6
Continuous
 62
     7
100
AcDbLine
 10
619.3755684285264
 20
347.3637913450993
 30
0.0
 11
619.3755684285264
 21
321.8637913450993
 31
0.0
  0
LINE
  5
162
330
56
100
AcDbEntity
  8
1
  6
Continuous
 62
     7
100
AcDbLine
 10
621.8755684285264
 20
324.1137913450993
 30
0.0
 11
621.8755684285264
 21
345.1137913450993
 31
0.0
  0
LINE
  5
163
330
56
100
AcDbEntity
  8
1
  6
Continuous
 62
     7
100
AcDbLine
 10
623.6076192360955
 20
345.1137913450993
 30
0.0
 11
623.6076192360955
 21
324.1137913450993
 31
0.0
  0
LINE
  5
164
330
56
100
AcDbEntity
  8
1
  6
Continuous
 62
     7
100
AcDbLine
 10
588.8755684285264
 20
356.8817405375306
 30
0.0
 11
564.8755684285263
 21
356.8817405375306
 31
0.0
  0
LINE
  5
165
330
56
100
AcDbEntity
  8
1
  6
Continuous
 62
     7
100
AcDbLine
 10
588.8755684285264
 20
358.6137913450993
 30
0.0
 11
564.8755684285265
 21
358.6137913450993
 31
0.0
  0
LINE
  5
166
330
56
100
AcDbEntity
  8
1
  6
Continuous
 62
     7
100
AcDbLine
 10
554.8755684285265
 20
317.1137913450993
 30
0.0
 11
528.8755684285263
 21
317.1137913450993
 31
0.0
  0
LINE
  5
167
330
56
100
AcDbEntity
  8
1
  6
Continuous
 62
     7
100
AcDbLine
 10
564.4212122012614
 20
351.785701167611
 30
0.0
 11
564.5829912288785
 21
356.8817405375306
 31
0.0
  0
LINE
  5
168
330
56
100
AcDbEntity
  8
1
  6
Continuous
 62
     7
100
AcDbLine
 10
529.8543741457073
 20
322.3995564105921
 30
0.0
 11
528.8755684285263
 21
318.9737364004592
 31
0.0
  0
LINE
  5
169
330
56
100
AcDbEntity
  8
1
  6
Continuous
 62
     7
100
AcDbLine
 10
615.3755684285264
 20
343.3637913450993
 30
0.0
 11
599.0552325377954
 21
343.3637913450995
 31
0.0
  0
LINE
  5
16A
330
56
100
AcDbEntity
  8
1
  6
Continuous
 62
     7
100
AcDbLine
 10
589.1681456281756
 20
356.8817405375306
 30
0.0
 11
589.3202436207165
 21
352.0906537724925
 31
0.0
  0
LINE
  5
16B
330
56
100
AcDbEntity
  8
1
  6
Continuous
 62
     7
100
AcDbLine
 10
599.0552325377945
 20
325.8637913450991
 30
0.0
 11
615.3755684285264
 21
325.8637913450993
 31
0.0
  0
LINE
  5
16C
330
56
100
AcDbEntity
  8
1
  6
Continuous
 62
     7
100
AcDbLine
 10
558.4432598373595
 20
326.1137913450993
 30
0.0
 11
557.6170423185534
 21
326.1137913450993
 31
0.0
  0
LINE
  5
16D
330
56
100
AcDbEntity
  8
1
  6
Continuous
 62
     7
100
AcDbLine
 10
553.8567152456474
 20
322.5397225405371
 30
0.0
 11
554.8755684285263
 21
318.9737364004592
 31
0.0
  0
LINE
  5
16E
330
56
100
AcDbEntity
  8
1
  6
Continuous
 62
     2
100
AcDbLine
 10
587.8755684285263
 20
360.1137913450993
 30
0.0
 11
587.8755684285263
 21
358.6137913450993
 31
0.0
  0
LINE
  5
16F
330
56
100
AcDbEntity
  8
1
  6
Continuous
 62
     7
100
AcDbLine
 10
634.8755684285264
 20
324.1137913450993
 30
0.0
 11
621.8755684285264
 21
324.1137913450993
 31
0.0
  0
LINE
  5
170
330
56
100
AcDbEntity
  8
1
  6
Continuous
 62
     2
100
AcDbLine
 10
623.6076192360955
 20
325.1137913450993
 30
0.0
 11
621.8755684285264
 21
324.1137913450993
 31
0.0
  0
LINE
  5
171
330
56
100
AcDbEntity
  8
1
  6
Continuous
 62
     2
100
AcDbLine
 10
635.8755684285265
 20
325.1137913450993
 30
0.0
 11
623.6076192360955
 21
325.1137913450993
 31
0.0
  0
LINE
  5
172
330
56
100
AcDbEntity
  8
1
  6
Continuous
 62
     7
100
AcDbLine
 10
634.8755684285264
 20
324.1137913450993
 30
0.0
 11
635.8755684285265
 21
325.1137913450993
 31
0.0
  0
LINE
  5
173
330
56
100
AcDbEntity
  8
1
  6
Continuous
 62
     7
100
AcDbLine
 10
619.3755684285264
 20
321.8637913450993
 30
0.0
 11
619.3755684285265
 21
312.1137913450993
 31
0.0
  0
LINE
  5
174
330
56
100
AcDbEntity
  8
1
  6
Continuous
 62
     7
100
AcDbLine
 10
621.8755684285265
 20
311.6137913450993
 30
0.0
 11
619.8755684285264
 21
311.6137913450993
 31
0.0
  0
LINE
  5
175
330
56
100
AcDbEntity
  8
1
  6
Continuous
 62
     7
100
AcDbLine
 10
621.8755684285264
 20
324.1137913450993
 30
0.0
 11
621.8755684285265
 21
311.6137913450993
 31
0.0
  0
LINE
  5
176
330
56
100
AcDbEntity
  8
1
  6
Continuous
 62
     2
100
AcDbLine
 10
623.6076192360955
 20
344.1137913450993
 30
0.0
 11
635.8755684285264
 21
344.1137913450993
 31
0.0
  0
LINE
  5
177
330
56
100
AcDbEntity
  8
1
  6
Continuous
 62
     7
100
AcDbLine
 10
621.8755684285264
 20
345.1137913450993
 30
0.0
 11
634.8755684285264
 21
345.1137913450993
 31
0.0
  0
LINE
  5
178
330
56
100
AcDbEntity
  8
1
  6
Continuous
 62
     7
100
AcDbLine
 10
635.8755684285264
 20
344.1137913450993
 30
0.0
 11
634.8755684285264
 21
345.1137913450993
 31
0.0
  0
LINE
  5
179
330
56
100
AcDbEntity
  8
1
  6
Continuous
 62
     2
100
AcDbLine
 10
621.8755684285264
 20
345.1137913450993
 30
0.0
 11
623.6076192360955
 21
344.1137913450993
 31
0.0
  0
LINE
  5
17A
330
56
100
AcDbEntity
  8
1
  6
Continuous
 62
     7
100
AcDbLine
 10
621.8755684285265
 20
357.6137913450993
 30
0.0
 11
621.8755684285264
 21
345.1137913450993
 31
0.0
  0
LINE
  5
17B
330
56
100
AcDbEntity
  8
1
  6
Continuous
 62
     7
100
AcDbLine
 10
621.8755684285265
 20
357.6137913450993
 30
0.0
 11
619.8755684285264
 21
357.6137913450993
 31
0.0
  0
LINE
  5
17C
330
56
100
AcDbEntity
  8
1
  6
Continuous
 62
     7
100
AcDbLine
 10
619.3755684285264
 20
347.3637913450993
 30
0.0
 11
619.3755684285264
 21
357.1137913450993
 31
0.0
  0
LINE
  5
17D
330
56
100
AcDbEntity
  8
1
  6
Continuous
 62
     7
100
AcDbLine
 10
554.8755684285263
 20
318.9737364004592
 30
0.0
 11
554.8755684285263
 21
315.6137913450993
 31
0.0
  0
LINE
  5
17E
330
56
100
AcDbEntity
  8
1
  6
Continuous
 62
     2
100
AcDbLine
 10
528.8755684285263
 20
318.8458421526681
 30
0.0
 11
529.8755684285263
 21
317.1137913450993
 31
0.0
  0
LINE
  5
17F
330
56
100
AcDbEntity
  8
1
  6
Continuous
 62
     7
100
AcDbLine
 10
528.8755684285263
 20
315.6137913450993
 30
0.0
 11
528.8755684285263
 21
318.8458421526681
 31
0.0
  0
LINE
  5
180
330
56
100
AcDbEntity
  8
1
  6
Continuous
 62
     2
100
AcDbLine
 10
553.8755684285263
 20
317.1137913450993
 30
0.0
 11
554.8755684285263
 21
318.8458421526682
 31
0.0
  0
LINE
  5
181
330
56
100
AcDbEntity
  8
1
  6
Continuous
 62
     2
100
AcDbLine
 10
553.8755684285263
 20
317.1137913450993
 30
0.0
 11
553.8755684285263
 21
315.6137913450993
 31
0.0
  0
LINE
  5
182
330
56
100
AcDbEntity
  8
1
  6
Continuous
 62
     2
100
AcDbLine
 10
529.8755684285263
 20
315.6137913450993
 30
0.0
 11
529.8755684285263
 21
317.1137913450993
 31
0.0
  0
LINE
  5
183
330
56
100
AcDbEntity
  8
1
  6
Continuous
 62
     7
100
AcDbLine
 10
564.5829912288785
 20
356.8817405375306
 30
0.0
 11
564.8755684285263
 21
356.8817405375306
 31
0.0
  0
LINE
  5
184
330
56
100
AcDbEntity
  8
1
  6
Continuous
 62
     7
100
AcDbLine
 10
588.8755684285264
 20
356.8817405375306
 30
0.0
 11
589.1681456281756
 21
356.8817405375306
 31
0.0
  0
LINE
  5
185
330
56
100
AcDbEntity
  8
1
  6
Continuous
 62
     2
100
AcDbLine
 10
587.8755684285263
 20
358.6137913450993
 30
0.0
 11
588.8755684285264
 21
356.8817405375306
 31
0.0
  0
LINE
  5
186
330
56
100
AcDbEntity
  8
1
  6
Continuous
 62
     7
100
AcDbLine
 10
588.8755684285264
 20
356.8817405375306
 30
0.0
 11
588.8755684285264
 21
360.1137913450993
 31
0.0
  0
LINE
  5
187
330
56
100
AcDbEntity
  8
1
  6
Continuous
 62
     2
100
AcDbLine
 10
564.8755684285263
 20
356.8817405375306
 30
0.0
 11
565.8755684285263
 21
358.6137913450993
 31
0.0
  0
LINE
  5
188
330
56
100
AcDbEntity
  8
1
  6
Continuous
 62
     2
100
AcDbLine
 10
565.8755684285263
 20
358.6137913450993
 30
0.0
 11
565.8755684285265
 21
360.1137913450993
 31
0.0
  0
LINE
  5
189
330
56
100
AcDbEntity
  8
1
  6
Continuous
 62
     7
100
AcDbLine
 10
564.8755684285263
 20
360.1137913450993
 30
0.0
 11
564.8755684285263
 21
356.8817405375306
 31
0.0
  0
LINE
  5
18A
330
56
100
AcDbEntity
  8
1
  6
Continuous
 62
     7
100
AcDbLine
 10
528.8755684285263
 20
318.8458421526681
 30
0.0
 11
528.8755684285263
 21
318.9737364004592
 31
0.0
  0
LINE
  5
18B
330
56
100
AcDbEntity
  8
1
  6
Continuous
 62
     7
100
AcDbLine
 10
635.8755684285265
 20
325.1137913450993
 30
0.0
 11
635.8755684285264
 21
344.1137913450993
 31
0.0
  0
ARC
  5
18C
330
56
100
AcDbEntity
  8
1
  6
Continuous
 62
     7
100
AcDbCircle
 10
182.8592134632319
 20
334.6137913450993
 30
0.0
 40
23.00000000000008
100
AcDbArc
 50
122.5778011728608
 51
235.5826112895583
  0
ARC
  5
18D
330
56
100
AcDbEntity
  8
1
  6
Continuous
 62
     7
100
AcDbCircle
 10
182.8592134632319
 20
334.6137913450993
 30
0.0
 40
23.0
100
AcDbArc
 50
0.0
 51
57.42219882713937
  0
ARC
  5
18E
330
56
100
AcDbEntity
  8
1
  6
Continuous
 62
     7
100
AcDbCircle
 10
182.8592134632319
 20
334.6137913450993
 30
0.0
 40
22.99999999999998
100
AcDbArc
 50
304.4173887104419
 51
0.0
  0
ARC
  5
18F
330
56
100
AcDbEntity
  8
1
  6
Continuous
 62
     7
100
AcDbCircle
 10
182.8592134632319
 20
334.6137913450993
 30
0.0
 40
8.35199593590604
100
AcDbArc
 50
0.19057502307793
 51
90.0
  0
ARC
  5
190
330
56
100
AcDbEntity
  8
1
  6
Continuous
 62
     7
100
AcDbCircle
 10
182.8592134632319
 20
334.6137913450993
 30
0.0
 40
8.351995935906132
100
AcDbArc
 50
90.0
 51
179.8094249769221
  0
ARC
  5
191
330
56
100
AcDbEntity
  8
1
  6
Continuous
 62
     7
100
AcDbCircle
 10
155.8592134632319
 20
783.7980399121151
 30
0.0
 40
40.00000000000006
100
AcDbArc
 50
339.9319453791808
 51
351.5515988250781
  0
ARC
  5
192
330
56
100
AcDbEntity
  8
1
  6
Continuous
 62
     7
100
AcDbCircle
 10
182.8592134632319
 20
334.6137913450993
 30
0.0
 40
13.00000000000009
100
AcDbArc
 50
180.068645288939
 51
214.3100927933891
  0
ARC
  5
193
330
56
100
AcDbEntity
  8
1
  6
Continuous
 62
     7
100
AcDbCircle
 10
171.1547828892396
 20
318.7808929620343
 30
0.0
 40
24.00000000000155
100
AcDbArc
 50
8.67199482596343
 51
27.87011739414523
  0
ARC
  5
194
330
56
100
AcDbEntity
  8
1
  6
Continuous
 62
     7
100
AcDbCircle
 10
182.8592134632319
 20
334.6137913450993
 30
0.0
 40
13.0
100
AcDbArc
 50
180.0
 51
180.068645288939
  0
ARC
  5
195
330
56
100
AcDbEntity
  8
1
  6
Continuous
 62
     7
100
AcDbCircle
 10
182.8592134632319
 20
334.6137913450993
 30
0.0
 40
12.99999999999994
100
AcDbArc
 50
325.6899072066107
 51
359.931354711061
  0
ARC
  5
196
330
56
100
AcDbEntity
  8
1
  6
Continuous
 62
     7
100
AcDbCircle
 10
194.5636440372241
 20
318.7808929620343
 30
0.0
 40
24.00000000000157
100
AcDbArc
 50
152.1298826058548
 51
171.3280051740366
  0
ARC
  5
197
330
56
100
AcDbEntity
  8
1
  6
Continuous
 62
     7
100
AcDbCircle
 10
195.6092134632319
 20
822.2617764910776
 30
0.0
 40
4.0
100
AcDbArc
 50
90.0
 51
180.0
  0
ARC
  5
198
330
56
100
AcDbEntity
  8
1
  6
Continuous
 62
     7
100
AcDbCircle
 10
170.1092134632319
 20
822.2617764910776
 30
0.0
 40
4.0
100
AcDbArc
 50
0.0
 51
90.0
  0
ARC
  5
199
330
56
100
AcDbEntity
  8
1
  6
Continuous
 62
     7
100
AcDbCircle
 10
209.8592134632319
 20
783.7980399121151
 30
0.0
 40
39.99999999999986
100
AcDbArc
 50
188.4484011749223
 51
200.0680546208193
  0
ARC
  5
19A
330
56
100
AcDbEntity
  8
1
  6
Continuous
 62
     7
100
AcDbCircle
 10
182.8592134632319
 20
748.7980399121151
 30
0.0
 40
12.99999999999998
100
AcDbArc
 50
132.3049897071829
 51
47.69501029281709
  0
ARC
  5
19B
330
56
100
AcDbEntity
  8
1
  6
Continuous
 62
     7
100
AcDbCircle
 10
576.8755684285263
 20
350.6137913450992
 30
0.0
 40
28.9999999999999
100
AcDbArc
 50
242.5607598493188
 51
291.6947160223859
  0
ARC
  5
19C
330
56
100
AcDbEntity
  8
1
  6
Continuous
 62
     7
100
AcDbCircle
 10
557.8346030529475
 20
322.1197123114755
 30
0.0
 40
3.999999999997904
100
AcDbArc
 50
93.1178665175726
 51
173.9726861048959
  0
ARC
  5
19D
330
56
100
AcDbEntity
  8
1
  6
Continuous
 62
     7
100
AcDbCircle
 10
615.3755684285264
 20
321.8637913450993
 30
0.0
 40
4.0
100
AcDbArc
 50
0.0
 51
90.0
  0
ARC
  5
19E
330
56
100
AcDbEntity
  8
1
  6
Continuous
 62
     7
100
AcDbCircle
 10
615.3755684285264
 20
347.3637913450993
 30
0.0
 40
4.0
100
AcDbArc
 50
270.0
 51
0.0
  0
ARC
  5
19F
330
56
100
AcDbEntity
  8
1
  6
Continuous
 62
     7
100
AcDbCircle
 10
553.5799990025187
 20
318.7808929620343
 30
0.0
 40
24.00000000000227
100
AcDbArc
 50
99.36066212030283
 51
171.3280051740366
  0
ARC
  5
1A0
330
56
100
AcDbEntity
  8
1
  6
Continuous
 62
     7
100
AcDbCircle
 10
557.6462131901877
 20
294.1137913446399
 30
0.0
 40
49.00000000045976
100
AcDbArc
 50
92.19404509977879
 51
99.36066212030437
  0
ARC
  5
1A1
330
56
100
AcDbEntity
  8
1
  6
Continuous
 62
     7
100
AcDbCircle
 10
555.4257439235997
 20
352.0712715891252
 30
0.0
 40
9.00000000000378
100
AcDbArc
 50
272.1940450997746
 51
358.181697035541
  0
ARC
  5
1A2
330
56
100
AcDbEntity
  8
1
  6
Continuous
 62
     7
100
AcDbCircle
 10
201.2111078819438
 20
334.6748329371649
 30
0.0
 40
9.999999999999982
100
AcDbArc
 50
180.1905750230771
 51
207.8701173941452
  0
ARC
  5
1A3
330
56
100
AcDbEntity
  8
1
  6
Continuous
 62
     7
100
AcDbCircle
 10
164.5073190445199
 20
334.6748329371649
 30
0.0
 40
10.00000000000005
100
AcDbArc
 50
332.1298826058548
 51
359.8094249769229
  0
ARC
  5
1A4
330
56
100
AcDbEntity
  8
1
  6
Continuous
 62
     7
100
AcDbCircle
 10
221.6092134632319
 20
807.8175632212901
 30
0.0
 40
30.0
100
AcDbArc
 50
180.0
 51
196.3396281907049
  0
ARC
  5
1A5
330
56
100
AcDbEntity
  8
1
  6
Continuous
 62
     7
100
AcDbCircle
 10
193.6092134632319
 20
750.7980399121151
 30
0.0
 40
2.0
100
AcDbArc
 50
180.0
 51
270.0
  0
ARC
  5
1A6
330
56
100
AcDbEntity
  8
1
  6
Continuous
 62
     7
100
AcDbCircle
 10
172.1092134632319
 20
750.7980399121151
 30
0.0
 40
2.0
100
AcDbArc
 50
270.0
 51
0.0
  0
ARC
  5
1A7
330
56
100
AcDbEntity
  8
1
  6
Continuous
 62
     7
100
AcDbCircle
 10
144.1092134632319
 20
807.8175632212901
 30
0.0
 40
30.00000000000005
100
AcDbArc
 50
343.6603718092951
 51
0.0
  0
ARC
  5
1A8
330
56
100
AcDbEntity
  8
1
  6
Continuous
 62
     7
100
AcDbCircle
 10
144.1092134632319
 20
759.77851660294
 30
0.0
 40
30.0
100
AcDbArc
 50
0.0
 51
20.06805462081917
  0
ARC
  5
1A9
330
56
100
AcDbEntity
  8
1
  6
Continuous
 62
     7
100
AcDbCircle
 10
221.6092134632319
 20
759.77851660294
 30
0.0
 40
29.99999999999996
100
AcDbArc
 50
159.9319453791808
 51
180.0
  0
ARC
  5
1AA
330
56
100
AcDbEntity
  8
1
  6
Continuous
 62
     7
100
AcDbCircle
 10
160.3592134632319
 20
826.7602351579442
 30
0.0
 40
0.5
100
AcDbArc
 50
180.0
 51
265.5000000000028
  0
ARC
  5
1AB
330
56
100
AcDbEntity
  8
1
  6
Continuous
 62
     7
100
AcDbCircle
 10
205.3592134632319
 20
826.7602351579442
 30
0.0
 40
0.4999999999999883
100
AcDbArc
 50
274.4999999999972
 51
0.0
  0
ARC
  5
1AC
330
56
100
AcDbEntity
  8
1
  6
Continuous
 62
     7
100
AcDbCircle
 10
599.0552325377954
 20
374.3637913450995
 30
0.0
 40
30.99999999999998
100
AcDbArc
 50
268.0736638597938
 51
270.0
  0
ARC
  5
1AD
330
56
100
AcDbEntity
  8
1
  6
Continuous
 62
     7
100
AcDbCircle
 10
598.3157118983736
 20
352.3762241940055
 30
0.0
 40
8.999999999998792
100
AcDbArc
 50
181.8183029644523
 51
268.073663859796
  0
ARC
  5
1AE
330
56
100
AcDbEntity
  8
1
  6
Continuous
 62
     7
100
AcDbCircle
 10
599.0552325377954
 20
294.8637913450991
 30
0.0
 40
31.0
100
AcDbArc
 50
90.00000000000168
 51
111.6947160223878
  0
ARC
  5
1AF
330
56
100
AcDbEntity
  8
1
  6
Continuous
 62
     7
100
AcDbCircle
 10
558.4432598373595
 20
315.1137913450993
 30
0.0
 40
11.00000000000003
100
AcDbArc
 50
62.56075984931851
 51
90.0
  0
ARC
  5
1B0
330
56
100
AcDbEntity
  8
1
  6
Continuous
 62
     7
100
AcDbCircle
 10
619.8755684285264
 20
312.1137913450993
 30
0.0
 40
0.4999999999998863
100
AcDbArc
 50
180.0
 51
270.0
  0
ARC
  5
1B1
330
56
100
AcDbEntity
  8
1
  6
Continuous
 62
     7
100
AcDbCircle
 10
619.8755684285264
 20
357.1137913450993
 30
0.0
 40
0.5
100
AcDbArc
 50
90.0
 51
180.0
  0
ENDBLK
  5
58
330
56
100
AcDbEntity
  8
0
100
AcDbBlockEnd
  0
BLOCK
  5
5A
330
59
100
AcDbEntity
  8
0
100
AcDbBlockBegin
  2
32-1-16
 70
     0
 10
245.3298285928577
 20
515.0996234752083
 30
0.0
  3
32-1-16
  1

  0
LINE
  5
1B2
330
59
100
AcDbEntity
  8
1
  6
Continuous
 62
     7
100
AcDbLine
 10
191.6095098123741
 20
759.9118614967585
 30
0.0
 11
195.6200727741334
 21
757.5963618911846
 31
0.0
  0
LINE
  5
1B3
330
59
100
AcDbEntity
  8
1
  6
Continuous
 62
     7
100
AcDbLine
 10
174.1089171140897
 20
759.9118614967585
 30
0.0
 11
170.0983541523304
 21
757.5963618911846
 31
0.0
  0
LINE
  5
1B4
330
59
100
AcDbEntity
  8
1
  6
Continuous
 62
     7
100
AcDbLine
 10
196.8592134632319
 20
307.9006140953862
 30
0.0
 11
196.8592134632319
 21
315.0420425239292
 31
0.0
  0
LINE
  5
1B5
330
59
100
AcDbEntity
  8
1
  6
Continuous
 62
     7
100
AcDbLine
 10
196.1592134632319
 20
315.6137913450993
 30
0.0
 11
182.8592134632318
 21
315.6137913450993
 31
0.0
  0
LINE
  5
1B6
330
59
100
AcDbEntity
  8
1
  6
Continuous
 62
     7
100
AcDbLine
 10
194.4172345249625
 20
306.6137913450993
 30
0.0
 11
194.3592134632319
 21
306.6137913450993
 31
0.0
  0
LINE
  5
1B7
330
59
100
AcDbEntity
  8
1
  6
Continuous
 62
     7
100
AcDbLine
 10
182.8592134632318
 20
305.6137913450993
 30
0.0
 11
192.627162655663
 21
305.6137913450993
 31
0.0
  0
LINE
  5
1B8
330
59
100
AcDbEntity
  8
1
  6
Continuous
 62
     7
100
AcDbLine
 10
168.8592134632319
 20
315.0420425239292
 30
0.0
 11
168.8592134632319
 21
307.9006140953862
 31
0.0
  0
LINE
  5
1B9
330
59
100
AcDbEntity
  8
1
  6
Continuous
 62
     7
100
AcDbLine
 10
182.8592134632318
 20
315.6137913450993
 30
0.0
 11
169.5592134632318
 21
315.6137913450993
 31
0.0
  0
LINE
  5
1BA
330
59
100
AcDbEntity
  8
1
  6
Continuous
 62
     7
100
AcDbLine
 10
171.3592134632318
 20
306.6137913450993
 30
0.0
 11
171.3011924015012
 21
306.6137913450993
 31
0.0
  0
LINE
  5
1BB
330
59
100
AcDbEntity
  8
1
  6
Continuous
 62
     7
100
AcDbLine
 10
173.0912642708006
 20
305.6137913450993
 30
0.0
 11
182.8592134632318
 21
305.6137913450993
 31
0.0
  0
LINE
  5
1BC
330
59
100
AcDbEntity
  8
1
  6
Continuous
 62
     7
100
AcDbLine
 10
555.1755684285265
 20
315.6137913450993
 30
0.0
 11
541.8755684285265
 21
315.6137913450993
 31
0.0
  0
LINE
  5
1BD
330
59
100
AcDbEntity
  8
1
  6
Continuous
 62
     7
100
AcDbLine
 10
555.0625684285264
 20
315.6137913450993
 30
0.0
 11
555.1755684285265
 21
315.6137913450993
 31
0.0
  0
LINE
  5
1BE
330
59
100
AcDbEntity
  8
1
  6
Continuous
 62
     7
100
AcDbLine
 10
553.433589490257
 20
306.6137913450993
 30
0.0
 11
553.3755684285265
 21
306.6137913450993
 31
0.0
  0
LINE
  5
1BF
330
59
100
AcDbEntity
  8
1
  6
Continuous
 62
     7
100
AcDbLine
 10
541.8755684285265
 20
305.6137913450993
 30
0.0
 11
551.6435176209576
 21
305.6137913450993
 31
0.0
  0
LINE
  5
1C0
330
59
100
AcDbEntity
  8
1
  6
Continuous
 62
     7
100
AcDbLine
 10
184.0983541523304
 20
733.3476505852204
 30
0.0
 11
195.6200727741334
 21
739.9997179330455
 31
0.0
  0
LINE
  5
1C1
330
59
100
AcDbEntity
  8
1
  6
Continuous
 62
     7
100
AcDbLine
 10
170.0983541523304
 20
739.9997179330455
 30
0.0
 11
181.6200727741334
 21
733.3476505852204
 31
0.0
  0
LINE
  5
1C2
330
59
100
AcDbEntity
  8
1
  6
Continuous
 62
     7
100
AcDbLine
 10
168.8592134632319
 20
755.4501072599401
 30
0.0
 11
168.8592134632319
 21
742.14597256429
 31
0.0
  0
LINE
  5
1C3
330
59
100
AcDbEntity
  8
1
  6
Continuous
 62
     7
100
AcDbLine
 10
196.8592134632319
 20
755.4501072599401
 30
0.0
 11
196.8592134632319
 21
742.14597256429
 31
0.0
  0
LINE
  5
1C4
330
59
100
AcDbEntity
  8
1
  6
Continuous
 62
     7
100
AcDbLine
 10
541.8755684285265
 20
315.6137913450993
 30
0.0
 11
528.5755684285264
 21
315.6137913450993
 31
0.0
  0
LINE
  5
1C5
330
59
100
AcDbEntity
  8
1
  6
Continuous
 62
     7
100
AcDbLine
 10
528.5755684285264
 20
315.6137913450993
 30
0.0
 11
528.6885684285264
 21
315.6137913450993
 31
0.0
  0
LINE
  5
1C6
330
59
100
AcDbEntity
  8
1
  6
Continuous
 62
     7
100
AcDbLine
 10
530.3755684285265
 20
306.6137913450993
 30
0.0
 11
530.3175473667959
 21
306.6137913450993
 31
0.0
  0
LINE
  5
1C7
330
59
100
AcDbEntity
  8
1
  6
Continuous
 62
     7
100
AcDbLine
 10
532.1076192360954
 20
305.6137913450993
 30
0.0
 11
541.8755684285265
 21
305.6137913450993
 31
0.0
  0
ARC
  5
1C8
330
59
100
AcDbEntity
  8
1
  6
Continuous
 62
     7
100
AcDbCircle
 10
193.3592134632319
 20
311.4713283096577
 30
0.0
 40
5.000000000000057
100
AcDbArc
 50
45.57299599919494
 51
55.94420225743207
  0
ARC
  5
1C9
330
59
100
AcDbEntity
  8
1
  6
Continuous
 62
     7
100
AcDbCircle
 10
193.3592134632319
 20
311.4713283096577
 30
0.0
 40
4.999999999999992
100
AcDbArc
 50
285.3375576695544
 51
314.427004000805
  0
ARC
  5
1CA
330
59
100
AcDbEntity
  8
1
  6
Continuous
 62
     7
100
AcDbCircle
 10
172.3592134632318
 20
311.4713283096577
 30
0.0
 40
5.000000000000017
100
AcDbArc
 50
124.0557977425679
 51
134.4270040008044
  0
ARC
  5
1CB
330
59
100
AcDbEntity
  8
1
  6
Continuous
 62
     7
100
AcDbCircle
 10
172.3592134632318
 20
311.4713283096577
 30
0.0
 40
4.999999999999997
100
AcDbArc
 50
225.5729959991956
 51
254.6624423304446
  0
ARC
  5
1CC
330
59
100
AcDbEntity
  8
1
  6
Continuous
 62
     7
100
AcDbCircle
 10
552.3755684285265
 20
311.4713283096577
 30
0.0
 40
4.99999999999997
100
AcDbArc
 50
285.3375576695535
 51
55.94420225743261
  0
ARC
  5
1CD
330
59
100
AcDbEntity
  8
1
  6
Continuous
 62
     7
100
AcDbCircle
 10
182.8592134632319
 20
748.7980399121151
 30
0.0
 40
15.5
100
AcDbArc
 50
270.0
 51
274.5853790848388
  0
ARC
  5
1CE
330
59
100
AcDbEntity
  8
1
  6
Continuous
 62
     7
100
AcDbCircle
 10
182.8592134632319
 20
748.7980399121151
 30
0.0
 40
15.50000000000001
100
AcDbArc
 50
325.4146209151613
 51
334.5853790848388
  0
ARC
  5
1CF
330
59
100
AcDbEntity
  8
1
  6
Continuous
 62
     7
100
AcDbCircle
 10
182.8592134632319
 20
748.7980399121151
 30
0.0
 40
15.49999999999999
100
AcDbArc
 50
265.4146209151612
 51
270.0
  0
ARC
  5
1D0
330
59
100
AcDbEntity
  8
1
  6
Continuous
 62
     7
100
AcDbCircle
 10
182.8592134632319
 20
748.7980399121151
 30
0.0
 40
15.50000000000002
100
AcDbArc
 50
205.4146209151612
 51
214.5853790848387
  0
ARC
  5
1D1
330
59
100
AcDbEntity
  8
1
  6
Continuous
 62
     7
100
AcDbCircle
 10
182.8592134632319
 20
748.7980399121151
 30
0.0
 40
15.50000000000001
100
AcDbArc
 50
145.4146209151613
 51
154.5853790848392
  0
ARC
  5
1D2
330
59
100
AcDbEntity
  8
1
  6
Continuous
 62
     7
100
AcDbCircle
 10
182.8592134632319
 20
748.7980399121151
 30
0.0
 40
15.49999999999998
100
AcDbArc
 50
25.4146209151608
 51
34.58537908483871
  0
ARC
  5
1D3
330
59
100
AcDbEntity
  8
1
  6
Continuous
 62
     7
100
AcDbCircle
 10
531.3755684285265
 20
311.4713283096577
 30
0.0
 40
5.000000000000112
100
AcDbArc
 50
124.0557977425696
 51
254.662442330444
  0
SPLINE
  5
1D4
330
59
100
AcDbEntity
  8
1
  6
Continuous
 62
     7
100
AcDbSpline
210
0.0
220
0.0
230
1.0
 70
    11
 71
     3
 72
    79
 73
    75
 74
    73
 42
0.000000001
 43
0.0000000001
 44
0.00000001
 40
0.0
 40
0.0
 40
0.0
 40
0.0
 40
0.2910229063171468
 40
0.5820342199791344
 40
0.8749339259796292
 40
1.167812540311883
 40
1.463561181730138
 40
1.759282799553957
 40
2.058487804326701
 40
2.357663878865728
 40
2.660503334662626
 40
2.963315618548235
 40
3.269530819653787
 40
3.575723462230764
 40
3.884662737575247
 40
4.193586021287361
 40
4.504289078951712
 40
4.814983875317617
 40
5.126294424223484
 40
5.437604973118331
 40
5.748299769451165
 40
6.059002827059921
 40
6.367926110694171
 40
6.676865385937327
 40
6.983058028390024
 40
7.289273229346064
 40
7.592085513057807
 40
7.894924968653044
 40
8.194101042962737
 40
8.493306047473059
 40
8.789027664996997
 40
9.084776306062315
 40
9.377654919956464
 40
9.670554625323163
 40
9.961565937614955
 40
10.25258885279237
 40
10.54295309049254
 40
10.83331732819187
 40
11.12434024336612
 40
11.41535155565247
 40
11.70825126101202
 40
12.00112987489695
 40
12.29687851595139
 40
12.5926001334627
 40
12.89180513795849
 40
13.19098121225266
 40
13.49382066783068
 40
13.79663295152415
 40
14.10284815246062
 40
14.40904079489307
 40
14.71798007011503
 40
15.02690335372729
 40
15.33760641131343
 40
15.64830120762307
 40
15.95961175649412
 40
16.27092230537566
 40
16.58161710171698
 40
16.89232015935599
 40
17.20124344304266
 40
17.51018271836107
 40
17.81637536091164
 40
18.12259056198981
 40
18.42540284584699
 40
18.72824230161382
 40
19.02741837612005
 40
19.32662338085487
 40
19.62234499863119
 40
19.91809363998197
 40
20.21097225419833
 40
20.50387195993875
 40
20.79488327268876
 40
21.08590618851624
 40
21.37627042760425
 40
21.6666346564565
 40
21.6666346564565
 40
21.6666346564565
 40
21.6666346564565
 10
530.0412562302948
 20
315.0283975610589
 30
0.0
 10
530.1376312860099
 20
315.0167218936212
 30
0.0
 10
530.3303775590778
 20
314.9933710290352
 30
0.0
 10
530.6143140664072
 20
314.9240150372697
 30
0.0
 10
530.8915783330323
 20
314.8305722801543
 30
0.0
 10
531.1603307173255
 20
314.71066529442
 30
0.0
 10
531.4179761011595
 20
314.5666197894274
 30
0.0
 10
531.663203048664
 20
314.3985531887391
 30
0.0
 10
531.8934664049594
 20
314.2087184557981
 30
0.0
 10
532.1076986136987
 20
313.9975823272493
 30
0.0
 10
532.3036530426721
 20
313.7678027237209
 30
0.0
 10
532.4804103864957
 20
313.5200741915931
 30
0.0
 10
532.6361812206591
 20
313.2573419518474
 30
0.0
 10
532.7701496382203
 20
312.9805909402871
 30
0.0
 10
532.8810726696939
 20
312.6928589625991
 30
0.0
 10
532.9682494622514
 20
312.3955055162467
 30
0.0
 10
533.0309974725287
 20
312.0914595201694
 30
0.0
 10
533.0687978519239
 20
311.7825179244765
 30
0.0
 10
533.0814749255946
 20
311.471328319231
 30
0.0
 10
533.0687978522894
 20
311.1601387139764
 30
0.0
 10
533.0309974732586
 20
310.851197118289
 30
0.0
 10
532.9682494633555
 20
310.5471511221307
 30
0.0
 10
532.881072671148
 20
310.2497976759801
 30
0.0
 10
532.7701496401294
 20
309.9620656974047
 30
0.0
 10
532.6361812226526
 20
309.685314688949
 30
0.0
 10
532.480410389976
 20
309.4225824374574
 30
0.0
 10
532.3036530424871
 20
309.1748539484284
 30
0.0
 10
532.1076986289788
 20
308.9450741847332
 30
0.0
 10
531.8934663651046
 20
308.7339386466473
 30
0.0
 10
531.663203215269
 20
308.544101723538
 30
0.0
 10
531.4179755078749
 20
308.3760432054572
 30
0.0
 10
531.1603329463977
 20
308.2319677036744
 30
0.0
 10
530.8915701287107
 20
308.1121716332009
 30
0.0
 10
530.6143446432233
 20
308.0183166363616
 30
0.0
 10
530.3302642899268
 20
307.9504897297697
 30
0.0
 10
530.0418968096205
 20
307.9097947681396
 30
0.0
 10
529.7512127761477
 20
307.8960289745643
 30
0.0
 10
529.460528742675
 20
307.9097947681146
 30
0.0
 10
529.1721612623683
 20
307.9504897297193
 30
0.0
 10
528.8880809090713
 20
308.0183166362864
 30
0.0
 10
528.6108554235831
 20
308.1121716331004
 30
0.0
 10
528.3420926058948
 20
308.2319677035493
 30
0.0
 10
528.0844500444164
 20
308.3760432053072
 30
0.0
 10
527.8392223370208
 20
308.5441017233634
 30
0.0
 10
527.6089591871835
 20
308.7339386464485
 30
0.0
 10
527.3947269233074
 20
308.94507418451
 30
0.0
 10
527.1987725097969
 20
309.1748539481812
 30
0.0
 10
527.022015162306
 20
309.422582437186
 30
0.0
 10
526.8662443296269
 20
309.6853146886538
 30
0.0
 10
526.7322759121474
 20
309.9620656970856
 30
0.0
 10
526.621352881126
 20
310.2497976756371
 30
0.0
 10
526.5341760889154
 20
310.5471511217641
 30
0.0
 10
526.4714280790085
 20
310.8511971178984
 30
0.0
 10
526.4336276999743
 20
311.1601387135622
 30
0.0
 10
526.4209506266648
 20
311.4713283187921
 30
0.0
 10
526.4336277003305
 20
311.7825179240174
 30
0.0
 10
526.4714280797223
 20
312.0914595196708
 30
0.0
 10
526.5341760899864
 20
312.395505515781
 30
0.0
 10
526.6213528825599
 20
312.6928589618963
 30
0.0
 10
526.732275913939
 20
312.9805909403499
 30
0.0
 10
526.8662443318079
 20
313.2573419489617
 30
0.0
 10
527.0220151647795
 20
313.520074199535
 30
0.0
 10
527.1987725129393
 20
313.7678026915686
 30
0.0
 10
527.3947269257521
 20
313.9975824436805
 30
0.0
 10
527.6089591940038
 20
314.2087180240015
 30
0.0
 10
527.8392223294636
 20
314.3985547899206
 30
0.0
 10
528.0844500917996
 20
314.566613887502
 30
0.0
 10
528.3420924513348
 20
314.7106872379129
 30
0.0
 10
528.6108560177491
 20
314.8304912624566
 30
0.0
 10
528.8880787226171
 20
314.9243166954033
 30
0.0
 10
529.1721693922741
 20
314.9922532597463
 30
0.0
 10
529.4604984540237
 20
315.0325398160571
 30
0.0
 10
529.7513255644855
 20
315.047826560451
 30
0.0
 10
529.9446126760528
 20
315.0348738923606
 30
0.0
 10
530.0412562302948
 20
315.0283975610589
 30
0.0
 11
530.0412562302948
 21
315.0283975610589
 31
0.0
 11
530.3294157265697
 21
314.9876735879724
 31
0.0
 11
530.6124979329522
 21
314.920204717907
 31
0.0
 11
530.889921975496
 21
314.8262571892682
 31
0.0
 11
531.1574837276135
 21
314.7071413154688
 31
0.0
 11
531.4156160963287
 21
314.5627981860116
 31
0.0
 11
531.6596287489399
 21
314.3957380155959
 31
0.0
 11
531.8905082544707
 21
314.2054269839952
 31
0.0
 11
532.1036835494219
 21
313.9955160096397
 31
0.0
 11
532.3002178734301
 21
313.7651120265132
 31
0.0
 11
532.4761914092298
 21
313.5186803038255
 31
0.0
 11
532.6323885497027
 21
313.2552980669876
 31
0.0
 11
532.7658842376668
 21
312.9797389342098
 31
0.0
 11
532.877034163224
 21
312.6914870133125
 31
0.0
 11
532.9640108172503
 21
312.3950605352721
 31
0.0
 11
533.0268158915718
 21
312.0907713427292
 31
0.0
 11
533.0645912532434
 21
311.7823815268086
 31
0.0
 11
533.077246449457
 21
311.4713283096577
 31
0.0
 11
533.0645912532434
 21
311.1602750925067
 31
0.0
 11
533.0268158915717
 21
310.8518852765861
 31
0.0
 11
532.9640108172503
 21
310.5475960840433
 31
0.0
 11
532.8770341632239
 21
310.2511696060029
 31
0.0
 11
532.7658842376668
 21
309.9629176851057
 31
0.0
 11
532.6323885497026
 21
309.6873585523279
 31
0.0
 11
532.4761914092298
 21
309.42397631549
 31
0.0
 11
532.3002178734301
 21
309.1775445928022
 31
0.0
 11
532.1036835494218
 21
308.9471406096757
 31
0.0
 11
531.8905082544707
 21
308.7372296353203
 31
0.0
 11
531.6596287489397
 21
308.5469186037195
 31
0.0
 11
531.4156160963286
 21
308.3798584333038
 31
0.0
 11
531.1574837276135
 21
308.2355153038466
 31
0.0
 11
530.889921975496
 21
308.1163994300471
 31
0.0
 11
530.6124979329522
 21
308.0224519014083
 31
0.0
 11
530.3294157265697
 21
307.954983031343
 31
0.0
 11
530.0412562302947
 21
307.9142590582566
 31
0.0
 11
529.7512127755444
 21
307.9006140953863
 31
0.0
 11
529.4611693207939
 21
307.9142590582566
 31
0.0
 11
529.173009824519
 21
307.954983031343
 31
0.0
 11
528.8899276181367
 21
308.0224519014083
 31
0.0
 11
528.6125035755928
 21
308.1163994300471
 31
0.0
 11
528.3449418234754
 21
308.2355153038466
 31
0.0
 11
528.0868094547601
 21
308.3798584333038
 31
0.0
 11
527.842796802149
 21
308.5469186037195
 31
0.0
 11
527.6119172966182
 21
308.7372296353203
 31
0.0
 11
527.398742001667
 21
308.9471406096758
 31
0.0
 11
527.2022076776587
 21
309.1775445928022
 31
0.0
 11
527.026234141859
 21
309.42397631549
 31
0.0
 11
526.8700370013863
 21
309.6873585523278
 31
0.0
 11
526.736541313422
 21
309.9629176851057
 31
0.0
 11
526.6253913878649
 21
310.2511696060029
 31
0.0
 11
526.5384147338385
 21
310.5475960840432
 31
0.0
 11
526.475609659517
 21
310.8518852765861
 31
0.0
 11
526.4378342978455
 21
311.1602750925067
 31
0.0
 11
526.4251791016318
 21
311.4713283096577
 31
0.0
 11
526.4378342978455
 21
311.7823815268087
 31
0.0
 11
526.4756096595171
 21
312.0907713427293
 31
0.0
 11
526.5384147338384
 21
312.3950605352721
 31
0.0
 11
526.6253913878647
 21
312.6914870133126
 31
0.0
 11
526.736541313422
 21
312.9797389342098
 31
0.0
 11
526.8700370013863
 21
313.2552980669876
 31
0.0
 11
527.026234141859
 21
313.5186803038255
 31
0.0
 11
527.2022076776587
 21
313.7651120265132
 31
0.0
 11
527.398742001667
 21
313.9955160096397
 31
0.0
 11
527.6119172966182
 21
314.2054269839952
 31
0.0
 11
527.842796802149
 21
314.395738015596
 31
0.0
 11
528.0868094547601
 21
314.5627981860116
 31
0.0
 11
528.3449418234753
 21
314.7071413154688
 31
0.0
 11
528.6125035755928
 21
314.8262571892682
 31
0.0
 11
528.8899276181364
 21
314.920204717907
 31
0.0
 11
529.1730098245191
 21
314.9876735879724
 31
0.0
 11
529.4611693207939
 21
315.0283975610589
 31
0.0
 11
529.7512127755443
 21
315.0420425239291
 31
0.0
 11
530.0412562302948
 21
315.0283975610589
 31
0.0
  0
SPLINE
  5
1D5
330
59
100
AcDbEntity
  8
1
  6
Continuous
 62
     7
100
AcDbSpline
210
0.0
220
0.0
230
1.0
 70
    11
 71
     3
 72
    79
 73
    75
 74
    73
 42
0.000000001
 43
0.0000000001
 44
0.00000001
 40
0.0
 40
0.0
 40
0.0
 40
0.0
 40
0.2910229063171468
 40
0.5820342199791344
 40
0.8749339259797368
 40
1.167812540311887
 40
1.463561181730142
 40
1.759282799553867
 40
2.058487804326611
 40
2.357663878865638
 40
2.660503334662536
 40
2.963315618548144
 40
3.269530819653697
 40
3.575723462230723
 40
3.884662737575206
 40
4.193586021287352
 40
4.504289078951657
 40
4.814983875317562
 40
5.126294424223425
 40
5.437604973118267
 40
5.748299769451101
 40
6.059002827059857
 40
6.367926110694107
 40
6.676865385937263
 40
6.983058028389911
 40
7.289273229346009
 40
7.592085513057684
 40
7.894924968652921
 40
8.194101042962696
 40
8.493306047472844
 40
8.789027664996874
 40
9.08477630606229
 40
9.377654919956337
 40
9.670554625323142
 40
9.961565937614823
 40
10.25258885279213
 40
10.54295309049253
 40
10.83331732819186
 40
11.1243402433661
 40
11.41535155565245
 40
11.7082512610119
 40
12.00112987489693
 40
12.29687851595127
 40
12.59260013346268
 40
12.89180513795856
 40
13.19098121225264
 40
13.49382066783066
 40
13.79663295152414
 40
14.10284815246066
 40
14.40904079489302
 40
14.71798007011497
 40
15.02690335372723
 40
15.33760641131335
 40
15.64830120762302
 40
15.95961175649406
 40
16.2709223053756
 40
16.58161710171692
 40
16.89232015935598
 40
17.20124344304261
 40
17.51018271836098
 40
17.8163753609115
 40
18.12259056198973
 40
18.42540284584685
 40
18.72824230161375
 40
19.0274183761199
 40
19.32662338085481
 40
19.62234499863114
 40
19.91809363998201
 40
20.21097225419827
 40
20.5038719599389
 40
20.7948832726887
 40
21.08590618851617
 40
21.37627042760429
 40
21.66663465645655
 40
21.66663465645655
 40
21.66663465645655
 40
21.66663465645655
 10
553.7098806267581
 20
315.0283975610589
 30
0.0
 10
553.6135055710432
 20
315.0167218936212
 30
0.0
 10
553.4207592979749
 20
314.9933710290352
 30
0.0
 10
553.1368227906459
 20
314.9240150372696
 30
0.0
 10
552.8595585240204
 20
314.8305722801546
 30
0.0
 10
552.5908061397279
 20
314.7106652944199
 30
0.0
 10
552.3331607558932
 20
314.5666197894275
 30
0.0
 10
552.0879338083893
 20
314.3985531887391
 30
0.0
 10
551.8576704520937
 20
314.208718455798
 30
0.0
 10
551.6434382433542
 20
313.9975823272495
 30
0.0
 10
551.4474838143811
 20
313.7678027237208
 30
0.0
 10
551.2707264705573
 20
313.5200741915932
 30
0.0
 10
551.1149556363943
 20
313.2573419518474
 30
0.0
 10
550.9809872188325
 20
312.9805909402872
 30
0.0
 10
550.8700641873588
 20
312.6928589625991
 30
0.0
 10
550.7828873948015
 20
312.3955055162469
 30
0.0
 10
550.7201393845246
 20
312.0914595201692
 30
0.0
 10
550.682339005129
 20
311.7825179244765
 30
0.0
 10
550.6696619314584
 20
311.4713283192311
 30
0.0
 10
550.6823390047638
 20
311.1601387139763
 30
0.0
 10
550.7201393837945
 20
310.8511971182891
 30
0.0
 10
550.7828873936975
 20
310.5471511221306
 30
0.0
 10
550.8700641859052
 20
310.24979767598
 30
0.0
 10
550.9809872169237
 20
309.9620656974048
 30
0.0
 10
551.1149556344004
 20
309.685314688949
 30
0.0
 10
551.2707264670772
 20
309.4225824374574
 30
0.0
 10
551.4474838145658
 20
309.1748539484284
 30
0.0
 10
551.6434382280742
 20
308.9450741847332
 30
0.0
 10
551.8576704919485
 20
308.7339386466475
 30
0.0
 10
552.0879336417838
 20
308.5441017235378
 30
0.0
 10
552.3331613491781
 20
308.3760432054571
 30
0.0
 10
552.5908039106553
 20
308.2319677036745
 30
0.0
 10
552.8595667283425
 20
308.1121716332009
 30
0.0
 10
553.1367922138297
 20
308.0183166363616
 30
0.0
 10
553.420872567126
 20
307.9504897297697
 30
0.0
 10
553.7092400474324
 20
307.9097947681396
 30
0.0
 10
553.9999240809052
 20
307.8960289745643
 30
0.0
 10
554.2906081143782
 20
307.9097947681146
 30
0.0
 10
554.5789755946848
 20
307.9504897297193
 30
0.0
 10
554.8630559479819
 20
308.0183166362863
 30
0.0
 10
555.1402814334698
 20
308.1121716331005
 30
0.0
 10
555.4090442511583
 20
308.2319677035492
 30
0.0
 10
555.6666868126366
 20
308.3760432053073
 30
0.0
 10
555.9119145200325
 20
308.5441017233634
 30
0.0
 10
556.1421776698697
 20
308.7339386464484
 30
0.0
 10
556.3564099337458
 20
308.9450741845102
 30
0.0
 10
556.5523643472562
 20
309.1748539481811
 30
0.0
 10
556.7291216947469
 20
309.4225824371861
 30
0.0
 10
556.8848925274264
 20
309.6853146886537
 30
0.0
 10
557.0188609449056
 20
309.9620656970857
 30
0.0
 10
557.129783975927
 20
310.2497976756371
 30
0.0
 10
557.2169607681378
 20
310.5471511217639
 30
0.0
 10
557.279708778044
 20
310.8511971178985
 30
0.0
 10
557.317509157079
 20
311.1601387135622
 30
0.0
 10
557.3301862303881
 20
311.471328318792
 30
0.0
 10
557.3175091567224
 20
311.7825179240174
 30
0.0
 10
557.279708777331
 20
312.0914595196707
 30
0.0
 10
557.2169607670664
 20
312.3955055157811
 30
0.0
 10
557.1297839744931
 20
312.6928589618962
 30
0.0
 10
557.018860943114
 20
312.9805909403499
 30
0.0
 10
556.8848925252454
 20
313.2573419489617
 30
0.0
 10
556.7291216922736
 20
313.520074199535
 30
0.0
 10
556.5523643441139
 20
313.7678026915686
 30
0.0
 10
556.3564099313007
 20
313.9975824436805
 30
0.0
 10
556.1421776630498
 20
314.2087180240015
 30
0.0
 10
555.9119145275894
 20
314.3985547899206
 30
0.0
 10
555.6666867652535
 20
314.5666138875021
 30
0.0
 10
555.4090444057185
 20
314.7106872379128
 30
0.0
 10
555.1402808393036
 20
314.8304912624566
 30
0.0
 10
554.8630581344362
 20
314.9243166954032
 30
0.0
 10
554.5789674647788
 20
314.9922532597464
 30
0.0
 10
554.2906384030296
 20
315.0325398160572
 30
0.0
 10
553.9998112925675
 20
315.047826560451
 30
0.0
 10
553.8065241810003
 20
315.0348738923605
 30
0.0
 10
553.7098806267581
 20
315.0283975610589
 30
0.0
 11
553.7098806267581
 21
315.0283975610589
 31
0.0
 11
553.4217211304833
 21
314.9876735879724
 31
0.0
 11
553.1386389241007
 21
314.920204717907
 31
0.0
 11
552.8612148815569
 21
314.8262571892682
 31
0.0
 11
552.5936531294395
 21
314.7071413154688
 31
0.0
 11
552.3355207607243
 21
314.5627981860116
 31
0.0
 11
552.0915081081132
 21
314.3957380155959
 31
0.0
 11
551.8606286025824
 21
314.2054269839952
 31
0.0
 11
551.6474533076312
 21
313.9955160096397
 31
0.0
 11
551.450918983623
 21
313.7651120265132
 31
0.0
 11
551.2749454478233
 21
313.5186803038255
 31
0.0
 11
551.1187483073504
 21
313.2552980669876
 31
0.0
 11
550.9852526193862
 21
312.9797389342098
 31
0.0
 11
550.874102693829
 21
312.6914870133125
 31
0.0
 11
550.7871260398026
 21
312.3950605352721
 31
0.0
 11
550.7243209654813
 21
312.0907713427292
 31
0.0
 11
550.6865456038097
 21
311.7823815268086
 31
0.0
 11
550.6738904075962
 21
311.4713283096577
 31
0.0
 11
550.6865456038097
 21
311.1602750925067
 31
0.0
 11
550.7243209654814
 21
310.8518852765861
 31
0.0
 11
550.7871260398028
 21
310.5475960840433
 31
0.0
 11
550.8741026938292
 21
310.2511696060029
 31
0.0
 11
550.9852526193863
 21
309.9629176851057
 31
0.0
 11
551.1187483073504
 21
309.6873585523279
 31
0.0
 11
551.2749454478233
 21
309.42397631549
 31
0.0
 11
551.4509189836228
 21
309.1775445928022
 31
0.0
 11
551.6474533076312
 21
308.9471406096757
 31
0.0
 11
551.8606286025824
 21
308.7372296353203
 31
0.0
 11
552.0915081081132
 21
308.5469186037195
 31
0.0
 11
552.3355207607244
 21
308.3798584333038
 31
0.0
 11
552.5936531294396
 21
308.2355153038466
 31
0.0
 11
552.861214881557
 21
308.1163994300471
 31
0.0
 11
553.1386389241009
 21
308.0224519014083
 31
0.0
 11
553.4217211304833
 21
307.954983031343
 31
0.0
 11
553.7098806267581
 21
307.9142590582566
 31
0.0
 11
553.9999240815087
 21
307.9006140953863
 31
0.0
 11
554.2899675362592
 21
307.9142590582566
 31
0.0
 11
554.5781270325341
 21
307.954983031343
 31
0.0
 11
554.8612092389164
 21
308.0224519014083
 31
0.0
 11
555.1386332814602
 21
308.1163994300471
 31
0.0
 11
555.4061950335777
 21
308.2355153038466
 31
0.0
 11
555.6643274022929
 21
308.3798584333038
 31
0.0
 11
555.9083400549041
 21
308.5469186037195
 31
0.0
 11
556.139219560435
 21
308.7372296353203
 31
0.0
 11
556.3523948553861
 21
308.9471406096758
 31
0.0
 11
556.5489291793943
 21
309.1775445928022
 31
0.0
 11
556.724902715194
 21
309.42397631549
 31
0.0
 11
556.8810998556669
 21
309.6873585523278
 31
0.0
 11
557.014595543631
 21
309.9629176851057
 31
0.0
 11
557.1257454691881
 21
310.2511696060029
 31
0.0
 11
557.2127221232145
 21
310.5475960840432
 31
0.0
 11
557.2755271975359
 21
310.8518852765861
 31
0.0
 11
557.3133025592076
 21
311.1602750925067
 31
0.0
 11
557.3259577554212
 21
311.4713283096577
 31
0.0
 11
557.3133025592076
 21
311.7823815268087
 31
0.0
 11
557.275527197536
 21
312.0907713427293
 31
0.0
 11
557.2127221232145
 21
312.3950605352721
 31
0.0
 11
557.1257454691882
 21
312.6914870133126
 31
0.0
 11
557.0145955436311
 21
312.9797389342098
 31
0.0
 11
556.8810998556669
 21
313.2552980669876
 31
0.0
 11
556.724902715194
 21
313.5186803038255
 31
0.0
 11
556.5489291793945
 21
313.7651120265132
 31
0.0
 11
556.3523948553861
 21
313.9955160096397
 31
0.0
 11
556.139219560435
 21
314.2054269839952
 31
0.0
 11
555.9083400549041
 21
314.395738015596
 31
0.0
 11
555.664327402293
 21
314.5627981860116
 31
0.0
 11
555.4061950335777
 21
314.7071413154688
 31
0.0
 11
555.1386332814603
 21
314.8262571892682
 31
0.0
 11
554.8612092389164
 21
314.920204717907
 31
0.0
 11
554.578127032534
 21
314.9876735879724
 31
0.0
 11
554.2899675362592
 21
315.0283975610589
 31
0.0
 11
553.9999240815087
 21
315.0420425239291
 31
0.0
 11
553.7098806267581
 21
315.0283975610589
 31
0.0
  0
SPLINE
  5
1D6
330
59
100
AcDbEntity
  8
1
  6
Continuous
 62
     7
100
AcDbSpline
210
0.0
220
0.0
230
1.0
 70
    11
 71
     3
 72
    79
 73
    75
 74
    73
 42
0.000000001
 43
0.0000000001
 44
0.00000001
 40
0.0
 40
0.0
 40
0.0
 40
0.0
 40
0.3261285556949751
 40
0.6517434271655381
 40
1.007597957160259
 40
1.362821874057839
 40
1.759927762702842
 40
2.156564331822683
 40
2.599261971676177
 40
3.041659938558004
 40
3.528366323927169
 40
4.014888769904471
 40
4.53967983409866
 40
5.064360625072649
 40
5.618299486721058
 40
6.172176028709571
 40
6.744347784597203
 40
7.316491363302513
 40
7.894854137559967
 40
8.4732169118205
 40
9.04536049053425
 40
9.617532246434521
 40
10.17140878843793
 40
10.72534765010108
 40
11.25002844108502
 40
11.7748195052802
 40
12.26134195124364
 40
12.74804833657459
 40
13.1904463033889
 40
13.63314394312484
 40
14.02978051207483
 40
14.42688640045129
 40
14.78211031696379
 40
15.13796484627063
 40
15.46357971561334
 40
15.78970827779601
 40
16.10463414468601
 40
16.41956001157497
 40
16.74568857375466
 40
17.07130344309263
 40
17.42715797239337
 40
17.78238188889905
 40
18.17948777726798
 40
18.57612434621072
 40
19.01882198593892
 40
19.46121995274597
 40
19.94792633806981
 40
20.43444878402679
 40
20.95923984821576
 40
21.48392063919459
 40
22.03785950085292
 40
22.59173604285267
 40
23.16390779875017
 40
23.73605137746234
 40
24.31441415172294
 40
24.89277692598203
 40
25.46492050469123
 40
26.03709226058465
 40
26.59096880258133
 40
27.14490766424055
 40
27.66958845522737
 40
28.19437951943646
 40
28.68090196542955
 40
29.16760835081529
 40
29.61000631771188
 40
30.05270395757589
 40
30.44934052669646
 40
30.84644641531902
 40
31.20167033214155
 40
31.55752486187561
 40
31.88313973177076
 40
32.20926829476182
 40
32.52419416384882
 40
32.83912002468848
 40
32.83912002468848
 40
32.83912002468848
 40
32.83912002468848
 10
548.5013476689203
 20
311.1575015467444
 30
0.0
 10
548.4787904730856
 20
311.0509085206685
 30
0.0
 10
548.4337116210725
 20
310.8378903605827
 30
0.0
 10
548.2991842562253
 20
310.5280618493897
 30
0.0
 10
548.122440348933
 20
310.2302679176681
 30
0.0
 10
547.8935592171423
 20
309.9391122155308
 30
0.0
 10
547.6243412661486
 20
309.6657104817452
 30
0.0
 10
547.307071274468
 20
309.401741888705
 30
0.0
 10
546.9550186551926
 20
309.1587272241038
 30
0.0
 10
546.5591453220443
 20
308.9290652346836
 30
0.0
 10
546.1344366689721
 20
308.7225071360588
 30
0.0
 10
545.6719192842338
 20
308.5334980097241
 30
0.0
 10
545.1866785625456
 20
308.3691785781869
 30
0.0
 10
544.6714370350564
 20
308.2261582562893
 30
0.0
 10
544.139771590733
 20
308.1090018234945
 30
0.0
 10
543.5873224786529
 20
308.0160247996472
 30
0.0
 10
543.024931492247
 20
307.9497034846707
 30
0.0
 10
542.4519147556689
 20
307.9093558689807
 30
0.0
 10
541.8755684385216
 20
307.896065081949
 30
0.0
 10
541.2992221213515
 20
307.9093558690967
 30
0.0
 10
540.7262053848398
 20
307.9497034849108
 30
0.0
 10
540.1638143981938
 20
308.0160247999493
 30
0.0
 10
539.6113652869835
 20
308.1090018240304
 30
0.0
 10
539.0796998394956
 20
308.2261582563566
 30
0.0
 10
538.5644583232278
 20
308.3691785801848
 30
0.0
 10
538.079217561156
 20
308.5334980049175
 30
0.0
 10
537.6167003166901
 20
308.7225071548663
 30
0.0
 10
537.1919911640932
 20
308.9290651691903
 30
0.0
 10
536.7961195343325
 20
309.1587274456544
 30
0.0
 10
536.4440609011442
 20
309.401741096133
 30
0.0
 10
536.1268111482725
 20
309.6657131010537
 30
0.0
 10
535.8575219791626
 20
309.9391028274034
 30
0.0
 10
535.6288802653404
 20
310.2302988937236
 30
0.0
 10
535.4512877293944
 20
310.5279497493775
 30
0.0
 10
535.3196750603803
 20
310.8382696657371
 30
0.0
 10
535.2422502347066
 20
311.1524383464193
 30
0.0
 10
535.214290343275
 20
311.4713283093404
 30
0.0
 10
535.2422502346984
 20
311.7902182722615
 30
0.0
 10
535.3196750603647
 20
312.1043869529425
 30
0.0
 10
535.451287729371
 20
312.4147068693006
 30
0.0
 10
535.6288802653102
 20
312.7123577249516
 30
0.0
 10
535.8575219791257
 20
313.0035537912686
 30
0.0
 10
536.1268111482299
 20
313.276943517614
 30
0.0
 10
536.4440609010966
 20
313.5409155225292
 30
0.0
 10
536.7961195342798
 20
313.7839291730018
 30
0.0
 10
537.1919911640366
 20
314.0135914494581
 30
0.0
 10
537.6167003166299
 20
314.2201494637736
 30
0.0
 10
538.0792175610932
 20
314.4091586137118
 30
0.0
 10
538.5644583231626
 20
314.5734780384325
 30
0.0
 10
539.079699839429
 20
314.7164983622461
 30
0.0
 10
539.6113652869161
 20
314.8336547945556
 30
0.0
 10
540.163814398126
 20
314.9266318186166
 30
0.0
 10
540.7262053847719
 20
314.9929531336316
 30
0.0
 10
541.2992221212851
 20
315.0333007494188
 30
0.0
 10
541.8755684384516
 20
315.0465915365341
 30
0.0
 10
542.4519147556166
 20
315.0333007494695
 30
0.0
 10
543.0249314921354
 20
314.9929531337269
 30
0.0
 10
543.5873224787649
 20
314.9266318187478
 30
0.0
 10
544.1397715900368
 20
314.8336547946926
 30
0.0
 10
544.6714370373014
 20
314.7164983624134
 30
0.0
 10
545.18667855436
 20
314.5734780384303
 30
0.0
 10
545.6719193135796
 20
314.409158614118
 30
0.0
 10
546.1344365679345
 20
314.2201494623991
 30
0.0
 10
546.559145685286
 20
314.0135914538646
 30
0.0
 10
546.9550174351807
 20
313.7839291569376
 30
0.0
 10
547.3070756441439
 20
313.540915577711
 30
0.0
 10
547.6243268245406
 20
313.2769433317729
 30
0.0
 10
547.8936109701419
 20
313.0035544519478
 30
0.0
 10
548.1222695714725
 20
312.712355537958
 30
0.0
 10
548.29980224834
 20
312.4147147736657
 30
0.0
 10
548.431620508466
 20
312.1043601948081
 30
0.0
 10
548.5083002169313
 20
311.7903171361288
 30
0.0
 10
548.5389519071741
 20
311.4709733490232
 30
0.0
 10
548.5138824113353
 20
311.2619921469265
 30
0.0
 10
548.5013476689203
 20
311.1575015467444
 30
0.0
 11
548.5013476689203
 21
311.1575015467444
 31
0.0
 11
548.4231752169089
 21
310.8408804689646
 31
0.0
 11
548.2974689212228
 21
310.5405090814642
 31
0.0
 11
548.1159130519771
 21
310.2344536740006
 31
0.0
 11
547.8975506561944
 21
309.9542717776829
 31
0.0
 11
547.6198036421605
 21
309.6704590175216
 31
0.0
 11
547.3155035949133
 21
309.4160537323712
 31
0.0
 11
546.9518564063219
 21
309.1635821052691
 31
0.0
 11
546.5695229045255
 21
308.9410128925092
 31
0.0
 11
546.1322546678454
 21
308.7272850404873
 31
0.0
 11
545.6820588230883
 21
308.5428188056397
 31
0.0
 11
545.1852193218856
 21
308.3738330929089
 31
0.0
 11
544.6797323360968
 21
308.2332171634262
 31
0.0
 11
544.1388746563046
 21
308.113545810693
 31
0.0
 11
543.5927041282778
 21
308.0214753046147
 31
0.0
 11
543.0245042021506
 21
307.9541747682768
 31
0.0
 11
542.4537743954188
 21
307.9139782216022
 31
0.0
 11
541.8755684285265
 21
307.9005112807424
 31
0.0
 11
541.2973624616342
 21
307.9139782216021
 31
0.0
 11
540.7266326549022
 21
307.9541747682767
 31
0.0
 11
540.1584327287751
 21
308.0214753046146
 31
0.0
 11
539.6122622007483
 21
308.113545810693
 31
0.0
 11
539.071404520956
 21
308.2332171634262
 31
0.0
 11
538.5659175351673
 21
308.3738330929089
 31
0.0
 11
538.0690780339646
 21
308.5428188056397
 31
0.0
 11
537.6188821892075
 21
308.7272850404873
 31
0.0
 11
537.1816139525274
 21
308.9410128925092
 31
0.0
 11
536.7992804507309
 21
309.1635821052692
 31
0.0
 11
536.4356332621394
 21
309.4160537323712
 31
0.0
 11
536.1313332148923
 21
309.6704590175215
 31
0.0
 11
535.8535862008584
 21
309.9542717776828
 31
0.0
 11
535.6352238050757
 21
310.2344536740005
 31
0.0
 11
535.45366793583
 21
310.5405090814642
 31
0.0
 11
535.3279616401437
 21
310.8408804689646
 31
0.0
 11
535.2497891881326
 21
311.1575015467444
 31
0.0
 11
535.2235010807015
 21
311.4713283096577
 31
0.0
 11
535.2497891881326
 21
311.7851550725709
 31
0.0
 11
535.3279616401439
 21
312.1017761503508
 31
0.0
 11
535.45366793583
 21
312.4021475378511
 31
0.0
 11
535.6352238050757
 21
312.7082029453148
 31
0.0
 11
535.8535862008583
 21
312.9883848416324
 31
0.0
 11
536.1313332148923
 21
313.2721976017937
 31
0.0
 11
536.4356332621395
 21
313.526602886944
 31
0.0
 11
536.799280450731
 21
313.7790745140462
 31
0.0
 11
537.1816139525275
 21
314.001643726806
 31
0.0
 11
537.6188821892076
 21
314.215371578828
 31
0.0
 11
538.0690780339646
 21
314.3998378136756
 31
0.0
 11
538.5659175351673
 21
314.5688235264064
 31
0.0
 11
539.0714045209561
 21
314.7094394558892
 31
0.0
 11
539.6122622007483
 21
314.8291108086224
 31
0.0
 11
540.1584327287751
 21
314.9211813147007
 31
0.0
 11
540.7266326549022
 21
314.9884818510387
 31
0.0
 11
541.2973624616341
 21
315.0286783977133
 31
0.0
 11
541.8755684285264
 21
315.042145338573
 31
0.0
 11
542.4537743954187
 21
315.0286783977132
 31
0.0
 11
543.0245042021506
 21
314.9884818510386
 31
0.0
 11
543.5927041282778
 21
314.9211813147007
 31
0.0
 11
544.1388746563046
 21
314.8291108086224
 31
0.0
 11
544.6797323360969
 21
314.7094394558893
 31
0.0
 11
545.1852193218857
 21
314.5688235264066
 31
0.0
 11
545.6820588230883
 21
314.3998378136756
 31
0.0
 11
546.1322546678452
 21
314.215371578828
 31
0.0
 11
546.5695229045252
 21
314.001643726806
 31
0.0
 11
546.9518564063219
 21
313.7790745140462
 31
0.0
 11
547.3155035949133
 21
313.526602886944
 31
0.0
 11
547.6198036421606
 21
313.2721976017938
 31
0.0
 11
547.8975506561944
 21
312.9883848416324
 31
0.0
 11
548.1159130519771
 21
312.7082029453148
 31
0.0
 11
548.2974689212228
 21
312.4021475378512
 31
0.0
 11
548.4231752169089
 21
312.1017761503507
 31
0.0
 11
548.5013476689203
 21
311.7851550725709
 31
0.0
 11
548.5276357763514
 21
311.4713283096577
 31
0.0
 11
548.5013476689203
 21
311.1575015467444
 31
0.0
  0
SPLINE
  5
1D7
330
59
100
AcDbEntity
  8
1
  6
Continuous
 62
     7
100
AcDbSpline
210
0.0
220
0.0
230
1.0
 70
    11
 71
     3
 72
    79
 73
    75
 74
    73
 42
0.000000001
 43
0.0000000001
 44
0.00000001
 40
0.0
 40
0.0
 40
0.0
 40
0.0
 40
0.3210813056648577
 40
0.6418951396082005
 40
0.9828988891665489
 40
1.323531051596555
 40
1.692967055112428
 40
2.062075178394389
 40
2.463733854380071
 40
2.865152862487688
 40
3.298564779288498
 40
3.731815223729003
 40
4.193131260568783
 40
4.65434416761707
 40
5.137240966498962
 40
5.620077099452283
 40
6.116559525296486
 40
6.613013903592172
 40
7.114121230352297
 40
7.615228557112271
 40
8.111682935406947
 40
8.608165361248034
 40
9.091001494194742
 40
9.573898293063701
 40
10.03511120009046
 40
10.49642723689457
 40
10.92967768128245
 40
11.36308959800322
 40
11.76450860600182
 40
12.16616728182978
 40
12.5352754049046
 40
12.90471140812303
 40
13.2453435701403
 40
13.5863473189945
 40
13.90716115088657
 40
14.22824246386904
 40
14.54200444896848
 40
14.85576643406665
 40
15.17684774704583
 40
15.49766157893253
 40
15.83866532777946
 40
16.17929748978879
 40
16.54873349299783
 40
16.91784161606304
 40
17.31950029188048
 40
17.72091929986907
 40
18.15433121657957
 40
18.58758166095773
 40
19.04889769775221
 40
19.51011060477008
 40
19.99300740363051
 40
20.47584353656953
 40
20.97232596240349
 40
21.46878034069178
 40
21.9698876674463
 40
22.47099499420201
 40
22.96744937249435
 40
23.46393179833618
 40
23.94676793128822
 40
24.4296647301698
 40
24.89087763721869
 40
25.35219367405969
 40
25.78544411850133
 40
26.21885603530209
 40
26.62027504340738
 40
27.02193371938504
 40
27.39104184264875
 40
27.76047784612184
 40
28.10111000845242
 40
28.4421137577194
 40
28.76292759014607
 40
29.08400890392571
 40
29.39777089116757
 40
29.71153286919177
 40
29.71153286919177
 40
29.71153286919177
 40
29.71153286919177
 10
195.5975817923315
 20
311.158373458092
 30
0.0
 10
195.5783019415822
 20
311.0529123750281
 30
0.0
 10
195.5397583095147
 20
310.8420780598573
 30
0.0
 10
195.4247049973629
 20
310.5337384367978
 30
0.0
 10
195.2723165315157
 20
310.235650342242
 30
0.0
 10
195.0752398870594
 20
309.9449782579238
 30
0.0
 10
194.8420533772321
 20
309.6702126794967
 30
0.0
 10
194.5678849106844
 20
309.4061837342589
 30
0.0
 10
194.2623417106006
 20
309.1617997581833
 30
0.0
 10
193.919724119708
 20
308.9319281837875
 30
0.0
 10
193.5510279029417
 20
308.7243609315529
 30
0.0
 10
193.1504731608046
 20
308.5351439719048
 30
0.0
 10
192.7293686636556
 20
308.3701793567019
 30
0.0
 10
192.283010357696
 20
308.2269953350395
 30
0.0
 10
191.8218144998637
 20
308.1094681080842
 30
0.0
 10
191.3431194035079
 20
308.0163843015749
 30
0.0
 10
190.855452094511
 20
307.9498815030113
 30
0.0
 10
190.3588342887601
 20
307.9094959405546
 30
0.0
 10
189.8592134731887
 20
307.8961524603521
 30
0.0
 10
189.3595926576016
 20
307.9094959405516
 30
0.0
 10
188.8629748518992
 20
307.9498815030087
 30
0.0
 10
188.3753075427314
 20
308.0163843015323
 30
0.0
 10
187.896612447005
 20
308.1094681081033
 30
0.0
 10
187.4354165868837
 20
308.226995334681
 30
0.0
 10
186.9890582891114
 20
308.3701793574524
 30
0.0
 10
186.5679537623227
 20
308.5351439682862
 30
0.0
 10
186.1673991244002
 20
308.7243609428144
 30
0.0
 10
185.7987025332179
 20
308.9319281409375
 30
0.0
 10
185.456086241746
 20
309.1617999023093
 30
0.0
 10
185.1505383981122
 20
309.406183209155
 30
0.0
 10
184.8763859324386
 20
309.6702144591544
 30
0.0
 10
184.6431422674599
 20
309.9449718032938
 30
0.0
 10
184.4462632339934
 20
310.2356723551172
 30
0.0
 10
184.2931636917781
 20
310.5336580097971
 30
0.0
 10
184.1806162212663
 20
310.8423586291757
 30
0.0
 10
184.1140647109018
 20
311.1549292662762
 30
0.0
 10
184.0905894542097
 20
311.471328309276
 30
0.0
 10
184.1140647108909
 20
311.7877273522756
 30
0.0
 10
184.1806162212448
 20
312.1002979893749
 30
0.0
 10
184.2931636917458
 20
312.408998608752
 30
0.0
 10
184.4462632339512
 20
312.7069842634293
 30
0.0
 10
184.6431422674079
 20
312.9976848152493
 30
0.0
 10
184.8763859323777
 20
313.2724421593849
 30
0.0
 10
185.1505383980426
 20
313.5364734093792
 30
0.0
 10
185.4560862416685
 20
313.7808567162186
 30
0.0
 10
185.7987025331329
 20
314.0107284775834
 30
0.0
 10
186.167399124308
 20
314.2182956756985
 30
0.0
 10
186.5679537622244
 20
314.4075126502172
 30
0.0
 10
186.9890582890071
 20
314.5724772610403
 30
0.0
 10
187.435416586774
 20
314.7156612837991
 30
0.0
 10
187.8966124468903
 20
314.8331885103627
 30
0.0
 10
188.375307542612
 20
314.9262723169175
 30
0.0
 10
188.8629748517751
 20
314.9927751154224
 30
0.0
 10
189.3595926574736
 20
315.0331606778589
 30
0.0
 10
189.8592134730529
 20
315.0465041580334
 30
0.0
 10
190.3588342886309
 20
315.0331606778066
 30
0.0
 10
190.8554520943327
 20
314.9927751153125
 30
0.0
 10
191.3431194034832
 20
314.9262723167428
 30
0.0
 10
191.8218144992481
 20
314.8331885101006
 30
0.0
 10
192.2830103591992
 20
314.7156612834603
 30
0.0
 10
192.7293686575424
 20
314.5724772604939
 30
0.0
 10
193.1504731822132
 20
314.4075126498212
 30
0.0
 10
193.5510278275115
 20
314.2182956740504
 30
0.0
 10
193.919724392096
 20
314.0107284795398
 30
0.0
 10
194.262340775742
 20
313.7808567046226
 30
0.0
 10
194.5678882897993
 20
313.5364734449428
 30
0.0
 10
194.8420418908891
 20
313.2724420309997
 30
0.0
 10
195.0752814998133
 20
312.9976852707527
 30
0.0
 10
195.2721745564284
 20
312.7069826982238
 30
0.0
 10
195.4252236376036
 20
312.4090043124506
 30
0.0
 10
195.5379489326874
 20
312.1002780746354
 30
0.0
 10
195.6038498778219
 20
311.7878011576374
 30
0.0
 10
195.6297013876502
 20
311.4710597890595
 30
0.0
 10
195.6082883209347
 20
311.2626022343176
 30
0.0
 10
195.5975817923315
 20
311.158373458092
 30
0.0
 11
195.5975817923315
 21
311.158373458092
 31
0.0
 11
195.5305862506287
 21
310.8443594344789
 31
0.0
 11
195.4216314184843
 21
310.542613913609
 31
0.0
 11
195.2662065519069
 21
310.2390901622133
 31
0.0
 11
195.0759708278013
 21
309.9565293030305
 31
0.0
 11
194.837477531246
 21
309.6743876576847
 31
0.0
 11
194.572140402141
 21
309.4178004123044
 31
0.0
 11
194.2589790449193
 21
309.1662856885577
 31
0.0
 11
193.9259519257384
 21
308.9421648329644
 31
0.0
 11
193.5486235630201
 21
308.7289297601492
 31
0.0
 11
193.1570558938266
 21
308.5435094051983
 31
0.0
 11
192.7277225420875
 21
308.3747333437514
 31
0.0
 11
192.2886334535871
 21
308.2336017810811
 31
0.0
 11
191.8207875631862
 21
308.11397928653
 31
0.0
 11
191.3468555356874
 21
308.0216799658639
 31
0.0
 11
190.8549588289937
 21
307.9543566480907
 31
0.0
 11
190.3601392770115
 21
307.9141004596836
 31
0.0
 11
189.859213463232
 21
307.9006140953862
 31
0.0
 11
189.3582876494523
 21
307.9141004596836
 31
0.0
 11
188.8634680974698
 21
307.9543566480907
 31
0.0
 11
188.3715713907762
 21
308.0216799658639
 31
0.0
 11
187.8976393632774
 21
308.11397928653
 31
0.0
 11
187.4297934728766
 21
308.2336017810811
 31
0.0
 11
186.9907043843762
 21
308.3747333437514
 31
0.0
 11
186.561371032637
 21
308.5435094051983
 31
0.0
 11
186.1698033634435
 21
308.7289297601492
 31
0.0
 11
185.7924750007252
 21
308.9421648329644
 31
0.0
 11
185.4594478815443
 21
309.1662856885577
 31
0.0
 11
185.1462865243226
 21
309.4178004123045
 31
0.0
 11
184.8809493952177
 21
309.6743876576848
 31
0.0
 11
184.6424560986624
 21
309.9565293030305
 31
0.0
 11
184.4522203745567
 21
310.2390901622133
 31
0.0
 11
184.2967955079794
 21
310.542613913609
 31
0.0
 11
184.187840675835
 21
310.8443594344789
 31
0.0
 11
184.1208451341323
 21
311.158373458092
 31
0.0
 11
184.0983541523304
 21
311.4713283096577
 31
0.0
 11
184.1208451341323
 21
311.7842831612234
 31
0.0
 11
184.1878406758351
 21
312.0982971848366
 31
0.0
 11
184.2967955079795
 21
312.4000427057064
 31
0.0
 11
184.4522203745568
 21
312.703566457102
 31
0.0
 11
184.6424560986625
 21
312.986127316285
 31
0.0
 11
184.8809493952178
 21
313.2682689616308
 31
0.0
 11
185.1462865243227
 21
313.5248562070111
 31
0.0
 11
185.4594478815443
 21
313.7763709307578
 31
0.0
 11
185.7924750007252
 21
314.0004917863511
 31
0.0
 11
186.1698033634435
 21
314.2137268591662
 31
0.0
 11
186.561371032637
 21
314.3991472141171
 31
0.0
 11
186.9907043843761
 21
314.5679232755641
 31
0.0
 11
187.4297934728766
 21
314.7090548382344
 31
0.0
 11
187.8976393632774
 21
314.8286773327854
 31
0.0
 11
188.3715713907762
 21
314.9209766534516
 31
0.0
 11
188.8634680974699
 21
314.9882999712249
 31
0.0
 11
189.3582876494523
 21
315.028556159632
 31
0.0
 11
189.8592134632319
 21
315.0420425239292
 31
0.0
 11
190.3601392770116
 21
315.0285561596319
 31
0.0
 11
190.8549588289939
 21
314.9882999712248
 31
0.0
 11
191.3468555356875
 21
314.9209766534516
 31
0.0
 11
191.8207875631862
 21
314.8286773327854
 31
0.0
 11
192.2886334535871
 21
314.7090548382344
 31
0.0
 11
192.7277225420875
 21
314.5679232755642
 31
0.0
 11
193.1570558938267
 21
314.3991472141171
 31
0.0
 11
193.5486235630202
 21
314.2137268591662
 31
0.0
 11
193.9259519257384
 21
314.0004917863511
 31
0.0
 11
194.2589790449192
 21
313.7763709307577
 31
0.0
 11
194.572140402141
 21
313.524856207011
 31
0.0
 11
194.8374775312459
 21
313.2682689616307
 31
0.0
 11
195.0759708278012
 21
312.986127316285
 31
0.0
 11
195.2662065519068
 21
312.7035664571021
 31
0.0
 11
195.4216314184841
 21
312.4000427057064
 31
0.0
 11
195.5305862506285
 21
312.0982971848364
 31
0.0
 11
195.5975817923314
 21
311.7842831612234
 31
0.0
 11
195.6200727741334
 21
311.4713283096577
 31
0.0
 11
195.5975817923315
 21
311.158373458092
 31
0.0
  0
SPLINE
  5
1D8
330
59
100
AcDbEntity
  8
1
  6
Continuous
 62
     7
100
AcDbSpline
210
0.0
220
0.0
230
1.0
 70
    11
 71
     3
 72
    79
 73
    75
 74
    73
 42
0.000000001
 43
0.0000000001
 44
0.00000001
 40
0.0
 40
0.0
 40
0.0
 40
0.0
 40
0.3210813056648458
 40
0.6418951396081982
 40
0.9828988891665595
 40
1.323531051596582
 40
1.692967055112418
 40
2.062075178394378
 40
2.463733854380061
 40
2.865152862487654
 40
3.298564779288439
 40
3.73181522372897
 40
4.193131260568856
 40
4.654344167617143
 40
5.137240966499035
 40
5.620077099452328
 40
6.116559525296504
 40
6.613013903592218
 40
7.114121230352429
 40
7.615228557112374
 40
8.111682935406993
 40
8.608165361248052
 40
9.091001494194705
 40
9.573898293063719
 40
10.03511120009048
 40
10.49642723689461
 40
10.92967768128254
 40
11.36308959800324
 40
11.76450860600182
 40
12.16616728182976
 40
12.53527540490461
 40
12.90471140812299
 40
13.24534357014023
 40
13.58634731899445
 40
13.90716115088652
 40
14.228242463869
 40
14.54200444896845
 40
14.85576643406662
 40
15.1768477470458
 40
15.4976615789325
 40
15.83866532777945
 40
16.17929748978872
 40
16.54873349299778
 40
16.917841616063
 40
17.3195002918805
 40
17.72091929986908
 40
18.15433121657954
 40
18.58758166095772
 40
19.04889769775223
 40
19.51011060477007
 40
19.99300740363055
 40
20.47584353656946
 40
20.97232596240339
 40
21.46878034069163
 40
21.96988766744615
 40
22.47099499420182
 40
22.96744937249425
 40
23.46393179833611
 40
23.94676793128826
 40
24.42966473016979
 40
24.89087763721862
 40
25.35219367405968
 40
25.78544411850131
 40
26.21885603530213
 40
26.62027504340739
 40
27.021933719385
 40
27.39104184264871
 40
27.76047784612182
 40
28.10111000845242
 40
28.44211375771938
 40
28.76292759014606
 40
29.08400890392569
 40
29.39777089116755
 40
29.71153286919174
 40
29.71153286919174
 40
29.71153286919174
 40
29.71153286919174
 10
170.1208451341322
 20
311.158373458092
 30
0.0
 10
170.1401249848814
 20
311.0529123750281
 30
0.0
 10
170.178668616949
 20
310.8420780598573
 30
0.0
 10
170.2937219291007
 20
310.5337384367979
 30
0.0
 10
170.446110394948
 20
310.235650342242
 30
0.0
 10
170.6431870394042
 20
309.9449782579238
 30
0.0
 10
170.8763735492316
 20
309.6702126794968
 30
0.0
 10
171.1505420157793
 20
309.4061837342588
 30
0.0
 10
171.4560852158629
 20
309.1617997581834
 30
0.0
 10
171.7987028067557
 20
308.9319281837874
 30
0.0
 10
172.1673990235218
 20
308.7243609315529
 30
0.0
 10
172.567953765659
 20
308.5351439719049
 30
0.0
 10
172.989058262808
 20
308.3701793567019
 30
0.0
 10
173.4354165687677
 20
308.2269953350395
 30
0.0
 10
173.8966124266001
 20
308.1094681080841
 30
0.0
 10
174.3753075229558
 20
308.016384301575
 30
0.0
 10
174.8629748319526
 20
307.9498815030114
 30
0.0
 10
175.3595926377037
 20
307.9094959405546
 30
0.0
 10
175.8592134532751
 20
307.8961524603521
 30
0.0
 10
176.3588342688622
 20
307.9094959405514
 30
0.0
 10
176.8554520745645
 20
307.9498815030088
 30
0.0
 10
177.3431193837324
 20
308.0163843015323
 30
0.0
 10
177.8218144794586
 20
308.1094681081032
 30
0.0
 10
178.28301033958
 20
308.2269953346811
 30
0.0
 10
178.7293686373523
 20
308.3701793574523
 30
0.0
 10
179.150473164141
 20
308.5351439682862
 30
0.0
 10
179.5510278020636
 20
308.7243609428144
 30
0.0
 10
179.9197243932457
 20
308.9319281409377
 30
0.0
 10
180.2623406847176
 20
309.1617999023093
 30
0.0
 10
180.5678885283514
 20
309.4061832091549
 30
0.0
 10
180.8420409940251
 20
309.6702144591543
 30
0.0
 10
181.0752846590037
 20
309.9449718032938
 30
0.0
 10
181.2721636924702
 20
310.2356723551172
 30
0.0
 10
181.4252632346855
 20
310.5336580097969
 30
0.0
 10
181.5378107051972
 20
310.8423586291759
 30
0.0
 10
181.6043622155619
 20
311.1549292662761
 30
0.0
 10
181.627837472254
 20
311.4713283092761
 30
0.0
 10
181.6043622155728
 20
311.7877273522756
 30
0.0
 10
181.5378107052189
 20
312.1002979893749
 30
0.0
 10
181.4252632347179
 20
312.408998608752
 30
0.0
 10
181.2721636925125
 20
312.7069842634293
 30
0.0
 10
181.0752846590558
 20
312.9976848152495
 30
0.0
 10
180.8420409940861
 20
313.2724421593848
 30
0.0
 10
180.5678885284212
 20
313.5364734093793
 30
0.0
 10
180.2623406847951
 20
313.7808567162185
 30
0.0
 10
179.9197243933309
 20
314.0107284775834
 30
0.0
 10
179.5510278021556
 20
314.2182956756984
 30
0.0
 10
179.1504731642394
 20
314.4075126502172
 30
0.0
 10
178.7293686374566
 20
314.5724772610404
 30
0.0
 10
178.2830103396896
 20
314.7156612837991
 30
0.0
 10
177.8218144795734
 20
314.8331885103626
 30
0.0
 10
177.3431193838517
 20
314.9262723169175
 30
0.0
 10
176.8554520746888
 20
314.9927751154224
 30
0.0
 10
176.3588342689902
 20
315.0331606778589
 30
0.0
 10
175.8592134534109
 20
315.0465041580333
 30
0.0
 10
175.3595926378329
 20
315.0331606778066
 30
0.0
 10
174.862974832131
 20
314.9927751153126
 30
0.0
 10
174.3753075229805
 20
314.9262723167427
 30
0.0
 10
173.8966124272155
 20
314.8331885101007
 30
0.0
 10
173.4354165672645
 20
314.7156612834604
 30
0.0
 10
172.9890582689213
 20
314.5724772604939
 30
0.0
 10
172.5679537442505
 20
314.4075126498211
 30
0.0
 10
172.1673990989522
 20
314.2182956740504
 30
0.0
 10
171.7987025343676
 20
314.0107284795399
 30
0.0
 10
171.4560861507216
 20
313.7808567046225
 30
0.0
 10
171.1505386366644
 20
313.5364734449429
 30
0.0
 10
170.8763850355747
 20
313.2724420309997
 30
0.0
 10
170.6431454266505
 20
312.9976852707528
 30
0.0
 10
170.4462523700353
 20
312.7069826982238
 30
0.0
 10
170.2932032888602
 20
312.4090043124506
 30
0.0
 10
170.1804779937763
 20
312.1002780746356
 30
0.0
 10
170.1145770486418
 20
311.7878011576372
 30
0.0
 10
170.0887255388136
 20
311.4710597890594
 30
0.0
 10
170.110138605529
 20
311.2626022343177
 30
0.0
 10
170.1208451341322
 20
311.158373458092
 30
0.0
 11
170.1208451341322
 21
311.158373458092
 31
0.0
 11
170.1878406758349
 21
310.8443594344789
 31
0.0
 11
170.2967955079794
 21
310.542613913609
 31
0.0
 11
170.4522203745567
 21
310.2390901622133
 31
0.0
 11
170.6424560986624
 21
309.9565293030305
 31
0.0
 11
170.8809493952177
 21
309.6743876576847
 31
0.0
 11
171.1462865243226
 21
309.4178004123044
 31
0.0
 11
171.4594478815443
 21
309.1662856885577
 31
0.0
 11
171.7924750007252
 21
308.9421648329644
 31
0.0
 11
172.1698033634435
 21
308.7289297601492
 31
0.0
 11
172.561371032637
 21
308.5435094051983
 31
0.0
 11
172.9907043843762
 21
308.3747333437514
 31
0.0
 11
173.4297934728767
 21
308.2336017810811
 31
0.0
 11
173.8976393632776
 21
308.11397928653
 31
0.0
 11
174.3715713907763
 21
308.0216799658639
 31
0.0
 11
174.8634680974699
 21
307.9543566480907
 31
0.0
 11
175.3582876494522
 21
307.9141004596836
 31
0.0
 11
175.8592134632318
 21
307.9006140953862
 31
0.0
 11
176.3601392770115
 21
307.9141004596836
 31
0.0
 11
176.8549588289939
 21
307.9543566480907
 31
0.0
 11
177.3468555356875
 21
308.0216799658639
 31
0.0
 11
177.8207875631862
 21
308.11397928653
 31
0.0
 11
178.2886334535871
 21
308.2336017810811
 31
0.0
 11
178.7277225420875
 21
308.3747333437514
 31
0.0
 11
179.1570558938267
 21
308.5435094051983
 31
0.0
 11
179.5486235630202
 21
308.7289297601492
 31
0.0
 11
179.9259519257384
 21
308.9421648329644
 31
0.0
 11
180.2589790449193
 21
309.1662856885577
 31
0.0
 11
180.572140402141
 21
309.4178004123045
 31
0.0
 11
180.837477531246
 21
309.6743876576848
 31
0.0
 11
181.0759708278012
 21
309.9565293030305
 31
0.0
 11
181.2662065519068
 21
310.2390901622133
 31
0.0
 11
181.4216314184841
 21
310.542613913609
 31
0.0
 11
181.5305862506286
 21
310.8443594344789
 31
0.0
 11
181.5975817923314
 21
311.158373458092
 31
0.0
 11
181.6200727741333
 21
311.4713283096577
 31
0.0
 11
181.5975817923314
 21
311.7842831612234
 31
0.0
 11
181.5305862506286
 21
312.0982971848366
 31
0.0
 11
181.4216314184842
 21
312.4000427057064
 31
0.0
 11
181.2662065519069
 21
312.703566457102
 31
0.0
 11
181.0759708278013
 21
312.986127316285
 31
0.0
 11
180.837477531246
 21
313.2682689616308
 31
0.0
 11
180.572140402141
 21
313.5248562070111
 31
0.0
 11
180.2589790449193
 21
313.7763709307578
 31
0.0
 11
179.9259519257384
 21
314.0004917863511
 31
0.0
 11
179.5486235630202
 21
314.2137268591662
 31
0.0
 11
179.1570558938267
 21
314.3991472141171
 31
0.0
 11
178.7277225420875
 21
314.5679232755641
 31
0.0
 11
178.2886334535871
 21
314.7090548382344
 31
0.0
 11
177.8207875631862
 21
314.8286773327854
 31
0.0
 11
177.3468555356875
 21
314.9209766534516
 31
0.0
 11
176.8549588289939
 21
314.9882999712249
 31
0.0
 11
176.3601392770116
 21
315.028556159632
 31
0.0
 11
175.8592134632319
 21
315.0420425239292
 31
0.0
 11
175.3582876494523
 21
315.0285561596319
 31
0.0
 11
174.8634680974699
 21
314.9882999712248
 31
0.0
 11
174.3715713907762
 21
314.9209766534516
 31
0.0
 11
173.8976393632774
 21
314.8286773327854
 31
0.0
 11
173.4297934728766
 21
314.7090548382344
 31
0.0
 11
172.9907043843762
 21
314.5679232755642
 31
0.0
 11
172.561371032637
 21
314.3991472141171
 31
0.0
 11
172.1698033634435
 21
314.2137268591662
 31
0.0
 11
171.7924750007252
 21
314.0004917863511
 31
0.0
 11
171.4594478815444
 21
313.7763709307577
 31
0.0
 11
171.1462865243227
 21
313.524856207011
 31
0.0
 11
170.8809493952178
 21
313.2682689616307
 31
0.0
 11
170.6424560986625
 21
312.986127316285
 31
0.0
 11
170.4522203745568
 21
312.7035664571021
 31
0.0
 11
170.2967955079795
 21
312.4000427057064
 31
0.0
 11
170.1878406758352
 21
312.0982971848364
 31
0.0
 11
170.1208451341323
 21
311.7842831612234
 31
0.0
 11
170.0983541523304
 21
311.4713283096577
 31
0.0
 11
170.1208451341322
 21
311.158373458092
 31
0.0
  0
ARC
  5
1D9
330
59
100
AcDbEntity
  8
1
  6
Continuous
 62
     7
100
AcDbCircle
 10
194.4172345249625
 20
307.6137913450993
 30
0.0
 40
1.0
100
AcDbArc
 50
270.0
 51
285.337557669552
  0
ARC
  5
1DA
330
59
100
AcDbEntity
  8
1
  6
Continuous
 62
     7
100
AcDbCircle
 10
192.627162655663
 20
306.6137913450993
 30
0.0
 40
1.0
100
AcDbArc
 50
270.0
 51
330.0000000000019
  0
ARC
  5
1DB
330
59
100
AcDbEntity
  8
1
  6
Continuous
 62
     7
100
AcDbCircle
 10
194.3592134632319
 20
305.6137913450993
 30
0.0
 40
1.0
100
AcDbArc
 50
90.0
 51
149.9999999999987
  0
ARC
  5
1DC
330
59
100
AcDbEntity
  8
1
  6
Continuous
 62
     7
100
AcDbCircle
 10
171.3011924015012
 20
307.6137913450993
 30
0.0
 40
1.000000000000021
100
AcDbArc
 50
254.6624423304432
 51
270.0
  0
ARC
  5
1DD
330
59
100
AcDbEntity
  8
1
  6
Continuous
 62
     7
100
AcDbCircle
 10
173.0912642708006
 20
306.6137913450993
 30
0.0
 40
0.9999999999999589
100
AcDbArc
 50
210.0000000000013
 51
270.0
  0
ARC
  5
1DE
330
59
100
AcDbEntity
  8
1
  6
Continuous
 62
     7
100
AcDbCircle
 10
171.3592134632318
 20
305.6137913450993
 30
0.0
 40
0.9999999999999589
100
AcDbArc
 50
30.00000000000136
 51
90.0
  0
ARC
  5
1DF
330
59
100
AcDbEntity
  8
1
  6
Continuous
 62
     7
100
AcDbCircle
 10
553.433589490257
 20
307.6137913450993
 30
0.0
 40
1.0
100
AcDbArc
 50
270.0
 51
285.3375576695583
  0
ARC
  5
1E0
330
59
100
AcDbEntity
  8
1
  6
Continuous
 62
     7
100
AcDbCircle
 10
551.6435176209576
 20
306.6137913450993
 30
0.0
 40
1.0
100
AcDbArc
 50
270.0
 51
329.9999999999995
  0
ARC
  5
1E1
330
59
100
AcDbEntity
  8
1
  6
Continuous
 62
     7
100
AcDbCircle
 10
553.3755684285265
 20
305.6137913450993
 30
0.0
 40
1.0
100
AcDbArc
 50
90.0
 51
150.0000000000027
  0
ARC
  5
1E2
330
59
100
AcDbEntity
  8
1
  6
Continuous
 62
     7
100
AcDbCircle
 10
530.3175473667959
 20
307.6137913450993
 30
0.0
 40
1.000000000000029
100
AcDbArc
 50
254.6624423304416
 51
270.0
  0
ARC
  5
1E3
330
59
100
AcDbEntity
  8
1
  6
Continuous
 62
     7
100
AcDbCircle
 10
532.1076192360954
 20
306.6137913450993
 30
0.0
 40
1.000000000000082
100
AcDbArc
 50
209.9999999999972
 51
270.0
  0
ARC
  5
1E4
330
59
100
AcDbEntity
  8
1
  6
Continuous
 62
     7
100
AcDbCircle
 10
530.3755684285265
 20
305.6137913450993
 30
0.0
 40
0.9999999999998851
100
AcDbArc
 50
30.0000000000038
 51
90.0
  0
ENDBLK
  5
5B
330
59
100
AcDbEntity
  8
0
100
AcDbBlockEnd
  0
BLOCK
  5
5D
330
5C
100
AcDbEntity
  8
0
100
AcDbBlockBegin
  2
60-1-16-300
 70
     0
 10
403.7093344231127
 20
209.7476935151055
 30
0.0
  3
60-1-16-300
  1

  0
LINE
  5
1E5
330
5C
100
AcDbEntity
  8
1
  6
Continuous
 62
     7
100
AcDbLine
 10
234.4873620181296
 20
240.1137913450993
 30
0.0
 11
249.2601760301018
 21
240.1137913450993
 31
0.0
  0
LINE
  5
1E6
330
5C
100
AcDbEntity
  8
1
  6
Continuous
 62
     7
100
AcDbLine
 10
249.8737690241158
 20
245.1137913450993
 30
0.0
 11
233.8737690241158
 21
245.1137913450993
 31
0.0
  0
LINE
  5
1E7
330
5C
100
AcDbEntity
  8
1
  6
Continuous
 62
     7
100
AcDbLine
 10
516.8755684285247
 20
281.1137913450993
 30
0.0
 11
266.8737690241158
 21
281.1137913450993
 31
0.0
  0
LINE
  5
1E8
330
5C
100
AcDbEntity
  8
1
  6
Continuous
 62
     7
100
AcDbLine
 10
533.8755684285263
 20
298.1137913450993
 30
0.0
 11
533.8755684285263
 21
305.6137913450993
 31
0.0
  0
LINE
  5
1E9
330
5C
100
AcDbEntity
  8
1
  6
Continuous
 62
     7
100
AcDbLine
 10
549.8755684285263
 20
305.6137913450993
 30
0.0
 11
549.8755684285263
 21
298.1137913450993
 31
0.0
  0
LINE
  5
1EA
330
5C
100
AcDbEntity
  8
1
  6
Continuous
 62
     7
100
AcDbLine
 10
233.8737690241158
 20
245.1137913450993
 30
0.0
 11
233.8737690241156
 21
248.1137913450993
 31
0.0
  0
LINE
  5
1EB
330
5C
100
AcDbEntity
  8
1
  6
Continuous
 62
     7
100
AcDbLine
 10
249.8737690241158
 20
245.1137913450993
 30
0.0
 11
249.8737690241156
 21
248.1137913450993
 31
0.0
  0
LINE
  5
1EC
330
5C
100
AcDbEntity
  8
1
  6
Continuous
 62
     7
100
AcDbLine
 10
516.8755684285247
 20
265.1137913450993
 30
0.0
 11
266.8737690241158
 21
265.1137913450993
 31
0.0
  0
LINE
  5
1ED
330
5C
100
AcDbEntity
  8
1
  6
Continuous
 62
     7
100
AcDbLine
 10
174.8592134632319
 20
245.1137913450993
 30
0.0
 11
174.8592134632319
 21
305.6137913450993
 31
0.0
  0
LINE
  5
1EE
330
5C
100
AcDbEntity
  8
1
  6
Continuous
 62
     7
100
AcDbLine
 10
190.8592134632319
 20
245.1137913450993
 30
0.0
 11
190.8592134632319
 21
305.6137913450993
 31
0.0
  0
LINE
  5
1EF
330
5C
100
AcDbEntity
  8
1
  6
Continuous
 62
     7
100
AcDbLine
 10
175.4728064572458
 20
240.1137913450993
 30
0.0
 11
190.2456204692179
 21
240.1137913450993
 31
0.0
  0
LINE
  5
1F0
330
5C
100
AcDbEntity
  8
1
  6
Continuous
 62
     7
100
AcDbLine
 10
190.8592134632319
 20
245.1137913450993
 30
0.0
 11
174.8592134632319
 21
245.1137913450993
 31
0.0
  0
LINE
  5
1F1
330
5C
100
AcDbEntity
  8
1
  6
PHANTOM
 62
     4
100
AcDbLine
 10
194.233435657094
 20
448.7962405077045
 30
0.0
 11
171.881262251011
 21
448.7962405077045
 31
0.0
  0
LINE
  5
1F2
330
5C
100
AcDbEntity
  8
1
  6
Continuous
 62
     7
100
AcDbLine
 10
190.8592134632319
 20
737.2510345283225
 30
0.0
 11
190.8592134632319
 21
448.7962405077045
 31
0.0
  0
LINE
  5
1F3
330
5C
100
AcDbEntity
  8
1
  6
Continuous
 62
     7
100
AcDbLine
 10
174.8592134632319
 20
737.2510345283226
 30
0.0
 11
174.8592134632319
 21
448.7962405077045
 31
0.0
  0
ARC
  5
1F4
330
5C
100
AcDbEntity
  8
1
  6
Continuous
 62
     7
100
AcDbCircle
 10
246.6637427293974
 20
242.9700716378771
 30
0.0
 40
3.860026294718437
100
AcDbArc
 50
312.2716554964179
 51
0.0
  0
ARC
  5
1F5
330
5C
100
AcDbEntity
  8
1
  6
Continuous
 62
     7
100
AcDbCircle
 10
237.0837953188338
 20
242.9700716378771
 30
0.0
 40
3.860026294717918
100
AcDbArc
 50
146.2642089999716
 51
180.0
  0
ARC
  5
1F6
330
5C
100
AcDbEntity
  8
1
  6
Continuous
 62
     7
100
AcDbCircle
 10
237.0837953188338
 20
242.9700716378771
 30
0.0
 40
3.860026294718097
100
AcDbArc
 50
180.0
 51
227.7283445035843
  0
ARC
  5
1F7
330
5C
100
AcDbEntity
  8
1
  6
Continuous
 62
     7
100
AcDbCircle
 10
246.6637427293974
 20
242.9700716378771
 30
0.0
 40
3.86002629471821
100
AcDbArc
 50
0.0
 51
33.73579100002516
  0
ARC
  5
1F8
330
5C
100
AcDbEntity
  8
1
  6
Continuous
 62
     7
100
AcDbCircle
 10
182.8592134632319
 20
273.1137913450993
 30
0.0
 40
8.0
100
AcDbArc
 50
0.0
 51
180.0
  0
ARC
  5
1F9
330
5C
100
AcDbEntity
  8
1
  6
Continuous
 62
     7
100
AcDbCircle
 10
187.6491871685136
 20
242.970071637877
 30
0.0
 40
3.860026294718276
100
AcDbArc
 50
312.2716554964178
 51
0.0
  0
ARC
  5
1FA
330
5C
100
AcDbEntity
  8
1
  6
Continuous
 62
     7
100
AcDbCircle
 10
178.06923975795
 20
242.970071637877
 30
0.0
 40
3.860026294718052
100
AcDbArc
 50
146.2642089999709
 51
180.0
  0
ARC
  5
1FB
330
5C
100
AcDbEntity
  8
1
  6
Continuous
 62
     7
100
AcDbCircle
 10
178.06923975795
 20
242.970071637877
 30
0.0
 40
3.860026294718182
100
AcDbArc
 50
180.0
 51
227.7283445035834
  0
ARC
  5
1FC
330
5C
100
AcDbEntity
  8
1
  6
Continuous
 62
     7
100
AcDbCircle
 10
187.6491871685136
 20
242.970071637877
 30
0.0
 40
3.860026294718182
100
AcDbArc
 50
0.0
 51
33.7357910000275
  0
ARC
  5
1FD
330
5C
100
AcDbEntity
  8
1
  6
Continuous
 62
     7
100
AcDbCircle
 10
182.8592134632319
 20
448.7962405077045
 30
0.0
 40
8.650000000000029
100
AcDbArc
 50
157.6465744006684
 51
270.0
  0
ARC
  5
1FE
330
5C
100
AcDbEntity
  8
1
  6
Continuous
 62
     7
100
AcDbCircle
 10
182.8592134632319
 20
448.7962405077045
 30
0.0
 40
8.650000000000091
100
AcDbArc
 50
270.0
 51
22.35342559933166
  0
ARC
  5
1FF
330
5C
100
AcDbEntity
  8
1
  6
Continuous
 62
     7
100
AcDbCircle
 10
182.8592134632319
 20
448.7962405077045
 30
0.0
 40
8.0
100
AcDbArc
 50
180.0
 51
0.0
  0
ARC
  5
200
330
5C
100
AcDbEntity
  8
1
  6
Continuous
 62
     7
100
AcDbCircle
 10
516.8755684285247
 20
298.1137913450993
 30
0.0
 40
33.0
100
AcDbArc
 50
270.0
 51
0.0
  0
ARC
  5
201
330
5C
100
AcDbEntity
  8
1
  6
Continuous
 62
     7
100
AcDbCircle
 10
516.8755684285247
 20
298.1137913450993
 30
0.0
 40
17.0
100
AcDbArc
 50
270.0
 51
0.0
  0
ARC
  5
202
330
5C
100
AcDbEntity
  8
1
  6
Continuous
 62
     7
100
AcDbCircle
 10
266.8737690241158
 20
248.1137913450993
 30
0.0
 40
33.0
100
AcDbArc
 50
90.0
 51
180.0
  0
ARC
  5
203
330
5C
100
AcDbEntity
  8
1
  6
Continuous
 62
     7
100
AcDbCircle
 10
266.8737690241158
 20
248.1137913450993
 30
0.0
 40
17.0
100
AcDbArc
 50
90.0
 51
180.0
  0
ENDBLK
  5
5E
330
5C
100
AcDbEntity
  8
0
100
AcDbBlockEnd
  0
BLOCK
  5
224
330
21D
100
AcDbEntity
  8
0
100
AcDbBlockBegin
  2
*D9
 70
     1
 10
0.0
 20
0.0
 30
0.0
  3
*D9
  1

  0
LINE
  5
21E
330
21D
100
AcDbEntity
  8
1
  6
Continuous
 62
     2
100
AcDbLine
 10
469.1940803840548
 20
334.6137913450993
 30
0.0
 11
469.1940803840548
 21
240.1137913450993
 31
0.0
  0
LINE
  5
21F
330
21D
100
AcDbEntity
  8
1
  6
Continuous
 62
     2
100
AcDbLine
 10
249.2601760301018
 20
240.1137913450993
 30
0.0
 11
472.6940803840548
 21
240.1137913450993
 31
0.0
  0
LINE
  5
220
330
21D
100
AcDbEntity
  8
1
  6
Continuous
 62
     2
100
AcDbLine
 10
527.0803021563372
 20
334.6137913450993
 30
0.0
 11
465.6940803840548
 21
334.6137913450993
 31
0.0
  0
SOLID
  5
221
330
21D
100
AcDbEntity
  8
1
 62
     2
100
AcDbTrace
 10
470.8068234795004
 20
322.3637913450993
 30
0.0
 11
467.5813372886092
 21
322.3637913450993
 31
0.0
 12
469.1940803840548
 22
334.6137913450993
 32
0.0
 13
469.1940803840548
 23
334.6137913450993
 33
0.0
  0
SOLID
  5
222
330
21D
100
AcDbEntity
  8
1
 62
     2
100
AcDbTrace
 10
467.5813372886092
 20
252.3637913450993
 30
0.0
 11
470.8068234795004
 21
252.3637913450993
 31
0.0
 12
469.1940803840548
 22
240.1137913450993
 32
0.0
 13
469.1940803840548
 23
240.1137913450993
 33
0.0
  0
MTEXT
  5
223
330
21D
100
AcDbEntity
  8
1
 62
     7
100
AcDbMText
 10
465.6940803840548
 20
298.6762913450993
 30
0.0
 40
12.25
 41
0.0
 71
     7
 72
     1
  1
95
  7
CONVERTER_12
 11
0.0
 21
1.0
 31
0.0
 73
     1
 44
0.60024009603842
  0
ENDBLK
  5
225
330
21D
100
AcDbEntity
  8
0
100
AcDbBlockEnd
  0
BLOCK
  5
22F
330
228
100
AcDbEntity
  8
0
100
AcDbBlockBegin
  2
*D10
 70
     1
 10
0.0
 20
0.0
 30
0.0
  3
*D10
  1

  0
LINE
  5
229
330
228
100
AcDbEntity
  8
1
  6
Continuous
 62
     2
100
AcDbLine
 10
241.8737690241159
 20
205.1137913450993
 30
0.0
 11
541.8755684285265
 21
205.1137913450993
 31
0.0
  0
LINE
  5
22A
330
228
100
AcDbEntity
  8
1
  6
Continuous
 62
     2
100
AcDbLine
 10
541.8755684285265
 20
298.1137913450993
 30
0.0
 11
541.8755684285265
 21
201.6137913450993
 31
0.0
  0
LINE
  5
22B
330
228
100
AcDbEntity
  8
1
  6
Continuous
 62
     2
100
AcDbLine
 10
241.8737690241159
 20
229.6137913450993
 30
0.0
 11
241.8737690241159
 21
201.6137913450993
 31
0.0
  0
SOLID
  5
22C
330
228
100
AcDbEntity
  8
1
 62
     2
100
AcDbTrace
 10
254.1237690241159
 20
206.7265344405449
 30
0.0
 11
254.1237690241159
 21
203.5010482496537
 31
0.0
 12
241.8737690241159
 22
205.1137913450993
 32
0.0
 13
241.8737690241159
 23
205.1137913450993
 33
0.0
  0
SOLID
  5
22D
330
228
100
AcDbEntity
  8
1
 62
     2
100
AcDbTrace
 10
529.6255684285265
 20
203.5010482496537
 30
0.0
 11
529.6255684285265
 21
206.7265344405449
 31
0.0
 12
541.8755684285265
 22
205.1137913450993
 32
0.0
 13
541.8755684285265
 23
205.1137913450993
 33
0.0
  0
MTEXT
  5
22E
330
228
100
AcDbEntity
  8
1
 62
     7
100
AcDbMText
 10
377.1746687263212
 20
208.6137913450993
 30
0.0
 40
12.25
 41
0.0
 71
     7
 72
     1
  1
300
  7
CONVERTER_12
 11
0.9999999999970619
 21
2.424068405545306E-6
 31
0.0
 73
     1
 44
0.60024009603842
  0
ENDBLK
  5
230
330
228
100
AcDbEntity
  8
0
100
AcDbBlockEnd
  0
BLOCK
  5
23A
330
233
100
AcDbEntity
  8
0
100
AcDbBlockBegin
  2
*D11
 70
     1
 10
0.0
 20
0.0
 30
0.0
  3
*D11
  1

  0
LINE
  5
234
330
233
100
AcDbEntity
  8
1
  6
Continuous
 62
     2
100
AcDbLine
 10
621.8755684285267
 20
205.1137913450993
 30
0.0
 11
635.8755684285265
 21
205.1137913450993
 31
0.0
  0
LINE
  5
235
330
233
100
AcDbEntity
  8
1
  6
Continuous
 62
     2
100
AcDbLine
 10
635.8755684285265
 20
205.1137913450993
 30
0.0
 11
667.7066703739121
 21
205.1137913450993
 31
0.0
  0
LINE
  5
236
330
233
100
AcDbEntity
  8
1
  6
Continuous
 62
     2
100
AcDbLine
 10
635.8755684285265
 20
325.1137913450993
 30
0.0
 11
635.8755684285265
 21
201.6137913450993
 31
0.0
  0
LINE
  5
237
330
233
100
AcDbEntity
  8
1
  6
Continuous
 62
     2
100
AcDbLine
 10
621.8755684285267
 20
308.1344548803722
 30
0.0
 11
621.8755684285267
 21
201.6137913450993
 31
0.0
  0
SOLID
  5
238
330
233
100
AcDbEntity
  8
1
 62
     2
100
AcDbTrace
 10
648.1255684285265
 20
206.7265344405449
 30
0.0
 11
648.1255684285265
 21
203.5010482496537
 31
0.0
 12
635.8755684285265
 22
205.1137913450993
 32
0.0
 13
635.8755684285265
 23
205.1137913450993
 33
0.0
  0
MTEXT
  5
239
330
233
100
AcDbEntity
  8
1
 62
     7
100
AcDbMText
 10
653.006670373912
 20
208.6137913450993
 30
0.0
 40
12.25
 41
0.0
 71
     7
 72
     1
  1
14
  7
CONVERTER_12
 11
0.9999999999970619
 21
2.424068405545306E-6
 31
0.0
 73
     1
 44
0.60024009603842
  0
ENDBLK
  5
23B
330
233
100
AcDbEntity
  8
0
100
AcDbBlockEnd
  0
BLOCK
  5
23D
330
23C
100
AcDbEntity
  8
0
100
AcDbBlockBegin
  2
_NONE
 70
     0
 10
0.0
 20
0.0
 30
0.0
  3
_NONE
  1

  0
ENDBLK
  5
23E
330
23C
100
AcDbEntity
  8
0
100
AcDbBlockEnd
  0
BLOCK
  5
248
330
241
100
AcDbEntity
  8
0
100
AcDbBlockBegin
  2
*D13
 70
     1
 10
0.0
 20
0.0
 30
0.0
  3
*D13
  1

  0
LINE
  5
242
330
241
100
AcDbEntity
  8
0
  6
Continuous
 62
     2
100
AcDbLine
 10
469.1940803840548
 20
334.6137913450993
 30
0.0
 11
469.1940803840548
 21
392.1137913450993
 31
0.0
  0
LINE
  5
243
330
241
100
AcDbEntity
  8
0
  6
Continuous
 62
     2
100
AcDbLine
 10
576.8755684285265
 20
392.1137913450993
 30
0.0
 11
465.6940803840548
 21
392.1137913450993
 31
0.0
  0
LINE
  5
244
330
241
100
AcDbEntity
  8
0
  6
Continuous
 62
     2
100
AcDbLine
 10
527.0803021563372
 20
334.6137913450993
 30
0.0
 11
465.6940803840548
 21
334.6137913450993
 31
0.0
  0
SOLID
  5
245
330
241
100
AcDbEntity
  8
0
 62
     2
100
AcDbTrace
 10
467.5813372886092
 20
346.8637913450993
 30
0.0
 11
470.8068234795004
 21
346.8637913450993
 31
0.0
 12
469.1940803840548
 22
334.6137913450993
 32
0.0
 13
469.1940803840548
 23
334.6137913450993
 33
0.0
  0
SOLID
  5
246
330
241
100
AcDbEntity
  8
0
 62
     2
100
AcDbTrace
 10
470.8068234795004
 20
379.8637913450993
 30
0.0
 11
467.5813372886092
 21
379.8637913450993
 31
0.0
 12
469.1940803840548
 22
392.1137913450993
 32
0.0
 13
469.1940803840548
 23
392.1137913450993
 33
0.0
  0
MTEXT
  5
247
330
241
100
AcDbEntity
  8
0
 62
     7
100
AcDbMText
 10
465.6940803840548
 20
330.719380258332
 30
0.0
 40
12.25
 41
0.0
 71
     7
 72
     1
  1
58リフト5
  7
CONVERTER_11
 11
0.0
 21
1.0
 31
0.0
 73
     1
 44
0.45454545454545
  0
ENDBLK
  5
249
330
241
100
AcDbEntity
  8
0
100
AcDbBlockEnd
  0
BLOCK
  5
253
330
24C
100
AcDbEntity
  8
0
100
AcDbBlockBegin
  2
*D14
 70
     1
 10
0.0
 20
0.0
 30
0.0
  3
*D14
  1

  0
LINE
  5
24D
330
24C
100
AcDbEntity
  8
1
  6
Continuous
 62
     2
100
AcDbLine
 10
670.8755684285264
 20
311.6137913450993
 30
0.0
 11
670.8755684285264
 21
357.6137913450993
 31
0.0
  0
LINE
  5
24E
330
24C
100
AcDbEntity
  8
1
  6
Continuous
 62
     2
100
AcDbLine
 10
621.8755684285265
 20
357.6137913450992
 30
0.0
 11
674.3755684285264
 21
357.6137913450992
 31
0.0
  0
LINE
  5
24F
330
24C
100
AcDbEntity
  8
1
  6
Continuous
 62
     2
100
AcDbLine
 10
621.8755684285267
 20
311.6137913450992
 30
0.0
 11
674.3755684285264
 21
311.6137913450992
 31
0.0
  0
SOLID
  5
250
330
24C
100
AcDbEntity
  8
1
 62
     2
100
AcDbTrace
 10
669.2628253330809
 20
323.8637913450993
 30
0.0
 11
672.488311523972
 21
323.8637913450993
 31
0.0
 12
670.8755684285264
 22
311.6137913450993
 32
0.0
 13
670.8755684285264
 23
311.6137913450993
 33
0.0
  0
SOLID
  5
251
330
24C
100
AcDbEntity
  8
1
 62
     2
100
AcDbTrace
 10
672.488311523972
 20
345.3637913450993
 30
0.0
 11
669.2628253330809
 21
345.3637913450993
 31
0.0
 12
670.8755684285264
 22
357.6137913450993
 32
0.0
 13
670.8755684285264
 23
357.6137913450993
 33
0.0
  0
MTEXT
  5
252
330
24C
100
AcDbEntity
  8
1
 62
     7
100
AcDbMText
 10
667.3755684285264
 20
322.7312913450992
 30
0.0
 40
12.25
 41
0.0
 71
     7
 72
     1
  1
\C7;{\Fgdt;n}\C7;46
  7
CONVERTER_12
 11
0.0
 21
1.0
 31
0.0
 73
     1
 44
0.60024009603842
  0
ENDBLK
  5
254
330
24C
100
AcDbEntity
  8
0
100
AcDbBlockEnd
  0
BLOCK
  5
25E
330
257
100
AcDbEntity
  8
0
100
AcDbBlockBegin
  2
*D15
 70
     1
 10
0.0
 20
0.0
 30
0.0
  3
*D15
  1

  0
LINE
  5
258
330
257
100
AcDbEntity
  8
0
  6
Continuous
 62
     2
100
AcDbLine
 10
541.8755684285265
 20
205.1137913450993
 30
0.0
 11
576.8755684285265
 21
205.1137913450993
 31
0.0
  0
LINE
  5
259
330
257
100
AcDbEntity
  8
0
  6
Continuous
 62
     2
100
AcDbLine
 10
576.8755684285265
 20
318.9625063951353
 30
0.0
 11
576.8755684285265
 21
201.6137913450993
 31
0.0
  0
LINE
  5
25A
330
257
100
AcDbEntity
  8
0
  6
Continuous
 62
     2
100
AcDbLine
 10
541.8755684285265
 20
298.1137913450994
 30
0.0
 11
541.8755684285265
 21
201.6137913450993
 31
0.0
  0
SOLID
  5
25B
330
257
100
AcDbEntity
  8
0
 62
     2
100
AcDbTrace
 10
554.1255684285265
 20
206.7265344405449
 30
0.0
 11
554.1255684285265
 21
203.5010482496537
 31
0.0
 12
541.8755684285265
 22
205.1137913450993
 32
0.0
 13
541.8755684285265
 23
205.1137913450993
 33
0.0
  0
SOLID
  5
25C
330
257
100
AcDbEntity
  8
0
 62
     2
100
AcDbTrace
 10
564.6255684285265
 20
203.5010482496537
 30
0.0
 11
564.6255684285265
 21
206.7265344405449
 31
0.0
 12
576.8755684285265
 22
205.1137913450993
 32
0.0
 13
576.8755684285265
 23
205.1137913450993
 33
0.0
  0
MTEXT
  5
25D
330
257
100
AcDbEntity
  8
0
 62
     7
100
AcDbMText
 10
550.1880684285262
 20
208.6137913450993
 30
0.0
 40
12.25
 41
0.0
 71
     7
 72
     1
  1
35
  7
CONVERTER_12
 11
0.9999999999970619
 21
2.424068405545306E-6
 31
0.0
 73
     1
 44
0.60024009603842
  0
ENDBLK
  5
25F
330
257
100
AcDbEntity
  8
0
100
AcDbBlockEnd
  0
BLOCK
  5
269
330
262
100
AcDbEntity
  8
0
100
AcDbBlockBegin
  2
*D16
 70
     1
 10
0.0
 20
0.0
 30
0.0
  3
*D16
  1

  0
LINE
  5
263
330
262
100
AcDbEntity
  8
0
  6
Continuous
 62
     2
100
AcDbLine
 10
576.8755684285265
 20
205.1137913450993
 30
0.0
 11
621.8755684285267
 21
205.1137913450993
 31
0.0
  0
LINE
  5
264
330
262
100
AcDbEntity
  8
0
  6
Continuous
 62
     2
100
AcDbLine
 10
621.8755684285267
 20
308.1344548803722
 30
0.0
 11
621.8755684285267
 21
201.6137913450993
 31
0.0
  0
LINE
  5
265
330
262
100
AcDbEntity
  8
0
  6
Continuous
 62
     2
100
AcDbLine
 10
576.8755684285265
 20
318.9625063951353
 30
0.0
 11
576.8755684285265
 21
201.6137913450993
 31
0.0
  0
SOLID
  5
266
330
262
100
AcDbEntity
  8
0
 62
     2
100
AcDbTrace
 10
589.1255684285265
 20
206.7265344405449
 30
0.0
 11
589.1255684285265
 21
203.5010482496537
 31
0.0
 12
576.8755684285265
 22
205.1137913450993
 32
0.0
 13
576.8755684285265
 23
205.1137913450993
 33
0.0
  0
SOLID
  5
267
330
262
100
AcDbEntity
  8
0
 62
     2
100
AcDbTrace
 10
609.6255684285267
 20
203.5010482496537
 30
0.0
 11
609.6255684285267
 21
206.7265344405449
 31
0.0
 12
621.8755684285267
 22
205.1137913450993
 32
0.0
 13
621.8755684285267
 23
205.1137913450993
 33
0.0
  0
MTEXT
  5
268
330
262
100
AcDbEntity
  8
0
 62
     7
100
AcDbMText
 10
590.1880684285263
 20
208.6137913450993
 30
0.0
 40
12.25
 41
0.0
 71
     7
 72
     1
  1
45
  7
CONVERTER_12
 11
0.9999999999970619
 21
2.424068405545306E-6
 31
0.0
 73
     1
 44
0.60024009603842
  0
ENDBLK
  5
26A
330
262
100
AcDbEntity
  8
0
100
AcDbBlockEnd
  0
ENDSEC
  0
SECTION
  2
ENTITIES
  0
INSERT
  5
5F
330
1F
100
AcDbEntity
  8
1
100
AcDbBlockReference
  2
21-1D
 10
2395.57589143557
 20
2837.087459863106
 30
0.0
 41
1.0
 42
1.0
 43
1.0
  0
INSERT
  5
60
330
1F
100
AcDbEntity
  8
1
100
AcDbBlockReference
  2
開示A4
 10
0.0
 20
0.0
 30
0.0
 41
3.5
 42
3.5
 43
3.5
  0
INSERT
  5
61
330
1F
100
AcDbEntity
  8
0
100
AcDbBlockReference
  2
42-1
 10
488.771308341923
 20
182.3241423355145
 30
0.0
  0
INSERT
  5
62
330
1F
100
AcDbEntity
  8
0
100
AcDbBlockReference
  2
37-1-13
 10
485.0743382117555
 20
218.1180854549547
 30
0.0
  0
INSERT
  5
63
330
1F
100
AcDbEntity
  8
0
100
AcDbBlockReference
  2
36-1A-13-M4
 10
331.0617100065782
 20
236.0446653356632
 30
0.0
  0
INSERT
  5
64
330
1F
100
AcDbEntity
  8
1
100
AcDbBlockReference
  2
A10-0A-13
 10
576.8755684285265
 20
334.6137913450993
 30
0.0
  0
INSERT
  5
65
330
1F
100
AcDbEntity
  8
1
100
AcDbBlockReference
  2
32-1-16
 10
245.3298285928577
 20
515.0996234752083
 30
0.0
  0
INSERT
  5
66
330
1F
100
AcDbEntity
  8
0
100
AcDbBlockReference
  2
60-1-16-300
 10
403.7093344231127
 20
209.7476935151055
 30
0.0
  0
LINE
  5
204
330
1F
100
AcDbEntity
  8
1
  6
DASH_CENTER
 62
     2
100
AcDbLine
 10
241.8737690241159
 20
229.6137913450993
 30
0.0
 11
241.8737690241159
 21
248.1137913450993
 31
0.0
  0
LINE
  5
205
330
1F
100
AcDbEntity
  8
1
  6
DASH_CENTER
 62
     2
100
AcDbLine
 10
266.8737690241159
 20
273.1137913450993
 30
0.0
 11
516.8755684285265
 21
273.1137913450993
 31
0.0
  0
LINE
  5
206
330
1F
100
AcDbEntity
  8
1
  6
DASH_CENTER
 62
     2
100
AcDbLine
 10
174.1989594253873
 20
778.7980399121151
 30
0.0
 11
212.3040771919028
 21
800.7980399121153
 31
0.0
  0
LINE
  5
207
330
1F
100
AcDbEntity
  8
1
  6
DASH_CENTER
 62
     2
100
AcDbLine
 10
191.5194675010763
 20
778.7980399121151
 30
0.0
 11
153.414349734561
 21
800.7980399121151
 31
0.0
  0
LINE
  5
208
330
1F
100
AcDbEntity
  8
1
  6
DASH_CENTER
 62
     2
100
AcDbLine
 10
199.8592134632319
 20
783.7980399121151
 30
0.0
 11
165.8592134632319
 21
783.7980399121151
 31
0.0
  0
LINE
  5
209
330
1F
100
AcDbEntity
  8
1
  6
DASH_CENTER
 62
     2
100
AcDbLine
 10
182.859213463232
 20
847.5198581062589
 30
0.0
 11
182.859213463232
 21
436.82004324215
 31
0.0
  0
LINE
  5
20A
330
1F
100
AcDbEntity
  8
0
  6
Continuous
 62
     2
100
AcDbLine
 10
621.8755684285267
 20
311.6137913450993
 30
0.0
 11
621.8755684285267
 21
308.1344548803722
 31
0.0
  0
LINE
  5
20B
330
1F
100
AcDbEntity
  8
1
  6
DASH_CENTER
 62
     2
100
AcDbLine
 10
541.8755684285265
 20
298.1137913450993
 30
0.0
 11
541.8755684285265
 21
343.2395300733871
 31
0.0
  0
LINE
  5
20C
330
1F
100
AcDbEntity
  8
0
  6
DASH_CENTER
 62
     2
100
AcDbLine
 10
182.859213463232
 20
396.2816044027581
 30
0.0
 11
182.859213463232
 21
229.6137913450993
 31
0.0
  0
LINE
  5
20D
330
1F
100
AcDbEntity
  8
1
  6
DASH_CENTER
 62
     2
100
AcDbLine
 10
576.8755684285265
 20
318.9625063951353
 30
0.0
 11
576.8755684285265
 21
402.6137913450992
 31
0.0
  0
LINE
  5
20E
330
1F
100
AcDbEntity
  8
1
  6
DASH_CENTER
 62
     2
100
AcDbLine
 10
638.9133749602796
 20
334.6137913450993
 30
0.0
 11
527.0803021563372
 21
334.6137913450993
 31
0.0
  0
LINE
  5
20F
330
1F
100
AcDbEntity
  8
1
  6
DASH_CENTER
 62
     2
100
AcDbLine
 10
149.359213463232
 20
334.6137913450992
 30
0.0
 11
216.3592134632319
 21
334.6137913450992
 31
0.0
  0
LINE
  5
210
330
1F
100
AcDbEntity
  8
1
  6
DASH_CENTER
 62
     2
100
AcDbLine
 10
200.159213463232
 20
448.7962405077045
 30
0.0
 11
165.5592134632317
 21
448.7962405077045
 31
0.0
  0
LINE
  5
211
330
1F
100
AcDbEntity
  8
1
  6
DASH_CENTER
 62
     2
100
AcDbLine
 10
158.3592134632319
 20
748.7980399121151
 30
0.0
 11
207.3592134632319
 21
748.7980399121151
 31
0.0
  0
ARC
  5
212
330
1F
100
AcDbEntity
  8
1
  6
DASH_CENTER
 62
     2
100
AcDbCircle
 10
266.8737690241159
 20
248.1137913450993
 30
0.0
 40
25.0
100
AcDbArc
 50
90.0
 51
180.0
  0
ARC
  5
213
330
1F
100
AcDbEntity
  8
1
  6
DASH_CENTER
 62
     2
100
AcDbCircle
 10
516.8755684285265
 20
298.1137913450993
 30
0.0
 40
25.0
100
AcDbArc
 50
270.0
 51
0.0
  0
SOLID
  5
214
330
1F
100
AcDbEntity
  8
1
 62
     2
100
AcDbTrace
 10
198.0875369727982
 20
846.7132226561971
 30
0.0
 11
200.8808899536658
 21
845.1004795607515
 31
0.0
 12
193.3592134632319
 22
835.298039912115
 32
0.0
 13
193.3592134632319
 23
835.298039912115
 33
0.0
  0
LEADER
  5
215
330
1F
100
AcDbEntity
  8
1
  6
Continuous
 62
     2
100
AcDbLeader
  3
Standard
 71
     0
 76
     3
 10
193.3592134632319
 20
835.298039912115
 30
0.0
 10
210.3020251651037
 20
864.6438506028294
 30
0.0
 10
264.435448080522
 20
864.6438506028294
 30
0.0
  0
MTEXT
  5
217
330
1F
100
AcDbEntity
  8
1
 62
     7
100
AcDbMText
 10
328.125
 20
59.5
 30
0.0
 40
12.25
 41
0.0
 71
     5
 72
     1
  1
3,5
  7
CONVERTER_12
 73
     1
 44
0.7202881152461
  0
MTEXT
  5
218
330
1F
100
AcDbEntity
  8
1
 62
     7
100
AcDbMText
 10
298.375
 20
59.5
 30
0.0
 40
12.25
 41
0.0
 71
     5
 72
     1
  1
1
  7
CONVERTER_12
 73
     1
 44
0.7202881152461
  0
MTEXT
  5
219
330
1F
100
AcDbEntity
  8
0
 62
     7
100
AcDbMText
 10
199.5
 20
79.62500000000006
 30
0.0
 40
12.25
 41
0.0
 71
     5
 72
     1
  1
自在水栓
  7
CONVERTER_11
 73
     1
 44
1.0
  0
MTEXT
  5
21A
330
1F
100
AcDbEntity
  8
1
 62
     7
100
AcDbMText
 10
237.3687366228129
 20
875.1438506028294
 30
0.0
 40
12.25
 41
0.0
 71
     5
 72
     1
  1
PJ1/2
  7
CONVERTER_12
 73
     1
 44
1.32052821128451
  0
MTEXT
  5
21B
330
1F
100
AcDbEntity
  8
0
 62
     7
100
AcDbMText
 10
199.5
 20
49.875
 30
0.0
 40
12.25
 41
0.0
 71
     5
 72
     1
  1
A10J-L3-13X300
  7
CONVERTER_12
 73
     1
 44
0.90036014405762
  0
MTEXT
  5
21C
330
1F
100
AcDbEntity
  8
0
 62
     7
100
AcDbMText
 10
119.0
 20
119.0
 30
0.0
 40
12.25
 41
0.0
 71
     4
 72
     1
  1
JIS
  7
CONVERTER_12
 73
     1
 44
1.32052821128451
  0
DIMENSION
  5
227
330
1F
100
AcDbEntity
  8
1
100
AcDbDimension
  2
*D9
 10
469.1940803840548
 20
334.6137913450993
 30
0.0
 11
459.5690803840548
 21
307.8637913450993
 31
0.0
 70
    32
  1
95
 71
     5
 42
-1.0
 53
90.0
  3
ME10_DIM_10
100
AcDbAlignedDimension
 13
249.2601760301018
 23
240.1137913450993
 33
0.0
 14
527.0803021563372
 24
334.6137913450993
 34
0.0
 50
90.0
100
AcDbRotatedDimension
  0
DIMENSION
  5
232
330
1F
100
AcDbEntity
  8
1
100
AcDbDimension
  2
*D10
 10
241.8737690241159
 20
205.1137913450993
 30
0.0
 11
391.8746687263212
 21
214.7387913450993
 31
0.0
 70
    32
  1
<>
 71
     5
 42
-1.0
 53
0.00013888888889
  3
ME10_DIM_11
100
AcDbAlignedDimension
 13
541.8755684285265
 23
298.1137913450993
 33
0.0
 14
241.8737690241159
 24
229.6137913450993
 34
0.0
100
AcDbRotatedDimension
  0
DIMENSION
  5
240
330
1F
100
AcDbEntity
  8
1
100
AcDbDimension
  2
*D11
 10
621.8755684285267
 20
205.1137913450993
 30
0.0
 11
660.356670373912
 21
214.7387913450993
 31
0.0
 70
    32
  1
<>
 71
     5
 42
-1.0
 53
0.00013888888889
  3
ME10_DIM_12
100
AcDbAlignedDimension
 13
635.8755684285265
 23
325.1137913450993
 33
0.0
 14
621.8755684285267
 24
308.1344548803722
 34
0.0
100
AcDbRotatedDimension
  0
DIMENSION
  5
24B
330
1F
100
AcDbEntity
  8
0
100
AcDbDimension
  2
*D13
 10
469.1940803840548
 20
334.6137913450993
 30
0.0
 11
459.5690803840548
 21
363.794380258332
 31
0.0
 70
    32
  1
58リフト5
 71
     5
 42
-1.0
 53
90.0
  3
ME10_DIM_13
100
AcDbAlignedDimension
 13
576.8755684285265
 23
392.1137913450992
 33
0.0
 14
527.0803021563372
 24
334.6137913450993
 34
0.0
 50
90.0
100
AcDbRotatedDimension
  0
DIMENSION
  5
256
330
1F
100
AcDbEntity
  8
1
100
AcDbDimension
  2
*D14
 10
670.8755684285264
 20
311.6137913450993
 30
0.0
 11
661.2505684285264
 21
334.6137913450992
 31
0.0
 70
    32
  1
<>
 71
     5
 42
-1.0
 53
90.0
  3
ME10_DIM_14
100
AcDbAlignedDimension
 13
621.8755684285265
 23
357.6137913450992
 33
0.0
 14
621.8755684285267
 24
311.6137913450993
 34
0.0
 50
90.0
100
AcDbRotatedDimension
  0
DIMENSION
  5
261
330
1F
100
AcDbEntity
  8
0
100
AcDbDimension
  2
*D15
 10
541.8755684285265
 20
205.1137913450993
 30
0.0
 11
559.3755684285262
 21
214.7387913450993
 31
0.0
 70
    32
  1
<>
 71
     5
 42
-1.0
 53
0.00013888888889
  3
ME10_DIM_15
100
AcDbAlignedDimension
 13
576.8755684285265
 23
318.9625063951353
 33
0.0
 14
541.8755684285265
 24
298.1137913450993
 34
0.0
100
AcDbRotatedDimension
  0
DIMENSION
  5
26C
330
1F
100
AcDbEntity
  8
0
100
AcDbDimension
  2
*D16
 10
576.8755684285265
 20
205.1137913450993
 30
0.0
 11
599.3755684285263
 21
214.7387913450993
 31
0.0
 70
    32
  1
<>
 71
     5
 42
-1.0
 53
0.00013888888889
  3
ME10_DIM_16
100
AcDbAlignedDimension
 13
621.8755684285267
 23
308.1344548803722
 33
0.0
 14
576.8755684285265
 24
318.9625063951353
 34
0.0
100
AcDbRotatedDimension
  0
ENDSEC
  0
SECTION
  2
OBJECTS
  0
DICTIONARY
  5
C
330
0
100
AcDbDictionary
281
     1
  3
ACAD_GROUP
350
D
  3
ACAD_LAYOUT
350
1A
  3
ACAD_MATERIAL
350
3B
  3
ACAD_MLEADERSTYLE
350
26F
  3
ACAD_MLINESTYLE
350
17
  3
ACAD_PLOTSETTINGS
350
19
  3
ACAD_PLOTSTYLENAME
350
E
  3
ACAD_VISUALSTYLE
350
2A
  3
AcDbVariableDictionary
350
26D
  0
DICTIONARY
  5
D
102
{ACAD_REACTORS
330
C
102
}
330
C
100
AcDbDictionary
281
     1
  0
DICTIONARY
  5
1A
102
{ACAD_REACTORS
330
C
102
}
330
C
100
AcDbDictionary
281
     1
  3
Layout1
350
1E
  3
Layout2
350
26
  3
Model
350
22
  0
DICTIONARY
  5
3B
102
{ACAD_REACTORS
330
C
102
}
330
C
100
AcDbDictionary
281
     1
  3
ByBlock
350
3D
  3
ByLayer
350
3C
  3
Global
350
3E
  0
DICTIONARY
  5
26F
102
{ACAD_REACTORS
330
C
102
}
330
C
100
AcDbDictionary
281
     1
  0
DICTIONARY
  5
17
102
{ACAD_REACTORS
330
C
102
}
330
C
100
AcDbDictionary
281
     1
  3
Standard
350
18
  0
DICTIONARY
  5
19
102
{ACAD_REACTORS
330
C
102
}
330
C
100
AcDbDictionary
281
     1
  0
ACDBDICTIONARYWDFLT
  5
E
102
{ACAD_REACTORS
330
C
102
}
330
C
100
AcDbDictionary
281
     1
  3
Normal
350
F
100
AcDbDictionaryWithDefault
340
F
  0
DICTIONARY
  5
2A
102
{ACAD_REACTORS
330
C
102
}
330
C
100
AcDbDictionary
281
     1
  3
2dWireframe
350
2F
  3
3D Hidden
350
31
  3
3dWireframe
350
30
  3
Basic
350
32
  3
Brighten
350
36
  3
ColorChange
350
3A
  3
Conceptual
350
34
  3
Dim
350
35
  3
Facepattern
350
39
  3
Flat
350
2B
  3
FlatWithEdges
350
2C
  3
Gouraud
350
2D
  3
GouraudWithEdges
350
2E
  3
Linepattern
350
38
  3
Realistic
350
33
  3
Thicken
350
37
  0
DICTIONARY
  5
26D
102
{ACAD_REACTORS
330
C
102
}
330
C
100
AcDbDictionary
281
     1
  3
DIMASSOC
350
270
  3
HIDETEXT
350
271
  0
LAYOUT
  5
1E
102
{ACAD_REACTORS
330
1A
102
}
330
1A
100
AcDbPlotSettings
  1

  2
none_device
  4

  6

 40
0.0
 41
0.0
 42
0.0
 43
0.0
 44
0.0
 45
0.0
 46
0.0
 47
0.0
 48
0.0
 49
0.0
140
0.0
141
0.0
142
1.0
143
1.0
 70
   688
 72
     0
 73
     0
 74
     5
  7

 75
    16
147
1.0
148
0.0
149
0.0
100
AcDbLayout
  1
Layout1
 70
     1
 71
     1
 10
0.0
 20
0.0
 11
12.0
 21
9.0
 12
0.0
 22
0.0
 32
0.0
 14
1.00000000000000E+20
 24
1.00000000000000E+20
 34
1.00000000000000E+20
 15
-1.00000000000000E+20
 25
-1.00000000000000E+20
 35
-1.00000000000000E+20
146
0.0
 13
0.0
 23
0.0
 33
0.0
 16
1.0
 26
0.0
 36
0.0
 17
0.0
 27
1.0
 37
0.0
 76
     0
330
1B
  0
LAYOUT
  5
26
102
{ACAD_REACTORS
330
1A
102
}
330
1A
100
AcDbPlotSettings
  1

  2
none_device
  4

  6

 40
0.0
 41
0.0
 42
0.0
 43
0.0
 44
0.0
 45
0.0
 46
0.0
 47
0.0
 48
0.0
 49
0.0
140
0.0
141
0.0
142
1.0
143
1.0
 70
   688
 72
     0
 73
     0
 74
     5
  7

 75
    16
147
1.0
148
0.0
149
0.0
100
AcDbLayout
  1
Layout2
 70
     1
 71
     2
 10
0.0
 20
0.0
 11
0.0
 21
0.0
 12
0.0
 22
0.0
 32
0.0
 14
0.0
 24
0.0
 34
0.0
 15
0.0
 25
0.0
 35
0.0
146
0.0
 13
0.0
 23
0.0
 33
0.0
 16
1.0
 26
0.0
 36
0.0
 17
0.0
 27
1.0
 37
0.0
 76
     0
330
23
  0
LAYOUT
  5
22
102
{ACAD_REACTORS
330
1A
102
}
330
1A
100
AcDbPlotSettings
  1

  2
none_device
  4

  6

 40
0.0
 41
0.0
 42
0.0
 43
0.0
 44
0.0
 45
0.0
 46
0.0
 47
0.0
 48
0.0
 49
0.0
140
0.0
141
0.0
142
1.0
143
1.0
 70
  1712
 72
     0
 73
     0
 74
     0
  7

 75
     0
147
1.0
148
0.0
149
0.0
100
AcDbLayout
  1
Model
 70
     1
 71
     0
 10
0.0
 20
0.0
 11
12.0
 21
9.0
 12
0.0
 22
0.0
 32
0.0
 14
0.0
 24
0.0
 34
0.0
 15
735.0
 25
1039.5
 35
0.0
146
0.0
 13
0.0
 23
0.0
 33
0.0
 16
1.0
 26
0.0
 36
0.0
 17
0.0
 27
1.0
 37
0.0
 76
     0
330
1F
331
29
  0
MATERIAL
  5
3D
102
{ACAD_REACTORS
330
3B
102
}
102
{ACAD_XDICTIONARY
360
294
102
}
330
3B
100
AcDbMaterial
  1
ByBlock
  0
MATERIAL
  5
3C
102
{ACAD_REACTORS
330
3B
102
}
102
{ACAD_XDICTIONARY
360
292
102
}
330
3B
100
AcDbMaterial
  1
ByLayer
  0
MATERIAL
  5
3E
102
{ACAD_REACTORS
330
3B
102
}
102
{ACAD_XDICTIONARY
360
296
102
}
330
3B
100
AcDbMaterial
  1
Global
  0
MLINESTYLE
  5
18
102
{ACAD_REACTORS
330
17
102
}
330
17
100
AcDbMlineStyle
  2
Standard
 70
     0
  3

 62
   256
 51
90.0
 52
90.0
 71
     2
 49
0.5
 62
   256
  6
BYLAYER
 49
-0.5
 62
   256
  6
BYLAYER
  0
ACDBPLACEHOLDER
  5
F
102
{ACAD_REACTORS
330
E
102
}
330
E
  0
VISUALSTYLE
  5
2F
102
{ACAD_REACTORS
330
2A
102
}
102
{ACAD_XDICTIONARY
360
27A
102
}
330
2A
100
AcDbVisualStyle
  2
2dWireframe
 70
     4
 71
     0
 72
     2
 73
     0
 90
        0
 40
-0.6
 41
-30.0
 62
     5
 63
     7
 74
     1
 91
        4
 64
     7
 65
   257
 75
     1
175
     1
 42
1.0
 92
        0
 66
   257
 43
1.0
 76
     1
 77
     6
 78
     2
 67
     7
 79
     5
170
     0
171
     0
290
     0
174
     0
 93
        1
 44
0.0
173
     0
291
     0
 45
0.0
1001
ACAD
1000
AcDbSavedByObjectVersion
1070
     0
  0
VISUALSTYLE
  5
31
102
{ACAD_REACTORS
330
2A
102
}
102
{ACAD_XDICTIONARY
360
27E
102
}
330
2A
100
AcDbVisualStyle
  2
3D Hidden
 70
     6
 71
     1
 72
     2
 73
     2
 90
        0
 40
-0.6
 41
-30.0
 62
     5
 63
     7
 74
     2
 91
        2
 64
     7
 65
   257
 75
     2
175
     1
 42
40.0
 92
        0
 66
   257
 43
1.0
 76
     1
 77
     6
 78
     2
 67
     7
 79
     3
170
     0
171
     0
290
     0
174
     0
 93
        1
 44
0.0
173
     0
291
     0
 45
0.0
1001
ACAD
1000
AcDbSavedByObjectVersion
1070
     0
  0
VISUALSTYLE
  5
30
102
{ACAD_REACTORS
330
2A
102
}
102
{ACAD_XDICTIONARY
360
27C
102
}
330
2A
100
AcDbVisualStyle
  2
3dWireframe
 70
     5
 71
     0
 72
     2
 73
     0
 90
        0
 40
-0.6
 41
-30.0
 62
     5
 63
     7
 74
     1
 91
        4
 64
     7
 65
   257
 75
     1
175
     1
 42
1.0
 92
        0
 66
   257
 43
1.0
 76
     1
 77
     6
 78
     2
 67
     7
 79
     5
170
     0
171
     0
290
     0
174
     0
 93
        1
 44
0.0
173
     0
291
     0
 45
0.0
1001
ACAD
1000
AcDbSavedByObjectVersion
1070
     0
  0
VISUALSTYLE
  5
32
102
{ACAD_REACTORS
330
2A
102
}
102
{ACAD_XDICTIONARY
360
280
102
}
330
2A
100
AcDbVisualStyle
  2
Basic
 70
     7
 71
     1
 72
     0
 73
     1
 90
        0
 40
-0.6
 41
-30.0
 62
     5
 63
     7
 74
     0
 91
        4
 64
     7
 65
   257
 75
     1
175
     1
 42
1.0
 92
        8
 66
     7
 43
1.0
 76
     1
 77
     6
 78
     2
 67
     7
 79
     5
170
     0
171
     0
290
     0
174
     0
 93
        1
 44
0.0
173
     0
291
     1
 45
0.0
1001
ACAD
1000
AcDbSavedByObjectVersion
1070
     0
  0
VISUALSTYLE
  5
36
102
{ACAD_REACTORS
330
2A
102
}
102
{ACAD_XDICTIONARY
360
288
102
}
330
2A
100
AcDbVisualStyle
  2
Brighten
 70
    12
 71
     2
 72
     2
 73
     0
 90
        0
 40
-0.6
 41
-30.0
 62
     5
 63
     7
 74
     1
 91
        4
 64
     7
 65
   257
 75
     1
175
     1
 42
1.0
 92
        8
 66
     7
 43
1.0
 76
     1
 77
     6
 78
     2
 67
     7
 79
     5
170
     0
171
     0
290
     0
174
     0
 93
        1
 44
50.0
173
     0
291
     1
 45
0.0
1001
ACAD
1000
AcDbSavedByObjectVersion
1070
     0
  0
VISUALSTYLE
  5
3A
102
{ACAD_REACTORS
330
2A
102
}
102
{ACAD_XDICTIONARY
360
290
102
}
330
2A
100
AcDbVisualStyle
  2
ColorChange
 70
    16
 71
     2
 72
     2
 73
     3
 90
        0
 40
-0.6
 41
-30.0
 62
     5
 63
     8
 74
     1
 91
        4
 64
     7
 65
   257
 75
     1
175
     1
 42
1.0
 92
        8
 66
     8
 43
1.0
 76
     1
 77
     6
 78
     2
 67
     7
 79
     5
170
     0
171
     0
290
     0
174
     0
 93
        1
 44
0.0
173
     0
291
     1
 45
0.0
1001
ACAD
1000
AcDbSavedByObjectVersion
1070
     0
  0
VISUALSTYLE
  5
34
102
{ACAD_REACTORS
330
2A
102
}
102
{ACAD_XDICTIONARY
360
284
102
}
330
2A
100
AcDbVisualStyle
  2
Conceptual
 70
     9
 71
     3
 72
     2
 73
     0
 90
        0
 40
-0.6
 41
-30.0
 62
     5
 63
     7
 74
     2
 91
        2
 64
     7
 65
   257
 75
     1
175
     1
 42
40.0
 92
        8
 66
     7
 43
1.0
 76
     1
 77
     6
 78
     2
 67
     7
 79
     3
170
     0
171
     0
290
     0
174
     0
 93
        1
 44
0.0
173
     0
291
     0
 45
0.0
1001
ACAD
1000
AcDbSavedByObjectVersion
1070
     0
  0
VISUALSTYLE
  5
35
102
{ACAD_REACTORS
330
2A
102
}
102
{ACAD_XDICTIONARY
360
286
102
}
330
2A
100
AcDbVisualStyle
  2
Dim
 70
    11
 71
     2
 72
     2
 73
     0
 90
        0
 40
-0.6
 41
-30.0
 62
     5
 63
     7
 74
     1
 91
        4
 64
     7
 65
   257
 75
     1
175
     1
 42
1.0
 92
        8
 66
     7
 43
1.0
 76
     1
 77
     6
 78
     2
 67
     7
 79
     5
170
     0
171
     0
290
     0
174
     0
 93
        1
 44
-50.0
173
     0
291
     1
 45
0.0
1001
ACAD
1000
AcDbSavedByObjectVersion
1070
     0
  0
VISUALSTYLE
  5
39
102
{ACAD_REACTORS
330
2A
102
}
102
{ACAD_XDICTIONARY
360
28E
102
}
330
2A
100
AcDbVisualStyle
  2
Facepattern
 70
    15
 71
     2
 72
     2
 73
     0
 90
        0
 40
-0.6
 41
-30.0
 62
     5
 63
     7
 74
     1
 91
        4
 64
     7
 65
   257
 75
     1
175
     1
 42
1.0
 92
        8
 66
     7
 43
1.0
 76
     1
 77
     6
 78
     2
 67
     7
 79
     5
170
     0
171
     0
290
     0
174
     0
 93
        1
 44
0.0
173
     0
291
     1
 45
0.0
1001
ACAD
1000
AcDbSavedByObjectVersion
1070
     0
  0
VISUALSTYLE
  5
2B
102
{ACAD_REACTORS
330
2A
102
}
102
{ACAD_XDICTIONARY
360
272
102
}
330
2A
100
AcDbVisualStyle
  2
Flat
 70
     0
 71
     2
 72
     1
 73
     1
 90
        2
 40
-0.6
 41
30.0
 62
     5
 63
     7
 74
     0
 91
        4
 64
     7
 65
   257
 75
     1
175
     1
 42
1.0
 92
        8
 66
     7
 43
1.0
 76
     1
 77
     6
 78
     2
 67
     7
 79
     5
170
     0
171
     0
290
     0
174
     0
 93
       13
 44
0.0
173
     0
291
     1
 45
0.0
1001
ACAD
1000
AcDbSavedByObjectVersion
1070
     0
  0
VISUALSTYLE
  5
2C
102
{ACAD_REACTORS
330
2A
102
}
102
{ACAD_XDICTIONARY
360
274
102
}
330
2A
100
AcDbVisualStyle
  2
FlatWithEdges
 70
     1
 71
     2
 72
     1
 73
     1
 90
        2
 40
-0.6
 41
30.0
 62
     5
 63
     7
 74
     1
 91
        4
 64
     7
 65
   257
 75
     1
175
     1
 42
1.0
 92
        0
 66
   257
 43
1.0
 76
     1
 77
     6
 78
     2
 67
     7
 79
     5
170
     0
171
     0
290
     0
174
     0
 93
       13
 44
0.0
173
     0
291
     1
 45
0.0
1001
ACAD
1000
AcDbSavedByObjectVersion
1070
     0
  0
VISUALSTYLE
  5
2D
102
{ACAD_REACTORS
330
2A
102
}
102
{ACAD_XDICTIONARY
360
276
102
}
330
2A
100
AcDbVisualStyle
  2
Gouraud
 70
     2
 71
     2
 72
     2
 73
     1
 90
        2
 40
-0.6
 41
30.0
 62
     5
 63
     7
 74
     0
 91
        4
 64
     7
 65
   257
 75
     1
175
     1
 42
1.0
 92
        0
 66
     7
 43
1.0
 76
     1
 77
     6
 78
     2
 67
     7
 79
     5
170
     0
171
     0
290
     0
174
     0
 93
       13
 44
0.0
173
     0
291
     1
 45
0.0
1001
ACAD
1000
AcDbSavedByObjectVersion
1070
     0
  0
VISUALSTYLE
  5
2E
102
{ACAD_REACTORS
330
2A
102
}
102
{ACAD_XDICTIONARY
360
278
102
}
330
2A
100
AcDbVisualStyle
  2
GouraudWithEdges
 70
     3
 71
     2
 72
     2
 73
     1
 90
        2
 40
-0.6
 41
30.0
 62
     5
 63
     7
 74
     1
 91
        4
 64
     7
 65
   257
 75
     1
175
     1
 42
1.0
 92
        0
 66
   257
 43
1.0
 76
     1
 77
     6
 78
     2
 67
     7
 79
     5
170
     0
171
     0
290
     0
174
     0
 93
       13
 44
0.0
173
     0
291
     1
 45
0.0
1001
ACAD
1000
AcDbSavedByObjectVersion
1070
     0
  0
VISUALSTYLE
  5
38
102
{ACAD_REACTORS
330
2A
102
}
102
{ACAD_XDICTIONARY
360
28C
102
}
330
2A
100
AcDbVisualStyle
  2
Linepattern
 70
    14
 71
     2
 72
     2
 73
     0
 90
        0
 40
-0.6
 41
-30.0
 62
     5
 63
     7
 74
     1
 91
        4
 64
     7
 65
   257
 75
     7
175
     7
 42
1.0
 92
        8
 66
     7
 43
1.0
 76
     1
 77
     6
 78
     2
 67
     7
 79
     5
170
     0
171
     0
290
     0
174
     0
 93
        1
 44
0.0
173
     0
291
     1
 45
0.0
1001
ACAD
1000
AcDbSavedByObjectVersion
1070
     0
  0
VISUALSTYLE
  5
33
102
{ACAD_REACTORS
330
2A
102
}
102
{ACAD_XDICTIONARY
360
282
102
}
330
2A
100
AcDbVisualStyle
  2
Realistic
 70
     8
 71
     2
 72
     2
 73
     0
 90
        0
 40
-0.6
 41
-30.0
 62
     5
 63
     7
 74
     1
 91
        0
 64
     7
 65
   257
 75
     1
175
     1
 42
1.0
 92
        8
 66
     8
 43
1.0
 76
     1
 77
     6
 78
     2
 67
     7
 79
     5
170
     0
171
     0
290
     0
174
     0
 93
       13
 44
0.0
173
     0
291
     0
 45
0.0
1001
ACAD
1000
AcDbSavedByObjectVersion
1070
     0
  0
VISUALSTYLE
  5
37
102
{ACAD_REACTORS
330
2A
102
}
102
{ACAD_XDICTIONARY
360
28A
102
}
330
2A
100
AcDbVisualStyle
  2
Thicken
 70
    13
 71
     2
 72
     2
 73
     0
 90
        0
 40
-0.6
 41
-30.0
 62
     5
 63
     7
 74
     1
 91
        4
 64
     7
 65
   257
 75
     1
175
     1
 42
1.0
 92
       12
 66
     7
 43
1.0
 76
     1
 77
     6
 78
     2
 67
     7
 79
     5
170
     0
171
     0
290
     0
174
     0
 93
        1
 44
0.0
173
     0
291
     1
 45
0.0
1001
ACAD
1000
AcDbSavedByObjectVersion
1070
     0
  0
DICTIONARYVAR
  5
270
102
{ACAD_REACTORS
330
26D
102
}
330
26D
100
DictionaryVariables
280
     0
  1
2
  0
DICTIONARYVAR
  5
271
102
{ACAD_REACTORS
330
26D
102
}
330
26D
100
DictionaryVariables
280
     0
  1
1
  0
DICTIONARY
  5
294
330
3D
100
AcDbDictionary
280
     1
281
     1
  3
ACAD_XREC_ROUNDTRIP
360
295
  0
DICTIONARY
  5
292
330
3C
100
AcDbDictionary
280
     1
281
     1
  3
ACAD_XREC_ROUNDTRIP
360
293
  0
DICTIONARY
  5
296
330
3E
100
AcDbDictionary
280
     1
281
     1
  3
ACAD_XREC_ROUNDTRIP
360
297
  0
DICTIONARY
  5
27A
330
2F
100
AcDbDictionary
280
     1
281
     1
  3
ACAD_XREC_ROUNDTRIP
360
27B
  0
DICTIONARY
  5
27E
330
31
100
AcDbDictionary
280
     1
281
     1
  3
ACAD_XREC_ROUNDTRIP
360
27F
  0
DICTIONARY
  5
27C
330
30
100
AcDbDictionary
280
     1
281
     1
  3
ACAD_XREC_ROUNDTRIP
360
27D
  0
DICTIONARY
  5
280
330
32
100
AcDbDictionary
280
     1
281
     1
  3
ACAD_XREC_ROUNDTRIP
360
281
  0
DICTIONARY
  5
288
330
36
100
AcDbDictionary
280
     1
281
     1
  3
ACAD_XREC_ROUNDTRIP
360
289
  0
DICTIONARY
  5
290
330
3A
100
AcDbDictionary
280
     1
281
     1
  3
ACAD_XREC_ROUNDTRIP
360
291
  0
DICTIONARY
  5
284
330
34
100
AcDbDictionary
280
     1
281
     1
  3
ACAD_XREC_ROUNDTRIP
360
285
  0
DICTIONARY
  5
286
330
35
100
AcDbDictionary
280
     1
281
     1
  3
ACAD_XREC_ROUNDTRIP
360
287
  0
DICTIONARY
  5
28E
330
39
100
AcDbDictionary
280
     1
281
     1
  3
ACAD_XREC_ROUNDTRIP
360
28F
  0
DICTIONARY
  5
272
330
2B
100
AcDbDictionary
280
     1
281
     1
  3
ACAD_XREC_ROUNDTRIP
360
273
  0
DICTIONARY
  5
274
330
2C
100
AcDbDictionary
280
     1
281
     1
  3
ACAD_XREC_ROUNDTRIP
360
275
  0
DICTIONARY
  5
276
330
2D
100
AcDbDictionary
280
     1
281
     1
  3
ACAD_XREC_ROUNDTRIP
360
277
  0
DICTIONARY
  5
278
330
2E
100
AcDbDictionary
280
     1
281
     1
  3
ACAD_XREC_ROUNDTRIP
360
279
  0
DICTIONARY
  5
28C
330
38
100
AcDbDictionary
280
     1
281
     1
  3
ACAD_XREC_ROUNDTRIP
360
28D
  0
DICTIONARY
  5
282
330
33
100
AcDbDictionary
280
     1
281
     1
  3
ACAD_XREC_ROUNDTRIP
360
283
  0
DICTIONARY
  5
28A
330
37
100
AcDbDictionary
280
     1
281
     1
  3
ACAD_XREC_ROUNDTRIP
360
28B
  0
XRECORD
  5
295
102
{ACAD_REACTORS
330
294
102
}
330
294
100
AcDbXrecord
280
     1
102
MATERIAL
148
0.0
149
0.0
149
0.0
 93
        0
 94
      127
282
     0
 72
     1
 77
     1
171
     1
175
     1
179
     1
273
     0
  0
XRECORD
  5
293
102
{ACAD_REACTORS
330
292
102
}
330
292
100
AcDbXrecord
280
     1
102
MATERIAL
148
0.0
149
0.0
149
0.0
 93
        0
 94
      127
282
     0
 72
     1
 77
     1
171
     1
175
     1
179
     1
273
     0
  0
XRECORD
  5
297
102
{ACAD_REACTORS
330
296
102
}
330
296
100
AcDbXrecord
280
     1
102
MATERIAL
148
0.0
149
0.0
149
0.0
 93
        0
 94
      127
282
     0
 72
     1
 77
     1
171
     1
175
     1
179
     1
273
     0
  0
XRECORD
  5
27B
102
{ACAD_REACTORS
330
27A
102
}
330
27A
100
AcDbXrecord
280
     1
102
RTVSPropertyOp0
 70
     1
102
RTVSPropertyOp1
 70
     1
102
RTVSPropertyOp2
 70
     1
102
RTVSPropertyOp3
 70
     1
102
RTVSPropertyOp4
 70
     1
102
RTVSPropertyOp5
 70
     1
102
RTVSPropertyOp6
 70
     1
102
RTVSPropertyOp7
 70
     1
102
RTVSPropertyOp8
 70
     1
102
RTVSPropertyOp9
 70
     1
102
RTVSPropertyOp10
 70
     1
102
RTVSPropertyOp11
 70
     1
102
RTVSPropertyOp12
 70
     1
102
RTVSPropertyOp13
 70
     1
102
RTVSPropertyOp14
 70
     1
102
RTVSPropertyOp15
 70
     1
102
RTVSPropertyOp16
 70
     1
102
RTVSPropertyOp17
 70
     1
102
RTVSPropertyOp18
 70
     1
102
RTVSPropertyOp19
 70
     1
102
RTVSPropertyOp20
 70
     1
102
RTVSPropertyOp21
 70
     1
102
RTVSPropertyOp22
 70
     1
102
RTVSPropertyOp23
 70
     1
102
RTVSPropertyOp24
 70
     1
102
RTVSPropertyOp25
 70
     1
102
RTVSPropertyOp26
 70
     1
102
RTVSPropertyOp27
 70
     1
102
RTVSPropertyOp28
 70
     1
102
RTVSPropertyOp29
 70
     1
102
RTVSPropertyOp30
 70
     1
102
RTVSPropertyOp31
 70
     1
102
RTVSPropertyOp32
 70
     1
  0
XRECORD
  5
27F
102
{ACAD_REACTORS
330
27E
102
}
330
27E
100
AcDbXrecord
280
     1
102
RTVSPropertyOp0
 70
     1
102
RTVSPropertyOp1
 70
     1
102
RTVSPropertyOp2
 70
     1
102
RTVSPropertyOp3
 70
     1
102
RTVSPropertyOp4
 70
     1
102
RTVSPropertyOp5
 70
     1
102
RTVSPropertyOp6
 70
     1
102
RTVSPropertyOp7
 70
     1
102
RTVSPropertyOp8
 70
     1
102
RTVSPropertyOp9
 70
     1
102
RTVSPropertyOp10
 70
     1
102
RTVSPropertyOp11
 70
     1
102
RTVSPropertyOp12
 70
     1
102
RTVSPropertyOp13
 70
     1
102
RTVSPropertyOp14
 70
     1
102
RTVSPropertyOp15
 70
     1
102
RTVSPropertyOp16
 70
     1
102
RTVSPropertyOp17
 70
     1
102
RTVSPropertyOp18
 70
     1
102
RTVSPropertyOp19
 70
     1
102
RTVSPropertyOp20
 70
     1
102
RTVSPropertyOp21
 70
     1
102
RTVSPropertyOp22
 70
     1
102
RTVSPropertyOp23
 70
     1
102
RTVSPropertyOp24
 70
     1
102
RTVSPropertyOp25
 70
     1
102
RTVSPropertyOp26
 70
     1
102
RTVSPropertyOp27
 70
     1
102
RTVSPropertyOp28
 70
     1
102
RTVSPropertyOp29
 70
     1
102
RTVSPropertyOp30
 70
     1
102
RTVSPropertyOp31
 70
     1
102
RTVSPropertyOp32
 70
     1
  0
XRECORD
  5
27D
102
{ACAD_REACTORS
330
27C
102
}
330
27C
100
AcDbXrecord
280
     1
102
RTVSPropertyOp0
 70
     1
102
RTVSPropertyOp1
 70
     1
102
RTVSPropertyOp2
 70
     1
102
RTVSPropertyOp3
 70
     1
102
RTVSPropertyOp4
 70
     1
102
RTVSPropertyOp5
 70
     1
102
RTVSPropertyOp6
 70
     1
102
RTVSPropertyOp7
 70
     1
102
RTVSPropertyOp8
 70
     1
102
RTVSPropertyOp9
 70
     1
102
RTVSPropertyOp10
 70
     1
102
RTVSPropertyOp11
 70
     1
102
RTVSPropertyOp12
 70
     1
102
RTVSPropertyOp13
 70
     1
102
RTVSPropertyOp14
 70
     1
102
RTVSPropertyOp15
 70
     1
102
RTVSPropertyOp16
 70
     1
102
RTVSPropertyOp17
 70
     1
102
RTVSPropertyOp18
 70
     1
102
RTVSPropertyOp19
 70
     1
102
RTVSPropertyOp20
 70
     1
102
RTVSPropertyOp21
 70
     1
102
RTVSPropertyOp22
 70
     1
102
RTVSPropertyOp23
 70
     1
102
RTVSPropertyOp24
 70
     1
102
RTVSPropertyOp25
 70
     1
102
RTVSPropertyOp26
 70
     1
102
RTVSPropertyOp27
 70
     1
102
RTVSPropertyOp28
 70
     1
102
RTVSPropertyOp29
 70
     1
102
RTVSPropertyOp30
 70
     1
102
RTVSPropertyOp31
 70
     1
102
RTVSPropertyOp32
 70
     1
  0
XRECORD
  5
281
102
{ACAD_REACTORS
330
280
102
}
330
280
100
AcDbXrecord
280
     1
102
RTVSPropertyOp0
 70
     1
102
RTVSPropertyOp1
 70
     1
102
RTVSPropertyOp2
 70
     1
102
RTVSPropertyOp3
 70
     1
102
RTVSPropertyOp4
 70
     1
102
RTVSPropertyOp5
 70
     1
102
RTVSPropertyOp6
 70
     1
102
RTVSPropertyOp7
 70
     1
102
RTVSPropertyOp8
 70
     1
102
RTVSPropertyOp9
 70
     1
102
RTVSPropertyOp10
 70
     1
102
RTVSPropertyOp11
 70
     1
102
RTVSPropertyOp12
 70
     1
102
RTVSPropertyOp13
 70
     1
102
RTVSPropertyOp14
 70
     1
102
RTVSPropertyOp15
 70
     1
102
RTVSPropertyOp16
 70
     1
102
RTVSPropertyOp17
 70
     1
102
RTVSPropertyOp18
 70
     1
102
RTVSPropertyOp19
 70
     1
102
RTVSPropertyOp20
 70
     1
102
RTVSPropertyOp21
 70
     1
102
RTVSPropertyOp22
 70
     1
102
RTVSPropertyOp23
 70
     1
102
RTVSPropertyOp24
 70
     1
102
RTVSPropertyOp25
 70
     1
102
RTVSPropertyOp26
 70
     1
102
RTVSPropertyOp27
 70
     1
102
RTVSPropertyOp28
 70
     1
102
RTVSPropertyOp29
 70
     1
102
RTVSPropertyOp30
 70
     1
102
RTVSPropertyOp31
 70
     1
102
RTVSPropertyOp32
 70
     1
  0
XRECORD
  5
289
102
{ACAD_REACTORS
330
288
102
}
330
288
100
AcDbXrecord
280
     1
102
RTVSPropertyOp0
 70
     1
102
RTVSPropertyOp1
 70
     1
102
RTVSPropertyOp2
 70
     1
102
RTVSPropertyOp3
 70
     1
102
RTVSPropertyOp4
 70
     1
102
RTVSPropertyOp5
 70
     1
102
RTVSPropertyOp6
 70
     1
102
RTVSPropertyOp7
 70
     1
102
RTVSPropertyOp8
 70
     1
102
RTVSPropertyOp9
 70
     1
102
RTVSPropertyOp10
 70
     1
102
RTVSPropertyOp11
 70
     1
102
RTVSPropertyOp12
 70
     1
102
RTVSPropertyOp13
 70
     1
102
RTVSPropertyOp14
 70
     1
102
RTVSPropertyOp15
 70
     1
102
RTVSPropertyOp16
 70
     1
102
RTVSPropertyOp17
 70
     1
102
RTVSPropertyOp18
 70
     1
102
RTVSPropertyOp19
 70
     1
102
RTVSPropertyOp20
 70
     1
102
RTVSPropertyOp21
 70
     1
102
RTVSPropertyOp22
 70
     1
102
RTVSPropertyOp23
 70
     1
102
RTVSPropertyOp24
 70
     1
102
RTVSPropertyOp25
 70
     1
102
RTVSPropertyOp26
 70
     1
102
RTVSPropertyOp27
 70
     1
102
RTVSPropertyOp28
 70
     1
102
RTVSPropertyOp29
 70
     1
102
RTVSPropertyOp30
 70
     1
102
RTVSPropertyOp31
 70
     1
102
RTVSPropertyOp32
 70
     1
  0
XRECORD
  5
291
102
{ACAD_REACTORS
330
290
102
}
330
290
100
AcDbXrecord
280
     1
102
RTVSPropertyOp0
 70
     1
102
RTVSPropertyOp1
 70
     1
102
RTVSPropertyOp2
 70
     1
102
RTVSPropertyOp3
 70
     1
102
RTVSPropertyOp4
 70
     1
102
RTVSPropertyOp5
 70
     1
102
RTVSPropertyOp6
 70
     1
102
RTVSPropertyOp7
 70
     1
102
RTVSPropertyOp8
 70
     1
102
RTVSPropertyOp9
 70
     1
102
RTVSPropertyOp10
 70
     1
102
RTVSPropertyOp11
 70
     1
102
RTVSPropertyOp12
 70
     1
102
RTVSPropertyOp13
 70
     1
102
RTVSPropertyOp14
 70
     1
102
RTVSPropertyOp15
 70
     1
102
RTVSPropertyOp16
 70
     1
102
RTVSPropertyOp17
 70
     1
102
RTVSPropertyOp18
 70
     1
102
RTVSPropertyOp19
 70
     1
102
RTVSPropertyOp20
 70
     1
102
RTVSPropertyOp21
 70
     1
102
RTVSPropertyOp22
 70
     1
102
RTVSPropertyOp23
 70
     1
102
RTVSPropertyOp24
 70
     1
102
RTVSPropertyOp25
 70
     1
102
RTVSPropertyOp26
 70
     1
102
RTVSPropertyOp27
 70
     1
102
RTVSPropertyOp28
 70
     1
102
RTVSPropertyOp29
 70
     1
102
RTVSPropertyOp30
 70
     1
102
RTVSPropertyOp31
 70
     1
102
RTVSPropertyOp32
 70
     1
  0
XRECORD
  5
285
102
{ACAD_REACTORS
330
284
102
}
330
284
100
AcDbXrecord
280
     1
102
RTVSPropertyOp0
 70
     1
102
RTVSPropertyOp1
 70
     1
102
RTVSPropertyOp2
 70
     1
102
RTVSPropertyOp3
 70
     1
102
RTVSPropertyOp4
 70
     1
102
RTVSPropertyOp5
 70
     1
102
RTVSPropertyOp6
 70
     1
102
RTVSPropertyOp7
 70
     1
102
RTVSPropertyOp8
 70
     1
102
RTVSPropertyOp9
 70
     1
102
RTVSPropertyOp10
 70
     1
102
RTVSPropertyOp11
 70
     1
102
RTVSPropertyOp12
 70
     1
102
RTVSPropertyOp13
 70
     1
102
RTVSPropertyOp14
 70
     1
102
RTVSPropertyOp15
 70
     1
102
RTVSPropertyOp16
 70
     1
102
RTVSPropertyOp17
 70
     1
102
RTVSPropertyOp18
 70
     1
102
RTVSPropertyOp19
 70
     1
102
RTVSPropertyOp20
 70
     1
102
RTVSPropertyOp21
 70
     1
102
RTVSPropertyOp22
 70
     1
102
RTVSPropertyOp23
 70
     1
102
RTVSPropertyOp24
 70
     1
102
RTVSPropertyOp25
 70
     1
102
RTVSPropertyOp26
 70
     1
102
RTVSPropertyOp27
 70
     1
102
RTVSPropertyOp28
 70
     1
102
RTVSPropertyOp29
 70
     1
102
RTVSPropertyOp30
 70
     1
102
RTVSPropertyOp31
 70
     1
102
RTVSPropertyOp32
 70
     1
  0
XRECORD
  5
287
102
{ACAD_REACTORS
330
286
102
}
330
286
100
AcDbXrecord
280
     1
102
RTVSPropertyOp0
 70
     1
102
RTVSPropertyOp1
 70
     1
102
RTVSPropertyOp2
 70
     1
102
RTVSPropertyOp3
 70
     1
102
RTVSPropertyOp4
 70
     1
102
RTVSPropertyOp5
 70
     1
102
RTVSPropertyOp6
 70
     1
102
RTVSPropertyOp7
 70
     1
102
RTVSPropertyOp8
 70
     1
102
RTVSPropertyOp9
 70
     1
102
RTVSPropertyOp10
 70
     1
102
RTVSPropertyOp11
 70
     1
102
RTVSPropertyOp12
 70
     1
102
RTVSPropertyOp13
 70
     1
102
RTVSPropertyOp14
 70
     1
102
RTVSPropertyOp15
 70
     1
102
RTVSPropertyOp16
 70
     1
102
RTVSPropertyOp17
 70
     1
102
RTVSPropertyOp18
 70
     1
102
RTVSPropertyOp19
 70
     1
102
RTVSPropertyOp20
 70
     1
102
RTVSPropertyOp21
 70
     1
102
RTVSPropertyOp22
 70
     1
102
RTVSPropertyOp23
 70
     1
102
RTVSPropertyOp24
 70
     1
102
RTVSPropertyOp25
 70
     1
102
RTVSPropertyOp26
 70
     1
102
RTVSPropertyOp27
 70
     1
102
RTVSPropertyOp28
 70
     1
102
RTVSPropertyOp29
 70
     1
102
RTVSPropertyOp30
 70
     1
102
RTVSPropertyOp31
 70
     1
102
RTVSPropertyOp32
 70
     1
  0
XRECORD
  5
28F
102
{ACAD_REACTORS
330
28E
102
}
330
28E
100
AcDbXrecord
280
     1
102
RTVSPropertyOp0
 70
     1
102
RTVSPropertyOp1
 70
     1
102
RTVSPropertyOp2
 70
     1
102
RTVSPropertyOp3
 70
     1
102
RTVSPropertyOp4
 70
     1
102
RTVSPropertyOp5
 70
     1
102
RTVSPropertyOp6
 70
     1
102
RTVSPropertyOp7
 70
     1
102
RTVSPropertyOp8
 70
     1
102
RTVSPropertyOp9
 70
     1
102
RTVSPropertyOp10
 70
     1
102
RTVSPropertyOp11
 70
     1
102
RTVSPropertyOp12
 70
     1
102
RTVSPropertyOp13
 70
     1
102
RTVSPropertyOp14
 70
     1
102
RTVSPropertyOp15
 70
     1
102
RTVSPropertyOp16
 70
     1
102
RTVSPropertyOp17
 70
     1
102
RTVSPropertyOp18
 70
     1
102
RTVSPropertyOp19
 70
     1
102
RTVSPropertyOp20
 70
     1
102
RTVSPropertyOp21
 70
     1
102
RTVSPropertyOp22
 70
     1
102
RTVSPropertyOp23
 70
     1
102
RTVSPropertyOp24
 70
     1
102
RTVSPropertyOp25
 70
     1
102
RTVSPropertyOp26
 70
     1
102
RTVSPropertyOp27
 70
     1
102
RTVSPropertyOp28
 70
     1
102
RTVSPropertyOp29
 70
     1
102
RTVSPropertyOp30
 70
     1
102
RTVSPropertyOp31
 70
     1
102
RTVSPropertyOp32
 70
     1
  0
XRECORD
  5
273
102
{ACAD_REACTORS
330
272
102
}
330
272
100
AcDbXrecord
280
     1
102
RTVSPropertyOp0
 70
     1
102
RTVSPropertyOp1
 70
     1
102
RTVSPropertyOp2
 70
     1
102
RTVSPropertyOp3
 70
     1
102
RTVSPropertyOp4
 70
     1
102
RTVSPropertyOp5
 70
     1
102
RTVSPropertyOp6
 70
     1
102
RTVSPropertyOp7
 70
     1
102
RTVSPropertyOp8
 70
     1
102
RTVSPropertyOp9
 70
     1
102
RTVSPropertyOp10
 70
     1
102
RTVSPropertyOp11
 70
     1
102
RTVSPropertyOp12
 70
     1
102
RTVSPropertyOp13
 70
     1
102
RTVSPropertyOp14
 70
     1
102
RTVSPropertyOp15
 70
     1
102
RTVSPropertyOp16
 70
     1
102
RTVSPropertyOp17
 70
     1
102
RTVSPropertyOp18
 70
     1
102
RTVSPropertyOp19
 70
     1
102
RTVSPropertyOp20
 70
     1
102
RTVSPropertyOp21
 70
     1
102
RTVSPropertyOp22
 70
     1
102
RTVSPropertyOp23
 70
     1
102
RTVSPropertyOp24
 70
     1
102
RTVSPropertyOp25
 70
     1
102
RTVSPropertyOp26
 70
     1
102
RTVSPropertyOp27
 70
     1
102
RTVSPropertyOp28
 70
     1
102
RTVSPropertyOp29
 70
     1
102
RTVSPropertyOp30
 70
     1
102
RTVSPropertyOp31
 70
     1
102
RTVSPropertyOp32
 70
     1
  0
XRECORD
  5
275
102
{ACAD_REACTORS
330
274
102
}
330
274
100
AcDbXrecord
280
     1
102
RTVSPropertyOp0
 70
     1
102
RTVSPropertyOp1
 70
     1
102
RTVSPropertyOp2
 70
     1
102
RTVSPropertyOp3
 70
     1
102
RTVSPropertyOp4
 70
     1
102
RTVSPropertyOp5
 70
     1
102
RTVSPropertyOp6
 70
     1
102
RTVSPropertyOp7
 70
     1
102
RTVSPropertyOp8
 70
     1
102
RTVSPropertyOp9
 70
     1
102
RTVSPropertyOp10
 70
     1
102
RTVSPropertyOp11
 70
     1
102
RTVSPropertyOp12
 70
     1
102
RTVSPropertyOp13
 70
     1
102
RTVSPropertyOp14
 70
     1
102
RTVSPropertyOp15
 70
     1
102
RTVSPropertyOp16
 70
     1
102
RTVSPropertyOp17
 70
     1
102
RTVSPropertyOp18
 70
     1
102
RTVSPropertyOp19
 70
     1
102
RTVSPropertyOp20
 70
     1
102
RTVSPropertyOp21
 70
     1
102
RTVSPropertyOp22
 70
     1
102
RTVSPropertyOp23
 70
     1
102
RTVSPropertyOp24
 70
     1
102
RTVSPropertyOp25
 70
     1
102
RTVSPropertyOp26
 70
     1
102
RTVSPropertyOp27
 70
     1
102
RTVSPropertyOp28
 70
     1
102
RTVSPropertyOp29
 70
     1
102
RTVSPropertyOp30
 70
     1
102
RTVSPropertyOp31
 70
     1
102
RTVSPropertyOp32
 70
     1
  0
XRECORD
  5
277
102
{ACAD_REACTORS
330
276
102
}
330
276
100
AcDbXrecord
280
     1
102
RTVSPropertyOp0
 70
     1
102
RTVSPropertyOp1
 70
     1
102
RTVSPropertyOp2
 70
     1
102
RTVSPropertyOp3
 70
     1
102
RTVSPropertyOp4
 70
     1
102
RTVSPropertyOp5
 70
     1
102
RTVSPropertyOp6
 70
     1
102
RTVSPropertyOp7
 70
     1
102
RTVSPropertyOp8
 70
     1
102
RTVSPropertyOp9
 70
     1
102
RTVSPropertyOp10
 70
     1
102
RTVSPropertyOp11
 70
     1
102
RTVSPropertyOp12
 70
     1
102
RTVSPropertyOp13
 70
     1
102
RTVSPropertyOp14
 70
     1
102
RTVSPropertyOp15
 70
     1
102
RTVSPropertyOp16
 70
     1
102
RTVSPropertyOp17
 70
     1
102
RTVSPropertyOp18
 70
     1
102
RTVSPropertyOp19
 70
     1
102
RTVSPropertyOp20
 70
     1
102
RTVSPropertyOp21
 70
     1
102
RTVSPropertyOp22
 70
     1
102
RTVSPropertyOp23
 70
     1
102
RTVSPropertyOp24
 70
     1
102
RTVSPropertyOp25
 70
     1
102
RTVSPropertyOp26
 70
     1
102
RTVSPropertyOp27
 70
     1
102
RTVSPropertyOp28
 70
     1
102
RTVSPropertyOp29
 70
     1
102
RTVSPropertyOp30
 70
     1
102
RTVSPropertyOp31
 70
     1
102
RTVSPropertyOp32
 70
     1
  0
XRECORD
  5
279
102
{ACAD_REACTORS
330
278
102
}
330
278
100
AcDbXrecord
280
     1
102
RTVSPropertyOp0
 70
     1
102
RTVSPropertyOp1
 70
     1
102
RTVSPropertyOp2
 70
     1
102
RTVSPropertyOp3
 70
     1
102
RTVSPropertyOp4
 70
     1
102
RTVSPropertyOp5
 70
     1
102
RTVSPropertyOp6
 70
     1
102
RTVSPropertyOp7
 70
     1
102
RTVSPropertyOp8
 70
     1
102
RTVSPropertyOp9
 70
     1
102
RTVSPropertyOp10
 70
     1
102
RTVSPropertyOp11
 70
     1
102
RTVSPropertyOp12
 70
     1
102
RTVSPropertyOp13
 70
     1
102
RTVSPropertyOp14
 70
     1
102
RTVSPropertyOp15
 70
     1
102
RTVSPropertyOp16
 70
     1
102
RTVSPropertyOp17
 70
     1
102
RTVSPropertyOp18
 70
     1
102
RTVSPropertyOp19
 70
     1
102
RTVSPropertyOp20
 70
     1
102
RTVSPropertyOp21
 70
     1
102
RTVSPropertyOp22
 70
     1
102
RTVSPropertyOp23
 70
     1
102
RTVSPropertyOp24
 70
     1
102
RTVSPropertyOp25
 70
     1
102
RTVSPropertyOp26
 70
     1
102
RTVSPropertyOp27
 70
     1
102
RTVSPropertyOp28
 70
     1
102
RTVSPropertyOp29
 70
     1
102
RTVSPropertyOp30
 70
     1
102
RTVSPropertyOp31
 70
     1
102
RTVSPropertyOp32
 70
     1
  0
XRECORD
  5
28D
102
{ACAD_REACTORS
330
28C
102
}
330
28C
100
AcDbXrecord
280
     1
102
RTVSPropertyOp0
 70
     1
102
RTVSPropertyOp1
 70
     1
102
RTVSPropertyOp2
 70
     1
102
RTVSPropertyOp3
 70
     1
102
RTVSPropertyOp4
 70
     1
102
RTVSPropertyOp5
 70
     1
102
RTVSPropertyOp6
 70
     1
102
RTVSPropertyOp7
 70
     1
102
RTVSPropertyOp8
 70
     1
102
RTVSPropertyOp9
 70
     1
102
RTVSPropertyOp10
 70
     1
102
RTVSPropertyOp11
 70
     1
102
RTVSPropertyOp12
 70
     1
102
RTVSPropertyOp13
 70
     1
102
RTVSPropertyOp14
 70
     1
102
RTVSPropertyOp15
 70
     1
102
RTVSPropertyOp16
 70
     1
102
RTVSPropertyOp17
 70
     1
102
RTVSPropertyOp18
 70
     1
102
RTVSPropertyOp19
 70
     1
102
RTVSPropertyOp20
 70
     1
102
RTVSPropertyOp21
 70
     1
102
RTVSPropertyOp22
 70
     1
102
RTVSPropertyOp23
 70
     1
102
RTVSPropertyOp24
 70
     1
102
RTVSPropertyOp25
 70
     1
102
RTVSPropertyOp26
 70
     1
102
RTVSPropertyOp27
 70
     1
102
RTVSPropertyOp28
 70
     1
102
RTVSPropertyOp29
 70
     1
102
RTVSPropertyOp30
 70
     1
102
RTVSPropertyOp31
 70
     1
102
RTVSPropertyOp32
 70
     1
  0
XRECORD
  5
283
102
{ACAD_REACTORS
330
282
102
}
330
282
100
AcDbXrecord
280
     1
102
RTVSPropertyOp0
 70
     1
102
RTVSPropertyOp1
 70
     1
102
RTVSPropertyOp2
 70
     1
102
RTVSPropertyOp3
 70
     1
102
RTVSPropertyOp4
 70
     1
102
RTVSPropertyOp5
 70
     1
102
RTVSPropertyOp6
 70
     1
102
RTVSPropertyOp7
 70
     1
102
RTVSPropertyOp8
 70
     1
102
RTVSPropertyOp9
 70
     1
102
RTVSPropertyOp10
 70
     1
102
RTVSPropertyOp11
 70
     1
102
RTVSPropertyOp12
 70
     1
102
RTVSPropertyOp13
 70
     1
102
RTVSPropertyOp14
 70
     1
102
RTVSPropertyOp15
 70
     1
102
RTVSPropertyOp16
 70
     1
102
RTVSPropertyOp17
 70
     1
102
RTVSPropertyOp18
 70
     1
102
RTVSPropertyOp19
 70
     1
102
RTVSPropertyOp20
 70
     1
102
RTVSPropertyOp21
 70
     1
102
RTVSPropertyOp22
 70
     1
102
RTVSPropertyOp23
 70
     1
102
RTVSPropertyOp24
 70
     1
102
RTVSPropertyOp25
 70
     1
102
RTVSPropertyOp26
 70
     1
102
RTVSPropertyOp27
 70
     1
102
RTVSPropertyOp28
 70
     1
102
RTVSPropertyOp29
 70
     1
102
RTVSPropertyOp30
 70
     1
102
RTVSPropertyOp31
 70
     1
102
RTVSPropertyOp32
 70
     1
  0
XRECORD
  5
28B
102
{ACAD_REACTORS
330
28A
102
}
330
28A
100
AcDbXrecord
280
     1
102
RTVSPropertyOp0
 70
     1
102
RTVSPropertyOp1
 70
     1
102
RTVSPropertyOp2
 70
     1
102
RTVSPropertyOp3
 70
     1
102
RTVSPropertyOp4
 70
     1
102
RTVSPropertyOp5
 70
     1
102
RTVSPropertyOp6
 70
     1
102
RTVSPropertyOp7
 70
     1
102
RTVSPropertyOp8
 70
     1
102
RTVSPropertyOp9
 70
     1
102
RTVSPropertyOp10
 70
     1
102
RTVSPropertyOp11
 70
     1
102
RTVSPropertyOp12
 70
     1
102
RTVSPropertyOp13
 70
     1
102
RTVSPropertyOp14
 70
     1
102
RTVSPropertyOp15
 70
     1
102
RTVSPropertyOp16
 70
     1
102
RTVSPropertyOp17
 70
     1
102
RTVSPropertyOp18
 70
     1
102
RTVSPropertyOp19
 70
     1
102
RTVSPropertyOp20
 70
     1
102
RTVSPropertyOp21
 70
     1
102
RTVSPropertyOp22
 70
     1
102
RTVSPropertyOp23
 70
     1
102
RTVSPropertyOp24
 70
     1
102
RTVSPropertyOp25
 70
     1
102
RTVSPropertyOp26
 70
     1
102
RTVSPropertyOp27
 70
     1
102
RTVSPropertyOp28
 70
     1
102
RTVSPropertyOp29
 70
     1
102
RTVSPropertyOp30
 70
     1
102
RTVSPropertyOp31
 70
     1
102
RTVSPropertyOp32
 70
     1
  0
ENDSEC
  0
EOF
