  0
SECTION
  2
HEADER
  9
$ACADVER
  1
AC1015
  9
$ACADMAINTVER
 70
     6
  9
$DWGCODEPAGE
  3
DOS932
  9
$INSBASE
 10
0.0
 20
0.0
 30
0.0
  9
$EXTMIN
 10
0.0
 20
0.0
 30
0.0
  9
$EXTMAX
 10
525.0
 20
742.5
 30
0.0
  9
$LIMMIN
 10
0.0
 20
0.0
  9
$LIMMAX
 10
12.0
 20
9.0
  9
$ORTHOMODE
 70
     0
  9
$REGENMODE
 70
     1
  9
$FILLMODE
 70
     1
  9
$QTEXTMODE
 70
     0
  9
$MIRRTEXT
 70
     1
  9
$LTSCALE
 40
1.0
  9
$ATTMODE
 70
     1
  9
$TEXTSIZE
 40
0.2
  9
$TRACEWID
 40
0.05
  9
$TEXTSTYLE
  7
Standard
  9
$CLAYER
  8
0
  9
$CELTYPE
  6
ByLayer
  9
$CECOLOR
 62
   256
  9
$CELTSCALE
 40
1.0
  9
$DISPSILH
 70
     0
  9
$DIMSCALE
 40
1.0
  9
$DIMASZ
 40
0.18
  9
$DIMEXO
 40
0.0625
  9
$DIMDLI
 40
0.38
  9
$DIMRND
 40
0.0
  9
$DIMDLE
 40
0.0
  9
$DIMEXE
 40
0.18
  9
$DIMTP
 40
0.0
  9
$DIMTM
 40
0.0
  9
$DIMTXT
 40
0.18
  9
$DIMCEN
 40
0.09
  9
$DIMTSZ
 40
0.0
  9
$DIMTOL
 70
     0
  9
$DIMLIM
 70
     0
  9
$DIMTIH
 70
     1
  9
$DIMTOH
 70
     1
  9
$DIMSE1
 70
     0
  9
$DIMSE2
 70
     0
  9
$DIMTAD
 70
     0
  9
$DIMZIN
 70
     0
  9
$DIMBLK
  1

  9
$DIMASO
 70
     1
  9
$DIMSHO
 70
     1
  9
$DIMPOST
  1

  9
$DIMAPOST
  1

  9
$DIMALT
 70
     0
  9
$DIMALTD
 70
     2
  9
$DIMALTF
 40
25.4
  9
$DIMLFAC
 40
1.0
  9
$DIMTOFL
 70
     0
  9
$DIMTVP
 40
0.0
  9
$DIMTIX
 70
     0
  9
$DIMSOXD
 70
     0
  9
$DIMSAH
 70
     0
  9
$DIMBLK1
  1

  9
$DIMBLK2
  1

  9
$DIMSTYLE
  2
Standard
  9
$DIMCLRD
 70
     0
  9
$DIMCLRE
 70
     0
  9
$DIMCLRT
 70
     0
  9
$DIMTFAC
 40
1.0
  9
$DIMGAP
 40
0.09
  9
$DIMJUST
 70
     0
  9
$DIMSD1
 70
     0
  9
$DIMSD2
 70
     0
  9
$DIMTOLJ
 70
     1
  9
$DIMTZIN
 70
     0
  9
$DIMALTZ
 70
     0
  9
$DIMALTTZ
 70
     0
  9
$DIMUPT
 70
     0
  9
$DIMDEC
 70
     4
  9
$DIMTDEC
 70
     4
  9
$DIMALTU
 70
     2
  9
$DIMALTTD
 70
     2
  9
$DIMTXSTY
  7
Standard
  9
$DIMAUNIT
 70
     0
  9
$DIMADEC
 70
     0
  9
$DIMALTRND
 40
0.0
  9
$DIMAZIN
 70
     0
  9
$DIMDSEP
 70
    46
  9
$DIMATFIT
 70
     3
  9
$DIMFRAC
 70
     0
  9
$DIMLDRBLK
  1

  9
$DIMLUNIT
 70
     2
  9
$DIMLWD
 70
    -2
  9
$DIMLWE
 70
    -2
  9
$DIMTMOVE
 70
     0
  9
$LUNITS
 70
     2
  9
$LUPREC
 70
     4
  9
$SKETCHINC
 40
0.1
  9
$FILLETRAD
 40
0.5
  9
$AUNITS
 70
     0
  9
$AUPREC
 70
     0
  9
$MENU
  1
.
  9
$ELEVATION
 40
0.0
  9
$PELEVATION
 40
0.0
  9
$THICKNESS
 40
0.0
  9
$LIMCHECK
 70
     0
  9
$CHAMFERA
 40
0.5
  9
$CHAMFERB
 40
0.5
  9
$CHAMFERC
 40
1.0
  9
$CHAMFERD
 40
0.0
  9
$SKPOLY
 70
     0
  9
$TDCREATE
 40
2456140.55185221
  9
$TDUCREATE
 40
2456140.17685221
  9
$TDUPDATE
 40
2456140.551852222
  9
$TDUUPDATE
 40
2456140.176852222
  9
$TDINDWG
 40
0.0000000116
  9
$TDUSRTIMER
 40
0.0000000116
  9
$USRTIMER
 70
     1
  9
$ANGBASE
 50
0.0
  9
$ANGDIR
 70
     0
  9
$PDMODE
 70
     0
  9
$PDSIZE
 40
0.0
  9
$PLINEWID
 40
0.0
  9
$SPLFRAME
 70
     0
  9
$SPLINETYPE
 70
     6
  9
$SPLINESEGS
 70
     8
  9
$HANDSEED
  5
3E8
  9
$SURFTAB1
 70
     6
  9
$SURFTAB2
 70
     6
  9
$SURFTYPE
 70
     6
  9
$SURFU
 70
     6
  9
$SURFV
 70
     6
  9
$UCSBASE
  2

  9
$UCSNAME
  2

  9
$UCSORG
 10
0.0
 20
0.0
 30
0.0
  9
$UCSXDIR
 10
1.0
 20
0.0
 30
0.0
  9
$UCSYDIR
 10
0.0
 20
1.0
 30
0.0
  9
$UCSORTHOREF
  2

  9
$UCSORTHOVIEW
 70
     0
  9
$UCSORGTOP
 10
0.0
 20
0.0
 30
0.0
  9
$UCSORGBOTTOM
 10
0.0
 20
0.0
 30
0.0
  9
$UCSORGLEFT
 10
0.0
 20
0.0
 30
0.0
  9
$UCSORGRIGHT
 10
0.0
 20
0.0
 30
0.0
  9
$UCSORGFRONT
 10
0.0
 20
0.0
 30
0.0
  9
$UCSORGBACK
 10
0.0
 20
0.0
 30
0.0
  9
$PUCSBASE
  2

  9
$PUCSNAME
  2

  9
$PUCSORG
 10
0.0
 20
0.0
 30
0.0
  9
$PUCSXDIR
 10
1.0
 20
0.0
 30
0.0
  9
$PUCSYDIR
 10
0.0
 20
1.0
 30
0.0
  9
$PUCSORTHOREF
  2

  9
$PUCSORTHOVIEW
 70
     0
  9
$PUCSORGTOP
 10
0.0
 20
0.0
 30
0.0
  9
$PUCSORGBOTTOM
 10
0.0
 20
0.0
 30
0.0
  9
$PUCSORGLEFT
 10
0.0
 20
0.0
 30
0.0
  9
$PUCSORGRIGHT
 10
0.0
 20
0.0
 30
0.0
  9
$PUCSORGFRONT
 10
0.0
 20
0.0
 30
0.0
  9
$PUCSORGBACK
 10
0.0
 20
0.0
 30
0.0
  9
$USERI1
 70
     0
  9
$USERI2
 70
     0
  9
$USERI3
 70
     0
  9
$USERI4
 70
     0
  9
$USERI5
 70
     0
  9
$USERR1
 40
13.2
  9
$USERR2
 40
0.0
  9
$USERR3
 40
0.0
  9
$USERR4
 40
0.0
  9
$USERR5
 40
0.0
  9
$WORLDVIEW
 70
     1
  9
$SHADEDGE
 70
     3
  9
$SHADEDIF
 70
    70
  9
$TILEMODE
 70
     1
  9
$MAXACTVP
 70
    64
  9
$PINSBASE
 10
0.0
 20
0.0
 30
0.0
  9
$PLIMCHECK
 70
     0
  9
$PEXTMIN
 10
1.00000000000000E+20
 20
1.00000000000000E+20
 30
1.00000000000000E+20
  9
$PEXTMAX
 10
-1.00000000000000E+20
 20
-1.00000000000000E+20
 30
-1.00000000000000E+20
  9
$PLIMMIN
 10
0.0
 20
0.0
  9
$PLIMMAX
 10
12.0
 20
9.0
  9
$UNITMODE
 70
     0
  9
$VISRETAIN
 70
     1
  9
$PLINEGEN
 70
     0
  9
$PSLTSCALE
 70
     1
  9
$TREEDEPTH
 70
  3020
  9
$CMLSTYLE
  2
Standard
  9
$CMLJUST
 70
     0
  9
$CMLSCALE
 40
1.0
  9
$PROXYGRAPHICS
 70
     1
  9
$MEASUREMENT
 70
     1
  9
$CELWEIGHT
370
    -1
  9
$ENDCAPS
280
     0
  9
$JOINSTYLE
280
     0
  9
$LWDISPLAY
290
     0
  9
$INSUNITS
 70
     1
  9
$HYPERLINKBASE
  1

  9
$STYLESHEET
  1

  9
$XEDIT
290
     1
  9
$CEPSNTYPE
380
     0
  9
$PSTYLEMODE
290
     0
  9
$FINGERPRINTGUID
  2
{FAEB1C30-E019-11D5-929B-00C0DF256EC4}
  9
$VERSIONGUID
  2
{FAEB1C32-E019-11D5-929B-00C0DF256EC4}
  9
$EXTNAMES
290
     1
  9
$PSVPSCALE
 40
0.0
  9
$OLESTARTUP
290
     0
  0
ENDSEC
  0
SECTION
  2
CLASSES
  0
CLASS
  1
ACDBDICTIONARYWDFLT
  2
AcDbDictionaryWithDefault
  3
ObjectDBX Classes
 90
        0
280
     0
281
     0
  0
CLASS
  1
TABLESTYLE
  2
AcDbTableStyle
  3
ObjectDBX Classes
 90
     2047
280
     0
281
     0
  0
CLASS
  1
DICTIONARYVAR
  2
AcDbDictionaryVar
  3
ObjectDBX Classes
 90
        0
280
     0
281
     0
  0
CLASS
  1

  2
exOdDbCircle
  3

 90
        0
280
     0
281
     1
  0
CLASS
  1

  2
exOdDbSpline
  3

 90
        0
280
     0
281
     1
  0
CLASS
  1
ACDBPLACEHOLDER
  2
AcDbPlaceHolder
  3
ObjectDBX Classes
 90
        0
280
     0
281
     0
  0
CLASS
  1
LAYOUT
  2
AcDbLayout
  3
ObjectDBX Classes
 90
        0
280
     0
281
     0
  0
ENDSEC
  0
SECTION
  2
TABLES
  0
TABLE
  2
VPORT
  5
8
330
0
100
AcDbSymbolTable
 70
     2
  0
VPORT
  5
29
330
8
100
AcDbSymbolTableRecord
100
AcDbViewportTableRecord
  2
*Active
 70
     0
 10
0.0
 20
0.0
 11
1.0
 21
1.0
 12
262.5
 22
371.25
 13
0.0
 23
0.0
 14
0.5
 24
0.5
 15
0.5
 25
0.5
 16
0.0
 26
0.0
 36
1.0
 17
0.0
 27
0.0
 37
0.0
 40
816.7500000000001
 41
1.60267857142857
 42
50.0
 43
0.0
 44
0.0
 50
0.0
 51
0.0
 71
     0
 72
   100
 73
     1
 74
     3
 75
     0
 76
     0
 77
     0
 78
     0
281
     0
 65
     1
110
0.0
120
0.0
130
0.0
111
1.0
121
0.0
131
0.0
112
0.0
122
1.0
132
0.0
 79
     0
146
0.0
  0
ENDTAB
  0
TABLE
  2
LTYPE
  5
5
330
0
100
AcDbSymbolTable
 70
     8
  0
LTYPE
  5
14
330
5
100
AcDbSymbolTableRecord
100
AcDbLinetypeTableRecord
  2
ByBlock
 70
     0
  3

 72
    65
 73
     0
 40
0.0
  0
LTYPE
  5
15
330
5
100
AcDbSymbolTableRecord
100
AcDbLinetypeTableRecord
  2
ByLayer
 70
     0
  3

 72
    65
 73
     0
 40
0.0
  0
LTYPE
  5
16
330
5
100
AcDbSymbolTableRecord
100
AcDbLinetypeTableRecord
  2
Continuous
 70
     0
  3
Solid line
 72
    65
 73
     0
 40
0.0
  0
LTYPE
  5
2E
330
5
100
AcDbSymbolTableRecord
100
AcDbLinetypeTableRecord
  2
DASHED
 70
     0
  3
Dashed
 72
    65
 73
     2
 40
15.0
 49
7.0
 74
     0
 49
-8.0
 74
     0
  0
LTYPE
  5
2F
330
5
100
AcDbSymbolTableRecord
100
AcDbLinetypeTableRecord
  2
DOTTED
 70
     0
  3
Dotted
 72
    65
 73
     2
 40
1.0
 49
0.0
 74
     0
 49
-1.0
 74
     0
  0
LTYPE
  5
30
330
5
100
AcDbSymbolTableRecord
100
AcDbLinetypeTableRecord
  2
DOT_CENTER
 70
     0
  3
Dot_Center
 72
    65
 73
     4
 40
14.0
 49
12.0
 74
     0
 49
-1.0
 74
     0
 49
0.0
 74
     0
 49
-1.0
 74
     0
  0
LTYPE
  5
31
330
5
100
AcDbSymbolTableRecord
100
AcDbLinetypeTableRecord
  2
LONG_DASHED
 70
     0
  3
Long_Dashed
 72
    65
 73
     2
 40
15.0
 49
10.0
 74
     0
 49
-5.0
 74
     0
  0
LTYPE
  5
32
330
5
100
AcDbSymbolTableRecord
100
AcDbLinetypeTableRecord
  2
DASH_CENTER
 70
     0
  3
Dash_Center
 72
    65
 73
     4
 40
14.0
 49
11.0
 74
     0
 49
-1.0
 74
     0
 49
1.0
 74
     0
 49
-1.0
 74
     0
  0
LTYPE
  5
33
330
5
100
AcDbSymbolTableRecord
100
AcDbLinetypeTableRecord
  2
PHANTOM
 70
     0
  3
Phantom
 72
    65
 73
     6
 40
13.0
 49
10.0
 74
     0
 49
-1.0
 74
     0
 49
0.0
 74
     0
 49
-1.0
 74
     0
 49
0.0
 74
     0
 49
-1.0
 74
     0
  0
LTYPE
  5
34
330
5
100
AcDbSymbolTableRecord
100
AcDbLinetypeTableRecord
  2
CENTER_DASH_DASH
 70
     0
  3
Center_Dash_Dash
 72
    65
 73
     6
 40
14.0
 49
9.0
 74
     0
 49
-1.0
 74
     0
 49
1.0
 74
     0
 49
-1.0
 74
     0
 49
1.0
 74
     0
 49
-1.0
 74
     0
  0
ENDTAB
  0
TABLE
  2
LAYER
  5
2
330
0
100
AcDbSymbolTable
 70
     2
  0
LAYER
  5
10
330
2
100
AcDbSymbolTableRecord
100
AcDbLayerTableRecord
  2
0
 70
     0
 62
     7
  6
Continuous
370
    -3
390
F
  0
LAYER
  5
35
330
2
100
AcDbSymbolTableRecord
100
AcDbLayerTableRecord
  2
1
 70
     0
 62
     7
  6
Continuous
370
    -3
390
F
  0
ENDTAB
  0
TABLE
  2
STYLE
  5
3
330
0
100
AcDbSymbolTable
 70
     3
  0
STYLE
  5
11
330
3
100
AcDbSymbolTableRecord
100
AcDbTextStyleTableRecord
  2
Standard
 70
     0
 40
0.0
 41
1.0
 50
0.0
 71
     0
 42
0.2
  3
txt
  4

  0
STYLE
  5
10B
330
3
100
AcDbSymbolTableRecord
100
AcDbTextStyleTableRecord
  2
CONVERTER_1
 70
     0
 40
0.0
 41
0.89
 50
0.0
 71
     0
 42
0.2
  3
msmincho.ttc
  4

1001
ACAD
1000
MS Mincho
1071
    32785
  0
STYLE
  5
38B
330
3
100
AcDbSymbolTableRecord
100
AcDbTextStyleTableRecord
  2
CONVERTER_2
 70
     0
 40
0.0
 41
0.9
 50
0.0
 71
     0
 42
0.2
  3
txt.shx
  4

  0
ENDTAB
  0
TABLE
  2
VIEW
  5
6
330
0
100
AcDbSymbolTable
 70
     0
  0
ENDTAB
  0
TABLE
  2
UCS
  5
7
330
0
100
AcDbSymbolTable
 70
     0
  0
ENDTAB
  0
TABLE
  2
APPID
  5
9
330
0
100
AcDbSymbolTable
 70
     1
  0
APPID
  5
12
330
9
100
AcDbSymbolTableRecord
100
AcDbRegAppTableRecord
  2
ACAD
 70
     0
  0
ENDTAB
  0
TABLE
  2
DIMSTYLE
  5
A
330
0
100
AcDbSymbolTable
 70
     8
100
AcDbDimStyleTable
  0
DIMSTYLE
105
27
330
A
100
AcDbSymbolTableRecord
100
AcDbDimStyleTableRecord
  2
Standard
 70
     0
340
11
  0
DIMSTYLE
105
3A1
102
{ACAD_REACTORS
330
3A2
102
}
330
A
100
AcDbSymbolTableRecord
100
AcDbDimStyleTableRecord
  2
ME10_DIM_0
 70
     0
  3
{\Fgdt;n}<>
 41
8.75
 42
0.0
 44
2.5
 73
     0
 74
     0
 77
     1
 78
     8
140
8.75
147
0.625
172
     1
173
     1
176
     2
177
     2
178
     7
271
     2
340
38B
  0
DIMSTYLE
105
3AC
102
{ACAD_REACTORS
330
3AD
102
}
330
A
100
AcDbSymbolTableRecord
100
AcDbDimStyleTableRecord
  2
ME10_DIM_1
 70
     0
 41
8.75
 42
0.0
 44
2.5
 73
     0
 74
     0
 77
     1
 78
     8
140
8.75
147
0.625
172
     1
173
     1
176
     2
177
     2
178
     7
271
     0
340
10B
  0
DIMSTYLE
105
3B7
102
{ACAD_REACTORS
330
3B8
102
}
330
A
100
AcDbSymbolTableRecord
100
AcDbDimStyleTableRecord
  2
ME10_DIM_2
 70
     0
 41
8.75
 42
0.0
 44
2.5
 73
     0
 74
     0
 77
     1
 78
     8
140
8.75
147
0.625
172
     1
173
     1
176
     2
177
     2
178
     7
271
     2
340
38B
  0
DIMSTYLE
105
3C5
102
{ACAD_REACTORS
330
3C6
102
}
330
A
100
AcDbSymbolTableRecord
100
AcDbDimStyleTableRecord
  2
ME10_DIM_3
 70
     0
 41
8.75
 42
0.0
 44
2.5
 73
     0
 74
     0
 77
     1
 78
     8
140
8.75
147
0.625
172
     1
173
     1
176
     2
177
     2
178
     7
271
     0
340
38B
344
3C2
  0
DIMSTYLE
105
3D0
102
{ACAD_REACTORS
330
3D1
102
}
330
A
100
AcDbSymbolTableRecord
100
AcDbDimStyleTableRecord
  2
ME10_DIM_4
 70
     0
 41
8.75
 42
0.0
 44
2.5
 73
     0
 74
     0
 77
     1
 78
     8
140
8.75
147
0.625
172
     1
173
     1
176
     2
177
     2
178
     7
271
     0
340
38B
  0
DIMSTYLE
105
3DB
102
{ACAD_REACTORS
330
3DC
102
}
330
A
100
AcDbSymbolTableRecord
100
AcDbDimStyleTableRecord
  2
ME10_DIM_5
 70
     0
 41
8.75
 42
0.0
 44
2.5
 73
     0
 74
     0
 77
     1
 78
     8
140
8.75
147
0.625
172
     1
173
     1
176
     2
177
     2
178
     7
271
     2
340
38B
  0
DIMSTYLE
105
3E6
102
{ACAD_REACTORS
330
3E7
102
}
330
A
100
AcDbSymbolTableRecord
100
AcDbDimStyleTableRecord
  2
ME10_DIM_6
 70
     0
 41
8.75
 42
0.0
 44
2.5
 73
     0
 74
     0
 77
     1
 78
     8
140
8.75
147
0.625
172
     1
173
     1
176
     2
177
     2
178
     7
271
     2
340
38B
  0
ENDTAB
  0
TABLE
  2
BLOCK_RECORD
  5
1
330
0
100
AcDbSymbolTable
 70
    19
  0
BLOCK_RECORD
  5
1F
330
1
100
AcDbSymbolTableRecord
100
AcDbBlockTableRecord
  2
*Model_Space
340
22
  0
BLOCK_RECORD
  5
1B
330
1
100
AcDbSymbolTableRecord
100
AcDbBlockTableRecord
  2
*Paper_Space
340
1E
  0
BLOCK_RECORD
  5
23
330
1
100
AcDbSymbolTableRecord
100
AcDbBlockTableRecord
  2
*Paper_Space0
340
26
  0
BLOCK_RECORD
  5
36
330
1
100
AcDbSymbolTableRecord
100
AcDbBlockTableRecord
  2
A10-0A-13
340
0
102
{BLKREFS
331
5A
102
}
  0
BLOCK_RECORD
  5
39
330
1
100
AcDbSymbolTableRecord
100
AcDbBlockTableRecord
  2
_J__A4
340
0
102
{BLKREFS
331
5B
102
}
  0
BLOCK_RECORD
  5
3C
330
1
100
AcDbSymbolTableRecord
100
AcDbBlockTableRecord
  2
84-35
340
0
102
{BLKREFS
331
43
102
}
  0
BLOCK_RECORD
  5
3F
330
1
100
AcDbSymbolTableRecord
100
AcDbBlockTableRecord
  2
84-34-M21
340
0
102
{BLKREFS
331
44
102
}
  0
BLOCK_RECORD
  5
42
330
1
100
AcDbSymbolTableRecord
100
AcDbBlockTableRecord
  2
84-34X
340
0
102
{BLKREFS
331
4B
102
}
  0
BLOCK_RECORD
  5
47
330
1
100
AcDbSymbolTableRecord
100
AcDbBlockTableRecord
  2
81-8
340
0
102
{BLKREFS
331
4C
102
}
  0
BLOCK_RECORD
  5
4A
330
1
100
AcDbSymbolTableRecord
100
AcDbBlockTableRecord
  2
81-8-3CWC
340
0
102
{BLKREFS
331
5C
102
}
  0
BLOCK_RECORD
  5
4F
330
1
100
AcDbSymbolTableRecord
100
AcDbBlockTableRecord
  2
32-1-16
340
0
102
{BLKREFS
331
56
102
}
  0
BLOCK_RECORD
  5
52
330
1
100
AcDbSymbolTableRecord
100
AcDbBlockTableRecord
  2
60-1-16-170
340
0
102
{BLKREFS
331
57
102
}
  0
BLOCK_RECORD
  5
55
330
1
100
AcDbSymbolTableRecord
100
AcDbBlockTableRecord
  2
60-1X-16-170
340
0
102
{BLKREFS
331
5D
102
}
  0
BLOCK_RECORD
  5
398
330
1
100
AcDbSymbolTableRecord
100
AcDbBlockTableRecord
  2
*D011
340
0
  0
BLOCK_RECORD
  5
3A3
330
1
100
AcDbSymbolTableRecord
100
AcDbBlockTableRecord
  2
*D112
340
0
  0
BLOCK_RECORD
  5
3AE
330
1
100
AcDbSymbolTableRecord
100
AcDbBlockTableRecord
  2
*D213
340
0
  0
BLOCK_RECORD
  5
3B9
330
1
100
AcDbSymbolTableRecord
100
AcDbBlockTableRecord
  2
*D314
340
0
  0
BLOCK_RECORD
  5
3C2
330
1
100
AcDbSymbolTableRecord
100
AcDbBlockTableRecord
  2
_None
340
0
  0
BLOCK_RECORD
  5
3C7
330
1
100
AcDbSymbolTableRecord
100
AcDbBlockTableRecord
  2
*D416
340
0
  0
BLOCK_RECORD
  5
3D2
330
1
100
AcDbSymbolTableRecord
100
AcDbBlockTableRecord
  2
*D517
340
0
  0
BLOCK_RECORD
  5
3DD
330
1
100
AcDbSymbolTableRecord
100
AcDbBlockTableRecord
  2
*D618
340
0
  0
ENDTAB
  0
ENDSEC
  0
SECTION
  2
BLOCKS
  0
BLOCK
  5
20
330
1F
100
AcDbEntity
  8
0
100
AcDbBlockBegin
  2
*Model_Space
 70
     0
 71
     0
 10
0.0
 20
0.0
 30
0.0
  3
*Model_Space
  1

  0
ENDBLK
  5
21
330
1F
100
AcDbEntity
  8
0
100
AcDbBlockEnd
  0
BLOCK
  5
1C
330
1B
100
AcDbEntity
 67
     1
  8
0
100
AcDbBlockBegin
  2
*Paper_Space
 70
     0
 71
     0
 10
0.0
 20
0.0
 30
0.0
  3
*Paper_Space
  1

  0
ENDBLK
  5
1D
330
1B
100
AcDbEntity
 67
     1
  8
0
100
AcDbBlockEnd
  0
BLOCK
  5
24
330
23
100
AcDbEntity
  8
0
100
AcDbBlockBegin
  2
*Paper_Space0
 70
     0
 71
     0
 10
0.0
 20
0.0
 30
0.0
  3
*Paper_Space0
  1

  0
ENDBLK
  5
25
330
23
100
AcDbEntity
  8
0
100
AcDbBlockEnd
  0
BLOCK
  5
37
330
36
100
AcDbEntity
  8
0
100
AcDbBlockBegin
  2
A10-0A-13
 70
     0
 71
     0
 10
387.637979683973
 20
262.1915914221216
 30
0.0
  3
A10-0A-13
  1

  0
LINE
  5
5E
330
36
100
AcDbEntity
  8
1
  6
Continuous
 62
     7
100
AcDbLine
 10
135.9766764958648
 20
282.4915914221215
 30
0.0
 11
136.6216153885092
 21
262.1760163038442
 31
0.0
  0
LINE
  5
5F
330
36
100
AcDbEntity
  8
1
  6
Continuous
 62
     7
100
AcDbLine
 10
446.637979683973
 20
252.6915914221217
 30
0.0
 11
446.637979683973
 21
271.6915914221216
 31
0.0
  0
LINE
  5
60
330
36
100
AcDbEntity
  8
1
  6
Continuous
 62
     7
100
AcDbLine
 10
339.6379796839727
 20
246.4236422296905
 30
0.0
 11
339.6379796839727
 21
246.5515364774816
 31
0.0
  0
LINE
  5
61
330
36
100
AcDbEntity
  8
1
  6
Continuous
 62
     2
100
AcDbLine
 10
340.6379796839727
 20
243.191591422122
 30
0.0
 11
340.6379796839727
 21
244.6915914221217
 31
0.0
  0
LINE
  5
62
330
36
100
AcDbEntity
  8
1
  6
Continuous
 62
     2
100
AcDbLine
 10
364.6379796839727
 20
244.6915914221217
 30
0.0
 11
364.6379796839727
 21
243.191591422122
 31
0.0
  0
LINE
  5
63
330
36
100
AcDbEntity
  8
1
  6
Continuous
 62
     2
100
AcDbLine
 10
364.6379796839727
 20
244.6915914221217
 30
0.0
 11
365.6379796839727
 21
246.4236422296906
 31
0.0
  0
LINE
  5
64
330
36
100
AcDbEntity
  8
1
  6
Continuous
 62
     7
100
AcDbLine
 10
339.6379796839727
 20
243.191591422122
 30
0.0
 11
339.6379796839727
 21
246.4236422296905
 31
0.0
  0
LINE
  5
65
330
36
100
AcDbEntity
  8
1
  6
Continuous
 62
     2
100
AcDbLine
 10
339.6379796839727
 20
246.4236422296905
 30
0.0
 11
340.6379796839727
 21
244.6915914221217
 31
0.0
  0
LINE
  5
66
330
36
100
AcDbEntity
  8
1
  6
Continuous
 62
     7
100
AcDbLine
 10
365.6379796839727
 20
246.5515364774816
 30
0.0
 11
365.6379796839727
 21
243.191591422122
 31
0.0
  0
LINE
  5
67
330
36
100
AcDbEntity
  8
1
  6
Continuous
 62
     7
100
AcDbLine
 10
430.1379796839728
 20
274.9415914221216
 30
0.0
 11
430.137979683973
 21
284.6915914221216
 31
0.0
  0
LINE
  5
68
330
36
100
AcDbEntity
  8
1
  6
Continuous
 62
     7
100
AcDbLine
 10
432.6379796839731
 20
285.1915914221216
 30
0.0
 11
430.637979683973
 21
285.1915914221216
 31
0.0
  0
LINE
  5
69
330
36
100
AcDbEntity
  8
1
  6
Continuous
 62
     7
100
AcDbLine
 10
432.6379796839731
 20
285.1915914221216
 30
0.0
 11
432.637979683973
 21
272.6915914221216
 31
0.0
  0
LINE
  5
6A
330
36
100
AcDbEntity
  8
1
  6
Continuous
 62
     2
100
AcDbLine
 10
432.637979683973
 20
272.6915914221216
 30
0.0
 11
434.370030491542
 21
271.6915914221216
 31
0.0
  0
LINE
  5
6B
330
36
100
AcDbEntity
  8
1
  6
Continuous
 62
     7
100
AcDbLine
 10
446.637979683973
 20
271.6915914221216
 30
0.0
 11
445.637979683973
 21
272.6915914221216
 31
0.0
  0
LINE
  5
6C
330
36
100
AcDbEntity
  8
1
  6
Continuous
 62
     7
100
AcDbLine
 10
432.637979683973
 20
272.6915914221216
 30
0.0
 11
445.637979683973
 21
272.6915914221216
 31
0.0
  0
LINE
  5
6D
330
36
100
AcDbEntity
  8
1
  6
Continuous
 62
     2
100
AcDbLine
 10
434.370030491542
 20
271.6915914221216
 30
0.0
 11
446.637979683973
 21
271.6915914221216
 31
0.0
  0
LINE
  5
6E
330
36
100
AcDbEntity
  8
1
  6
Continuous
 62
     7
100
AcDbLine
 10
432.637979683973
 20
251.6915914221217
 30
0.0
 11
432.637979683973
 21
239.1915914221217
 31
0.0
  0
LINE
  5
6F
330
36
100
AcDbEntity
  8
1
  6
Continuous
 62
     7
100
AcDbLine
 10
432.637979683973
 20
239.1915914221217
 30
0.0
 11
430.637979683973
 21
239.1915914221217
 31
0.0
  0
LINE
  5
70
330
36
100
AcDbEntity
  8
1
  6
Continuous
 62
     7
100
AcDbLine
 10
430.1379796839728
 20
249.4415914221217
 30
0.0
 11
430.137979683973
 21
239.6915914221217
 31
0.0
  0
LINE
  5
71
330
36
100
AcDbEntity
  8
1
  6
Continuous
 62
     7
100
AcDbLine
 10
445.637979683973
 20
251.6915914221217
 30
0.0
 11
446.637979683973
 21
252.6915914221217
 31
0.0
  0
LINE
  5
72
330
36
100
AcDbEntity
  8
1
  6
Continuous
 62
     2
100
AcDbLine
 10
446.637979683973
 20
252.6915914221217
 30
0.0
 11
434.370030491542
 21
252.6915914221217
 31
0.0
  0
LINE
  5
73
330
36
100
AcDbEntity
  8
1
  6
Continuous
 62
     2
100
AcDbLine
 10
434.370030491542
 20
252.6915914221217
 30
0.0
 11
432.637979683973
 21
251.6915914221217
 31
0.0
  0
LINE
  5
74
330
36
100
AcDbEntity
  8
1
  6
Continuous
 62
     7
100
AcDbLine
 10
445.637979683973
 20
251.6915914221217
 30
0.0
 11
432.637979683973
 21
251.6915914221217
 31
0.0
  0
LINE
  5
75
330
36
100
AcDbEntity
  8
1
  6
Continuous
 62
     7
100
AcDbLine
 10
364.6191265010939
 20
250.1175226175595
 30
0.0
 11
365.6379796839727
 21
246.5515364774816
 31
0.0
  0
LINE
  5
76
330
36
100
AcDbEntity
  8
1
  6
Continuous
 62
     7
100
AcDbLine
 10
369.2056710928059
 20
253.6915914221217
 30
0.0
 11
368.3794535739999
 21
253.6915914221217
 31
0.0
  0
LINE
  5
77
330
36
100
AcDbEntity
  8
1
  6
Continuous
 62
     7
100
AcDbLine
 10
409.817643793241
 20
253.4415914221215
 30
0.0
 11
426.137979683973
 21
253.4415914221217
 31
0.0
  0
LINE
  5
78
330
36
100
AcDbEntity
  8
1
  6
Continuous
 62
     7
100
AcDbLine
 10
426.137979683973
 20
270.9415914221216
 30
0.0
 11
409.8176437932419
 21
270.9415914221219
 31
0.0
  0
LINE
  5
79
330
36
100
AcDbEntity
  8
1
  6
Continuous
 62
     7
100
AcDbLine
 10
340.6167854011537
 20
249.9773564876145
 30
0.0
 11
339.6379796839727
 21
246.5515364774816
 31
0.0
  0
LINE
  5
7A
330
36
100
AcDbEntity
  8
1
  6
Continuous
 62
     7
100
AcDbLine
 10
375.1836234567078
 20
279.3635012446334
 30
0.0
 11
375.2829279067872
 21
282.4915914221215
 31
0.0
  0
LINE
  5
7B
330
36
100
AcDbEntity
  8
1
  6
Continuous
 62
     7
100
AcDbLine
 10
365.637979683973
 20
244.6915914221217
 30
0.0
 11
339.6379796839727
 21
244.6915914221217
 31
0.0
  0
LINE
  5
7C
330
36
100
AcDbEntity
  8
1
  6
Continuous
 62
     7
100
AcDbLine
 10
434.370030491542
 20
272.6915914221216
 30
0.0
 11
434.370030491542
 21
251.6915914221217
 31
0.0
  0
LINE
  5
7D
330
36
100
AcDbEntity
  8
1
  6
Continuous
 62
     7
100
AcDbLine
 10
432.637979683973
 20
251.6915914221217
 30
0.0
 11
432.637979683973
 21
272.6915914221216
 31
0.0
  0
LINE
  5
7E
330
36
100
AcDbEntity
  8
1
  6
Continuous
 62
     7
100
AcDbLine
 10
430.1379796839728
 20
274.9415914221216
 30
0.0
 11
430.1379796839728
 21
249.4415914221217
 31
0.0
  0
LINE
  5
7F
330
36
100
AcDbEntity
  8
1
  6
Continuous
 62
     7
100
AcDbLine
 10
445.637979683973
 20
272.6915914221216
 30
0.0
 11
445.637979683973
 21
251.6915914221217
 31
0.0
  0
LINE
  5
80
330
36
100
AcDbEntity
  8
1
  6
Continuous
 62
     2
100
AcDbLine
 10
133.1216247186783
 20
633.3962294870719
 30
0.0
 11
133.1216247186783
 21
645.6641786795029
 31
0.0
  0
LINE
  5
81
330
36
100
AcDbEntity
  8
1
  6
Continuous
 62
     2
100
AcDbLine
 10
133.1216247186783
 20
633.3962294870719
 30
0.0
 11
134.1216247186783
 21
631.6641786795029
 31
0.0
  0
LINE
  5
82
330
36
100
AcDbEntity
  8
1
  6
Continuous
 62
     7
100
AcDbLine
 10
146.6216247186783
 20
631.6641786795029
 30
0.0
 11
100.6216247186784
 21
631.6641786795029
 31
0.0
  0
LINE
  5
83
330
36
100
AcDbEntity
  8
1
  6
Continuous
 62
     7
100
AcDbLine
 10
146.6216247186783
 20
629.626373925332
 30
0.0
 11
146.6216247186783
 21
631.6641786795029
 31
0.0
  0
LINE
  5
84
330
36
100
AcDbEntity
  8
1
  6
Continuous
 62
     7
100
AcDbLine
 10
132.3716247186783
 20
625.1279152584656
 30
0.0
 11
132.3716247186783
 21
610.683701988678
 31
0.0
  0
LINE
  5
85
330
36
100
AcDbEntity
  8
1
  6
Continuous
 62
     7
100
AcDbLine
 10
100.6216247186784
 20
631.6641786795029
 30
0.0
 11
100.6216247186784
 21
629.626373925332
 31
0.0
  0
LINE
  5
86
330
36
100
AcDbEntity
  8
1
  6
Continuous
 62
     2
100
AcDbLine
 10
113.1216247186784
 20
631.6641786795029
 30
0.0
 11
114.1216247186784
 21
633.3962294870719
 31
0.0
  0
LINE
  5
87
330
36
100
AcDbEntity
  8
1
  6
Continuous
 62
     2
100
AcDbLine
 10
114.1216247186784
 20
633.3962294870719
 30
0.0
 11
114.1216247186784
 21
645.6641786795029
 31
0.0
  0
LINE
  5
88
330
36
100
AcDbEntity
  8
1
  6
Continuous
 62
     7
100
AcDbLine
 10
114.8716247186784
 20
625.1279152584656
 30
0.0
 11
114.8716247186784
 21
610.683701988678
 31
0.0
  0
LINE
  5
89
330
36
100
AcDbEntity
  8
1
  6
Continuous
 62
     7
100
AcDbLine
 10
113.1216247186784
 20
631.6641786795029
 30
0.0
 11
113.1216247186784
 21
644.6641786795029
 31
0.0
  0
LINE
  5
8A
330
36
100
AcDbEntity
  8
1
  6
Continuous
 62
     7
100
AcDbLine
 10
114.1216247186784
 20
645.6641786795029
 30
0.0
 11
113.1216247186784
 21
644.6641786795029
 31
0.0
  0
LINE
  5
8B
330
36
100
AcDbEntity
  8
1
  6
Continuous
 62
     7
100
AcDbLine
 10
134.1216247186783
 20
644.6641786795029
 30
0.0
 11
134.1216247186783
 21
631.6641786795029
 31
0.0
  0
LINE
  5
8C
330
36
100
AcDbEntity
  8
1
  6
Continuous
 62
     7
100
AcDbLine
 10
134.1216247186783
 20
644.6641786795029
 30
0.0
 11
133.1216247186783
 21
645.6641786795029
 31
0.0
  0
LINE
  5
8D
330
36
100
AcDbEntity
  8
1
  6
Continuous
 62
     7
100
AcDbLine
 10
114.1216247186784
 20
645.6641786795029
 30
0.0
 11
133.1216247186783
 21
645.6641786795029
 31
0.0
  0
LINE
  5
8E
330
36
100
AcDbEntity
  8
1
  6
Continuous
 62
     7
100
AcDbLine
 10
114.8716247186784
 20
553.6641786795029
 30
0.0
 11
114.8716247186784
 21
562.6446553703279
 31
0.0
  0
LINE
  5
8F
330
36
100
AcDbEntity
  8
1
  6
Continuous
 62
     7
100
AcDbLine
 10
132.3716247186783
 20
553.6641786795029
 30
0.0
 11
132.3716247186783
 21
562.6446553703279
 31
0.0
  0
LINE
  5
90
330
36
100
AcDbEntity
  8
1
  6
Continuous
 62
     7
100
AcDbLine
 10
113.1216247186784
 20
633.3962294870719
 30
0.0
 11
134.1216247186783
 21
633.3962294870719
 31
0.0
  0
LINE
  5
91
330
36
100
AcDbEntity
  8
1
  6
Continuous
 62
     7
100
AcDbLine
 10
134.1216247186783
 20
644.6641786795029
 30
0.0
 11
113.1216247186784
 21
644.6641786795029
 31
0.0
  0
LINE
  5
92
330
36
100
AcDbEntity
  8
1
  6
Continuous
 62
     7
100
AcDbLine
 10
101.0823951708145
 20
629.1279152584656
 30
0.0
 11
146.1608542665422
 21
629.1279152584656
 31
0.0
  0
LINE
  5
93
330
36
100
AcDbEntity
  8
1
  6
Continuous
 62
     7
100
AcDbLine
 10
110.6216247186783
 20
246.4236422296905
 30
0.0
 11
110.6216247186783
 21
246.5515364774816
 31
0.0
  0
LINE
  5
94
330
36
100
AcDbEntity
  8
1
  6
Continuous
 62
     2
100
AcDbLine
 10
111.6216247186781
 20
243.1915914221217
 30
0.0
 11
111.6216247186783
 21
244.6915914221217
 31
0.0
  0
LINE
  5
95
330
36
100
AcDbEntity
  8
1
  6
Continuous
 62
     7
100
AcDbLine
 10
110.6216247186783
 20
243.1915914221217
 30
0.0
 11
110.6216247186783
 21
246.4236422296905
 31
0.0
  0
LINE
  5
96
330
36
100
AcDbEntity
  8
1
  6
Continuous
 62
     2
100
AcDbLine
 10
110.6216247186783
 20
246.4236422296905
 30
0.0
 11
111.6216247186783
 21
244.6915914221217
 31
0.0
  0
LINE
  5
97
330
36
100
AcDbEntity
  8
1
  6
Continuous
 62
     7
100
AcDbLine
 10
111.6004304358592
 20
249.9773564876145
 30
0.0
 11
110.6216247186783
 21
246.5515364774816
 31
0.0
  0
LINE
  5
98
330
36
100
AcDbEntity
  8
1
  6
Continuous
 62
     7
100
AcDbLine
 10
136.6216247186783
 20
244.6915914221217
 30
0.0
 11
110.6216247186783
 21
244.6915914221217
 31
0.0
  0
LINE
  5
99
330
36
100
AcDbEntity
  8
1
  6
Continuous
 62
     7
100
AcDbLine
 10
110.6216340488474
 20
262.1760163038442
 30
0.0
 11
111.2665729414917
 21
282.4915914221215
 31
0.0
  0
LINE
  5
9A
330
36
100
AcDbEntity
  8
1
  6
Continuous
 62
     7
100
AcDbLine
 10
136.6216247186785
 20
246.5515364774816
 30
0.0
 11
136.6216247186785
 21
246.4236422296905
 31
0.0
  0
LINE
  5
9B
330
36
100
AcDbEntity
  8
1
  6
Continuous
 62
     2
100
AcDbLine
 10
135.6216247186785
 20
244.6915914221217
 30
0.0
 11
135.6216247186785
 21
243.1915914221217
 31
0.0
  0
LINE
  5
9C
330
36
100
AcDbEntity
  8
1
  6
Continuous
 62
     7
100
AcDbLine
 10
136.6216247186785
 20
246.4236422296905
 30
0.0
 11
136.6216247186785
 21
243.1915914221217
 31
0.0
  0
LINE
  5
9D
330
36
100
AcDbEntity
  8
1
  6
Continuous
 62
     2
100
AcDbLine
 10
135.6216247186785
 20
244.6915914221217
 30
0.0
 11
136.6216247186785
 21
246.4236422296905
 31
0.0
  0
LINE
  5
9E
330
36
100
AcDbEntity
  8
1
  6
Continuous
 62
     7
100
AcDbLine
 10
136.6216247186785
 20
246.5515364774816
 30
0.0
 11
135.6428190014974
 21
249.9773564876145
 31
0.0
  0
LINE
  5
9F
330
36
100
AcDbEntity
  8
1
  6
Continuous
 62
     7
100
AcDbLine
 10
399.9930314611595
 20
282.4915914221215
 30
0.0
 11
400.082654876163
 21
279.6684538495148
 31
0.0
  0
ARC
  5
A0
330
36
100
AcDbEntity
  8
1
  6
Continuous
 62
     7
100
AcDbCircle
 10
366.1881551790461
 20
279.6490716661476
 30
0.0
 40
9.000000000003894
100
AcDbArc
 50
-87.8059549002254
 51
-1.81830296445899
  0
ARC
  5
A1
330
36
100
AcDbEntity
  8
1
  6
Continuous
 62
     7
100
AcDbCircle
 10
368.4086244456341
 20
221.6915914216623
 30
0.0
 40
49.00000000045961
100
AcDbArc
 50
92.19404509977882
 51
99.36066212030413
  0
ARC
  5
A2
330
36
100
AcDbEntity
  8
1
  6
Continuous
 62
     7
100
AcDbCircle
 10
364.3424102579652
 20
246.3586930390567
 30
0.0
 40
24.00000000000218
100
AcDbArc
 50
99.36066212030273
 51
171.3280051740367
  0
ARC
  5
A3
330
36
100
AcDbEntity
  8
1
  6
Continuous
 62
     7
100
AcDbCircle
 10
426.137979683973
 20
274.9415914221216
 30
0.0
 40
4.0
100
AcDbArc
 50
-90.0
 51
0.0
  0
ARC
  5
A4
330
36
100
AcDbEntity
  8
1
  6
Continuous
 62
     7
100
AcDbCircle
 10
426.137979683973
 20
249.4415914221217
 30
0.0
 40
3.999999999999773
100
AcDbArc
 50
0.0
 51
90.0
  0
ARC
  5
A5
330
36
100
AcDbEntity
  8
1
  6
Continuous
 62
     7
100
AcDbCircle
 10
368.597014308394
 20
249.6975123884979
 30
0.0
 40
3.999999999997908
100
AcDbArc
 50
93.1178665175734
 51
173.9726861048963
  0
ARC
  5
A6
330
36
100
AcDbEntity
  8
1
  6
Continuous
 62
     7
100
AcDbCircle
 10
387.6379796839727
 20
278.1915914221216
 30
0.0
 40
28.99999999999982
100
AcDbArc
 50
-117.439240150681
 51
-68.30528397761385
  0
ARC
  5
A7
330
36
100
AcDbEntity
  8
1
  6
Continuous
 62
     7
100
AcDbCircle
 10
123.6216247186783
 20
551.6641786795029
 30
0.0
 40
12.99999999999983
100
AcDbArc
 50
132.304989707183
 51
47.69501029281675
  0
ARC
  5
A8
330
36
100
AcDbEntity
  8
1
  6
Continuous
 62
     7
100
AcDbCircle
 10
110.8716247186784
 20
625.1279152584656
 30
0.0
 40
4.0
100
AcDbArc
 50
0.0
 51
90.0
  0
ARC
  5
A9
330
36
100
AcDbEntity
  8
1
  6
Continuous
 62
     7
100
AcDbCircle
 10
136.3716247186783
 20
625.1279152584656
 30
0.0
 40
4.0
100
AcDbArc
 50
90.0
 51
180.0
  0
ARC
  5
AA
330
36
100
AcDbEntity
  8
1
  6
Continuous
 62
     7
100
AcDbCircle
 10
135.3260552926705
 20
246.3586930390567
 30
0.0
 40
24.00000000000147
100
AcDbArc
 50
152.1298826058547
 51
171.3280051740366
  0
ARC
  5
AB
330
36
100
AcDbEntity
  8
1
  6
Continuous
 62
     7
100
AcDbCircle
 10
123.6216247186783
 20
262.1915914221216
 30
0.0
 40
12.99999999999997
100
AcDbArc
 50
-34.31009279338869
 51
-0.06864528893848
  0
ARC
  5
AC
330
36
100
AcDbEntity
  8
1
  6
Continuous
 62
     7
100
AcDbCircle
 10
123.6216247186783
 20
262.1915914221216
 30
0.0
 40
12.9999999999999
100
AcDbArc
 50
180.0
 51
-179.9313547110615
  0
ARC
  5
AD
330
36
100
AcDbEntity
  8
1
  6
Continuous
 62
     7
100
AcDbCircle
 10
111.9171941446861
 20
246.3586930390567
 30
0.0
 40
24.00000000000146
100
AcDbArc
 50
8.67199482596339
 51
27.87011739414517
  0
ARC
  5
AE
330
36
100
AcDbEntity
  8
1
  6
Continuous
 62
     7
100
AcDbCircle
 10
123.6216247186783
 20
262.1915914221216
 30
0.0
 40
13.0
100
AcDbArc
 50
-179.9313547110615
 51
-145.6899072066111
  0
ARC
  5
AF
330
36
100
AcDbEntity
  8
1
  6
Continuous
 62
     7
100
AcDbCircle
 10
123.6216247186783
 20
262.1915914221216
 30
0.0
 40
8.351995935906245
100
AcDbArc
 50
90.0
 51
179.8094249769213
  0
ARC
  5
B0
330
36
100
AcDbEntity
  8
1
  6
Continuous
 62
     7
100
AcDbCircle
 10
123.6216247186783
 20
262.1915914221216
 30
0.0
 40
8.351995935906039
100
AcDbArc
 50
0.19057502307871
 51
90.0
  0
ARC
  5
B1
330
36
100
AcDbEntity
  8
1
  6
Continuous
 62
     7
100
AcDbCircle
 10
123.6216247186783
 20
262.1915914221216
 30
0.0
 40
22.99999999999991
100
AcDbArc
 50
-55.58261128955828
 51
0.0
  0
ARC
  5
B2
330
36
100
AcDbEntity
  8
1
  6
Continuous
 62
     7
100
AcDbCircle
 10
123.6216247186783
 20
262.1915914221216
 30
0.0
 40
23.0
100
AcDbArc
 50
0.0
 51
57.42219882713952
  0
ARC
  5
B3
330
36
100
AcDbEntity
  8
1
  6
Continuous
 62
     7
100
AcDbCircle
 10
123.6216247186783
 20
262.1915914221216
 30
0.0
 40
23.00000000000009
100
AcDbArc
 50
122.5778011728608
 51
-124.4173887104418
  0
ARC
  5
B4
330
36
100
AcDbEntity
  8
1
  6
Continuous
 62
     7
100
AcDbCircle
 10
430.637979683973
 20
284.6915914221216
 30
0.0
 40
0.5
100
AcDbArc
 50
90.0
 51
180.0
  0
ARC
  5
B5
330
36
100
AcDbEntity
  8
1
  6
Continuous
 62
     7
100
AcDbCircle
 10
430.637979683973
 20
239.6915914221217
 30
0.0
 40
0.5
100
AcDbArc
 50
180.0
 51
-90.0
  0
ARC
  5
B6
330
36
100
AcDbEntity
  8
1
  6
Continuous
 62
     7
100
AcDbCircle
 10
369.2056710928059
 20
242.6915914221217
 30
0.0
 40
11.00000000000008
100
AcDbArc
 50
62.56075984931832
 51
90.0
  0
ARC
  5
B7
330
36
100
AcDbEntity
  8
1
  6
Continuous
 62
     7
100
AcDbCircle
 10
409.8176437932419
 20
222.4415914221215
 30
0.0
 40
31.0
100
AcDbArc
 50
90.00000000000168
 51
111.6947160223878
  0
ARC
  5
B8
330
36
100
AcDbEntity
  8
1
  6
Continuous
 62
     7
100
AcDbCircle
 10
409.07812315382
 20
279.9540242710278
 30
0.0
 40
8.999999999998678
100
AcDbArc
 50
-178.1816970355477
 51
-91.92633614020294
  0
ARC
  5
B9
330
36
100
AcDbEntity
  8
1
  6
Continuous
 62
     7
100
AcDbCircle
 10
409.8176437932419
 20
301.9415914221219
 30
0.0
 40
30.99999999999998
100
AcDbArc
 50
-91.92633614020612
 51
-90.0
  0
ARC
  5
BA
330
36
100
AcDbEntity
  8
1
  6
Continuous
 62
     7
100
AcDbCircle
 10
146.1216247186783
 20
629.626373925332
 30
0.0
 40
0.4999999999998749
100
AcDbArc
 50
-85.50000000000179
 51
0.0
  0
ARC
  5
BB
330
36
100
AcDbEntity
  8
1
  6
Continuous
 62
     7
100
AcDbCircle
 10
101.1216247186784
 20
629.626373925332
 30
0.0
 40
0.5
100
AcDbArc
 50
180.0
 51
-94.49999999999983
  0
ARC
  5
BC
330
36
100
AcDbEntity
  8
1
  6
Continuous
 62
     7
100
AcDbCircle
 10
112.8716247186784
 20
553.6641786795029
 30
0.0
 40
2.0
100
AcDbArc
 50
-90.0
 51
0.0
  0
ARC
  5
BD
330
36
100
AcDbEntity
  8
1
  6
Continuous
 62
     7
100
AcDbCircle
 10
134.3716247186783
 20
553.6641786795029
 30
0.0
 40
2.0
100
AcDbArc
 50
180.0
 51
-90.0
  0
ARC
  5
BE
330
36
100
AcDbEntity
  8
1
  6
Continuous
 62
     7
100
AcDbCircle
 10
105.2697302999664
 20
262.2526330141873
 30
0.0
 40
10.00000000000006
100
AcDbArc
 50
-27.87011739414518
 51
-0.1905750230771
  0
ARC
  5
BF
330
36
100
AcDbEntity
  8
1
  6
Continuous
 62
     7
100
AcDbCircle
 10
141.9735191373902
 20
262.2526330141873
 30
0.0
 40
9.999999999999982
100
AcDbArc
 50
-179.8094249769229
 51
-152.1298826058546
  0
ENDBLK
  5
38
330
36
100
AcDbEntity
  8
0
100
AcDbBlockEnd
  0
BLOCK
  5
3A
330
39
100
AcDbEntity
  8
0
100
AcDbBlockBegin
  2
_J__A4
 70
     0
 71
     0
 10
0.0
 20
0.0
 30
0.0
  3
_J__A4
  1

  0
POINT
  5
C0
330
39
100
AcDbEntity
  8
1
 62
     4
100
AcDbPoint
 10
93.75
 20
17.0
 30
0.0
  0
POINT
  5
C1
330
39
100
AcDbEntity
  8
1
 62
     4
100
AcDbPoint
 10
85.25
 20
17.0
 30
0.0
  0
POINT
  5
C2
330
39
100
AcDbEntity
  8
1
 62
     4
100
AcDbPoint
 10
106.5
 20
19.00000000000001
 30
0.0
  0
POINT
  5
C3
330
39
100
AcDbEntity
  8
1
 62
     4
100
AcDbPoint
 10
106.5
 20
12.5
 30
0.0
  0
POINT
  5
C4
330
39
100
AcDbEntity
  8
1
 62
     4
100
AcDbPoint
 10
112.25
 20
12.5
 30
0.0
  0
POINT
  5
C5
330
39
100
AcDbEntity
  8
1
 62
     4
100
AcDbPoint
 10
100.75
 20
12.5
 30
0.0
  0
POINT
  5
C6
330
39
100
AcDbEntity
  8
1
 62
     4
100
AcDbPoint
 10
123.5
 20
19.00000000000001
 30
0.0
  0
POINT
  5
C7
330
39
100
AcDbEntity
  8
1
 62
     4
100
AcDbPoint
 10
123.5
 20
12.5
 30
0.0
  0
POINT
  5
C8
330
39
100
AcDbEntity
  8
1
 62
     4
100
AcDbPoint
 10
129.25
 20
12.5
 30
0.0
  0
POINT
  5
C9
330
39
100
AcDbEntity
  8
1
 62
     4
100
AcDbPoint
 10
117.75
 20
12.5
 30
0.0
  0
POINT
  5
CA
330
39
100
AcDbEntity
  8
1
 62
     4
100
AcDbPoint
 10
140.5
 20
19.00000000000001
 30
0.0
  0
POINT
  5
CB
330
39
100
AcDbEntity
  8
1
 62
     4
100
AcDbPoint
 10
140.5
 20
12.5
 30
0.0
  0
POINT
  5
CC
330
39
100
AcDbEntity
  8
1
 62
     4
100
AcDbPoint
 10
146.25
 20
12.5
 30
0.0
  0
POINT
  5
CD
330
39
100
AcDbEntity
  8
1
 62
     4
100
AcDbPoint
 10
134.75
 20
12.5
 30
0.0
  0
POINT
  5
CE
330
39
100
AcDbEntity
  8
1
 62
     4
100
AcDbPoint
 10
151.75
 20
12.5
 30
0.0
  0
POINT
  5
CF
330
39
100
AcDbEntity
  8
1
 62
     4
100
AcDbPoint
 10
163.25
 20
12.5
 30
0.0
  0
POINT
  5
D0
330
39
100
AcDbEntity
  8
1
 62
     4
100
AcDbPoint
 10
157.5
 20
12.5
 30
0.0
  0
POINT
  5
D1
330
39
100
AcDbEntity
  8
1
 62
     4
100
AcDbPoint
 10
57.0
 20
14.25
 30
0.0
  0
POINT
  5
D2
330
39
100
AcDbEntity
  8
1
 62
     4
100
AcDbPoint
 10
57.0
 20
22.75000000000001
 30
0.0
  0
POINT
  5
D3
330
39
100
AcDbEntity
  8
1
 62
     4
100
AcDbPoint
 10
47.5
 20
282.0000000000003
 30
0.0
  0
POINT
  5
D4
330
39
100
AcDbEntity
  8
1
 62
     4
100
AcDbPoint
 10
157.5
 20
19.00000000000001
 30
0.0
  0
POINT
  5
D5
330
39
100
AcDbEntity
  8
1
 62
     4
100
AcDbPoint
 10
57.0
 20
16.25
 30
0.0
  0
POINT
  5
D6
330
39
100
AcDbEntity
  8
1
 62
     4
100
AcDbPoint
 10
57.0
 20
24.75000000000001
 30
0.0
  0
POINT
  5
D7
330
39
100
AcDbEntity
  8
1
 62
     4
100
AcDbPoint
 10
57.0
 20
20.75000000000001
 30
0.0
  0
POINT
  5
D8
330
39
100
AcDbEntity
  8
1
 62
     4
100
AcDbPoint
 10
57.0
 20
12.25
 30
0.0
  0
POINT
  5
D9
330
39
100
AcDbEntity
  8
1
 62
     4
100
AcDbPoint
 10
34.0
 20
34.00000000000001
 30
0.0
  0
LINE
  5
DA
330
39
100
AcDbEntity
  8
1
  6
Continuous
 62
     7
100
AcDbLine
 10
105.0
 20
10.0
 30
0.0
 11
200.0
 21
10.0
 31
0.0
  0
LINE
  5
DB
330
39
100
AcDbEntity
  8
1
  6
Continuous
 62
     2
100
AcDbLine
 10
105.0
 20
10.0
 30
0.0
 11
105.0
 21
5.0
 31
0.0
  0
LINE
  5
DC
330
39
100
AcDbEntity
  8
1
  6
Continuous
 62
     7
100
AcDbLine
 10
200.0
 20
148.5
 30
0.0
 11
200.0
 21
287.0000000000003
 31
0.0
  0
LINE
  5
DD
330
39
100
AcDbEntity
  8
1
  6
Continuous
 62
     2
100
AcDbLine
 10
200.0
 20
148.5
 30
0.0
 11
205.0
 21
148.5
 31
0.0
  0
LINE
  5
DE
330
39
100
AcDbEntity
  8
1
  6
Continuous
 62
     7
100
AcDbLine
 10
25.0
 20
148.5
 30
0.0
 11
25.0
 21
287.0000000000003
 31
0.0
  0
LINE
  5
DF
330
39
100
AcDbEntity
  8
1
  6
Continuous
 62
     2
100
AcDbLine
 10
25.0
 20
148.5
 30
0.0
 11
20.0
 21
148.5
 31
0.0
  0
LINE
  5
E0
330
39
100
AcDbEntity
  8
1
  6
Continuous
 62
     7
100
AcDbLine
 10
105.0
 20
287.0000000000003
 30
0.0
 11
25.0
 21
287.0000000000003
 31
0.0
  0
LINE
  5
E1
330
39
100
AcDbEntity
  8
1
  6
Continuous
 62
     2
100
AcDbLine
 10
105.0
 20
287.0000000000003
 30
0.0
 11
105.0
 21
292.0000000000003
 31
0.0
  0
LINE
  5
E2
330
39
100
AcDbEntity
  8
1
  6
Continuous
 62
     2
100
AcDbLine
 10
166.0
 20
20.00000000000001
 30
0.0
 11
200.0
 21
20.00000000000001
 31
0.0
  0
LINE
  5
E3
330
39
100
AcDbEntity
  8
1
  6
Continuous
 62
     2
100
AcDbLine
 10
98.0
 20
27.00000000000001
 30
0.0
 11
98.0
 21
9.99999999999999
 31
0.0
  0
LINE
  5
E4
330
39
100
AcDbEntity
  8
1
  6
Continuous
 62
     2
100
AcDbLine
 10
115.0
 20
27.00000000000001
 30
0.0
 11
115.0
 21
9.99999999999999
 31
0.0
  0
LINE
  5
E5
330
39
100
AcDbEntity
  8
1
  6
Continuous
 62
     2
100
AcDbLine
 10
149.0
 20
27.00000000000001
 30
0.0
 11
149.0
 21
10.0
 31
0.0
  0
LINE
  5
E6
330
39
100
AcDbEntity
  8
1
  6
Continuous
 62
     2
100
AcDbLine
 10
132.0
 20
27.00000000000001
 30
0.0
 11
132.0
 21
9.99999999999999
 31
0.0
  0
LINE
  5
E7
330
39
100
AcDbEntity
  8
1
  6
Continuous
 62
     2
100
AcDbLine
 10
166.0
 20
27.00000000000001
 30
0.0
 11
166.0
 21
10.0
 31
0.0
  0
LINE
  5
E8
330
39
100
AcDbEntity
  8
1
  6
Continuous
 62
     2
100
AcDbLine
 10
55.0
 20
277.0000000000003
 30
0.0
 11
25.0
 21
277.0000000000003
 31
0.0
  0
LINE
  5
E9
330
39
100
AcDbEntity
  8
1
  6
Continuous
 62
     7
100
AcDbLine
 10
25.0
 20
10.0
 30
0.0
 11
25.0
 21
148.5
 31
0.0
  0
LINE
  5
EA
330
39
100
AcDbEntity
  8
1
  6
Continuous
 62
     2
100
AcDbLine
 10
40.0
 20
287.0000000000003
 30
0.0
 11
40.0
 21
277.0000000000003
 31
0.0
  0
LINE
  5
EB
330
39
100
AcDbEntity
  8
1
  6
Continuous
 62
     2
100
AcDbLine
 10
55.0
 20
287.0000000000003
 30
0.0
 11
55.0
 21
277.0000000000003
 31
0.0
  0
LINE
  5
EC
330
39
100
AcDbEntity
  8
1
  6
Continuous
 62
     2
100
AcDbLine
 10
33.0
 20
41.00000000000001
 30
0.0
 11
33.0
 21
27.0
 31
0.0
  0
LINE
  5
ED
330
39
100
AcDbEntity
  8
1
  6
Continuous
 62
     7
100
AcDbLine
 10
200.0
 20
27.00000000000001
 30
0.0
 11
25.0
 21
27.00000000000001
 31
0.0
  0
LINE
  5
EE
330
39
100
AcDbEntity
  8
1
  6
Continuous
 62
     7
100
AcDbLine
 10
25.0
 20
41.0
 30
0.0
 11
200.0
 21
41.0
 31
0.0
  0
LINE
  5
EF
330
39
100
AcDbEntity
  8
1
  6
PHANTOM
 62
     4
100
AcDbLine
 10
0.0
 20
0.0
 30
0.0
 11
210.0
 21
0.0
 31
0.0
  0
LINE
  5
F0
330
39
100
AcDbEntity
  8
1
  6
PHANTOM
 62
     4
100
AcDbLine
 10
210.0
 20
0.0
 30
0.0
 11
210.0
 21
297.0
 31
0.0
  0
LINE
  5
F1
330
39
100
AcDbEntity
  8
1
  6
PHANTOM
 62
     4
100
AcDbLine
 10
210.0
 20
297.0
 30
0.0
 11
0.0
 21
297.0
 31
0.0
  0
LINE
  5
F2
330
39
100
AcDbEntity
  8
1
  6
PHANTOM
 62
     4
100
AcDbLine
 10
0.0
 20
297.0
 30
0.0
 11
0.0
 21
0.0
 31
0.0
  0
LINE
  5
F3
330
39
100
AcDbEntity
  8
1
  6
Continuous
 62
     7
100
AcDbLine
 10
25.0
 20
10.0
 30
0.0
 11
105.0
 21
10.0
 31
0.0
  0
LINE
  5
F4
330
39
100
AcDbEntity
  8
1
  6
Continuous
 62
     7
100
AcDbLine
 10
200.0
 20
10.0
 30
0.0
 11
200.0
 21
148.5
 31
0.0
  0
LINE
  5
F5
330
39
100
AcDbEntity
  8
1
  6
Continuous
 62
     7
100
AcDbLine
 10
200.0
 20
287.0000000000003
 30
0.0
 11
105.0
 21
287.0000000000003
 31
0.0
  0
LINE
  5
F6
330
39
100
AcDbEntity
  8
1
  6
Continuous
 62
     2
100
AcDbLine
 10
25.0
 20
18.50000000000001
 30
0.0
 11
81.0
 21
18.50000000000001
 31
0.0
  0
LINE
  5
F7
330
39
100
AcDbEntity
  8
1
  6
Continuous
 62
     2
100
AcDbLine
 10
33.0
 20
27.0
 30
0.0
 11
33.0
 21
10.0
 31
0.0
  0
LINE
  5
F8
330
39
100
AcDbEntity
  8
1
  6
Continuous
 62
     7
100
AcDbLine
 10
191.0
 20
24.70000000000001
 30
0.0
 11
191.0
 21
22.30000000000001
 31
0.0
  0
LINE
  5
F9
330
39
100
AcDbEntity
  8
1
  6
Continuous
 62
     7
100
AcDbLine
 10
191.0
 20
24.70000000000001
 30
0.0
 11
196.0
 21
25.50000000000001
 31
0.0
  0
LINE
  5
FA
330
39
100
AcDbEntity
  8
1
  6
Continuous
 62
     7
100
AcDbLine
 10
196.0
 20
25.50000000000001
 30
0.0
 11
196.0
 21
21.50000000000001
 31
0.0
  0
LINE
  5
FB
330
39
100
AcDbEntity
  8
1
  6
Continuous
 62
     7
100
AcDbLine
 10
196.0
 20
21.50000000000001
 30
0.0
 11
191.0
 21
22.30000000000001
 31
0.0
  0
LINE
  5
FC
330
39
100
AcDbEntity
  8
1
  6
DOT_CENTER
 62
     2
100
AcDbLine
 10
184.0
 20
23.50000000000001
 30
0.0
 11
197.0
 21
23.50000000000001
 31
0.0
  0
LINE
  5
FD
330
39
100
AcDbEntity
  8
1
  6
DOT_CENTER
 62
     2
100
AcDbLine
 10
187.0
 20
26.50000000000001
 30
0.0
 11
187.0
 21
20.50000000000001
 31
0.0
  0
LINE
  5
FE
330
39
100
AcDbEntity
  8
1
  6
Continuous
 62
     2
100
AcDbLine
 10
81.0
 20
27.00000000000001
 30
0.0
 11
81.0
 21
10.0
 31
0.0
  0
CIRCLE
  5
FF
330
39
100
AcDbEntity
  8
1
  6
Continuous
 62
     7
100
AcDbCircle
 10
103.5
 20
12.5
 30
0.0
 40
0.2999999999999972
  0
CIRCLE
  5
100
330
39
100
AcDbEntity
  8
1
  6
Continuous
 62
     7
100
AcDbCircle
 10
109.5
 20
12.5
 30
0.0
 40
0.2999999999999972
  0
CIRCLE
  5
101
330
39
100
AcDbEntity
  8
1
  6
Continuous
 62
     7
100
AcDbCircle
 10
120.5
 20
12.5
 30
0.0
 40
0.2999999999999972
  0
CIRCLE
  5
102
330
39
100
AcDbEntity
  8
1
  6
Continuous
 62
     7
100
AcDbCircle
 10
126.5
 20
12.5
 30
0.0
 40
0.2999999999999972
  0
CIRCLE
  5
103
330
39
100
AcDbEntity
  8
1
  6
Continuous
 62
     7
100
AcDbCircle
 10
137.5
 20
12.5
 30
0.0
 40
0.3000000000000114
  0
CIRCLE
  5
104
330
39
100
AcDbEntity
  8
1
  6
Continuous
 62
     7
100
AcDbCircle
 10
143.5
 20
12.5
 30
0.0
 40
0.3000000000000114
  0
CIRCLE
  5
105
330
39
100
AcDbEntity
  8
1
  6
Continuous
 62
     7
100
AcDbCircle
 10
160.5
 20
12.5
 30
0.0
 40
0.3000000000000114
  0
CIRCLE
  5
106
330
39
100
AcDbEntity
  8
1
  6
Continuous
 62
     7
100
AcDbCircle
 10
154.5
 20
12.5
 30
0.0
 40
0.3000000000000114
  0
CIRCLE
  5
107
330
39
100
AcDbEntity
  8
1
  6
Continuous
 62
     7
100
AcDbCircle
 10
187.0
 20
23.50000000000001
 30
0.0
 40
1.200000000000102
  0
CIRCLE
  5
108
330
39
100
AcDbEntity
  8
1
  6
Continuous
 62
     7
100
AcDbCircle
 10
187.0
 20
23.50000000000001
 30
0.0
 40
2.0
  0
CIRCLE
  5
109
330
39
100
AcDbEntity
  8
1
  6
DOT_CENTER
 62
     7
100
AcDbCircle
 10
89.5
 20
16.0
 30
0.0
 40
0.1000000000000227
  0
CIRCLE
  5
10A
330
39
100
AcDbEntity
  8
1
  6
DOT_CENTER
 62
     7
100
AcDbCircle
 10
89.5
 20
18.0
 30
0.0
 40
0.1000000000000227
  0
MTEXT
  5
10C
330
39
100
AcDbEntity
  8
1
 62
     7
100
AcDbMText
 10
188.5
 20
15.0
 30
0.0
 40
3.0
 41
0.0
 71
     5
 72
     1
  1
三栄水栓製作所
  7
CONVERTER_1
 73
     1
 44
1.32052821128451
  0
MTEXT
  5
10D
330
39
100
AcDbEntity
  8
1
 62
     7
100
AcDbMText
 10
171.5
 20
15.0
 30
0.0
 40
2.5
 41
0.0
 71
     5
 72
     1
  1
株式会社
  7
CONVERTER_1
 73
     1
 44
1.32052821128451
  0
MTEXT
  5
10E
330
39
100
AcDbEntity
  8
1
 62
     2
100
AcDbMText
 10
32.5
 20
282.0000000000003
 30
0.0
 40
5.0
 41
0.0
 71
     5
 72
     1
  1
図番
  7
CONVERTER_1
 73
     1
 44
0.60024009603842
  0
MTEXT
  5
10F
330
39
100
AcDbEntity
  8
1
 62
     2
100
AcDbMText
 10
29.0
 20
34.00000000000001
 30
0.0
 40
3.5
 41
0.0
 71
     5
 72
     1
  1
備考
  7
CONVERTER_1
 73
     1
 44
0.60024009603842
  0
MTEXT
  5
110
330
39
100
AcDbEntity
  8
1
 62
     2
100
AcDbMText
 10
29.0
 20
22.75
 30
0.0
 40
3.5
 41
0.0
 71
     5
 72
     1
  1
品名
  7
CONVERTER_1
 73
     1
 44
0.96038415366146
  0
MTEXT
  5
111
330
39
100
AcDbEntity
  8
1
 62
     2
100
AcDbMText
 10
29.0
 20
14.25
 30
0.0
 40
3.5
 41
0.0
 71
     5
 72
     1
  1
品番
  7
CONVERTER_1
 73
     1
 44
0.96038415366146
  0
MTEXT
  5
112
330
39
100
AcDbEntity
  8
1
 62
     2
100
AcDbMText
 10
101.5
 20
25.00000000000001
 30
0.0
 40
3.0
 41
0.0
 71
     5
 72
     1
  1
承認
  7
CONVERTER_1
 73
     1
 44
0.78031212484994
  0
MTEXT
  5
113
330
39
100
AcDbEntity
  8
1
 62
     2
100
AcDbMText
 10
175.0
 20
23.50000000000001
 30
0.0
 40
3.5
 41
0.0
 71
     5
 72
     1
  1
第三角法
  7
CONVERTER_1
 73
     1
 44
0.7202881152461
  0
MTEXT
  5
114
330
39
100
AcDbEntity
  8
1
 62
     2
100
AcDbMText
 10
118.5
 20
25.00000000000001
 30
0.0
 40
3.0
 41
0.0
 71
     5
 72
     1
  1
検図
  7
CONVERTER_1
 73
     1
 44
0.78031212484994
  0
MTEXT
  5
115
330
39
100
AcDbEntity
  8
1
 62
     2
100
AcDbMText
 10
152.5
 20
25.00000000000001
 30
0.0
 40
3.0
 41
0.0
 71
     5
 72
     1
  1
設計
  7
CONVERTER_1
 73
     1
 44
0.78031212484994
  0
MTEXT
  5
116
330
39
100
AcDbEntity
  8
1
 62
     2
100
AcDbMText
 10
135.5
 20
25.00000000000001
 30
0.0
 40
3.0
 41
0.0
 71
     5
 72
     1
  1
製図
  7
CONVERTER_1
 73
     1
 44
0.78031212484994
  0
MTEXT
  5
117
330
39
100
AcDbEntity
  8
1
 62
     2
100
AcDbMText
 10
89.5
 20
24.00000000000001
 30
0.0
 40
3.5
 41
0.0
 71
     5
 72
     1
  1
尺度
  7
CONVERTER_1
 73
     1
 44
0.7202881152461
  0
MTEXT
  5
118
330
39
100
AcDbEntity
  8
1
 62
   250
100
AcDbMText
 10
25.0
 20
5.0
 30
0.0
 40
3.5
 41
0.0
 71
     4
 72
     1
  1
備考欄の文字列 原点位置=4
  7
CONVERTER_1
 73
     1
 44
0.7202881152461
  0
ENDBLK
  5
3B
330
39
100
AcDbEntity
  8
0
100
AcDbBlockEnd
  0
BLOCK
  5
3D
330
3C
100
AcDbEntity
  8
0
100
AcDbBlockBegin
  2
84-35
 70
     0
 71
     0
 10
460.3413338564158
 20
475.3046346334866
 30
0.0
  3
84-35
  1

  0
CIRCLE
  5
119
330
3C
100
AcDbEntity
  8
1
  6
Continuous
 62
     7
100
AcDbCircle
 10
123.6216247186783
 20
586.664178679503
 30
0.0
 40
10.0
  0
ENDBLK
  5
3E
330
3C
100
AcDbEntity
  8
0
100
AcDbBlockEnd
  0
BLOCK
  5
40
330
3F
100
AcDbEntity
  8
0
100
AcDbBlockBegin
  2
84-34-M21
 70
     0
 71
     0
 10
471.606718924097
 20
349.1127816950327
 30
0.0
  3
84-34-M21
  1

  0
LINE
  5
11A
330
3F
100
AcDbEntity
  8
1
  6
Continuous
 62
     7
100
AcDbLine
 10
400.137979683973
 20
329.9212507524645
 30
0.0
 11
400.137979683973
 21
328.4915914221217
 31
0.0
  0
LINE
  5
11B
330
3F
100
AcDbEntity
  8
1
  6
Continuous
 62
     7
100
AcDbLine
 10
387.637979683973
 20
329.9915914221217
 30
0.0
 11
397.637979683973
 21
329.9915914221217
 31
0.0
  0
LINE
  5
11C
330
3F
100
AcDbEntity
  8
1
  6
Continuous
 62
     7
100
AcDbLine
 10
375.137979683973
 20
328.4915914221217
 30
0.0
 11
375.137979683973
 21
329.9212507524645
 31
0.0
  0
LINE
  5
11D
330
3F
100
AcDbEntity
  8
1
  6
Continuous
 62
     7
100
AcDbLine
 10
377.637979683973
 20
329.9915914221217
 30
0.0
 11
387.637979683973
 21
329.9915914221217
 31
0.0
  0
LINE
  5
11E
330
3F
100
AcDbEntity
  8
1
  6
Continuous
 62
     7
100
AcDbLine
 10
136.1216247186783
 20
329.9212507524645
 30
0.0
 11
136.1216247186783
 21
328.4915914221217
 31
0.0
  0
LINE
  5
11F
330
3F
100
AcDbEntity
  8
1
  6
Continuous
 62
     7
100
AcDbLine
 10
123.6216247186783
 20
329.9915914221217
 30
0.0
 11
133.6216247186783
 21
329.9915914221217
 31
0.0
  0
LINE
  5
120
330
3F
100
AcDbEntity
  8
1
  6
Continuous
 62
     7
100
AcDbLine
 10
111.1216247186784
 20
328.4915914221217
 30
0.0
 11
111.1216247186784
 21
329.9212507524645
 31
0.0
  0
LINE
  5
121
330
3F
100
AcDbEntity
  8
1
  6
Continuous
 62
     7
100
AcDbLine
 10
113.6216247186784
 20
329.9915914221217
 30
0.0
 11
123.6216247186783
 21
329.9915914221217
 31
0.0
  0
ARC
  5
122
330
3F
100
AcDbEntity
  8
1
  6
Continuous
 62
     7
100
AcDbCircle
 10
387.637979683973
 20
-69.88338904052222
 30
0.0
 40
399.9999999999998
100
AcDbArc
 50
88.20921534067105
 51
88.5674562624335
  0
ARC
  5
123
330
3F
100
AcDbEntity
  8
1
  6
Continuous
 62
     7
100
AcDbCircle
 10
387.637979683973
 20
-69.88338904052222
 30
0.0
 40
399.9999999999998
100
AcDbArc
 50
91.43254373756652
 51
91.79078465932896
  0
ARC
  5
124
330
3F
100
AcDbEntity
  8
1
  6
Continuous
 62
     7
100
AcDbCircle
 10
123.6216247186783
 20
-69.88338904052222
 30
0.0
 40
399.9999999999998
100
AcDbArc
 50
88.20921534067105
 51
88.5674562624335
  0
ARC
  5
125
330
3F
100
AcDbEntity
  8
1
  6
Continuous
 62
     7
100
AcDbCircle
 10
123.6216247186783
 20
-69.88338904052222
 30
0.0
 40
399.9999999999998
100
AcDbArc
 50
91.43254373756651
 51
91.79078465932894
  0
CIRCLE
  5
126
330
3F
100
AcDbEntity
  8
1
  6
Continuous
 62
     7
100
AcDbCircle
 10
123.6216247186783
 20
586.664178679503
 30
0.0
 40
12.5
  0
ENDBLK
  5
41
330
3F
100
AcDbEntity
  8
0
100
AcDbBlockEnd
  0
BLOCK
  5
45
330
42
100
AcDbEntity
  8
0
100
AcDbBlockBegin
  2
84-34X
 70
     0
 71
     0
 10
375.137979683973
 20
322.9915914221217
 30
0.0
  3
84-34X
  1

  0
INSERT
  5
43
330
42
100
AcDbEntity
  8
0
100
AcDbBlockReference
  2
84-35
 10
460.3413338564158
 20
475.3046346334866
 30
0.0
  0
INSERT
  5
44
330
42
100
AcDbEntity
  8
0
100
AcDbBlockReference
  2
84-34-M21
 10
471.606718924097
 20
349.1127816950327
 30
0.0
  0
ENDBLK
  5
46
330
42
100
AcDbEntity
  8
0
100
AcDbBlockEnd
  0
BLOCK
  5
48
330
47
100
AcDbEntity
  8
0
100
AcDbBlockBegin
  2
81-8
 70
     0
 71
     0
 10
420.1444963906209
 20
284.6915914221216
 30
0.0
  3
81-8
  1

  0
LINE
  5
127
330
47
100
AcDbEntity
  8
1
  6
Continuous
 62
     7
100
AcDbLine
 10
405.637979683973
 20
328.4915914221215
 30
0.0
 11
369.637979683973
 21
328.4915914221215
 31
0.0
  0
LINE
  5
128
330
47
100
AcDbEntity
  8
1
  6
Continuous
 62
     7
100
AcDbLine
 10
376.4082916891764
 20
325.9915914221215
 30
0.0
 11
376.0457568354206
 21
297.0209774466487
 31
0.0
  0
LINE
  5
129
330
47
100
AcDbEntity
  8
1
  6
Continuous
 62
     7
100
AcDbLine
 10
376.0611717182684
 20
296.5656288773029
 30
0.0
 11
376.0457568354206
 21
297.269301591848
 31
0.0
  0
LINE
  5
12A
330
47
100
AcDbEntity
  8
1
  6
Continuous
 62
     7
100
AcDbLine
 10
369.7140518127341
 20
325.9915914221215
 30
0.0
 11
376.4082916891764
 21
325.9915914221215
 31
0.0
  0
LINE
  5
12B
330
47
100
AcDbEntity
  8
1
  6
Continuous
 62
     7
100
AcDbLine
 10
411.2995811398849
 20
297.0209774466487
 30
0.0
 11
411.1134329488383
 21
326.2559596547125
 31
0.0
  0
LINE
  5
12C
330
47
100
AcDbEntity
  8
1
  6
Continuous
 62
     7
100
AcDbLine
 10
397.3546070026334
 20
296.2260559644285
 30
0.0
 11
397.3168698369302
 21
297.0209774466487
 31
0.0
  0
LINE
  5
12D
330
47
100
AcDbEntity
  8
1
  6
Continuous
 62
     7
100
AcDbLine
 10
388.6665919081676
 20
325.9915914221215
 30
0.0
 11
388.6997992227824
 21
297.0209774466487
 31
0.0
  0
LINE
  5
12E
330
47
100
AcDbEntity
  8
1
  6
Continuous
 62
     7
100
AcDbLine
 10
363.8019931063141
 20
325.9915914221215
 30
0.0
 11
363.5038240771232
 21
297.0209774466487
 31
0.0
  0
LINE
  5
12F
330
47
100
AcDbEntity
  8
1
  6
Continuous
 62
     7
100
AcDbLine
 10
369.1359127046381
 20
297.0465094173715
 30
0.0
 11
369.1354027378404
 21
297.0209774466487
 31
0.0
  0
LINE
  5
130
330
47
100
AcDbEntity
  8
1
  6
Continuous
 62
     7
100
AcDbLine
 10
406.8445660189171
 20
325.9915914221215
 30
0.0
 11
407.4646239378296
 21
297.0209774466487
 31
0.0
  0
LINE
  5
131
330
47
100
AcDbEntity
  8
1
  6
Continuous
 62
     7
100
AcDbLine
 10
412.8771101187556
 20
290.4915914221215
 30
0.0
 11
413.0032938527627
 21
286.6219569125705
 31
0.0
  0
LINE
  5
132
330
47
100
AcDbEntity
  8
1
  6
Continuous
 62
     7
100
AcDbLine
 10
406.8445660189171
 20
325.9915914221215
 30
0.0
 11
411.1151162632976
 21
325.9915914221215
 31
0.0
  0
LINE
  5
133
330
47
100
AcDbEntity
  8
1
  6
Continuous
 62
     7
100
AcDbLine
 10
397.0141724964833
 20
325.9915914221215
 30
0.0
 11
397.3168698369302
 21
297.0209774466487
 31
0.0
  0
LINE
  5
134
330
47
100
AcDbEntity
  8
1
  6
Continuous
 62
     7
100
AcDbLine
 10
388.6665919081676
 20
325.9915914221215
 30
0.0
 11
397.0141724964833
 21
325.9915914221215
 31
0.0
  0
LINE
  5
135
330
47
100
AcDbEntity
  8
1
  6
Continuous
 62
     7
100
AcDbLine
 10
369.7140518127341
 20
325.9915914221215
 30
0.0
 11
369.1359127046381
 21
297.0465094173715
 31
0.0
  0
LINE
  5
136
330
47
100
AcDbEntity
  8
1
  6
Continuous
 62
     7
100
AcDbLine
 10
409.0054188123319
 20
282.4915914221215
 30
0.0
 11
366.2705405556142
 21
282.4915914221215
 31
0.0
  0
LINE
  5
137
330
47
100
AcDbEntity
  8
1
  6
Continuous
 62
     7
100
AcDbLine
 10
410.257916468238
 20
327.2536830916949
 30
0.0
 11
405.637979683973
 21
328.4915914221215
 31
0.0
  0
LINE
  5
138
330
47
100
AcDbEntity
  8
1
  6
Continuous
 62
     7
100
AcDbLine
 10
369.637979683973
 20
328.4915914221215
 30
0.0
 11
365.0180428997079
 21
327.2536830916949
 31
0.0
  0
LINE
  5
139
330
47
100
AcDbEntity
  8
1
  6
Continuous
 62
     7
100
AcDbLine
 10
362.2726655151832
 20
286.6219569125705
 30
0.0
 11
363.5367434696975
 21
325.3870141843412
 31
0.0
  0
LINE
  5
13A
330
47
100
AcDbEntity
  8
1
  6
Continuous
 62
     7
100
AcDbLine
 10
146.1672915887166
 20
596.3430688324602
 30
0.0
 11
145.4621990324098
 21
596.0403714920134
 31
0.0
  0
LINE
  5
13B
330
47
100
AcDbEntity
  8
1
  6
Continuous
 62
     7
100
AcDbLine
 10
137.622721796027
 20
605.870765014447
 30
0.0
 11
138.0747277363267
 21
606.4908229333596
 31
0.0
  0
LINE
  5
13C
330
47
100
AcDbEntity
  8
1
  6
Continuous
 62
     7
100
AcDbLine
 10
148.1340817247549
 20
587.7259982183124
 30
0.0
 11
147.3674798286388
 21
587.6927909036975
 31
0.0
  0
LINE
  5
13D
330
47
100
AcDbEntity
  8
1
  6
Continuous
 62
     7
100
AcDbLine
 10
144.5696027965387
 20
575.4344906847065
 30
0.0
 11
145.2458791251831
 21
575.0719558309504
 31
0.0
  0
LINE
  5
13E
330
47
100
AcDbEntity
  8
1
  6
Continuous
 62
     7
100
AcDbLine
 10
139.7350556246086
 20
568.1616017333704
 30
0.0
 11
139.2311246362806
 21
568.740250808264
 31
0.0
  0
LINE
  5
13F
330
47
100
AcDbEntity
  8
1
  6
Continuous
 62
     7
100
AcDbLine
 10
127.9027518071594
 20
563.2847939813705
 30
0.0
 11
128.0409620391492
 21
562.5300230726532
 31
0.0
  0
LINE
  5
140
330
47
100
AcDbEntity
  8
1
  6
Continuous
 62
     7
100
AcDbLine
 10
119.2022873982075
 20
562.5300230726532
 30
0.0
 11
119.3404976301972
 21
563.2847939813705
 31
0.0
  0
LINE
  5
141
330
47
100
AcDbEntity
  8
1
  6
Continuous
 62
     7
100
AcDbLine
 10
108.0121248010761
 20
568.740250808264
 30
0.0
 11
107.5081938127483
 21
568.1616017333704
 31
0.0
  0
LINE
  5
142
330
47
100
AcDbEntity
  8
1
  6
Continuous
 62
     7
100
AcDbLine
 10
101.9973703121736
 20
575.0719558309503
 30
0.0
 11
102.6736466408179
 21
575.4344906847065
 31
0.0
  0
LINE
  5
143
330
47
100
AcDbEntity
  8
1
  6
Continuous
 62
     7
100
AcDbLine
 10
99.87576960871783
 20
587.6927909036974
 30
0.0
 11
99.10916771260193
 21
587.7259982183124
 31
0.0
  0
LINE
  5
144
330
47
100
AcDbEntity
  8
1
  6
Continuous
 62
     7
100
AcDbLine
 10
109.16852170103
 20
606.4908229333596
 30
0.0
 11
109.7142865354955
 21
605.6641786795029
 31
0.0
  0
LINE
  5
145
330
47
100
AcDbEntity
  8
1
  6
Continuous
 62
     7
100
AcDbLine
 10
101.7810504049467
 20
596.0403714920134
 30
0.0
 11
101.0759578486402
 21
596.3430688324601
 31
0.0
  0
LINE
  5
146
330
47
100
AcDbEntity
  8
1
  6
Continuous
 62
     7
100
AcDbLine
 10
130.1113570513198
 20
610.3257801354148
 30
0.0
 11
129.9083973435168
 21
609.5857878720221
 31
0.0
  0
LINE
  5
147
330
47
100
AcDbEntity
  8
1
  6
Continuous
 62
     7
100
AcDbLine
 10
117.3348520938398
 20
609.5857878720221
 30
0.0
 11
117.1318923860369
 21
610.3257801354148
 31
0.0
  0
LINE
  5
148
330
47
100
AcDbEntity
  8
1
  6
Continuous
 62
     7
100
AcDbLine
 10
141.6216247186783
 20
328.4915914221215
 30
0.0
 11
105.6216247186784
 21
328.4915914221215
 31
0.0
  0
LINE
  5
149
330
47
100
AcDbEntity
  8
1
  6
Continuous
 62
     7
100
AcDbLine
 10
112.3919367238819
 20
325.9915914221215
 30
0.0
 11
112.0294018701258
 21
297.0209774466487
 31
0.0
  0
LINE
  5
14A
330
47
100
AcDbEntity
  8
1
  6
Continuous
 62
     7
100
AcDbLine
 10
112.0448167529737
 20
296.5656288773029
 30
0.0
 11
112.0294018701258
 21
297.269301591848
 31
0.0
  0
LINE
  5
14B
330
47
100
AcDbEntity
  8
1
  6
Continuous
 62
     7
100
AcDbLine
 10
105.6976968474395
 20
325.9915914221215
 30
0.0
 11
112.3919367238819
 21
325.9915914221215
 31
0.0
  0
LINE
  5
14C
330
47
100
AcDbEntity
  8
1
  6
Continuous
 62
     7
100
AcDbLine
 10
147.2832261745903
 20
297.0209774466487
 30
0.0
 11
147.0970779835435
 21
326.2559596547125
 31
0.0
  0
LINE
  5
14D
330
47
100
AcDbEntity
  8
1
  6
Continuous
 62
     7
100
AcDbLine
 10
133.3382520373388
 20
296.2260559644285
 30
0.0
 11
133.3005148716355
 21
297.0209774466487
 31
0.0
  0
LINE
  5
14E
330
47
100
AcDbEntity
  8
1
  6
Continuous
 62
     7
100
AcDbLine
 10
124.6502369428729
 20
325.9915914221215
 30
0.0
 11
124.6834442574879
 21
297.0209774466487
 31
0.0
  0
LINE
  5
14F
330
47
100
AcDbEntity
  8
1
  6
Continuous
 62
     7
100
AcDbLine
 10
99.78563814101946
 20
325.9915914221215
 30
0.0
 11
99.48746911182863
 21
297.0209774466487
 31
0.0
  0
LINE
  5
150
330
47
100
AcDbEntity
  8
1
  6
Continuous
 62
     7
100
AcDbLine
 10
105.1195577393436
 20
297.0465094173715
 30
0.0
 11
105.1190477725458
 21
297.0209774466487
 31
0.0
  0
LINE
  5
151
330
47
100
AcDbEntity
  8
1
  6
Continuous
 62
     7
100
AcDbLine
 10
142.8282110536225
 20
325.9915914221215
 30
0.0
 11
143.448268972535
 21
297.0209774466487
 31
0.0
  0
LINE
  5
152
330
47
100
AcDbEntity
  8
1
  6
Continuous
 62
     7
100
AcDbLine
 10
148.8607551534609
 20
290.4915914221215
 30
0.0
 11
148.986938887468
 21
286.6219569125705
 31
0.0
  0
LINE
  5
153
330
47
100
AcDbEntity
  8
1
  6
Continuous
 62
     7
100
AcDbLine
 10
142.8282110536225
 20
325.9915914221215
 30
0.0
 11
147.098761298003
 21
325.9915914221215
 31
0.0
  0
LINE
  5
154
330
47
100
AcDbEntity
  8
1
  6
Continuous
 62
     7
100
AcDbLine
 10
132.9978175311887
 20
325.9915914221215
 30
0.0
 11
133.3005148716355
 21
297.0209774466487
 31
0.0
  0
LINE
  5
155
330
47
100
AcDbEntity
  8
1
  6
Continuous
 62
     7
100
AcDbLine
 10
124.6502369428729
 20
325.9915914221215
 30
0.0
 11
132.9978175311887
 21
325.9915914221215
 31
0.0
  0
LINE
  5
156
330
47
100
AcDbEntity
  8
1
  6
Continuous
 62
     7
100
AcDbLine
 10
105.6976968474395
 20
325.9915914221215
 30
0.0
 11
105.1195577393436
 21
297.0465094173715
 31
0.0
  0
LINE
  5
157
330
47
100
AcDbEntity
  8
1
  6
Continuous
 62
     7
100
AcDbLine
 10
144.9890638470371
 20
282.4915914221215
 30
0.0
 11
102.2541855903196
 21
282.4915914221215
 31
0.0
  0
LINE
  5
158
330
47
100
AcDbEntity
  8
1
  6
Continuous
 62
     7
100
AcDbLine
 10
146.2415615029435
 20
327.2536830916949
 30
0.0
 11
141.6216247186783
 21
328.4915914221215
 31
0.0
  0
LINE
  5
159
330
47
100
AcDbEntity
  8
1
  6
Continuous
 62
     7
100
AcDbLine
 10
105.6216247186784
 20
328.4915914221215
 30
0.0
 11
101.0016879344132
 21
327.2536830916949
 31
0.0
  0
LINE
  5
15A
330
47
100
AcDbEntity
  8
1
  6
Continuous
 62
     7
100
AcDbLine
 10
98.25631054988864
 20
286.6219569125705
 30
0.0
 11
99.52038850440292
 21
325.3870141843412
 31
0.0
  0
ARC
  5
15B
330
47
100
AcDbEntity
  8
1
  6
Continuous
 62
     7
100
AcDbCircle
 10
382.537441798672
 20
318.698451859673
 30
0.0
 40
9.52661355057931
100
AcDbArc
 50
49.95632643948294
 51
130.0436735605168
  0
ARC
  5
15C
330
47
100
AcDbEntity
  8
1
  6
Continuous
 62
     7
100
AcDbCircle
 10
383.9757485765538
 20
326.8244977610516
 30
0.0
 40
4.948575662935158
100
AcDbArc
 50
-44.72085786462836
 51
-41.6324139076017
  0
ARC
  5
15D
330
47
100
AcDbEntity
  8
1
  6
Continuous
 62
     7
100
AcDbCircle
 10
384.2470939978446
 20
325.4082716279968
 30
0.0
 40
4.579969507515625
100
AcDbArc
 50
42.23680230798381
 51
42.66618215493189
  0
ARC
  5
15E
330
47
100
AcDbEntity
  8
1
  6
Continuous
 62
     7
100
AcDbCircle
 10
379.5411271725818
 20
326.018987569933
 30
0.0
 40
3.134511334551829
100
AcDbArc
 50
-179.4992190289057
 51
-176.6149870025612
  0
ARC
  5
15F
330
47
100
AcDbEntity
  8
1
  6
Continuous
 62
     7
100
AcDbCircle
 10
380.1466436163036
 20
326.0548029322604
 30
0.0
 40
3.741086065146694
100
AcDbArc
 50
-176.6149870025624
 51
-165.7166785745
  0
ARC
  5
160
330
47
100
AcDbEntity
  8
1
  6
Continuous
 62
     7
100
AcDbCircle
 10
379.1463976043207
 20
325.8001534833491
 30
0.0
 40
2.708933738056114
100
AcDbArc
 50
-165.7166785744973
 51
-160.5877606757804
  0
ARC
  5
161
330
47
100
AcDbEntity
  8
1
  6
Continuous
 62
     7
100
AcDbCircle
 10
381.5113429103768
 20
326.6335500782641
 30
0.0
 40
5.216425749021099
100
AcDbArc
 50
-160.5877606757828
 51
-157.9246035598287
  0
ARC
  5
162
330
47
100
AcDbEntity
  8
1
  6
Continuous
 62
     7
100
AcDbCircle
 10
379.4947656842301
 20
325.81571152838
 30
0.0
 40
3.040318306202491
100
AcDbArc
 50
-157.924603559829
 51
-151.7640175144429
  0
ARC
  5
163
330
47
100
AcDbEntity
  8
1
  6
Continuous
 62
     7
100
AcDbCircle
 10
381.9388871556482
 20
327.1282148719645
 30
0.0
 40
5.814556002213193
100
AcDbArc
 50
-151.7640175144445
 51
-149.2703806321683
  0
ARC
  5
164
330
47
100
AcDbEntity
  8
1
  6
Continuous
 62
     7
100
AcDbCircle
 10
379.596582258934
 20
325.7358177406342
 30
0.0
 40
3.089640957572825
100
AcDbArc
 50
-149.2703806321687
 51
-144.5760704267913
  0
ARC
  5
165
330
47
100
AcDbEntity
  8
1
  6
Continuous
 62
     7
100
AcDbCircle
 10
382.5201613063887
 20
327.8153354752025
 30
0.0
 40
6.677357286255973
100
AcDbArc
 50
-144.5760704267906
 51
-142.4044749089352
  0
ARC
  5
166
330
47
100
AcDbEntity
  8
1
  6
Continuous
 62
     7
100
AcDbCircle
 10
379.8797826432787
 20
325.7822986691239
 30
0.0
 40
3.344965031512086
100
AcDbArc
 50
-142.4044749089332
 51
-137.834648235895
  0
ARC
  5
167
330
47
100
AcDbEntity
  8
1
  6
Continuous
 62
     7
100
AcDbCircle
 10
383.0009793221957
 20
328.6089895626324
 30
0.0
 40
7.55590911994727
100
AcDbArc
 50
-137.8346482358944
 51
-135.8120799918745
  0
ARC
  5
168
330
47
100
AcDbEntity
  8
1
  6
Continuous
 62
     7
100
AcDbCircle
 10
380.1644339880696
 20
325.851733117684
 30
0.0
 40
3.600096619870796
100
AcDbArc
 50
-135.8120799918778
 51
-131.5660034627222
  0
ARC
  5
169
330
47
100
AcDbEntity
  8
1
  6
Continuous
 62
     7
100
AcDbCircle
 10
383.527282582962
 20
329.6439303547149
 30
0.0
 40
8.668578696066071
100
AcDbArc
 50
-131.5660034627202
 51
-129.7380521804748
  0
ARC
  5
16A
330
47
100
AcDbEntity
  8
1
  6
Continuous
 62
     7
100
AcDbCircle
 10
380.4870763630404
 20
325.9869288120701
 30
0.0
 40
3.912896395643198
100
AcDbArc
 50
-129.7380521804757
 51
-125.6160010715577
  0
ARC
  5
16B
330
47
100
AcDbEntity
  8
1
  6
Continuous
 62
     7
100
AcDbCircle
 10
384.0663311239339
 20
330.9834303318644
 30
0.0
 40
10.05912223600118
100
AcDbArc
 50
-125.6160010715588
 51
-124.0127431470278
  0
ARC
  5
16C
330
47
100
AcDbEntity
  8
1
  6
Continuous
 62
     7
100
AcDbCircle
 10
380.79062717598
 20
326.1293286361909
 30
0.0
 40
4.203139002881373
100
AcDbArc
 50
-124.012743147027
 51
-120.1114923701995
  0
ARC
  5
16D
330
47
100
AcDbEntity
  8
1
  6
Continuous
 62
     7
100
AcDbCircle
 10
384.3662732047847
 20
332.2947911552665
 30
0.0
 40
11.33042267882928
100
AcDbArc
 50
-120.1114923702022
 51
-118.6173625161501
  0
ARC
  5
16E
330
47
100
AcDbEntity
  8
1
  6
Continuous
 62
     7
100
AcDbCircle
 10
381.0898662232694
 20
326.2897661177047
 30
0.0
 40
4.489723269392647
100
AcDbArc
 50
-118.6173625161502
 51
-114.8460548730234
  0
ARC
  5
16F
330
47
100
AcDbEntity
  8
1
  6
Continuous
 62
     7
100
AcDbCircle
 10
384.7335920399361
 20
334.1588932738437
 30
0.0
 40
13.16151086057179
100
AcDbArc
 50
-114.8460548730231
 51
-113.5597549859613
  0
ARC
  5
170
330
47
100
AcDbEntity
  8
1
  6
Continuous
 62
     7
100
AcDbCircle
 10
381.5580703120529
 20
326.8764724055384
 30
0.0
 40
5.216852784393326
100
AcDbArc
 50
-113.5597549859618
 51
-109.0593715282396
  0
ARC
  5
171
330
47
100
AcDbEntity
  8
1
  6
Continuous
 62
     7
100
AcDbCircle
 10
382.5531590780258
 20
329.7567209845232
 30
0.0
 40
8.264152167274775
100
AcDbArc
 50
-109.0593715282392
 51
-85.66965580710441
  0
ARC
  5
172
330
47
100
AcDbEntity
  8
1
  6
Continuous
 62
     7
100
AcDbCircle
 10
382.5739249817694
 20
329.4824858913577
 30
0.0
 40
7.989131969685817
100
AcDbArc
 50
-85.66965580710502
 51
-80.34343319794876
  0
ARC
  5
173
330
47
100
AcDbEntity
  8
1
  6
Continuous
 62
     7
100
AcDbCircle
 10
382.5380344206194
 20
329.6934169639902
 30
0.0
 40
8.2030946995749
100
AcDbArc
 50
-80.34343319794786
 51
-76.66774650651239
  0
ARC
  5
174
330
47
100
AcDbEntity
  8
1
  6
Continuous
 62
     7
100
AcDbCircle
 10
382.7275973654857
 20
328.893520826921
 30
0.0
 40
7.381043642666228
100
AcDbArc
 50
-76.66774650651215
 51
-73.44340940465062
  0
ARC
  5
175
330
47
100
AcDbEntity
  8
1
  6
Continuous
 62
     7
100
AcDbCircle
 10
382.6273449347693
 20
329.2307439077617
 30
0.0
 40
7.732853187898144
100
AcDbArc
 50
-73.44340940465102
 51
-70.40769061526757
  0
ARC
  5
176
330
47
100
AcDbEntity
  8
1
  6
Continuous
 62
     7
100
AcDbCircle
 10
382.9283730237156
 20
328.3849996091841
 30
0.0
 40
6.83513311520782
100
AcDbArc
 50
-70.40769061526721
 51
-66.97318287053271
  0
ARC
  5
177
330
47
100
AcDbEntity
  8
1
  6
Continuous
 62
     7
100
AcDbCircle
 10
382.7865125834642
 20
328.7187674364195
 30
0.0
 40
7.19779734973576
100
AcDbArc
 50
-66.97318287053223
 51
-64.62100727048298
  0
ARC
  5
178
330
47
100
AcDbEntity
  8
1
  6
Continuous
 62
     7
100
AcDbCircle
 10
383.1893053067277
 20
327.8696846257122
 30
0.0
 40
6.258018866606571
100
AcDbArc
 50
-64.62100727048276
 51
-61.91557534034196
  0
ARC
  5
179
330
47
100
AcDbEntity
  8
1
  6
Continuous
 62
     7
100
AcDbCircle
 10
383.0220550314217
 20
328.18312159725
 30
0.0
 40
6.613286919936423
100
AcDbArc
 50
-61.91557534034241
 51
-59.35556977330236
  0
ARC
  5
17A
330
47
100
AcDbEntity
  8
1
  6
Continuous
 62
     7
100
AcDbCircle
 10
383.4454337388643
 20
327.4684926466483
 30
0.0
 40
5.782658202064241
100
AcDbArc
 50
-59.35556977330219
 51
-56.52019470947278
  0
ARC
  5
17B
330
47
100
AcDbEntity
  8
1
  6
Continuous
 62
     7
100
AcDbCircle
 10
383.3020814962612
 20
327.6852402077802
 30
0.0
 40
6.042522341021364
100
AcDbArc
 50
-56.52019470947289
 51
-53.85106107193741
  0
ARC
  5
17C
330
47
100
AcDbEntity
  8
1
  6
Continuous
 62
     7
100
AcDbCircle
 10
383.7536227037043
 20
327.0671323406326
 30
0.0
 40
5.277050723357586
100
AcDbArc
 50
-53.85106107193746
 51
-50.7948856760276
  0
ARC
  5
17D
330
47
100
AcDbEntity
  8
1
  6
Continuous
 62
     7
100
AcDbCircle
 10
383.6278332730103
 20
327.2213373154445
 30
0.0
 40
5.476053625675725
100
AcDbArc
 50
-50.79488567602725
 51
-47.90105868077622
  0
ARC
  5
17E
330
47
100
AcDbEntity
  8
1
  6
Continuous
 62
     7
100
AcDbCircle
 10
384.0768972859912
 20
326.7243298636846
 30
0.0
 40
4.806221635651776
100
AcDbArc
 50
-47.90105868077637
 51
-44.72085786462769
  0
ARC
  5
17F
330
47
100
AcDbEntity
  8
1
  6
Continuous
 62
     7
100
AcDbCircle
 10
384.4141669265736
 20
326.4348079766039
 30
0.0
 40
4.362001901386855
100
AcDbArc
 50
-41.63241390760301
 51
-38.12846294756879
  0
ARC
  5
180
330
47
100
AcDbEntity
  8
1
  6
Continuous
 62
     7
100
AcDbCircle
 10
384.3219028765445
 20
326.5072262753479
 30
0.0
 40
4.479292416436987
100
AcDbArc
 50
-38.12846294756665
 51
-34.89099171670591
  0
ARC
  5
181
330
47
100
AcDbEntity
  8
1
  6
Continuous
 62
     7
100
AcDbCircle
 10
384.7176694369277
 20
326.2312281945356
 30
0.0
 40
3.996792560551424
100
AcDbArc
 50
-34.89099171670628
 51
-31.26255722433552
  0
ARC
  5
182
330
47
100
AcDbEntity
  8
1
  6
Continuous
 62
     7
100
AcDbCircle
 10
384.651882918903
 20
326.2711681634638
 30
0.0
 40
4.073754025400947
100
AcDbArc
 50
-31.26255722433537
 51
-27.70304462905127
  0
ARC
  5
183
330
47
100
AcDbEntity
  8
1
  6
Continuous
 62
     7
100
AcDbCircle
 10
385.0041922739565
 20
326.0861777346198
 30
0.0
 40
3.675830238197938
100
AcDbArc
 50
-27.70304462905179
 51
-22.60833429667658
  0
ARC
  5
184
330
47
100
AcDbEntity
  8
1
  6
Continuous
 62
     7
100
AcDbCircle
 10
384.9581287432771
 20
326.105359993722
 30
0.0
 40
3.72572821333655
100
AcDbArc
 50
-22.60833429667537
 51
-18.87930146771116
  0
ARC
  5
185
330
47
100
AcDbEntity
  8
1
  6
Continuous
 62
     7
100
AcDbCircle
 10
385.2403111740816
 20
326.0088612295328
 30
0.0
 40
3.427501897017973
100
AcDbArc
 50
-18.87930146771157
 51
-8.20094580508563
  0
ARC
  5
186
330
47
100
AcDbEntity
  8
1
  6
Continuous
 62
     7
100
AcDbCircle
 10
385.3585052123419
 20
325.9918272168369
 30
0.0
 40
3.308086704229127
100
AcDbArc
 50
-8.2009458050844
 51
-0.00408394435955
  0
ARC
  5
187
330
47
100
AcDbEntity
  8
1
  6
Continuous
 62
     7
100
AcDbCircle
 10
382.0473060564198
 20
297.0159089742382
 30
0.0
 40
6.652858569597717
100
AcDbArc
 50
-48.68274440452908
 51
2.98715088743788
  0
ARC
  5
188
330
47
100
AcDbEntity
  8
1
  6
Continuous
 62
     7
100
AcDbCircle
 10
378.3847710493876
 20
297.0105165038705
 30
0.0
 40
14.88073584422093
100
AcDbArc
 50
178.9552823317371
 51
-177.8554285436825
  0
ARC
  5
189
330
47
100
AcDbEntity
  8
1
  6
Continuous
 62
     7
100
AcDbCircle
 10
354.5011465319594
 20
297.0164966283146
 30
0.0
 40
14.63479694756619
100
AcDbArc
 50
-9.17137269973224
 51
0.1175012783506
  0
ARC
  5
18A
330
47
100
AcDbEntity
  8
1
  6
Continuous
 62
     7
100
AcDbCircle
 10
399.5360930930451
 20
296.9827747214912
 30
0.0
 40
7.934653163859504
100
AcDbArc
 50
-23.20129833447271
 51
3.6535771969978
  0
ARC
  5
18B
330
47
100
AcDbEntity
  8
1
  6
Continuous
 62
     7
100
AcDbCircle
 10
402.3909910522367
 20
294.4561880974433
 30
0.0
 40
3.964596682840449
100
AcDbArc
 50
-90.00352863530063
 51
-75.85448365097271
  0
ARC
  5
18C
330
47
100
AcDbEntity
  8
1
  6
Continuous
 62
     7
100
AcDbCircle
 10
402.3190780696925
 20
294.7415261201738
 30
0.0
 40
4.258857220925442
100
AcDbArc
 50
-75.85448365097291
 51
-70.98243723234521
  0
ARC
  5
18D
330
47
100
AcDbEntity
  8
1
  6
Continuous
 62
     7
100
AcDbCircle
 10
402.3356675622202
 20
294.6933946683596
 30
0.0
 40
4.207947026307244
100
AcDbArc
 50
-70.9824372323467
 51
-64.8181953585475
  0
ARC
  5
18E
330
47
100
AcDbEntity
  8
1
  6
Continuous
 62
     7
100
AcDbCircle
 10
402.141222546637
 20
295.1069522067808
 30
0.0
 40
4.664935758849113
100
AcDbArc
 50
-64.81819535854632
 51
-61.36801363238954
  0
ARC
  5
18F
330
47
100
AcDbEntity
  8
1
  6
Continuous
 62
     7
100
AcDbCircle
 10
402.2473960929505
 20
294.9124745530518
 30
0.0
 40
4.443363243096981
100
AcDbArc
 50
-61.36801363238958
 51
-57.74566779059713
  0
ARC
  5
190
330
47
100
AcDbEntity
  8
1
  6
Continuous
 62
     7
100
AcDbCircle
 10
401.9552870954138
 20
295.3753617364994
 30
0.0
 40
4.990713415328525
100
AcDbArc
 50
-57.74566779059641
 51
-53.44559234081951
  0
ARC
  5
191
330
47
100
AcDbEntity
  8
1
  6
Continuous
 62
     7
100
AcDbCircle
 10
402.0375842245404
 20
295.2643641417712
 30
0.0
 40
4.852534967305963
100
AcDbArc
 50
-53.44559234082183
 51
-49.98620487583711
  0
ARC
  5
192
330
47
100
AcDbEntity
  8
1
  6
Continuous
 62
     7
100
AcDbCircle
 10
401.660388415471
 20
295.713668861766
 30
0.0
 40
5.439179160824672
100
AcDbArc
 50
-49.98620487583692
 51
-45.87129040375633
  0
ARC
  5
193
330
47
100
AcDbEntity
  8
1
  6
Continuous
 62
     7
100
AcDbCircle
 10
401.6666868621194
 20
295.7071758823607
 30
0.0
 40
5.430133210805886
100
AcDbArc
 50
-45.87129040375572
 51
-41.7030695092891
  0
ARC
  5
194
330
47
100
AcDbEntity
  8
1
  6
Continuous
 62
     7
100
AcDbCircle
 10
401.1703493246049
 20
296.1494441978954
 30
0.0
 40
6.094928076965315
100
AcDbArc
 50
-41.70306950928862
 51
-38.82538449375789
  0
ARC
  5
195
330
47
100
AcDbEntity
  8
1
  6
Continuous
 62
     7
100
AcDbCircle
 10
401.3821242225423
 20
295.9790182745828
 30
0.0
 40
5.823094299201493
100
AcDbArc
 50
-38.82538449375814
 51
-35.81321417305316
  0
ARC
  5
196
330
47
100
AcDbEntity
  8
1
  6
Continuous
 62
     7
100
AcDbCircle
 10
400.7396335727237
 20
296.4426224378506
 30
0.0
 40
6.615384053839017
100
AcDbArc
 50
-35.81321417305431
 51
-33.16183963553463
  0
ARC
  5
197
330
47
100
AcDbEntity
  8
1
  6
Continuous
 62
     7
100
AcDbCircle
 10
400.9647051387931
 20
296.2955537326382
 30
0.0
 40
6.34652272544497
100
AcDbArc
 50
-33.16183963553453
 51
-29.32503805671863
  0
ARC
  5
198
330
47
100
AcDbEntity
  8
1
  6
Continuous
 62
     7
100
AcDbCircle
 10
400.166339712989
 20
296.7440343789606
 30
0.0
 40
7.262231327154795
100
AcDbArc
 50
-29.32503805671711
 51
-26.81033889346412
  0
ARC
  5
199
330
47
100
AcDbEntity
  8
1
  6
Continuous
 62
     7
100
AcDbCircle
 10
400.5755455344462
 20
296.5372369546977
 30
0.0
 40
6.803739692556925
100
AcDbArc
 50
-26.81033889346464
 51
-23.20129833447279
  0
ARC
  5
19A
330
47
100
AcDbEntity
  8
1
  6
Continuous
 62
     7
100
AcDbCircle
 10
405.6815613661833
 20
297.0244002272889
 30
0.0
 40
8.365137329098987
100
AcDbArc
 50
-174.5235231651755
 51
-169.1075420612199
  0
ARC
  5
19B
330
47
100
AcDbEntity
  8
1
  6
Continuous
 62
     7
100
AcDbCircle
 10
405.1650756160925
 20
296.9250112549079
 30
0.0
 40
7.839175640496332
100
AcDbArc
 50
-169.1075420612197
 51
-164.1790139531194
  0
ARC
  5
19C
330
47
100
AcDbEntity
  8
1
  6
Continuous
 62
     7
100
AcDbCircle
 10
405.2157588833304
 20
296.939373226509
 30
0.0
 40
7.8918544769126
100
AcDbArc
 50
-164.1790139531191
 51
-160.9900280688027
  0
ARC
  5
19D
330
47
100
AcDbEntity
  8
1
  6
Continuous
 62
     7
100
AcDbCircle
 10
404.6573210205248
 20
296.7469789280472
 30
0.0
 40
7.301203638688048
100
AcDbArc
 50
-160.9900280688035
 51
-157.5430824948292
  0
ARC
  5
19E
330
47
100
AcDbEntity
  8
1
  6
Continuous
 62
     7
100
AcDbCircle
 10
404.7035115123288
 20
296.7660709777039
 30
0.0
 40
7.351184313885288
100
AcDbArc
 50
-157.5430824948284
 51
-154.1751101405426
  0
ARC
  5
19F
330
47
100
AcDbEntity
  8
1
  6
Continuous
 62
     7
100
AcDbCircle
 10
404.1659638825411
 20
296.5059221523757
 30
0.0
 40
6.753995176668225
100
AcDbArc
 50
-154.1751101405429
 51
-150.5697905568006
  0
ARC
  5
1A0
330
47
100
AcDbEntity
  8
1
  6
Continuous
 62
     7
100
AcDbCircle
 10
404.1315666992947
 20
296.486516434347
 30
0.0
 40
6.714501530249046
100
AcDbArc
 50
-150.5697905568003
 51
-146.9433317509485
  0
ARC
  5
1A1
330
47
100
AcDbEntity
  8
1
  6
Continuous
 62
     7
100
AcDbCircle
 10
403.6410308615516
 20
296.1672685217689
 30
0.0
 40
6.129228399312802
100
AcDbArc
 50
-146.9433317509485
 51
-144.0816144404636
  0
ARC
  5
1A2
330
47
100
AcDbEntity
  8
1
  6
Continuous
 62
     7
100
AcDbCircle
 10
403.7470636136264
 20
296.2440752993682
 30
0.0
 40
6.260156721679288
100
AcDbArc
 50
-144.0816144404636
 51
-141.279786892723
  0
ARC
  5
1A3
330
47
100
AcDbEntity
  8
1
  6
Continuous
 62
     7
100
AcDbCircle
 10
403.3126038981567
 20
295.8957557151429
 30
0.0
 40
5.703306852216498
100
AcDbArc
 50
-141.2797868927231
 51
-137.1792411131276
  0
ARC
  5
1A4
330
47
100
AcDbEntity
  8
1
  6
Continuous
 62
     7
100
AcDbCircle
 10
403.236761650913
 20
295.8254739658945
 30
0.0
 40
5.599906800260984
100
AcDbArc
 50
-137.1792411131281
 51
-133.1823414855977
  0
ARC
  5
1A5
330
47
100
AcDbEntity
  8
1
  6
Continuous
 62
     7
100
AcDbCircle
 10
402.9123653973343
 20
295.4798136184263
 30
0.0
 40
5.125866712138
100
AcDbArc
 50
-133.1823414855967
 51
-129.9075011746966
  0
ARC
  5
1A6
330
47
100
AcDbEntity
  8
1
  6
Continuous
 62
     7
100
AcDbCircle
 10
402.9407860317177
 20
295.5137952741335
 30
0.0
 40
5.17016666003148
100
AcDbArc
 50
-129.9075011746976
 51
-126.6607016086473
  0
ARC
  5
1A7
330
47
100
AcDbEntity
  8
1
  6
Continuous
 62
     7
100
AcDbCircle
 10
402.6933291024291
 20
295.1813306773718
 30
0.0
 40
4.755718062551694
100
AcDbArc
 50
-126.6607016086461
 51
-122.1480382599393
  0
ARC
  5
1A8
330
47
100
AcDbEntity
  8
1
  6
Continuous
 62
     7
100
AcDbCircle
 10
402.6744848011394
 20
295.1513461629274
 30
0.0
 40
4.720303675679058
100
AcDbArc
 50
-122.1480382599383
 51
-118.7382803170652
  0
ARC
  5
1A9
330
47
100
AcDbEntity
  8
1
  6
Continuous
 62
     7
100
AcDbCircle
 10
402.517722944857
 20
294.8654683783468
 30
0.0
 40
4.394266273987499
100
AcDbArc
 50
-118.7382803170646
 51
-115.075510691992
  0
ARC
  5
1AA
330
47
100
AcDbEntity
  8
1
  6
Continuous
 62
     7
100
AcDbCircle
 10
402.5023989311948
 20
294.8327186801459
 30
0.0
 40
4.358108728067299
100
AcDbArc
 50
-115.075510691994
 51
-109.1238567171106
  0
ARC
  5
1AB
330
47
100
AcDbEntity
  8
1
  6
Continuous
 62
     7
100
AcDbCircle
 10
402.4109277888707
 20
294.5689210661498
 30
0.0
 40
4.078902440480323
100
AcDbArc
 50
-109.1238567171108
 51
-99.0209716991139
  0
ARC
  5
1AC
330
47
100
AcDbEntity
  8
1
  6
Continuous
 62
     7
100
AcDbCircle
 10
402.3909902608456
 20
294.4433379875429
 30
0.0
 40
3.951746572915548
100
AcDbArc
 50
-99.02097169911446
 51
-90.00352863529632
  0
ARC
  5
1AD
330
47
100
AcDbEntity
  8
1
  6
Continuous
 62
     7
100
AcDbCircle
 10
382.3470116619969
 20
296.9419762894248
 30
0.0
 40
6.450436329583427
100
AcDbArc
 50
-89.77113051906964
 51
-80.94134660033507
  0
ARC
  5
1AE
330
47
100
AcDbEntity
  8
1
  6
Continuous
 62
     7
100
AcDbCircle
 10
382.3990133228689
 20
296.6158120741914
 30
0.0
 40
6.120152712017671
100
AcDbArc
 50
-80.94134660033512
 51
-48.68274440452974
  0
ARC
  5
1AF
330
47
100
AcDbEntity
  8
1
  6
Continuous
 62
     7
100
AcDbCircle
 10
381.9687432901935
 20
297.0118093407415
 30
0.0
 40
6.731528228500974
100
AcDbArc
 50
32.62772620543478
 51
32.93425783886956
  0
ARC
  5
1B0
330
47
100
AcDbEntity
  8
1
  6
Continuous
 62
     7
100
AcDbCircle
 10
382.6260597424052
 20
296.9824779281213
 30
0.0
 40
6.578108991239264
100
AcDbArc
 50
-176.3667818461617
 51
-150.6302373371258
  0
ARC
  5
1B1
330
47
100
AcDbEntity
  8
1
  6
Continuous
 62
     7
100
AcDbCircle
 10
382.6499288684865
 20
296.9959108982168
 30
0.0
 40
6.605498402796862
100
AcDbArc
 50
-150.6302373371262
 51
-130.149000010244
  0
ARC
  5
1B2
330
47
100
AcDbEntity
  8
1
  6
Continuous
 62
     7
100
AcDbCircle
 10
382.3730627248585
 20
296.6676919000552
 30
0.0
 40
6.176100484495476
100
AcDbArc
 50
-130.149000010244
 51
-90.0026411269334
  0
ARC
  5
1B3
330
47
100
AcDbEntity
  8
1
  6
Continuous
 62
     7
100
AcDbCircle
 10
366.3164416499814
 20
291.8029340443961
 30
0.0
 40
1.311346458049816
100
AcDbArc
 50
-89.86141839597022
 51
-87.67188303364318
  0
ARC
  5
1B4
330
47
100
AcDbEntity
  8
1
  6
Continuous
 62
     7
100
AcDbCircle
 10
366.3232029781171
 20
291.636626963162
 30
0.0
 40
1.144901990353235
100
AcDbArc
 50
-87.67188303363942
 51
-82.65276214342221
  0
ARC
  5
1B5
330
47
100
AcDbEntity
  8
1
  6
Continuous
 62
     7
100
AcDbCircle
 10
366.2939625332695
 20
291.8634007456758
 30
0.0
 40
1.373553148343984
100
AcDbArc
 50
-82.65276214343136
 51
-78.46420818880721
  0
ARC
  5
1B6
330
47
100
AcDbEntity
  8
1
  6
Continuous
 62
     7
100
AcDbCircle
 10
366.3175551931041
 20
291.7478087722772
 30
0.0
 40
1.255578075077319
100
AcDbArc
 50
-78.46420818880469
 51
-73.87752845379198
  0
ARC
  5
1B7
330
47
100
AcDbEntity
  8
1
  6
Continuous
 62
     7
100
AcDbCircle
 10
366.2485419551812
 20
291.9865592583954
 30
0.0
 40
1.504102966447098
100
AcDbArc
 50
-73.87752845379201
 51
-70.04962738612079
  0
ARC
  5
1B8
330
47
100
AcDbEntity
  8
1
  6
Continuous
 62
     7
100
AcDbCircle
 10
366.3036056535538
 20
291.834864298958
 30
0.0
 40
1.342723377907425
100
AcDbArc
 50
-70.0496273861187
 51
-65.51525643850084
  0
ARC
  5
1B9
330
47
100
AcDbEntity
  8
1
  6
Continuous
 62
     7
100
AcDbCircle
 10
366.1102615807549
 20
292.2594186903974
 30
0.0
 40
1.809229928533543
100
AcDbArc
 50
-65.51525643849989
 51
-63.74114577957375
  0
ARC
  5
1BA
330
47
100
AcDbEntity
  8
1
  6
Continuous
 62
     7
100
AcDbCircle
 10
366.3086592705272
 20
291.8572646548064
 30
0.0
 40
1.36079987640822
100
AcDbArc
 50
-63.74114577957341
 51
-61.38306586345886
  0
ARC
  5
1BB
330
47
100
AcDbEntity
  8
1
  6
Continuous
 62
     7
100
AcDbCircle
 10
365.9962272267021
 20
292.4299027976664
 30
0.0
 40
2.01312512095017
100
AcDbArc
 50
-61.38306586345931
 51
-59.7889955523565
  0
ARC
  5
1BC
330
47
100
AcDbEntity
  8
1
  6
Continuous
 62
     7
100
AcDbCircle
 10
366.2678432232087
 20
291.9634258944402
 30
0.0
 40
1.473332613775702
100
AcDbArc
 50
-59.78899555235605
 51
-57.6100899575378
  0
ARC
  5
1BD
330
47
100
AcDbEntity
  8
1
  6
Continuous
 62
     7
100
AcDbCircle
 10
365.8432005928032
 20
292.6328161430959
 30
0.0
 40
2.266052405728106
100
AcDbArc
 50
-57.61008995754132
 51
-56.19284998897042
  0
ARC
  5
1BE
330
47
100
AcDbEntity
  8
1
  6
Continuous
 62
     7
100
AcDbCircle
 10
366.2127096098787
 20
292.0809991395366
 30
0.0
 40
1.601944794630814
100
AcDbArc
 50
-56.19284998896577
 51
-54.18724894650691
  0
ARC
  5
1BF
330
47
100
AcDbEntity
  8
1
  6
Continuous
 62
     7
100
AcDbCircle
 10
365.6438716347108
 20
292.8693425905123
 30
0.0
 40
2.574087808127004
100
AcDbArc
 50
-54.18724894651152
 51
-52.93887823697325
  0
ARC
  5
1C0
330
47
100
AcDbEntity
  8
1
  6
Continuous
 62
     7
100
AcDbCircle
 10
366.1438087935595
 20
292.2073740164046
 30
0.0
 40
1.744546033468166
100
AcDbArc
 50
-52.9388782369719
 51
-51.09704498094259
  0
ARC
  5
1C1
330
47
100
AcDbEntity
  8
1
  6
Continuous
 62
     7
100
AcDbCircle
 10
365.3894123822092
 20
293.1422090777833
 30
0.0
 40
2.945808093737106
100
AcDbArc
 50
-51.09704498094436
 51
-50.00688665208359
  0
ARC
  5
1C2
330
47
100
AcDbEntity
  8
1
  6
Continuous
 62
     7
100
AcDbCircle
 10
365.9006139827394
 20
292.5328340016334
 30
0.0
 40
2.150405642259003
100
AcDbArc
 50
-50.00688665208173
 51
-46.50561555919521
  0
ARC
  5
1C3
330
47
100
AcDbEntity
  8
1
  6
Continuous
 62
     7
100
AcDbCircle
 10
364.9664947231972
 20
293.5173835502574
 30
0.0
 40
3.507577924890648
100
AcDbArc
 50
-46.5056155591974
 51
-45.43327125552437
  0
ARC
  5
1C4
330
47
100
AcDbEntity
  8
1
  6
Continuous
 62
     7
100
AcDbCircle
 10
365.9643424122711
 20
292.5043291093797
 30
0.0
 40
2.085614735925346
100
AcDbArc
 50
-45.43327125552127
 51
-43.63004584176529
  0
ARC
  5
1C5
330
47
100
AcDbEntity
  8
1
  6
Continuous
 62
     7
100
AcDbCircle
 10
364.5845687284732
 20
293.8196502258087
 30
0.0
 40
3.991879423167152
100
AcDbArc
 50
-43.63004584176524
 51
-42.68793323173678
  0
ARC
  5
1C6
330
47
100
AcDbEntity
  8
1
  6
Continuous
 62
     7
100
AcDbCircle
 10
365.8666481163643
 20
292.6370812505354
 30
0.0
 40
2.247689944316389
100
AcDbArc
 50
-42.68793323173959
 51
-41.01450796617949
  0
ARC
  5
1C7
330
47
100
AcDbEntity
  8
1
  6
Continuous
 62
     7
100
AcDbCircle
 10
364.0723964222141
 20
294.1975982693236
 30
0.0
 40
4.625620243523518
100
AcDbArc
 50
-41.01450796617651
 51
-40.20126148787555
  0
ARC
  5
1C8
330
47
100
AcDbEntity
  8
1
  6
Continuous
 62
     7
100
AcDbCircle
 10
365.7465687026028
 20
292.7827498164937
 30
0.0
 40
2.433669293137814
100
AcDbArc
 50
-40.20126148788067
 51
-38.65536970239766
  0
ARC
  5
1C9
330
47
100
AcDbEntity
  8
1
  6
Continuous
 62
     7
100
AcDbCircle
 10
363.3729533432
 20
294.6813405633225
 30
0.0
 40
5.473191738907371
100
AcDbArc
 50
-38.65536970239142
 51
-37.96802199846498
  0
ARC
  5
1CA
330
47
100
AcDbEntity
  8
1
  6
Continuous
 62
     7
100
AcDbCircle
 10
365.6022997504042
 20
292.94158712843
 30
0.0
 40
2.645343189650474
100
AcDbArc
 50
-37.96802199846511
 51
-36.54618074241672
  0
ARC
  5
1CB
330
47
100
AcDbEntity
  8
1
  6
Continuous
 62
     7
100
AcDbCircle
 10
362.9558758298729
 20
294.9031407481555
 30
0.0
 40
5.939467074725016
100
AcDbArc
 50
-36.54618074241725
 51
-35.80543944799005
  0
ARC
  5
1CC
330
47
100
AcDbEntity
  8
1
  6
Continuous
 62
     7
100
AcDbCircle
 10
365.3976233885194
 20
293.1417444544592
 30
0.0
 40
2.928711680541673
100
AcDbArc
 50
-35.80543944798878
 51
-34.30366880372514
  0
ARC
  5
1CD
330
47
100
AcDbEntity
  8
1
  6
Continuous
 62
     7
100
AcDbCircle
 10
362.2929482473501
 20
295.2599015647465
 30
0.0
 40
6.68711523471946
100
AcDbArc
 50
-34.30366880372671
 51
-33.64607499287371
  0
ARC
  5
1CE
330
47
100
AcDbEntity
  8
1
  6
Continuous
 62
     7
100
AcDbCircle
 10
365.2790753474462
 20
293.2724602813872
 30
0.0
 40
3.100072174937593
100
AcDbArc
 50
-33.64607499287327
 51
-32.22763346537028
  0
ARC
  5
1CF
330
47
100
AcDbEntity
  8
1
  6
Continuous
 62
     7
100
AcDbCircle
 10
361.4245276016698
 20
295.7023955854448
 30
0.0
 40
7.656619541790692
100
AcDbArc
 50
-32.22763346536956
 51
-31.65331946382552
  0
ARC
  5
1D0
330
47
100
AcDbEntity
  8
1
  6
Continuous
 62
     7
100
AcDbCircle
 10
365.1388865364204
 20
293.4125391743621
 30
0.0
 40
3.293145618465602
100
AcDbArc
 50
-31.65331946382633
 51
-30.31791106506414
  0
ARC
  5
1D1
330
47
100
AcDbEntity
  8
1
  6
Continuous
 62
     7
100
AcDbCircle
 10
360.2604285659913
 20
296.2653260082867
 30
0.0
 40
8.944494562660863
100
AcDbArc
 50
-30.31791106506512
 51
-29.82621846911808
  0
ARC
  5
1D2
330
47
100
AcDbEntity
  8
1
  6
Continuous
 62
     7
100
AcDbCircle
 10
364.9757345562811
 20
293.5619786235229
 30
0.0
 40
3.509221095320651
100
AcDbArc
 50
-29.82621846911796
 51
-28.57288548022748
  0
ARC
  5
1D3
330
47
100
AcDbEntity
  8
1
  6
Continuous
 62
     7
100
AcDbCircle
 10
358.6431544466368
 20
297.0107267288283
 30
0.0
 40
10.72000706766172
100
AcDbArc
 50
-28.57288548022715
 51
-28.16261701958331
  0
ARC
  5
1D4
330
47
100
AcDbEntity
  8
1
  6
Continuous
 62
     7
100
AcDbCircle
 10
364.7877788945999
 20
293.721167937892
 30
0.0
 40
3.750243323779636
100
AcDbArc
 50
-28.16261701958302
 51
-26.98997870179811
  0
ARC
  5
1D5
330
47
100
AcDbEntity
  8
1
  6
Continuous
 62
     7
100
AcDbCircle
 10
358.0098109734166
 20
297.1732219500506
 30
0.0
 40
11.35665680474755
100
AcDbArc
 50
-26.98997870179906
 51
-26.54741418885234
  0
ARC
  5
1D6
330
47
100
AcDbEntity
  8
1
  6
Continuous
 62
     7
100
AcDbCircle
 10
363.743270942095
 20
294.3086977435343
 30
0.0
 40
4.947439836805527
100
AcDbArc
 50
-26.54741418885099
 51
-24.516006603394
  0
ARC
  5
1D7
330
47
100
AcDbEntity
  8
1
  6
Continuous
 62
     7
100
AcDbCircle
 10
354.7733596467303
 20
298.3995485641763
 30
0.0
 40
14.80616029553955
100
AcDbArc
 50
-24.516006603395
 51
-24.1766460453255
  0
ARC
  5
1D8
330
47
100
AcDbEntity
  8
1
  6
Continuous
 62
     7
100
AcDbCircle
 10
364.3706499539516
 20
294.0910564163165
 30
0.0
 40
4.286127699142635
100
AcDbArc
 50
-24.176646045326
 51
-23.00431817506465
  0
ARC
  5
1D9
330
47
100
AcDbEntity
  8
1
  6
Continuous
 62
     7
100
AcDbCircle
 10
352.2508299709109
 20
299.2366928176897
 30
0.0
 40
17.45304117180009
100
AcDbArc
 50
-23.00431817506449
 51
-22.71641365425743
  0
ARC
  5
1DA
330
47
100
AcDbEntity
  8
1
  6
Continuous
 62
     7
100
AcDbCircle
 10
364.2152948330078
 20
294.2278210298964
 30
0.0
 40
4.482412196191241
100
AcDbArc
 50
-22.71641365425843
 51
-21.59535473440661
  0
ARC
  5
1DB
330
47
100
AcDbEntity
  8
1
  6
Continuous
 62
     7
100
AcDbCircle
 10
348.6578868745482
 20
300.3859755889439
 30
0.0
 40
21.21429224474104
100
AcDbArc
 50
-21.59535473440462
 51
-21.35848273784668
  0
ARC
  5
1DC
330
47
100
AcDbEntity
  8
1
  6
Continuous
 62
     7
100
AcDbCircle
 10
364.0426133358816
 20
294.3696236711853
 30
0.0
 40
4.69502171943135
100
AcDbArc
 50
-21.35848273784628
 51
-20.28817918890494
  0
ARC
  5
1DD
330
47
100
AcDbEntity
  8
1
  6
Continuous
 62
     7
100
AcDbCircle
 10
356.8550858496956
 20
297.0266851677748
 30
0.0
 40
12.35795374061857
100
AcDbArc
 50
-20.28817918890484
 51
-19.42981342019652
  0
ARC
  5
1DE
330
47
100
AcDbEntity
  8
1
  6
Continuous
 62
     7
100
AcDbCircle
 10
362.2926683002496
 20
295.1086292380912
 30
0.0
 40
6.591998359593965
100
AcDbArc
 50
-19.42981342019613
 51
-17.7360839875237
  0
ARC
  5
1DF
330
47
100
AcDbEntity
  8
1
  6
Continuous
 62
     7
100
AcDbCircle
 10
355.2208801684179
 20
297.370433021057
 30
0.0
 40
14.01668311614432
100
AcDbArc
 50
-17.73608398752371
 51
-16.93957213147087
  0
ARC
  5
1E0
330
47
100
AcDbEntity
  8
1
  6
Continuous
 62
     7
100
AcDbCircle
 10
361.8120586387257
 20
295.3629063395155
 30
0.0
 40
7.126559967422703
100
AcDbArc
 50
-16.93957213147105
 51
-15.37289078944678
  0
ARC
  5
1E1
330
47
100
AcDbEntity
  8
1
  6
Continuous
 62
     7
100
AcDbCircle
 10
352.6234181188696
 20
297.8892028120254
 30
0.0
 40
16.65616061331331
100
AcDbArc
 50
-15.37289078944789
 51
-14.70257036760802
  0
ARC
  5
1E2
330
47
100
AcDbEntity
  8
1
  6
Continuous
 62
     7
100
AcDbCircle
 10
361.164007460236
 20
295.648211624877
 30
0.0
 40
7.826454627339591
100
AcDbArc
 50
-14.70257036760741
 51
-13.21873037239473
  0
ARC
  5
1E3
330
47
100
AcDbEntity
  8
1
  6
Continuous
 62
     7
100
AcDbCircle
 10
350.7788389701342
 20
298.0876129262892
 30
0.0
 40
18.49427555183658
100
AcDbArc
 50
-13.21873037239536
 51
-12.56660082417118
  0
ARC
  5
1E4
330
47
100
AcDbEntity
  8
1
  6
Continuous
 62
     7
100
AcDbCircle
 10
360.697427678509
 20
295.8766155682433
 30
0.0
 40
8.332242719613328
100
AcDbArc
 50
-12.56660082417111
 51
-11.11912178003634
  0
ARC
  5
1E5
330
47
100
AcDbEntity
  8
1
  6
Continuous
 62
     7
100
AcDbCircle
 10
348.3247908091644
 20
298.3083188542387
 30
0.0
 40
20.94157751458905
100
AcDbArc
 50
-11.11912178003645
 51
-10.5432024387817
  0
ARC
  5
1E6
330
47
100
AcDbEntity
  8
1
  6
Continuous
 62
     7
100
AcDbCircle
 10
360.2693324627775
 20
296.0852117498527
 30
0.0
 40
8.79191576981302
100
AcDbArc
 50
-10.54320243878251
 51
-9.17137269973342
  0
ARC
  5
1E7
330
47
100
AcDbEntity
  8
1
  6
Continuous
 62
     7
100
AcDbCircle
 10
378.2438209339509
 20
297.005238299456
 30
0.0
 40
14.73968693609526
100
AcDbArc
 50
-177.8554285436831
 51
-175.2193581916123
  0
ARC
  5
1E8
330
47
100
AcDbEntity
  8
1
  6
Continuous
 62
     7
100
AcDbCircle
 10
377.8168314005488
 20
296.9695282641592
 30
0.0
 40
14.3112067518908
100
AcDbArc
 50
-175.2193581916121
 51
-173.889803917318
  0
ARC
  5
1E9
330
47
100
AcDbEntity
  8
1
  6
Continuous
 62
     7
100
AcDbCircle
 10
377.27287034144
 20
296.9112976888283
 30
0.0
 40
13.76413780401498
100
AcDbArc
 50
-173.8898039173179
 51
-172.5074189736181
  0
ARC
  5
1EA
330
47
100
AcDbEntity
  8
1
  6
Continuous
 62
     7
100
AcDbCircle
 10
376.9019921700011
 20
296.8625195061358
 30
0.0
 40
13.39006571315981
100
AcDbArc
 50
-172.5074189736183
 51
-171.0863941081749
  0
ARC
  5
1EB
330
47
100
AcDbEntity
  8
1
  6
Continuous
 62
     7
100
AcDbCircle
 10
376.3271432818475
 20
296.7723607118635
 30
0.0
 40
12.80818956448544
100
AcDbArc
 50
-171.0863941081753
 51
-170.1447494000446
  0
ARC
  5
1EC
330
47
100
AcDbEntity
  8
1
  6
Continuous
 62
     7
100
AcDbCircle
 10
375.976893559017
 20
296.711514197289
 30
0.0
 40
12.45269390111007
100
AcDbArc
 50
-170.1447494000445
 51
-169.176216486349
  0
ARC
  5
1ED
330
47
100
AcDbEntity
  8
1
  6
Continuous
 62
     7
100
AcDbCircle
 10
375.3942537038839
 20
296.6001190257323
 30
0.0
 40
11.85950077485555
100
AcDbArc
 50
-169.1762164863492
 51
-168.1592547758886
  0
ARC
  5
1EE
330
47
100
AcDbEntity
  8
1
  6
Continuous
 62
     7
100
AcDbCircle
 10
375.0883877920544
 20
296.5359932677806
 30
0.0
 40
11.54698506508679
100
AcDbArc
 50
-168.1592547758876
 51
-167.1147736794092
  0
ARC
  5
1EF
330
47
100
AcDbEntity
  8
1
  6
Continuous
 62
     7
100
AcDbCircle
 10
374.5853192433568
 20
296.4209117012983
 30
0.0
 40
11.03092137557494
100
AcDbArc
 50
-167.1147736794096
 51
-166.0213801173794
  0
ARC
  5
1F0
330
47
100
AcDbEntity
  8
1
  6
Continuous
 62
     7
100
AcDbCircle
 10
374.2320115016003
 20
296.3329622082737
 30
0.0
 40
10.6668314502703
100
AcDbArc
 50
-166.0213801173795
 51
-164.9746888389627
  0
ARC
  5
1F1
330
47
100
AcDbEntity
  8
1
  6
Continuous
 62
     7
100
AcDbCircle
 10
373.4926714881991
 20
296.1345065443837
 30
0.0
 40
9.901319656797305
100
AcDbArc
 50
-164.9746888389625
 51
-163.8470569374472
  0
ARC
  5
1F2
330
47
100
AcDbEntity
  8
1
  6
Continuous
 62
     7
100
AcDbCircle
 10
373.1297156453062
 20
296.0293813032325
 30
0.0
 40
9.523446317942772
100
AcDbArc
 50
-163.8470569374474
 51
-162.6747189694484
  0
ARC
  5
1F3
330
47
100
AcDbEntity
  8
1
  6
Continuous
 62
     7
100
AcDbCircle
 10
372.5356111650144
 20
295.8440507525455
 30
0.0
 40
8.901105939595844
100
AcDbArc
 50
-162.6747189694484
 51
-161.420424854198
  0
ARC
  5
1F4
330
47
100
AcDbEntity
  8
1
  6
Continuous
 62
     7
100
AcDbCircle
 10
372.2416761773656
 20
295.7452473358821
 30
0.0
 40
8.591009354467328
100
AcDbArc
 50
-161.4204248541985
 51
-160.1207491500444
  0
ARC
  5
1F5
330
47
100
AcDbEntity
  8
1
  6
Continuous
 62
     7
100
AcDbCircle
 10
371.6461878227254
 20
295.5299274385405
 30
0.0
 40
7.95778819349485
100
AcDbArc
 50
-160.1207491500442
 51
-159.4893188010359
  0
ARC
  5
1F6
330
47
100
AcDbEntity
  8
1
  6
Continuous
 62
     7
100
AcDbCircle
 10
371.7196561359664
 20
295.5574117270705
 30
0.0
 40
8.036229121373529
100
AcDbArc
 50
-159.4893188010358
 51
-158.8640192722132
  0
ARC
  5
1F7
330
47
100
AcDbEntity
  8
1
  6
Continuous
 62
     7
100
AcDbCircle
 10
371.0977968376061
 20
295.3170074233537
 30
0.0
 40
7.369518377345226
100
AcDbArc
 50
-158.8640192722131
 51
-158.1821432555347
  0
ARC
  5
1F8
330
47
100
AcDbEntity
  8
1
  6
Continuous
 62
     7
100
AcDbCircle
 10
371.1565679975407
 20
295.3405354596791
 30
0.0
 40
7.432824125373306
100
AcDbArc
 50
-158.1821432555352
 51
-157.5060883558042
  0
ARC
  5
1F9
330
47
100
AcDbEntity
  8
1
  6
Continuous
 62
     7
100
AcDbCircle
 10
370.6236505644235
 20
295.1198601730972
 30
0.0
 40
6.856023837034095
100
AcDbArc
 50
-157.5060883558036
 51
-156.7731798148744
  0
ARC
  5
1FA
330
47
100
AcDbEntity
  8
1
  6
Continuous
 62
     7
100
AcDbCircle
 10
370.6718435395336
 20
295.1405424172126
 30
0.0
 40
6.908467312048612
100
AcDbArc
 50
-156.773179814875
 51
-156.0458559647346
  0
ARC
  5
1FB
330
47
100
AcDbEntity
  8
1
  6
Continuous
 62
     7
100
AcDbCircle
 10
370.2229194830511
 20
294.9410989089723
 30
0.0
 40
6.417233639070321
100
AcDbArc
 50
-156.0458559647337
 51
-154.479842766341
  0
ARC
  5
1FC
330
47
100
AcDbEntity
  8
1
  6
Continuous
 62
     7
100
AcDbCircle
 10
369.8833332352713
 20
294.7789779029801
 30
0.0
 40
6.040933173663908
100
AcDbArc
 50
-154.4798427663407
 51
-152.8159700181124
  0
ARC
  5
1FD
330
47
100
AcDbEntity
  8
1
  6
Continuous
 62
     7
100
AcDbCircle
 10
369.495907299133
 20
294.5800045068576
 30
0.0
 40
5.60539985879901
100
AcDbArc
 50
-152.815970018113
 51
-152.0314342605433
  0
ARC
  5
1FE
330
47
100
AcDbEntity
  8
1
  6
Continuous
 62
     7
100
AcDbCircle
 10
369.4106348458621
 20
294.5347243311309
 30
0.0
 40
5.508850982054159
100
AcDbArc
 50
-152.0314342605414
 51
-151.2330632396075
  0
ARC
  5
1FF
330
47
100
AcDbEntity
  8
1
  6
Continuous
 62
     7
100
AcDbCircle
 10
369.0375536173666
 20
294.3299014598649
 30
0.0
 40
5.083243167688326
100
AcDbArc
 50
-151.2330632396084
 51
-150.3678328110456
  0
ARC
  5
200
330
47
100
AcDbEntity
  8
1
  6
Continuous
 62
     7
100
AcDbCircle
 10
368.9642049574601
 20
294.2881791354486
 30
0.0
 40
4.998858463714321
100
AcDbArc
 50
-150.3678328110463
 51
-149.4880376548077
  0
ARC
  5
201
330
47
100
AcDbEntity
  8
1
  6
Continuous
 62
     7
100
AcDbCircle
 10
368.6569915407774
 20
294.1071301968532
 30
0.0
 40
4.642265135739042
100
AcDbArc
 50
-149.4880376548075
 51
-148.5407318162644
  0
ARC
  5
202
330
47
100
AcDbEntity
  8
1
  6
Continuous
 62
     7
100
AcDbCircle
 10
368.5945450233362
 20
294.0689239595259
 30
0.0
 40
4.569058004179128
100
AcDbArc
 50
-148.5407318162654
 51
-147.5783152545764
  0
ARC
  5
203
330
47
100
AcDbEntity
  8
1
  6
Continuous
 62
     7
100
AcDbCircle
 10
368.3401943224329
 20
293.9073730301919
 30
0.0
 40
4.267739266264263
100
AcDbArc
 50
-147.5783152545766
 51
-146.5479762871844
  0
ARC
  5
204
330
47
100
AcDbEntity
  8
1
  6
Continuous
 62
     7
100
AcDbCircle
 10
368.2880787468311
 20
293.8729412048895
 30
0.0
 40
4.205276606907094
100
AcDbArc
 50
-146.5479762871826
 51
-145.5022799162127
  0
ARC
  5
205
330
47
100
AcDbEntity
  8
1
  6
Continuous
 62
     7
100
AcDbCircle
 10
368.0663218623274
 20
293.720544912673
 30
0.0
 40
3.936202740271544
100
AcDbArc
 50
-145.5022799162113
 51
-143.2671709845653
  0
ARC
  5
206
330
47
100
AcDbEntity
  8
1
  6
Continuous
 62
     7
100
AcDbCircle
 10
367.7865235758191
 20
293.5117402033743
 30
0.0
 40
3.587080286455997
100
AcDbArc
 50
-143.2671709845683
 51
-142.2186262745525
  0
ARC
  5
207
330
47
100
AcDbEntity
  8
1
  6
Continuous
 62
     7
100
AcDbCircle
 10
367.7547802120409
 20
293.4871340507478
 30
0.0
 40
3.546916821826495
100
AcDbArc
 50
-142.2186262745521
 51
-141.1579820246299
  0
ARC
  5
208
330
47
100
AcDbEntity
  8
1
  6
Continuous
 62
     7
100
AcDbCircle
 10
367.4911077568655
 20
293.2748174008191
 30
0.0
 40
3.208388354109049
100
AcDbArc
 50
-141.1579820246306
 51
-139.9853867850648
  0
ARC
  5
209
330
47
100
AcDbEntity
  8
1
  6
Continuous
 62
     7
100
AcDbCircle
 10
367.4620061259959
 20
293.2503855820712
 30
0.0
 40
3.17039073988656
100
AcDbArc
 50
-139.9853867850625
 51
-138.7988437608849
  0
ARC
  5
20A
330
47
100
AcDbEntity
  8
1
  6
Continuous
 62
     7
100
AcDbCircle
 10
367.253306007218
 20
293.0676749997988
 30
0.0
 40
2.893012124178286
100
AcDbArc
 50
-138.7988437608848
 51
-137.4987150411997
  0
ARC
  5
20B
330
47
100
AcDbEntity
  8
1
  6
Continuous
 62
     7
100
AcDbCircle
 10
367.2282780149949
 20
293.0447400376835
 30
0.0
 40
2.859064916900766
100
AcDbArc
 50
-137.4987150412011
 51
-136.1833058852953
  0
ARC
  5
20C
330
47
100
AcDbEntity
  8
1
  6
Continuous
 62
     7
100
AcDbCircle
 10
367.0630260411808
 20
292.886176638957
 30
0.0
 40
2.63004403081134
100
AcDbArc
 50
-136.1833058852967
 51
-134.7533770174184
  0
ARC
  5
20D
330
47
100
AcDbEntity
  8
1
  6
Continuous
 62
     7
100
AcDbCircle
 10
367.0431931069672
 20
292.8661722284932
 30
0.0
 40
2.601874513287536
100
AcDbArc
 50
-134.7533770174132
 51
-133.3077361678623
  0
ARC
  5
20E
330
47
100
AcDbEntity
  8
1
  6
Continuous
 62
     7
100
AcDbCircle
 10
366.9130952868535
 20
292.728153116938
 30
0.0
 40
2.412204489422954
100
AcDbArc
 50
-133.3077361678646
 51
-131.747756157237
  0
ARC
  5
20F
330
47
100
AcDbEntity
  8
1
  6
Continuous
 62
     7
100
AcDbCircle
 10
366.8992367563374
 20
292.7126247212433
 30
0.0
 40
2.391391273887666
100
AcDbArc
 50
-131.7477561572394
 51
-130.172969988488
  0
ARC
  5
210
330
47
100
AcDbEntity
  8
1
  6
Continuous
 62
     7
100
AcDbCircle
 10
366.7854333668979
 20
292.5778276562955
 30
0.0
 40
2.214978518774911
100
AcDbArc
 50
-130.1729699884866
 51
-128.7230983784914
  0
ARC
  5
211
330
47
100
AcDbEntity
  8
1
  6
Continuous
 62
     7
100
AcDbCircle
 10
366.7559941361236
 20
292.5411118333943
 30
0.0
 40
2.16791770747838
100
AcDbArc
 50
-128.7230983784923
 51
-127.2409784036313
  0
ARC
  5
212
330
47
100
AcDbEntity
  8
1
  6
Continuous
 62
     7
100
AcDbCircle
 10
366.653355659101
 20
292.4060912649071
 30
0.0
 40
1.998314609392944
100
AcDbArc
 50
-127.2409784036316
 51
-125.6328944128545
  0
ARC
  5
213
330
47
100
AcDbEntity
  8
1
  6
Continuous
 62
     7
100
AcDbCircle
 10
366.6263858737751
 20
292.3684659235386
 30
0.0
 40
1.952021676524066
100
AcDbArc
 50
-125.6328944128554
 51
-123.9870066516694
  0
ARC
  5
214
330
47
100
AcDbEntity
  8
1
  6
Continuous
 62
     7
100
AcDbCircle
 10
366.5455169783738
 20
292.2485141874582
 30
0.0
 40
1.807355864280241
100
AcDbArc
 50
-123.9870066516662
 51
-122.2100534018221
  0
ARC
  5
215
330
47
100
AcDbEntity
  8
1
  6
Continuous
 62
     7
100
AcDbCircle
 10
366.522740909134
 20
292.2123604733317
 30
0.0
 40
1.764626010838474
100
AcDbArc
 50
-122.2100534018205
 51
-120.3908610882834
  0
ARC
  5
216
330
47
100
AcDbEntity
  8
1
  6
Continuous
 62
     7
100
AcDbCircle
 10
366.4609644082997
 20
292.1070264863356
 30
0.0
 40
1.642513010417512
100
AcDbArc
 50
-120.3908610882861
 51
-118.4370774959025
  0
ARC
  5
217
330
47
100
AcDbEntity
  8
1
  6
Continuous
 62
     7
100
AcDbCircle
 10
366.4434423345235
 20
292.0746701528597
 30
0.0
 40
1.605716877666484
100
AcDbArc
 50
-118.4370774959036
 51
-116.4387108610579
  0
ARC
  5
218
330
47
100
AcDbEntity
  8
1
  6
Continuous
 62
     7
100
AcDbCircle
 10
366.3982707697962
 20
291.9838267876919
 30
0.0
 40
1.504262517213564
100
AcDbArc
 50
-116.4387108610537
 51
-114.3048869208655
  0
ARC
  5
219
330
47
100
AcDbEntity
  8
1
  6
Continuous
 62
     7
100
AcDbCircle
 10
366.3863976093169
 20
291.9575366310954
 30
0.0
 40
1.475415606224175
100
AcDbArc
 50
-114.3048869208672
 51
-112.1274028445667
  0
ARC
  5
21A
330
47
100
AcDbEntity
  8
1
  6
Continuous
 62
     7
100
AcDbCircle
 10
366.3612246137269
 20
291.8956279764833
 30
0.0
 40
1.408584765866791
100
AcDbArc
 50
-112.1274028445693
 51
-108.0426630894988
  0
ARC
  5
21B
330
47
100
AcDbEntity
  8
1
  6
Continuous
 62
     7
100
AcDbCircle
 10
366.3517349665509
 20
291.8664956735722
 30
0.0
 40
1.377945828606634
100
AcDbArc
 50
-108.0426630894989
 51
-103.8630635302736
  0
ARC
  5
21C
330
47
100
AcDbEntity
  8
1
  6
Continuous
 62
     7
100
AcDbCircle
 10
366.3346517308955
 20
291.7972741887426
 30
0.0
 40
1.306647505327236
100
AcDbArc
 50
-103.8630635302738
 51
-99.45742566888136
  0
ARC
  5
21D
330
47
100
AcDbEntity
  8
1
  6
Continuous
 62
     7
100
AcDbCircle
 10
366.3263368944492
 20
291.7473588646729
 30
0.0
 40
1.256044382082559
100
AcDbArc
 50
-99.45742566887937
 51
-94.87981091991182
  0
ARC
  5
21E
330
47
100
AcDbEntity
  8
1
  6
Continuous
 62
     7
100
AcDbCircle
 10
366.3198380159124
 20
291.6712375651739
 30
0.0
 40
1.179646164435488
100
AcDbArc
 50
-94.87981091991489
 51
-90.0109093011005
  0
ARC
  5
21F
330
47
100
AcDbEntity
  8
1
  6
Continuous
 62
     7
100
AcDbCircle
 10
424.9744453642935
 20
296.8696239857881
 30
0.0
 40
13.67570178916334
100
AcDbArc
 50
179.365875938477
 51
-152.2006254120273
  0
ARC
  5
220
330
47
100
AcDbEntity
  8
1
  6
Continuous
 62
     7
100
AcDbCircle
 10
123.6216247186783
 20
617.933892532762
 30
0.0
 40
9.999999999999984
100
AcDbArc
 50
-130.4642327231712
 51
-49.53576727682839
  0
ARC
  5
221
330
47
100
AcDbEntity
  8
1
  6
Continuous
 62
     7
100
AcDbCircle
 10
148.0692714569229
 20
606.1605263740507
 30
0.0
 40
10.00000000000001
100
AcDbArc
 50
178.1071958482567
 51
-100.9643387053989
  0
ARC
  5
222
330
47
100
AcDbEntity
  8
1
  6
Continuous
 62
     7
100
AcDbCircle
 10
154.1073415601593
 20
579.706012748329
 30
0.0
 40
9.999999999999968
100
AcDbArc
 50
126.6786244196852
 51
-152.3929101339716
  0
ARC
  5
223
330
47
100
AcDbEntity
  8
1
  6
Continuous
 62
     7
100
AcDbCircle
 10
137.1890450864665
 20
558.4911399894995
 30
0.0
 40
10.00000000000004
100
AcDbArc
 50
75.25005299111396
 51
156.1785184374571
  0
ARC
  5
224
330
47
100
AcDbEntity
  8
1
  6
Continuous
 62
     7
100
AcDbCircle
 10
110.0542043508902
 20
558.4911399894995
 30
0.0
 40
9.999999999999957
100
AcDbArc
 50
23.8214815625429
 51
104.7499470088849
  0
ARC
  5
225
330
47
100
AcDbEntity
  8
1
  6
Continuous
 62
     7
100
AcDbCircle
 10
93.13590787719747
 20
579.706012748329
 30
0.0
 40
9.999999999999952
100
AcDbArc
 50
-27.60708986602918
 51
53.32137558031452
  0
ARC
  5
226
330
47
100
AcDbEntity
  8
1
  6
Continuous
 62
     7
100
AcDbCircle
 10
99.17397798043376
 20
606.1605263740507
 30
0.0
 40
9.999999999999906
100
AcDbArc
 50
-79.03566129460043
 51
1.8928041517433
  0
ARC
  5
227
330
47
100
AcDbEntity
  8
1
  6
Continuous
 62
     7
100
AcDbCircle
 10
123.6216247186783
 20
586.664178679503
 30
0.0
 40
24.53544393745003
100
AcDbArc
 50
23.23392363789331
 51
53.90893350496388
  0
ARC
  5
228
330
47
100
AcDbEntity
  8
1
  6
Continuous
 62
     7
100
AcDbCircle
 10
123.6216247186783
 20
586.664178679503
 30
0.0
 40
24.53544393744993
100
AcDbArc
 50
-28.19464779067809
 51
2.48036207639226
  0
ARC
  5
229
330
47
100
AcDbEntity
  8
1
  6
Continuous
 62
     7
100
AcDbCircle
 10
123.6216247186783
 20
586.664178679503
 30
0.0
 40
24.53544393744993
100
AcDbArc
 50
-79.62321921924941
 51
-48.94820935217895
  0
ARC
  5
22A
330
47
100
AcDbEntity
  8
1
  6
Continuous
 62
     7
100
AcDbCircle
 10
123.6216247186783
 20
586.664178679503
 30
0.0
 40
24.53544393744975
100
AcDbArc
 50
-131.0517906478205
 51
-100.3767807807504
  0
ARC
  5
22B
330
47
100
AcDbEntity
  8
1
  6
Continuous
 62
     7
100
AcDbCircle
 10
123.6216247186783
 20
586.664178679503
 30
0.0
 40
24.53544393744976
100
AcDbArc
 50
177.5196379236077
 51
-151.8053522093216
  0
ARC
  5
22C
330
47
100
AcDbEntity
  8
1
  6
Continuous
 62
     7
100
AcDbCircle
 10
103.2940061745095
 20
602.8749135278299
 30
0.0
 40
6.99999999999975
100
AcDbArc
 50
-102.4822140563773
 51
25.33935691352056
  0
ARC
  5
22D
330
47
100
AcDbEntity
  8
1
  6
Continuous
 62
     7
100
AcDbCircle
 10
123.6216247186783
 20
586.664178679503
 30
0.0
 40
24.53544393744971
100
AcDbArc
 50
126.091066495036
 51
156.7660763621068
  0
ARC
  5
22E
330
47
100
AcDbEntity
  8
1
  6
Continuous
 62
     7
100
AcDbCircle
 10
123.6216247186783
 20
586.664178679503
 30
0.0
 40
24.53544393744971
100
AcDbArc
 50
74.66249506646454
 51
105.3375049335353
  0
ARC
  5
22F
330
47
100
AcDbEntity
  8
1
  6
Continuous
 62
     7
100
AcDbCircle
 10
123.6216247186783
 20
586.664178679503
 30
0.0
 40
23.76812314868372
100
AcDbArc
 50
105.3375049335356
 51
126.0910664950362
  0
ARC
  5
230
330
47
100
AcDbEntity
  8
1
  6
Continuous
 62
     7
100
AcDbCircle
 10
123.6216247186783
 20
586.664178679503
 30
0.0
 40
23.76812314868383
100
AcDbArc
 50
-100.3767807807506
 51
-79.62321921924945
  0
ARC
  5
231
330
47
100
AcDbEntity
  8
1
  6
Continuous
 62
     7
100
AcDbCircle
 10
134.9026019357349
 20
563.23898811404
 30
0.0
 40
7.000000000000021
100
AcDbArc
 50
51.80350022933803
 51
179.6250711992326
  0
ARC
  5
232
330
47
100
AcDbEntity
  8
1
  6
Continuous
 62
     7
100
AcDbCircle
 10
123.6216247186783
 20
586.664178679503
 30
0.0
 40
23.76812314868394
100
AcDbArc
 50
-48.94820935217898
 51
-28.19464779067815
  0
ARC
  5
233
330
47
100
AcDbEntity
  8
1
  6
Continuous
 62
     7
100
AcDbCircle
 10
148.9697504354057
 20
580.8786343966387
 30
0.0
 40
7.000000000000051
100
AcDbArc
 50
103.2320716579089
 51
-128.9463573721957
  0
ARC
  5
234
330
47
100
AcDbEntity
  8
1
  6
Continuous
 62
     7
100
AcDbCircle
 10
123.6216247186783
 20
586.664178679503
 30
0.0
 40
23.76812314868382
100
AcDbArc
 50
2.48036207639231
 51
23.23392363789342
  0
ARC
  5
235
330
47
100
AcDbEntity
  8
1
  6
Continuous
 62
     7
100
AcDbCircle
 10
143.949243262847
 20
602.87491352783
 30
0.0
 40
6.999999999999955
100
AcDbArc
 50
154.66064308648
 51
-77.51778594362287
  0
ARC
  5
236
330
47
100
AcDbEntity
  8
1
  6
Continuous
 62
     7
100
AcDbCircle
 10
123.6216247186783
 20
586.664178679503
 30
0.0
 40
23.76812314868379
100
AcDbArc
 50
53.90893350496383
 51
74.66249506646443
  0
ARC
  5
237
330
47
100
AcDbEntity
  8
1
  6
Continuous
 62
     7
100
AcDbCircle
 10
123.6216247186783
 20
612.6641786795029
 30
0.0
 40
7.000000000000075
100
AcDbArc
 50
-153.9107854849482
 51
-26.08921451505181
  0
ARC
  5
238
330
47
100
AcDbEntity
  8
1
  6
Continuous
 62
     7
100
AcDbCircle
 10
123.6216247186783
 20
586.664178679503
 30
0.0
 40
23.7681231486839
100
AcDbArc
 50
156.7660763621067
 51
177.519637923608
  0
ARC
  5
239
330
47
100
AcDbEntity
  8
1
  6
Continuous
 62
     7
100
AcDbCircle
 10
98.27349900195097
 20
580.8786343966387
 30
0.0
 40
6.999999999999856
100
AcDbArc
 50
-51.05364262780469
 51
76.76792834209114
  0
ARC
  5
23A
330
47
100
AcDbEntity
  8
1
  6
Continuous
 62
     7
100
AcDbCircle
 10
123.6216247186783
 20
586.664178679503
 30
0.0
 40
23.76812314868379
100
AcDbArc
 50
-151.8053522093219
 51
-131.0517906478208
  0
ARC
  5
23B
330
47
100
AcDbEntity
  8
1
  6
Continuous
 62
     7
100
AcDbCircle
 10
112.3406475016218
 20
563.23898811404
 30
0.0
 40
6.999999999999927
100
AcDbArc
 50
0.3749288007674
 51
128.196499770662
  0
ARC
  5
23C
330
47
100
AcDbEntity
  8
1
  6
Continuous
 62
     7
100
AcDbCircle
 10
118.5210868333774
 20
318.698451859673
 30
0.0
 40
9.526613550579219
100
AcDbArc
 50
49.95632643948359
 51
130.0436735605164
  0
ARC
  5
23D
330
47
100
AcDbEntity
  8
1
  6
Continuous
 62
     7
100
AcDbCircle
 10
119.9593936112591
 20
326.8244977610516
 30
0.0
 40
4.94857566293531
100
AcDbArc
 50
-44.72085786462662
 51
-41.63241390760214
  0
ARC
  5
23E
330
47
100
AcDbEntity
  8
1
  6
Continuous
 62
     7
100
AcDbCircle
 10
120.2307390325499
 20
325.4082716279968
 30
0.0
 40
4.579969507515625
100
AcDbArc
 50
42.23680230798381
 51
42.66618215493093
  0
ARC
  5
23F
330
47
100
AcDbEntity
  8
1
  6
Continuous
 62
     7
100
AcDbCircle
 10
115.5247722072873
 20
326.018987569933
 30
0.0
 40
3.134511334552127
100
AcDbArc
 50
-179.4992190289058
 51
-176.6149870025614
  0
ARC
  5
240
330
47
100
AcDbEntity
  8
1
  6
Continuous
 62
     7
100
AcDbCircle
 10
116.130288651009
 20
326.0548029322604
 30
0.0
 40
3.741086065146765
100
AcDbArc
 50
-176.6149870025625
 51
-165.7166785744996
  0
ARC
  5
241
330
47
100
AcDbEntity
  8
1
  6
Continuous
 62
     7
100
AcDbCircle
 10
115.130042639026
 20
325.8001534833491
 30
0.0
 40
2.708933738055907
100
AcDbArc
 50
-165.7166785744962
 51
-160.5877606757797
  0
ARC
  5
242
330
47
100
AcDbEntity
  8
1
  6
Continuous
 62
     7
100
AcDbCircle
 10
117.4949879450822
 20
326.6335500782641
 30
0.0
 40
5.216425749021112
100
AcDbArc
 50
-160.5877606757829
 51
-157.9246035598287
  0
ARC
  5
243
330
47
100
AcDbEntity
  8
1
  6
Continuous
 62
     7
100
AcDbCircle
 10
115.4784107189355
 20
325.81571152838
 30
0.0
 40
3.040318306202504
100
AcDbArc
 50
-157.9246035598291
 51
-151.7640175144428
  0
ARC
  5
244
330
47
100
AcDbEntity
  8
1
  6
Continuous
 62
     7
100
AcDbCircle
 10
117.9225321903536
 20
327.1282148719645
 30
0.0
 40
5.81455600221318
100
AcDbArc
 50
-151.7640175144444
 51
-149.2703806321682
  0
ARC
  5
245
330
47
100
AcDbEntity
  8
1
  6
Continuous
 62
     7
100
AcDbCircle
 10
115.5802272936394
 20
325.7358177406342
 30
0.0
 40
3.0896409575728
100
AcDbArc
 50
-149.2703806321684
 51
-144.5760704267925
  0
ARC
  5
246
330
47
100
AcDbEntity
  8
1
  6
Continuous
 62
     7
100
AcDbCircle
 10
118.503806341094
 20
327.8153354752025
 30
0.0
 40
6.677357286256019
100
AcDbArc
 50
-144.5760704267909
 51
-142.4044749089349
  0
ARC
  5
247
330
47
100
AcDbEntity
  8
1
  6
Continuous
 62
     7
100
AcDbCircle
 10
115.8634276779841
 20
325.7822986691239
 30
0.0
 40
3.344965031512097
100
AcDbArc
 50
-142.4044749089334
 51
-137.8346482358961
  0
ARC
  5
248
330
47
100
AcDbEntity
  8
1
  6
Continuous
 62
     7
100
AcDbCircle
 10
118.984624356901
 20
328.6089895626324
 30
0.0
 40
7.55590911994727
100
AcDbArc
 50
-137.8346482358944
 51
-135.8120799918739
  0
ARC
  5
249
330
47
100
AcDbEntity
  8
1
  6
Continuous
 62
     7
100
AcDbCircle
 10
116.148079022775
 20
325.851733117684
 30
0.0
 40
3.600096619870766
100
AcDbArc
 50
-135.8120799918773
 51
-131.5660034627221
  0
ARC
  5
24A
330
47
100
AcDbEntity
  8
1
  6
Continuous
 62
     7
100
AcDbCircle
 10
119.5109276176674
 20
329.6439303547149
 30
0.0
 40
8.668578696066071
100
AcDbArc
 50
-131.5660034627202
 51
-129.7380521804747
  0
ARC
  5
24B
330
47
100
AcDbEntity
  8
1
  6
Continuous
 62
     7
100
AcDbCircle
 10
116.4707213977457
 20
325.9869288120701
 30
0.0
 40
3.912896395643134
100
AcDbArc
 50
-129.7380521804745
 51
-125.6160010715569
  0
ARC
  5
24C
330
47
100
AcDbEntity
  8
1
  6
Continuous
 62
     7
100
AcDbCircle
 10
120.0499761586393
 20
330.9834303318644
 30
0.0
 40
10.0591222360012
100
AcDbArc
 50
-125.6160010715589
 51
-124.0127431470278
  0
ARC
  5
24D
330
47
100
AcDbEntity
  8
1
  6
Continuous
 62
     7
100
AcDbCircle
 10
116.7742722106854
 20
326.1293286361909
 30
0.0
 40
4.203139002881373
100
AcDbArc
 50
-124.012743147027
 51
-120.1114923701986
  0
ARC
  5
24E
330
47
100
AcDbEntity
  8
1
  6
Continuous
 62
     7
100
AcDbCircle
 10
120.3499182394901
 20
332.2947911552665
 30
0.0
 40
11.33042267882922
100
AcDbArc
 50
-120.1114923702017
 51
-118.6173625161501
  0
ARC
  5
24F
330
47
100
AcDbEntity
  8
1
  6
Continuous
 62
     7
100
AcDbCircle
 10
117.0735112579747
 20
326.2897661177047
 30
0.0
 40
4.489723269392613
100
AcDbArc
 50
-118.6173625161494
 51
-114.8460548730236
  0
ARC
  5
250
330
47
100
AcDbEntity
  8
1
  6
Continuous
 62
     7
100
AcDbCircle
 10
120.7172370746415
 20
334.1588932738437
 30
0.0
 40
13.16151086057182
100
AcDbArc
 50
-114.8460548730233
 51
-113.5597549859612
  0
ARC
  5
251
330
47
100
AcDbEntity
  8
1
  6
Continuous
 62
     7
100
AcDbCircle
 10
117.5417153467584
 20
326.8764724055384
 30
0.0
 40
5.216852784393366
100
AcDbArc
 50
-113.5597549859628
 51
-109.0593715282415
  0
ARC
  5
252
330
47
100
AcDbEntity
  8
1
  6
Continuous
 62
     7
100
AcDbCircle
 10
118.5368041127312
 20
329.7567209845232
 30
0.0
 40
8.264152167274798
100
AcDbArc
 50
-109.0593715282397
 51
-85.6696558071047
  0
ARC
  5
253
330
47
100
AcDbEntity
  8
1
  6
Continuous
 62
     7
100
AcDbCircle
 10
118.5575700164747
 20
329.4824858913577
 30
0.0
 40
7.989131969685818
100
AcDbArc
 50
-85.66965580710492
 51
-80.34343319794826
  0
ARC
  5
254
330
47
100
AcDbEntity
  8
1
  6
Continuous
 62
     7
100
AcDbCircle
 10
118.5216794553249
 20
329.6934169639902
 30
0.0
 40
8.20309469957488
100
AcDbArc
 50
-80.34343319794866
 51
-76.6677465065123
  0
ARC
  5
255
330
47
100
AcDbEntity
  8
1
  6
Continuous
 62
     7
100
AcDbCircle
 10
118.7112424001911
 20
328.893520826921
 30
0.0
 40
7.381043642666251
100
AcDbArc
 50
-76.66774650651139
 51
-73.44340940465169
  0
ARC
  5
256
330
47
100
AcDbEntity
  8
1
  6
Continuous
 62
     7
100
AcDbCircle
 10
118.6109899694747
 20
329.2307439077617
 30
0.0
 40
7.732853187898115
100
AcDbArc
 50
-73.44340940465172
 51
-70.40769061526866
  0
ARC
  5
257
330
47
100
AcDbEntity
  8
1
  6
Continuous
 62
     7
100
AcDbCircle
 10
118.9120180584211
 20
328.3849996091841
 30
0.0
 40
6.83513311520773
100
AcDbArc
 50
-70.40769061526935
 51
-66.97318287053325
  0
ARC
  5
258
330
47
100
AcDbEntity
  8
1
  6
Continuous
 62
     7
100
AcDbCircle
 10
118.7701576181695
 20
328.7187674364195
 30
0.0
 40
7.197797349735793
100
AcDbArc
 50
-66.9731828705316
 51
-64.62100727048339
  0
ARC
  5
259
330
47
100
AcDbEntity
  8
1
  6
Continuous
 62
     7
100
AcDbCircle
 10
119.1729503414331
 20
327.8696846257122
 30
0.0
 40
6.258018866606522
100
AcDbArc
 50
-64.6210072704837
 51
-61.91557534034276
  0
ARC
  5
25A
330
47
100
AcDbEntity
  8
1
  6
Continuous
 62
     7
100
AcDbCircle
 10
119.0057000661272
 20
328.18312159725
 30
0.0
 40
6.613286919936322
100
AcDbArc
 50
-61.91557534034404
 51
-59.35556977330396
  0
ARC
  5
25B
330
47
100
AcDbEntity
  8
1
  6
Continuous
 62
     7
100
AcDbCircle
 10
119.4290787735696
 20
327.4684926466483
 30
0.0
 40
5.782658202064249
100
AcDbArc
 50
-59.35556977330206
 51
-56.52019470947101
  0
ARC
  5
25C
330
47
100
AcDbEntity
  8
1
  6
Continuous
 62
     7
100
AcDbCircle
 10
119.2857265309665
 20
327.6852402077802
 30
0.0
 40
6.042522341021482
100
AcDbArc
 50
-56.52019470947121
 51
-53.85106107193654
  0
ARC
  5
25D
330
47
100
AcDbEntity
  8
1
  6
Continuous
 62
     7
100
AcDbCircle
 10
119.7372677384098
 20
327.0671323406326
 30
0.0
 40
5.277050723357528
100
AcDbArc
 50
-53.85106107193833
 51
-50.79488567602808
  0
ARC
  5
25E
330
47
100
AcDbEntity
  8
1
  6
Continuous
 62
     7
100
AcDbCircle
 10
119.6114783077157
 20
327.2213373154445
 30
0.0
 40
5.476053625675752
100
AcDbArc
 50
-50.79488567602691
 51
-47.90105868077611
  0
ARC
  5
25F
330
47
100
AcDbEntity
  8
1
  6
Continuous
 62
     7
100
AcDbCircle
 10
120.0605423206966
 20
326.7243298636846
 30
0.0
 40
4.806221635651786
100
AcDbArc
 50
-47.90105868077625
 51
-44.72085786462686
  0
ARC
  5
260
330
47
100
AcDbEntity
  8
1
  6
Continuous
 62
     7
100
AcDbCircle
 10
120.3978119612789
 20
326.4348079766039
 30
0.0
 40
4.362001901386802
100
AcDbArc
 50
-41.63241390760362
 51
-38.12846294756798
  0
ARC
  5
261
330
47
100
AcDbEntity
  8
1
  6
Continuous
 62
     7
100
AcDbCircle
 10
120.3055479112499
 20
326.5072262753479
 30
0.0
 40
4.479292416436999
100
AcDbArc
 50
-38.12846294756654
 51
-34.89099171670643
  0
ARC
  5
262
330
47
100
AcDbEntity
  8
1
  6
Continuous
 62
     7
100
AcDbCircle
 10
120.7013144716331
 20
326.2312281945356
 30
0.0
 40
3.99679256055133
100
AcDbArc
 50
-34.89099171670721
 51
-31.262557224335
  0
ARC
  5
263
330
47
100
AcDbEntity
  8
1
  6
Continuous
 62
     7
100
AcDbCircle
 10
120.6355279536084
 20
326.2711681634638
 30
0.0
 40
4.073754025401045
100
AcDbArc
 50
-31.26255722433455
 51
-27.70304462905099
  0
ARC
  5
264
330
47
100
AcDbEntity
  8
1
  6
Continuous
 62
     7
100
AcDbCircle
 10
120.9878373086619
 20
326.0861777346198
 30
0.0
 40
3.675830238197963
100
AcDbArc
 50
-27.70304462905158
 51
-22.60833429667718
  0
ARC
  5
265
330
47
100
AcDbEntity
  8
1
  6
Continuous
 62
     7
100
AcDbCircle
 10
120.9417737779826
 20
326.105359993722
 30
0.0
 40
3.72572821333634
100
AcDbArc
 50
-22.60833429667671
 51
-18.87930146771137
  0
ARC
  5
266
330
47
100
AcDbEntity
  8
1
  6
Continuous
 62
     7
100
AcDbCircle
 10
121.223956208787
 20
326.0088612295328
 30
0.0
 40
3.427501897018067
100
AcDbArc
 50
-18.87930146771103
 51
-8.2009458050856
  0
ARC
  5
267
330
47
100
AcDbEntity
  8
1
  6
Continuous
 62
     7
100
AcDbCircle
 10
121.3421502470473
 20
325.9918272168369
 30
0.0
 40
3.308086704229141
100
AcDbArc
 50
-8.20094580508436
 51
-0.00408394435955
  0
ARC
  5
268
330
47
100
AcDbEntity
  8
1
  6
Continuous
 62
     7
100
AcDbCircle
 10
118.0309510911252
 20
297.0159089742382
 30
0.0
 40
6.652858569597717
100
AcDbArc
 50
-48.68274440452908
 51
2.98715088743797
  0
ARC
  5
269
330
47
100
AcDbEntity
  8
1
  6
Continuous
 62
     7
100
AcDbCircle
 10
114.3684160840931
 20
297.0105165038705
 30
0.0
 40
14.88073584422107
100
AcDbArc
 50
178.9552823317371
 51
-177.8554285436826
  0
ARC
  5
26A
330
47
100
AcDbEntity
  8
1
  6
Continuous
 62
     7
100
AcDbCircle
 10
90.48479156666483
 20
297.0164966283146
 30
0.0
 40
14.63479694756616
100
AcDbArc
 50
-9.17137269973226
 51
0.1175012783506
  0
ARC
  5
26B
330
47
100
AcDbEntity
  8
1
  6
Continuous
 62
     7
100
AcDbCircle
 10
135.5197381277505
 20
296.9827747214912
 30
0.0
 40
7.934653163859451
100
AcDbArc
 50
-23.20129833447287
 51
3.65357719699777
  0
ARC
  5
26C
330
47
100
AcDbEntity
  8
1
  6
Continuous
 62
     7
100
AcDbCircle
 10
138.3746360869421
 20
294.4561880974433
 30
0.0
 40
3.964596682840449
100
AcDbArc
 50
-90.00352863530226
 51
-75.85448365097271
  0
ARC
  5
26D
330
47
100
AcDbEntity
  8
1
  6
Continuous
 62
     7
100
AcDbCircle
 10
138.302723104398
 20
294.7415261201738
 30
0.0
 40
4.258857220925421
100
AcDbArc
 50
-75.85448365097403
 51
-70.98243723234775
  0
ARC
  5
26E
330
47
100
AcDbEntity
  8
1
  6
Continuous
 62
     7
100
AcDbCircle
 10
138.3193125969256
 20
294.6933946683596
 30
0.0
 40
4.207947026307198
100
AcDbArc
 50
-70.98243723234853
 51
-64.81819535854926
  0
ARC
  5
26F
330
47
100
AcDbEntity
  8
1
  6
Continuous
 62
     7
100
AcDbCircle
 10
138.1248675813423
 20
295.1069522067808
 30
0.0
 40
4.664935758849101
100
AcDbArc
 50
-64.81819535854665
 51
-61.36801363239076
  0
ARC
  5
270
330
47
100
AcDbEntity
  8
1
  6
Continuous
 62
     7
100
AcDbCircle
 10
138.2310411276558
 20
294.9124745530518
 30
0.0
 40
4.443363243096941
100
AcDbArc
 50
-61.36801363239054
 51
-57.74566779059496
  0
ARC
  5
271
330
47
100
AcDbEntity
  8
1
  6
Continuous
 62
     7
100
AcDbCircle
 10
137.9389321301192
 20
295.3753617364994
 30
0.0
 40
4.990713415328555
100
AcDbArc
 50
-57.74566779059586
 51
-53.44559234082134
  0
ARC
  5
272
330
47
100
AcDbEntity
  8
1
  6
Continuous
 62
     7
100
AcDbCircle
 10
138.0212292592457
 20
295.2643641417712
 30
0.0
 40
4.852534967305929
100
AcDbArc
 50
-53.44559234082237
 51
-49.98620487583582
  0
ARC
  5
273
330
47
100
AcDbEntity
  8
1
  6
Continuous
 62
     7
100
AcDbCircle
 10
137.6440334501762
 20
295.713668861766
 30
0.0
 40
5.439179160824819
100
AcDbArc
 50
-49.98620487583509
 51
-45.87129040375548
  0
ARC
  5
274
330
47
100
AcDbEntity
  8
1
  6
Continuous
 62
     7
100
AcDbCircle
 10
137.6503318968246
 20
295.7071758823607
 30
0.0
 40
5.430133210805946
100
AcDbArc
 50
-45.87129040375506
 51
-41.7030695092885
  0
ARC
  5
275
330
47
100
AcDbEntity
  8
1
  6
Continuous
 62
     7
100
AcDbCircle
 10
137.1539943593103
 20
296.1494441978954
 30
0.0
 40
6.094928076965251
100
AcDbArc
 50
-41.70306950928916
 51
-38.82538449375873
  0
ARC
  5
276
330
47
100
AcDbEntity
  8
1
  6
Continuous
 62
     7
100
AcDbCircle
 10
137.3657692572477
 20
295.9790182745828
 30
0.0
 40
5.823094299201382
100
AcDbArc
 50
-38.82538449375902
 51
-35.81321417305365
  0
ARC
  5
277
330
47
100
AcDbEntity
  8
1
  6
Continuous
 62
     7
100
AcDbCircle
 10
136.7232786074291
 20
296.4426224378506
 30
0.0
 40
6.615384053838924
100
AcDbArc
 50
-35.81321417305488
 51
-33.16183963553517
  0
ARC
  5
278
330
47
100
AcDbEntity
  8
1
  6
Continuous
 62
     7
100
AcDbCircle
 10
136.9483501734983
 20
296.2955537326382
 30
0.0
 40
6.346522725445042
100
AcDbArc
 50
-33.1618396355341
 51
-29.32503805671876
  0
ARC
  5
279
330
47
100
AcDbEntity
  8
1
  6
Continuous
 62
     7
100
AcDbCircle
 10
136.1499847476945
 20
296.7440343789606
 30
0.0
 40
7.262231327154523
100
AcDbArc
 50
-29.32503805671832
 51
-26.81033889346534
  0
ARC
  5
27A
330
47
100
AcDbEntity
  8
1
  6
Continuous
 62
     7
100
AcDbCircle
 10
136.5591905691514
 20
296.5372369546977
 30
0.0
 40
6.803739692556873
100
AcDbArc
 50
-26.81033889346486
 51
-23.20129833447251
  0
ARC
  5
27B
330
47
100
AcDbEntity
  8
1
  6
Continuous
 62
     7
100
AcDbCircle
 10
141.6652064008885
 20
297.0244002272889
 30
0.0
 40
8.36513732909876
100
AcDbArc
 50
-174.5235231651753
 51
-169.1075420612196
  0
ARC
  5
27C
330
47
100
AcDbEntity
  8
1
  6
Continuous
 62
     7
100
AcDbCircle
 10
141.1487206507979
 20
296.9250112549079
 30
0.0
 40
7.839175640496332
100
AcDbArc
 50
-169.1075420612197
 51
-164.1790139531194
  0
ARC
  5
27D
330
47
100
AcDbEntity
  8
1
  6
Continuous
 62
     7
100
AcDbCircle
 10
141.1994039180358
 20
296.939373226509
 30
0.0
 40
7.891854476912572
100
AcDbArc
 50
-164.179013953119
 51
-160.9900280688026
  0
ARC
  5
27E
330
47
100
AcDbEntity
  8
1
  6
Continuous
 62
     7
100
AcDbCircle
 10
140.6409660552301
 20
296.7469789280472
 30
0.0
 40
7.301203638687914
100
AcDbArc
 50
-160.9900280688031
 51
-157.5430824948296
  0
ARC
  5
27F
330
47
100
AcDbEntity
  8
1
  6
Continuous
 62
     7
100
AcDbCircle
 10
140.6871565470341
 20
296.7660709777039
 30
0.0
 40
7.351184313885392
100
AcDbArc
 50
-157.5430824948288
 51
-154.1751101405426
  0
ARC
  5
280
330
47
100
AcDbEntity
  8
1
  6
Continuous
 62
     7
100
AcDbCircle
 10
140.1496089172464
 20
296.5059221523757
 30
0.0
 40
6.753995176668225
100
AcDbArc
 50
-154.1751101405429
 51
-150.5697905568003
  0
ARC
  5
281
330
47
100
AcDbEntity
  8
1
  6
Continuous
 62
     7
100
AcDbCircle
 10
140.1152117339999
 20
296.486516434347
 30
0.0
 40
6.714501530248898
100
AcDbArc
 50
-150.5697905567996
 51
-146.9433317509484
  0
ARC
  5
282
330
47
100
AcDbEntity
  8
1
  6
Continuous
 62
     7
100
AcDbCircle
 10
139.6246758962568
 20
296.1672685217689
 30
0.0
 40
6.129228399312779
100
AcDbArc
 50
-146.9433317509483
 51
-144.0816144404636
  0
ARC
  5
283
330
47
100
AcDbEntity
  8
1
  6
Continuous
 62
     7
100
AcDbCircle
 10
139.7307086483318
 20
296.2440752993682
 30
0.0
 40
6.260156721679472
100
AcDbArc
 50
-144.0816144404649
 51
-141.2797868927232
  0
ARC
  5
284
330
47
100
AcDbEntity
  8
1
  6
Continuous
 62
     7
100
AcDbCircle
 10
139.296248932862
 20
295.8957557151429
 30
0.0
 40
5.703306852216431
100
AcDbArc
 50
-141.2797868927226
 51
-137.1792411131277
  0
ARC
  5
285
330
47
100
AcDbEntity
  8
1
  6
Continuous
 62
     7
100
AcDbCircle
 10
139.2204066856182
 20
295.8254739658945
 30
0.0
 40
5.599906800260901
100
AcDbArc
 50
-137.1792411131274
 51
-133.1823414855957
  0
ARC
  5
286
330
47
100
AcDbEntity
  8
1
  6
Continuous
 62
     7
100
AcDbCircle
 10
138.8960104320397
 20
295.4798136184263
 30
0.0
 40
5.125866712137961
100
AcDbArc
 50
-133.1823414855963
 51
-129.9075011746971
  0
ARC
  5
287
330
47
100
AcDbEntity
  8
1
  6
Continuous
 62
     7
100
AcDbCircle
 10
138.9244310664232
 20
295.5137952741335
 30
0.0
 40
5.17016666003159
100
AcDbArc
 50
-129.907501174699
 51
-126.6607016086481
  0
ARC
  5
288
330
47
100
AcDbEntity
  8
1
  6
Continuous
 62
     7
100
AcDbCircle
 10
138.6769741371344
 20
295.1813306773718
 30
0.0
 40
4.755718062551625
100
AcDbArc
 50
-126.660701608645
 51
-122.148038259939
  0
ARC
  5
289
330
47
100
AcDbEntity
  8
1
  6
Continuous
 62
     7
100
AcDbCircle
 10
138.6581298358449
 20
295.1513461629274
 30
0.0
 40
4.720303675679164
100
AcDbArc
 50
-122.1480382599404
 51
-118.7382803170655
  0
ARC
  5
28A
330
47
100
AcDbEntity
  8
1
  6
Continuous
 62
     7
100
AcDbCircle
 10
138.5013679795625
 20
294.8654683783468
 30
0.0
 40
4.394266273987512
100
AcDbArc
 50
-118.7382803170649
 51
-115.0755106919947
  0
ARC
  5
28B
330
47
100
AcDbEntity
  8
1
  6
Continuous
 62
     7
100
AcDbCircle
 10
138.4860439659001
 20
294.8327186801459
 30
0.0
 40
4.358108728067299
100
AcDbArc
 50
-115.075510691994
 51
-109.1238567171106
  0
ARC
  5
28C
330
47
100
AcDbEntity
  8
1
  6
Continuous
 62
     7
100
AcDbCircle
 10
138.3945728235761
 20
294.5689210661498
 30
0.0
 40
4.07890244048036
100
AcDbArc
 50
-109.1238567171123
 51
-99.02097169911548
  0
ARC
  5
28D
330
47
100
AcDbEntity
  8
1
  6
Continuous
 62
     7
100
AcDbCircle
 10
138.374635295551
 20
294.4433379875429
 30
0.0
 40
3.951746572915562
100
AcDbArc
 50
-99.02097169911568
 51
-90.00352863529756
  0
ARC
  5
28E
330
47
100
AcDbEntity
  8
1
  6
Continuous
 62
     7
100
AcDbCircle
 10
118.3306566967023
 20
296.9419762894248
 30
0.0
 40
6.450436329583427
100
AcDbArc
 50
-89.77113051907104
 51
-80.94134660033519
  0
ARC
  5
28F
330
47
100
AcDbEntity
  8
1
  6
Continuous
 62
     7
100
AcDbCircle
 10
118.3826583575742
 20
296.6158120741914
 30
0.0
 40
6.120152712017687
100
AcDbArc
 50
-80.94134660033421
 51
-48.68274440452924
  0
ARC
  5
290
330
47
100
AcDbEntity
  8
1
  6
Continuous
 62
     7
100
AcDbCircle
 10
117.9523883248989
 20
297.0118093407415
 30
0.0
 40
6.731528228500891
100
AcDbArc
 50
32.62772620543524
 51
32.93425783886916
  0
ARC
  5
291
330
47
100
AcDbEntity
  8
1
  6
Continuous
 62
     7
100
AcDbCircle
 10
118.6097047771106
 20
296.9824779281213
 30
0.0
 40
6.578108991239364
100
AcDbArc
 50
-176.3667818461618
 51
-150.6302373371263
  0
ARC
  5
292
330
47
100
AcDbEntity
  8
1
  6
Continuous
 62
     7
100
AcDbCircle
 10
118.6335739031919
 20
296.9959108982168
 30
0.0
 40
6.605498402796949
100
AcDbArc
 50
-150.6302373371265
 51
-130.149000010244
  0
ARC
  5
293
330
47
100
AcDbEntity
  8
1
  6
Continuous
 62
     7
100
AcDbCircle
 10
118.3567077595639
 20
296.6676919000552
 30
0.0
 40
6.176100484495448
100
AcDbArc
 50
-130.1490000102436
 51
-90.00264112693434
  0
ARC
  5
294
330
47
100
AcDbEntity
  8
1
  6
Continuous
 62
     7
100
AcDbCircle
 10
102.3000866846868
 20
291.8029340443961
 30
0.0
 40
1.311346458049816
100
AcDbArc
 50
-89.86141839597022
 51
-87.67188303363822
  0
ARC
  5
295
330
47
100
AcDbEntity
  8
1
  6
Continuous
 62
     7
100
AcDbCircle
 10
102.3068480128225
 20
291.636626963162
 30
0.0
 40
1.144901990353238
100
AcDbArc
 50
-87.67188303363517
 51
-82.65276214342433
  0
ARC
  5
296
330
47
100
AcDbEntity
  8
1
  6
Continuous
 62
     7
100
AcDbCircle
 10
102.2776075679749
 20
291.8634007456758
 30
0.0
 40
1.373553148343982
100
AcDbArc
 50
-82.65276214343194
 51
-78.46420818880256
  0
ARC
  5
297
330
47
100
AcDbEntity
  8
1
  6
Continuous
 62
     7
100
AcDbCircle
 10
102.3012002278095
 20
291.7478087722772
 30
0.0
 40
1.255578075077342
100
AcDbArc
 50
-78.4642081887996
 51
-73.87752845379697
  0
ARC
  5
298
330
47
100
AcDbEntity
  8
1
  6
Continuous
 62
     7
100
AcDbCircle
 10
102.2321869898865
 20
291.9865592583954
 30
0.0
 40
1.504102966447098
100
AcDbArc
 50
-73.87752845379201
 51
-70.04962738611317
  0
ARC
  5
299
330
47
100
AcDbEntity
  8
1
  6
Continuous
 62
     7
100
AcDbCircle
 10
102.2872506882592
 20
291.834864298958
 30
0.0
 40
1.342723377907454
100
AcDbArc
 50
-70.04962738611528
 51
-65.51525643850029
  0
ARC
  5
29A
330
47
100
AcDbEntity
  8
1
  6
Continuous
 62
     7
100
AcDbCircle
 10
102.0939066154603
 20
292.2594186903974
 30
0.0
 40
1.809229928533561
100
AcDbArc
 50
-65.51525643849868
 51
-63.74114577957334
  0
ARC
  5
29B
330
47
100
AcDbEntity
  8
1
  6
Continuous
 62
     7
100
AcDbCircle
 10
102.2923043052325
 20
291.8572646548064
 30
0.0
 40
1.360799876408252
100
AcDbArc
 50
-63.74114577957072
 51
-61.38306586345939
  0
ARC
  5
29C
330
47
100
AcDbEntity
  8
1
  6
Continuous
 62
     7
100
AcDbCircle
 10
101.9798722614076
 20
292.4299027976664
 30
0.0
 40
2.013125120950075
100
AcDbArc
 50
-61.38306586346428
 51
-59.7889955523565
  0
ARC
  5
29D
330
47
100
AcDbEntity
  8
1
  6
Continuous
 62
     7
100
AcDbCircle
 10
102.2514882579141
 20
291.9634258944402
 30
0.0
 40
1.473332613775738
100
AcDbArc
 50
-59.78899555235367
 51
-57.61008995754153
  0
ARC
  5
29E
330
47
100
AcDbEntity
  8
1
  6
Continuous
 62
     7
100
AcDbCircle
 10
101.8268456275086
 20
292.6328161430959
 30
0.0
 40
2.266052405728068
100
AcDbArc
 50
-57.61008995754283
 51
-56.19284998897192
  0
ARC
  5
29F
330
47
100
AcDbEntity
  8
1
  6
Continuous
 62
     7
100
AcDbCircle
 10
102.1963546445842
 20
292.0809991395366
 30
0.0
 40
1.601944794630703
100
AcDbArc
 50
-56.19284998897168
 51
-54.18724894650938
  0
ARC
  5
2A0
330
47
100
AcDbEntity
  8
1
  6
Continuous
 62
     7
100
AcDbCircle
 10
101.6275166694162
 20
292.8693425905123
 30
0.0
 40
2.574087808127037
100
AcDbArc
 50
-54.18724894651049
 51
-52.93887823697224
  0
ARC
  5
2A1
330
47
100
AcDbEntity
  8
1
  6
Continuous
 62
     7
100
AcDbCircle
 10
102.1274538282649
 20
292.2073740164046
 30
0.0
 40
1.744546033468192
100
AcDbArc
 50
-52.93887823697077
 51
-51.09704498094187
  0
ARC
  5
2A2
330
47
100
AcDbEntity
  8
1
  6
Continuous
 62
     7
100
AcDbCircle
 10
101.3730574169145
 20
293.1422090777833
 30
0.0
 40
2.94580809373716
100
AcDbArc
 50
-51.09704498094307
 51
-50.00688665208443
  0
ARC
  5
2A3
330
47
100
AcDbEntity
  8
1
  6
Continuous
 62
     7
100
AcDbCircle
 10
101.8842590174449
 20
292.5328340016334
 30
0.0
 40
2.150405642258858
100
AcDbArc
 50
-50.00688665208637
 51
-46.50561555919768
  0
ARC
  5
2A4
330
47
100
AcDbEntity
  8
1
  6
Continuous
 62
     7
100
AcDbCircle
 10
100.9501397579025
 20
293.5173835502574
 30
0.0
 40
3.507577924890676
100
AcDbArc
 50
-46.5056155591969
 51
-45.43327125552503
  0
ARC
  5
2A5
330
47
100
AcDbEntity
  8
1
  6
Continuous
 62
     7
100
AcDbCircle
 10
101.9479874469764
 20
292.5043291093797
 30
0.0
 40
2.085614735925326
100
AcDbArc
 50
-45.43327125552183
 51
-43.63004584176502
  0
ARC
  5
2A6
330
47
100
AcDbEntity
  8
1
  6
Continuous
 62
     7
100
AcDbCircle
 10
100.5682137631785
 20
293.8196502258087
 30
0.0
 40
3.991879423167152
100
AcDbArc
 50
-43.63004584176524
 51
-42.68793323173719
  0
ARC
  5
2A7
330
47
100
AcDbEntity
  8
1
  6
Continuous
 62
     7
100
AcDbCircle
 10
101.8502931510697
 20
292.6370812505354
 30
0.0
 40
2.247689944316273
100
AcDbArc
 50
-42.6879332317423
 51
-41.01450796617807
  0
ARC
  5
2A8
330
47
100
AcDbEntity
  8
1
  6
Continuous
 62
     7
100
AcDbCircle
 10
100.0560414569194
 20
294.1975982693236
 30
0.0
 40
4.6256202435237
100
AcDbArc
 50
-41.01450796617456
 51
-40.20126148787475
  0
ARC
  5
2A9
330
47
100
AcDbEntity
  8
1
  6
Continuous
 62
     7
100
AcDbCircle
 10
101.7302137373081
 20
292.7827498164937
 30
0.0
 40
2.433669293137879
100
AcDbArc
 50
-40.20126148787938
 51
-38.65536970239578
  0
ARC
  5
2AA
330
47
100
AcDbEntity
  8
1
  6
Continuous
 62
     7
100
AcDbCircle
 10
99.35659837790544
 20
294.6813405633225
 30
0.0
 40
5.473191738907337
100
AcDbArc
 50
-38.6553697023917
 51
-37.96802199846589
  0
ARC
  5
2AB
330
47
100
AcDbEntity
  8
1
  6
Continuous
 62
     7
100
AcDbCircle
 10
101.5859447851097
 20
292.94158712843
 30
0.0
 40
2.645343189650328
100
AcDbArc
 50
-37.96802199846756
 51
-36.54618074241965
  0
ARC
  5
2AC
330
47
100
AcDbEntity
  8
1
  6
Continuous
 62
     7
100
AcDbCircle
 10
98.93952086457827
 20
294.9031407481555
 30
0.0
 40
5.939467074724959
100
AcDbArc
 50
-36.54618074241765
 51
-35.80543944798981
  0
ARC
  5
2AD
330
47
100
AcDbEntity
  8
1
  6
Continuous
 62
     7
100
AcDbCircle
 10
101.3812684232247
 20
293.1417444544592
 30
0.0
 40
2.928711680541731
100
AcDbArc
 50
-35.80543944798797
 51
-34.30366880372435
  0
ARC
  5
2AE
330
47
100
AcDbEntity
  8
1
  6
Continuous
 62
     7
100
AcDbCircle
 10
98.27659328205536
 20
295.2599015647465
 30
0.0
 40
6.68711523471959
100
AcDbArc
 50
-34.30366880372595
 51
-33.64607499287298
  0
ARC
  5
2AF
330
47
100
AcDbEntity
  8
1
  6
Continuous
 62
     7
100
AcDbCircle
 10
101.2627203821516
 20
293.2724602813872
 30
0.0
 40
3.100072174937605
100
AcDbArc
 50
-33.64607499287313
 51
-32.22763346536986
  0
ARC
  5
2B0
330
47
100
AcDbEntity
  8
1
  6
Continuous
 62
     7
100
AcDbCircle
 10
97.40817263637516
 20
295.7023955854448
 30
0.0
 40
7.656619541790752
100
AcDbArc
 50
-32.22763346536929
 51
-31.6533194638253
  0
ARC
  5
2B1
330
47
100
AcDbEntity
  8
1
  6
Continuous
 62
     7
100
AcDbCircle
 10
101.1225315711257
 20
293.4125391743621
 30
0.0
 40
3.293145618465675
100
AcDbArc
 50
-31.65331946382554
 51
-30.31791106506364
  0
ARC
  5
2B2
330
47
100
AcDbEntity
  8
1
  6
Continuous
 62
     7
100
AcDbCircle
 10
96.24407360069674
 20
296.2653260082867
 30
0.0
 40
8.944494562660788
100
AcDbArc
 50
-30.31791106506539
 51
-29.82621846911835
  0
ARC
  5
2B3
330
47
100
AcDbEntity
  8
1
  6
Continuous
 62
     7
100
AcDbCircle
 10
100.9593795909865
 20
293.5619786235229
 30
0.0
 40
3.509221095320638
100
AcDbArc
 50
-29.82621846911807
 51
-28.57288548022759
  0
ARC
  5
2B4
330
47
100
AcDbEntity
  8
1
  6
Continuous
 62
     7
100
AcDbCircle
 10
94.62679948134226
 20
297.0107267288283
 30
0.0
 40
10.72000706766165
100
AcDbArc
 50
-28.57288548022737
 51
-28.16261701958353
  0
ARC
  5
2B5
330
47
100
AcDbEntity
  8
1
  6
Continuous
 62
     7
100
AcDbCircle
 10
100.7714239293053
 20
293.721167937892
 30
0.0
 40
3.750243323779623
100
AcDbArc
 50
-28.16261701958313
 51
-26.98997870179811
  0
ARC
  5
2B6
330
47
100
AcDbEntity
  8
1
  6
Continuous
 62
     7
100
AcDbCircle
 10
93.99345600812197
 20
297.1732219500506
 30
0.0
 40
11.35665680474758
100
AcDbArc
 50
-26.98997870179897
 51
-26.5474141888524
  0
ARC
  5
2B7
330
47
100
AcDbEntity
  8
1
  6
Continuous
 62
     7
100
AcDbCircle
 10
99.72691597680043
 20
294.3086977435343
 30
0.0
 40
4.947439836805451
100
AcDbArc
 50
-26.54741418885143
 51
-24.51600660339414
  0
ARC
  5
2B8
330
47
100
AcDbEntity
  8
1
  6
Continuous
 62
     7
100
AcDbCircle
 10
90.75700468143575
 20
298.3995485641763
 30
0.0
 40
14.80616029553947
100
AcDbArc
 50
-24.51600660339514
 51
-24.17664604532564
  0
ARC
  5
2B9
330
47
100
AcDbEntity
  8
1
  6
Continuous
 62
     7
100
AcDbCircle
 10
100.354294988657
 20
294.0910564163165
 30
0.0
 40
4.286127699142622
100
AcDbArc
 50
-24.17664604532608
 51
-23.00431817506473
  0
ARC
  5
2BA
330
47
100
AcDbEntity
  8
1
  6
Continuous
 62
     7
100
AcDbCircle
 10
88.23447500561636
 20
299.2366928176897
 30
0.0
 40
17.45304117180001
100
AcDbArc
 50
-23.0043181750646
 51
-22.71641365425754
  0
ARC
  5
2BB
330
47
100
AcDbEntity
  8
1
  6
Continuous
 62
     7
100
AcDbCircle
 10
100.1989398677132
 20
294.2278210298964
 30
0.0
 40
4.482412196191241
100
AcDbArc
 50
-22.71641365425843
 51
-21.59535473440641
  0
ARC
  5
2BC
330
47
100
AcDbEntity
  8
1
  6
Continuous
 62
     7
100
AcDbCircle
 10
84.64153190925364
 20
300.3859755889439
 30
0.0
 40
21.214292244741
100
AcDbArc
 50
-21.59535473440467
 51
-21.35848273784673
  0
ARC
  5
2BD
330
47
100
AcDbEntity
  8
1
  6
Continuous
 62
     7
100
AcDbCircle
 10
100.0262583705869
 20
294.3696236711853
 30
0.0
 40
4.695021719431429
100
AcDbArc
 50
-21.3584827378459
 51
-20.28817918890416
  0
ARC
  5
2BE
330
47
100
AcDbEntity
  8
1
  6
Continuous
 62
     7
100
AcDbCircle
 10
92.83873088440092
 20
297.0266851677748
 30
0.0
 40
12.35795374061877
100
AcDbArc
 50
-20.2881791889045
 51
-19.42981342019639
  0
ARC
  5
2BF
330
47
100
AcDbEntity
  8
1
  6
Continuous
 62
     7
100
AcDbCircle
 10
98.27631333495506
 20
295.1086292380912
 30
0.0
 40
6.591998359593884
100
AcDbArc
 50
-19.42981342019638
 51
-17.73608398752381
  0
ARC
  5
2C0
330
47
100
AcDbEntity
  8
1
  6
Continuous
 62
     7
100
AcDbCircle
 10
91.20452520312333
 20
297.370433021057
 30
0.0
 40
14.01668311614433
100
AcDbArc
 50
-17.73608398752369
 51
-16.93957213147085
  0
ARC
  5
2C1
330
47
100
AcDbEntity
  8
1
  6
Continuous
 62
     7
100
AcDbCircle
 10
97.79570367343112
 20
295.3629063395155
 30
0.0
 40
7.126559967422717
100
AcDbArc
 50
-16.93957213147101
 51
-15.37289078944657
  0
ARC
  5
2C2
330
47
100
AcDbEntity
  8
1
  6
Continuous
 62
     7
100
AcDbCircle
 10
88.60706315357507
 20
297.8892028120254
 30
0.0
 40
16.65616061331335
100
AcDbArc
 50
-15.37289078944785
 51
-14.70257036760808
  0
ARC
  5
2C3
330
47
100
AcDbEntity
  8
1
  6
Continuous
 62
     7
100
AcDbCircle
 10
97.14765249494147
 20
295.648211624877
 30
0.0
 40
7.826454627339522
100
AcDbArc
 50
-14.70257036760754
 51
-13.21873037239478
  0
ARC
  5
2C4
330
47
100
AcDbEntity
  8
1
  6
Continuous
 62
     7
100
AcDbCircle
 10
86.76248400483954
 20
298.0876129262892
 30
0.0
 40
18.49427555183666
100
AcDbArc
 50
-13.2187303723953
 51
-12.56660082417116
  0
ARC
  5
2C5
330
47
100
AcDbEntity
  8
1
  6
Continuous
 62
     7
100
AcDbCircle
 10
96.68107271321443
 20
295.8766155682433
 30
0.0
 40
8.332242719613257
100
AcDbArc
 50
-12.56660082417122
 51
-11.11912178003644
  0
ARC
  5
2C6
330
47
100
AcDbEntity
  8
1
  6
Continuous
 62
     7
100
AcDbCircle
 10
84.30843584386972
 20
298.3083188542387
 30
0.0
 40
20.94157751458915
100
AcDbArc
 50
-11.1191217800364
 51
-10.54320243878163
  0
ARC
  5
2C7
330
47
100
AcDbEntity
  8
1
  6
Continuous
 62
     7
100
AcDbCircle
 10
96.25297749748282
 20
296.0852117498527
 30
0.0
 40
8.791915769813146
100
AcDbArc
 50
-10.54320243878235
 51
-9.17137269973333
  0
ARC
  5
2C8
330
47
100
AcDbEntity
  8
1
  6
Continuous
 62
     7
100
AcDbCircle
 10
114.2274659686563
 20
297.005238299456
 30
0.0
 40
14.73968693609529
100
AcDbArc
 50
-177.8554285436831
 51
-175.2193581916123
  0
ARC
  5
2C9
330
47
100
AcDbEntity
  8
1
  6
Continuous
 62
     7
100
AcDbCircle
 10
113.8004764352542
 20
296.9695282641592
 30
0.0
 40
14.31120675189087
100
AcDbArc
 50
-175.2193581916121
 51
-173.889803917318
  0
ARC
  5
2CA
330
47
100
AcDbEntity
  8
1
  6
Continuous
 62
     7
100
AcDbCircle
 10
113.2565153761454
 20
296.9112976888283
 30
0.0
 40
13.76413780401492
100
AcDbArc
 50
-173.8898039173178
 51
-172.5074189736181
  0
ARC
  5
2CB
330
47
100
AcDbEntity
  8
1
  6
Continuous
 62
     7
100
AcDbCircle
 10
112.8856372047066
 20
296.8625195061358
 30
0.0
 40
13.39006571315984
100
AcDbArc
 50
-172.5074189736183
 51
-171.0863941081749
  0
ARC
  5
2CC
330
47
100
AcDbEntity
  8
1
  6
Continuous
 62
     7
100
AcDbCircle
 10
112.3107883165527
 20
296.7723607118635
 30
0.0
 40
12.80818956448519
100
AcDbArc
 50
-171.0863941081751
 51
-170.1447494000445
  0
ARC
  5
2CD
330
47
100
AcDbEntity
  8
1
  6
Continuous
 62
     7
100
AcDbCircle
 10
111.9605385937223
 20
296.711514197289
 30
0.0
 40
12.45269390110996
100
AcDbArc
 50
-170.1447494000444
 51
-169.1762164863489
  0
ARC
  5
2CE
330
47
100
AcDbEntity
  8
1
  6
Continuous
 62
     7
100
AcDbCircle
 10
111.3778987385893
 20
296.6001190257323
 30
0.0
 40
11.85950077485547
100
AcDbArc
 50
-169.1762164863492
 51
-168.1592547758887
  0
ARC
  5
2CF
330
47
100
AcDbEntity
  8
1
  6
Continuous
 62
     7
100
AcDbCircle
 10
111.0720328267597
 20
296.5359932677806
 30
0.0
 40
11.54698506508686
100
AcDbArc
 50
-168.1592547758877
 51
-167.114773679409
  0
ARC
  5
2D0
330
47
100
AcDbEntity
  8
1
  6
Continuous
 62
     7
100
AcDbCircle
 10
110.5689642780622
 20
296.4209117012983
 30
0.0
 40
11.03092137557486
100
AcDbArc
 50
-167.1147736794095
 51
-166.0213801173794
  0
ARC
  5
2D1
330
47
100
AcDbEntity
  8
1
  6
Continuous
 62
     7
100
AcDbCircle
 10
110.2156565363057
 20
296.3329622082737
 30
0.0
 40
10.66683145027034
100
AcDbArc
 50
-166.0213801173796
 51
-164.9746888389626
  0
ARC
  5
2D2
330
47
100
AcDbEntity
  8
1
  6
Continuous
 62
     7
100
AcDbCircle
 10
109.4763165229046
 20
296.1345065443837
 30
0.0
 40
9.901319656797389
100
AcDbArc
 50
-164.9746888389626
 51
-163.8470569374473
  0
ARC
  5
2D3
330
47
100
AcDbEntity
  8
1
  6
Continuous
 62
     7
100
AcDbCircle
 10
109.1133606800115
 20
296.0293813032325
 30
0.0
 40
9.523446317942677
100
AcDbArc
 50
-163.8470569374472
 51
-162.6747189694485
  0
ARC
  5
2D4
330
47
100
AcDbEntity
  8
1
  6
Continuous
 62
     7
100
AcDbCircle
 10
108.5192561997198
 20
295.8440507525455
 30
0.0
 40
8.90110593959602
100
AcDbArc
 50
-162.6747189694487
 51
-161.4204248541982
  0
ARC
  5
2D5
330
47
100
AcDbEntity
  8
1
  6
Continuous
 62
     7
100
AcDbCircle
 10
108.225321212071
 20
295.7452473358821
 30
0.0
 40
8.591009354467396
100
AcDbArc
 50
-161.4204248541987
 51
-160.1207491500446
  0
ARC
  5
2D6
330
47
100
AcDbEntity
  8
1
  6
Continuous
 62
     7
100
AcDbCircle
 10
107.6298328574307
 20
295.5299274385405
 30
0.0
 40
7.957788193494864
100
AcDbArc
 50
-160.1207491500442
 51
-159.4893188010356
  0
ARC
  5
2D7
330
47
100
AcDbEntity
  8
1
  6
Continuous
 62
     7
100
AcDbCircle
 10
107.7033011706717
 20
295.5574117270705
 30
0.0
 40
8.036229121373463
100
AcDbArc
 50
-159.4893188010356
 51
-158.8640192722131
  0
ARC
  5
2D8
330
47
100
AcDbEntity
  8
1
  6
Continuous
 62
     7
100
AcDbCircle
 10
107.0814418723116
 20
295.3170074233537
 30
0.0
 40
7.369518377345332
100
AcDbArc
 50
-158.8640192722135
 51
-158.1821432555352
  0
ARC
  5
2D9
330
47
100
AcDbEntity
  8
1
  6
Continuous
 62
     7
100
AcDbCircle
 10
107.1402130322461
 20
295.3405354596791
 30
0.0
 40
7.432824125373346
100
AcDbArc
 50
-158.1821432555354
 51
-157.5060883558042
  0
ARC
  5
2DA
330
47
100
AcDbEntity
  8
1
  6
Continuous
 62
     7
100
AcDbCircle
 10
106.607295599129
 20
295.1198601730972
 30
0.0
 40
6.856023837034226
100
AcDbArc
 50
-157.5060883558041
 51
-156.7731798148754
  0
ARC
  5
2DB
330
47
100
AcDbEntity
  8
1
  6
Continuous
 62
     7
100
AcDbCircle
 10
106.6554885742388
 20
295.1405424172126
 30
0.0
 40
6.908467312048612
100
AcDbArc
 50
-156.773179814875
 51
-156.0458559647336
  0
ARC
  5
2DC
330
47
100
AcDbEntity
  8
1
  6
Continuous
 62
     7
100
AcDbCircle
 10
106.2065645177566
 20
294.9410989089723
 30
0.0
 40
6.417233639070307
100
AcDbArc
 50
-156.0458559647336
 51
-154.4798427663414
  0
ARC
  5
2DD
330
47
100
AcDbEntity
  8
1
  6
Continuous
 62
     7
100
AcDbCircle
 10
105.8669782699767
 20
294.7789779029801
 30
0.0
 40
6.040933173663869
100
AcDbArc
 50
-154.4798427663405
 51
-152.8159700181118
  0
ARC
  5
2DE
330
47
100
AcDbEntity
  8
1
  6
Continuous
 62
     7
100
AcDbCircle
 10
105.4795523338384
 20
294.5800045068576
 30
0.0
 40
5.605399858798896
100
AcDbArc
 50
-152.8159700181124
 51
-152.0314342605435
  0
ARC
  5
2DF
330
47
100
AcDbEntity
  8
1
  6
Continuous
 62
     7
100
AcDbCircle
 10
105.3942798805674
 20
294.5347243311309
 30
0.0
 40
5.508850982054146
100
AcDbArc
 50
-152.0314342605414
 51
-151.2330632396074
  0
ARC
  5
2E0
330
47
100
AcDbEntity
  8
1
  6
Continuous
 62
     7
100
AcDbCircle
 10
105.0211986520721
 20
294.3299014598649
 30
0.0
 40
5.083243167688488
100
AcDbArc
 50
-151.2330632396094
 51
-150.3678328110469
  0
ARC
  5
2E1
330
47
100
AcDbEntity
  8
1
  6
Continuous
 62
     7
100
AcDbCircle
 10
104.9478499921654
 20
294.2881791354486
 30
0.0
 40
4.998858463714359
100
AcDbArc
 50
-150.3678328110466
 51
-149.4880376548084
  0
ARC
  5
2E2
330
47
100
AcDbEntity
  8
1
  6
Continuous
 62
     7
100
AcDbCircle
 10
104.6406365754828
 20
294.1071301968532
 30
0.0
 40
4.642265135739189
100
AcDbArc
 50
-149.4880376548086
 51
-148.5407318162635
  0
ARC
  5
2E3
330
47
100
AcDbEntity
  8
1
  6
Continuous
 62
     7
100
AcDbCircle
 10
104.5781900580417
 20
294.0689239595259
 30
0.0
 40
4.569058004179128
100
AcDbArc
 50
-148.5407318162654
 51
-147.5783152545771
  0
ARC
  5
2E4
330
47
100
AcDbEntity
  8
1
  6
Continuous
 62
     7
100
AcDbCircle
 10
104.3238393571383
 20
293.9073730301919
 30
0.0
 40
4.267739266264251
100
AcDbArc
 50
-147.5783152545765
 51
-146.547976287184
  0
ARC
  5
2E5
330
47
100
AcDbEntity
  8
1
  6
Continuous
 62
     7
100
AcDbCircle
 10
104.2717237815365
 20
293.8729412048895
 30
0.0
 40
4.20527660690707
100
AcDbArc
 50
-146.5479762871824
 51
-145.5022799162127
  0
ARC
  5
2E6
330
47
100
AcDbEntity
  8
1
  6
Continuous
 62
     7
100
AcDbCircle
 10
104.0499668970328
 20
293.720544912673
 30
0.0
 40
3.936202740271544
100
AcDbArc
 50
-145.5022799162113
 51
-143.2671709845663
  0
ARC
  5
2E7
330
47
100
AcDbEntity
  8
1
  6
Continuous
 62
     7
100
AcDbCircle
 10
103.7701686105245
 20
293.5117402033743
 30
0.0
 40
3.587080286456089
100
AcDbArc
 50
-143.2671709845694
 51
-142.2186262745532
  0
ARC
  5
2E8
330
47
100
AcDbEntity
  8
1
  6
Continuous
 62
     7
100
AcDbCircle
 10
103.7384252467464
 20
293.4871340507478
 30
0.0
 40
3.546916821826653
100
AcDbArc
 50
-142.218626274554
 51
-141.1579820246312
  0
ARC
  5
2E9
330
47
100
AcDbEntity
  8
1
  6
Continuous
 62
     7
100
AcDbCircle
 10
103.4747527915709
 20
293.2748174008191
 30
0.0
 40
3.208388354109038
100
AcDbArc
 50
-141.1579820246305
 51
-139.9853867850648
  0
ARC
  5
2EA
330
47
100
AcDbEntity
  8
1
  6
Continuous
 62
     7
100
AcDbCircle
 10
103.4456511607013
 20
293.2503855820712
 30
0.0
 40
3.170390739886571
100
AcDbArc
 50
-139.9853867850626
 51
-138.7988437608837
  0
ARC
  5
2EB
330
47
100
AcDbEntity
  8
1
  6
Continuous
 62
     7
100
AcDbCircle
 10
103.2369510419235
 20
293.0676749997988
 30
0.0
 40
2.893012124178307
100
AcDbArc
 50
-138.7988437608852
 51
-137.4987150412024
  0
ARC
  5
2EC
330
47
100
AcDbEntity
  8
1
  6
Continuous
 62
     7
100
AcDbCircle
 10
103.2119230497002
 20
293.0447400376835
 30
0.0
 40
2.859064916900766
100
AcDbArc
 50
-137.4987150412011
 51
-136.1833058852959
  0
ARC
  5
2ED
330
47
100
AcDbEntity
  8
1
  6
Continuous
 62
     7
100
AcDbCircle
 10
103.0466710758862
 20
292.886176638957
 30
0.0
 40
2.630044030811412
100
AcDbArc
 50
-136.1833058852982
 51
-134.7533770174193
  0
ARC
  5
2EE
330
47
100
AcDbEntity
  8
1
  6
Continuous
 62
     7
100
AcDbCircle
 10
103.0268381416726
 20
292.8661722284932
 30
0.0
 40
2.601874513287605
100
AcDbArc
 50
-134.7533770174148
 51
-133.307736167863
  0
ARC
  5
2EF
330
47
100
AcDbEntity
  8
1
  6
Continuous
 62
     7
100
AcDbCircle
 10
102.8967403215588
 20
292.728153116938
 30
0.0
 40
2.412204489422906
100
AcDbArc
 50
-133.3077361678634
 51
-131.7477561572357
  0
ARC
  5
2F0
330
47
100
AcDbEntity
  8
1
  6
Continuous
 62
     7
100
AcDbCircle
 10
102.8828817910428
 20
292.7126247212433
 30
0.0
 40
2.391391273887675
100
AcDbArc
 50
-131.7477561572397
 51
-130.1729699884893
  0
ARC
  5
2F1
330
47
100
AcDbEntity
  8
1
  6
Continuous
 62
     7
100
AcDbCircle
 10
102.7690784016034
 20
292.5778276562955
 30
0.0
 40
2.214978518775022
100
AcDbArc
 50
-130.1729699884899
 51
-128.7230983784935
  0
ARC
  5
2F2
330
47
100
AcDbEntity
  8
1
  6
Continuous
 62
     7
100
AcDbCircle
 10
102.7396391708291
 20
292.5411118333943
 30
0.0
 40
2.167917707478442
100
AcDbArc
 50
-128.7230983784944
 51
-127.2409784036337
  0
ARC
  5
2F3
330
47
100
AcDbEntity
  8
1
  6
Continuous
 62
     7
100
AcDbCircle
 10
102.6370006938064
 20
292.4060912649071
 30
0.0
 40
1.998314609392953
100
AcDbArc
 50
-127.2409784036319
 51
-125.6328944128549
  0
ARC
  5
2F4
330
47
100
AcDbEntity
  8
1
  6
Continuous
 62
     7
100
AcDbCircle
 10
102.6100309084805
 20
292.3684659235386
 30
0.0
 40
1.952021676524066
100
AcDbArc
 50
-125.6328944128554
 51
-123.9870066516694
  0
ARC
  5
2F5
330
47
100
AcDbEntity
  8
1
  6
Continuous
 62
     7
100
AcDbCircle
 10
102.5291620130792
 20
292.2485141874582
 30
0.0
 40
1.807355864280241
100
AcDbArc
 50
-123.9870066516662
 51
-122.2100534018221
  0
ARC
  5
2F6
330
47
100
AcDbEntity
  8
1
  6
Continuous
 62
     7
100
AcDbCircle
 10
102.5063859438393
 20
292.2123604733317
 30
0.0
 40
1.764626010838451
100
AcDbArc
 50
-122.2100534018193
 51
-120.390861088281
  0
ARC
  5
2F7
330
47
100
AcDbEntity
  8
1
  6
Continuous
 62
     7
100
AcDbCircle
 10
102.444609443005
 20
292.1070264863356
 30
0.0
 40
1.642513010417469
100
AcDbArc
 50
-120.3908610882836
 51
-118.4370774959012
  0
ARC
  5
2F8
330
47
100
AcDbEntity
  8
1
  6
Continuous
 62
     7
100
AcDbCircle
 10
102.4270873692289
 20
292.0746701528597
 30
0.0
 40
1.605716877666484
100
AcDbArc
 50
-118.4370774959036
 51
-116.4387108610574
  0
ARC
  5
2F9
330
47
100
AcDbEntity
  8
1
  6
Continuous
 62
     7
100
AcDbCircle
 10
102.3819158045016
 20
291.9838267876919
 30
0.0
 40
1.504262517213558
100
AcDbArc
 50
-116.4387108610532
 51
-114.304886920865
  0
ARC
  5
2FA
330
47
100
AcDbEntity
  8
1
  6
Continuous
 62
     7
100
AcDbCircle
 10
102.3700426440222
 20
291.9575366310954
 30
0.0
 40
1.475415606224152
100
AcDbArc
 50
-114.3048869208652
 51
-112.1274028445631
  0
ARC
  5
2FB
330
47
100
AcDbEntity
  8
1
  6
Continuous
 62
     7
100
AcDbCircle
 10
102.3448696484324
 20
291.8956279764833
 30
0.0
 40
1.408584765866813
100
AcDbArc
 50
-112.1274028445714
 51
-108.0426630895104
  0
ARC
  5
2FC
330
47
100
AcDbEntity
  8
1
  6
Continuous
 62
     7
100
AcDbCircle
 10
102.3353800012564
 20
291.8664956735722
 30
0.0
 40
1.377945828606727
100
AcDbArc
 50
-108.0426630895107
 51
-103.8630635302782
  0
ARC
  5
2FD
330
47
100
AcDbEntity
  8
1
  6
Continuous
 62
     7
100
AcDbCircle
 10
102.3182967656009
 20
291.7972741887426
 30
0.0
 40
1.30664750532725
100
AcDbArc
 50
-103.8630635302762
 51
-99.4574256688832
  0
ARC
  5
2FE
330
47
100
AcDbEntity
  8
1
  6
Continuous
 62
     7
100
AcDbCircle
 10
102.3099819291547
 20
291.7473588646729
 30
0.0
 40
1.25604438208258
100
AcDbArc
 50
-99.45742566888514
 51
-94.87981091991247
  0
ARC
  5
2FF
330
47
100
AcDbEntity
  8
1
  6
Continuous
 62
     7
100
AcDbCircle
 10
102.3034830506178
 20
291.6712375651739
 30
0.0
 40
1.179646164435479
100
AcDbArc
 50
-94.87981091990937
 51
-90.0109093011005
  0
ARC
  5
300
330
47
100
AcDbEntity
  8
1
  6
Continuous
 62
     7
100
AcDbCircle
 10
160.9580903989987
 20
296.8696239857881
 30
0.0
 40
13.67570178916311
100
AcDbArc
 50
179.365875938477
 51
-152.2006254120271
  0
CIRCLE
  5
301
330
47
100
AcDbEntity
  8
1
  6
Continuous
 62
     7
100
AcDbCircle
 10
123.6216247186783
 20
586.664178679503
 30
0.0
 40
25.36531416878967
  0
CIRCLE
  5
302
330
47
100
AcDbEntity
  8
1
  6
Continuous
 62
     7
100
AcDbCircle
 10
123.6216247186783
 20
586.664178679503
 30
0.0
 40
17.9999999999999
  0
SPLINE
  5
303
330
47
100
AcDbEntity
  8
1
  6
Continuous
 62
     7
100
AcDbSpline
210
0.0
220
0.0
230
1.0
 70
     8
 71
     3
 72
    16
 73
    12
 74
    10
 42
0.0000000001
 43
0.0000000001
 44
0.00000001
 40
0.0
 40
0.0
 40
0.0
 40
0.0
 40
2.454678392453477
 40
4.916134696829968
 40
5.661879217582094
 40
6.487871862271375
 40
7.304323806545679
 40
7.909753799096536
 40
8.64477384154103
 40
9.684484013168355
 40
10.48512309219991
 40
10.48512309219991
 40
10.48512309219991
 40
10.48512309219991
 10
99.78563814101946
 20
325.9915914221215
 30
0.0
 10
100.5100773349533
 20
326.3711457542981
 30
0.0
 10
101.960956060244
 20
327.1313024524148
 30
0.0
 10
103.7196935245109
 20
327.8474263118474
 30
0.0
 10
105.0248160604602
 20
328.1659655229406
 30
0.0
 10
105.8325533341935
 20
328.2312039357157
 30
0.0
 10
106.5400075519993
 20
328.2441850510129
 30
0.0
 10
107.380362107047
 20
327.9711296375511
 30
0.0
 10
107.0303223710853
 20
327.0187779880634
 30
0.0
 10
106.4993875757151
 20
326.3935985735785
 30
0.0
 10
105.9407365152558
 20
326.1134634621786
 30
0.0
 10
105.6976968474395
 20
325.9915914221215
 30
0.0
 11
99.78563814101946
 21
325.9915914221215
 31
0.0
 11
101.9779556508884
 21
327.0957607688704
 31
0.0
 11
104.2771384119494
 21
327.9746952201207
 31
0.0
 11
105.0040234451771
 21
328.1413476689517
 31
0.0
 11
105.8260183056299
 21
328.2225160031096
 31
0.0
 11
106.6415301354235
 21
328.1833467195306
 31
0.0
 11
107.1831180714194
 21
327.9127400243735
 31
0.0
 11
107.0571429937668
 21
327.1885958794649
 31
0.0
 11
106.3928904433048
 21
326.3887422739907
 31
0.0
 11
105.6976968474395
 21
325.9915914221215
 31
0.0
  0
SPLINE
  5
304
330
47
100
AcDbEntity
  8
1
  6
Continuous
 62
     7
100
AcDbSpline
210
0.0
220
0.0
230
1.0
 70
     8
 71
     3
 72
     9
 73
     5
 74
     3
 42
0.0000000001
 43
0.0000000001
 44
0.00000001
 40
0.0
 40
0.0
 40
0.0
 40
0.0
 40
3.517147165053924
 40
7.050991085322222
 40
7.050991085322222
 40
7.050991085322222
 40
7.050991085322222
 10
105.6221658000688
 20
322.2100579997377
 30
0.0
 10
104.4940309238446
 20
322.5952362468379
 30
0.0
 10
102.2324056400541
 20
323.367421276099
 30
0.0
 10
100.6025138359365
 20
325.115488231909
 30
0.0
 10
99.78563814101946
 20
325.9915914221215
 30
0.0
 11
105.6221658000688
 21
322.2100579997377
 31
0.0
 11
102.3949474541018
 21
323.6084091459455
 31
0.0
 11
99.78563814101946
 21
325.9915914221215
 31
0.0
  0
SPLINE
  5
305
330
47
100
AcDbEntity
  8
1
  6
Continuous
 62
     7
100
AcDbSpline
210
0.0
220
0.0
230
1.0
 70
     8
 71
     3
 72
    17
 73
    13
 74
    11
 42
0.0000000001
 43
0.0000000001
 44
0.00000001
 40
0.0
 40
0.0
 40
0.0
 40
0.0
 40
1.48395945581598
 40
2.984332080800111
 40
3.472125405179217
 40
3.974383937660446
 40
4.950612050184323
 40
5.909996893177102
 40
7.090216577485608
 40
8.293139769040673
 40
9.902332042109073
 40
11.50912297574307
 40
11.50912297574307
 40
11.50912297574307
 40
11.50912297574307
 10
132.9978175311887
 20
325.9915914221215
 30
0.0
 10
133.1444999636723
 20
326.4671100166597
 30
0.0
 10
133.4394871934345
 20
327.4234066264732
 30
0.0
 10
134.4588668948042
 20
328.243172375888
 30
0.0
 10
135.2987116669721
 20
328.2623654530539
 30
0.0
 10
135.9507088375168
 20
328.2007826217119
 30
0.0
 10
136.7639309646816
 20
328.2389506154847
 30
0.0
 10
137.8064170323629
 20
328.2643160983909
 30
0.0
 10
138.9000542979001
 20
327.9894586088805
 30
0.0
 10
140.1216961990506
 20
327.461896199493
 30
0.0
 10
141.447089993176
 20
326.8154373293104
 30
0.0
 10
142.3680665945205
 20
326.2660699889927
 30
0.0
 10
142.8282110536225
 20
325.9915914221215
 30
0.0
 11
132.9978175311887
 21
325.9915914221215
 31
0.0
 11
133.5815664019172
 21
327.3559128367555
 31
0.0
 11
134.8055613832952
 21
328.2236422296904
 31
0.0
 11
135.2924779995732
 21
328.2528746791466
 31
0.0
 11
135.7938851169429
 21
328.2236422296904
 31
0.0
 11
136.7700410412991
 21
328.235514004039
 31
0.0
 11
137.7293524286692
 21
328.2236422296904
 31
0.0
 11
138.8802395786404
 21
327.9621517494418
 31
0.0
 11
139.994260984945
 21
327.5083009908481
 31
0.0
 11
141.4368899672289
 21
326.7953343779008
 31
0.0
 11
142.8282110536225
 21
325.9915914221215
 31
0.0
  0
SPLINE
  5
306
330
47
100
AcDbEntity
  8
1
  6
Continuous
 62
     7
100
AcDbSpline
210
0.0
220
0.0
230
1.0
 70
     8
 71
     3
 72
    11
 73
     7
 74
     5
 42
0.0000000001
 43
0.0000000001
 44
0.00000001
 40
0.0
 40
0.0
 40
0.0
 40
0.0
 40
2.856271976946593
 40
5.762546072545561
 40
9.902414448645196
 40
14.03003532375862
 40
14.03003532375862
 40
14.03003532375862
 40
14.03003532375862
 10
132.9978175311887
 20
325.9915914221215
 30
0.0
 10
133.2837859125099
 20
325.0884431078633
 30
0.0
 10
133.8607288598045
 20
323.2663358949437
 30
0.0
 10
136.543510203312
 20
320.6483697595907
 30
0.0
 10
140.6714063933765
 20
322.514237656835
 30
0.0
 10
142.1099865402101
 20
324.8336188147409
 30
0.0
 10
142.8282110536225
 20
325.9915914221215
 30
0.0
 11
132.9978175311887
 21
325.9915914221215
 31
0.0
 11
134.0975352636124
 21
323.3555127974816
 31
0.0
 11
136.3273841879177
 21
321.4915914221215
 31
0.0
 11
140.2708187793069
 21
322.7516841944461
 31
0.0
 11
142.8282110536225
 21
325.9915914221215
 31
0.0
  0
SPLINE
  5
307
330
47
100
AcDbEntity
  8
1
  6
Continuous
 62
     7
100
AcDbSpline
210
0.0
220
0.0
230
1.0
 70
     8
 71
     3
 72
     9
 73
     5
 74
     3
 42
0.0000000001
 43
0.0000000001
 44
0.00000001
 40
0.0
 40
0.0
 40
0.0
 40
0.0
 40
3.517147165053898
 40
7.050991085322186
 40
7.050991085322186
 40
7.050991085322186
 40
7.050991085322186
 10
369.6385207653634
 20
322.2100579997377
 30
0.0
 10
368.5103858891392
 20
322.5952362468379
 30
0.0
 10
366.2487606053486
 20
323.367421276099
 30
0.0
 10
364.6188688012311
 20
325.115488231909
 30
0.0
 10
363.8019931063141
 20
325.9915914221215
 30
0.0
 11
369.6385207653634
 21
322.2100579997377
 31
0.0
 11
366.4113024193964
 21
323.6084091459455
 31
0.0
 11
363.8019931063141
 21
325.9915914221215
 31
0.0
  0
SPLINE
  5
308
330
47
100
AcDbEntity
  8
1
  6
Continuous
 62
     7
100
AcDbSpline
210
0.0
220
0.0
230
1.0
 70
     8
 71
     3
 72
    16
 73
    12
 74
    10
 42
0.0000000001
 43
0.0000000001
 44
0.00000001
 40
0.0
 40
0.0
 40
0.0
 40
0.0
 40
2.45467839245349
 40
4.916134696829968
 40
5.661879217582079
 40
6.487871862271389
 40
7.30432380654575
 40
7.909753799096607
 40
8.644773841541094
 40
9.684484013168419
 40
10.48512309220011
 40
10.48512309220011
 40
10.48512309220011
 40
10.48512309220011
 10
363.8019931063141
 20
325.9915914221215
 30
0.0
 10
364.5264323002479
 20
326.3711457542982
 30
0.0
 10
365.9773110255385
 20
327.1313024524148
 30
0.0
 10
367.7360484898056
 20
327.8474263118473
 30
0.0
 10
369.0411710257549
 20
328.1659655229407
 30
0.0
 10
369.8489082994881
 20
328.2312039357157
 30
0.0
 10
370.556362517294
 20
328.2441850510129
 30
0.0
 10
371.3967170723417
 20
327.9711296375511
 30
0.0
 10
371.0466773363799
 20
327.0187779880633
 30
0.0
 10
370.5157425410099
 20
326.3935985735783
 30
0.0
 10
369.9570914805506
 20
326.1134634621786
 30
0.0
 10
369.7140518127341
 20
325.9915914221215
 30
0.0
 11
363.8019931063141
 21
325.9915914221215
 31
0.0
 11
365.9943106161831
 21
327.0957607688704
 31
0.0
 11
368.2934933772441
 21
327.9746952201207
 31
0.0
 11
369.0203784104718
 21
328.1413476689517
 31
0.0
 11
369.8423732709246
 21
328.2225160031096
 31
0.0
 11
370.6578851007182
 21
328.1833467195306
 31
0.0
 11
371.1994730367141
 21
327.9127400243735
 31
0.0
 11
371.0734979590615
 21
327.1885958794649
 31
0.0
 11
370.4092454085995
 21
326.3887422739907
 31
0.0
 11
369.7140518127341
 21
325.9915914221215
 31
0.0
  0
SPLINE
  5
309
330
47
100
AcDbEntity
  8
1
  6
Continuous
 62
     7
100
AcDbSpline
210
0.0
220
0.0
230
1.0
 70
     8
 71
     3
 72
    11
 73
     7
 74
     5
 42
0.0000000001
 43
0.0000000001
 44
0.00000001
 40
0.0
 40
0.0
 40
0.0
 40
0.0
 40
2.856271976946593
 40
5.762546072545627
 40
9.90241444864537
 40
14.03003532375865
 40
14.03003532375865
 40
14.03003532375865
 40
14.03003532375865
 10
397.0141724964833
 20
325.9915914221215
 30
0.0
 10
397.3001408778046
 20
325.0884431078633
 30
0.0
 10
397.877083825099
 20
323.2663358949435
 30
0.0
 10
400.5598651686069
 20
320.6483697595908
 30
0.0
 10
404.6877613586711
 20
322.5142376568348
 30
0.0
 10
406.1263415055049
 20
324.833618814741
 30
0.0
 10
406.8445660189171
 20
325.9915914221215
 30
0.0
 11
397.0141724964833
 21
325.9915914221215
 31
0.0
 11
398.113890228907
 21
323.3555127974816
 31
0.0
 11
400.3437391532124
 21
321.4915914221215
 31
0.0
 11
404.2871737446017
 21
322.7516841944461
 31
0.0
 11
406.8445660189171
 21
325.9915914221215
 31
0.0
  0
SPLINE
  5
30A
330
47
100
AcDbEntity
  8
1
  6
Continuous
 62
     7
100
AcDbSpline
210
0.0
220
0.0
230
1.0
 70
     8
 71
     3
 72
    17
 73
    13
 74
    11
 42
0.0000000001
 43
0.0000000001
 44
0.00000001
 40
0.0
 40
0.0
 40
0.0
 40
0.0
 40
1.48395945581598
 40
2.984332080800157
 40
3.47212540517932
 40
3.974383937660549
 40
4.950612050184454
 40
5.909996893177119
 40
7.090216577485598
 40
8.293139769040637
 40
9.902332042109038
 40
11.50912297574304
 40
11.50912297574304
 40
11.50912297574304
 40
11.50912297574304
 10
397.0141724964833
 20
325.9915914221215
 30
0.0
 10
397.1608549289669
 20
326.4671100166597
 30
0.0
 10
397.455842158729
 20
327.4234066264731
 30
0.0
 10
398.4752218600989
 20
328.2431723758882
 30
0.0
 10
399.3150666322667
 20
328.2623654530539
 30
0.0
 10
399.9670638028115
 20
328.2007826217119
 30
0.0
 10
400.7802859299762
 20
328.2389506154847
 30
0.0
 10
401.8227719976575
 20
328.2643160983907
 30
0.0
 10
402.9164092631947
 20
327.9894586088805
 30
0.0
 10
404.1380511643452
 20
327.461896199493
 30
0.0
 10
405.4634449584705
 20
326.8154373293104
 30
0.0
 10
406.384421559815
 20
326.2660699889926
 30
0.0
 10
406.8445660189171
 20
325.9915914221215
 30
0.0
 11
397.0141724964833
 21
325.9915914221215
 31
0.0
 11
397.5979213672118
 21
327.3559128367555
 31
0.0
 11
398.8219163485898
 21
328.2236422296904
 31
0.0
 11
399.3088329648679
 21
328.2528746791466
 31
0.0
 11
399.8102400822376
 21
328.2236422296904
 31
0.0
 11
400.7863960065938
 21
328.235514004039
 31
0.0
 11
401.7457073939639
 21
328.2236422296904
 31
0.0
 11
402.896594543935
 21
327.9621517494418
 31
0.0
 11
404.0106159502395
 21
327.5083009908481
 31
0.0
 11
405.4532449325234
 21
326.7953343779008
 31
0.0
 11
406.8445660189171
 21
325.9915914221215
 31
0.0
  0
ARC
  5
30B
330
47
100
AcDbEntity
  8
1
  6
Continuous
 62
     7
100
AcDbCircle
 10
410.1134532195395
 20
326.2495924739025
 30
0.0
 40
0.9999999999999707
100
AcDbArc
 50
0.36481505283215
 51
68.08844826161825
  0
ARC
  5
30C
330
47
100
AcDbEntity
  8
1
  6
Continuous
 62
     7
100
AcDbCircle
 10
409.7402783780329
 20
325.3218314391169
 30
0.0
 40
2.000000000000092
100
AcDbArc
 50
68.0884482616128
 51
74.99999999999599
  0
ARC
  5
30D
330
47
100
AcDbEntity
  8
1
  6
Continuous
 62
     7
100
AcDbCircle
 10
365.535680989913
 20
325.3218314391169
 30
0.0
 40
1.999999999999841
100
AcDbArc
 50
105.0000000000024
 51
178.1323211605703
  0
ARC
  5
30E
330
47
100
AcDbEntity
  8
1
  6
Continuous
 62
     7
100
AcDbCircle
 10
366.2705405556142
 20
286.4915914221215
 30
0.0
 40
4.000000000000188
100
AcDbArc
 50
178.132321160563
 51
-90.0
  0
ARC
  5
30F
330
47
100
AcDbEntity
  8
1
  6
Continuous
 62
     7
100
AcDbCircle
 10
409.0054188123319
 20
286.4915914221215
 30
0.0
 40
4.0
100
AcDbArc
 50
-90.0
 51
1.86767883943715
  0
ARC
  5
310
330
47
100
AcDbEntity
  8
1
  6
Continuous
 62
     7
100
AcDbCircle
 10
146.0970982542449
 20
326.2495924739025
 30
0.0
 40
0.9999999999997717
100
AcDbArc
 50
0.36481505283222
 51
68.08844826162429
  0
ARC
  5
311
330
47
100
AcDbEntity
  8
1
  6
Continuous
 62
     7
100
AcDbCircle
 10
145.7239234127382
 20
325.3218314391169
 30
0.0
 40
2.000000000000081
100
AcDbArc
 50
68.08844826161355
 51
74.99999999999129
  0
ARC
  5
312
330
47
100
AcDbEntity
  8
1
  6
Continuous
 62
     7
100
AcDbCircle
 10
101.5193260246183
 20
325.3218314391169
 30
0.0
 40
1.999999999999845
100
AcDbArc
 50
105.0000000000028
 51
178.1323211605702
  0
ARC
  5
313
330
47
100
AcDbEntity
  8
1
  6
Continuous
 62
     7
100
AcDbCircle
 10
102.2541855903196
 20
286.4915914221215
 30
0.0
 40
4.000000000000103
100
AcDbArc
 50
178.132321160563
 51
-90.0
  0
ARC
  5
314
330
47
100
AcDbEntity
  8
1
  6
Continuous
 62
     7
100
AcDbCircle
 10
144.9890638470371
 20
286.4915914221215
 30
0.0
 40
4.0
100
AcDbArc
 50
-90.0
 51
1.86767883943709
  0
ENDBLK
  5
49
330
47
100
AcDbEntity
  8
0
100
AcDbBlockEnd
  0
BLOCK
  5
4D
330
4A
100
AcDbEntity
  8
0
100
AcDbBlockBegin
  2
81-8-3CWC
 70
     0
 71
     0
 10
362.2705405556142
 20
282.4915914221215
 30
0.0
  3
81-8-3CWC
  1

  0
INSERT
  5
4B
330
4A
100
AcDbEntity
  8
1
100
AcDbBlockReference
  2
84-34X
 10
375.137979683973
 20
322.9915914221217
 30
0.0
  0
INSERT
  5
4C
330
4A
100
AcDbEntity
  8
0
100
AcDbBlockReference
  2
81-8
 10
420.1444963906209
 20
284.6915914221216
 30
0.0
  0
LINE
  5
315
330
4A
100
AcDbEntity
  8
1
  6
DASH_CENTER
 62
     2
100
AcDbLine
 10
387.637979683973
 20
324.4915914221215
 30
0.0
 11
387.637979683973
 21
301.3659218696533
 31
0.0
  0
ENDBLK
  5
4E
330
4A
100
AcDbEntity
  8
0
100
AcDbBlockEnd
  0
BLOCK
  5
50
330
4F
100
AcDbEntity
  8
0
100
AcDbBlockBegin
  2
32-1-16
 70
     0
 71
     0
 10
211.7509657991346
 20
262.4332211114654
 30
0.0
  3
32-1-16
  1

  0
LINE
  5
316
330
4F
100
AcDbEntity
  8
1
  6
Continuous
 62
     7
100
AcDbLine
 10
352.637979683973
 20
234.1915914221217
 30
0.0
 11
343.8396577049033
 21
234.191591422122
 31
0.0
  0
LINE
  5
317
330
4F
100
AcDbEntity
  8
1
  6
Continuous
 62
     7
100
AcDbLine
 10
342.8700304915419
 20
233.191591422122
 30
0.0
 11
352.637979683973
 21
233.191591422122
 31
0.0
  0
LINE
  5
318
330
4F
100
AcDbEntity
  8
1
  6
Continuous
 62
     7
100
AcDbLine
 10
341.1379796839731
 20
234.1915914221217
 30
0.0
 11
341.0799586222424
 21
234.191591422122
 31
0.0
  0
LINE
  5
319
330
4F
100
AcDbEntity
  8
1
  6
Continuous
 62
     7
100
AcDbLine
 10
339.337979683973
 20
243.191591422122
 30
0.0
 11
339.4509796839731
 21
243.191591422122
 31
0.0
  0
LINE
  5
31A
330
4F
100
AcDbEntity
  8
1
  6
Continuous
 62
     7
100
AcDbLine
 10
352.637979683973
 20
243.191591422122
 30
0.0
 11
339.337979683973
 21
243.191591422122
 31
0.0
  0
LINE
  5
31B
330
4F
100
AcDbEntity
  8
1
  6
Continuous
 62
     7
100
AcDbLine
 10
137.6216247186783
 20
558.3162460273279
 30
0.0
 11
137.6216247186783
 21
545.0121113316778
 31
0.0
  0
LINE
  5
31C
330
4F
100
AcDbEntity
  8
1
  6
Continuous
 62
     7
100
AcDbLine
 10
109.6216247186784
 20
558.3162460273279
 30
0.0
 11
109.6216247186784
 21
545.0121113316778
 31
0.0
  0
LINE
  5
31D
330
4F
100
AcDbEntity
  8
1
  6
Continuous
 62
     7
100
AcDbLine
 10
110.8607654077771
 20
542.8658567004333
 30
0.0
 11
122.38248402958
 21
536.2137893526083
 31
0.0
  0
LINE
  5
31E
330
4F
100
AcDbEntity
  8
1
  6
Continuous
 62
     7
100
AcDbLine
 10
124.8607654077771
 20
536.2137893526083
 30
0.0
 11
136.38248402958
 21
542.8658567004333
 31
0.0
  0
LINE
  5
31F
330
4F
100
AcDbEntity
  8
1
  6
Continuous
 62
     7
100
AcDbLine
 10
361.4363016630425
 20
234.191591422122
 30
0.0
 11
352.637979683973
 21
234.1915914221217
 31
0.0
  0
LINE
  5
320
330
4F
100
AcDbEntity
  8
1
  6
Continuous
 62
     7
100
AcDbLine
 10
352.637979683973
 20
233.191591422122
 30
0.0
 11
362.4059288764041
 21
233.191591422122
 31
0.0
  0
LINE
  5
321
330
4F
100
AcDbEntity
  8
1
  6
Continuous
 62
     7
100
AcDbLine
 10
364.1960007457036
 20
234.191591422122
 30
0.0
 11
364.137979683973
 21
234.1915914221217
 31
0.0
  0
LINE
  5
322
330
4F
100
AcDbEntity
  8
1
  6
Continuous
 62
     7
100
AcDbLine
 10
365.824979683973
 20
243.191591422122
 30
0.0
 11
365.9379796839729
 21
243.191591422122
 31
0.0
  0
LINE
  5
323
330
4F
100
AcDbEntity
  8
1
  6
Continuous
 62
     7
100
AcDbLine
 10
365.9379796839729
 20
243.191591422122
 30
0.0
 11
352.637979683973
 21
243.191591422122
 31
0.0
  0
LINE
  5
324
330
4F
100
AcDbEntity
  8
1
  6
Continuous
 62
     7
100
AcDbLine
 10
123.6216247186783
 20
234.1915914221217
 30
0.0
 11
114.8233027396086
 21
234.1915914221217
 31
0.0
  0
LINE
  5
325
330
4F
100
AcDbEntity
  8
1
  6
Continuous
 62
     7
100
AcDbLine
 10
113.853675526247
 20
233.1915914221217
 30
0.0
 11
123.6216247186783
 21
233.1915914221217
 31
0.0
  0
LINE
  5
326
330
4F
100
AcDbEntity
  8
1
  6
Continuous
 62
     7
100
AcDbLine
 10
112.1216247186783
 20
234.1915914221217
 30
0.0
 11
112.0636036569477
 21
234.1915914221217
 31
0.0
  0
LINE
  5
327
330
4F
100
AcDbEntity
  8
1
  6
Continuous
 62
     7
100
AcDbLine
 10
123.6216247186783
 20
243.1915914221217
 30
0.0
 11
110.3216247186782
 21
243.1915914221217
 31
0.0
  0
LINE
  5
328
330
4F
100
AcDbEntity
  8
1
  6
Continuous
 62
     7
100
AcDbLine
 10
109.6216247186784
 20
242.6198426009516
 30
0.0
 11
109.6216247186784
 21
235.4784141724086
 31
0.0
  0
LINE
  5
329
330
4F
100
AcDbEntity
  8
1
  6
Continuous
 62
     7
100
AcDbLine
 10
132.419946697748
 20
234.1915914221217
 30
0.0
 11
123.6216247186783
 21
234.1915914221217
 31
0.0
  0
LINE
  5
32A
330
4F
100
AcDbEntity
  8
1
  6
Continuous
 62
     7
100
AcDbLine
 10
123.6216247186783
 20
233.1915914221217
 30
0.0
 11
133.3895739111096
 21
233.1915914221217
 31
0.0
  0
LINE
  5
32B
330
4F
100
AcDbEntity
  8
1
  6
Continuous
 62
     7
100
AcDbLine
 10
135.179645780409
 20
234.1915914221217
 30
0.0
 11
135.1216247186783
 21
234.1915914221217
 31
0.0
  0
LINE
  5
32C
330
4F
100
AcDbEntity
  8
1
  6
Continuous
 62
     7
100
AcDbLine
 10
136.9216247186784
 20
243.1915914221217
 30
0.0
 11
123.6216247186783
 21
243.1915914221217
 31
0.0
  0
LINE
  5
32D
330
4F
100
AcDbEntity
  8
1
  6
Continuous
 62
     7
100
AcDbLine
 10
137.6216247186783
 20
235.4784141724086
 30
0.0
 11
137.6216247186783
 21
242.6198426009516
 31
0.0
  0
LINE
  5
32E
330
4F
100
AcDbEntity
  8
1
  6
Continuous
 62
     7
100
AcDbLine
 10
114.8713283695363
 20
562.7780002641463
 30
0.0
 11
110.8607654077771
 21
560.4625006585725
 31
0.0
  0
LINE
  5
32F
330
4F
100
AcDbEntity
  8
1
  6
Continuous
 62
     7
100
AcDbLine
 10
132.3719210678206
 20
562.7780002641463
 30
0.0
 11
136.38248402958
 21
560.4625006585725
 31
0.0
  0
ARC
  5
330
330
4F
100
AcDbEntity
  8
1
  6
Continuous
 62
     7
100
AcDbCircle
 10
342.1379796839731
 20
239.0491283866804
 30
0.0
 40
5.000000000000048
100
AcDbArc
 50
124.0557977425685
 51
-105.3375576695564
  0
ARC
  5
331
330
4F
100
AcDbEntity
  8
1
  6
Continuous
 62
     7
100
AcDbCircle
 10
123.6216247186783
 20
551.6641786795029
 30
0.0
 40
15.49999999999998
100
AcDbArc
 50
25.4146209151608
 51
34.58537908483829
  0
ARC
  5
332
330
4F
100
AcDbEntity
  8
1
  6
Continuous
 62
     7
100
AcDbCircle
 10
123.6216247186783
 20
551.6641786795029
 30
0.0
 40
15.49999999999976
100
AcDbArc
 50
145.4146209151607
 51
154.5853790848391
  0
ARC
  5
333
330
4F
100
AcDbEntity
  8
1
  6
Continuous
 62
     7
100
AcDbCircle
 10
123.6216247186783
 20
551.6641786795029
 30
0.0
 40
15.49999999999994
100
AcDbArc
 50
-154.5853790848387
 51
-145.4146209151603
  0
ARC
  5
334
330
4F
100
AcDbEntity
  8
1
  6
Continuous
 62
     7
100
AcDbCircle
 10
123.6216247186783
 20
551.6641786795029
 30
0.0
 40
15.49999999999997
100
AcDbArc
 50
-94.58537908483815
 51
-90.0
  0
ARC
  5
335
330
4F
100
AcDbEntity
  8
1
  6
Continuous
 62
     7
100
AcDbCircle
 10
123.6216247186783
 20
551.6641786795029
 30
0.0
 40
15.50000000000023
100
AcDbArc
 50
-34.58537908483864
 51
-25.41462091516118
  0
ARC
  5
336
330
4F
100
AcDbEntity
  8
1
  6
Continuous
 62
     7
100
AcDbCircle
 10
123.6216247186783
 20
551.6641786795029
 30
0.0
 40
15.5
100
AcDbArc
 50
-90.0
 51
-85.41462091516007
  0
ARC
  5
337
330
4F
100
AcDbEntity
  8
1
  6
Continuous
 62
     7
100
AcDbCircle
 10
363.137979683973
 20
239.0491283866804
 30
0.0
 40
4.999999999999876
100
AcDbArc
 50
-74.66244233044554
 51
55.94420225743315
  0
ARC
  5
338
330
4F
100
AcDbEntity
  8
1
  6
Continuous
 62
     7
100
AcDbCircle
 10
113.1216247186783
 20
239.0491283866801
 30
0.0
 40
4.999999999999988
100
AcDbArc
 50
-134.4270040008043
 51
-105.3375576695543
  0
ARC
  5
339
330
4F
100
AcDbEntity
  8
1
  6
Continuous
 62
     7
100
AcDbCircle
 10
113.1216247186783
 20
239.0491283866801
 30
0.0
 40
5.000000000000049
100
AcDbArc
 50
124.0557977425691
 51
134.4270040008043
  0
ARC
  5
33A
330
4F
100
AcDbEntity
  8
1
  6
Continuous
 62
     7
100
AcDbCircle
 10
134.1216247186783
 20
239.0491283866801
 30
0.0
 40
5.000000000000014
100
AcDbArc
 50
-74.66244233044463
 51
-45.57299599919494
  0
ARC
  5
33B
330
4F
100
AcDbEntity
  8
1
  6
Continuous
 62
     7
100
AcDbCircle
 10
134.1216247186783
 20
239.0491283866801
 30
0.0
 40
5.000000000000057
100
AcDbArc
 50
45.57299599919494
 51
55.94420225743107
  0
SPLINE
  5
33C
330
4F
100
AcDbEntity
  8
1
  6
Continuous
 62
     7
100
AcDbSpline
210
0.0
220
0.0
230
1.0
 70
    11
 71
     3
 72
    79
 73
    75
 74
    73
 42
0.0000000001
 43
0.0000000001
 44
0.00000001
 40
0.0
 40
0.0
 40
0.0
 40
0.0
 40
0.3210813131182403
 40
0.6418951451340471
 40
0.9828988941044599
 40
1.32353105622098
 40
1.692967059529046
 40
2.062075182676598
 40
2.463733858567299
 40
2.865152866614771
 40
3.298564783375461
 40
3.731815227792738
 40
4.193131264619082
 40
4.654344171660894
 40
5.137240970539909
 40
5.620077103492365
 40
6.116559529336422
 40
6.613013907632173
 40
7.114121234392393
 40
7.615228561152641
 40
8.111682939448428
 40
8.608165365292489
 40
9.091001498244943
 40
9.573898297123895
 40
10.03511120416569
 40
10.49642724099203
 40
10.92967768540932
 40
11.36308960216994
 40
11.76450861021738
 40
12.16616728610816
 40
12.53527540925579
 40
12.90471141256379
 40
13.24534357468028
 40
13.58634732365065
 40
13.90716115566644
 40
14.22824246878471
 40
14.54200445402343
 40
14.85576643926209
 40
15.17684775238038
 40
15.49766158439615
 40
15.8386653333665
 40
16.17929749548306
 40
16.54873349879112
 40
16.91784162193872
 40
17.31950029782948
 40
17.72091930587689
 40
18.15433122263752
 40
18.58758166705481
 40
19.04889770388114
 40
19.51011061092292
 40
19.99300740980188
 40
20.47584354275434
 40
20.97232596859841
 40
21.46878034689414
 40
21.96988767365436
 40
22.47099500041461
 40
22.96744937871045
 40
23.46393180455457
 40
23.94676793750709
 40
24.42966473638604
 40
24.89087764342778
 40
25.35219368025415
 40
25.7854441246714
 40
26.21885604143201
 40
26.62027504947938
 40
27.02193372537012
 40
27.39104184851769
 40
27.76047785182577
 40
28.10111001394229
 40
28.44211376291269
 40
28.76292759492849
 40
29.08400890804675
 40
29.39777089328542
 40
29.7115328785241
 40
29.7115328785241
 40
29.7115328785241
 40
29.7115328785241
 10
110.8832563895787
 20
238.7361735351144
 30
0.0
 10
110.9025362407754
 20
238.6307124496025
 30
0.0
 10
110.9410798818298
 20
238.419878134353
 30
0.0
 10
111.0561331939062
 20
238.1115385100738
 30
0.0
 10
111.2085216602428
 20
237.8134504166266
 30
0.0
 10
111.4055983046398
 20
237.5227783328035
 30
0.0
 10
111.6387848145515
 20
237.2480127547084
 30
0.0
 10
111.9129532811219
 20
236.9839838097173
 30
0.0
 10
112.2184964812302
 20
236.7395998338256
 30
0.0
 10
112.5611140721356
 20
236.5097282595685
 30
0.0
 10
112.9298102889113
 20
236.302161007436
 30
0.0
 10
113.3303650310536
 20
236.1129440478605
 30
0.0
 10
113.7514695282061
 20
235.9479794327071
 30
0.0
 10
114.1978278341674
 20
235.8047954110757
 30
0.0
 10
114.6590236920005
 20
235.6872681841384
 30
0.0
 10
115.1377187883564
 20
235.5941843776369
 30
0.0
 10
115.6253860973532
 20
235.5276815790759
 30
0.0
 10
116.1220039031041
 20
235.4872960166183
 30
0.0
 10
116.6216247186757
 20
235.4739525364159
 30
0.0
 10
117.1212455342633
 20
235.487296016617
 30
0.0
 10
117.6178633399666
 20
235.5276815790811
 30
0.0
 10
118.1055306491362
 20
235.5941843776173
 30
0.0
 10
118.584225744865
 20
235.6872681842092
 30
0.0
 10
119.0454216049895
 20
235.8047954108163
 30
0.0
 10
119.491779902766
 20
235.9479794336269
 30
0.0
 10
119.9128844295595
 20
236.1129440445101
 30
0.0
 10
120.3134390674874
 20
236.302161019099
 30
0.0
 10
120.6821356586751
 20
236.5097282172931
 30
0.0
 10
121.0247519501525
 20
236.7395999787477
 30
0.0
 10
121.3302997937917
 20
236.9839832856855
 30
0.0
 10
121.6044522594698
 20
237.2480145357888
 30
0.0
 10
121.8376959244518
 20
237.5227718800401
 30
0.0
 10
122.03457495792
 20
237.8134724319851
 30
0.0
 10
122.1876745001353
 20
238.1114580867921
 30
0.0
 10
122.3002219706451
 20
238.4201587063048
 30
0.0
 10
122.3667734810062
 20
238.7327293435413
 30
0.0
 10
122.3902487376934
 20
239.0491283866801
 30
0.0
 10
122.3667734810062
 20
239.3655274298189
 30
0.0
 10
122.3002219706451
 20
239.6780980670555
 30
0.0
 10
122.1876745001353
 20
239.9867986865681
 30
0.0
 10
122.03457495792
 20
240.284784341375
 30
0.0
 10
121.8376959244518
 20
240.5754848933202
 30
0.0
 10
121.6044522594698
 20
240.8502422375716
 30
0.0
 10
121.3302997937917
 20
241.1142734876749
 30
0.0
 10
121.0247519501525
 20
241.3586567946126
 30
0.0
 10
120.6821356586751
 20
241.5885285560672
 30
0.0
 10
120.3134390674874
 20
241.7960957542612
 30
0.0
 10
119.9128844295595
 20
241.9853127288502
 30
0.0
 10
119.491779902766
 20
242.1502773397333
 30
0.0
 10
119.0454216049896
 20
242.293461362544
 30
0.0
 10
118.584225744865
 20
242.410988589151
 30
0.0
 10
118.1055306491361
 20
242.504072395743
 30
0.0
 10
117.6178633399668
 20
242.5705751942791
 30
0.0
 10
117.1212455342627
 20
242.6109607567435
 30
0.0
 10
116.6216247186782
 20
242.6243042369439
 30
0.0
 10
116.1220039030949
 20
242.6109607567435
 30
0.0
 10
115.6253860973873
 20
242.5705751942786
 30
0.0
 10
115.1377187882301
 20
242.5040723957444
 30
0.0
 10
114.6590236924567
 20
242.4109885891461
 30
0.0
 10
114.1978278324948
 20
242.2934613625624
 30
0.0
 10
113.7514695341375
 20
242.1502773396683
 30
0.0
 10
113.3303650094475
 20
241.9853127290878
 30
0.0
 10
112.9298103641241
 20
241.7960957534336
 30
0.0
 10
112.5611137995063
 20
241.5885285590671
 30
0.0
 10
112.2184974158162
 20
241.3586567843282
 30
0.0
 10
111.912949901701
 20
241.1142735248622
 30
0.0
 10
111.6387963005345
 20
240.8502421111788
 30
0.0
 10
111.4055566915083
 20
240.5754853512345
 30
0.0
 10
111.2086636347662
 20
240.284782779076
 30
0.0
 10
111.0556145533822
 20
239.9868043937306
 30
0.0
 10
110.9428892581815
 20
239.6780781565308
 30
0.0
 10
110.8769883121945
 20
239.3656012405577
 30
0.0
 10
110.8511368030305
 20
239.048859870981
 30
0.0
 10
110.8725498607293
 20
238.8404023137366
 30
0.0
 10
110.8832563895787
 20
238.7361735351144
 30
0.0
 11
110.8832563895787
 21
238.7361735351144
 31
0.0
 11
110.9502519312814
 21
238.4221595115013
 31
0.0
 11
111.0592067634258
 21
238.1204139906314
 31
0.0
 11
111.2146316300032
 21
237.8168902392358
 31
0.0
 11
111.4048673541089
 21
237.5343293800529
 31
0.0
 11
111.6433606506642
 21
237.2521877347071
 31
0.0
 11
111.9086977797691
 21
236.9956004893268
 31
0.0
 11
112.2218591369907
 21
236.7440857655801
 31
0.0
 11
112.5548862561716
 21
236.5199649099868
 31
0.0
 11
112.9322146188899
 21
236.3067298371716
 31
0.0
 11
113.3237822880835
 21
236.1213094822207
 31
0.0
 11
113.7531156398227
 21
235.9525334207738
 31
0.0
 11
114.1922047283232
 21
235.8114018581035
 31
0.0
 11
114.660050618724
 21
235.6917793635524
 31
0.0
 11
115.1339826462228
 21
235.5994800428863
 31
0.0
 11
115.6258793529164
 21
235.5321567251131
 31
0.0
 11
116.1206989048987
 21
235.491900536706
 31
0.0
 11
116.6216247186783
 21
235.4784141724087
 31
0.0
 11
117.122550532458
 21
235.491900536706
 31
0.0
 11
117.6173700844403
 21
235.532156725113
 31
0.0
 11
118.1092667911339
 21
235.5994800428863
 31
0.0
 11
118.5831988186327
 21
235.6917793635524
 31
0.0
 11
119.0510447090335
 21
235.8114018581035
 31
0.0
 11
119.4901337975339
 21
235.9525334207738
 31
0.0
 11
119.9194671492732
 21
236.1213094822207
 31
0.0
 11
120.3110348184667
 21
236.3067298371716
 31
0.0
 11
120.6883631811849
 21
236.5199649099868
 31
0.0
 11
121.0213903003658
 21
236.7440857655801
 31
0.0
 11
121.3345516575875
 21
236.9956004893268
 31
0.0
 11
121.5998887866925
 21
237.2521877347072
 31
0.0
 11
121.8383820832478
 21
237.5343293800529
 31
0.0
 11
122.0286178073534
 21
237.8168902392358
 31
0.0
 11
122.1840426739307
 21
238.1204139906314
 31
0.0
 11
122.2929975060751
 21
238.4221595115013
 31
0.0
 11
122.3599930477779
 21
238.7361735351144
 31
0.0
 11
122.3824840295798
 21
239.0491283866801
 31
0.0
 11
122.3599930477779
 21
239.3620832382458
 31
0.0
 11
122.2929975060751
 21
239.676097261859
 31
0.0
 11
122.1840426739307
 21
239.9778427827288
 31
0.0
 11
122.0286178073534
 21
240.2813665341244
 31
0.0
 11
121.8383820832478
 21
240.5639273933074
 31
0.0
 11
121.5998887866925
 21
240.8460690386532
 31
0.0
 11
121.3345516575875
 21
241.1026562840335
 31
0.0
 11
121.0213903003658
 21
241.3541710077802
 31
0.0
 11
120.6883631811849
 21
241.5782918633735
 31
0.0
 11
120.3110348184667
 21
241.7915269361886
 31
0.0
 11
119.9194671492732
 21
241.9769472911395
 31
0.0
 11
119.490133797534
 21
242.1457233525865
 31
0.0
 11
119.0510447090335
 21
242.2868549152567
 31
0.0
 11
118.5831988186327
 21
242.4064774098078
 31
0.0
 11
118.1092667911339
 21
242.498776730474
 31
0.0
 11
117.6173700844403
 21
242.5661000482473
 31
0.0
 11
117.1225505324581
 21
242.6063562366543
 31
0.0
 11
116.6216247186784
 21
242.6198426009516
 31
0.0
 11
116.1206989048987
 21
242.6063562366543
 31
0.0
 11
115.6258793529163
 21
242.5661000482472
 31
0.0
 11
115.1339826462227
 21
242.498776730474
 31
0.0
 11
114.6600506187239
 21
242.4064774098079
 31
0.0
 11
114.1922047283231
 21
242.2868549152568
 31
0.0
 11
113.7531156398227
 21
242.1457233525865
 31
0.0
 11
113.3237822880835
 21
241.9769472911395
 31
0.0
 11
112.93221461889
 21
241.7915269361886
 31
0.0
 11
112.5548862561718
 21
241.5782918633734
 31
0.0
 11
112.221859136991
 21
241.3541710077801
 31
0.0
 11
111.9086977797693
 21
241.1026562840334
 31
0.0
 11
111.6433606506643
 21
240.8460690386531
 31
0.0
 11
111.4048673541089
 21
240.5639273933074
 31
0.0
 11
111.2146316300032
 21
240.2813665341245
 31
0.0
 11
111.059206763426
 21
239.9778427827288
 31
0.0
 11
110.9502519312817
 21
239.6760972618589
 31
0.0
 11
110.8832563895789
 21
239.3620832382458
 31
0.0
 11
110.8607654077769
 21
239.0491283866801
 31
0.0
 11
110.8832563895787
 21
238.7361735351144
 31
0.0
  0
SPLINE
  5
33D
330
4F
100
AcDbEntity
  8
1
  6
Continuous
 62
     7
100
AcDbSpline
210
0.0
220
0.0
230
1.0
 70
    11
 71
     3
 72
    79
 73
    75
 74
    73
 42
0.0000000001
 43
0.0000000001
 44
0.00000001
 40
0.0
 40
0.0
 40
0.0
 40
0.0
 40
0.3210813131182552
 40
0.6418951451340571
 40
0.982898894104444
 40
1.323531056220949
 40
1.692967059529015
 40
2.062075182676586
 40
2.46373385856731
 40
2.865152866614805
 40
3.298564783375459
 40
3.731815227792722
 40
4.19313126461904
 40
4.654344171660853
 40
5.137240970539854
 40
5.620077103492365
 40
6.116559529336437
 40
6.613013907632102
 40
7.11412123439225
 40
7.615228561152541
 40
8.1116829394484
 40
8.608165365292503
 40
9.091001498244998
 40
9.573898297123936
 40
10.03511120416567
 40
10.496427240992
 40
10.92967768540925
 40
11.3630896021699
 40
11.76450861021731
 40
12.1661672861081
 40
12.53527540925571
 40
12.90471141256374
 40
13.24534357468026
 40
13.58634732365065
 40
13.90716115566645
 40
14.22824246878471
 40
14.54200445402343
 40
14.85576643926209
 40
15.17684775238039
 40
15.49766158439615
 40
15.83866533336648
 40
16.17929749548306
 40
16.54873349879116
 40
16.91784162193876
 40
17.31950029782949
 40
17.72091930587688
 40
18.15433122263751
 40
18.58758166705477
 40
19.04889770388108
 40
19.51011061092284
 40
19.9930074098018
 40
20.47584354275436
 40
20.9723259685985
 40
21.46878034689425
 40
21.96988767365445
 40
22.47099500041469
 40
22.96744937871047
 40
23.46393180455453
 40
23.94676793750696
 40
24.42966473638594
 40
24.89087764342774
 40
25.35219368025407
 40
25.78544412467136
 40
26.21885604143201
 40
26.6202750494794
 40
27.02193372537019
 40
27.39104184851778
 40
27.7604778518258
 40
28.10111001394229
 40
28.44211376291269
 40
28.76292759492851
 40
29.08400890804677
 40
29.39777089328544
 40
29.71153287852413
 40
29.71153287852413
 40
29.71153287852413
 40
29.71153287852413
 10
136.359993047778
 20
238.7361735351144
 30
0.0
 10
136.3407131965811
 20
238.6307124496024
 30
0.0
 10
136.3021695555266
 20
238.4198781343529
 30
0.0
 10
136.1871162434504
 20
238.1115385100738
 30
0.0
 10
136.0347277771138
 20
237.8134504166267
 30
0.0
 10
135.8376511327168
 20
237.5227783328035
 30
0.0
 10
135.6044646228051
 20
237.2480127547085
 30
0.0
 10
135.3302961562347
 20
236.9839838097172
 30
0.0
 10
135.0247529561264
 20
236.7395998338257
 30
0.0
 10
134.6821353652209
 20
236.5097282595684
 30
0.0
 10
134.3134391484454
 20
236.3021610074361
 30
0.0
 10
133.912884406303
 20
236.1129440478605
 30
0.0
 10
133.4917799091505
 20
235.9479794327072
 30
0.0
 10
133.0454216031893
 20
235.8047954110756
 30
0.0
 10
132.5842257453561
 20
235.6872681841384
 30
0.0
 10
132.1055306490002
 20
235.5941843776369
 30
0.0
 10
131.6178633400035
 20
235.527681579076
 30
0.0
 10
131.1212455342526
 20
235.4872960166183
 30
0.0
 10
130.6216247186811
 20
235.4739525364159
 30
0.0
 10
130.1220039030934
 20
235.4872960166169
 30
0.0
 10
129.6253860973901
 20
235.5276815790812
 30
0.0
 10
129.1377187882204
 20
235.5941843776173
 30
0.0
 10
128.6590236924916
 20
235.6872681842092
 30
0.0
 10
128.197827832367
 20
235.8047954108162
 30
0.0
 10
127.7514695345907
 20
235.947979433627
 30
0.0
 10
127.3303650077972
 20
236.1129440445101
 30
0.0
 10
126.9298103698693
 20
236.302161019099
 30
0.0
 10
126.5611137786816
 20
236.5097282172931
 30
0.0
 10
126.2184974872041
 20
236.7395999787476
 30
0.0
 10
125.912949643565
 20
236.9839832856855
 30
0.0
 10
125.6387971778869
 20
237.2480145357888
 30
0.0
 10
125.4055535129049
 20
237.5227718800401
 30
0.0
 10
125.2086744794365
 20
237.8134724319852
 30
0.0
 10
125.0555749372213
 20
238.1114580867921
 30
0.0
 10
124.9430274667115
 20
238.4201587063047
 30
0.0
 10
124.8764759563503
 20
238.7327293435413
 30
0.0
 10
124.8530006996632
 20
239.0491283866802
 30
0.0
 10
124.8764759563504
 20
239.3655274298189
 30
0.0
 10
124.9430274667116
 20
239.6780980670555
 30
0.0
 10
125.0555749372213
 20
239.9867986865681
 30
0.0
 10
125.2086744794366
 20
240.2847843413751
 30
0.0
 10
125.4055535129049
 20
240.5754848933202
 30
0.0
 10
125.6387971778869
 20
240.8502422375715
 30
0.0
 10
125.912949643565
 20
241.1142734876748
 30
0.0
 10
126.2184974872042
 20
241.3586567946126
 30
0.0
 10
126.5611137786815
 20
241.5885285560671
 30
0.0
 10
126.9298103698692
 20
241.7960957542612
 30
0.0
 10
127.3303650077971
 20
241.9853127288501
 30
0.0
 10
127.7514695345906
 20
242.1502773397334
 30
0.0
 10
128.197827832367
 20
242.293461362544
 30
0.0
 10
128.6590236924916
 20
242.410988589151
 30
0.0
 10
129.1377187882206
 20
242.504072395743
 30
0.0
 10
129.6253860973899
 20
242.5705751942791
 30
0.0
 10
130.1220039030941
 20
242.6109607567435
 30
0.0
 10
130.6216247186785
 20
242.6243042369439
 30
0.0
 10
131.1212455342618
 20
242.6109607567436
 30
0.0
 10
131.6178633399694
 20
242.5705751942787
 30
0.0
 10
132.1055306491264
 20
242.5040723957444
 30
0.0
 10
132.5842257448999
 20
242.4109885891461
 30
0.0
 10
133.0454216048618
 20
242.2934613625624
 30
0.0
 10
133.4917799032191
 20
242.1502773396682
 30
0.0
 10
133.9128844279091
 20
241.9853127290879
 30
0.0
 10
134.3134390732325
 20
241.7960957534336
 30
0.0
 10
134.6821356378503
 20
241.5885285590671
 30
0.0
 10
135.0247520215405
 20
241.3586567843283
 30
0.0
 10
135.3302995356557
 20
241.1142735248621
 30
0.0
 10
135.6044531368223
 20
240.8502421111789
 30
0.0
 10
135.8376927458484
 20
240.5754853512345
 30
0.0
 10
136.0345858025906
 20
240.284782779076
 30
0.0
 10
136.1876348839744
 20
239.9868043937307
 30
0.0
 10
136.3003601791753
 20
239.6780781565307
 30
0.0
 10
136.3662611251621
 20
239.3656012405577
 30
0.0
 10
136.3921126343263
 20
239.0488598709809
 30
0.0
 10
136.3706995766274
 20
238.8404023137366
 30
0.0
 10
136.359993047778
 20
238.7361735351144
 30
0.0
 11
136.359993047778
 21
238.7361735351144
 31
0.0
 11
136.2929975060752
 21
238.4221595115013
 31
0.0
 11
136.1840426739308
 21
238.1204139906314
 31
0.0
 11
136.0286178073534
 21
237.8168902392358
 31
0.0
 11
135.8383820832478
 21
237.5343293800529
 31
0.0
 11
135.5998887866925
 21
237.2521877347071
 31
0.0
 11
135.3345516575875
 21
236.9956004893268
 31
0.0
 11
135.0213903003659
 21
236.7440857655801
 31
0.0
 11
134.6883631811849
 21
236.5199649099868
 31
0.0
 11
134.3110348184667
 21
236.3067298371716
 31
0.0
 11
133.9194671492732
 21
236.1213094822207
 31
0.0
 11
133.490133797534
 21
235.9525334207738
 31
0.0
 11
133.0510447090335
 21
235.8114018581035
 31
0.0
 11
132.5831988186326
 21
235.6917793635524
 31
0.0
 11
132.1092667911338
 21
235.5994800428863
 31
0.0
 11
131.6173700844402
 21
235.5321567251131
 31
0.0
 11
131.122550532458
 21
235.491900536706
 31
0.0
 11
130.6216247186784
 21
235.4784141724087
 31
0.0
 11
130.1206989048987
 21
235.491900536706
 31
0.0
 11
129.6258793529163
 21
235.532156725113
 31
0.0
 11
129.1339826462227
 21
235.5994800428863
 31
0.0
 11
128.6600506187239
 21
235.6917793635524
 31
0.0
 11
128.1922047283231
 21
235.8114018581035
 31
0.0
 11
127.7531156398227
 21
235.9525334207738
 31
0.0
 11
127.3237822880835
 21
236.1213094822207
 31
0.0
 11
126.93221461889
 21
236.3067298371716
 31
0.0
 11
126.5548862561717
 21
236.5199649099868
 31
0.0
 11
126.2218591369909
 21
236.7440857655801
 31
0.0
 11
125.9086977797692
 21
236.9956004893268
 31
0.0
 11
125.6433606506642
 21
237.2521877347072
 31
0.0
 11
125.4048673541089
 21
237.5343293800529
 31
0.0
 11
125.2146316300032
 21
237.8168902392358
 31
0.0
 11
125.0592067634258
 21
238.1204139906314
 31
0.0
 11
124.9502519312814
 21
238.4221595115013
 31
0.0
 11
124.8832563895787
 21
238.7361735351144
 31
0.0
 11
124.8607654077768
 21
239.0491283866801
 31
0.0
 11
124.8832563895788
 21
239.3620832382458
 31
0.0
 11
124.9502519312816
 21
239.676097261859
 31
0.0
 11
125.0592067634259
 21
239.9778427827288
 31
0.0
 11
125.2146316300032
 21
240.2813665341244
 31
0.0
 11
125.4048673541089
 21
240.5639273933074
 31
0.0
 11
125.6433606506642
 21
240.8460690386532
 31
0.0
 11
125.9086977797692
 21
241.1026562840335
 31
0.0
 11
126.2218591369909
 21
241.3541710077802
 31
0.0
 11
126.5548862561717
 21
241.5782918633735
 31
0.0
 11
126.93221461889
 21
241.7915269361886
 31
0.0
 11
127.3237822880835
 21
241.9769472911395
 31
0.0
 11
127.7531156398226
 21
242.1457233525865
 31
0.0
 11
128.1922047283231
 21
242.2868549152567
 31
0.0
 11
128.6600506187239
 21
242.4064774098078
 31
0.0
 11
129.1339826462227
 21
242.498776730474
 31
0.0
 11
129.6258793529164
 21
242.5661000482473
 31
0.0
 11
130.1206989048987
 21
242.6063562366543
 31
0.0
 11
130.6216247186783
 21
242.6198426009516
 31
0.0
 11
131.122550532458
 21
242.6063562366543
 31
0.0
 11
131.6173700844403
 21
242.5661000482472
 31
0.0
 11
132.1092667911339
 21
242.498776730474
 31
0.0
 11
132.5831988186326
 21
242.4064774098079
 31
0.0
 11
133.0510447090335
 21
242.2868549152568
 31
0.0
 11
133.490133797534
 21
242.1457233525865
 31
0.0
 11
133.9194671492731
 21
241.9769472911395
 31
0.0
 11
134.3110348184667
 21
241.7915269361886
 31
0.0
 11
134.6883631811849
 21
241.5782918633734
 31
0.0
 11
135.0213903003657
 21
241.3541710077801
 31
0.0
 11
135.3345516575875
 21
241.1026562840334
 31
0.0
 11
135.5998887866925
 21
240.8460690386531
 31
0.0
 11
135.8383820832478
 21
240.5639273933074
 31
0.0
 11
136.0286178073534
 21
240.2813665341245
 31
0.0
 11
136.1840426739307
 21
239.9778427827288
 31
0.0
 11
136.292997506075
 21
239.6760972618589
 31
0.0
 11
136.3599930477778
 21
239.3620832382458
 31
0.0
 11
136.3824840295798
 21
239.0491283866801
 31
0.0
 11
136.359993047778
 21
238.7361735351144
 31
0.0
  0
SPLINE
  5
33E
330
4F
100
AcDbEntity
  8
1
  6
Continuous
 62
     7
100
AcDbSpline
210
0.0
220
0.0
230
1.0
 70
    11
 71
     3
 72
    79
 73
    75
 74
    73
 42
0.0000000001
 43
0.0000000001
 44
0.00000001
 40
0.0
 40
0.0
 40
0.0
 40
0.0
 40
0.2910229153818451
 40
0.5820342278737888
 40
0.8749339334364685
 40
1.167812547519324
 40
1.463561188767275
 40
1.759282806464803
 40
2.058487811140731
 40
2.357663885605936
 40
2.660503341347687
 40
2.963315625194735
 40
3.269530826276601
 40
3.575723468843845
 40
3.884662744191423
 40
4.193586027919009
 40
4.504289085610676
 40
4.814983882015381
 40
5.126294430971204
 40
5.43760497992697
 40
5.74829977633157
 40
6.059002834023198
 40
6.367926117750827
 40
6.676865393098437
 40
6.983058035665681
 40
7.289273236747571
 40
7.592085520594619
 40
7.894924976336348
 40
8.194101050801514
 40
8.493306055477417
 40
8.789027673174976
 40
9.084776314422969
 40
9.377654928505825
 40
9.670554634068424
 40
9.961565946560436
 40
10.25258886194227
 40
10.54295309984932
 40
10.8333173377563
 40
11.1243402531382
 40
11.41535156563009
 40
11.70825127119274
 40
12.00112988527566
 40
12.29687852652362
 40
12.59260014422111
 40
12.89180514889703
 40
13.19098122336218
 40
13.49382067910389
 40
13.796632962951
 40
14.10284816403292
 40
14.40904080660021
 40
14.71798008194779
 40
15.02690336567541
 40
15.33760642336709
 40
15.64830121977173
 40
15.95961176872752
 40
16.27092231768332
 40
16.58161711408794
 40
16.89232017177958
 40
17.20124345550716
 40
17.51018273085478
 40
17.81637537342207
 40
18.12259057450396
 40
18.42540285835108
 40
18.72824231409284
 40
19.02741838855799
 40
19.32662339323385
 40
19.62234501093142
 40
19.91809365217933
 40
20.21097226626218
 40
20.50387197182489
 40
20.79488328431679
 40
21.0859061996987
 40
21.37627043760574
 40
21.66663467551272
 40
21.66663467551272
 40
21.66663467551272
 40
21.66663467551272
 10
364.4722918822046
 20
235.4920591352792
 30
0.0
 10
364.3759168234877
 20
235.5037348030806
 30
0.0
 10
364.1831705484632
 20
235.5270856731823
 30
0.0
 10
363.8992340391983
 20
235.5964416666327
 30
0.0
 10
363.6219697733396
 20
235.6898844242083
 30
0.0
 10
363.3532173894894
 20
235.8097914101855
 30
0.0
 10
363.0955720059696
 20
235.9538369153725
 30
0.0
 10
362.8503450587349
 20
236.1219035162181
 30
0.0
 10
362.6200817026779
 20
236.311738249292
 30
0.0
 10
362.4058494941617
 20
236.5228743779593
 30
0.0
 10
362.2098950653991
 20
236.7526539815933
 30
0.0
 10
362.0331377217784
 20
237.0003825138176
 30
0.0
 10
361.8773668878111
 20
237.2631147536514
 30
0.0
 10
361.7433984704421
 20
237.5398657652933
 30
0.0
 10
361.6324754391567
 20
237.8275977430568
 30
0.0
 10
361.5452986467855
 20
238.1249511894797
 30
0.0
 10
361.4825506366923
 20
238.4289971856227
 30
0.0
 10
361.4447502574803
 20
238.7379387813769
 30
0.0
 10
361.4320731839918
 20
239.0491283866795
 30
0.0
 10
361.4447502574801
 20
239.3603179919878
 30
0.0
 10
361.4825506366937
 20
239.6692595877249
 30
0.0
 10
361.5452986467807
 20
239.9733055839298
 30
0.0
 10
361.6324754391737
 20
240.2706590301235
 30
0.0
 10
361.743398470379
 20
240.5583910087385
 30
0.0
 10
361.8773668880444
 20
240.8351420172305
 30
0.0
 10
362.0331377209118
 20
241.0978742687547
 30
0.0
 10
362.2098950685932
 20
241.3456027578131
 30
0.0
 10
362.4058494822963
 20
241.5753825215338
 30
0.0
 10
362.6200817463674
 20
241.7865180596416
 30
0.0
 10
362.8503448964018
 20
241.9763549827692
 30
0.0
 10
363.0955726039969
 20
242.144413500864
 30
0.0
 10
363.3532151656766
 20
242.2884890026571
 30
0.0
 10
363.6219779835675
 20
242.4082850731366
 30
0.0
 10
363.8992034692601
 20
242.5021400699779
 30
0.0
 10
364.1832838227626
 20
242.5699669765678
 30
0.0
 10
364.4716513032756
 20
242.6106619381915
 30
0.0
 10
364.762335336955
 20
242.6244277317563
 30
0.0
 10
365.0530193706347
 20
242.6106619381916
 30
0.0
 10
365.3413868511476
 20
242.5699669765677
 30
0.0
 10
365.6254672046503
 20
242.5021400699779
 30
0.0
 10
365.9026926903426
 20
242.4082850731368
 30
0.0
 10
366.1714555082336
 20
242.2884890026569
 30
0.0
 10
366.4290980699133
 20
242.1444135008641
 30
0.0
 10
366.6743257775084
 20
241.9763549827692
 30
0.0
 10
366.9045889275427
 20
241.7865180596415
 30
0.0
 10
367.1188211916139
 20
241.5753825215338
 30
0.0
 10
367.314775605317
 20
241.345602757813
 30
0.0
 10
367.4915329529985
 20
241.0978742687549
 30
0.0
 10
367.6473037858657
 20
240.8351420172304
 30
0.0
 10
367.7812722035313
 20
240.5583910087385
 30
0.0
 10
367.8921952347367
 20
240.2706590301236
 30
0.0
 10
367.9793720271296
 20
239.9733055839299
 30
0.0
 10
368.0421200372165
 20
239.669259587725
 30
0.0
 10
368.0799204164304
 20
239.3603179919876
 30
0.0
 10
368.0925974899184
 20
239.0491283866803
 30
0.0
 10
368.0799204164303
 20
238.7379387813736
 30
0.0
 10
368.0421200372165
 20
238.4289971856348
 30
0.0
 10
367.9793720271298
 20
238.1249511894346
 30
0.0
 10
367.8921952347354
 20
237.8275977432243
 30
0.0
 10
367.7812722035358
 20
237.5398657646706
 30
0.0
 10
367.6473037858492
 20
237.2631147559525
 30
0.0
 10
367.4915329530605
 20
237.0003825052667
 30
0.0
 10
367.314775605088
 20
236.7526540131129
 30
0.0
 10
367.1188211924647
 20
236.5228742608726
 30
0.0
 10
366.9045889244096
 20
236.3117386804129
 30
0.0
 10
366.6743257891501
 20
236.1219019143445
 30
0.0
 10
366.4290980270259
 20
235.9538428165972
 30
0.0
 10
366.1714556677139
 20
235.8097694660034
 30
0.0
 10
365.9026921015481
 20
235.6899654412465
 30
0.0
 10
365.6254693969656
 20
235.5961400080412
 30
0.0
 10
365.3413787277096
 20
235.5282034433692
 30
0.0
 10
365.0530496666384
 20
235.4879168864525
 30
0.0
 10
364.7622225539725
 20
235.4726301407684
 30
0.0
 10
364.5689354394606
 20
235.4855828037756
 30
0.0
 10
364.4722918822046
 20
235.4920591352792
 30
0.0
 11
364.4722918822046
 21
235.4920591352792
 31
0.0
 11
364.1841323859297
 21
235.5327831083658
 31
0.0
 11
363.9010501795472
 21
235.6002519784311
 31
0.0
 11
363.6236261370034
 21
235.6941995070699
 31
0.0
 11
363.3560643848861
 21
235.8133153808693
 31
0.0
 11
363.0979320161708
 21
235.9576585103264
 31
0.0
 11
362.8539193635597
 21
236.1247186807422
 31
0.0
 11
362.6230398580289
 21
236.3150297123429
 31
0.0
 11
362.4098645630776
 21
236.5249406866984
 31
0.0
 11
362.2133302390694
 21
236.755344669825
 31
0.0
 11
362.0373567032698
 21
237.0017763925127
 31
0.0
 11
361.8811595627969
 21
237.2651586293505
 31
0.0
 11
361.7476638748327
 21
237.5407177621284
 31
0.0
 11
361.6365139492756
 21
237.8289696830256
 31
0.0
 11
361.5495372952493
 21
238.125396161066
 31
0.0
 11
361.4867322209278
 21
238.4296853536089
 31
0.0
 11
361.4489568592562
 21
238.7380751695295
 31
0.0
 11
361.4363016630425
 21
239.0491283866805
 31
0.0
 11
361.4489568592562
 21
239.3601816038314
 31
0.0
 11
361.4867322209278
 21
239.6685714197519
 31
0.0
 11
361.5495372952493
 21
239.9728606122948
 31
0.0
 11
361.6365139492756
 21
240.2692870903352
 31
0.0
 11
361.7476638748327
 21
240.5575390112325
 31
0.0
 11
361.8811595627969
 21
240.8330981440103
 31
0.0
 11
362.0373567032698
 21
241.0964803808482
 31
0.0
 11
362.2133302390694
 21
241.3429121035359
 31
0.0
 11
362.4098645630776
 21
241.5733160866624
 31
0.0
 11
362.6230398580289
 21
241.7832270610179
 31
0.0
 11
362.8539193635597
 21
241.9735380926186
 31
0.0
 11
363.0979320161708
 21
242.1405982630344
 31
0.0
 11
363.3560643848861
 21
242.2849413924916
 31
0.0
 11
363.6236261370034
 21
242.404057266291
 31
0.0
 11
363.9010501795472
 21
242.4980047949297
 31
0.0
 11
364.1841323859297
 21
242.5654736649951
 31
0.0
 11
364.4722918822046
 21
242.6061976380816
 31
0.0
 11
364.7623353369551
 21
242.6198426009518
 31
0.0
 11
365.0523787917056
 21
242.6061976380816
 31
0.0
 11
365.3405382879805
 21
242.5654736649951
 31
0.0
 11
365.623620494363
 21
242.4980047949298
 31
0.0
 11
365.9010445369068
 21
242.404057266291
 31
0.0
 11
366.1686062890242
 21
242.2849413924916
 31
0.0
 11
366.4267386577394
 21
242.1405982630343
 31
0.0
 11
366.6707513103505
 21
241.9735380926186
 31
0.0
 11
366.9016308158813
 21
241.7832270610178
 31
0.0
 11
367.1148061108325
 21
241.5733160866624
 31
0.0
 11
367.3113404348408
 21
241.342912103536
 31
0.0
 11
367.4873139706405
 21
241.0964803808482
 31
0.0
 11
367.6435111111134
 21
240.8330981440103
 31
0.0
 11
367.7770067990776
 21
240.5575390112325
 31
0.0
 11
367.8881567246348
 21
240.2692870903352
 31
0.0
 11
367.975133378661
 21
239.9728606122948
 31
0.0
 11
368.0379384529825
 21
239.6685714197519
 31
0.0
 11
368.0757138146541
 21
239.3601816038313
 31
0.0
 11
368.0883690108678
 21
239.0491283866804
 31
0.0
 11
368.0757138146541
 21
238.7380751695295
 31
0.0
 11
368.0379384529825
 21
238.4296853536089
 31
0.0
 11
367.975133378661
 21
238.1253961610661
 31
0.0
 11
367.8881567246347
 21
237.8289696830257
 31
0.0
 11
367.7770067990776
 21
237.5407177621284
 31
0.0
 11
367.6435111111134
 21
237.2651586293505
 31
0.0
 11
367.4873139706405
 21
237.0017763925127
 31
0.0
 11
367.3113404348408
 21
236.7553446698249
 31
0.0
 11
367.1148061108324
 21
236.5249406866984
 31
0.0
 11
366.9016308158813
 21
236.315029712343
 31
0.0
 11
366.6707513103505
 21
236.1247186807422
 31
0.0
 11
366.4267386577394
 21
235.9576585103264
 31
0.0
 11
366.1686062890242
 21
235.8133153808693
 31
0.0
 11
365.9010445369069
 21
235.6941995070699
 31
0.0
 11
365.623620494363
 21
235.6002519784311
 31
0.0
 11
365.3405382879805
 21
235.5327831083658
 31
0.0
 11
365.0523787917056
 21
235.4920591352792
 31
0.0
 11
364.7623353369551
 21
235.478414172409
 31
0.0
 11
364.4722918822046
 21
235.4920591352792
 31
0.0
  0
SPLINE
  5
33F
330
4F
100
AcDbEntity
  8
1
  6
Continuous
 62
     7
100
AcDbSpline
210
0.0
220
0.0
230
1.0
 70
    11
 71
     3
 72
    79
 73
    75
 74
    73
 42
0.0000000001
 43
0.0000000001
 44
0.00000001
 40
0.0
 40
0.0
 40
0.0
 40
0.0
 40
0.3261285623000833
 40
0.6517434317456414
 40
1.007597961146689
 40
1.362821877734644
 40
1.759927766176421
 40
2.156564335175161
 40
2.599261974949861
 40
3.041659941790314
 40
3.528366327139029
 40
4.014888773111889
 40
4.539679837310219
 40
5.064360628292675
 40
5.618299489950963
 40
6.172176031948032
 40
6.74434778784153
 40
7.316491366549581
 40
7.8948541408063
 40
8.473216915063134
 40
9.045360493771238
 40
9.617532249664627
 40
10.17140879166171
 40
10.72534765331999
 40
11.25002844430256
 40
11.77481950850093
 40
12.26134195447375
 40
12.74804833982242
 40
13.19044630666287
 40
13.63314394643752
 40
14.02978051543629
 40
14.42688640387806
 40
14.78211032046603
 40
15.1379648498671
 40
15.46357971931269
 40
15.78970828161279
 40
16.1046341486243
 40
16.41956001563575
 40
16.74568857793583
 40
17.07130344738145
 40
17.42715797678257
 40
17.78238189337047
 40
18.1794877818123
 40
18.57612435081107
 40
19.0188219905857
 40
19.46121995742616
 40
19.94792634277481
 40
20.43444878874761
 40
20.95923985294598
 40
21.48392064392855
 40
22.03785950558678
 40
22.59173604758391
 40
23.16390780347724
 40
23.73605138218529
 40
24.31441415644207
 40
24.8927769306989
 40
25.46492050940695
 40
26.03709226530039
 40
26.59096880729741
 40
27.14490766895576
 40
27.66958845993827
 40
28.19437952413664
 40
28.68090197010945
 40
29.1676083554582
 40
29.61000632229872
 40
30.05270396207334
 40
30.44934053107206
 40
30.84644641951384
 40
31.2016703361018
 40
31.55752486550287
 40
31.88313973494845
 40
32.20926829724859
 40
32.52419416426006
 40
32.8391200312715
 40
32.8391200312715
 40
32.8391200312715
 40
32.8391200312715
 10
359.2637589243668
 20
238.7353016237671
 30
0.0
 10
359.2412017280752
 20
238.6287085955325
 30
0.0
 10
359.1961228658685
 20
238.415690436277
 30
0.0
 10
359.061595502101
 20
238.1058619239292
 30
0.0
 10
358.8848515942167
 20
237.8080679933824
 30
0.0
 10
358.6559704626221
 20
237.5169122916981
 30
0.0
 10
358.3867525115644
 20
237.243510558225
 30
0.0
 10
358.0694825199022
 20
236.9795419653948
 30
0.0
 10
357.7174299006236
 20
236.7365273009353
 30
0.0
 10
357.3215565674813
 20
236.5068653116032
 30
0.0
 10
356.8968479144111
 20
236.3003072130248
 30
0.0
 10
356.4343305296766
 20
236.1112980867019
 30
0.0
 10
355.94908980799
 20
235.9469786551516
 30
0.0
 10
355.4338482805032
 20
235.8039583332193
 30
0.0
 10
354.9021828361812
 20
235.6868019003769
 30
0.0
 10
354.3497337241026
 20
235.5938248764716
 30
0.0
 10
353.7873427376986
 20
235.527503561433
 30
0.0
 10
353.2143260011223
 20
235.4871559456788
 30
0.0
 10
352.6379796839767
 20
235.4738651585857
 30
0.0
 10
352.0616333668086
 20
235.4871559456766
 30
0.0
 10
351.4886166302989
 20
235.5275035614415
 30
0.0
 10
350.9262256436539
 20
235.5938248764396
 30
0.0
 10
350.3737765324452
 20
235.6868019004917
 30
0.0
 10
349.8421110849573
 20
235.8039583328003
 30
0.0
 10
349.326869568689
 20
235.946978656624
 30
0.0
 10
348.8416288066159
 20
236.1112980813651
 30
0.0
 10
348.3791115621481
 20
236.3003072313367
 30
0.0
 10
347.9544024095487
 20
236.5068652456966
 30
0.0
 10
347.5585307797846
 20
236.7365275222105
 30
0.0
 10
347.2064721465933
 20
236.9795411727518
 30
0.0
 10
346.8892223937181
 20
237.2435131777485
 30
0.0
 10
346.6199332246057
 20
237.5169029041851
 30
0.0
 10
346.3912915107825
 20
237.8080989706042
 30
0.0
 10
346.2136989748366
 20
238.1057498263641
 30
0.0
 10
346.0820863058249
 20
238.4160697428384
 30
0.0
 10
346.004661480154
 20
238.7302384236383
 30
0.0
 10
345.9767015887263
 20
239.0491283866804
 30
0.0
 10
346.004661480154
 20
239.3680183497224
 30
0.0
 10
346.0820863058247
 20
239.6821870305223
 30
0.0
 10
346.2136989748369
 20
239.9925069469967
 30
0.0
 10
346.3912915107825
 20
240.2901578027566
 30
0.0
 10
346.6199332246058
 20
240.5813538691758
 30
0.0
 10
346.8892223937182
 20
240.8547435956122
 30
0.0
 10
347.2064721465933
 20
241.1187156006091
 30
0.0
 10
347.5585307797845
 20
241.3617292511503
 30
0.0
 10
347.9544024095486
 20
241.5913915276643
 30
0.0
 10
348.3791115621481
 20
241.7979495420242
 30
0.0
 10
348.8416288066161
 20
241.9869586919956
 30
0.0
 10
349.326869568689
 20
242.1512781167368
 30
0.0
 10
349.8421110849573
 20
242.2942984405605
 30
0.0
 10
350.3737765324452
 20
242.4114548728692
 30
0.0
 10
350.9262256436541
 20
242.504431896921
 30
0.0
 10
351.4886166302986
 20
242.5707532119192
 30
0.0
 10
352.0616333668094
 20
242.6111008276843
 30
0.0
 10
352.6379796839731
 20
242.6243916147744
 30
0.0
 10
353.2143260011351
 20
242.6111008276845
 30
0.0
 10
353.7873427376508
 20
242.5707532119186
 30
0.0
 10
354.3497337242781
 20
242.5044318969233
 30
0.0
 10
354.9021828355487
 20
242.4114548728612
 30
0.0
 10
355.433848282813
 20
242.29429844059
 30
0.0
 10
355.9490897998729
 20
242.151278116633
 30
0.0
 10
356.4343305590969
 20
241.986958692372
 30
0.0
 10
356.8968478134588
 20
241.7979495407326
 30
0.0
 10
357.3215569308235
 20
241.5913915323131
 30
0.0
 10
357.7174286807372
 20
241.3617292355424
 30
0.0
 10
358.0694868897307
 20
241.1187156565189
 30
0.0
 10
358.3867380701702
 20
240.8547434108413
 30
0.0
 10
358.6560222158411
 20
240.581354531334
 30
0.0
 10
358.8846808172527
 20
240.290155617745
 30
0.0
 10
359.0622134943109
 20
239.9925148539183
 30
0.0
 10
359.1940317544336
 20
239.6821602757285
 30
0.0
 10
359.2707114639266
 20
239.3681172180883
 30
0.0
 10
359.3013631523486
 20
239.0487734304566
 30
0.0
 10
359.2762936670274
 20
238.8397922259969
 30
0.0
 10
359.2637589243668
 20
238.7353016237671
 30
0.0
 11
359.2637589243668
 21
238.7353016237671
 31
0.0
 11
359.1855864723554
 21
238.4186805459873
 31
0.0
 11
359.0598801766692
 21
238.1183091584869
 31
0.0
 11
358.8783243074236
 21
237.8122537510233
 31
0.0
 11
358.659961911641
 21
237.5320718547057
 31
0.0
 11
358.3822148976071
 21
237.2482590945444
 31
0.0
 11
358.0779148503599
 21
236.993853809394
 31
0.0
 11
357.7142676617684
 21
236.7413821822918
 31
0.0
 11
357.3319341599719
 21
236.5188129695319
 31
0.0
 11
356.8946659232918
 21
236.30508511751
 31
0.0
 11
356.4444700785347
 21
236.1206188826624
 31
0.0
 11
355.9476305773321
 21
235.9516331699315
 31
0.0
 11
355.4421435915434
 21
235.8110172404489
 31
0.0
 11
354.9012859117511
 21
235.6913458877157
 31
0.0
 11
354.3551153837243
 21
235.5992753816373
 31
0.0
 11
353.7869154575972
 21
235.5319748452995
 31
0.0
 11
353.2161856508652
 21
235.4917782986248
 31
0.0
 11
352.637979683973
 21
235.478311357765
 31
0.0
 11
352.0597737170806
 21
235.4917782986248
 31
0.0
 11
351.4890439103486
 21
235.5319748452994
 31
0.0
 11
350.9208439842216
 21
235.5992753816373
 31
0.0
 11
350.3746734561947
 21
235.6913458877157
 31
0.0
 11
349.8338157764025
 21
235.8110172404489
 31
0.0
 11
349.3283287906137
 21
235.9516331699316
 31
0.0
 11
348.831489289411
 21
236.1206188826624
 31
0.0
 11
348.381293444654
 21
236.3050851175101
 31
0.0
 11
347.9440252079739
 21
236.518812969532
 31
0.0
 11
347.5616917061774
 21
236.7413821822918
 31
0.0
 11
347.1980445175859
 21
236.9938538093939
 31
0.0
 11
346.8937444703387
 21
237.2482590945443
 31
0.0
 11
346.6159974563048
 21
237.5320718547056
 31
0.0
 11
346.3976350605221
 21
237.8122537510232
 31
0.0
 11
346.2160791912766
 21
238.1183091584869
 31
0.0
 11
346.0903728955904
 21
238.4186805459873
 31
0.0
 11
346.012200443579
 21
238.7353016237671
 31
0.0
 11
345.9859123361478
 21
239.0491283866804
 31
0.0
 11
346.012200443579
 21
239.3629551495937
 31
0.0
 11
346.0903728955904
 21
239.6795762273735
 31
0.0
 11
346.2160791912766
 21
239.9799476148739
 31
0.0
 11
346.3976350605221
 21
240.2860030223376
 31
0.0
 11
346.6159974563047
 21
240.5661849186552
 31
0.0
 11
346.8937444703387
 21
240.8499976788165
 31
0.0
 11
347.198044517586
 21
241.1044029639669
 31
0.0
 11
347.5616917061774
 21
241.356874591069
 31
0.0
 11
347.9440252079739
 21
241.5794438038289
 31
0.0
 11
348.381293444654
 21
241.7931716558508
 31
0.0
 11
348.831489289411
 21
241.9776378906984
 31
0.0
 11
349.3283287906137
 21
242.1466236034292
 31
0.0
 11
349.8338157764025
 21
242.2872395329119
 31
0.0
 11
350.3746734561947
 21
242.4069108856451
 31
0.0
 11
350.9208439842216
 21
242.4989813917235
 31
0.0
 11
351.4890439103485
 21
242.5662819280614
 31
0.0
 11
352.0597737170805
 21
242.606478474736
 31
0.0
 11
352.6379796839728
 21
242.6199454155958
 31
0.0
 11
353.2161856508652
 21
242.606478474736
 31
0.0
 11
353.7869154575971
 21
242.5662819280614
 31
0.0
 11
354.3551153837242
 21
242.4989813917235
 31
0.0
 11
354.901285911751
 21
242.4069108856451
 31
0.0
 11
355.4421435915433
 21
242.2872395329119
 31
0.0
 11
355.947630577332
 21
242.1466236034292
 31
0.0
 11
356.4444700785347
 21
241.9776378906984
 31
0.0
 11
356.8946659232917
 21
241.7931716558508
 31
0.0
 11
357.3319341599719
 21
241.5794438038289
 31
0.0
 11
357.7142676617685
 21
241.356874591069
 31
0.0
 11
358.0779148503599
 21
241.1044029639669
 31
0.0
 11
358.3822148976071
 21
240.8499976788165
 31
0.0
 11
358.659961911641
 21
240.5661849186552
 31
0.0
 11
358.8783243074236
 21
240.2860030223376
 31
0.0
 11
359.0598801766692
 21
239.9799476148739
 31
0.0
 11
359.1855864723554
 21
239.6795762273735
 31
0.0
 11
359.2637589243668
 21
239.3629551495936
 31
0.0
 11
359.2900470317978
 21
239.0491283866804
 31
0.0
 11
359.2637589243668
 21
238.7353016237671
 31
0.0
  0
SPLINE
  5
340
330
4F
100
AcDbEntity
  8
1
  6
Continuous
 62
     7
100
AcDbSpline
210
0.0
220
0.0
230
1.0
 70
    11
 71
     3
 72
    79
 73
    75
 74
    73
 42
0.0000000001
 43
0.0000000001
 44
0.00000001
 40
0.0
 40
0.0
 40
0.0
 40
0.0
 40
0.2910229153819013
 40
0.5820342278737898
 40
0.8749339334365052
 40
1.167812547519361
 40
1.463561188767353
 40
1.759282806464865
 40
2.058487811140785
 40
2.35766388560593
 40
2.660503341347638
 40
2.963315625194663
 40
3.269530826276549
 40
3.575723468843819
 40
3.884662744191417
 40
4.193586027919074
 40
4.504289085610741
 40
4.814983882015397
 40
5.126294430971213
 40
5.437604979926975
 40
5.74829977633163
 40
6.059002834023258
 40
6.367926117750931
 40
6.676865393098535
 40
6.983058035665779
 40
7.289273236747621
 40
7.592085520594702
 40
7.894924976336431
 40
8.194101050801535
 40
8.493306055477463
 40
8.789027673175038
 40
9.084776314422953
 40
9.377654928505809
 40
9.670554634068479
 40
9.961565946560436
 40
10.25258886194239
 40
10.54295309984932
 40
10.8333173377563
 40
11.12434025313809
 40
11.41535156563004
 40
11.70825127119267
 40
12.00112988527551
 40
12.29687852652349
 40
12.59260014422099
 40
12.89180514889691
 40
13.19098122336208
 40
13.49382067910381
 40
13.79663296295087
 40
14.10284816403271
 40
14.40904080659998
 40
14.71798008194758
 40
15.02690336567523
 40
15.33760642336689
 40
15.64830121977154
 40
15.95961176872733
 40
16.27092231768318
 40
16.58161711408789
 40
16.89232017177947
 40
17.20124345550707
 40
17.51018273085469
 40
17.81637537342199
 40
18.12259057450387
 40
18.42540285835093
 40
18.72824231409258
 40
19.02741838855777
 40
19.32662339323365
 40
19.62234501093123
 40
19.91809365217911
 40
20.21097226626203
 40
20.50387197182469
 40
20.79488328431658
 40
21.08590619969842
 40
21.3762704376054
 40
21.66663467551244
 40
21.66663467551244
 40
21.66663467551244
 40
21.66663467551244
 10
340.8036674857412
 20
242.6061976380816
 30
0.0
 10
340.9000425444582
 20
242.5945219702802
 30
0.0
 10
341.0927888194826
 20
242.5711711001786
 30
0.0
 10
341.3767253287477
 20
242.5018151067282
 30
0.0
 10
341.6539895946063
 20
242.4083723491526
 30
0.0
 10
341.9227419784565
 20
242.2884653631754
 30
0.0
 10
342.1803873619762
 20
242.1444198579883
 30
0.0
 10
342.4256143092109
 20
241.9763532571427
 30
0.0
 10
342.6558776652681
 20
241.7865185240688
 30
0.0
 10
342.870109873784
 20
241.5753823954015
 30
0.0
 10
343.066064302547
 20
241.3456027917677
 30
0.0
 10
343.2428216461674
 20
241.0978742595433
 30
0.0
 10
343.3985924801347
 20
240.8351420197095
 30
0.0
 10
343.5325608975036
 20
240.5583910080675
 30
0.0
 10
343.6434839287892
 20
240.2706590303041
 30
0.0
 10
343.7306607211605
 20
239.9733055838811
 30
0.0
 10
343.7934087312535
 20
239.6692595877382
 30
0.0
 10
343.8312091104656
 20
239.360317991984
 30
0.0
 10
343.8438861839539
 20
239.0491283866813
 30
0.0
 10
343.831209110466
 20
238.7379387813731
 30
0.0
 10
343.7934087312522
 20
238.4289971856358
 30
0.0
 10
343.7306607211651
 20
238.124951189431
 30
0.0
 10
343.6434839287721
 20
237.8275977432372
 30
0.0
 10
343.5325608975668
 20
237.5398657646224
 30
0.0
 10
343.3985924799014
 20
237.2631147561303
 30
0.0
 10
343.242821647034
 20
237.0003825046062
 30
0.0
 10
343.0660642993527
 20
236.7526540155479
 30
0.0
 10
342.8701098856495
 20
236.5228742518272
 30
0.0
 10
342.6558776215785
 20
236.3117387137191
 30
0.0
 10
342.4256144715441
 20
236.1219017905918
 30
0.0
 10
342.1803867639488
 20
235.9538432724967
 30
0.0
 10
341.9227442022694
 20
235.809767770704
 30
0.0
 10
341.6539813843782
 20
235.6899717002242
 30
0.0
 10
341.3767558986858
 20
235.5961167033829
 30
0.0
 10
341.0926755451833
 20
235.5282897967931
 30
0.0
 10
340.8043080646702
 20
235.4875948351693
 30
0.0
 10
340.5136240309906
 20
235.4738290416044
 30
0.0
 10
340.2229399973113
 20
235.4875948351693
 30
0.0
 10
339.9345725167982
 20
235.5282897967931
 30
0.0
 10
339.6504921632958
 20
235.596116703383
 30
0.0
 10
339.3732666776034
 20
235.6899717002242
 30
0.0
 10
339.1045038597122
 20
235.809767770704
 30
0.0
 10
338.8468612980328
 20
235.9538432724967
 30
0.0
 10
338.6016335904376
 20
236.1219017905917
 30
0.0
 10
338.3713704404031
 20
236.3117387137191
 30
0.0
 10
338.1571381763321
 20
236.5228742518271
 30
0.0
 10
337.9611837626289
 20
236.7526540155478
 30
0.0
 10
337.7844264149476
 20
237.0003825046061
 30
0.0
 10
337.6286555820802
 20
237.2631147561303
 30
0.0
 10
337.4946871644148
 20
237.5398657646223
 30
0.0
 10
337.3837641332096
 20
237.8275977432372
 30
0.0
 10
337.2965873408164
 20
238.124951189431
 30
0.0
 10
337.2338393307294
 20
238.4289971856358
 30
0.0
 10
337.1960389515157
 20
238.7379387813733
 30
0.0
 10
337.1833618780277
 20
239.0491283866805
 30
0.0
 10
337.1960389515155
 20
239.3603179919872
 30
0.0
 10
337.2338393307297
 20
239.6692595877261
 30
0.0
 10
337.2965873408161
 20
239.9733055839264
 30
0.0
 10
337.3837641332107
 20
240.2706590301366
 30
0.0
 10
337.4946871644103
 20
240.5583910086903
 30
0.0
 10
337.628655582097
 20
240.8351420174083
 30
0.0
 10
337.7844264148854
 20
241.0978742680941
 30
0.0
 10
337.961183762858
 20
241.345602760248
 30
0.0
 10
338.1571381754811
 20
241.5753825124882
 30
0.0
 10
338.3713704435362
 20
241.7865180929478
 30
0.0
 10
338.601633578796
 20
241.9763548590163
 30
0.0
 10
338.8468613409201
 20
242.1444139567636
 30
0.0
 10
339.1045037002319
 20
242.2884873073575
 30
0.0
 10
339.3732672663979
 20
242.4082913321144
 30
0.0
 10
339.6504899709803
 20
242.5021167653197
 30
0.0
 10
339.9345806402362
 20
242.5700533299916
 30
0.0
 10
340.2229097013076
 20
242.6103398869083
 30
0.0
 10
340.5137368139733
 20
242.6256266325924
 30
0.0
 10
340.7070239284853
 20
242.6126739695853
 30
0.0
 10
340.8036674857412
 20
242.6061976380816
 30
0.0
 11
340.8036674857412
 21
242.6061976380816
 31
0.0
 11
341.0918269820162
 21
242.5654736649951
 31
0.0
 11
341.3749091883987
 21
242.4980047949298
 31
0.0
 11
341.6523332309425
 21
242.404057266291
 31
0.0
 11
341.9198949830599
 21
242.2849413924916
 31
0.0
 11
342.1780273517751
 21
242.1405982630344
 31
0.0
 11
342.4220400043862
 21
241.9735380926186
 31
0.0
 11
342.652919509917
 21
241.7832270610178
 31
0.0
 11
342.8660948048682
 21
241.5733160866624
 31
0.0
 11
343.0626291288765
 21
241.342912103536
 31
0.0
 11
343.2386026646761
 21
241.0964803808482
 31
0.0
 11
343.3947998051489
 21
240.8330981440103
 31
0.0
 11
343.5282954931131
 21
240.5575390112325
 31
0.0
 11
343.6394454186703
 21
240.2692870903352
 31
0.0
 11
343.7264220726966
 21
239.9728606122948
 31
0.0
 11
343.7892271470182
 21
239.6685714197519
 31
0.0
 11
343.8270025086898
 21
239.3601816038313
 31
0.0
 11
343.8396577049033
 21
239.0491283866804
 31
0.0
 11
343.8270025086897
 21
238.7380751695295
 31
0.0
 11
343.7892271470181
 21
238.4296853536089
 31
0.0
 11
343.7264220726966
 21
238.125396161066
 31
0.0
 11
343.6394454186702
 21
237.8289696830256
 31
0.0
 11
343.5282954931131
 21
237.5407177621283
 31
0.0
 11
343.3947998051489
 21
237.2651586293505
 31
0.0
 11
343.238602664676
 21
237.0017763925127
 31
0.0
 11
343.0626291288764
 21
236.7553446698249
 31
0.0
 11
342.8660948048681
 21
236.5249406866984
 31
0.0
 11
342.652919509917
 21
236.315029712343
 31
0.0
 11
342.4220400043861
 21
236.1247186807422
 31
0.0
 11
342.178027351775
 21
235.9576585103265
 31
0.0
 11
341.9198949830598
 21
235.8133153808693
 31
0.0
 11
341.6523332309425
 21
235.6941995070699
 31
0.0
 11
341.3749091883987
 21
235.6002519784311
 31
0.0
 11
341.0918269820161
 21
235.5327831083657
 31
0.0
 11
340.8036674857411
 21
235.4920591352792
 31
0.0
 11
340.5136240309907
 21
235.478414172409
 31
0.0
 11
340.2235805762403
 21
235.4920591352792
 31
0.0
 11
339.9354210799655
 21
235.5327831083658
 31
0.0
 11
339.652338873583
 21
235.6002519784311
 31
0.0
 11
339.3749148310392
 21
235.6941995070699
 31
0.0
 11
339.1073530789219
 21
235.8133153808693
 31
0.0
 11
338.8492207102066
 21
235.9576585103265
 31
0.0
 11
338.6052080575955
 21
236.1247186807422
 31
0.0
 11
338.3743285520646
 21
236.3150297123429
 31
0.0
 11
338.1611532571135
 21
236.5249406866984
 31
0.0
 11
337.9646189331052
 21
236.7553446698249
 31
0.0
 11
337.7886453973056
 21
237.0017763925127
 31
0.0
 11
337.6324482568327
 21
237.2651586293505
 31
0.0
 11
337.4989525688685
 21
237.5407177621283
 31
0.0
 11
337.3878026433114
 21
237.8289696830256
 31
0.0
 11
337.300825989285
 21
238.125396161066
 31
0.0
 11
337.2380209149634
 21
238.4296853536089
 31
0.0
 11
337.2002455532919
 21
238.7380751695295
 31
0.0
 11
337.1875903570783
 21
239.0491283866804
 31
0.0
 11
337.2002455532919
 21
239.3601816038314
 31
0.0
 11
337.2380209149635
 21
239.668571419752
 31
0.0
 11
337.300825989285
 21
239.9728606122948
 31
0.0
 11
337.3878026433113
 21
240.2692870903352
 31
0.0
 11
337.4989525688685
 21
240.5575390112325
 31
0.0
 11
337.6324482568327
 21
240.8330981440103
 31
0.0
 11
337.7886453973056
 21
241.0964803808482
 31
0.0
 11
337.9646189331052
 21
241.342912103536
 31
0.0
 11
338.1611532571134
 21
241.5733160866624
 31
0.0
 11
338.3743285520646
 21
241.7832270610179
 31
0.0
 11
338.6052080575955
 21
241.9735380926186
 31
0.0
 11
338.8492207102066
 21
242.1405982630344
 31
0.0
 11
339.1073530789217
 21
242.2849413924915
 31
0.0
 11
339.3749148310391
 21
242.404057266291
 31
0.0
 11
339.652338873583
 21
242.4980047949298
 31
0.0
 11
339.9354210799654
 21
242.5654736649951
 31
0.0
 11
340.2235805762403
 21
242.6061976380816
 31
0.0
 11
340.5136240309907
 21
242.6198426009518
 31
0.0
 11
340.8036674857412
 21
242.6061976380816
 31
0.0
  0
ARC
  5
341
330
4F
100
AcDbEntity
  8
1
  6
Continuous
 62
     7
100
AcDbCircle
 10
341.1379796839731
 20
233.191591422122
 30
0.0
 40
0.9999999999999836
100
AcDbArc
 50
30.00000000000054
 51
90.0
  0
ARC
  5
342
330
4F
100
AcDbEntity
  8
1
  6
Continuous
 62
     7
100
AcDbCircle
 10
342.8700304915419
 20
234.1915914221217
 30
0.0
 40
0.9999999999998273
100
AcDbArc
 50
-150.000000000015
 51
-90.0
  0
ARC
  5
343
330
4F
100
AcDbEntity
  8
1
  6
Continuous
 62
     7
100
AcDbCircle
 10
341.0799586222424
 20
235.1915914221217
 30
0.0
 40
0.9999999999996028
100
AcDbArc
 50
-105.3375576695617
 51
-90.0
  0
ARC
  5
344
330
4F
100
AcDbEntity
  8
1
  6
Continuous
 62
     7
100
AcDbCircle
 10
364.137979683973
 20
233.191591422122
 30
0.0
 40
0.9999999999996874
100
AcDbArc
 50
90.0
 51
150.0000000000027
  0
ARC
  5
345
330
4F
100
AcDbEntity
  8
1
  6
Continuous
 62
     7
100
AcDbCircle
 10
362.4059288764041
 20
234.1915914221217
 30
0.0
 40
0.9999999999996874
100
AcDbArc
 50
-90.0
 51
-29.99999999998666
  0
ARC
  5
346
330
4F
100
AcDbEntity
  8
1
  6
Continuous
 62
     7
100
AcDbCircle
 10
364.1960007457036
 20
235.1915914221217
 30
0.0
 40
0.9999999999996874
100
AcDbArc
 50
-90.0
 51
-74.66244233044149
  0
ARC
  5
347
330
4F
100
AcDbEntity
  8
1
  6
Continuous
 62
     7
100
AcDbCircle
 10
112.1216247186783
 20
233.1915914221217
 30
0.0
 40
0.9999999999999589
100
AcDbArc
 50
30.00000000000136
 51
90.0
  0
ARC
  5
348
330
4F
100
AcDbEntity
  8
1
  6
Continuous
 62
     7
100
AcDbCircle
 10
113.853675526247
 20
234.1915914221217
 30
0.0
 40
0.9999999999998851
100
AcDbArc
 50
-149.9999999999962
 51
-90.0
  0
ARC
  5
349
330
4F
100
AcDbEntity
  8
1
  6
Continuous
 62
     7
100
AcDbCircle
 10
112.0636036569477
 20
235.1915914221217
 30
0.0
 40
0.9999999999999715
100
AcDbArc
 50
-105.3375576695525
 51
-90.0
  0
ARC
  5
34A
330
4F
100
AcDbEntity
  8
1
  6
Continuous
 62
     7
100
AcDbCircle
 10
135.1216247186783
 20
233.1915914221217
 30
0.0
 40
1.0
100
AcDbArc
 50
90.0
 51
149.9999999999987
  0
ARC
  5
34B
330
4F
100
AcDbEntity
  8
1
  6
Continuous
 62
     7
100
AcDbCircle
 10
133.3895739111096
 20
234.1915914221217
 30
0.0
 40
1.0
100
AcDbArc
 50
-90.0
 51
-30.0000000000038
  0
ARC
  5
34C
330
4F
100
AcDbEntity
  8
1
  6
Continuous
 62
     7
100
AcDbCircle
 10
135.179645780409
 20
235.1915914221217
 30
0.0
 40
1.0
100
AcDbArc
 50
-90.0
 51
-74.66244233044752
  0
ENDBLK
  5
51
330
4F
100
AcDbEntity
  8
0
100
AcDbBlockEnd
  0
BLOCK
  5
53
330
52
100
AcDbEntity
  8
0
100
AcDbBlockBegin
  2
60-1-16-170
 70
     0
 71
     0
 10
214.4717456785592
 20
137.3254935921279
 30
0.0
  3
60-1-16-170
  1

  0
LINE
  5
34D
330
52
100
AcDbEntity
  8
1
  6
Continuous
 62
     7
100
AcDbLine
 10
115.6216247186784
 20
172.691591422122
 30
0.0
 11
115.6216247186784
 21
233.191591422122
 31
0.0
  0
LINE
  5
34E
330
52
100
AcDbEntity
  8
1
  6
Continuous
 62
     7
100
AcDbLine
 10
131.6216247186783
 20
172.691591422122
 30
0.0
 11
131.6216247186783
 21
233.191591422122
 31
0.0
  0
LINE
  5
34F
330
52
100
AcDbEntity
  8
1
  6
Continuous
 62
     7
100
AcDbLine
 10
116.2352177126923
 20
167.691591422122
 30
0.0
 11
131.0080317246643
 21
167.691591422122
 31
0.0
  0
LINE
  5
350
330
52
100
AcDbEntity
  8
1
  6
Continuous
 62
     7
100
AcDbLine
 10
131.6216247186783
 20
172.691591422122
 30
0.0
 11
115.6216247186784
 21
172.691591422122
 31
0.0
  0
LINE
  5
351
330
52
100
AcDbEntity
  8
1
  6
PHANTOM
 62
     4
100
AcDbLine
 10
134.9958469125404
 20
381.6623792750922
 30
0.0
 11
112.6436735064574
 21
381.6623792750922
 31
0.0
  0
LINE
  5
352
330
52
100
AcDbEntity
  8
1
  6
Continuous
 62
     7
100
AcDbLine
 10
115.6216247186784
 20
540.1171732957104
 30
0.0
 11
115.6216247186784
 21
381.6623792750922
 31
0.0
  0
LINE
  5
353
330
52
100
AcDbEntity
  8
1
  6
Continuous
 62
     7
100
AcDbLine
 10
131.6216247186783
 20
540.1171732957104
 30
0.0
 11
131.6216247186783
 21
381.6623792750922
 31
0.0
  0
LINE
  5
354
330
52
100
AcDbEntity
  8
1
  6
Continuous
 62
     7
100
AcDbLine
 10
175.2497732735762
 20
167.691591422122
 30
0.0
 11
190.0225872855484
 21
167.691591422122
 31
0.0
  0
LINE
  5
355
330
52
100
AcDbEntity
  8
1
  6
Continuous
 62
     7
100
AcDbLine
 10
190.6361802795624
 20
172.691591422122
 30
0.0
 11
174.6361802795624
 21
172.691591422122
 31
0.0
  0
LINE
  5
356
330
52
100
AcDbEntity
  8
1
  6
Continuous
 62
     7
100
AcDbLine
 10
325.6379796839731
 20
208.691591422122
 30
0.0
 11
209.6361802795624
 21
208.691591422122
 31
0.0
  0
LINE
  5
357
330
52
100
AcDbEntity
  8
1
  6
Continuous
 62
     7
100
AcDbLine
 10
344.637979683973
 20
227.691591422122
 30
0.0
 11
344.637979683973
 21
233.191591422122
 31
0.0
  0
LINE
  5
358
330
52
100
AcDbEntity
  8
1
  6
Continuous
 62
     7
100
AcDbLine
 10
360.637979683973
 20
233.191591422122
 30
0.0
 11
360.637979683973
 21
227.691591422122
 31
0.0
  0
LINE
  5
359
330
52
100
AcDbEntity
  8
1
  6
Continuous
 62
     7
100
AcDbLine
 10
174.6361802795624
 20
172.691591422122
 30
0.0
 11
174.6361802795624
 21
173.6915914221217
 31
0.0
  0
LINE
  5
35A
330
52
100
AcDbEntity
  8
1
  6
Continuous
 62
     7
100
AcDbLine
 10
190.6361802795624
 20
172.691591422122
 30
0.0
 11
190.6361802795624
 21
173.6915914221217
 31
0.0
  0
LINE
  5
35B
330
52
100
AcDbEntity
  8
1
  6
Continuous
 62
     7
100
AcDbLine
 10
325.6379796839731
 20
192.691591422122
 30
0.0
 11
209.6361802795624
 21
192.691591422122
 31
0.0
  0
ARC
  5
35C
330
52
100
AcDbEntity
  8
1
  6
Continuous
 62
     7
100
AcDbCircle
 10
123.6216247186783
 20
200.691591422122
 30
0.0
 40
8.0
100
AcDbArc
 50
0.0
 51
180.0
  0
ARC
  5
35D
330
52
100
AcDbEntity
  8
1
  6
Continuous
 62
     7
100
AcDbCircle
 10
128.41159842396
 20
170.5478717148997
 30
0.0
 40
3.860026294718296
100
AcDbArc
 50
-47.72834450358189
 51
0.0
  0
ARC
  5
35E
330
52
100
AcDbEntity
  8
1
  6
Continuous
 62
     7
100
AcDbCircle
 10
118.8316510133965
 20
170.5478717148997
 30
0.0
 40
3.860026294718052
100
AcDbArc
 50
146.2642089999709
 51
180.0
  0
ARC
  5
35F
330
52
100
AcDbEntity
  8
1
  6
Continuous
 62
     7
100
AcDbCircle
 10
118.8316510133965
 20
170.5478717148997
 30
0.0
 40
3.860026294718296
100
AcDbArc
 50
180.0
 51
-132.2716554964167
  0
ARC
  5
360
330
52
100
AcDbEntity
  8
1
  6
Continuous
 62
     7
100
AcDbCircle
 10
128.41159842396
 20
170.5478717148997
 30
0.0
 40
3.860026294718324
100
AcDbArc
 50
0.0
 51
33.73579100002727
  0
ARC
  5
361
330
52
100
AcDbEntity
  8
1
  6
Continuous
 62
     7
100
AcDbCircle
 10
123.6216247186783
 20
381.6623792750922
 30
0.0
 40
8.65
100
AcDbArc
 50
157.6465744006671
 51
-90.0
  0
ARC
  5
362
330
52
100
AcDbEntity
  8
1
  6
Continuous
 62
     7
100
AcDbCircle
 10
123.6216247186783
 20
381.6623792750922
 30
0.0
 40
8.650000000000091
100
AcDbArc
 50
-90.0
 51
22.35342559933271
  0
ARC
  5
363
330
52
100
AcDbEntity
  8
1
  6
Continuous
 62
     7
100
AcDbCircle
 10
123.6216247186783
 20
381.6623792750922
 30
0.0
 40
7.999999999999901
100
AcDbArc
 50
180.0
 51
0.0
  0
ARC
  5
364
330
52
100
AcDbEntity
  8
1
  6
Continuous
 62
     7
100
AcDbCircle
 10
325.6379796839731
 20
227.691591422122
 30
0.0
 40
35.0
100
AcDbArc
 50
-90.0
 51
0.0
  0
ARC
  5
365
330
52
100
AcDbEntity
  8
1
  6
Continuous
 62
     7
100
AcDbCircle
 10
325.6379796839731
 20
227.691591422122
 30
0.0
 40
19.0
100
AcDbArc
 50
-90.0
 51
0.0
  0
ARC
  5
366
330
52
100
AcDbEntity
  8
1
  6
Continuous
 62
     7
100
AcDbCircle
 10
209.6361802795624
 20
173.691591422122
 30
0.0
 40
35.0
100
AcDbArc
 50
90.0
 51
-179.9999999999995
  0
ARC
  5
367
330
52
100
AcDbEntity
  8
1
  6
Continuous
 62
     7
100
AcDbCircle
 10
209.6361802795624
 20
173.691591422122
 30
0.0
 40
19.0
100
AcDbArc
 50
90.0
 51
-179.9999999999991
  0
ARC
  5
368
330
52
100
AcDbEntity
  8
1
  6
Continuous
 62
     7
100
AcDbCircle
 10
187.426153984844
 20
170.5478717148997
 30
0.0
 40
3.860026294718353
100
AcDbArc
 50
-47.72834450358095
 51
0.0
  0
ARC
  5
369
330
52
100
AcDbEntity
  8
1
  6
Continuous
 62
     7
100
AcDbCircle
 10
177.8462065742804
 20
170.5478717148997
 30
0.0
 40
3.860026294717957
100
AcDbArc
 50
146.2642089999699
 51
180.0
  0
ARC
  5
36A
330
52
100
AcDbEntity
  8
1
  6
Continuous
 62
     7
100
AcDbCircle
 10
177.8462065742804
 20
170.5478717148997
 30
0.0
 40
3.860026294718182
100
AcDbArc
 50
180.0
 51
-132.2716554964166
  0
ARC
  5
36B
330
52
100
AcDbEntity
  8
1
  6
Continuous
 62
     7
100
AcDbCircle
 10
187.426153984844
 20
170.5478717148997
 30
0.0
 40
3.860026294718296
100
AcDbArc
 50
0.0
 51
33.73579100002657
  0
ENDBLK
  5
54
330
52
100
AcDbEntity
  8
0
100
AcDbBlockEnd
  0
BLOCK
  5
58
330
55
100
AcDbEntity
  8
0
100
AcDbBlockBegin
  2
60-1X-16-170
 70
     0
 71
     0
 10
173.9861802795622
 20
165.5435465024997
 30
0.0
  3
60-1X-16-170
  1

  0
INSERT
  5
56
330
55
100
AcDbEntity
  8
0
100
AcDbBlockReference
  2
32-1-16
 10
211.7509657991346
 20
262.4332211114654
 30
0.0
  0
INSERT
  5
57
330
55
100
AcDbEntity
  8
0
100
AcDbBlockReference
  2
60-1-16-170
 10
214.4717456785592
 20
137.3254935921279
 30
0.0
  0
LINE
  5
36C
330
55
100
AcDbEntity
  8
1
  6
PHANTOM
 62
     4
100
AcDbLine
 10
209.6361802795624
 20
201.6915914221217
 30
0.0
 11
325.6379796839731
 21
201.6915914221217
 31
0.0
  0
LINE
  5
36D
330
55
100
AcDbEntity
  8
1
  6
PHANTOM
 62
     4
100
AcDbLine
 10
352.637979683973
 20
228.6915914221217
 30
0.0
 11
352.637979683973
 21
255.3173301504095
 31
0.0
  0
LINE
  5
36E
330
55
100
AcDbEntity
  8
1
  6
PHANTOM
 62
     4
100
AcDbLine
 10
182.6361802795624
 20
165.5435465024997
 30
0.0
 11
182.6361802795624
 21
174.6915914221217
 31
0.0
  0
ARC
  5
36F
330
55
100
AcDbEntity
  8
1
  6
PHANTOM
 62
     4
100
AcDbCircle
 10
209.6361802795624
 20
174.6915914221217
 30
0.0
 40
27.0
100
AcDbArc
 50
90.0
 51
180.0
  0
ARC
  5
370
330
55
100
AcDbEntity
  8
1
  6
PHANTOM
 62
     4
100
AcDbCircle
 10
325.6379796839731
 20
228.6915914221217
 30
0.0
 40
27.0
100
AcDbArc
 50
-90.0
 51
0.0
  0
ENDBLK
  5
59
330
55
100
AcDbEntity
  8
0
100
AcDbBlockEnd
  0
BLOCK
  5
39F
330
398
100
AcDbEntity
  8
0
100
AcDbBlockBegin
  2
*D011
 70
     1
 71
     0
 10
0.0
 20
0.0
 30
0.0
  3
*D011
  1

  0
LINE
  5
399
330
398
100
AcDbEntity
  8
1
  6
Continuous
 62
     2
100
AcDbLine
 10
471.637979683973
 20
239.1915914221216
 30
0.0
 11
471.637979683973
 21
285.1915914221216
 31
0.0
  0
LINE
  5
39A
330
398
100
AcDbEntity
  8
1
  6
Continuous
 62
     2
100
AcDbLine
 10
432.6379796839731
 20
285.1915914221216
 30
0.0
 11
474.137979683973
 21
285.1915914221216
 31
0.0
  0
LINE
  5
39B
330
398
100
AcDbEntity
  8
1
  6
Continuous
 62
     2
100
AcDbLine
 10
432.637979683973
 20
239.1915914221216
 30
0.0
 11
474.137979683973
 21
239.1915914221216
 31
0.0
  0
SOLID
  5
39C
330
398
100
AcDbEntity
  8
1
 62
     2
100
AcDbTrace
 10
470.4860203300833
 20
247.9415914221216
 30
0.0
 11
472.7899390378627
 21
247.9415914221216
 31
0.0
 12
471.637979683973
 22
239.1915914221216
 32
0.0
 13
471.637979683973
 23
239.1915914221216
 33
0.0
  0
SOLID
  5
39D
330
398
100
AcDbEntity
  8
1
 62
     2
100
AcDbTrace
 10
472.7899390378627
 20
276.4415914221216
 30
0.0
 11
470.4860203300833
 21
276.4415914221216
 31
0.0
 12
471.637979683973
 22
285.1915914221216
 32
0.0
 13
471.637979683973
 23
285.1915914221216
 33
0.0
  0
MTEXT
  5
39E
330
398
100
AcDbEntity
  8
1
 62
     7
100
AcDbMText
 10
469.137979683973
 20
246.5290914221216
 30
0.0
 40
8.75
 41
0.0
 71
     7
 72
     1
  1
\C7;{\Fgdt;n}\C7;46
  7
CONVERTER_2
 11
0.0
 21
1.0
 31
0.0
 73
     1
 44
0.60024009603842
  0
ENDBLK
  5
3A0
330
398
100
AcDbEntity
  8
0
100
AcDbBlockEnd
  0
BLOCK
  5
3AA
330
3A3
100
AcDbEntity
  8
0
100
AcDbBlockBegin
  2
*D112
 70
     1
 71
     0
 10
0.0
 20
0.0
 30
0.0
  3
*D112
  1

  0
LINE
  5
3A4
330
3A3
100
AcDbEntity
  8
0
  6
Continuous
 62
     2
100
AcDbLine
 10
303.1379796839731
 20
329.9915914221216
 30
0.0
 11
303.1379796839731
 21
262.1915914221216
 31
0.0
  0
LINE
  5
3A5
330
3A3
100
AcDbEntity
  8
0
  6
Continuous
 62
     2
100
AcDbLine
 10
387.637979683973
 20
329.9915914221216
 30
0.0
 11
300.6379796839731
 21
329.9915914221216
 31
0.0
  0
LINE
  5
3A6
330
3A3
100
AcDbEntity
  8
0
  6
Continuous
 62
     2
100
AcDbLine
 10
337.8427134117836
 20
262.1915914221216
 30
0.0
 11
300.6379796839731
 21
262.1915914221216
 31
0.0
  0
SOLID
  5
3A7
330
3A3
100
AcDbEntity
  8
0
 62
     2
100
AcDbTrace
 10
304.2899390378628
 20
321.2415914221216
 30
0.0
 11
301.9860203300834
 21
321.2415914221216
 31
0.0
 12
303.1379796839731
 22
329.9915914221216
 32
0.0
 13
303.1379796839731
 23
329.9915914221216
 33
0.0
  0
SOLID
  5
3A8
330
3A3
100
AcDbEntity
  8
0
 62
     2
100
AcDbTrace
 10
301.9860203300834
 20
270.9415914221216
 30
0.0
 11
304.2899390378628
 21
270.9415914221216
 31
0.0
 12
303.1379796839731
 22
262.1915914221216
 32
0.0
 13
303.1379796839731
 23
262.1915914221216
 33
0.0
  0
MTEXT
  5
3A9
330
3A3
100
AcDbEntity
  8
0
 62
     7
100
AcDbMText
 10
300.6379796839731
 20
268.5665914221216
 30
0.0
 40
8.75
 41
0.0
 71
     7
 72
     1
  1
68リフト5
  7
CONVERTER_1
 11
0.0
 21
1.0
 31
0.0
 73
     1
 44
0.60024009603842
  0
ENDBLK
  5
3AB
330
3A3
100
AcDbEntity
  8
0
100
AcDbBlockEnd
  0
BLOCK
  5
3B5
330
3AE
100
AcDbEntity
  8
0
100
AcDbBlockBegin
  2
*D213
 70
     1
 71
     0
 10
0.0
 20
0.0
 30
0.0
  3
*D213
  1

  0
LINE
  5
3AF
330
3AE
100
AcDbEntity
  8
1
  6
Continuous
 62
     2
100
AcDbLine
 10
387.6379796839728
 20
142.691591422122
 30
0.0
 11
432.637979683973
 21
142.691591422122
 31
0.0
  0
LINE
  5
3B0
330
3AE
100
AcDbEntity
  8
1
  6
Continuous
 62
     2
100
AcDbLine
 10
432.637979683973
 20
239.1915914221217
 30
0.0
 11
432.637979683973
 21
140.191591422122
 31
0.0
  0
LINE
  5
3B1
330
3AE
100
AcDbEntity
  8
1
  6
Continuous
 62
     2
100
AcDbLine
 10
387.6379796839728
 20
241.6915914221216
 30
0.0
 11
387.6379796839728
 21
140.191591422122
 31
0.0
  0
SOLID
  5
3B2
330
3AE
100
AcDbEntity
  8
1
 62
     2
100
AcDbTrace
 10
396.3879796839728
 20
143.8435507760117
 30
0.0
 11
396.3879796839728
 21
141.5396320682323
 31
0.0
 12
387.6379796839728
 22
142.691591422122
 32
0.0
 13
387.6379796839728
 23
142.691591422122
 33
0.0
  0
SOLID
  5
3B3
330
3AE
100
AcDbEntity
  8
1
 62
     2
100
AcDbTrace
 10
423.887979683973
 20
141.5396320682323
 30
0.0
 11
423.887979683973
 21
143.8435507760117
 31
0.0
 12
432.637979683973
 22
142.691591422122
 32
0.0
 13
432.637979683973
 23
142.691591422122
 33
0.0
  0
MTEXT
  5
3B4
330
3AE
100
AcDbEntity
  8
1
 62
     7
100
AcDbMText
 10
403.5754796839729
 20
145.191591422122
 30
0.0
 40
8.75
 41
0.0
 71
     7
 72
     1
  1
45
  7
CONVERTER_2
 11
0.9999999999970621
 21
2.424068405545307E-6
 31
0.0
 73
     1
 44
0.60024009603842
  0
ENDBLK
  5
3B6
330
3AE
100
AcDbEntity
  8
0
100
AcDbBlockEnd
  0
BLOCK
  5
3C0
330
3B9
100
AcDbEntity
  8
0
100
AcDbBlockBegin
  2
*D314
 70
     1
 71
     0
 10
0.0
 20
0.0
 30
0.0
  3
*D314
  1

  0
LINE
  5
3BA
330
3B9
100
AcDbEntity
  8
1
  6
Continuous
 62
     2
100
AcDbLine
 10
432.637979683973
 20
142.691591422122
 30
0.0
 11
446.637979683973
 21
142.691591422122
 31
0.0
  0
LINE
  5
3BB
330
3B9
100
AcDbEntity
  8
1
  6
Continuous
 62
     2
100
AcDbLine
 10
446.637979683973
 20
142.691591422122
 30
0.0
 11
470.424160966678
 21
142.691591422122
 31
0.0
  0
LINE
  5
3BC
330
3B9
100
AcDbEntity
  8
1
  6
Continuous
 62
     2
100
AcDbLine
 10
446.637979683973
 20
252.6915914221217
 30
0.0
 11
446.637979683973
 21
140.191591422122
 31
0.0
  0
LINE
  5
3BD
330
3B9
100
AcDbEntity
  8
1
  6
Continuous
 62
     2
100
AcDbLine
 10
432.637979683973
 20
239.1915914221217
 30
0.0
 11
432.637979683973
 21
140.191591422122
 31
0.0
  0
SOLID
  5
3BE
330
3B9
100
AcDbEntity
  8
1
 62
     2
100
AcDbTrace
 10
455.387979683973
 20
143.8435507760117
 30
0.0
 11
455.387979683973
 21
141.5396320682323
 31
0.0
 12
446.637979683973
 22
142.691591422122
 32
0.0
 13
446.637979683973
 23
142.691591422122
 33
0.0
  0
MTEXT
  5
3BF
330
3B9
100
AcDbEntity
  8
1
 62
     7
100
AcDbMText
 10
459.924160966678
 20
145.191591422122
 30
0.0
 40
8.75
 41
0.0
 71
     7
 72
     1
  1
14
  7
CONVERTER_2
 11
0.9999999999970621
 21
2.424068405545307E-6
 31
0.0
 73
     1
 44
0.60024009603842
  0
ENDBLK
  5
3C1
330
3B9
100
AcDbEntity
  8
0
100
AcDbBlockEnd
  0
BLOCK
  5
3C3
330
3C2
100
AcDbEntity
  8
0
100
AcDbBlockBegin
  2
_None
 70
     0
 71
     0
 10
0.0
 20
0.0
 30
0.0
  3
_None
  1

  0
ENDBLK
  5
3C4
330
3C2
100
AcDbEntity
  8
0
100
AcDbBlockEnd
  0
BLOCK
  5
3CE
330
3C7
100
AcDbEntity
  8
0
100
AcDbBlockBegin
  2
*D416
 70
     1
 71
     0
 10
0.0
 20
0.0
 30
0.0
  3
*D416
  1

  0
LINE
  5
3C8
330
3C7
100
AcDbEntity
  8
1
  6
Continuous
 62
     2
100
AcDbLine
 10
303.1379796839731
 20
167.691591422122
 30
0.0
 11
303.1379796839731
 21
262.1915914221216
 31
0.0
  0
LINE
  5
3C9
330
3C7
100
AcDbEntity
  8
1
  6
Continuous
 62
     2
100
AcDbLine
 10
357.637979683973
 20
262.1915914221216
 30
0.0
 11
300.6379796839731
 21
262.1915914221216
 31
0.0
  0
LINE
  5
3CA
330
3C7
100
AcDbEntity
  8
1
  6
Continuous
 62
     2
100
AcDbLine
 10
190.0225872855485
 20
167.691591422122
 30
0.0
 11
305.6379796839731
 21
167.691591422122
 31
0.0
  0
SOLID
  5
3CB
330
3C7
100
AcDbEntity
  8
1
 62
     2
100
AcDbTrace
 10
301.9860203300834
 20
176.441591422122
 30
0.0
 11
304.2899390378628
 21
176.441591422122
 31
0.0
 12
303.1379796839731
 22
167.691591422122
 32
0.0
 13
303.1379796839731
 23
167.691591422122
 33
0.0
  0
SOLID
  5
3CC
330
3C7
100
AcDbEntity
  8
1
 62
     2
100
AcDbTrace
 10
304.2899390378628
 20
253.4415914221216
 30
0.0
 11
301.9860203300834
 21
253.4415914221216
 31
0.0
 12
303.1379796839731
 22
262.1915914221216
 32
0.0
 13
303.1379796839731
 23
262.1915914221216
 33
0.0
  0
MTEXT
  5
3CD
330
3C7
100
AcDbEntity
  8
1
 62
     7
100
AcDbMText
 10
300.6379796839731
 20
219.6710749041634
 30
0.0
 40
8.75
 41
0.0
 71
     7
 72
     1
  1
95
  7
CONVERTER_2
 11
0.0
 21
1.0
 31
0.0
 73
     1
 44
0.60024009603842
  0
ENDBLK
  5
3CF
330
3C7
100
AcDbEntity
  8
0
100
AcDbBlockEnd
  0
BLOCK
  5
3D9
330
3D2
100
AcDbEntity
  8
0
100
AcDbBlockBegin
  2
*D517
 70
     1
 71
     0
 10
0.0
 20
0.0
 30
0.0
  3
*D517
  1

  0
LINE
  5
3D3
330
3D2
100
AcDbEntity
  8
1
  6
Continuous
 62
     2
100
AcDbLine
 10
352.637979683973
 20
142.691591422122
 30
0.0
 11
387.6379796839728
 21
142.691591422122
 31
0.0
  0
LINE
  5
3D4
330
3D2
100
AcDbEntity
  8
1
  6
Continuous
 62
     2
100
AcDbLine
 10
387.6379796839728
 20
241.6915914221216
 30
0.0
 11
387.6379796839728
 21
140.191591422122
 31
0.0
  0
LINE
  5
3D5
330
3D2
100
AcDbEntity
  8
1
  6
Continuous
 62
     2
100
AcDbLine
 10
352.637979683973
 20
228.6915914221217
 30
0.0
 11
352.637979683973
 21
140.191591422122
 31
0.0
  0
SOLID
  5
3D6
330
3D2
100
AcDbEntity
  8
1
 62
     2
100
AcDbTrace
 10
361.387979683973
 20
143.8435507760117
 30
0.0
 11
361.387979683973
 21
141.5396320682323
 31
0.0
 12
352.637979683973
 22
142.691591422122
 32
0.0
 13
352.637979683973
 23
142.691591422122
 33
0.0
  0
SOLID
  5
3D7
330
3D2
100
AcDbEntity
  8
1
 62
     2
100
AcDbTrace
 10
378.8879796839728
 20
141.5396320682323
 30
0.0
 11
378.8879796839728
 21
143.8435507760117
 31
0.0
 12
387.6379796839728
 22
142.691591422122
 32
0.0
 13
387.6379796839728
 23
142.691591422122
 33
0.0
  0
MTEXT
  5
3D8
330
3D2
100
AcDbEntity
  8
1
 62
     7
100
AcDbMText
 10
363.5754796839729
 20
145.191591422122
 30
0.0
 40
8.75
 41
0.0
 71
     7
 72
     1
  1
35
  7
CONVERTER_2
 11
0.9999999999970621
 21
2.424068405545307E-6
 31
0.0
 73
     1
 44
0.60024009603842
  0
ENDBLK
  5
3DA
330
3D2
100
AcDbEntity
  8
0
100
AcDbBlockEnd
  0
BLOCK
  5
3E4
330
3DD
100
AcDbEntity
  8
0
100
AcDbBlockBegin
  2
*D618
 70
     1
 71
     0
 10
0.0
 20
0.0
 30
0.0
  3
*D618
  1

  0
LINE
  5
3DE
330
3DD
100
AcDbEntity
  8
0
  6
Continuous
 62
     2
100
AcDbLine
 10
182.6361802795624
 20
142.691591422122
 30
0.0
 11
352.637979683973
 21
142.691591422122
 31
0.0
  0
LINE
  5
3DF
330
3DD
100
AcDbEntity
  8
0
  6
Continuous
 62
     2
100
AcDbLine
 10
352.637979683973
 20
228.6915914221217
 30
0.0
 11
352.637979683973
 21
140.191591422122
 31
0.0
  0
LINE
  5
3E0
330
3DD
100
AcDbEntity
  8
0
  6
Continuous
 62
     2
100
AcDbLine
 10
182.6361802795624
 20
160.191591422122
 30
0.0
 11
182.6361802795624
 21
140.191591422122
 31
0.0
  0
SOLID
  5
3E1
330
3DD
100
AcDbEntity
  8
0
 62
     2
100
AcDbTrace
 10
191.3861802795624
 20
143.8435507760117
 30
0.0
 11
191.3861802795624
 21
141.5396320682323
 31
0.0
 12
182.6361802795624
 22
142.691591422122
 32
0.0
 13
182.6361802795624
 23
142.691591422122
 33
0.0
  0
SOLID
  5
3E2
330
3DD
100
AcDbEntity
  8
0
 62
     2
100
AcDbTrace
 10
343.887979683973
 20
141.5396320682323
 30
0.0
 11
343.887979683973
 21
143.8435507760117
 31
0.0
 12
352.637979683973
 22
142.691591422122
 32
0.0
 13
352.637979683973
 23
142.691591422122
 33
0.0
  0
MTEXT
  5
3E3
330
3DD
100
AcDbEntity
  8
0
 62
     7
100
AcDbMText
 10
258.4495799817677
 20
145.191591422122
 30
0.0
 40
8.75
 41
0.0
 71
     7
 72
     1
  1
170
  7
CONVERTER_2
 11
0.9999999999970621
 21
2.424068405545307E-6
 31
0.0
 73
     1
 44
0.60024009603842
  0
ENDBLK
  5
3E5
330
3DD
100
AcDbEntity
  8
0
100
AcDbBlockEnd
  0
ENDSEC
  0
SECTION
  2
ENTITIES
  0
INSERT
  5
5A
330
1F
100
AcDbEntity
  8
1
100
AcDbBlockReference
  2
A10-0A-13
 10
387.637979683973
 20
262.1915914221216
 30
0.0
  0
INSERT
  5
5B
330
1F
100
AcDbEntity
  8
1
100
AcDbBlockReference
  2
_J__A4
 10
0.0
 20
0.0
 30
0.0
 41
2.5
 42
2.5
 43
2.5
  0
INSERT
  5
5C
330
1F
100
AcDbEntity
  8
1
100
AcDbBlockReference
  2
81-8-3CWC
 10
362.2705405556142
 20
282.4915914221215
 30
0.0
  0
INSERT
  5
5D
330
1F
100
AcDbEntity
  8
1
100
AcDbBlockReference
  2
60-1X-16-170
 10
173.9861802795622
 20
165.5435465024997
 30
0.0
  0
LINE
  5
371
330
1F
100
AcDbEntity
  8
0
  6
DASH_CENTER
 62
     2
100
AcDbLine
 10
146.6216247186783
 20
262.1915914221216
 30
0.0
 11
149.6216247186783
 21
262.1915914221216
 31
0.0
  0
LINE
  5
372
330
1F
100
AcDbEntity
  8
0
  6
DASH_CENTER
 62
     2
100
AcDbLine
 10
97.62162471867836
 20
262.1915914221216
 30
0.0
 11
146.6216247186783
 21
262.1915914221216
 31
0.0
  0
LINE
  5
373
330
1F
100
AcDbEntity
  8
1
  6
DASH_CENTER
 62
     2
100
AcDbLine
 10
387.637979683973
 20
279.373083586646
 30
0.0
 11
387.637979683973
 21
336.4579083620822
 31
0.0
  0
LINE
  5
374
330
1F
100
AcDbEntity
  8
1
  6
DASH_CENTER
 62
     2
100
AcDbLine
 10
352.637979683973
 20
228.6915914221217
 30
0.0
 11
352.637979683973
 21
255.3173301504095
 31
0.0
  0
LINE
  5
375
330
1F
100
AcDbEntity
  8
1
  6
DASH_CENTER
 62
     2
100
AcDbLine
 10
209.6361802795624
 20
201.6915914221217
 30
0.0
 11
325.6379796839731
 21
201.6915914221217
 31
0.0
  0
LINE
  5
376
330
1F
100
AcDbEntity
  8
1
  6
DASH_CENTER
 62
     2
100
AcDbLine
 10
182.6361802795624
 20
160.191591422122
 30
0.0
 11
182.6361802795624
 21
174.6915914221217
 31
0.0
  0
LINE
  5
377
330
1F
100
AcDbEntity
  8
1
  6
DASH_CENTER
 62
     2
100
AcDbLine
 10
337.8427134117836
 20
262.1915914221216
 30
0.0
 11
357.637979683973
 21
262.1915914221216
 31
0.0
  0
LINE
  5
378
330
1F
100
AcDbEntity
  8
1
  6
DASH_CENTER
 62
     2
100
AcDbLine
 10
357.637979683973
 20
262.1915914221216
 30
0.0
 11
449.675786215726
 21
262.1915914221216
 31
0.0
  0
LINE
  5
379
330
1F
100
AcDbEntity
  8
1
  6
DASH_CENTER
 62
     2
100
AcDbLine
 10
352.637979683973
 20
255.3173301504095
 30
0.0
 11
352.6379796839731
 21
274.8111703374259
 31
0.0
  0
LINE
  5
37A
330
1F
100
AcDbEntity
  8
1
  6
DASH_CENTER
 62
     2
100
AcDbLine
 10
387.6379796839728
 20
241.6915914221217
 30
0.0
 11
387.637979683973
 21
279.373083586646
 31
0.0
  0
LINE
  5
37B
330
1F
100
AcDbEntity
  8
1
  6
DASH_CENTER
 62
     2
100
AcDbLine
 10
123.6216247186783
 20
648.3859968736467
 30
0.0
 11
123.6216247186783
 21
369.6861820095379
 31
0.0
  0
LINE
  5
37C
330
1F
100
AcDbEntity
  8
1
  6
DASH_CENTER
 62
     2
100
AcDbLine
 10
93.68118519179487
 20
586.6641786795029
 30
0.0
 11
152.9641840280891
 21
586.6641786795029
 31
0.0
  0
LINE
  5
37D
330
1F
100
AcDbEntity
  8
1
  6
Continuous
 62
     2
100
AcDbLine
 10
446.9871093292355
 20
623.806865551149
 30
0.0
 11
446.9871093292355
 21
679.4568655511497
 31
0.0
  0
LINE
  5
37E
330
1F
100
AcDbEntity
  8
1
  6
Continuous
 62
     2
100
AcDbLine
 10
473.9871093292355
 20
660.9068655511491
 30
0.0
 11
351.9871093292355
 21
660.9068655511491
 31
0.0
  0
LINE
  5
37F
330
1F
100
AcDbEntity
  8
1
  6
Continuous
 62
     2
100
AcDbLine
 10
473.9871093292355
 20
642.3568655511499
 30
0.0
 11
351.987109329235
 21
642.3568655511491
 31
0.0
  0
LINE
  5
380
330
1F
100
AcDbEntity
  8
1
  6
Continuous
 62
     7
100
AcDbLine
 10
351.9871093292355
 20
679.4568655511497
 30
0.0
 11
351.9871093292344
 21
623.806865551149
 31
0.0
  0
LINE
  5
381
330
1F
100
AcDbEntity
  8
1
  6
Continuous
 62
     7
100
AcDbLine
 10
351.9871093292355
 20
679.4568655511497
 30
0.0
 11
473.9871093292351
 21
679.4568655511497
 31
0.0
  0
LINE
  5
382
330
1F
100
AcDbEntity
  8
1
  6
Continuous
 62
     7
100
AcDbLine
 10
473.9871093292351
 20
679.4568655511497
 30
0.0
 11
473.9871093292355
 21
623.806865551149
 31
0.0
  0
LINE
  5
383
330
1F
100
AcDbEntity
  8
1
  6
Continuous
 62
     7
100
AcDbLine
 10
351.9871093292344
 20
623.806865551149
 30
0.0
 11
473.9871093292355
 21
623.806865551149
 31
0.0
  0
LINE
  5
384
330
1F
100
AcDbEntity
  8
1
  6
DASH_CENTER
 62
     2
100
AcDbLine
 10
107.4716247186782
 20
381.6623792750922
 30
0.0
 11
139.7716247186784
 21
381.6623792750922
 31
0.0
  0
LINE
  5
385
330
1F
100
AcDbEntity
  8
1
  6
DASH_CENTER
 62
     2
100
AcDbLine
 10
123.6216247186783
 20
160.191591422122
 30
0.0
 11
123.6216247186783
 21
337.4915914221217
 31
0.0
  0
LINE
  5
386
330
1F
100
AcDbEntity
  8
1
  6
DASH_CENTER
 62
     2
100
AcDbLine
 10
145.1216247186783
 20
551.6641786795029
 30
0.0
 11
102.1216247186784
 21
551.6641786795029
 31
0.0
  0
ARC
  5
387
330
1F
100
AcDbEntity
  8
1
  6
DASH_CENTER
 62
     2
100
AcDbCircle
 10
325.6379796839731
 20
228.6915914221217
 30
0.0
 40
27.0
100
AcDbArc
 50
-90.0
 51
0.0
  0
ARC
  5
388
330
1F
100
AcDbEntity
  8
1
  6
DASH_CENTER
 62
     2
100
AcDbCircle
 10
209.6361802795624
 20
174.6915914221217
 30
0.0
 40
27.0
100
AcDbArc
 50
90.0
 51
180.0
  0
SOLID
  5
389
330
1F
100
AcDbEntity
  8
1
 62
     2
100
AcDbTrace
 10
137.4989986540828
 20
646.3178806395617
 30
0.0
 11
139.494250783274
 21
645.165921285672
 31
0.0
 12
134.1216247186783
 22
638.164178679503
 32
0.0
 13
134.1216247186783
 23
638.164178679503
 33
0.0
  0
LEADER
  5
38A
330
1F
100
AcDbEntity
  8
1
  6
Continuous
 62
     2
100
AcDbLeader
  3
Standard
 71
     0
 76
     3
 10
134.1216247186783
 20
638.164178679503
 30
0.0
 10
147.5974594100621
 20
661.5050090393789
 30
0.0
 10
185.496143123969
 20
661.5050090393789
 30
0.0
  0
MTEXT
  5
38C
330
1F
100
AcDbEntity
  8
0
 62
     7
100
AcDbMText
 10
84.99999999999999
 20
85.00000000000003
 30
0.0
 40
8.75
 41
0.0
 71
     4
 72
     1
  1
JIS
  7
CONVERTER_2
 73
     1
 44
1.32052821128451
  0
MTEXT
  5
38D
330
1F
100
AcDbEntity
  8
0
 62
     7
100
AcDbMText
 10
142.5
 20
56.87500000000006
 30
0.0
 40
8.75
 41
0.0
 71
     5
 72
     1
  1
自在水栓
  7
CONVERTER_1
 73
     1
 44
1.32052821128451
  0
MTEXT
  5
38E
330
1F
100
AcDbEntity
  8
1
 62
     7
100
AcDbMText
 10
166.5468012670156
 20
669.0050090393791
 30
0.0
 40
8.75
 41
0.0
 71
     5
 72
     1
  1
PJ1/2
  7
CONVERTER_2
 73
     1
 44
1.32052821128451
  0
MTEXT
  5
38F
330
1F
100
AcDbEntity
  8
1
 62
     7
100
AcDbMText
 10
142.5
 20
35.625
 30
0.0
 40
8.75
 41
0.0
 71
     5
 72
     1
  1
A10JC-13-色
  7
CONVERTER_1
 73
     1
 44
0.7202881152461
  0
MTEXT
  5
390
330
1F
100
AcDbEntity
  8
1
 62
     7
100
AcDbMText
 10
213.125
 20
42.5
 30
0.0
 40
8.75
 41
0.0
 71
     5
 72
     1
  1
1
  7
CONVERTER_2
 73
     1
 44
0.7202881152461
  0
MTEXT
  5
391
330
1F
100
AcDbEntity
  8
1
 62
     7
100
AcDbMText
 10
234.375
 20
42.5
 30
0.0
 40
8.75
 41
0.0
 71
     5
 72
     1
  1
2,5
  7
CONVERTER_2
 73
     1
 44
0.7202881152461
  0
MTEXT
  5
392
330
1F
100
AcDbEntity
  8
1
 62
     7
100
AcDbMText
 10
399.4871093292355
 20
670.181865551149
 30
0.0
 40
8.75
 41
0.0
 71
     5
 72
     1
  1
品番
  7
CONVERTER_1
 73
     1
 44
0.7202881152461
  0
MTEXT
  5
393
330
1F
100
AcDbEntity
  8
1
 62
     7
100
AcDbMText
 10
460.4871093292355
 20
633.0818655511497
 30
0.0
 40
8.75
 41
0.0
 71
     5
 72
     1
  1
赤
  7
CONVERTER_1
 73
     1
 44
0.7202881152461
  0
MTEXT
  5
394
330
1F
100
AcDbEntity
  8
1
 62
     7
100
AcDbMText
 10
460.4871093292355
 20
651.6318655511495
 30
0.0
 40
8.75
 41
0.0
 71
     5
 72
     1
  1
青
  7
CONVERTER_1
 73
     1
 44
0.7202881152461
  0
MTEXT
  5
395
330
1F
100
AcDbEntity
  8
1
 62
     7
100
AcDbMText
 10
460.4871093292355
 20
670.181865551149
 30
0.0
 40
8.75
 41
0.0
 71
     5
 72
     1
  1
色
  7
CONVERTER_1
 73
     1
 44
0.7202881152461
  0
MTEXT
  5
396
330
1F
100
AcDbEntity
  8
1
 62
     7
100
AcDbMText
 10
399.4871093292355
 20
633.0818655511497
 30
0.0
 40
8.75
 41
0.0
 71
     5
 72
     1
  1
A10JC-13-R
  7
CONVERTER_2
 73
     1
 44
0.7202881152461
  0
MTEXT
  5
397
330
1F
100
AcDbEntity
  8
1
 62
     7
100
AcDbMText
 10
399.4871093292355
 20
651.6318655511495
 30
0.0
 40
8.75
 41
0.0
 71
     5
 72
     1
  1
A10JC-13-B
  7
CONVERTER_2
 73
     1
 44
0.7202881152461
  0
DIMENSION
  5
3A2
330
1F
100
AcDbEntity
  8
1
100
AcDbDimension
  2
*D011
 10
471.637979683973
 20
239.1915914221216
 30
0.0
 11
464.762979683973
 21
262.1915914221216
 31
0.0
  1
<>
 71
     5
 42
0.0
 53
90.0
  3
ME10_DIM_0
100
AcDbAlignedDimension
 13
432.6379796839731
 23
285.1915914221216
 33
0.0
 14
432.6379796839731
 24
239.1915914221217
 34
0.0
 50
90.0
100
AcDbRotatedDimension
  0
DIMENSION
  5
3AD
330
1F
100
AcDbEntity
  8
0
100
AcDbDimension
  2
*D112
 10
303.1379796839731
 20
329.9915914221216
 30
0.0
 11
296.2629796839731
 21
292.1915914221216
 31
0.0
  1
68リフト5
 71
     5
 42
0.0
 53
90.0
  3
ME10_DIM_1
100
AcDbAlignedDimension
 13
337.8427134117836
 23
262.1915914221216
 33
0.0
 14
387.6379796839731
 24
329.9915914221217
 34
0.0
 50
90.0
100
AcDbRotatedDimension
  0
DIMENSION
  5
3B8
330
1F
100
AcDbEntity
  8
1
100
AcDbDimension
  2
*D213
 10
387.6379796839728
 20
142.691591422122
 30
0.0
 11
410.1379796839729
 21
149.566591422122
 31
0.0
  1
<>
 71
     5
 42
0.0
 53
0.00013888888889
  3
ME10_DIM_2
100
AcDbAlignedDimension
 13
432.6379796839731
 23
239.1915914221217
 33
0.0
 14
387.6379796839728
 24
241.6915914221217
 34
0.0
100
AcDbRotatedDimension
  0
DIMENSION
  5
3C6
330
1F
100
AcDbEntity
  8
1
100
AcDbDimension
  2
*D314
 10
432.637979683973
 20
142.691591422122
 30
0.0
 11
465.174160966678
 21
149.566591422122
 31
0.0
  1
<>
 71
     5
 42
0.0
 53
0.00013888888889
  3
ME10_DIM_3
100
AcDbAlignedDimension
 13
446.6379796839731
 23
252.6915914221217
 33
0.0
 14
432.6379796839731
 24
239.1915914221217
 34
0.0
100
AcDbRotatedDimension
  0
DIMENSION
  5
3D1
330
1F
100
AcDbEntity
  8
1
100
AcDbDimension
  2
*D416
 10
303.1379796839731
 20
167.691591422122
 30
0.0
 11
296.2629796839731
 21
226.2335749041634
 31
0.0
  1
<>
 71
     5
 42
0.0
 53
90.0
  3
ME10_DIM_4
100
AcDbAlignedDimension
 13
357.637979683973
 23
262.1915914221216
 33
0.0
 14
190.0225872855484
 24
167.691591422122
 34
0.0
 50
90.0
100
AcDbRotatedDimension
  0
DIMENSION
  5
3DC
330
1F
100
AcDbEntity
  8
1
100
AcDbDimension
  2
*D517
 10
352.637979683973
 20
142.691591422122
 30
0.0
 11
370.1379796839729
 21
149.566591422122
 31
0.0
  1
<>
 71
     5
 42
0.0
 53
0.00013888888889
  3
ME10_DIM_5
100
AcDbAlignedDimension
 13
387.6379796839728
 23
241.6915914221217
 33
0.0
 14
352.6379796839731
 24
228.6915914221217
 34
0.0
100
AcDbRotatedDimension
  0
DIMENSION
  5
3E7
330
1F
100
AcDbEntity
  8
0
100
AcDbDimension
  2
*D618
 10
182.6361802795624
 20
142.691591422122
 30
0.0
 11
267.6370799817677
 21
149.566591422122
 31
0.0
  1
<>
 71
     5
 42
0.0
 53
0.00013888888889
  3
ME10_DIM_6
100
AcDbAlignedDimension
 13
352.6379796839731
 23
228.6915914221217
 33
0.0
 14
182.6361802795624
 24
160.191591422122
 34
0.0
100
AcDbRotatedDimension
  0
ENDSEC
  0
SECTION
  2
OBJECTS
  0
DICTIONARY
  5
C
330
0
100
AcDbDictionary
281
     1
  3
ACAD_GROUP
350
D
  3
ACAD_LAYOUT
350
1A
  3
ACAD_MLINESTYLE
350
17
  3
ACAD_PLOTSETTINGS
350
19
  3
ACAD_PLOTSTYLENAME
350
E
  3
ACAD_TABLESTYLE
350
2A
  3
AcDbVariableDictionary
350
2C
  0
DICTIONARY
  5
D
102
{ACAD_REACTORS
330
C
102
}
330
C
100
AcDbDictionary
281
     1
  0
DICTIONARY
  5
1A
102
{ACAD_REACTORS
330
C
102
}
330
C
100
AcDbDictionary
281
     1
  3
Layout1
350
1E
  3
Layout2
350
26
  3
Model
350
22
  0
DICTIONARY
  5
17
102
{ACAD_REACTORS
330
C
102
}
330
C
100
AcDbDictionary
281
     1
  3
Standard
350
18
  0
DICTIONARY
  5
19
102
{ACAD_REACTORS
330
C
102
}
330
C
100
AcDbDictionary
281
     1
  0
ACDBDICTIONARYWDFLT
  5
E
102
{ACAD_REACTORS
330
C
102
}
330
C
100
AcDbDictionary
281
     1
  3
Normal
350
F
100
AcDbDictionaryWithDefault
340
F
  0
DICTIONARY
  5
2A
102
{ACAD_REACTORS
330
C
102
}
330
C
100
AcDbDictionary
281
     1
  3
Standard
350
2B
  0
DICTIONARY
  5
2C
102
{ACAD_REACTORS
330
C
102
}
330
C
100
AcDbDictionary
281
     1
  3
CTABLESTYLE
350
2D
  0
LAYOUT
  5
1E
102
{ACAD_REACTORS
330
1A
102
}
330
1A
100
AcDbPlotSettings
  1

  2

  4

  6

 40
0.0
 41
0.0
 42
0.0
 43
0.0
 44
0.0
 45
0.0
 46
0.0
 47
0.0
 48
0.0
 49
0.0
140
0.0
141
0.0
142
1.0
143
1.0
 70
   688
 72
     0
 73
     0
 74
     5
  7

 75
    16
147
1.0
148
0.0
149
0.0
100
AcDbLayout
  1
Layout1
 70
     1
 71
     1
 10
0.0
 20
0.0
 11
12.0
 21
9.0
 12
0.0
 22
0.0
 32
0.0
 14
1.00000000000000E+20
 24
1.00000000000000E+20
 34
1.00000000000000E+20
 15
-1.00000000000000E+20
 25
-1.00000000000000E+20
 35
-1.00000000000000E+20
146
0.0
 13
0.0
 23
0.0
 33
0.0
 16
1.0
 26
0.0
 36
0.0
 17
0.0
 27
1.0
 37
0.0
 76
     0
330
1B
  0
LAYOUT
  5
26
102
{ACAD_REACTORS
330
1A
102
}
330
1A
100
AcDbPlotSettings
  1

  2

  4

  6

 40
0.0
 41
0.0
 42
0.0
 43
0.0
 44
0.0
 45
0.0
 46
0.0
 47
0.0
 48
0.0
 49
0.0
140
0.0
141
0.0
142
1.0
143
1.0
 70
   688
 72
     0
 73
     0
 74
     5
  7

 75
    16
147
1.0
148
0.0
149
0.0
100
AcDbLayout
  1
Layout2
 70
     1
 71
     2
 10
0.0
 20
0.0
 11
0.0
 21
0.0
 12
0.0
 22
0.0
 32
0.0
 14
0.0
 24
0.0
 34
0.0
 15
0.0
 25
0.0
 35
0.0
146
0.0
 13
0.0
 23
0.0
 33
0.0
 16
1.0
 26
0.0
 36
0.0
 17
0.0
 27
1.0
 37
0.0
 76
     0
330
23
  0
LAYOUT
  5
22
102
{ACAD_REACTORS
330
1A
102
}
330
1A
100
AcDbPlotSettings
  1

  2

  4

  6

 40
0.0
 41
0.0
 42
0.0
 43
0.0
 44
0.0
 45
0.0
 46
0.0
 47
0.0
 48
0.0
 49
0.0
140
0.0
141
0.0
142
1.0
143
1.0
 70
  1712
 72
     0
 73
     0
 74
     0
  7

 75
     0
147
1.0
148
0.0
149
0.0
100
AcDbLayout
  1
Model
 70
     1
 71
     0
 10
0.0
 20
0.0
 11
0.0
 21
0.0
 12
0.0
 22
0.0
 32
0.0
 14
0.0
 24
0.0
 34
0.0
 15
525.0
 25
742.5
 35
0.0
146
0.0
 13
0.0
 23
0.0
 33
0.0
 16
1.0
 26
0.0
 36
0.0
 17
0.0
 27
1.0
 37
0.0
 76
     0
330
1F
  0
MLINESTYLE
  5
18
102
{ACAD_REACTORS
330
17
102
}
330
17
100
AcDbMlineStyle
  2
Standard
 70
     0
  3

 62
   256
 51
90.0
 52
90.0
 71
     2
 49
0.5
 62
   256
  6
BYLAYER
 49
-0.5
 62
   256
  6
BYLAYER
  0
ACDBPLACEHOLDER
  5
F
102
{ACAD_REACTORS
330
E
102
}
330
E
  0
TABLESTYLE
  5
2B
102
{ACAD_REACTORS
330
2A
102
}
330
2A
100
AcDbTableStyle
  3
Standard
 70
     0
 71
     0
 40
0.06
 41
0.06
280
     0
281
     0
  7
Standard
140
0.18
170
     2
 62
     0
 63
     7
283
     0
274
    -2
284
     1
 64
     0
275
    -2
285
     1
 65
     0
276
    -2
286
     1
 66
     0
277
    -2
287
     1
 67
     0
278
    -2
288
     1
 68
     0
279
    -2
289
     1
 69
     0
  7
Standard
140
0.25
170
     5
 62
     0
 63
     7
283
     0
274
    -2
284
     1
 64
     0
275
    -2
285
     1
 65
     0
276
    -2
286
     1
 66
     0
277
    -2
287
     1
 67
     0
278
    -2
288
     1
 68
     0
279
    -2
289
     1
 69
     0
  7
Standard
140
0.18
170
     5
 62
     0
 63
     7
283
     0
274
    -2
284
     1
 64
     0
275
    -2
285
     1
 65
     0
276
    -2
286
     1
 66
     0
277
    -2
287
     1
 67
     0
278
    -2
288
     1
 68
     0
279
    -2
289
     1
 69
     0
  0
DICTIONARYVAR
  5
2D
102
{ACAD_REACTORS
330
2C
102
}
330
2C
100
DictionaryVariables
280
     0
  1
Standard
  0
ENDSEC
  0
EOF
