  0
SECTION
  2
HEADER
  9
$ACADVER
  1
AC1015
  9
$ACADMAINTVER
 70
     6
  9
$DWGCODEPAGE
  3
DOS932
  9
$INSBASE
 10
0.0
 20
0.0
 30
0.0
  9
$EXTMIN
 10
0.0
 20
0.0
 30
0.0
  9
$EXTMAX
 10
525.0
 20
742.5
 30
0.0
  9
$LIMMIN
 10
0.0
 20
0.0
  9
$LIMMAX
 10
12.0
 20
9.0
  9
$ORTHOMODE
 70
     0
  9
$REGENMODE
 70
     1
  9
$FILLMODE
 70
     1
  9
$QTEXTMODE
 70
     0
  9
$MIRRTEXT
 70
     1
  9
$LTSCALE
 40
1.0
  9
$ATTMODE
 70
     1
  9
$TEXTSIZE
 40
0.2
  9
$TRACEWID
 40
0.05
  9
$TEXTSTYLE
  7
Standard
  9
$CLAYER
  8
0
  9
$CELTYPE
  6
ByLayer
  9
$CECOLOR
 62
   256
  9
$CELTSCALE
 40
1.0
  9
$DISPSILH
 70
     0
  9
$DIMSCALE
 40
1.0
  9
$DIMASZ
 40
0.18
  9
$DIMEXO
 40
0.0625
  9
$DIMDLI
 40
0.38
  9
$DIMRND
 40
0.0
  9
$DIMDLE
 40
0.0
  9
$DIMEXE
 40
0.18
  9
$DIMTP
 40
0.0
  9
$DIMTM
 40
0.0
  9
$DIMTXT
 40
0.18
  9
$DIMCEN
 40
0.09
  9
$DIMTSZ
 40
0.0
  9
$DIMTOL
 70
     0
  9
$DIMLIM
 70
     0
  9
$DIMTIH
 70
     1
  9
$DIMTOH
 70
     1
  9
$DIMSE1
 70
     0
  9
$DIMSE2
 70
     0
  9
$DIMTAD
 70
     0
  9
$DIMZIN
 70
     0
  9
$DIMBLK
  1

  9
$DIMASO
 70
     1
  9
$DIMSHO
 70
     1
  9
$DIMPOST
  1

  9
$DIMAPOST
  1

  9
$DIMALT
 70
     0
  9
$DIMALTD
 70
     2
  9
$DIMALTF
 40
25.4
  9
$DIMLFAC
 40
1.0
  9
$DIMTOFL
 70
     0
  9
$DIMTVP
 40
0.0
  9
$DIMTIX
 70
     0
  9
$DIMSOXD
 70
     0
  9
$DIMSAH
 70
     0
  9
$DIMBLK1
  1

  9
$DIMBLK2
  1

  9
$DIMSTYLE
  2
Standard
  9
$DIMCLRD
 70
     0
  9
$DIMCLRE
 70
     0
  9
$DIMCLRT
 70
     0
  9
$DIMTFAC
 40
1.0
  9
$DIMGAP
 40
0.09
  9
$DIMJUST
 70
     0
  9
$DIMSD1
 70
     0
  9
$DIMSD2
 70
     0
  9
$DIMTOLJ
 70
     1
  9
$DIMTZIN
 70
     0
  9
$DIMALTZ
 70
     0
  9
$DIMALTTZ
 70
     0
  9
$DIMUPT
 70
     0
  9
$DIMDEC
 70
     4
  9
$DIMTDEC
 70
     4
  9
$DIMALTU
 70
     2
  9
$DIMALTTD
 70
     2
  9
$DIMTXSTY
  7
Standard
  9
$DIMAUNIT
 70
     0
  9
$DIMADEC
 70
     0
  9
$DIMALTRND
 40
0.0
  9
$DIMAZIN
 70
     0
  9
$DIMDSEP
 70
    46
  9
$DIMATFIT
 70
     3
  9
$DIMFRAC
 70
     0
  9
$DIMLDRBLK
  1

  9
$DIMLUNIT
 70
     2
  9
$DIMLWD
 70
    -2
  9
$DIMLWE
 70
    -2
  9
$DIMTMOVE
 70
     0
  9
$LUNITS
 70
     2
  9
$LUPREC
 70
     4
  9
$SKETCHINC
 40
0.1
  9
$FILLETRAD
 40
0.5
  9
$AUNITS
 70
     0
  9
$AUPREC
 70
     0
  9
$MENU
  1
.
  9
$ELEVATION
 40
0.0
  9
$PELEVATION
 40
0.0
  9
$THICKNESS
 40
0.0
  9
$LIMCHECK
 70
     0
  9
$CHAMFERA
 40
0.5
  9
$CHAMFERB
 40
0.5
  9
$CHAMFERC
 40
1.0
  9
$CHAMFERD
 40
0.0
  9
$SKPOLY
 70
     0
  9
$TDCREATE
 40
2456184.54804
  9
$TDUCREATE
 40
2456184.17304
  9
$TDUPDATE
 40
2456184.548040011
  9
$TDUUPDATE
 40
2456184.173040011
  9
$TDINDWG
 40
0.0000000116
  9
$TDUSRTIMER
 40
0.0000000116
  9
$USRTIMER
 70
     1
  9
$ANGBASE
 50
0.0
  9
$ANGDIR
 70
     0
  9
$PDMODE
 70
     0
  9
$PDSIZE
 40
0.0
  9
$PLINEWID
 40
0.0
  9
$SPLFRAME
 70
     0
  9
$SPLINETYPE
 70
     6
  9
$SPLINESEGS
 70
     8
  9
$HANDSEED
  5
277
  9
$SURFTAB1
 70
     6
  9
$SURFTAB2
 70
     6
  9
$SURFTYPE
 70
     6
  9
$SURFU
 70
     6
  9
$SURFV
 70
     6
  9
$UCSBASE
  2

  9
$UCSNAME
  2

  9
$UCSORG
 10
0.0
 20
0.0
 30
0.0
  9
$UCSXDIR
 10
1.0
 20
0.0
 30
0.0
  9
$UCSYDIR
 10
0.0
 20
1.0
 30
0.0
  9
$UCSORTHOREF
  2

  9
$UCSORTHOVIEW
 70
     0
  9
$UCSORGTOP
 10
0.0
 20
0.0
 30
0.0
  9
$UCSORGBOTTOM
 10
0.0
 20
0.0
 30
0.0
  9
$UCSORGLEFT
 10
0.0
 20
0.0
 30
0.0
  9
$UCSORGRIGHT
 10
0.0
 20
0.0
 30
0.0
  9
$UCSORGFRONT
 10
0.0
 20
0.0
 30
0.0
  9
$UCSORGBACK
 10
0.0
 20
0.0
 30
0.0
  9
$PUCSBASE
  2

  9
$PUCSNAME
  2

  9
$PUCSORG
 10
0.0
 20
0.0
 30
0.0
  9
$PUCSXDIR
 10
1.0
 20
0.0
 30
0.0
  9
$PUCSYDIR
 10
0.0
 20
1.0
 30
0.0
  9
$PUCSORTHOREF
  2

  9
$PUCSORTHOVIEW
 70
     0
  9
$PUCSORGTOP
 10
0.0
 20
0.0
 30
0.0
  9
$PUCSORGBOTTOM
 10
0.0
 20
0.0
 30
0.0
  9
$PUCSORGLEFT
 10
0.0
 20
0.0
 30
0.0
  9
$PUCSORGRIGHT
 10
0.0
 20
0.0
 30
0.0
  9
$PUCSORGFRONT
 10
0.0
 20
0.0
 30
0.0
  9
$PUCSORGBACK
 10
0.0
 20
0.0
 30
0.0
  9
$USERI1
 70
     0
  9
$USERI2
 70
     0
  9
$USERI3
 70
     0
  9
$USERI4
 70
     0
  9
$USERI5
 70
     0
  9
$USERR1
 40
13.2
  9
$USERR2
 40
0.0
  9
$USERR3
 40
0.0
  9
$USERR4
 40
0.0
  9
$USERR5
 40
0.0
  9
$WORLDVIEW
 70
     1
  9
$SHADEDGE
 70
     3
  9
$SHADEDIF
 70
    70
  9
$TILEMODE
 70
     1
  9
$MAXACTVP
 70
    64
  9
$PINSBASE
 10
0.0
 20
0.0
 30
0.0
  9
$PLIMCHECK
 70
     0
  9
$PEXTMIN
 10
1.00000000000000E+20
 20
1.00000000000000E+20
 30
1.00000000000000E+20
  9
$PEXTMAX
 10
-1.00000000000000E+20
 20
-1.00000000000000E+20
 30
-1.00000000000000E+20
  9
$PLIMMIN
 10
0.0
 20
0.0
  9
$PLIMMAX
 10
12.0
 20
9.0
  9
$UNITMODE
 70
     0
  9
$VISRETAIN
 70
     1
  9
$PLINEGEN
 70
     0
  9
$PSLTSCALE
 70
     1
  9
$TREEDEPTH
 70
  3020
  9
$CMLSTYLE
  2
Standard
  9
$CMLJUST
 70
     0
  9
$CMLSCALE
 40
1.0
  9
$PROXYGRAPHICS
 70
     1
  9
$MEASUREMENT
 70
     1
  9
$CELWEIGHT
370
    -1
  9
$ENDCAPS
280
     0
  9
$JOINSTYLE
280
     0
  9
$LWDISPLAY
290
     0
  9
$INSUNITS
 70
     1
  9
$HYPERLINKBASE
  1

  9
$STYLESHEET
  1

  9
$XEDIT
290
     1
  9
$CEPSNTYPE
380
     0
  9
$PSTYLEMODE
290
     0
  9
$FINGERPRINTGUID
  2
{FAEB1C30-E019-11D5-929B-00C0DF256EC4}
  9
$VERSIONGUID
  2
{FAEB1C32-E019-11D5-929B-00C0DF256EC4}
  9
$EXTNAMES
290
     1
  9
$PSVPSCALE
 40
0.0
  9
$OLESTARTUP
290
     0
  0
ENDSEC
  0
SECTION
  2
CLASSES
  0
CLASS
  1
ACDBDICTIONARYWDFLT
  2
AcDbDictionaryWithDefault
  3
ObjectDBX Classes
 90
        0
280
     0
281
     0
  0
CLASS
  1
TABLESTYLE
  2
AcDbTableStyle
  3
ObjectDBX Classes
 90
     2047
280
     0
281
     0
  0
CLASS
  1
DICTIONARYVAR
  2
AcDbDictionaryVar
  3
ObjectDBX Classes
 90
        0
280
     0
281
     0
  0
CLASS
  1

  2
exOdDbCircle
  3

 90
        0
280
     0
281
     1
  0
CLASS
  1

  2
exOdDbSpline
  3

 90
        0
280
     0
281
     1
  0
CLASS
  1
ACDBPLACEHOLDER
  2
AcDbPlaceHolder
  3
ObjectDBX Classes
 90
        0
280
     0
281
     0
  0
CLASS
  1
LAYOUT
  2
AcDbLayout
  3
ObjectDBX Classes
 90
        0
280
     0
281
     0
  0
ENDSEC
  0
SECTION
  2
TABLES
  0
TABLE
  2
VPORT
  5
8
330
0
100
AcDbSymbolTable
 70
     2
  0
VPORT
  5
29
330
8
100
AcDbSymbolTableRecord
100
AcDbViewportTableRecord
  2
*Active
 70
     0
 10
0.0
 20
0.0
 11
1.0
 21
1.0
 12
262.5
 22
371.25
 13
0.0
 23
0.0
 14
0.5
 24
0.5
 15
0.5
 25
0.5
 16
0.0
 26
0.0
 36
1.0
 17
0.0
 27
0.0
 37
0.0
 40
816.7500000000001
 41
1.60267857142857
 42
50.0
 43
0.0
 44
0.0
 50
0.0
 51
0.0
 71
     0
 72
   100
 73
     1
 74
     3
 75
     0
 76
     0
 77
     0
 78
     0
281
     0
 65
     1
110
0.0
120
0.0
130
0.0
111
1.0
121
0.0
131
0.0
112
0.0
122
1.0
132
0.0
 79
     0
146
0.0
  0
ENDTAB
  0
TABLE
  2
LTYPE
  5
5
330
0
100
AcDbSymbolTable
 70
     8
  0
LTYPE
  5
14
330
5
100
AcDbSymbolTableRecord
100
AcDbLinetypeTableRecord
  2
ByBlock
 70
     0
  3

 72
    65
 73
     0
 40
0.0
  0
LTYPE
  5
15
330
5
100
AcDbSymbolTableRecord
100
AcDbLinetypeTableRecord
  2
ByLayer
 70
     0
  3

 72
    65
 73
     0
 40
0.0
  0
LTYPE
  5
16
330
5
100
AcDbSymbolTableRecord
100
AcDbLinetypeTableRecord
  2
Continuous
 70
     0
  3
Solid line
 72
    65
 73
     0
 40
0.0
  0
LTYPE
  5
2E
330
5
100
AcDbSymbolTableRecord
100
AcDbLinetypeTableRecord
  2
DASHED
 70
     0
  3
Dashed
 72
    65
 73
     2
 40
15.0
 49
7.0
 74
     0
 49
-8.0
 74
     0
  0
LTYPE
  5
2F
330
5
100
AcDbSymbolTableRecord
100
AcDbLinetypeTableRecord
  2
DOTTED
 70
     0
  3
Dotted
 72
    65
 73
     2
 40
1.0
 49
0.0
 74
     0
 49
-1.0
 74
     0
  0
LTYPE
  5
30
330
5
100
AcDbSymbolTableRecord
100
AcDbLinetypeTableRecord
  2
DOT_CENTER
 70
     0
  3
Dot_Center
 72
    65
 73
     4
 40
14.0
 49
12.0
 74
     0
 49
-1.0
 74
     0
 49
0.0
 74
     0
 49
-1.0
 74
     0
  0
LTYPE
  5
31
330
5
100
AcDbSymbolTableRecord
100
AcDbLinetypeTableRecord
  2
LONG_DASHED
 70
     0
  3
Long_Dashed
 72
    65
 73
     2
 40
15.0
 49
10.0
 74
     0
 49
-5.0
 74
     0
  0
LTYPE
  5
32
330
5
100
AcDbSymbolTableRecord
100
AcDbLinetypeTableRecord
  2
DASH_CENTER
 70
     0
  3
Dash_Center
 72
    65
 73
     4
 40
14.0
 49
11.0
 74
     0
 49
-1.0
 74
     0
 49
1.0
 74
     0
 49
-1.0
 74
     0
  0
LTYPE
  5
33
330
5
100
AcDbSymbolTableRecord
100
AcDbLinetypeTableRecord
  2
PHANTOM
 70
     0
  3
Phantom
 72
    65
 73
     6
 40
13.0
 49
10.0
 74
     0
 49
-1.0
 74
     0
 49
0.0
 74
     0
 49
-1.0
 74
     0
 49
0.0
 74
     0
 49
-1.0
 74
     0
  0
LTYPE
  5
34
330
5
100
AcDbSymbolTableRecord
100
AcDbLinetypeTableRecord
  2
CENTER_DASH_DASH
 70
     0
  3
Center_Dash_Dash
 72
    65
 73
     6
 40
14.0
 49
9.0
 74
     0
 49
-1.0
 74
     0
 49
1.0
 74
     0
 49
-1.0
 74
     0
 49
1.0
 74
     0
 49
-1.0
 74
     0
  0
ENDTAB
  0
TABLE
  2
LAYER
  5
2
330
0
100
AcDbSymbolTable
 70
     2
  0
LAYER
  5
10
330
2
100
AcDbSymbolTableRecord
100
AcDbLayerTableRecord
  2
0
 70
     0
 62
     7
  6
Continuous
370
    -3
390
F
  0
LAYER
  5
35
330
2
100
AcDbSymbolTableRecord
100
AcDbLayerTableRecord
  2
1
 70
     0
 62
     7
  6
Continuous
370
    -3
390
F
  0
ENDTAB
  0
TABLE
  2
STYLE
  5
3
330
0
100
AcDbSymbolTable
 70
     3
  0
STYLE
  5
11
330
3
100
AcDbSymbolTableRecord
100
AcDbTextStyleTableRecord
  2
Standard
 70
     0
 40
0.0
 41
1.0
 50
0.0
 71
     0
 42
0.2
  3
txt
  4

  0
STYLE
  5
206
330
3
100
AcDbSymbolTableRecord
100
AcDbTextStyleTableRecord
  2
CONVERTER_1
 70
     0
 40
0.0
 41
0.89
 50
0.0
 71
     0
 42
0.2
  3
msmincho.ttc
  4

1001
ACAD
1000
MS Mincho
1071
    32785
  0
STYLE
  5
220
330
3
100
AcDbSymbolTableRecord
100
AcDbTextStyleTableRecord
  2
CONVERTER_2
 70
     0
 40
0.0
 41
0.9
 50
0.0
 71
     0
 42
0.2
  3
txt.shx
  4

  0
ENDTAB
  0
TABLE
  2
VIEW
  5
6
330
0
100
AcDbSymbolTable
 70
     0
  0
ENDTAB
  0
TABLE
  2
UCS
  5
7
330
0
100
AcDbSymbolTable
 70
     0
  0
ENDTAB
  0
TABLE
  2
APPID
  5
9
330
0
100
AcDbSymbolTable
 70
     1
  0
APPID
  5
12
330
9
100
AcDbSymbolTableRecord
100
AcDbRegAppTableRecord
  2
ACAD
 70
     0
  0
ENDTAB
  0
TABLE
  2
DIMSTYLE
  5
A
330
0
100
AcDbSymbolTable
 70
     8
100
AcDbDimStyleTable
  0
DIMSTYLE
105
27
330
A
100
AcDbSymbolTableRecord
100
AcDbDimStyleTableRecord
  2
Standard
 70
     0
340
11
  0
DIMSTYLE
105
230
102
{ACAD_REACTORS
330
231
102
}
330
A
100
AcDbSymbolTableRecord
100
AcDbDimStyleTableRecord
  2
ME10_DIM_0
 70
     0
 41
8.75
 42
0.0
 44
2.5
 73
     0
 74
     0
 77
     1
 78
     8
140
8.75
147
0.625
172
     1
173
     1
176
     2
177
     2
178
     7
271
     0
340
220
  0
DIMSTYLE
105
23B
102
{ACAD_REACTORS
330
23C
102
}
330
A
100
AcDbSymbolTableRecord
100
AcDbDimStyleTableRecord
  2
ME10_DIM_1
 70
     0
  3
{\Fgdt;n}<>
 41
8.75
 42
0.0
 44
2.5
 73
     0
 74
     0
 77
     1
 78
     8
140
8.75
147
0.625
172
     1
173
     1
176
     2
177
     2
178
     7
271
     2
340
220
  0
DIMSTYLE
105
246
102
{ACAD_REACTORS
330
247
102
}
330
A
100
AcDbSymbolTableRecord
100
AcDbDimStyleTableRecord
  2
ME10_DIM_2
 70
     0
 41
8.75
 42
0.0
 44
2.5
 73
     0
 74
     0
 77
     1
 78
     8
140
8.75
147
0.625
172
     1
173
     1
176
     2
177
     2
178
     7
271
     2
340
206
  0
DIMSTYLE
105
254
102
{ACAD_REACTORS
330
255
102
}
330
A
100
AcDbSymbolTableRecord
100
AcDbDimStyleTableRecord
  2
ME10_DIM_3
 70
     0
 41
8.75
 42
0.0
 44
2.5
 73
     0
 74
     0
 77
     1
 78
     8
140
8.75
147
0.625
172
     1
173
     1
176
     2
177
     2
178
     7
271
     2
340
220
344
251
  0
DIMSTYLE
105
25F
102
{ACAD_REACTORS
330
260
102
}
330
A
100
AcDbSymbolTableRecord
100
AcDbDimStyleTableRecord
  2
ME10_DIM_4
 70
     0
 41
8.75
 42
0.0
 44
2.5
 73
     0
 74
     0
 77
     1
 78
     8
140
8.75
147
0.625
172
     1
173
     1
176
     2
177
     2
178
     7
271
     2
340
220
  0
DIMSTYLE
105
26A
102
{ACAD_REACTORS
330
26B
102
}
330
A
100
AcDbSymbolTableRecord
100
AcDbDimStyleTableRecord
  2
ME10_DIM_5
 70
     0
 41
8.75
 42
0.0
 44
2.5
 73
     0
 74
     0
 77
     1
 78
     8
140
8.75
147
0.625
172
     1
173
     1
176
     2
177
     2
178
     7
271
     2
340
220
  0
DIMSTYLE
105
275
102
{ACAD_REACTORS
330
276
102
}
330
A
100
AcDbSymbolTableRecord
100
AcDbDimStyleTableRecord
  2
ME10_DIM_6
 70
     0
 41
8.75
 42
0.0
 44
2.5
 73
     0
 74
     0
 77
     1
 78
     8
140
8.75
147
0.625
172
     1
173
     1
176
     2
177
     2
178
     7
271
     2
340
220
  0
ENDTAB
  0
TABLE
  2
BLOCK_RECORD
  5
1
330
0
100
AcDbSymbolTable
 70
    19
  0
BLOCK_RECORD
  5
1F
330
1
100
AcDbSymbolTableRecord
100
AcDbBlockTableRecord
  2
*Model_Space
340
22
  0
BLOCK_RECORD
  5
1B
330
1
100
AcDbSymbolTableRecord
100
AcDbBlockTableRecord
  2
*Paper_Space
340
1E
  0
BLOCK_RECORD
  5
23
330
1
100
AcDbSymbolTableRecord
100
AcDbBlockTableRecord
  2
*Paper_Space0
340
26
  0
BLOCK_RECORD
  5
36
330
1
100
AcDbSymbolTableRecord
100
AcDbBlockTableRecord
  2
51-1
340
0
102
{BLKREFS
331
54
102
}
  0
BLOCK_RECORD
  5
39
330
1
100
AcDbSymbolTableRecord
100
AcDbBlockTableRecord
  2
42-1
340
0
102
{BLKREFS
331
55
102
}
  0
BLOCK_RECORD
  5
3C
330
1
100
AcDbSymbolTableRecord
100
AcDbBlockTableRecord
  2
37-1-13
340
0
102
{BLKREFS
331
56
102
}
  0
BLOCK_RECORD
  5
3F
330
1
100
AcDbSymbolTableRecord
100
AcDbBlockTableRecord
  2
60-2-16-170
340
0
102
{BLKREFS
331
57
102
}
  0
BLOCK_RECORD
  5
42
330
1
100
AcDbSymbolTableRecord
100
AcDbBlockTableRecord
  2
30-111
340
0
102
{BLKREFS
331
58
102
}
  0
BLOCK_RECORD
  5
45
330
1
100
AcDbSymbolTableRecord
100
AcDbBlockTableRecord
  2
21-1A
340
0
102
{BLKREFS
331
59
102
}
  0
BLOCK_RECORD
  5
48
330
1
100
AcDbSymbolTableRecord
100
AcDbBlockTableRecord
  2
36-1A-13-M4
340
0
102
{BLKREFS
331
5A
102
}
  0
BLOCK_RECORD
  5
4B
330
1
100
AcDbSymbolTableRecord
100
AcDbBlockTableRecord
  2
A10-0A-13
340
0
102
{BLKREFS
331
5B
102
}
  0
BLOCK_RECORD
  5
4E
330
1
100
AcDbSymbolTableRecord
100
AcDbBlockTableRecord
  2
32-1-16
340
0
102
{BLKREFS
331
5C
102
}
  0
BLOCK_RECORD
  5
51
330
1
100
AcDbSymbolTableRecord
100
AcDbBlockTableRecord
  2
_J__A4
340
0
102
{BLKREFS
331
5D
102
}
  0
BLOCK_RECORD
  5
227
330
1
100
AcDbSymbolTableRecord
100
AcDbBlockTableRecord
  2
*D011
340
0
  0
BLOCK_RECORD
  5
232
330
1
100
AcDbSymbolTableRecord
100
AcDbBlockTableRecord
  2
*D112
340
0
  0
BLOCK_RECORD
  5
23D
330
1
100
AcDbSymbolTableRecord
100
AcDbBlockTableRecord
  2
*D213
340
0
  0
BLOCK_RECORD
  5
248
330
1
100
AcDbSymbolTableRecord
100
AcDbBlockTableRecord
  2
*D314
340
0
  0
BLOCK_RECORD
  5
251
330
1
100
AcDbSymbolTableRecord
100
AcDbBlockTableRecord
  2
_None
340
0
  0
BLOCK_RECORD
  5
256
330
1
100
AcDbSymbolTableRecord
100
AcDbBlockTableRecord
  2
*D416
340
0
  0
BLOCK_RECORD
  5
261
330
1
100
AcDbSymbolTableRecord
100
AcDbBlockTableRecord
  2
*D517
340
0
  0
BLOCK_RECORD
  5
26C
330
1
100
AcDbSymbolTableRecord
100
AcDbBlockTableRecord
  2
*D618
340
0
  0
ENDTAB
  0
ENDSEC
  0
SECTION
  2
BLOCKS
  0
BLOCK
  5
20
330
1F
100
AcDbEntity
  8
0
100
AcDbBlockBegin
  2
*Model_Space
 70
     0
 71
     0
 10
0.0
 20
0.0
 30
0.0
  3
*Model_Space
  1

  0
ENDBLK
  5
21
330
1F
100
AcDbEntity
  8
0
100
AcDbBlockEnd
  0
BLOCK
  5
1C
330
1B
100
AcDbEntity
 67
     1
  8
0
100
AcDbBlockBegin
  2
*Paper_Space
 70
     0
 71
     0
 10
0.0
 20
0.0
 30
0.0
  3
*Paper_Space
  1

  0
ENDBLK
  5
1D
330
1B
100
AcDbEntity
 67
     1
  8
0
100
AcDbBlockEnd
  0
BLOCK
  5
24
330
23
100
AcDbEntity
  8
0
100
AcDbBlockBegin
  2
*Paper_Space0
 70
     0
 71
     0
 10
0.0
 20
0.0
 30
0.0
  3
*Paper_Space0
  1

  0
ENDBLK
  5
25
330
23
100
AcDbEntity
  8
0
100
AcDbBlockEnd
  0
BLOCK
  5
37
330
36
100
AcDbEntity
  8
0
100
AcDbBlockBegin
  2
51-1
 70
     0
 71
     0
 10
2366.381596934457
 20
468.3565628672219
 30
0.0
  3
51-1
  1

  0
LINE
  5
5E
330
36
100
AcDbEntity
  8
1
  6
Continuous
 62
     7
100
AcDbLine
 10
153.8284208081437
 20
306.1137913451001
 30
0.0
 11
153.8284208081437
 21
309.0007002504675
 31
0.0
  0
LINE
  5
5F
330
36
100
AcDbEntity
  8
1
  6
Continuous
 62
     7
100
AcDbLine
 10
98.53688255018062
 20
309.0007002504675
 30
0.0
 11
98.53688255018062
 21
306.1137913451001
 31
0.0
  0
LINE
  5
60
330
36
100
AcDbEntity
  8
1
  6
Continuous
 62
     7
100
AcDbLine
 10
153.3332867737733
 20
305.6137913451001
 30
0.0
 11
99.03201658455129
 21
305.6137913451001
 31
0.0
  0
LINE
  5
61
330
36
100
AcDbEntity
  8
1
  6
Continuous
 62
     7
100
AcDbLine
 10
418.199006644457
 20
305.6137913451001
 30
0.0
 11
369.699006644457
 21
305.6137913451001
 31
0.0
  0
LINE
  5
62
330
36
100
AcDbEntity
  8
1
  6
Continuous
 62
     7
100
AcDbLine
 10
369.199006644457
 20
309.0007002504675
 30
0.0
 11
369.199006644457
 21
306.1137913451001
 31
0.0
  0
LINE
  5
63
330
36
100
AcDbEntity
  8
1
  6
Continuous
 62
     7
100
AcDbLine
 10
418.699006644457
 20
308.5887407675098
 30
0.0
 11
418.699006644457
 21
306.1137913451001
 31
0.0
  0
ARC
  5
64
330
36
100
AcDbEntity
  8
1
  6
Continuous
 62
     7
100
AcDbCircle
 10
124.6055362436529
 20
191.9725608769119
 30
0.0
 40
125.3087410656459
100
AcDbArc
 50
78.83482165015538
 51
87.03710349078962
  0
ARC
  5
65
330
36
100
AcDbEntity
  8
1
  6
Continuous
 62
     7
100
AcDbCircle
 10
127.7597671146715
 20
191.9725608769119
 30
0.0
 40
125.308741065646
100
AcDbArc
 50
92.96289650921044
 51
101.1651783498446
  0
ARC
  5
66
330
36
100
AcDbEntity
  8
1
  6
Continuous
 62
     7
100
AcDbCircle
 10
387.1949617859212
 20
238.4404580897186
 30
0.0
 40
80.64072525632042
100
AcDbArc
 50
70.02008322088783
 51
73.1921064852487
  0
ARC
  5
67
330
36
100
AcDbEntity
  8
1
  6
Continuous
 62
     7
100
AcDbCircle
 10
400.099006644457
 20
168.5821252676797
 30
0.0
 40
148.6092050572047
100
AcDbArc
 50
91.85094579686897
 51
100.0532276375032
  0
ARC
  5
68
330
36
100
AcDbEntity
  8
1
  6
Continuous
 62
     7
100
AcDbCircle
 10
402.1478884570673
 20
295.55362658011
 30
0.0
 40
21.76119949013524
100
AcDbArc
 50
68.44320528903191
 51
82.20588758494822
  0
ARC
  5
69
330
36
100
AcDbEntity
  8
1
  6
Continuous
 62
     7
100
AcDbCircle
 10
153.3284208081437
 20
306.1137913451001
 30
0.0
 40
0.5
100
AcDbArc
 50
-90.0
 51
0.0
  0
ARC
  5
6A
330
36
100
AcDbEntity
  8
1
  6
Continuous
 62
     7
100
AcDbCircle
 10
147.8284208081437
 20
309.0007002504675
 30
0.0
 40
6.0
100
AcDbArc
 50
0.0
 51
80.00215651243097
  0
ARC
  5
6B
330
36
100
AcDbEntity
  8
1
  6
Continuous
 62
     7
100
AcDbCircle
 10
104.5368825501806
 20
309.0007002504675
 30
0.0
 40
5.999999999999987
100
AcDbArc
 50
99.99784348756811
 51
180.0
  0
ARC
  5
6C
330
36
100
AcDbEntity
  8
1
  6
Continuous
 62
     7
100
AcDbCircle
 10
99.03688255018062
 20
306.1137913451001
 30
0.0
 40
0.5
100
AcDbArc
 50
180.0
 51
-90.0
  0
ARC
  5
6D
330
36
100
AcDbEntity
  8
1
  6
Continuous
 62
     7
100
AcDbCircle
 10
369.699006644457
 20
306.1137913451001
 30
0.0
 40
0.5
100
AcDbArc
 50
180.0
 51
-90.0
  0
ARC
  5
6E
330
36
100
AcDbEntity
  8
1
  6
Continuous
 62
     7
100
AcDbCircle
 10
375.199006644457
 20
309.0007002504675
 30
0.0
 40
6.000000000000004
100
AcDbArc
 50
99.99784348756903
 51
180.0
  0
ARC
  5
6F
330
36
100
AcDbEntity
  8
1
  6
Continuous
 62
     7
100
AcDbCircle
 10
407.9912980479477
 20
310.1919814820421
 30
0.0
 40
5.999999999999864
100
AcDbArc
 50
65.14402107788189
 51
68.98000123350882
  0
ARC
  5
70
330
36
100
AcDbEntity
  8
1
  6
Continuous
 62
     7
100
AcDbCircle
 10
418.199006644457
 20
306.1137913451001
 30
0.0
 40
0.5
100
AcDbArc
 50
-90.0
 51
0.0
  0
ARC
  5
71
330
36
100
AcDbEntity
  8
1
  6
Continuous
 62
     7
100
AcDbCircle
 10
412.699006644457
 20
308.5887407675098
 30
0.0
 40
6.0
100
AcDbArc
 50
0.0
 51
70.02008322088796
  0
ENDBLK
  5
38
330
36
100
AcDbEntity
  8
0
100
AcDbBlockEnd
  0
BLOCK
  5
3A
330
39
100
AcDbEntity
  8
0
100
AcDbBlockBegin
  2
42-1
 70
     0
 71
     0
 10
312.0947465578524
 20
110.3241423355148
 30
0.0
  3
42-1
  1

  0
LINE
  5
72
330
39
100
AcDbEntity
  8
1
  6
Continuous
 62
     7
100
AcDbLine
 10
393.199006644456
 20
320.1137913450996
 30
0.0
 11
407.199006644456
 21
320.1137913450996
 31
0.0
  0
LINE
  5
73
330
39
100
AcDbEntity
  8
1
  6
Continuous
 62
     7
100
AcDbLine
 10
394.449006644456
 20
320.4435570653034
 30
0.0
 11
405.9490066444558
 21
320.4435570653034
 31
0.0
  0
LINE
  5
74
330
39
100
AcDbEntity
  8
1
  6
Continuous
 62
     2
100
AcDbLine
 10
399.199006644456
 20
319.3561294472709
 30
0.0
 11
399.199006644456
 21
318.0908903566604
 31
0.0
  0
LINE
  5
75
330
39
100
AcDbEntity
  8
1
  6
Continuous
 62
     2
100
AcDbLine
 10
398.199006644456
 20
319.5994446570036
 30
0.0
 11
398.199006644456
 21
317.8313541329454
 31
0.0
  0
LINE
  5
76
330
39
100
AcDbEntity
  8
1
  6
Continuous
 62
     2
100
AcDbLine
 10
397.199006644456
 20
319.810317838772
 30
0.0
 11
397.199006644456
 21
317.4744918253374
 31
0.0
  0
LINE
  5
77
330
39
100
AcDbEntity
  8
1
  6
Continuous
 62
     2
100
AcDbLine
 10
396.199006644456
 20
319.9238649366473
 30
0.0
 11
396.199006644456
 21
317.2798396575512
 31
0.0
  0
LINE
  5
78
330
39
100
AcDbEntity
  8
1
  6
Continuous
 62
     2
100
AcDbLine
 10
395.199006644456
 20
320.1137913450996
 30
0.0
 11
395.199006644456
 21
317.1137913450996
 31
0.0
  0
LINE
  5
79
330
39
100
AcDbEntity
  8
1
  6
Continuous
 62
     7
100
AcDbLine
 10
393.199006644456
 20
317.1137913450996
 30
0.0
 11
407.199006644456
 21
317.1137913450996
 31
0.0
  0
LINE
  5
7A
330
39
100
AcDbEntity
  8
1
  6
Continuous
 62
     2
100
AcDbLine
 10
394.199006644456
 20
320.1137913450996
 30
0.0
 11
394.199006644456
 21
317.1137913450996
 31
0.0
  0
LINE
  5
7B
330
39
100
AcDbEntity
  8
1
  6
Continuous
 62
     7
100
AcDbLine
 10
393.199006644456
 20
320.1137913450996
 30
0.0
 11
394.1990066444558
 21
320.3831135441228
 31
0.0
  0
LINE
  5
7C
330
39
100
AcDbEntity
  8
1
  6
Continuous
 62
     7
100
AcDbLine
 10
393.199006644456
 20
317.1137913450996
 30
0.0
 11
393.199006644456
 21
320.1137913450996
 31
0.0
  0
LINE
  5
7D
330
39
100
AcDbEntity
  8
1
  6
Continuous
 62
     7
100
AcDbLine
 10
407.199006644456
 20
320.1137913450996
 30
0.0
 11
407.199006644456
 21
317.1137913450996
 31
0.0
  0
LINE
  5
7E
330
39
100
AcDbEntity
  8
1
  6
Continuous
 62
     7
100
AcDbLine
 10
406.199006644456
 20
320.3831135441228
 30
0.0
 11
407.199006644456
 21
320.1137913450996
 31
0.0
  0
LINE
  5
7F
330
39
100
AcDbEntity
  8
1
  6
Continuous
 62
     2
100
AcDbLine
 10
406.199006644456
 20
317.1137913450996
 30
0.0
 11
406.199006644456
 21
320.1137913450996
 31
0.0
  0
LINE
  5
80
330
39
100
AcDbEntity
  8
1
  6
Continuous
 62
     2
100
AcDbLine
 10
405.1990066444558
 20
317.1137913450996
 30
0.0
 11
405.1990066444558
 21
320.1137913450996
 31
0.0
  0
LINE
  5
81
330
39
100
AcDbEntity
  8
1
  6
Continuous
 62
     2
100
AcDbLine
 10
404.1990066444558
 20
317.2798396575512
 30
0.0
 11
404.1990066444558
 21
319.9238649366473
 31
0.0
  0
LINE
  5
82
330
39
100
AcDbEntity
  8
1
  6
Continuous
 62
     2
100
AcDbLine
 10
403.1990066444558
 20
317.4744918253374
 30
0.0
 11
403.1990066444558
 21
319.810317838772
 31
0.0
  0
LINE
  5
83
330
39
100
AcDbEntity
  8
1
  6
Continuous
 62
     2
100
AcDbLine
 10
402.1990066444558
 20
317.8313541329454
 30
0.0
 11
402.1990066444558
 21
319.5994446570036
 31
0.0
  0
LINE
  5
84
330
39
100
AcDbEntity
  8
1
  6
Continuous
 62
     2
100
AcDbLine
 10
401.1990066444558
 20
318.0908903566604
 30
0.0
 11
401.1990066444558
 21
319.3561294472709
 31
0.0
  0
LINE
  5
85
330
39
100
AcDbEntity
  8
1
  6
Continuous
 62
     7
100
AcDbLine
 10
119.1826516791612
 20
320.1137913450996
 30
0.0
 11
133.1826516791612
 21
320.1137913450996
 31
0.0
  0
LINE
  5
86
330
39
100
AcDbEntity
  8
1
  6
Continuous
 62
     7
100
AcDbLine
 10
120.4326516791612
 20
320.4435570653034
 30
0.0
 11
131.9326516791612
 21
320.4435570653034
 31
0.0
  0
LINE
  5
87
330
39
100
AcDbEntity
  8
1
  6
Continuous
 62
     2
100
AcDbLine
 10
125.1826516791612
 20
319.3561294472709
 30
0.0
 11
125.1826516791612
 21
318.0908903566604
 31
0.0
  0
LINE
  5
88
330
39
100
AcDbEntity
  8
1
  6
Continuous
 62
     2
100
AcDbLine
 10
124.1826516791612
 20
319.5994446570036
 30
0.0
 11
124.1826516791612
 21
317.8313541329454
 31
0.0
  0
LINE
  5
89
330
39
100
AcDbEntity
  8
1
  6
Continuous
 62
     2
100
AcDbLine
 10
123.1826516791612
 20
319.810317838772
 30
0.0
 11
123.1826516791612
 21
317.4744918253374
 31
0.0
  0
LINE
  5
8A
330
39
100
AcDbEntity
  8
1
  6
Continuous
 62
     2
100
AcDbLine
 10
122.1826516791612
 20
319.9238649366473
 30
0.0
 11
122.1826516791612
 21
317.2798396575512
 31
0.0
  0
LINE
  5
8B
330
39
100
AcDbEntity
  8
1
  6
Continuous
 62
     2
100
AcDbLine
 10
121.1826516791612
 20
320.1137913450996
 30
0.0
 11
121.1826516791612
 21
317.1137913450996
 31
0.0
  0
LINE
  5
8C
330
39
100
AcDbEntity
  8
1
  6
Continuous
 62
     7
100
AcDbLine
 10
119.1826516791612
 20
317.1137913450996
 30
0.0
 11
133.1826516791612
 21
317.1137913450996
 31
0.0
  0
LINE
  5
8D
330
39
100
AcDbEntity
  8
1
  6
Continuous
 62
     2
100
AcDbLine
 10
120.1826516791612
 20
320.1137913450996
 30
0.0
 11
120.1826516791612
 21
317.1137913450996
 31
0.0
  0
LINE
  5
8E
330
39
100
AcDbEntity
  8
1
  6
Continuous
 62
     7
100
AcDbLine
 10
119.1826516791612
 20
320.1137913450996
 30
0.0
 11
120.1826516791612
 21
320.3831135441228
 31
0.0
  0
LINE
  5
8F
330
39
100
AcDbEntity
  8
1
  6
Continuous
 62
     7
100
AcDbLine
 10
119.1826516791612
 20
317.1137913450996
 30
0.0
 11
119.1826516791612
 21
320.1137913450996
 31
0.0
  0
LINE
  5
90
330
39
100
AcDbEntity
  8
1
  6
Continuous
 62
     7
100
AcDbLine
 10
133.1826516791612
 20
320.1137913450996
 30
0.0
 11
133.1826516791612
 21
317.1137913450996
 31
0.0
  0
LINE
  5
91
330
39
100
AcDbEntity
  8
1
  6
Continuous
 62
     7
100
AcDbLine
 10
132.1826516791612
 20
320.3831135441228
 30
0.0
 11
133.1826516791612
 21
320.1137913450996
 31
0.0
  0
LINE
  5
92
330
39
100
AcDbEntity
  8
1
  6
Continuous
 62
     2
100
AcDbLine
 10
132.1826516791612
 20
317.1137913450996
 30
0.0
 11
132.1826516791612
 21
320.1137913450996
 31
0.0
  0
LINE
  5
93
330
39
100
AcDbEntity
  8
1
  6
Continuous
 62
     2
100
AcDbLine
 10
131.1826516791612
 20
317.1137913450996
 30
0.0
 11
131.1826516791612
 21
320.1137913450996
 31
0.0
  0
LINE
  5
94
330
39
100
AcDbEntity
  8
1
  6
Continuous
 62
     2
100
AcDbLine
 10
130.1826516791612
 20
317.2798396575512
 30
0.0
 11
130.1826516791612
 21
319.9238649366473
 31
0.0
  0
LINE
  5
95
330
39
100
AcDbEntity
  8
1
  6
Continuous
 62
     2
100
AcDbLine
 10
129.1826516791612
 20
317.4744918253374
 30
0.0
 11
129.1826516791612
 21
319.810317838772
 31
0.0
  0
LINE
  5
96
330
39
100
AcDbEntity
  8
1
  6
Continuous
 62
     2
100
AcDbLine
 10
128.1826516791612
 20
317.8313541329454
 30
0.0
 11
128.1826516791612
 21
319.5994446570036
 31
0.0
  0
LINE
  5
97
330
39
100
AcDbEntity
  8
1
  6
Continuous
 62
     2
100
AcDbLine
 10
127.1826516791612
 20
318.0908903566604
 30
0.0
 11
127.1826516791612
 21
319.3561294472709
 31
0.0
  0
ARC
  5
98
330
39
100
AcDbEntity
  8
1
  6
Continuous
 62
     7
100
AcDbCircle
 10
400.199006644456
 20
296.1137913450996
 30
0.0
 40
25.0
100
AcDbArc
 50
90.0
 51
103.8865403626295
  0
ARC
  5
99
330
39
100
AcDbEntity
  8
1
  6
Continuous
 62
     7
100
AcDbCircle
 10
400.199006644456
 20
296.1137913450996
 30
0.0
 40
24.99999999999999
100
AcDbArc
 50
76.11345963737101
 51
90.0
  0
ARC
  5
9A
330
39
100
AcDbEntity
  8
1
  6
Continuous
 62
     7
100
AcDbCircle
 10
126.1826516791612
 20
296.1137913450996
 30
0.0
 40
25.0
100
AcDbArc
 50
90.0
 51
103.886540362629
  0
ARC
  5
9B
330
39
100
AcDbEntity
  8
1
  6
Continuous
 62
     7
100
AcDbCircle
 10
126.1826516791612
 20
296.1137913450996
 30
0.0
 40
24.99999999999999
100
AcDbArc
 50
76.11345963737097
 51
90.0
  0
CIRCLE
  5
9C
330
39
100
AcDbEntity
  8
1
  6
Continuous
 62
     7
100
AcDbCircle
 10
126.1826516791612
 20
571.2805244703015
 30
0.0
 40
5.750000000000014
  0
CIRCLE
  5
9D
330
39
100
AcDbEntity
  8
1
  6
Continuous
 62
     7
100
AcDbCircle
 10
126.1826516791612
 20
571.2805244703015
 30
0.0
 40
7.000000000000014
  0
ENDBLK
  5
3B
330
39
100
AcDbEntity
  8
0
100
AcDbBlockEnd
  0
BLOCK
  5
3D
330
3C
100
AcDbEntity
  8
0
100
AcDbBlockBegin
  2
37-1-13
 70
     0
 71
     0
 10
308.3977764276849
 20
146.1180854549551
 30
0.0
  3
37-1-13
  1

  0
LINE
  5
9E
330
3C
100
AcDbEntity
  8
1
  6
Continuous
 62
     7
100
AcDbLine
 10
126.1826516791612
 20
295.1845055593711
 30
0.0
 11
135.9377463495852
 21
295.1845055593711
 31
0.0
  0
LINE
  5
9F
330
3C
100
AcDbEntity
  8
1
  6
Continuous
 62
     7
100
AcDbLine
 10
116.4275570087372
 20
295.1845055593711
 30
0.0
 11
126.1826516791612
 21
295.1845055593711
 31
0.0
  0
LINE
  5
A0
330
3C
100
AcDbEntity
  8
1
  6
Continuous
 62
     7
100
AcDbLine
 10
406.199006644456
 20
302.1137913450996
 30
0.0
 11
394.199006644456
 21
302.1137913450996
 31
0.0
  0
LINE
  5
A1
330
3C
100
AcDbEntity
  8
1
  6
Continuous
 62
     7
100
AcDbLine
 10
413.2697208587273
 20
288.1137913450996
 30
0.0
 11
387.1282924301844
 21
288.1137913450996
 31
0.0
  0
LINE
  5
A2
330
3C
100
AcDbEntity
  8
1
  6
Continuous
 62
     7
100
AcDbLine
 10
387.6990066444561
 20
295.6137913450997
 30
0.0
 11
400.199006644456
 21
295.6137913450996
 31
0.0
  0
LINE
  5
A3
330
3C
100
AcDbEntity
  8
1
  6
Continuous
 62
     7
100
AcDbLine
 10
400.199006644456
 20
295.6137913450996
 30
0.0
 11
412.6990066444557
 21
295.6137913450997
 31
0.0
  0
LINE
  5
A4
330
3C
100
AcDbEntity
  8
1
  6
Continuous
 62
     7
100
AcDbLine
 10
126.1826516791612
 20
302.1137913450996
 30
0.0
 11
121.1826516791612
 21
302.1137913450996
 31
0.0
  0
LINE
  5
A5
330
3C
100
AcDbEntity
  8
1
  6
Continuous
 62
     7
100
AcDbLine
 10
126.1826516791612
 20
302.1137913450996
 30
0.0
 11
132.1826516791612
 21
302.1137913450996
 31
0.0
  0
LINE
  5
A6
330
3C
100
AcDbEntity
  8
1
  6
Continuous
 62
     7
100
AcDbLine
 10
121.1826516791612
 20
302.1137913450996
 30
0.0
 11
120.1826516791612
 21
302.1137913450996
 31
0.0
  0
LINE
  5
A7
330
3C
100
AcDbEntity
  8
1
  6
Continuous
 62
     7
100
AcDbLine
 10
126.1826516791612
 20
288.1137913450996
 30
0.0
 11
139.1826516791612
 21
288.1137913450996
 31
0.0
  0
LINE
  5
A8
330
3C
100
AcDbEntity
  8
1
  6
Continuous
 62
     7
100
AcDbLine
 10
126.1826516791612
 20
288.1137913450996
 30
0.0
 11
113.1826516791612
 21
288.1137913450996
 31
0.0
  0
LINE
  5
A9
330
3C
100
AcDbEntity
  8
1
  6
Continuous
 62
     7
100
AcDbLine
 10
139.1826516791612
 20
295.1845055593711
 30
0.0
 11
139.1826516791612
 21
288.1137913450996
 31
0.0
  0
LINE
  5
AA
330
3C
100
AcDbEntity
  8
1
  6
Continuous
 62
     7
100
AcDbLine
 10
113.1826516791612
 20
288.1137913450996
 30
0.0
 11
113.1826516791612
 21
295.1845055593711
 31
0.0
  0
ARC
  5
AB
330
3C
100
AcDbEntity
  8
1
  6
Continuous
 62
     7
100
AcDbCircle
 10
390.699006644456
 20
291.6137913450996
 30
0.0
 40
4.999999999999977
100
AcDbArc
 50
126.8698976458426
 51
-135.5729959991959
  0
ARC
  5
AC
330
3C
100
AcDbEntity
  8
1
  6
Continuous
 62
     7
100
AcDbCircle
 10
374.292551439341
 20
315.5202465502146
 30
0.0
 40
24.0000000000001
100
AcDbArc
 50
-56.04080749990217
 51
-33.95919250009754
  0
ARC
  5
AD
330
3C
100
AcDbEntity
  8
1
  6
Continuous
 62
     7
100
AcDbCircle
 10
409.699006644456
 20
291.6137913450996
 30
0.0
 40
4.999999999999894
100
AcDbArc
 50
-44.4270040008069
 51
53.13010235415897
  0
ARC
  5
AE
330
3C
100
AcDbEntity
  8
1
  6
Continuous
 62
     7
100
AcDbCircle
 10
426.1054618495708
 20
315.5202465502146
 30
0.0
 40
23.99999999999994
100
AcDbArc
 50
-146.0408074999022
 51
-123.9591925000978
  0
ARC
  5
AF
330
3C
100
AcDbEntity
  8
1
  6
Continuous
 62
     7
100
AcDbCircle
 10
152.0891068842763
 20
315.5202465502145
 30
0.0
 40
24.00000000000011
100
AcDbArc
 50
-146.0408074999029
 51
-123.959192500098
  0
ARC
  5
B0
330
3C
100
AcDbEntity
  8
1
  6
Continuous
 62
     7
100
AcDbCircle
 10
135.6826516791612
 20
291.6137913450996
 30
0.0
 40
5.000000000000016
100
AcDbArc
 50
45.57299599919448
 51
53.13010235415637
  0
ARC
  5
B1
330
3C
100
AcDbEntity
  8
1
  6
Continuous
 62
     7
100
AcDbCircle
 10
100.2761964740465
 20
315.5202465502145
 30
0.0
 40
24.0
100
AcDbArc
 50
-56.04080749990202
 51
-33.95919250009769
  0
ARC
  5
B2
330
3C
100
AcDbEntity
  8
1
  6
Continuous
 62
     7
100
AcDbCircle
 10
116.6826516791612
 20
291.6137913450996
 30
0.0
 40
4.999999999999806
100
AcDbArc
 50
126.86989764584
 51
134.4270040008055
  0
SPLINE
  5
B3
330
3C
100
AcDbEntity
  8
1
  6
Continuous
 62
     7
100
AcDbSpline
210
0.0
220
0.0
230
1.0
 70
    11
 71
     3
 72
    79
 73
    75
 74
    73
 42
0.0000000001
 43
0.0000000001
 44
0.00000001
 40
0.0
 40
0.0
 40
0.0
 40
0.0
 40
0.316043646596318
 40
0.6318966345054217
 40
0.963939131884035
 40
1.295702698074509
 40
1.650847227467496
 40
2.00572778919753
 40
2.387357022598988
 40
2.768780714705241
 40
3.176769171734287
 40
3.584612394008323
 40
4.015944751163572
 40
4.447181172428135
 40
4.896666773394826
 40
5.346094681847095
 40
5.807047420514826
 40
6.26797315233007
 40
6.73283506037447
 40
7.197696968418869
 40
7.658622700234147
 40
8.11957543890184
 40
8.569003347354137
 40
9.018488948320828
 40
9.449725369585417
 40
9.881057726740744
 40
10.28890094901476
 40
10.69688940604369
 40
11.07831309814979
 40
11.45994233155126
 40
11.81482289328134
 40
12.16996742267439
 40
12.50173098886483
 40
12.83377348624342
 40
13.14962647415258
 40
13.46567012074882
 40
13.7758925555562
 40
14.08611499036351
 40
14.4021586369598
 40
14.71801162486898
 40
15.05005412224768
 40
15.38181768843812
 40
15.73696221783111
 40
16.09184277956118
 40
16.47347201296262
 40
16.85489570506873
 40
17.26288416209766
 40
17.67072738437165
 40
18.10205974152697
 40
18.53329616279165
 40
18.98278176375842
 40
19.43220967221069
 40
19.89316241087832
 40
20.35408814269356
 40
20.81895005073799
 40
21.28381195878248
 40
21.74473769059775
 40
22.20569042926542
 40
22.65511833771762
 40
23.1046039386843
 40
23.53584035994888
 40
23.96717271710428
 40
24.37501593937831
 40
24.78300439640725
 40
25.16442808851329
 40
25.54605732191477
 40
25.90093788364483
 40
26.25608241303794
 40
26.58784597922839
 40
26.91988847660704
 40
27.23574146451613
 40
27.55178511111244
 40
27.86200754591976
 40
28.17222998072714
 40
28.17222998072714
 40
28.17222998072714
 40
28.17222998072714
 10
127.1412657039304
 20
291.9586752870217
 30
0.0
 10
127.1590576132827
 20
292.0626693140064
 30
0.0
 10
127.1946306987163
 20
292.2705946318163
 30
0.0
 10
127.3007714216066
 20
292.5752403561861
 30
0.0
 10
127.4418247602117
 20
292.8703986462101
 30
0.0
 10
127.6240746788852
 20
293.1579100951084
 30
0.0
 10
127.8402899276892
 20
293.4304333202502
 30
0.0
 10
128.0942288242463
 20
293.6918213888332
 30
0.0
 10
128.3778176438472
 20
293.9343548347832
 30
0.0
 10
128.6954151264316
 20
294.162027496129
 30
0.0
 10
129.037719810152
 20
294.3680083030406
 30
0.0
 10
129.4091755030414
 20
294.5554503975463
 30
0.0
 10
129.800119077774
 20
294.7191056583529
 30
0.0
 10
130.2141430871058
 20
294.8609582300575
 30
0.0
 10
130.6422402364936
 20
294.9775183277621
 30
0.0
 10
131.086324544768
 20
295.0697397008727
 30
0.0
 10
131.5389177943966
 20
295.1356836405723
 30
0.0
 10
131.9996876653893
 20
295.1756909231804
 30
0.0
 10
132.463305143477
 20
295.1889316160839
 30
0.0
 10
132.9269226215782
 20
295.1756909231815
 30
0.0
 10
133.3876924925304
 20
295.135683640568
 30
0.0
 10
133.840285742306
 20
295.0697397008883
 30
0.0
 10
134.284370050046
 20
294.9775183277059
 30
0.0
 10
134.7124672013908
 20
294.860958230264
 30
0.0
 10
135.1264912037022
 20
294.7191056576167
 30
0.0
 10
135.5174348039395
 20
294.5554504002356
 30
0.0
 10
135.8888904065808
 20
294.3680082936079
 30
0.0
 10
136.2311954159825
 20
294.1620275304419
 30
0.0
 10
136.5487917582678
 20
293.9343547159307
 30
0.0
 10
136.8323846763688
 20
293.6918218204928
 30
0.0
 10
137.0863092926427
 20
293.4304318337767
 30
0.0
 10
137.302575891813
 20
293.1579155060362
 30
0.0
 10
137.4846460914943
 20
292.8703799172117
 30
0.0
 10
137.6263501687352
 20
292.5753090346595
 30
0.0
 10
137.7301739565075
 20
292.2703520986449
 30
0.0
 10
137.7917188642019
 20
291.9614909683089
 30
0.0
 10
137.8132349057303
 20
291.6491484522354
 30
0.0
 10
137.791718864202
 20
291.3368059361617
 30
0.0
 10
137.7301739565077
 20
291.0279448058257
 30
0.0
 10
137.6263501687352
 20
290.7229878698111
 30
0.0
 10
137.4846460914942
 20
290.4279169872589
 30
0.0
 10
137.3025758918129
 20
290.1403813984343
 30
0.0
 10
137.0863092926426
 20
289.8678650706939
 30
0.0
 10
136.8323846763687
 20
289.6064750839777
 30
0.0
 10
136.5487917582678
 20
289.3639421885399
 30
0.0
 10
136.2311954159825
 20
289.1362693740287
 30
0.0
 10
135.8888904065808
 20
288.9302886108625
 30
0.0
 10
135.5174348039396
 20
288.7428465042351
 30
0.0
 10
135.1264912037022
 20
288.5791912468538
 30
0.0
 10
134.7124672013908
 20
288.4373386742066
 30
0.0
 10
134.2843700500459
 20
288.3207785767648
 30
0.0
 10
133.8402857423058
 20
288.2285572035823
 30
0.0
 10
133.3876924925305
 20
288.1626132639024
 30
0.0
 10
132.9269226215777
 20
288.1226059812889
 30
0.0
 10
132.463305143479
 20
288.109365288387
 30
0.0
 10
131.9996876653814
 20
288.122605981289
 30
0.0
 10
131.5389177944255
 20
288.1626132639028
 30
0.0
 10
131.0863245446607
 20
288.2285572035813
 30
0.0
 10
130.6422402368826
 20
288.3207785767686
 30
0.0
 10
130.2141430856771
 20
288.4373386741919
 30
0.0
 10
129.8001190828663
 20
288.5791912469064
 30
0.0
 10
129.409175484443
 20
288.7428465040436
 30
0.0
 10
129.0377198753828
 20
288.9302886115336
 30
0.0
 10
128.6954148891453
 20
289.1362693715882
 30
0.0
 10
128.3778184657561
 20
289.3639421969933
 30
0.0
 10
128.0942258391614
 20
289.606475053276
 30
0.0
 10
127.8403002072006
 20
289.8678651764195
 30
0.0
 10
127.6240372603309
 20
290.1403810135814
 30
0.0
 10
127.441954278116
 20
290.427918319361
 30
0.0
 10
127.3002964847337
 20
290.7229829850469
 30
0.0
 10
127.1963079046907
 20
291.0279620560247
 30
0.0
 10
127.1353681025889
 20
291.3367419083374
 30
0.0
 10
127.1116326540105
 20
291.6493825360468
 30
0.0
 10
127.1313880206238
 20
291.8555777033633
 30
0.0
 10
127.1412657039304
 20
291.9586752870216
 30
0.0
 11
127.1412657039304
 21
291.9586752870217
 31
0.0
 11
127.2031480532168
 21
292.2686013449786
 31
0.0
 11
127.3042041801462
 21
292.5678516903103
 31
0.0
 11
127.4476578996147
 21
292.8673066125207
 31
0.0
 11
127.6244886130098
 21
293.148016360573
 31
0.0
 11
127.8447991838463
 21
293.4265677725879
 31
0.0
 11
128.0916067299698
 21
293.681570220165
 31
0.0
 11
128.3812170184953
 21
293.9300993986668
 31
0.0
 11
128.6909193374242
 21
294.1527392570705
 31
0.0
 11
129.0401959195734
 21
294.3635957253875
 31
0.0
 11
129.4041397208334
 21
294.5476636570847
 31
0.0
 11
129.8018362129068
 21
294.7146519875801
 31
0.0
 11
130.2097120460616
 21
294.8546596864873
 31
0.0
 11
130.6433204274223
 21
294.973070315614
 31
0.0
 11
131.0833331848749
 21
295.0645810700354
 31
0.0
 11
131.5394390682375
 21
295.1312507816536
 31
0.0
 11
131.9986353653771
 21
295.1711417698923
 31
0.0
 11
132.4633051434792
 21
295.1845055593711
 31
0.0
 11
132.9279749215813
 21
295.1711417698923
 31
0.0
 11
133.387171218721
 21
295.1312507816535
 31
0.0
 11
133.8432771020836
 21
295.0645810700354
 31
0.0
 11
134.2832898595362
 21
294.973070315614
 31
0.0
 11
134.7168982408969
 21
294.8546596864873
 31
0.0
 11
135.1247740740518
 21
294.7146519875801
 31
0.0
 11
135.5224705661252
 21
294.5476636570847
 31
0.0
 11
135.8864143673852
 21
294.3635957253875
 31
0.0
 11
136.2356909495342
 21
294.1527392570705
 31
0.0
 11
136.545393268463
 21
293.9300993986668
 31
0.0
 11
136.8350035569885
 21
293.681570220165
 31
0.0
 11
137.081811103112
 21
293.4265677725879
 31
0.0
 11
137.3021216739485
 21
293.148016360573
 31
0.0
 11
137.4789523873437
 21
292.8673066125207
 31
0.0
 11
137.6224061068122
 21
292.5678516903103
 31
0.0
 11
137.7234622337415
 21
292.2686013449785
 31
0.0
 11
137.7853445830278
 21
291.9586752870217
 31
0.0
 11
137.8061074731192
 21
291.6491484522353
 31
0.0
 11
137.785344583028
 21
291.339621617449
 31
0.0
 11
137.7234622337417
 21
291.0296955594921
 31
0.0
 11
137.6224061068122
 21
290.7304452141603
 31
0.0
 11
137.4789523873437
 21
290.4309902919498
 31
0.0
 11
137.3021216739485
 21
290.1502805438976
 31
0.0
 11
137.081811103112
 21
289.8717291318827
 31
0.0
 11
136.8350035569884
 21
289.6167266843056
 31
0.0
 11
136.545393268463
 21
289.3681975058038
 31
0.0
 11
136.2356909495342
 21
289.1455576474001
 31
0.0
 11
135.8864143673852
 21
288.9347011790831
 31
0.0
 11
135.5224705661253
 21
288.7506332473859
 31
0.0
 11
135.1247740740518
 21
288.5836449168904
 31
0.0
 11
134.7168982408968
 21
288.4436372179833
 31
0.0
 11
134.2832898595361
 21
288.3252265888566
 31
0.0
 11
133.8432771020835
 21
288.2337158344352
 31
0.0
 11
133.387171218721
 21
288.1670461228169
 31
0.0
 11
132.9279749215813
 21
288.1271551345782
 31
0.0
 11
132.4633051434792
 21
288.1137913450995
 31
0.0
 11
131.998635365377
 21
288.1271551345783
 31
0.0
 11
131.5394390682374
 21
288.167046122817
 31
0.0
 11
131.0833331848748
 21
288.2337158344352
 31
0.0
 11
130.6433204274223
 21
288.3252265888565
 31
0.0
 11
130.2097120460616
 21
288.4436372179833
 31
0.0
 11
129.8018362129067
 21
288.5836449168904
 31
0.0
 11
129.4041397208332
 21
288.7506332473859
 31
0.0
 11
129.0401959195732
 21
288.9347011790831
 31
0.0
 11
128.6909193374242
 21
289.1455576474002
 31
0.0
 11
128.3812170184955
 21
289.3681975058038
 31
0.0
 11
128.09160672997
 21
289.6167266843056
 31
0.0
 11
127.8447991838463
 21
289.8717291318826
 31
0.0
 11
127.6244886130098
 21
290.1502805438976
 31
0.0
 11
127.4476578996146
 21
290.4309902919498
 31
0.0
 11
127.3042041801461
 21
290.7304452141603
 31
0.0
 11
127.2031480532168
 21
291.029695559492
 31
0.0
 11
127.1412657039304
 21
291.3396216174489
 31
0.0
 11
127.120502813839
 21
291.6491484522352
 31
0.0
 11
127.1412657039304
 21
291.9586752870216
 31
0.0
  0
SPLINE
  5
B4
330
3C
100
AcDbEntity
  8
1
  6
Continuous
 62
     7
100
AcDbSpline
210
0.0
220
0.0
230
1.0
 70
    11
 71
     3
 72
    79
 73
    75
 74
    73
 42
0.0000000001
 43
0.0000000001
 44
0.00000001
 40
0.0
 40
0.0
 40
0.0
 40
0.0
 40
0.3160436465963152
 40
0.6318966345054234
 40
0.9639391318840245
 40
1.295702698074507
 40
1.650847227467466
 40
2.00572778919751
 40
2.38735702259899
 40
2.768780714705196
 40
3.176769171734145
 40
3.584612394008118
 40
4.01594475116334
 40
4.447181172427876
 40
4.896666773394608
 40
5.346094681846989
 40
5.807047420514803
 40
6.267973152329991
 40
6.732835060374335
 40
7.197696968418763
 40
7.658622700234054
 40
8.119575438901705
 40
8.569003347353961
 40
9.018488948320748
 40
9.449725369585419
 40
9.881057726740734
 40
10.28890094901472
 40
10.69688940604362
 40
11.07831309814973
 40
11.45994233155121
 40
11.81482289328132
 40
12.16996742267436
 40
12.50173098886478
 40
12.83377348624339
 40
13.14962647415253
 40
13.46567012074879
 40
13.77589255555616
 40
14.08611499036348
 40
14.4021586369598
 40
14.71801162486894
 40
15.05005412224759
 40
15.38181768843802
 40
15.73696221783104
 40
16.09184277956116
 40
16.47347201296265
 40
16.85489570506876
 40
17.2628841620976
 40
17.67072738437153
 40
18.10205974152684
 40
18.53329616279151
 40
18.98278176375834
 40
19.43220967221058
 40
19.89316241087819
 40
20.3540881426934
 40
20.81895005073787
 40
21.28381195878234
 40
21.74473769059762
 40
22.20569042926533
 40
22.65511833771757
 40
23.10460393868428
 40
23.53584035994882
 40
23.96717271710417
 40
24.37501593937821
 40
24.78300439640717
 40
25.16442808851324
 40
25.54605732191474
 40
25.90093788364475
 40
26.25608241303785
 40
26.58784597922827
 40
26.91988847660693
 40
27.23574146451603
 40
27.55178511111234
 40
27.86200754591966
 40
28.17222998072703
 40
28.17222998072703
 40
28.17222998072703
 40
28.17222998072703
 10
125.2240376543917
 20
291.9586752870217
 30
0.0
 10
125.2062457450394
 20
292.0626693140064
 30
0.0
 10
125.1706726596058
 20
292.2705946318162
 30
0.0
 10
125.0645319367155
 20
292.5752403561861
 30
0.0
 10
124.9234785981104
 20
292.8703986462101
 30
0.0
 10
124.7412286794369
 20
293.1579100951083
 30
0.0
 10
124.5250134306329
 20
293.4304333202503
 30
0.0
 10
124.2710745340759
 20
293.6918213888333
 30
0.0
 10
123.9874857144748
 20
293.9343548347831
 30
0.0
 10
123.6698882318906
 20
294.1620274961291
 30
0.0
 10
123.3275835481702
 20
294.3680083030406
 30
0.0
 10
122.956127855281
 20
294.5554503975462
 30
0.0
 10
122.5651842805484
 20
294.719105658353
 30
0.0
 10
122.1511602712166
 20
294.8609582300574
 30
0.0
 10
121.7230631218287
 20
294.9775183277622
 30
0.0
 10
121.2789788135543
 20
295.0697397008727
 30
0.0
 10
120.8263855639256
 20
295.1356836405723
 30
0.0
 10
120.3656156929329
 20
295.1756909231804
 30
0.0
 10
119.9019982148453
 20
295.1889316160839
 30
0.0
 10
119.4383807367441
 20
295.1756909231814
 30
0.0
 10
118.9776108657918
 20
295.135683640568
 30
0.0
 10
118.5250176160163
 20
295.0697397008883
 30
0.0
 10
118.0809333082763
 20
294.9775183277058
 30
0.0
 10
117.6528361569314
 20
294.8609582302641
 30
0.0
 10
117.23881215462
 20
294.7191056576166
 30
0.0
 10
116.8478685543826
 20
294.5554504002357
 30
0.0
 10
116.4764129517414
 20
294.3680082936079
 30
0.0
 10
116.1341079423397
 20
294.1620275304419
 30
0.0
 10
115.8165116000543
 20
293.9343547159306
 30
0.0
 10
115.5329186819535
 20
293.6918218204928
 30
0.0
 10
115.2789940656795
 20
293.4304318337767
 30
0.0
 10
115.0627274665092
 20
293.1579155060363
 30
0.0
 10
114.8806572668279
 20
292.8703799172116
 30
0.0
 10
114.738953189587
 20
292.5753090346595
 30
0.0
 10
114.6351294018147
 20
292.2703520986448
 30
0.0
 10
114.5735844941204
 20
291.961490968309
 30
0.0
 10
114.5520684525918
 20
291.6491484522353
 30
0.0
 10
114.5735844941203
 20
291.3368059361617
 30
0.0
 10
114.6351294018147
 20
291.0279448058257
 30
0.0
 10
114.7389531895871
 20
290.7229878698112
 30
0.0
 10
114.8806572668279
 20
290.4279169872589
 30
0.0
 10
115.0627274665092
 20
290.1403813984342
 30
0.0
 10
115.2789940656796
 20
289.8678650706939
 30
0.0
 10
115.5329186819535
 20
289.6064750839778
 30
0.0
 10
115.8165116000545
 20
289.3639421885399
 30
0.0
 10
116.1341079423397
 20
289.1362693740286
 30
0.0
 10
116.4764129517414
 20
288.9302886108626
 30
0.0
 10
116.8478685543826
 20
288.742846504235
 30
0.0
 10
117.2388121546199
 20
288.5791912468539
 30
0.0
 10
117.6528361569314
 20
288.4373386742066
 30
0.0
 10
118.0809333082763
 20
288.3207785767647
 30
0.0
 10
118.5250176160163
 20
288.2285572035824
 30
0.0
 10
118.9776108657916
 20
288.1626132639024
 30
0.0
 10
119.4383807367445
 20
288.1226059812889
 30
0.0
 10
119.9019982148431
 20
288.109365288387
 30
0.0
 10
120.3656156929407
 20
288.1226059812889
 30
0.0
 10
120.8263855638966
 20
288.1626132639028
 30
0.0
 10
121.2789788136615
 20
288.2285572035813
 30
0.0
 10
121.7230631214395
 20
288.3207785767686
 30
0.0
 10
122.1511602726451
 20
288.4373386741918
 30
0.0
 10
122.5651842754559
 20
288.5791912469064
 30
0.0
 10
122.9561278738791
 20
288.7428465040436
 30
0.0
 10
123.3275834829393
 20
288.9302886115336
 30
0.0
 10
123.6698884691769
 20
289.1362693715884
 30
0.0
 10
123.9874848925661
 20
289.3639421969933
 30
0.0
 10
124.2710775191608
 20
289.606475053276
 30
0.0
 10
124.5250031511216
 20
289.8678651764193
 30
0.0
 10
124.7412660979912
 20
290.1403810135815
 30
0.0
 10
124.9233490802061
 20
290.427918319361
 30
0.0
 10
125.0650068735884
 20
290.722982985047
 30
0.0
 10
125.1689954536314
 20
291.0279620560247
 30
0.0
 10
125.2299352557332
 20
291.3367419083374
 30
0.0
 10
125.2536707043116
 20
291.6493825360467
 30
0.0
 10
125.2339153376983
 20
291.8555777033633
 30
0.0
 10
125.2240376543917
 20
291.9586752870216
 30
0.0
 11
125.2240376543917
 21
291.9586752870217
 31
0.0
 11
125.1621553051053
 21
292.2686013449786
 31
0.0
 11
125.0610991781759
 21
292.5678516903103
 31
0.0
 11
124.9176454587075
 21
292.8673066125207
 31
0.0
 11
124.7408147453123
 21
293.148016360573
 31
0.0
 11
124.5205041744759
 21
293.4265677725879
 31
0.0
 11
124.2736966283523
 21
293.681570220165
 31
0.0
 11
123.9840863398268
 21
293.9300993986668
 31
0.0
 11
123.674384020898
 21
294.1527392570705
 31
0.0
 11
123.3251074387489
 21
294.3635957253875
 31
0.0
 11
122.961163637489
 21
294.5476636570847
 31
0.0
 11
122.5634671454156
 21
294.7146519875801
 31
0.0
 11
122.1555913122608
 21
294.8546596864873
 31
0.0
 11
121.7219829309001
 21
294.973070315614
 31
0.0
 11
121.2819701734474
 21
295.0645810700354
 31
0.0
 11
120.8258642900847
 21
295.1312507816536
 31
0.0
 11
120.3666679929451
 21
295.1711417698923
 31
0.0
 11
119.9019982148431
 21
295.1845055593711
 31
0.0
 11
119.4373284367409
 21
295.1711417698923
 31
0.0
 11
118.9781321396012
 21
295.1312507816535
 31
0.0
 11
118.5220262562387
 21
295.0645810700354
 31
0.0
 11
118.0820134987861
 21
294.973070315614
 31
0.0
 11
117.6484051174254
 21
294.8546596864873
 31
0.0
 11
117.2405292842704
 21
294.7146519875801
 31
0.0
 11
116.8428327921969
 21
294.5476636570847
 31
0.0
 11
116.478888990937
 21
294.3635957253875
 31
0.0
 11
116.129612408788
 21
294.1527392570705
 31
0.0
 11
115.8199100898592
 21
293.9300993986668
 31
0.0
 11
115.5302998013337
 21
293.681570220165
 31
0.0
 11
115.2834922552101
 21
293.4265677725879
 31
0.0
 11
115.0631816843736
 21
293.148016360573
 31
0.0
 11
114.8863509709785
 21
292.8673066125207
 31
0.0
 11
114.74289725151
 21
292.5678516903103
 31
0.0
 11
114.6418411245807
 21
292.2686013449785
 31
0.0
 11
114.5799587752943
 21
291.9586752870217
 31
0.0
 11
114.5591958852029
 21
291.6491484522353
 31
0.0
 11
114.5799587752943
 21
291.339621617449
 31
0.0
 11
114.6418411245807
 21
291.0296955594921
 31
0.0
 11
114.74289725151
 21
290.7304452141603
 31
0.0
 11
114.8863509709785
 21
290.4309902919498
 31
0.0
 11
115.0631816843736
 21
290.1502805438976
 31
0.0
 11
115.2834922552102
 21
289.8717291318827
 31
0.0
 11
115.5302998013338
 21
289.6167266843056
 31
0.0
 11
115.8199100898594
 21
289.3681975058038
 31
0.0
 11
116.1296124087881
 21
289.1455576474001
 31
0.0
 11
116.478888990937
 21
288.9347011790831
 31
0.0
 11
116.8428327921969
 21
288.7506332473859
 31
0.0
 11
117.2405292842703
 21
288.5836449168904
 31
0.0
 11
117.6484051174253
 21
288.4436372179833
 31
0.0
 11
118.0820134987861
 21
288.3252265888566
 31
0.0
 11
118.5220262562386
 21
288.2337158344352
 31
0.0
 11
118.9781321396012
 21
288.1670461228169
 31
0.0
 11
119.4373284367408
 21
288.1271551345782
 31
0.0
 11
119.9019982148429
 21
288.1137913450995
 31
0.0
 11
120.3666679929451
 21
288.1271551345783
 31
0.0
 11
120.8258642900848
 21
288.167046122817
 31
0.0
 11
121.2819701734474
 21
288.2337158344352
 31
0.0
 11
121.7219829308999
 21
288.3252265888565
 31
0.0
 11
122.1555913122606
 21
288.4436372179833
 31
0.0
 11
122.5634671454155
 21
288.5836449168904
 31
0.0
 11
122.9611636374889
 21
288.7506332473859
 31
0.0
 11
123.3251074387489
 21
288.9347011790831
 31
0.0
 11
123.674384020898
 21
289.1455576474002
 31
0.0
 11
123.9840863398267
 21
289.3681975058038
 31
0.0
 11
124.2736966283522
 21
289.6167266843056
 31
0.0
 11
124.5205041744758
 21
289.8717291318826
 31
0.0
 11
124.7408147453124
 21
290.1502805438976
 31
0.0
 11
124.9176454587075
 21
290.4309902919498
 31
0.0
 11
125.061099178176
 21
290.7304452141603
 31
0.0
 11
125.1621553051053
 21
291.029695559492
 31
0.0
 11
125.2240376543917
 21
291.3396216174489
 31
0.0
 11
125.2448005444831
 21
291.6491484522352
 31
0.0
 11
125.2240376543917
 21
291.9586752870216
 31
0.0
  0
SPLINE
  5
B5
330
3C
100
AcDbEntity
  8
1
  6
Continuous
 62
     7
100
AcDbSpline
210
0.0
220
0.0
230
1.0
 70
    11
 71
     3
 72
    79
 73
    75
 74
    73
 42
0.0000000001
 43
0.0000000001
 44
0.00000001
 40
0.0
 40
0.0
 40
0.0
 40
0.0
 40
0.2811775426108888
 40
0.5623408931993007
 40
0.8457466631368957
 40
1.129126830422934
 40
1.415908903032512
 40
1.702658539054725
 40
1.993527432940293
 40
2.284362055943342
 40
2.579517800564331
 40
2.874641782101875
 40
3.173769982296799
 40
3.472872122788229
 40
3.775199692337421
 40
4.077508957859664
 40
4.381905225139421
 40
4.686292091405486
 40
4.991400459519169
 40
5.296508827632741
 40
5.600895693898786
 40
5.905291961178465
 40
6.207601226700747
 40
6.509928796249992
 40
6.809030936741449
 40
7.108159136936352
 40
7.403283118473881
 40
7.698438863094754
 40
7.989273486097843
 40
8.280142379983404
 40
8.566892016005683
 40
8.853674088615282
 40
9.137054255901367
 40
9.420460025838944
 40
9.701623376427357
 40
9.982800919038237
 40
10.26319552186838
 40
10.54359012469863
 40
10.82476766730946
 40
11.10593101789787
 40
11.38933678783534
 40
11.67271695512142
 40
11.95949902773097
 40
12.2462486637533
 40
12.53711755763887
 40
12.82795218064203
 40
13.1231079252629
 40
13.41823190680033
 40
13.71736010699526
 40
14.01646224748676
 40
14.31878981703595
 40
14.6210990825583
 40
14.92549534983803
 40
15.22988221610402
 40
15.53499058421765
 40
15.84009895233139
 40
16.14448581859733
 40
16.44888208587713
 40
16.75119135139938
 40
17.05351892094857
 40
17.35262106143998
 40
17.65174926163485
 40
17.94687324317236
 40
18.24202898779332
 40
18.53286361079641
 40
18.82373250468198
 40
19.11048214070424
 40
19.39726421331374
 40
19.68064438059991
 40
19.96405015053746
 40
20.24521350112588
 40
20.5263910437367
 40
20.80678564656684
 40
21.08718024939699
 40
21.08718024939699
 40
21.08718024939699
 40
21.08718024939699
 10
411.1772617990559
 20
295.1004094662181
 30
0.0
 10
411.0841657239656
 20
295.0889583441283
 30
0.0
 10
410.8979782726719
 20
295.066056677927
 30
0.0
 10
410.6237408193655
 20
294.9980193868781
 30
0.0
 10
410.3560141520587
 20
294.9063972579045
 30
0.0
 10
410.0964536638903
 20
294.7887862701199
 30
0.0
 10
409.8477193715235
 20
294.6475679469007
 30
0.0
 10
409.6109052667327
 20
294.4827459761561
 30
0.0
 10
409.3886469026658
 20
294.2966686789912
 30
0.0
 10
409.1817915155309
 20
294.0896438293801
 30
0.0
 10
408.9926777120176
 20
293.8644450316659
 30
0.0
 10
408.8220293278666
 20
293.6215801261365
 30
0.0
 10
408.6717120106168
 20
293.3641114951262
 30
0.0
 10
408.5423886752562
 20
293.092833597855
 30
0.0
 10
408.4353557478175
 20
292.8108804439473
 30
0.0
 10
408.351208610156
 20
292.519443290578
 30
0.0
 10
408.2906641014481
 20
292.2215053471201
 30
0.0
 10
408.2541769047088
 20
291.9187396823198
 30
0.0
 10
408.2419498483577
 20
291.6137913451005
 30
0.0
 10
408.2541769047087
 20
291.3088430078756
 30
0.0
 10
408.2906641014491
 20
291.0060773430921
 30
0.0
 10
408.3512086101513
 20
290.7081393995728
 30
0.0
 10
408.4353557478349
 20
290.416702246432
 30
0.0
 10
408.5423886751921
 20
290.1347490916745
 30
0.0
 10
408.6717120108528
 20
289.8634711975432
 30
0.0
 10
408.8220293269905
 20
289.6060025548911
 30
0.0
 10
408.9926777152393
 20
289.3631376922544
 30
0.0
 10
409.1817915035749
 20
289.1379387356775
 30
0.0
 10
409.388646946563
 20
288.9309144706741
 30
0.0
 10
409.6109051037854
 20
288.7448350084899
 30
0.0
 10
409.8477199701184
 20
288.5800210087361
 30
0.0
 10
410.0964514397604
 20
288.4387731403223
 30
0.0
 10
410.3560223436468
 20
288.321271172868
 30
0.0
 10
410.6237103349172
 20
288.2292442254984
 30
0.0
 10
410.8980910458002
 20
288.1627063978781
 30
0.0
 10
411.1765820572637
 20
288.1228036142657
 30
0.0
 10
411.4573368936535
 20
288.1092914929363
 30
0.0
 10
411.7380917300435
 20
288.1228036142657
 30
0.0
 10
412.0165827415069
 20
288.1627063978781
 30
0.0
 10
412.2909634523899
 20
288.2292442254983
 30
0.0
 10
412.5586514436603
 20
288.321271172868
 30
0.0
 10
412.8182223475466
 20
288.4387731403223
 30
0.0
 10
413.0669538171888
 20
288.5800210087361
 30
0.0
 10
413.3037686835216
 20
288.7448350084899
 30
0.0
 10
413.5260268407442
 20
288.9309144706739
 30
0.0
 10
413.7328822837324
 20
289.1379387356774
 30
0.0
 10
413.9219960720679
 20
289.3631376922543
 30
0.0
 10
414.0926444603168
 20
289.6060025548912
 30
0.0
 10
414.2429617764541
 20
289.8634711975432
 30
0.0
 10
414.372285112115
 20
290.1347490916744
 30
0.0
 10
414.4793180394723
 20
290.416702246432
 30
0.0
 10
414.5634651771558
 20
290.7081393995726
 30
0.0
 10
414.6240096858579
 20
291.0060773430921
 30
0.0
 10
414.6604968825986
 20
291.3088430078759
 30
0.0
 10
414.6727239389493
 20
291.6137913450996
 30
0.0
 10
414.6604968825988
 20
291.9187396823232
 30
0.0
 10
414.6240096858578
 20
292.2215053471081
 30
0.0
 10
414.5634651771562
 20
292.5194432906231
 30
0.0
 10
414.4793180394709
 20
292.8108804437801
 30
0.0
 10
414.3722851121196
 20
293.0928335984767
 30
0.0
 10
414.2429617764372
 20
293.364111492833
 30
0.0
 10
414.0926444603796
 20
293.6215801346503
 30
0.0
 10
413.9219960718368
 20
293.8644450003624
 30
0.0
 10
413.7328822845898
 20
294.0896439455498
 30
0.0
 10
413.526026837597
 20
294.296668252467
 30
0.0
 10
413.3037686952043
 20
294.4827475594282
 30
0.0
 10
413.066953774272
 20
294.6475621306687
 30
0.0
 10
412.8182225070075
 20
294.7888078808151
 30
0.0
 10
412.5586508563575
 20
294.9063176645737
 30
0.0
 10
412.2909656379982
 20
294.9983155881472
 30
0.0
 10
412.0165746561422
 20
295.0649609210623
 30
0.0
 10
411.7381218792546
 20
295.1044635070089
 30
0.0
 10
411.457224722044
 20
295.1194652868266
 30
0.0
 10
411.2705827733853
 20
295.1067614064209
 30
0.0
 10
411.1772617990559
 20
295.1004094662181
 30
0.0
 11
411.1772617990559
 21
295.1004094662181
 31
0.0
 11
410.8989350453223
 21
295.0604716567542
 31
0.0
 11
410.6256610107733
 21
294.9943344376151
 31
0.0
 11
410.3576563399441
 21
294.9021806159493
 31
0.0
 11
410.0994347019265
 21
294.7854505646747
 31
0.0
 11
409.850048058576
 21
294.6438516265126
 31
0.0
 11
409.6146016807199
 21
294.4801740259886
 31
0.0
 11
409.3915498318957
 21
294.2934855524121
 31
0.0
 11
409.1858817753006
 21
294.0878513421412
 31
0.0
 11
408.9960303705561
 21
293.8618571880148
 31
0.0
 11
408.8262574391846
 21
293.6204543788925
 31
0.0
 11
408.6753957567512
 21
293.3621552636691
 31
0.0
 11
408.5465958898196
 21
293.092205852251
 31
0.0
 11
408.439263657806
 21
292.8095722532567
 31
0.0
 11
408.3553356362436
 21
292.5191467391963
 31
0.0
 11
408.2947009855481
 21
292.2208507005554
 31
0.0
 11
408.2582426346319
 21
291.9186551463132
 31
0.0
 11
408.2460287489873
 21
291.6137913450995
 31
0.0
 11
408.2582426346319
 21
291.3089275438859
 31
0.0
 11
408.294700985548
 21
291.0067319896438
 31
0.0
 11
408.3553356362436
 21
290.7084359510029
 31
0.0
 11
408.439263657806
 21
290.4180104369425
 31
0.0
 11
408.5465958898196
 21
290.1353768379481
 31
0.0
 11
408.6753957567512
 21
289.86542742653
 31
0.0
 11
408.8262574391846
 21
289.6071283113066
 31
0.0
 11
408.9960303705562
 21
289.3657255021844
 31
0.0
 11
409.1858817753005
 21
289.139731348058
 31
0.0
 11
409.3915498318957
 21
288.9340971377872
 31
0.0
 11
409.6146016807198
 21
288.7474086642106
 31
0.0
 11
409.850048058576
 21
288.5837310636865
 31
0.0
 11
410.0994347019265
 21
288.4421321255245
 31
0.0
 11
410.3576563399441
 21
288.3254020742497
 31
0.0
 11
410.6256610107733
 21
288.233248252584
 31
0.0
 11
410.8989350453223
 21
288.1671110334449
 31
0.0
 11
411.1772617990559
 21
288.127173223981
 31
0.0
 11
411.4573368936536
 21
288.1137913450995
 31
0.0
 11
411.7374119882513
 21
288.127173223981
 31
0.0
 11
412.0157387419849
 21
288.1671110334449
 31
0.0
 11
412.2890127765339
 21
288.233248252584
 31
0.0
 11
412.557017447363
 21
288.3254020742497
 31
0.0
 11
412.8152390853806
 21
288.4421321255245
 31
0.0
 11
413.0646257287311
 21
288.5837310636865
 31
0.0
 11
413.3000721065873
 21
288.7474086642106
 31
0.0
 11
413.5231239554115
 21
288.9340971377872
 31
0.0
 11
413.7287920120067
 21
289.139731348058
 31
0.0
 11
413.9186434167511
 21
289.3657255021844
 31
0.0
 11
414.0884163481225
 21
289.6071283113066
 31
0.0
 11
414.2392780305559
 21
289.86542742653
 31
0.0
 11
414.3680778974875
 21
290.1353768379481
 31
0.0
 11
414.4754101295012
 21
290.4180104369424
 31
0.0
 11
414.5593381510636
 21
290.7084359510029
 31
0.0
 11
414.6199728017592
 21
291.0067319896438
 31
0.0
 11
414.6564311526753
 21
291.3089275438859
 31
0.0
 11
414.6686450383198
 21
291.6137913450996
 31
0.0
 11
414.6564311526753
 21
291.9186551463133
 31
0.0
 11
414.6199728017592
 21
292.2208507005554
 31
0.0
 11
414.5593381510635
 21
292.5191467391963
 31
0.0
 11
414.4754101295011
 21
292.8095722532567
 31
0.0
 11
414.3680778974874
 21
293.092205852251
 31
0.0
 11
414.2392780305559
 21
293.3621552636691
 31
0.0
 11
414.0884163481225
 21
293.6204543788925
 31
0.0
 11
413.918643416751
 21
293.8618571880147
 31
0.0
 11
413.7287920120067
 21
294.0878513421412
 31
0.0
 11
413.5231239554115
 21
294.293485552412
 31
0.0
 11
413.3000721065873
 21
294.4801740259885
 31
0.0
 11
413.0646257287311
 21
294.6438516265125
 31
0.0
 11
412.8152390853807
 21
294.7854505646745
 31
0.0
 11
412.557017447363
 21
294.9021806159494
 31
0.0
 11
412.2890127765338
 21
294.9943344376151
 31
0.0
 11
412.0157387419848
 21
295.0604716567542
 31
0.0
 11
411.7374119882512
 21
295.100409466218
 31
0.0
 11
411.4573368936536
 21
295.1137913450996
 31
0.0
 11
411.1772617990559
 21
295.1004094662181
 31
0.0
  0
SPLINE
  5
B6
330
3C
100
AcDbEntity
  8
1
  6
Continuous
 62
     7
100
AcDbSpline
210
0.0
220
0.0
230
1.0
 70
    11
 71
     3
 72
    79
 73
    75
 74
    73
 42
0.0000000001
 43
0.0000000001
 44
0.00000001
 40
0.0
 40
0.0
 40
0.0
 40
0.0
 40
0.3064252399305864
 40
0.612699729578397
 40
0.9327163807029306
 40
1.252505950546066
 40
1.592278744069433
 40
1.931827979827547
 40
2.294403622084086
 40
2.656798547726856
 40
3.042205862991217
 40
3.427481652445382
 40
3.833206192908578
 40
4.238841967633257
 40
4.660421102442508
 40
5.081946086409793
 40
5.513562423792831
 40
5.945153204326138
 40
6.380194333749574
 40
6.815235463173007
 40
7.246826243706544
 40
7.678442581089591
 40
8.099967565056888
 40
8.521546699866123
 40
8.927182474590875
 40
9.332907015054101
 40
9.718182804508215
 40
10.10359011977262
 40
10.46598504541539
 40
10.82856068767189
 40
11.16810992342997
 40
11.50788271695337
 40
11.82767228679651
 40
12.14768893792103
 40
12.45396342756886
 40
12.76038866749941
 40
13.06189449721454
 40
13.36340032692966
 40
13.66982556686024
 40
13.97610005650811
 40
14.29611670763264
 40
14.61590627747575
 40
14.95567907099912
 40
15.29522830675727
 40
15.65780394901373
 40
16.02019887465658
 40
16.40560618992097
 40
16.79088197937503
 40
17.19660651983821
 40
17.60224229456294
 40
18.02382142937219
 40
18.4453464133395
 40
18.87696275072253
 40
19.30855353125601
 40
19.74359466067956
 40
20.17863579010294
 40
20.6102265706363
 40
21.04184290801934
 40
21.46336789198665
 40
21.88494702679579
 40
22.2905828015206
 40
22.69630734198377
 40
23.08158313143783
 40
23.4669904467023
 40
23.82938537234501
 40
24.19196101460162
 40
24.53151025035973
 40
24.8712830438831
 40
25.19107261372619
 40
25.51108926485067
 40
25.81736375449845
 40
26.12378899442911
 40
26.42529482414424
 40
26.72680065385931
 40
26.72680065385931
 40
26.72680065385931
 40
26.72680065385931
 10
405.1788492301855
 20
291.9760655952665
 30
0.0
 10
405.162246146616
 20
292.0769917602428
 30
0.0
 10
405.1290481476017
 20
292.2787944381244
 30
0.0
 10
405.0300301049018
 20
292.5747457104555
 30
0.0
 10
404.8981964041758
 20
292.8618155231889
 30
0.0
 10
404.72796519354
 20
293.1412805414543
 30
0.0
 10
404.5256966658807
 20
293.4065837500345
 30
0.0
 10
404.2882949621152
 20
293.6607861214015
 30
0.0
 10
404.0228399640434
 20
293.8969918477631
 30
0.0
 10
403.7257739624435
 20
294.1184706074129
 30
0.0
 10
403.4052864682032
 20
294.3190848177789
 30
0.0
 10
403.0577475536244
 20
294.5014539409604
 30
0.0
 10
402.6917176035274
 20
294.6608255491537
 30
0.0
 10
402.3042893732896
 20
294.798848980043
 30
0.0
 10
401.903503160515
 20
294.9123411430733
 30
0.0
 10
401.4879009943123
 20
295.0020761583605
 30
0.0
 10
401.0642216141067
 20
295.0662784497593
 30
0.0
 10
400.6329656917633
 20
295.1052046874665
 30
0.0
 10
400.199006644458
 20
295.1181017670809
 30
0.0
 10
399.7650475971405
 20
295.1052046874676
 30
0.0
 10
399.333791674833
 20
295.0662784497558
 30
0.0
 10
398.9101122944969
 20
295.0020761583738
 30
0.0
 10
398.4945101287697
 20
294.9123411430252
 30
0.0
 10
398.0937239142513
 20
294.7988489802198
 30
0.0
 10
397.7062956902861
 20
294.6608255485217
 30
0.0
 10
397.3402657173552
 20
294.5014539432722
 30
0.0
 10
396.9927268839026
 20
294.3190848096324
 30
0.0
 10
396.6722390960887
 20
294.1184706371116
 30
0.0
 10
396.3751741279652
 20
293.8969917442341
 30
0.0
 10
396.1097154023726
 20
293.6607864983951
 30
0.0
 10
395.8723267725356
 20
293.4065824416404
 30
0.0
 10
395.6700110496522
 20
293.1412853170962
 30
0.0
 10
395.4999461764471
 20
292.8617988559216
 30
0.0
 10
395.3675080760667
 20
292.574806957623
 30
0.0
 10
395.2706542709229
 20
292.2785766888621
 30
0.0
 10
395.213156788966
 20
291.9784946547171
 30
0.0
 10
395.1931526258663
 20
291.675183222321
 30
0.0
 10
395.2131567889659
 20
291.3718717899246
 30
0.0
 10
395.2706542709229
 20
291.0717897557797
 30
0.0
 10
395.3675080760667
 20
290.7755594870189
 30
0.0
 10
395.499946176447
 20
290.4885675887202
 30
0.0
 10
395.6700110496523
 20
290.2090811275457
 30
0.0
 10
395.8723267725359
 20
289.9437840030014
 30
0.0
 10
396.1097154023726
 20
289.6895799462466
 30
0.0
 10
396.3751741279654
 20
289.4533747004077
 30
0.0
 10
396.6722390960887
 20
289.2318958075302
 30
0.0
 10
396.9927268839025
 20
289.0312816350093
 30
0.0
 10
397.3402657173553
 20
288.8489125013696
 30
0.0
 10
397.7062956902861
 20
288.68954089612
 30
0.0
 10
398.0937239142513
 20
288.5515174644222
 30
0.0
 10
398.4945101287697
 20
288.4380253016167
 30
0.0
 10
398.9101122944967
 20
288.3482902862679
 30
0.0
 10
399.3337916748328
 20
288.2840879948861
 30
0.0
 10
399.765047597141
 20
288.2451617571742
 30
0.0
 10
400.1990066444561
 20
288.2322646775612
 30
0.0
 10
400.6329656917703
 20
288.2451617571742
 30
0.0
 10
401.0642216140809
 20
288.2840879948863
 30
0.0
 10
401.4879009944077
 20
288.348290286267
 30
0.0
 10
401.9035031601686
 20
288.43802530162
 30
0.0
 10
402.304289374563
 20
288.5515174644096
 30
0.0
 10
402.6917175989746
 20
288.6895408961651
 30
0.0
 10
403.0577475702794
 20
288.8489125012051
 30
0.0
 10
403.4052864095094
 20
289.0312816355894
 30
0.0
 10
403.7257741764172
 20
289.2318958054154
 30
0.0
 10
404.0228392181367
 20
289.4533747077802
 30
0.0
 10
404.2882976782852
 20
289.6895799194002
 30
0.0
 10
404.5256872391416
 20
289.9437840961746
 30
0.0
 10
404.7279996011636
 20
290.2090807874633
 30
0.0
 10
404.8980763195721
 20
290.4885687756278
 30
0.0
 10
405.0304713795095
 20
290.7755551254923
 30
0.0
 10
405.1274793041036
 20
291.0718052621165
 30
0.0
 10
405.1844097294353
 20
291.3718141957955
 30
0.0
 10
405.2064984062695
 20
291.6753943472553
 30
0.0
 10
405.1880656222135
 20
291.8758418459295
 30
0.0
 10
405.1788492301855
 20
291.9760655952665
 30
0.0
 11
405.1788492301855
 21
291.9760655952665
 31
0.0
 11
405.121074366934
 21
292.2769949770868
 31
0.0
 11
405.0265184429997
 21
292.5683079363899
 31
0.0
 11
404.8926532763528
 21
292.8589809040969
 31
0.0
 11
404.7269928301599
 21
293.1325169813292
 31
0.0
 11
404.5213337300122
 21
293.4029793368338
 31
0.0
 11
404.2900094183967
 21
293.6515406901443
 31
0.0
 11
404.019500079702
 21
293.8929652001608
 31
0.0
 11
403.7292416910169
 21
294.1099448073352
 31
0.0
 11
403.4028252028854
 21
294.3148620465689
 31
0.0
 11
403.0618259759235
 21
294.4941856678544
 31
0.0
 11
402.6899965834974
 21
294.656528840369
 31
0.0
 11
402.307962377407
 21
294.7928748968332
 31
0.0
 11
401.9024145955257
 21
294.9080268117878
 31
0.0
 11
401.4904108644115
 21
294.99711237547
 31
0.0
 11
401.0636946679164
 21
295.0619656741114
 31
0.0
 11
400.6338533440282
 21
295.1007862629716
 31
0.0
 11
400.199006644456
 21
295.1137913450996
 31
0.0
 11
399.7641599448838
 21
295.1007862629717
 31
0.0
 11
399.3343186209954
 21
295.0619656741115
 31
0.0
 11
398.9076024245003
 21
294.99711237547
 31
0.0
 11
398.4955986933861
 21
294.9080268117878
 31
0.0
 11
398.0900509115048
 21
294.7928748968332
 31
0.0
 11
397.7080167054143
 21
294.6565288403689
 31
0.0
 11
397.3361873129882
 21
294.4941856678544
 31
0.0
 11
396.9951880860264
 21
294.3148620465689
 31
0.0
 11
396.6687715978948
 21
294.1099448073352
 31
0.0
 11
396.3785132092096
 21
293.8929652001608
 31
0.0
 11
396.108003870515
 21
293.6515406901443
 31
0.0
 11
395.8766795588996
 21
293.4029793368338
 31
0.0
 11
395.6710204587518
 21
293.1325169813292
 31
0.0
 11
395.505360012559
 21
292.8589809040969
 31
0.0
 11
395.371494845912
 21
292.56830793639
 31
0.0
 11
395.2769389219777
 21
292.2769949770868
 31
0.0
 11
395.2191640587262
 21
291.9760655952665
 31
0.0
 11
395.1997846107762
 21
291.6751832223209
 31
0.0
 11
395.2191640587262
 21
291.3743008493754
 31
0.0
 11
395.2769389219776
 21
291.073371467555
 31
0.0
 11
395.371494845912
 21
290.7820585082518
 31
0.0
 11
395.505360012559
 21
290.4913855405449
 31
0.0
 11
395.6710204587519
 21
290.2178494633126
 31
0.0
 11
395.8766795588996
 21
289.947387107808
 31
0.0
 11
396.1080038705151
 21
289.6988257544975
 31
0.0
 11
396.3785132092096
 21
289.457401244481
 31
0.0
 11
396.6687715978948
 21
289.2404216373066
 31
0.0
 11
396.9951880860264
 21
289.0355043980728
 31
0.0
 11
397.3361873129882
 21
288.8561807767874
 31
0.0
 11
397.7080167054143
 21
288.6938376042729
 31
0.0
 11
398.0900509115048
 21
288.5574915478087
 31
0.0
 11
398.495598693386
 21
288.442339632854
 31
0.0
 11
398.9076024245002
 21
288.3532540691717
 31
0.0
 11
399.3343186209954
 21
288.2884007705303
 31
0.0
 11
399.7641599448837
 21
288.2495801816701
 31
0.0
 11
400.199006644456
 21
288.2365750995422
 31
0.0
 11
400.6338533440282
 21
288.2495801816701
 31
0.0
 11
401.0636946679164
 21
288.2884007705303
 31
0.0
 11
401.4904108644115
 21
288.3532540691717
 31
0.0
 11
401.9024145955257
 21
288.442339632854
 31
0.0
 11
402.3079623774069
 21
288.5574915478087
 31
0.0
 11
402.6899965834974
 21
288.6938376042729
 31
0.0
 11
403.0618259759235
 21
288.8561807767875
 31
0.0
 11
403.4028252028853
 21
289.0355043980729
 31
0.0
 11
403.7292416910169
 21
289.2404216373067
 31
0.0
 11
404.019500079702
 21
289.4574012444809
 31
0.0
 11
404.2900094183967
 21
289.6988257544975
 31
0.0
 11
404.5213337300122
 21
289.947387107808
 31
0.0
 11
404.7269928301599
 21
290.2178494633126
 31
0.0
 11
404.8926532763528
 21
290.4913855405449
 31
0.0
 11
405.0265184429997
 21
290.7820585082518
 31
0.0
 11
405.1210743669339
 21
291.0733714675549
 31
0.0
 11
405.1788492301855
 21
291.3743008493754
 31
0.0
 11
405.1982286781355
 21
291.6751832223209
 31
0.0
 11
405.1788492301855
 21
291.9760655952665
 31
0.0
  0
SPLINE
  5
B7
330
3C
100
AcDbEntity
  8
1
  6
Continuous
 62
     7
100
AcDbSpline
210
0.0
220
0.0
230
1.0
 70
    11
 71
     3
 72
    79
 73
    75
 74
    73
 42
0.0000000001
 43
0.0000000001
 44
0.00000001
 40
0.0
 40
0.0
 40
0.0
 40
0.0
 40
0.2811775426108325
 40
0.5623408931992997
 40
0.8457466631368948
 40
1.129126830422933
 40
1.415908903032412
 40
1.702658539054672
 40
1.993527432940284
 40
2.284362055943332
 40
2.579517800564394
 40
2.874641782101906
 40
3.173769982296829
 40
3.472872122788235
 40
3.775199692337406
 40
4.077508957859649
 40
4.38190522513944
 40
4.686292091405478
 40
4.991400459519161
 40
5.296508827632729
 40
5.60089569389878
 40
5.905291961178437
 40
6.207601226700734
 40
6.509928796249979
 40
6.809030936741436
 40
7.108159136936311
 40
7.403283118473776
 40
7.698438863094721
 40
7.989273486097851
 40
8.280142379983499
 40
8.566892016005824
 40
8.853674088615325
 40
9.137054255901358
 40
9.420460025838935
 40
9.701623376427346
 40
9.982800919038114
 40
10.26319552186831
 40
10.54359012469851
 40
10.8247676673095
 40
11.1059310178978
 40
11.38933678783533
 40
11.67271695512146
 40
11.95949902773096
 40
12.24624866375324
 40
12.53711755763872
 40
12.82795218064193
 40
13.12310792526295
 40
13.41823190680038
 40
13.7173601069953
 40
14.01646224748676
 40
14.31878981703595
 40
14.6210990825583
 40
14.92549534983801
 40
15.22988221610402
 40
15.53499058421764
 40
15.84009895233139
 40
16.14448581859734
 40
16.44888208587712
 40
16.75119135139938
 40
17.05351892094855
 40
17.35262106143996
 40
17.65174926163474
 40
17.94687324317225
 40
18.24202898779332
 40
18.53286361079633
 40
18.8237325046819
 40
19.11048214070411
 40
19.39726421331376
 40
19.68064438059992
 40
19.96405015053743
 40
20.24521350112579
 40
20.52639104373661
 40
20.80678564656681
 40
21.08718024939701
 40
21.08718024939701
 40
21.08718024939701
 40
21.08718024939701
 10
389.2207514898558
 20
295.1004094662181
 30
0.0
 10
389.3138475649463
 20
295.0889583441282
 30
0.0
 10
389.50003501624
 20
295.0660566779269
 30
0.0
 10
389.774272469546
 20
294.9980193868782
 30
0.0
 10
390.0419991368531
 20
294.9063972579045
 30
0.0
 10
390.3015596250214
 20
294.78878627012
 30
0.0
 10
390.5502939173883
 20
294.6475679469007
 30
0.0
 10
390.7871080221789
 20
294.482745976156
 30
0.0
 10
391.009366386246
 20
294.2966686789914
 30
0.0
 10
391.2162217733809
 20
294.08964382938
 30
0.0
 10
391.4053355768944
 20
293.8644450316661
 30
0.0
 10
391.575983961045
 20
293.6215801261363
 30
0.0
 10
391.7263012782949
 20
293.3641114951263
 30
0.0
 10
391.8556246136558
 20
293.0928335978549
 30
0.0
 10
391.9626575410939
 20
292.8108804439474
 30
0.0
 10
392.0468046787559
 20
292.5194432905779
 30
0.0
 10
392.1073491874639
 20
292.2215053471202
 30
0.0
 10
392.1438363842027
 20
291.9187396823197
 30
0.0
 10
392.156063440554
 20
291.6137913451005
 30
0.0
 10
392.1438363842033
 20
291.3088430078756
 30
0.0
 10
392.1073491874625
 20
291.0060773430922
 30
0.0
 10
392.0468046787606
 20
290.7081393995726
 30
0.0
 10
391.9626575410769
 20
290.4167022464321
 30
0.0
 10
391.8556246137196
 20
290.1347490916744
 30
0.0
 10
391.7263012780589
 20
289.8634711975432
 30
0.0
 10
391.5759839619215
 20
289.6060025548912
 30
0.0
 10
391.4053355736726
 20
289.3631376922544
 30
0.0
 10
391.216221785337
 20
289.1379387356774
 30
0.0
 10
391.0093663423489
 20
288.930914470674
 30
0.0
 10
390.7871081851263
 20
288.74483500849
 30
0.0
 10
390.5502933187932
 20
288.5800210087361
 30
0.0
 10
390.3015618491513
 20
288.4387731403222
 30
0.0
 10
390.041990945265
 20
288.321271172868
 30
0.0
 10
389.7743029539947
 20
288.2292442254984
 30
0.0
 10
389.4999222431114
 20
288.1627063978781
 30
0.0
 10
389.2214312316481
 20
288.1228036142657
 30
0.0
 10
388.9406763952583
 20
288.1092914929363
 30
0.0
 10
388.6599215588683
 20
288.1228036142656
 30
0.0
 10
388.3814305474049
 20
288.1627063978781
 30
0.0
 10
388.1070498365218
 20
288.2292442254983
 30
0.0
 10
387.8393618452515
 20
288.3212711728681
 30
0.0
 10
387.579790941365
 20
288.4387731403222
 30
0.0
 10
387.3310594717231
 20
288.580021008736
 30
0.0
 10
387.0942446053903
 20
288.7448350084899
 30
0.0
 10
386.8719864481677
 20
288.9309144706741
 30
0.0
 10
386.6651310051797
 20
289.1379387356775
 30
0.0
 10
386.4760172168436
 20
289.3631376922542
 30
0.0
 10
386.3053688285951
 20
289.6060025548912
 30
0.0
 10
386.1550515124575
 20
289.8634711975432
 30
0.0
 10
386.0257281767967
 20
290.1347490916744
 30
0.0
 10
385.9186952494396
 20
290.4167022464321
 30
0.0
 10
385.8345481117558
 20
290.7081393995726
 30
0.0
 10
385.774003603054
 20
291.0060773430921
 30
0.0
 10
385.7375164063131
 20
291.3088430078759
 30
0.0
 10
385.7252893499623
 20
291.6137913450996
 30
0.0
 10
385.7375164063131
 20
291.9187396823231
 30
0.0
 10
385.774003603054
 20
292.2215053471081
 30
0.0
 10
385.8345481117557
 20
292.5194432906231
 30
0.0
 10
385.9186952494409
 20
292.81088044378
 30
0.0
 10
386.0257281767923
 20
293.0928335984768
 30
0.0
 10
386.1550515124745
 20
293.3641114928329
 30
0.0
 10
386.3053688285322
 20
293.6215801346505
 30
0.0
 10
386.4760172170747
 20
293.8644450003624
 30
0.0
 10
386.6651310043224
 20
294.0896439455497
 30
0.0
 10
386.8719864513146
 20
294.2966682524669
 30
0.0
 10
387.0942445937074
 20
294.4827475594282
 30
0.0
 10
387.3310595146398
 20
294.6475621306689
 30
0.0
 10
387.579790781904
 20
294.7888078808148
 30
0.0
 10
387.8393624325544
 20
294.9063176645739
 30
0.0
 10
388.1070476509135
 20
294.9983155881471
 30
0.0
 10
388.3814386327696
 20
295.0649609210623
 30
0.0
 10
388.6598914096571
 20
295.1044635070089
 30
0.0
 10
388.9407885668676
 20
295.1194652868265
 30
0.0
 10
389.1274305155265
 20
295.106761406421
 30
0.0
 10
389.2207514898558
 20
295.1004094662181
 30
0.0
 11
389.2207514898558
 21
295.1004094662181
 31
0.0
 11
389.4990782435895
 21
295.0604716567542
 31
0.0
 11
389.7723522781384
 21
294.9943344376151
 31
0.0
 11
390.0403569489677
 21
294.9021806159493
 31
0.0
 11
390.2985785869853
 21
294.7854505646747
 31
0.0
 11
390.5479652303357
 21
294.6438516265126
 31
0.0
 11
390.7834116081918
 21
294.4801740259886
 31
0.0
 11
391.0064634570161
 21
294.2934855524121
 31
0.0
 11
391.2121315136112
 21
294.0878513421412
 31
0.0
 11
391.4019829183558
 21
293.8618571880148
 31
0.0
 11
391.5717558497272
 21
293.6204543788925
 31
0.0
 11
391.7226175321606
 21
293.3621552636691
 31
0.0
 11
391.8514173990922
 21
293.092205852251
 31
0.0
 11
391.9587496311058
 21
292.8095722532567
 31
0.0
 11
392.0426776526682
 21
292.5191467391963
 31
0.0
 11
392.1033123033638
 21
292.2208507005554
 31
0.0
 11
392.1397706542798
 21
291.9186551463132
 31
0.0
 11
392.1519845399243
 21
291.6137913450995
 31
0.0
 11
392.1397706542799
 21
291.3089275438859
 31
0.0
 11
392.1033123033637
 21
291.0067319896438
 31
0.0
 11
392.0426776526682
 21
290.7084359510029
 31
0.0
 11
391.9587496311058
 21
290.4180104369425
 31
0.0
 11
391.8514173990922
 21
290.1353768379481
 31
0.0
 11
391.7226175321606
 21
289.86542742653
 31
0.0
 11
391.5717558497272
 21
289.6071283113066
 31
0.0
 11
391.4019829183558
 21
289.3657255021844
 31
0.0
 11
391.2121315136113
 21
289.139731348058
 31
0.0
 11
391.0064634570161
 21
288.9340971377872
 31
0.0
 11
390.7834116081918
 21
288.7474086642106
 31
0.0
 11
390.5479652303357
 21
288.5837310636865
 31
0.0
 11
390.2985785869852
 21
288.4421321255245
 31
0.0
 11
390.0403569489677
 21
288.3254020742497
 31
0.0
 11
389.7723522781384
 21
288.233248252584
 31
0.0
 11
389.4990782435895
 21
288.1671110334449
 31
0.0
 11
389.220751489856
 21
288.127173223981
 31
0.0
 11
388.9406763952583
 21
288.1137913450995
 31
0.0
 11
388.6606013006606
 21
288.127173223981
 31
0.0
 11
388.3822745469268
 21
288.1671110334449
 31
0.0
 11
388.109000512378
 21
288.233248252584
 31
0.0
 11
387.8409958415488
 21
288.3254020742497
 31
0.0
 11
387.5827742035311
 21
288.4421321255245
 31
0.0
 11
387.3333875601807
 21
288.5837310636865
 31
0.0
 11
387.0979411823246
 21
288.7474086642106
 31
0.0
 11
386.8748893335005
 21
288.9340971377872
 31
0.0
 11
386.6692212769052
 21
289.139731348058
 31
0.0
 11
386.4793698721606
 21
289.3657255021844
 31
0.0
 11
386.3095969407892
 21
289.6071283113066
 31
0.0
 11
386.1587352583558
 21
289.86542742653
 31
0.0
 11
386.0299353914243
 21
290.1353768379481
 31
0.0
 11
385.9226031594106
 21
290.4180104369424
 31
0.0
 11
385.8386751378482
 21
290.7084359510029
 31
0.0
 11
385.7780404871527
 21
291.0067319896438
 31
0.0
 11
385.7415821362365
 21
291.3089275438859
 31
0.0
 11
385.7293682505919
 21
291.6137913450996
 31
0.0
 11
385.7415821362365
 21
291.9186551463133
 31
0.0
 11
385.7780404871527
 21
292.2208507005554
 31
0.0
 11
385.8386751378483
 21
292.5191467391963
 31
0.0
 11
385.9226031594108
 21
292.8095722532567
 31
0.0
 11
386.0299353914244
 21
293.092205852251
 31
0.0
 11
386.1587352583559
 21
293.3621552636691
 31
0.0
 11
386.3095969407892
 21
293.6204543788925
 31
0.0
 11
386.4793698721606
 21
293.8618571880147
 31
0.0
 11
386.6692212769051
 21
294.0878513421412
 31
0.0
 11
386.8748893335002
 21
294.293485552412
 31
0.0
 11
387.0979411823244
 21
294.4801740259885
 31
0.0
 11
387.3333875601805
 21
294.6438516265125
 31
0.0
 11
387.5827742035311
 21
294.7854505646745
 31
0.0
 11
387.8409958415488
 21
294.9021806159494
 31
0.0
 11
388.109000512378
 21
294.9943344376151
 31
0.0
 11
388.3822745469269
 21
295.0604716567542
 31
0.0
 11
388.6606013006605
 21
295.100409466218
 31
0.0
 11
388.9406763952582
 21
295.1137913450996
 31
0.0
 11
389.2207514898558
 21
295.1004094662181
 31
0.0
  0
ENDBLK
  5
3E
330
3C
100
AcDbEntity
  8
0
100
AcDbBlockEnd
  0
BLOCK
  5
40
330
3F
100
AcDbEntity
  8
0
100
AcDbBlockBegin
  2
60-2-16-170
 70
     0
 71
     0
 10
227.0327726390422
 20
137.7476935151058
 30
0.0
  3
60-2-16-170
  1

  0
LINE
  5
B8
330
3F
100
AcDbEntity
  8
1
  6
Continuous
 62
     7
100
AcDbLine
 10
135.1826516791612
 20
172.6137913450995
 30
0.0
 11
117.1826516791612
 21
172.6137913450995
 31
0.0
  0
LINE
  5
B9
330
3F
100
AcDbEntity
  8
1
  6
Continuous
 62
     7
100
AcDbLine
 10
137.182651679161
 20
168.0137913450994
 30
0.0
 11
137.1826516791612
 21
169.1137913450995
 31
0.0
  0
LINE
  5
BA
330
3F
100
AcDbEntity
  8
1
  6
Continuous
 62
     2
100
AcDbLine
 10
136.5056516791611
 20
169.605691921303
 30
0.0
 11
136.5056516791611
 21
168.0137913450994
 31
0.0
  0
LINE
  5
BB
330
3F
100
AcDbEntity
  8
1
  6
Continuous
 62
     7
100
AcDbLine
 10
115.1826516791612
 20
169.1137913450995
 30
0.0
 11
137.1826516791612
 21
169.1137913450995
 31
0.0
  0
LINE
  5
BC
330
3F
100
AcDbEntity
  8
1
  6
Continuous
 62
     2
100
AcDbLine
 10
115.8596516791611
 20
168.0137913450994
 30
0.0
 11
115.8596516791611
 21
169.605691921303
 31
0.0
  0
LINE
  5
BD
330
3F
100
AcDbEntity
  8
1
  6
Continuous
 62
     7
100
AcDbLine
 10
115.1826516791612
 20
169.1137913450995
 30
0.0
 11
115.182651679161
 21
168.0137913450994
 31
0.0
  0
LINE
  5
BE
330
3F
100
AcDbEntity
  8
1
  6
Continuous
 62
     7
100
AcDbLine
 10
204.1972072400452
 20
172.6137913450995
 30
0.0
 11
186.1972072400452
 21
172.6137913450995
 31
0.0
  0
LINE
  5
BF
330
3F
100
AcDbEntity
  8
1
  6
Continuous
 62
     7
100
AcDbLine
 10
206.1972072400452
 20
168.0137913450994
 30
0.0
 11
206.1972072400452
 21
169.1137913450995
 31
0.0
  0
LINE
  5
C0
330
3F
100
AcDbEntity
  8
1
  6
Continuous
 62
     2
100
AcDbLine
 10
205.520207240045
 20
169.605691921303
 30
0.0
 11
205.520207240045
 21
168.0137913450993
 31
0.0
  0
LINE
  5
C1
330
3F
100
AcDbEntity
  8
1
  6
Continuous
 62
     7
100
AcDbLine
 10
184.1972072400452
 20
169.1137913450995
 30
0.0
 11
206.1972072400452
 21
169.1137913450995
 31
0.0
  0
LINE
  5
C2
330
3F
100
AcDbEntity
  8
1
  6
Continuous
 62
     2
100
AcDbLine
 10
184.8742072400451
 20
168.0137913450994
 30
0.0
 11
184.8742072400451
 21
169.605691921303
 31
0.0
  0
LINE
  5
C3
330
3F
100
AcDbEntity
  8
1
  6
Continuous
 62
     7
100
AcDbLine
 10
184.1972072400452
 20
169.1137913450995
 30
0.0
 11
184.1972072400452
 21
168.0137913450994
 31
0.0
  0
LINE
  5
C4
330
3F
100
AcDbEntity
  8
1
  6
Continuous
 62
     7
100
AcDbLine
 10
338.199006644456
 20
193.1137913450996
 30
0.0
 11
222.1972072400453
 21
193.1137913450996
 31
0.0
  0
LINE
  5
C5
330
3F
100
AcDbEntity
  8
1
  6
Continuous
 62
     7
100
AcDbLine
 10
203.1972072400453
 20
172.6137913450995
 30
0.0
 11
203.1972072400453
 21
174.1137913450996
 31
0.0
  0
LINE
  5
C6
330
3F
100
AcDbEntity
  8
1
  6
Continuous
 62
     7
100
AcDbLine
 10
187.1972072400453
 20
172.6137913450995
 30
0.0
 11
187.1972072400453
 21
174.1137913450996
 31
0.0
  0
LINE
  5
C7
330
3F
100
AcDbEntity
  8
1
  6
Continuous
 62
     7
100
AcDbLine
 10
373.199006644456
 20
234.6137913450996
 30
0.0
 11
373.199006644456
 21
228.1137913450996
 31
0.0
  0
LINE
  5
C8
330
3F
100
AcDbEntity
  8
1
  6
Continuous
 62
     7
100
AcDbLine
 10
357.199006644456
 20
228.1137913450996
 30
0.0
 11
357.199006644456
 21
234.6137913450996
 31
0.0
  0
LINE
  5
C9
330
3F
100
AcDbEntity
  8
1
  6
Continuous
 62
     7
100
AcDbLine
 10
338.199006644456
 20
209.1137913450996
 30
0.0
 11
222.1972072400453
 21
209.1137913450996
 31
0.0
  0
LINE
  5
CA
330
3F
100
AcDbEntity
  8
1
  6
Continuous
 62
     7
100
AcDbLine
 10
134.1826516791612
 20
524.733519086509
 30
0.0
 11
134.1826516791612
 21
366.2787250658909
 31
0.0
  0
LINE
  5
CB
330
3F
100
AcDbEntity
  8
1
  6
Continuous
 62
     7
100
AcDbLine
 10
118.1826516791612
 20
524.733519086509
 30
0.0
 11
118.1826516791612
 21
366.2787250658909
 31
0.0
  0
LINE
  5
CC
330
3F
100
AcDbEntity
  8
1
  6
DASH_CENTER
 62
     2
100
AcDbLine
 10
139.4192341031356
 20
366.2787250658909
 30
0.0
 11
113.4072237342645
 21
366.2787250658909
 31
0.0
  0
LINE
  5
CD
330
3F
100
AcDbEntity
  8
1
  6
Continuous
 62
     7
100
AcDbLine
 10
134.1826516791612
 20
172.6137913450995
 30
0.0
 11
134.1826516791612
 21
234.6137913450996
 31
0.0
  0
LINE
  5
CE
330
3F
100
AcDbEntity
  8
1
  6
Continuous
 62
     7
100
AcDbLine
 10
118.1826516791612
 20
172.6137913450995
 30
0.0
 11
118.1826516791612
 21
234.6137913450996
 31
0.0
  0
ARC
  5
CF
330
3F
100
AcDbEntity
  8
1
  6
Continuous
 62
     7
100
AcDbCircle
 10
139.1824914184703
 20
172.5779854818476
 30
0.0
 40
3.999999999999992
100
AcDbArc
 50
-132.0061164456
 51
-119.9973493449074
  0
ARC
  5
D0
330
3F
100
AcDbEntity
  8
1
  6
Continuous
 62
     7
100
AcDbCircle
 10
113.1828119398518
 20
172.5779854818476
 30
0.0
 40
4.000000000000139
100
AcDbArc
 50
-60.00265065508886
 51
-47.99388355439898
  0
ARC
  5
D1
330
3F
100
AcDbEntity
  8
1
  6
Continuous
 62
     7
100
AcDbCircle
 10
140.1668555147181
 20
173.0109212049935
 30
0.0
 40
4.99999999999994
100
AcDbArc
 50
-175.4444286404402
 51
-137.0745758663643
  0
ARC
  5
D2
330
3F
100
AcDbEntity
  8
1
  6
Continuous
 62
     7
100
AcDbCircle
 10
112.1984478436041
 20
173.0109212049935
 30
0.0
 40
5.000000000000075
100
AcDbArc
 50
-42.92542413363563
 51
-4.55557135955963
  0
ARC
  5
D3
330
3F
100
AcDbEntity
  8
1
  6
Continuous
 62
     7
100
AcDbCircle
 10
126.1826516791612
 20
366.2787250658909
 30
0.0
 40
11.0000000000001
100
AcDbArc
 50
136.6582417727771
 51
43.34175822722289
  0
ARC
  5
D4
330
3F
100
AcDbEntity
  8
1
  6
Continuous
 62
     7
100
AcDbCircle
 10
126.1826516791612
 20
366.2787250658909
 30
0.0
 40
9.00000000000005
100
AcDbArc
 50
152.7339555492666
 51
27.26604445073339
  0
ARC
  5
D5
330
3F
100
AcDbEntity
  8
1
  6
Continuous
 62
     7
100
AcDbCircle
 10
208.1970469793542
 20
172.5779854818476
 30
0.0
 40
3.999999999999992
100
AcDbArc
 50
-132.0061164456
 51
-119.9973493449064
  0
ARC
  5
D6
330
3F
100
AcDbEntity
  8
1
  6
Continuous
 62
     7
100
AcDbCircle
 10
182.1973675007358
 20
172.5779854818476
 30
0.0
 40
4.000000000000147
100
AcDbArc
 50
-60.00265065508869
 51
-47.99388355439883
  0
ARC
  5
D7
330
3F
100
AcDbEntity
  8
1
  6
Continuous
 62
     7
100
AcDbCircle
 10
209.1814110756021
 20
173.0109212049935
 30
0.0
 40
4.999999999999968
100
AcDbArc
 50
-175.4444286404402
 51
-137.0745758663652
  0
ARC
  5
D8
330
3F
100
AcDbEntity
  8
1
  6
Continuous
 62
     7
100
AcDbCircle
 10
181.2130034044881
 20
173.0109212049935
 30
0.0
 40
5.000000000000084
100
AcDbArc
 50
-42.92542413363552
 51
-4.55557135955962
  0
ARC
  5
D9
330
3F
100
AcDbEntity
  8
1
  6
Continuous
 62
     7
100
AcDbCircle
 10
222.1972072400453
 20
174.1137913450996
 30
0.0
 40
19.0
100
AcDbArc
 50
90.0
 51
180.0
  0
ARC
  5
DA
330
3F
100
AcDbEntity
  8
1
  6
Continuous
 62
     7
100
AcDbCircle
 10
222.1972072400453
 20
174.1137913450996
 30
0.0
 40
35.0
100
AcDbArc
 50
90.0
 51
180.0
  0
ARC
  5
DB
330
3F
100
AcDbEntity
  8
1
  6
Continuous
 62
     7
100
AcDbCircle
 10
338.199006644456
 20
228.1137913450996
 30
0.0
 40
19.0
100
AcDbArc
 50
-90.0
 51
0.0
  0
ARC
  5
DC
330
3F
100
AcDbEntity
  8
1
  6
Continuous
 62
     7
100
AcDbCircle
 10
338.199006644456
 20
228.1137913450996
 30
0.0
 40
35.0
100
AcDbArc
 50
-90.0
 51
0.0
  0
ARC
  5
DD
330
3F
100
AcDbEntity
  8
1
  6
Continuous
 62
     7
100
AcDbCircle
 10
126.1826516791612
 20
366.2787250658909
 30
0.0
 40
8.0
100
AcDbArc
 50
180.0
 51
0.0
  0
ARC
  5
DE
330
3F
100
AcDbEntity
  8
1
  6
Continuous
 62
     7
100
AcDbCircle
 10
126.1826516791612
 20
201.1137913450996
 30
0.0
 40
8.000000000000014
100
AcDbArc
 50
0.0
 51
180.0
  0
ENDBLK
  5
41
330
3F
100
AcDbEntity
  8
0
100
AcDbBlockEnd
  0
BLOCK
  5
43
330
42
100
AcDbEntity
  8
0
100
AcDbBlockBegin
  2
30-111
 70
     0
 71
     0
 10
23.43097116172692
 20
147.9712593978547
 30
0.0
  3
30-111
  1

  0
LINE
  5
DF
330
42
100
AcDbEntity
  8
1
  6
Continuous
 62
     7
100
AcDbLine
 10
137.7326516791612
 20
168.0137913450995
 30
0.0
 11
137.9326516791612
 21
167.8137913450995
 31
0.0
  0
LINE
  5
E0
330
42
100
AcDbEntity
  8
1
  6
Continuous
 62
     7
100
AcDbLine
 10
137.9326516791612
 20
153.0137913450995
 30
0.0
 11
137.9326516791612
 21
167.8137913450995
 31
0.0
  0
LINE
  5
E1
330
42
100
AcDbEntity
  8
1
  6
Continuous
 62
     7
100
AcDbLine
 10
115.5326516791611
 20
151.0137913450995
 30
0.0
 11
136.8326516791614
 21
151.0137913450995
 31
0.0
  0
LINE
  5
E2
330
42
100
AcDbEntity
  8
1
  6
Continuous
 62
     7
100
AcDbLine
 10
114.432651679161
 20
167.8137913450995
 30
0.0
 11
114.632651679161
 21
168.0137913450994
 31
0.0
  0
LINE
  5
E3
330
42
100
AcDbEntity
  8
1
  6
Continuous
 62
     7
100
AcDbLine
 10
114.432651679161
 20
167.8137913450995
 30
0.0
 11
114.432651679161
 21
153.0137913450996
 31
0.0
  0
LINE
  5
E4
330
42
100
AcDbEntity
  8
1
  6
Continuous
 62
     7
100
AcDbLine
 10
114.632651679161
 20
168.0137913450994
 30
0.0
 11
137.7326516791612
 21
168.0137913450995
 31
0.0
  0
LINE
  5
E5
330
42
100
AcDbEntity
  8
1
  6
Continuous
 62
     7
100
AcDbLine
 10
114.432651679161
 20
153.0137913450996
 30
0.0
 11
137.9326516791612
 21
153.0137913450995
 31
0.0
  0
LINE
  5
E6
330
42
100
AcDbEntity
  8
1
  6
Continuous
 62
     7
100
AcDbLine
 10
206.7472072400452
 20
168.0137913450995
 30
0.0
 11
206.9472072400453
 21
167.8137913450995
 31
0.0
  0
LINE
  5
E7
330
42
100
AcDbEntity
  8
1
  6
Continuous
 62
     7
100
AcDbLine
 10
206.9472072400453
 20
153.0137913450995
 30
0.0
 11
206.9472072400453
 21
167.8137913450995
 31
0.0
  0
LINE
  5
E8
330
42
100
AcDbEntity
  8
1
  6
Continuous
 62
     7
100
AcDbLine
 10
184.5472072400451
 20
151.0137913450995
 30
0.0
 11
205.8472072400452
 21
151.0137913450995
 31
0.0
  0
LINE
  5
E9
330
42
100
AcDbEntity
  8
1
  6
Continuous
 62
     7
100
AcDbLine
 10
183.4472072400449
 20
167.8137913450995
 30
0.0
 11
183.6472072400449
 21
168.0137913450994
 31
0.0
  0
LINE
  5
EA
330
42
100
AcDbEntity
  8
1
  6
Continuous
 62
     7
100
AcDbLine
 10
183.4472072400449
 20
167.8137913450995
 30
0.0
 11
183.4472072400449
 21
153.0137913450996
 31
0.0
  0
LINE
  5
EB
330
42
100
AcDbEntity
  8
1
  6
Continuous
 62
     7
100
AcDbLine
 10
183.6472072400449
 20
168.0137913450994
 30
0.0
 11
206.7472072400452
 21
168.0137913450995
 31
0.0
  0
LINE
  5
EC
330
42
100
AcDbEntity
  8
1
  6
Continuous
 62
     7
100
AcDbLine
 10
183.4472072400449
 20
153.0137913450996
 30
0.0
 11
206.9472072400453
 21
153.0137913450995
 31
0.0
  0
ARC
  5
ED
330
42
100
AcDbEntity
  8
1
  6
Continuous
 62
     7
100
AcDbCircle
 10
126.1826516791612
 20
366.2787250658909
 30
0.0
 40
11.75000000000024
100
AcDbArc
 50
132.9101840216749
 51
47.08981597832507
  0
ARC
  5
EE
330
42
100
AcDbEntity
  8
1
  6
Continuous
 62
     7
100
AcDbCircle
 10
123.3989073463217
 20
159.7048507281612
 30
0.0
 40
16.00000000000023
100
AcDbArc
 50
-32.90114381390481
 51
-24.72044367204088
  0
ARC
  5
EF
330
42
100
AcDbEntity
  8
1
  6
Continuous
 62
     7
100
AcDbCircle
 10
128.9663960120004
 20
159.7048507281612
 30
0.0
 40
15.99999999999993
100
AcDbArc
 50
-155.2795563279593
 51
-147.0988561860944
  0
ARC
  5
F0
330
42
100
AcDbEntity
  8
1
  6
Continuous
 62
     7
100
AcDbCircle
 10
192.4134629072057
 20
159.7048507281612
 30
0.0
 40
16.00000000000007
100
AcDbArc
 50
-32.90114381390518
 51
-24.72044367204077
  0
ARC
  5
F1
330
42
100
AcDbEntity
  8
1
  6
Continuous
 62
     7
100
AcDbCircle
 10
197.9809515728844
 20
159.7048507281612
 30
0.0
 40
16.00000000000005
100
AcDbArc
 50
-155.2795563279595
 51
-147.0988561860945
  0
ENDBLK
  5
44
330
42
100
AcDbEntity
  8
0
100
AcDbBlockEnd
  0
BLOCK
  5
46
330
45
100
AcDbEntity
  8
0
100
AcDbBlockBegin
  2
21-1A
 70
     0
 71
     0
 10
445.199006644456
 20
262.6137913450996
 30
0.0
  3
21-1A
  1

  0
LINE
  5
F2
330
45
100
AcDbEntity
  8
1
  6
Continuous
 62
     7
100
AcDbLine
 10
131.9782066368957
 20
544.7276101996863
 30
0.0
 11
135.629615848366
 21
558.3548548961192
 31
0.0
  0
LINE
  5
F3
330
45
100
AcDbEntity
  8
1
  6
Continuous
 62
     7
100
AcDbLine
 10
152.0759274608914
 20
579.5378837831822
 30
0.0
 11
142.1000919759291
 21
569.5620482982199
 31
0.0
  0
LINE
  5
F4
330
45
100
AcDbEntity
  8
1
  6
Continuous
 62
     7
100
AcDbLine
 10
147.0408774057775
 20
589.779856102533
 30
0.0
 11
132.6531278067242
 21
585.9246702165655
 31
0.0
  0
LINE
  5
F5
330
45
100
AcDbEntity
  8
1
  6
Continuous
 62
     7
100
AcDbLine
 10
106.0849308551655
 20
589.576079428036
 30
0.0
 11
119.7121755515983
 21
585.9246702165655
 31
0.0
  0
LINE
  5
F6
330
45
100
AcDbEntity
  8
1
  6
Continuous
 62
     7
100
AcDbLine
 10
100.2893758974311
 20
579.5378837831822
 30
0.0
 11
110.2652113823933
 21
569.5620482982199
 31
0.0
  0
LINE
  5
F7
330
45
100
AcDbEntity
  8
1
  6
Continuous
 62
     7
100
AcDbLine
 10
120.3870967214268
 20
544.7276101996863
 30
0.0
 11
116.7356875099565
 21
558.3548548961192
 31
0.0
  0
LINE
  5
F8
330
45
100
AcDbEntity
  8
1
  6
DASH_CENTER
 62
     2
100
AcDbLine
 10
117.522397641317
 20
566.2805244703015
 30
0.0
 11
155.6275154078322
 21
588.2805244703017
 31
0.0
  0
LINE
  5
F9
330
45
100
AcDbEntity
  8
1
  6
DASH_CENTER
 62
     2
100
AcDbLine
 10
134.8429057170058
 20
566.2805244703015
 30
0.0
 11
96.73778795049032
 21
588.2805244703015
 31
0.0
  0
ARC
  5
FA
330
45
100
AcDbEntity
  8
1
  6
Continuous
 62
     7
100
AcDbCircle
 10
126.1826516791612
 20
546.2805244703015
 30
0.0
 40
6.0
100
AcDbArc
 50
-90.0
 51
-15.00000000000092
  0
ARC
  5
FB
330
45
100
AcDbEntity
  8
1
  6
Continuous
 62
     7
100
AcDbCircle
 10
147.8332867737722
 20
583.7805244703015
 30
0.0
 40
5.999999999999968
100
AcDbArc
 50
-45.00000000000077
 51
97.52424107894113
  0
ARC
  5
FC
330
45
100
AcDbEntity
  8
1
  6
Continuous
 62
     7
100
AcDbCircle
 10
104.5320165845503
 20
583.7805244703015
 30
0.0
 40
6.000000000000059
100
AcDbArc
 50
74.9999999999995
 51
-134.9999999999992
  0
ARC
  5
FD
330
45
100
AcDbEntity
  8
1
  6
Continuous
 62
     7
100
AcDbCircle
 10
126.1826516791612
 20
546.2805244703015
 30
0.0
 40
6.000000000000019
100
AcDbArc
 50
-164.9999999999988
 51
-90.0
  0
ARC
  5
FE
330
45
100
AcDbEntity
  8
1
  6
Continuous
 62
     7
100
AcDbCircle
 10
159.7777615055928
 20
551.8843787685562
 30
0.0
 40
25.00000000000002
100
AcDbArc
 50
134.9999999999999
 51
165.0000000000002
  0
ARC
  5
FF
330
45
100
AcDbEntity
  8
1
  6
Continuous
 62
     7
100
AcDbCircle
 10
126.1826516791612
 20
610.0728158737923
 30
0.0
 40
25.00000000000005
100
AcDbArc
 50
-104.9999999999997
 51
-75.0000000000001
  0
ARC
  5
100
330
45
100
AcDbEntity
  8
1
  6
Continuous
 62
     7
100
AcDbCircle
 10
92.58754185272971
 20
551.8843787685562
 30
0.0
 40
25.00000000000007
100
AcDbArc
 50
14.99999999999982
 51
45.00000000000021
  0
ENDBLK
  5
47
330
45
100
AcDbEntity
  8
0
100
AcDbBlockEnd
  0
BLOCK
  5
49
330
48
100
AcDbEntity
  8
0
100
AcDbBlockBegin
  2
36-1A-13-M4
 70
     0
 71
     0
 10
154.3851482225076
 20
164.0446653356635
 30
0.0
  3
36-1A-13-M4
  1

  0
LINE
  5
101
330
48
100
AcDbEntity
  8
1
  6
Continuous
 62
     7
100
AcDbLine
 10
395.4490066444558
 20
302.1137913450996
 30
0.0
 11
395.4490066444558
 21
305.6137913450996
 31
0.0
  0
LINE
  5
102
330
48
100
AcDbEntity
  8
1
  6
Continuous
 62
     7
100
AcDbLine
 10
404.949006644456
 20
305.6137913450996
 30
0.0
 11
404.949006644456
 21
302.1137913450996
 31
0.0
  0
LINE
  5
103
330
48
100
AcDbEntity
  8
1
  6
Continuous
 62
     7
100
AcDbLine
 10
121.4326516791612
 20
302.1137913450996
 30
0.0
 11
121.4326516791612
 21
305.6137913450996
 31
0.0
  0
LINE
  5
104
330
48
100
AcDbEntity
  8
1
  6
Continuous
 62
     7
100
AcDbLine
 10
130.9326516791612
 20
305.6137913450996
 30
0.0
 11
130.9326516791612
 21
302.1137913450996
 31
0.0
  0
ENDBLK
  5
4A
330
48
100
AcDbEntity
  8
0
100
AcDbBlockEnd
  0
BLOCK
  5
4C
330
4B
100
AcDbEntity
  8
0
100
AcDbBlockBegin
  2
A10-0A-13
 70
     0
 71
     0
 10
400.199006644456
 20
262.6137913450996
 30
0.0
  3
A10-0A-13
  1

  0
LINE
  5
105
330
4B
100
AcDbEntity
  8
1
  6
Continuous
 62
     7
100
AcDbLine
 10
459.199006644456
 20
253.1137913450996
 30
0.0
 11
459.1990066444558
 21
272.1137913450996
 31
0.0
  0
LINE
  5
106
330
4B
100
AcDbEntity
  8
1
  6
Continuous
 62
     7
100
AcDbLine
 10
352.1990066444557
 20
246.8458421526684
 30
0.0
 11
352.1990066444557
 21
246.9737364004595
 31
0.0
  0
LINE
  5
107
330
4B
100
AcDbEntity
  8
1
  6
Continuous
 62
     7
100
AcDbLine
 10
388.1990066444557
 20
288.1137913450996
 30
0.0
 11
388.1990066444557
 21
284.8817405375309
 31
0.0
  0
LINE
  5
108
330
4B
100
AcDbEntity
  8
1
  6
Continuous
 62
     2
100
AcDbLine
 10
389.1990066444557
 20
286.6137913450996
 30
0.0
 11
389.199006644456
 21
288.1137913450996
 31
0.0
  0
LINE
  5
109
330
4B
100
AcDbEntity
  8
1
  6
Continuous
 62
     2
100
AcDbLine
 10
388.1990066444557
 20
284.8817405375309
 30
0.0
 11
389.1990066444557
 21
286.6137913450996
 31
0.0
  0
LINE
  5
10A
330
4B
100
AcDbEntity
  8
1
  6
Continuous
 62
     7
100
AcDbLine
 10
412.1990066444558
 20
284.8817405375309
 30
0.0
 11
412.1990066444558
 21
288.1137913450996
 31
0.0
  0
LINE
  5
10B
330
4B
100
AcDbEntity
  8
1
  6
Continuous
 62
     2
100
AcDbLine
 10
411.1990066444557
 20
286.6137913450996
 30
0.0
 11
412.1990066444558
 21
284.8817405375309
 31
0.0
  0
LINE
  5
10C
330
4B
100
AcDbEntity
  8
1
  6
Continuous
 62
     7
100
AcDbLine
 10
412.1990066444558
 20
284.8817405375309
 30
0.0
 11
412.4915838441049
 21
284.8817405375309
 31
0.0
  0
LINE
  5
10D
330
4B
100
AcDbEntity
  8
1
  6
Continuous
 62
     7
100
AcDbLine
 10
387.9064294448079
 20
284.8817405375309
 30
0.0
 11
388.1990066444557
 21
284.8817405375309
 31
0.0
  0
LINE
  5
10E
330
4B
100
AcDbEntity
  8
1
  6
Continuous
 62
     2
100
AcDbLine
 10
353.1990066444557
 20
244.6137913450996
 30
0.0
 11
353.1990066444557
 21
245.1137913450996
 31
0.0
  0
LINE
  5
10F
330
4B
100
AcDbEntity
  8
1
  6
Continuous
 62
     2
100
AcDbLine
 10
377.1990066444557
 20
245.1137913450996
 30
0.0
 11
377.1990066444557
 21
244.6137913450996
 31
0.0
  0
LINE
  5
110
330
4B
100
AcDbEntity
  8
1
  6
Continuous
 62
     2
100
AcDbLine
 10
377.1990066444557
 20
245.1137913450996
 30
0.0
 11
378.1990066444557
 21
246.8458421526685
 31
0.0
  0
LINE
  5
111
330
4B
100
AcDbEntity
  8
1
  6
Continuous
 62
     7
100
AcDbLine
 10
352.1990066444557
 20
244.6137913450996
 30
0.0
 11
352.1990066444557
 21
246.8458421526684
 31
0.0
  0
LINE
  5
112
330
4B
100
AcDbEntity
  8
1
  6
Continuous
 62
     2
100
AcDbLine
 10
352.1990066444557
 20
246.8458421526684
 30
0.0
 11
353.1990066444557
 21
245.1137913450996
 31
0.0
  0
LINE
  5
113
330
4B
100
AcDbEntity
  8
1
  6
Continuous
 62
     7
100
AcDbLine
 10
378.1990066444557
 20
246.9737364004595
 30
0.0
 11
378.1990066444557
 21
244.6137913450996
 31
0.0
  0
LINE
  5
114
330
4B
100
AcDbEntity
  8
1
  6
Continuous
 62
     7
100
AcDbLine
 10
442.6990066444558
 20
275.3637913450996
 30
0.0
 11
442.6990066444558
 21
285.1137913450996
 31
0.0
  0
LINE
  5
115
330
4B
100
AcDbEntity
  8
1
  6
Continuous
 62
     7
100
AcDbLine
 10
445.199006644456
 20
285.6137913450996
 30
0.0
 11
443.1990066444558
 21
285.6137913450996
 31
0.0
  0
LINE
  5
116
330
4B
100
AcDbEntity
  8
1
  6
Continuous
 62
     7
100
AcDbLine
 10
445.199006644456
 20
285.6137913450996
 30
0.0
 11
445.1990066444558
 21
273.1137913450996
 31
0.0
  0
LINE
  5
117
330
4B
100
AcDbEntity
  8
1
  6
Continuous
 62
     2
100
AcDbLine
 10
445.1990066444558
 20
273.1137913450996
 30
0.0
 11
446.9310574520249
 21
272.1137913450996
 31
0.0
  0
LINE
  5
118
330
4B
100
AcDbEntity
  8
1
  6
Continuous
 62
     7
100
AcDbLine
 10
459.1990066444558
 20
272.1137913450996
 30
0.0
 11
458.1990066444558
 21
273.1137913450996
 31
0.0
  0
LINE
  5
119
330
4B
100
AcDbEntity
  8
1
  6
Continuous
 62
     7
100
AcDbLine
 10
445.1990066444558
 20
273.1137913450996
 30
0.0
 11
458.1990066444558
 21
273.1137913450996
 31
0.0
  0
LINE
  5
11A
330
4B
100
AcDbEntity
  8
1
  6
Continuous
 62
     2
100
AcDbLine
 10
446.9310574520249
 20
272.1137913450996
 30
0.0
 11
459.1990066444558
 21
272.1137913450996
 31
0.0
  0
LINE
  5
11B
330
4B
100
AcDbEntity
  8
1
  6
Continuous
 62
     7
100
AcDbLine
 10
445.1990066444558
 20
252.1137913450996
 30
0.0
 11
445.199006644456
 21
239.6137913450996
 31
0.0
  0
LINE
  5
11C
330
4B
100
AcDbEntity
  8
1
  6
Continuous
 62
     7
100
AcDbLine
 10
445.199006644456
 20
239.6137913450996
 30
0.0
 11
443.1990066444558
 21
239.6137913450996
 31
0.0
  0
LINE
  5
11D
330
4B
100
AcDbEntity
  8
1
  6
Continuous
 62
     7
100
AcDbLine
 10
442.6990066444558
 20
249.8637913450996
 30
0.0
 11
442.699006644456
 21
240.1137913450996
 31
0.0
  0
LINE
  5
11E
330
4B
100
AcDbEntity
  8
1
  6
Continuous
 62
     7
100
AcDbLine
 10
458.1990066444558
 20
252.1137913450996
 30
0.0
 11
459.199006644456
 21
253.1137913450996
 31
0.0
  0
LINE
  5
11F
330
4B
100
AcDbEntity
  8
1
  6
Continuous
 62
     2
100
AcDbLine
 10
459.199006644456
 20
253.1137913450996
 30
0.0
 11
446.9310574520249
 21
253.1137913450996
 31
0.0
  0
LINE
  5
120
330
4B
100
AcDbEntity
  8
1
  6
Continuous
 62
     2
100
AcDbLine
 10
446.9310574520249
 20
253.1137913450996
 30
0.0
 11
445.1990066444558
 21
252.1137913450996
 31
0.0
  0
LINE
  5
121
330
4B
100
AcDbEntity
  8
1
  6
Continuous
 62
     7
100
AcDbLine
 10
458.1990066444558
 20
252.1137913450996
 30
0.0
 11
445.1990066444558
 21
252.1137913450996
 31
0.0
  0
LINE
  5
122
330
4B
100
AcDbEntity
  8
1
  6
Continuous
 62
     2
100
AcDbLine
 10
411.1990066444557
 20
288.1137913450996
 30
0.0
 11
411.1990066444557
 21
286.6137913450996
 31
0.0
  0
LINE
  5
123
330
4B
100
AcDbEntity
  8
1
  6
Continuous
 62
     7
100
AcDbLine
 10
377.1801534615768
 20
250.5397225405374
 30
0.0
 11
378.1990066444557
 21
246.9737364004595
 31
0.0
  0
LINE
  5
124
330
4B
100
AcDbEntity
  8
1
  6
Continuous
 62
     7
100
AcDbLine
 10
381.7666980532889
 20
254.1137913450996
 30
0.0
 11
380.9404805344828
 21
254.1137913450996
 31
0.0
  0
LINE
  5
125
330
4B
100
AcDbEntity
  8
1
  6
Continuous
 62
     7
100
AcDbLine
 10
422.3786707537239
 20
253.8637913450994
 30
0.0
 11
438.6990066444558
 21
253.8637913450996
 31
0.0
  0
LINE
  5
126
330
4B
100
AcDbEntity
  8
1
  6
Continuous
 62
     7
100
AcDbLine
 10
412.4915838441049
 20
284.8817405375309
 30
0.0
 11
412.6436818366459
 21
280.0906537724928
 31
0.0
  0
LINE
  5
127
330
4B
100
AcDbEntity
  8
1
  6
Continuous
 62
     7
100
AcDbLine
 10
438.6990066444558
 20
271.3637913450996
 30
0.0
 11
422.3786707537248
 21
271.3637913450998
 31
0.0
  0
LINE
  5
128
330
4B
100
AcDbEntity
  8
1
  6
Continuous
 62
     7
100
AcDbLine
 10
353.1778123616367
 20
250.3995564105924
 30
0.0
 11
352.1990066444557
 21
246.9737364004595
 31
0.0
  0
LINE
  5
129
330
4B
100
AcDbEntity
  8
1
  6
Continuous
 62
     7
100
AcDbLine
 10
387.7446504171908
 20
279.7857011676113
 30
0.0
 11
387.9064294448079
 21
284.8817405375309
 31
0.0
  0
LINE
  5
12A
330
4B
100
AcDbEntity
  8
1
  6
Continuous
 62
     7
100
AcDbLine
 10
378.199006644456
 20
245.1137913450996
 30
0.0
 11
352.1990066444557
 21
245.1137913450996
 31
0.0
  0
LINE
  5
12B
330
4B
100
AcDbEntity
  8
1
  6
Continuous
 62
     7
100
AcDbLine
 10
412.1990066444558
 20
286.6137913450996
 30
0.0
 11
388.199006644456
 21
286.6137913450996
 31
0.0
  0
LINE
  5
12C
330
4B
100
AcDbEntity
  8
1
  6
Continuous
 62
     7
100
AcDbLine
 10
412.1990066444558
 20
284.8817405375309
 30
0.0
 11
388.1990066444557
 21
284.8817405375309
 31
0.0
  0
LINE
  5
12D
330
4B
100
AcDbEntity
  8
1
  6
Continuous
 62
     7
100
AcDbLine
 10
446.9310574520249
 20
273.1137913450996
 30
0.0
 11
446.9310574520249
 21
252.1137913450996
 31
0.0
  0
LINE
  5
12E
330
4B
100
AcDbEntity
  8
1
  6
Continuous
 62
     7
100
AcDbLine
 10
445.1990066444558
 20
252.1137913450996
 30
0.0
 11
445.1990066444558
 21
273.1137913450996
 31
0.0
  0
LINE
  5
12F
330
4B
100
AcDbEntity
  8
1
  6
Continuous
 62
     7
100
AcDbLine
 10
442.6990066444558
 20
275.3637913450996
 30
0.0
 11
442.6990066444558
 21
249.8637913450996
 31
0.0
  0
LINE
  5
130
330
4B
100
AcDbEntity
  8
1
  6
Continuous
 62
     7
100
AcDbLine
 10
458.1990066444558
 20
273.1137913450996
 30
0.0
 11
458.1990066444558
 21
252.1137913450996
 31
0.0
  0
LINE
  5
131
330
4B
100
AcDbEntity
  8
0
  6
DASH_CENTER
 62
     2
100
AcDbLine
 10
100.1826516791612
 20
262.6137913450996
 30
0.0
 11
152.1826516791612
 21
262.6137913450996
 31
0.0
  0
LINE
  5
132
330
4B
100
AcDbEntity
  8
1
  6
DASH_CENTER
 62
     2
100
AcDbLine
 10
143.1826516791612
 20
571.2805244703015
 30
0.0
 11
109.1826516791612
 21
571.2805244703015
 31
0.0
  0
LINE
  5
133
330
4B
100
AcDbEntity
  8
1
  6
Continuous
 62
     2
100
AcDbLine
 10
135.6826516791612
 20
618.0125752778703
 30
0.0
 11
135.6826516791612
 21
630.2805244703015
 31
0.0
  0
LINE
  5
134
330
4B
100
AcDbEntity
  8
1
  6
Continuous
 62
     2
100
AcDbLine
 10
135.6826516791612
 20
618.0125752778703
 30
0.0
 11
136.6826516791612
 21
616.2805244703015
 31
0.0
  0
LINE
  5
135
330
4B
100
AcDbEntity
  8
1
  6
Continuous
 62
     7
100
AcDbLine
 10
149.1826516791612
 20
616.2805244703015
 30
0.0
 11
103.1826516791612
 21
616.2805244703015
 31
0.0
  0
LINE
  5
136
330
4B
100
AcDbEntity
  8
1
  6
Continuous
 62
     7
100
AcDbLine
 10
149.1826516791612
 20
614.2427197161308
 30
0.0
 11
149.1826516791612
 21
616.2805244703015
 31
0.0
  0
LINE
  5
137
330
4B
100
AcDbEntity
  8
1
  6
Continuous
 62
     7
100
AcDbLine
 10
134.9326516791612
 20
609.744261049264
 30
0.0
 11
134.9326516791612
 21
595.3000477794764
 31
0.0
  0
LINE
  5
138
330
4B
100
AcDbEntity
  8
1
  6
Continuous
 62
     7
100
AcDbLine
 10
103.1826516791612
 20
616.2805244703015
 30
0.0
 11
103.1826516791612
 21
614.2427197161308
 31
0.0
  0
LINE
  5
139
330
4B
100
AcDbEntity
  8
1
  6
Continuous
 62
     2
100
AcDbLine
 10
115.6826516791612
 20
616.2805244703015
 30
0.0
 11
116.6826516791612
 21
618.0125752778703
 31
0.0
  0
LINE
  5
13A
330
4B
100
AcDbEntity
  8
1
  6
Continuous
 62
     2
100
AcDbLine
 10
116.6826516791612
 20
618.0125752778703
 30
0.0
 11
116.6826516791612
 21
630.2805244703015
 31
0.0
  0
LINE
  5
13B
330
4B
100
AcDbEntity
  8
1
  6
Continuous
 62
     7
100
AcDbLine
 10
117.4326516791612
 20
609.744261049264
 30
0.0
 11
117.4326516791612
 21
595.3000477794764
 31
0.0
  0
LINE
  5
13C
330
4B
100
AcDbEntity
  8
1
  6
Continuous
 62
     7
100
AcDbLine
 10
115.6826516791612
 20
616.2805244703015
 30
0.0
 11
115.6826516791612
 21
629.2805244703015
 31
0.0
  0
LINE
  5
13D
330
4B
100
AcDbEntity
  8
1
  6
Continuous
 62
     7
100
AcDbLine
 10
116.6826516791612
 20
630.2805244703015
 30
0.0
 11
115.6826516791612
 21
629.2805244703015
 31
0.0
  0
LINE
  5
13E
330
4B
100
AcDbEntity
  8
1
  6
Continuous
 62
     7
100
AcDbLine
 10
136.6826516791612
 20
629.2805244703015
 30
0.0
 11
136.6826516791612
 21
616.2805244703015
 31
0.0
  0
LINE
  5
13F
330
4B
100
AcDbEntity
  8
1
  6
Continuous
 62
     7
100
AcDbLine
 10
136.6826516791612
 20
629.2805244703015
 30
0.0
 11
135.6826516791612
 21
630.2805244703015
 31
0.0
  0
LINE
  5
140
330
4B
100
AcDbEntity
  8
1
  6
Continuous
 62
     7
100
AcDbLine
 10
116.6826516791612
 20
630.2805244703015
 30
0.0
 11
135.6826516791612
 21
630.2805244703015
 31
0.0
  0
LINE
  5
141
330
4B
100
AcDbEntity
  8
1
  6
Continuous
 62
     7
100
AcDbLine
 10
117.4326516791612
 20
538.2805244703015
 30
0.0
 11
117.4326516791612
 21
547.2610011611265
 31
0.0
  0
LINE
  5
142
330
4B
100
AcDbEntity
  8
1
  6
Continuous
 62
     7
100
AcDbLine
 10
134.9326516791612
 20
538.2805244703015
 30
0.0
 11
134.9326516791612
 21
547.2610011611265
 31
0.0
  0
LINE
  5
143
330
4B
100
AcDbEntity
  8
1
  6
Continuous
 62
     7
100
AcDbLine
 10
115.6826516791612
 20
618.0125752778703
 30
0.0
 11
136.6826516791612
 21
618.0125752778703
 31
0.0
  0
LINE
  5
144
330
4B
100
AcDbEntity
  8
1
  6
Continuous
 62
     7
100
AcDbLine
 10
136.6826516791612
 20
629.2805244703015
 30
0.0
 11
115.6826516791612
 21
629.2805244703015
 31
0.0
  0
LINE
  5
145
330
4B
100
AcDbEntity
  8
1
  6
Continuous
 62
     7
100
AcDbLine
 10
103.6434221312973
 20
613.744261049264
 30
0.0
 11
148.7218812270251
 21
613.744261049264
 31
0.0
  0
LINE
  5
146
330
4B
100
AcDbEntity
  8
1
  6
DASH_CENTER
 62
     2
100
AcDbLine
 10
142.1826516791612
 20
536.2805244703015
 30
0.0
 11
110.1826516791612
 21
536.2805244703015
 31
0.0
  0
LINE
  5
147
330
4B
100
AcDbEntity
  8
1
  6
Continuous
 62
     7
100
AcDbLine
 10
113.1826516791612
 20
246.8458421526684
 30
0.0
 11
113.1826516791612
 21
246.9737364004595
 31
0.0
  0
LINE
  5
148
330
4B
100
AcDbEntity
  8
1
  6
Continuous
 62
     7
100
AcDbLine
 10
114.1826516791612
 20
288.1137913450996
 30
0.0
 11
114.1826516791612
 21
284.8817405375309
 31
0.0
  0
LINE
  5
149
330
4B
100
AcDbEntity
  8
1
  6
Continuous
 62
     2
100
AcDbLine
 10
115.1826516791612
 20
286.6137913450996
 30
0.0
 11
115.1826516791612
 21
288.1137913450996
 31
0.0
  0
LINE
  5
14A
330
4B
100
AcDbEntity
  8
1
  6
Continuous
 62
     2
100
AcDbLine
 10
114.1826516791612
 20
284.8817405375309
 30
0.0
 11
115.1826516791612
 21
286.6137913450996
 31
0.0
  0
LINE
  5
14B
330
4B
100
AcDbEntity
  8
1
  6
Continuous
 62
     7
100
AcDbLine
 10
138.1826516791612
 20
284.8817405375309
 30
0.0
 11
138.1826516791612
 21
288.1137913450996
 31
0.0
  0
LINE
  5
14C
330
4B
100
AcDbEntity
  8
1
  6
Continuous
 62
     2
100
AcDbLine
 10
137.1826516791612
 20
286.6137913450996
 30
0.0
 11
138.1826516791612
 21
284.8817405375309
 31
0.0
  0
LINE
  5
14D
330
4B
100
AcDbEntity
  8
1
  6
Continuous
 62
     7
100
AcDbLine
 10
138.1826516791612
 20
284.8817405375309
 30
0.0
 11
138.4752288788104
 21
284.8817405375309
 31
0.0
  0
LINE
  5
14E
330
4B
100
AcDbEntity
  8
1
  6
Continuous
 62
     7
100
AcDbLine
 10
113.8900744795122
 20
284.8817405375309
 30
0.0
 11
114.1826516791612
 21
284.8817405375309
 31
0.0
  0
LINE
  5
14F
330
4B
100
AcDbEntity
  8
1
  6
Continuous
 62
     2
100
AcDbLine
 10
114.1826516791612
 20
244.6137913450996
 30
0.0
 11
114.1826516791612
 21
245.1137913450996
 31
0.0
  0
LINE
  5
150
330
4B
100
AcDbEntity
  8
1
  6
Continuous
 62
     7
100
AcDbLine
 10
113.1826516791612
 20
244.6137913450996
 30
0.0
 11
113.1826516791612
 21
246.8458421526684
 31
0.0
  0
LINE
  5
151
330
4B
100
AcDbEntity
  8
1
  6
Continuous
 62
     2
100
AcDbLine
 10
113.1826516791612
 20
246.8458421526684
 30
0.0
 11
114.1826516791612
 21
245.1137913450996
 31
0.0
  0
LINE
  5
152
330
4B
100
AcDbEntity
  8
1
  6
Continuous
 62
     2
100
AcDbLine
 10
137.1826516791612
 20
288.1137913450996
 30
0.0
 11
137.1826516791612
 21
286.6137913450996
 31
0.0
  0
LINE
  5
153
330
4B
100
AcDbEntity
  8
1
  6
Continuous
 62
     7
100
AcDbLine
 10
138.4752288788104
 20
284.8817405375309
 30
0.0
 11
139.1826423489922
 21
262.5982162268221
 31
0.0
  0
LINE
  5
154
330
4B
100
AcDbEntity
  8
1
  6
Continuous
 62
     7
100
AcDbLine
 10
114.1614573963421
 20
250.3995564105924
 30
0.0
 11
113.1826516791612
 21
246.9737364004595
 31
0.0
  0
LINE
  5
155
330
4B
100
AcDbEntity
  8
1
  6
Continuous
 62
     7
100
AcDbLine
 10
139.1826516791612
 20
245.1137913450996
 30
0.0
 11
113.1826516791612
 21
245.1137913450996
 31
0.0
  0
LINE
  5
156
330
4B
100
AcDbEntity
  8
1
  6
Continuous
 62
     7
100
AcDbLine
 10
138.1826516791612
 20
286.6137913450996
 30
0.0
 11
114.1826516791612
 21
286.6137913450996
 31
0.0
  0
LINE
  5
157
330
4B
100
AcDbEntity
  8
1
  6
Continuous
 62
     7
100
AcDbLine
 10
138.1826516791612
 20
284.8817405375309
 30
0.0
 11
114.1826516791612
 21
284.8817405375309
 31
0.0
  0
LINE
  5
158
330
4B
100
AcDbEntity
  8
1
  6
Continuous
 62
     7
100
AcDbLine
 10
113.1826610093303
 20
262.5982162268221
 30
0.0
 11
113.8900744795122
 21
284.8817405375309
 31
0.0
  0
LINE
  5
159
330
4B
100
AcDbEntity
  8
1
  6
Continuous
 62
     7
100
AcDbLine
 10
139.1826516791613
 20
246.9737364004595
 30
0.0
 11
139.1826516791613
 21
246.8458421526684
 31
0.0
  0
LINE
  5
15A
330
4B
100
AcDbEntity
  8
1
  6
Continuous
 62
     2
100
AcDbLine
 10
138.1826516791613
 20
245.1137913450996
 30
0.0
 11
138.1826516791613
 21
244.6137913450996
 31
0.0
  0
LINE
  5
15B
330
4B
100
AcDbEntity
  8
1
  6
Continuous
 62
     7
100
AcDbLine
 10
139.1826516791613
 20
246.8458421526684
 30
0.0
 11
139.1826516791613
 21
244.6137913450996
 31
0.0
  0
LINE
  5
15C
330
4B
100
AcDbEntity
  8
1
  6
Continuous
 62
     2
100
AcDbLine
 10
138.1826516791613
 20
245.1137913450996
 30
0.0
 11
139.1826516791613
 21
246.8458421526684
 31
0.0
  0
LINE
  5
15D
330
4B
100
AcDbEntity
  8
1
  6
Continuous
 62
     7
100
AcDbLine
 10
139.1826516791613
 20
246.9737364004595
 30
0.0
 11
138.2038459619805
 21
250.3995564105924
 31
0.0
  0
ARC
  5
15E
330
4B
100
AcDbEntity
  8
1
  6
Continuous
 62
     7
100
AcDbCircle
 10
378.7491821395291
 20
280.0712715891255
 30
0.0
 40
9.00000000000378
100
AcDbArc
 50
-87.80595490022539
 51
-1.81830296445899
  0
ARC
  5
15F
330
4B
100
AcDbEntity
  8
1
  6
Continuous
 62
     7
100
AcDbCircle
 10
380.9696514061171
 20
222.1137913446402
 30
0.0
 40
49.00000000045973
100
AcDbArc
 50
92.19404509977881
 51
99.36066212030437
  0
ARC
  5
160
330
4B
100
AcDbEntity
  8
1
  6
Continuous
 62
     7
100
AcDbCircle
 10
376.9034372184481
 20
246.7808929620346
 30
0.0
 40
24.00000000000223
100
AcDbArc
 50
99.36066212030299
 51
171.3280051740367
  0
ARC
  5
161
330
4B
100
AcDbEntity
  8
1
  6
Continuous
 62
     7
100
AcDbCircle
 10
438.6990066444558
 20
275.3637913450996
 30
0.0
 40
4.0
100
AcDbArc
 50
-90.0
 51
0.0
  0
ARC
  5
162
330
4B
100
AcDbEntity
  8
1
  6
Continuous
 62
     7
100
AcDbCircle
 10
438.6990066444558
 20
249.8637913450996
 30
0.0
 40
4.0
100
AcDbArc
 50
0.0
 51
90.0
  0
ARC
  5
163
330
4B
100
AcDbEntity
  8
1
  6
Continuous
 62
     7
100
AcDbCircle
 10
381.1580412688769
 20
250.1197123114758
 30
0.0
 40
3.999999999997908
100
AcDbArc
 50
93.1178665175734
 51
173.9726861048962
  0
ARC
  5
164
330
4B
100
AcDbEntity
  8
1
  6
Continuous
 62
     7
100
AcDbCircle
 10
400.1990066444557
 20
278.6137913450995
 30
0.0
 40
28.9999999999999
100
AcDbArc
 50
-117.439240150681
 51
-68.3052839776142
  0
ARC
  5
165
330
4B
100
AcDbEntity
  8
1
  6
Continuous
 62
     7
100
AcDbCircle
 10
126.1826516791612
 20
536.2805244703015
 30
0.0
 40
12.9999999999999
100
AcDbArc
 50
132.3049897071832
 51
47.6950102928167
  0
ARC
  5
166
330
4B
100
AcDbEntity
  8
1
  6
Continuous
 62
     7
100
AcDbCircle
 10
153.1826516791612
 20
571.2805244703015
 30
0.0
 40
39.99999999999979
100
AcDbArc
 50
-171.5515988250778
 51
-159.9319453791807
  0
ARC
  5
167
330
4B
100
AcDbEntity
  8
1
  6
Continuous
 62
     7
100
AcDbCircle
 10
113.4326516791612
 20
609.744261049264
 30
0.0
 40
4.0
100
AcDbArc
 50
0.0
 51
90.0
  0
ARC
  5
168
330
4B
100
AcDbEntity
  8
1
  6
Continuous
 62
     7
100
AcDbCircle
 10
138.9326516791612
 20
609.744261049264
 30
0.0
 40
4.0
100
AcDbArc
 50
90.0
 51
180.0
  0
ARC
  5
169
330
4B
100
AcDbEntity
  8
1
  6
Continuous
 62
     7
100
AcDbCircle
 10
137.8870822531536
 20
246.7808929620346
 30
0.0
 40
24.00000000000165
100
AcDbArc
 50
152.129882605855
 51
171.3280051740367
  0
ARC
  5
16A
330
4B
100
AcDbEntity
  8
1
  6
Continuous
 62
     7
100
AcDbCircle
 10
126.1826516791612
 20
262.6137913450996
 30
0.0
 40
13.00000000000004
100
AcDbArc
 50
-34.31009279338925
 51
-0.06864528893923
  0
ARC
  5
16B
330
4B
100
AcDbEntity
  8
1
  6
Continuous
 62
     7
100
AcDbCircle
 10
126.1826516791612
 20
262.6137913450996
 30
0.0
 40
13.0
100
AcDbArc
 50
180.0
 51
-179.9313547110608
  0
ARC
  5
16C
330
4B
100
AcDbEntity
  8
1
  6
Continuous
 62
     7
100
AcDbCircle
 10
114.478221105169
 20
246.7808929620346
 30
0.0
 40
24.00000000000167
100
AcDbArc
 50
8.67199482596332
 51
27.87011739414509
  0
ARC
  5
16D
330
4B
100
AcDbEntity
  8
1
  6
Continuous
 62
     7
100
AcDbCircle
 10
126.1826516791612
 20
262.6137913450996
 30
0.0
 40
12.99999999999999
100
AcDbArc
 50
-179.9313547110608
 51
-145.6899072066105
  0
ARC
  5
16E
330
4B
100
AcDbEntity
  8
0
  6
Continuous
 62
     7
100
AcDbCircle
 10
126.1826516791612
 20
262.6137913450996
 30
0.0
 40
23.0
100
AcDbArc
 50
-53.10362499676101
 51
0.0
  0
ARC
  5
16F
330
4B
100
AcDbEntity
  8
0
  6
Continuous
 62
     7
100
AcDbCircle
 10
126.1826516791612
 20
262.6137913450996
 30
0.0
 40
22.99999999999998
100
AcDbArc
 50
122.5778011728607
 51
-126.8963750032388
  0
ARC
  5
170
330
4B
100
AcDbEntity
  8
0
  6
Continuous
 62
     7
100
AcDbCircle
 10
126.1826516791612
 20
262.6137913450996
 30
0.0
 40
23.00000000000001
100
AcDbArc
 50
0.0
 51
57.4221988271389
  0
ARC
  5
171
330
4B
100
AcDbEntity
  8
1
  6
Continuous
 62
     7
100
AcDbCircle
 10
99.18265167916121
 20
571.2805244703015
 30
0.0
 40
40.00000000000004
100
AcDbArc
 50
-20.06805462081926
 51
-8.44840117492204
  0
ARC
  5
172
330
4B
100
AcDbEntity
  8
1
  6
Continuous
 62
     7
100
AcDbCircle
 10
126.1826516791612
 20
262.6137913450996
 30
0.0
 40
8.351995935906075
100
AcDbArc
 50
90.0
 51
179.8094249769225
  0
ARC
  5
173
330
4B
100
AcDbEntity
  8
1
  6
Continuous
 62
     7
100
AcDbCircle
 10
126.1826516791612
 20
262.6137913450996
 30
0.0
 40
8.351995935906253
100
AcDbArc
 50
0.19057502307754
 51
90.0
  0
ARC
  5
174
330
4B
100
AcDbEntity
  8
1
  6
Continuous
 62
     7
100
AcDbCircle
 10
443.1990066444558
 20
285.1137913450996
 30
0.0
 40
0.5
100
AcDbArc
 50
90.0
 51
180.0
  0
ARC
  5
175
330
4B
100
AcDbEntity
  8
1
  6
Continuous
 62
     7
100
AcDbCircle
 10
443.1990066444558
 20
240.1137913450996
 30
0.0
 40
0.4999999999997726
100
AcDbArc
 50
180.0
 51
-90.0
  0
ARC
  5
176
330
4B
100
AcDbEntity
  8
1
  6
Continuous
 62
     7
100
AcDbCircle
 10
381.7666980532889
 20
243.1137913450996
 30
0.0
 40
11.00000000000005
100
AcDbArc
 50
62.56075984931824
 51
90.0
  0
ARC
  5
177
330
4B
100
AcDbEntity
  8
1
  6
Continuous
 62
     7
100
AcDbCircle
 10
422.3786707537248
 20
222.8637913450994
 30
0.0
 40
31.0
100
AcDbArc
 50
90.00000000000168
 51
111.6947160223878
  0
ARC
  5
178
330
4B
100
AcDbEntity
  8
1
  6
Continuous
 62
     7
100
AcDbCircle
 10
421.6391501143029
 20
280.3762241940058
 30
0.0
 40
8.999999999998678
100
AcDbArc
 50
-178.1816970355477
 51
-91.92633614020328
  0
ARC
  5
179
330
4B
100
AcDbEntity
  8
1
  6
Continuous
 62
     7
100
AcDbCircle
 10
422.3786707537248
 20
302.3637913450998
 30
0.0
 40
30.99999999999998
100
AcDbArc
 50
-91.92633614020622
 51
-90.0
  0
ARC
  5
17A
330
4B
100
AcDbEntity
  8
1
  6
Continuous
 62
     7
100
AcDbCircle
 10
148.6826516791612
 20
614.2427197161308
 30
0.0
 40
0.5000000000002149
100
AcDbArc
 50
-85.50000000000486
 51
0.0
  0
ARC
  5
17B
330
4B
100
AcDbEntity
  8
1
  6
Continuous
 62
     7
100
AcDbCircle
 10
103.6826516791612
 20
614.2427197161308
 30
0.0
 40
0.5
100
AcDbArc
 50
180.0
 51
-94.49999999999515
  0
ARC
  5
17C
330
4B
100
AcDbEntity
  8
1
  6
Continuous
 62
     7
100
AcDbCircle
 10
164.9326516791612
 20
547.2610011611265
 30
0.0
 40
29.99999999999999
100
AcDbArc
 50
159.9319453791808
 51
180.0
  0
ARC
  5
17D
330
4B
100
AcDbEntity
  8
1
  6
Continuous
 62
     7
100
AcDbCircle
 10
87.43265167916127
 20
547.2610011611265
 30
0.0
 40
29.99999999999993
100
AcDbArc
 50
0.0
 51
20.06805462081916
  0
ARC
  5
17E
330
4B
100
AcDbEntity
  8
1
  6
Continuous
 62
     7
100
AcDbCircle
 10
87.43265167916127
 20
595.3000477794764
 30
0.0
 40
29.99999999999988
100
AcDbArc
 50
-16.3396281907043
 51
0.0
  0
ARC
  5
17F
330
4B
100
AcDbEntity
  8
1
  6
Continuous
 62
     7
100
AcDbCircle
 10
115.4326516791612
 20
538.2805244703015
 30
0.0
 40
2.0
100
AcDbArc
 50
-90.0
 51
0.0
  0
ARC
  5
180
330
4B
100
AcDbEntity
  8
1
  6
Continuous
 62
     7
100
AcDbCircle
 10
136.9326516791612
 20
538.2805244703015
 30
0.0
 40
2.0
100
AcDbArc
 50
180.0
 51
-90.0
  0
ARC
  5
181
330
4B
100
AcDbEntity
  8
1
  6
Continuous
 62
     7
100
AcDbCircle
 10
164.9326516791612
 20
595.3000477794764
 30
0.0
 40
30.0
100
AcDbArc
 50
180.0
 51
-163.6603718092958
  0
ARC
  5
182
330
4B
100
AcDbEntity
  8
1
  6
Continuous
 62
     7
100
AcDbCircle
 10
107.8307572604493
 20
262.6748329371652
 30
0.0
 40
10.00000000000005
100
AcDbArc
 50
-27.87011739414522
 51
-0.1905750230771
  0
ARC
  5
183
330
4B
100
AcDbEntity
  8
1
  6
Continuous
 62
     7
100
AcDbCircle
 10
144.5345460978732
 20
262.6748329371652
 30
0.0
 40
9.999999999999869
100
AcDbArc
 50
-179.8094249769229
 51
-152.1298826058548
  0
ENDBLK
  5
4D
330
4B
100
AcDbEntity
  8
0
100
AcDbBlockEnd
  0
BLOCK
  5
4F
330
4E
100
AcDbEntity
  8
0
100
AcDbBlockBegin
  2
32-1-16
 70
     0
 71
     0
 10
68.65326680878707
 20
443.0996234752087
 30
0.0
  3
32-1-16
  1

  0
LINE
  5
184
330
4E
100
AcDbEntity
  8
1
  6
Continuous
 62
     7
100
AcDbLine
 10
365.199006644456
 20
235.6137913450996
 30
0.0
 11
356.4006846653862
 21
235.6137913450996
 31
0.0
  0
LINE
  5
185
330
4E
100
AcDbEntity
  8
1
  6
Continuous
 62
     7
100
AcDbLine
 10
355.4310574520247
 20
234.6137913450996
 30
0.0
 11
365.199006644456
 21
234.6137913450996
 31
0.0
  0
LINE
  5
186
330
4E
100
AcDbEntity
  8
1
  6
Continuous
 62
     7
100
AcDbLine
 10
353.699006644456
 20
235.6137913450996
 30
0.0
 11
353.6409855827253
 21
235.6137913450996
 31
0.0
  0
LINE
  5
187
330
4E
100
AcDbEntity
  8
1
  6
Continuous
 62
     7
100
AcDbLine
 10
351.8990066444558
 20
244.6137913450996
 30
0.0
 11
352.0120066444558
 21
244.6137913450996
 31
0.0
  0
LINE
  5
188
330
4E
100
AcDbEntity
  8
1
  6
Continuous
 62
     7
100
AcDbLine
 10
365.199006644456
 20
244.6137913450996
 30
0.0
 11
351.8990066444558
 21
244.6137913450996
 31
0.0
  0
LINE
  5
189
330
4E
100
AcDbEntity
  8
1
  6
Continuous
 62
     7
100
AcDbLine
 10
140.1826516791612
 20
542.9325918181265
 30
0.0
 11
140.1826516791612
 21
529.6284571224765
 31
0.0
  0
LINE
  5
18A
330
4E
100
AcDbEntity
  8
1
  6
Continuous
 62
     7
100
AcDbLine
 10
112.1826516791612
 20
542.9325918181265
 30
0.0
 11
112.1826516791612
 21
529.6284571224765
 31
0.0
  0
LINE
  5
18B
330
4E
100
AcDbEntity
  8
1
  6
Continuous
 62
     7
100
AcDbLine
 10
113.42179236826
 20
527.4822024912319
 30
0.0
 11
124.9435109900628
 21
520.8301351434068
 31
0.0
  0
LINE
  5
18C
330
4E
100
AcDbEntity
  8
1
  6
Continuous
 62
     7
100
AcDbLine
 10
127.42179236826
 20
520.8301351434068
 30
0.0
 11
138.9435109900628
 21
527.4822024912319
 31
0.0
  0
LINE
  5
18D
330
4E
100
AcDbEntity
  8
1
  6
Continuous
 62
     7
100
AcDbLine
 10
373.9973286235255
 20
235.6137913450996
 30
0.0
 11
365.199006644456
 21
235.6137913450996
 31
0.0
  0
LINE
  5
18E
330
4E
100
AcDbEntity
  8
1
  6
Continuous
 62
     7
100
AcDbLine
 10
365.199006644456
 20
234.6137913450996
 30
0.0
 11
374.966955836887
 21
234.6137913450996
 31
0.0
  0
LINE
  5
18F
330
4E
100
AcDbEntity
  8
1
  6
Continuous
 62
     7
100
AcDbLine
 10
376.7570277061864
 20
235.6137913450996
 30
0.0
 11
376.699006644456
 21
235.6137913450996
 31
0.0
  0
LINE
  5
190
330
4E
100
AcDbEntity
  8
1
  6
Continuous
 62
     7
100
AcDbLine
 10
378.386006644456
 20
244.6137913450996
 30
0.0
 11
378.4990066444559
 21
244.6137913450996
 31
0.0
  0
LINE
  5
191
330
4E
100
AcDbEntity
  8
1
  6
Continuous
 62
     7
100
AcDbLine
 10
378.4990066444559
 20
244.6137913450996
 30
0.0
 11
365.199006644456
 21
244.6137913450996
 31
0.0
  0
LINE
  5
192
330
4E
100
AcDbEntity
  8
1
  6
Continuous
 62
     7
100
AcDbLine
 10
126.1826516791612
 20
235.6137913450996
 30
0.0
 11
117.3843297000917
 21
235.6137913450996
 31
0.0
  0
LINE
  5
193
330
4E
100
AcDbEntity
  8
1
  6
Continuous
 62
     7
100
AcDbLine
 10
116.4147024867301
 20
234.6137913450996
 30
0.0
 11
126.1826516791612
 21
234.6137913450996
 31
0.0
  0
LINE
  5
194
330
4E
100
AcDbEntity
  8
1
  6
Continuous
 62
     7
100
AcDbLine
 10
114.6826516791612
 20
235.6137913450996
 30
0.0
 11
114.6246306174306
 21
235.6137913450996
 31
0.0
  0
LINE
  5
195
330
4E
100
AcDbEntity
  8
1
  6
Continuous
 62
     7
100
AcDbLine
 10
126.1826516791612
 20
244.6137913450996
 30
0.0
 11
112.8826516791613
 21
244.6137913450996
 31
0.0
  0
LINE
  5
196
330
4E
100
AcDbEntity
  8
1
  6
Continuous
 62
     7
100
AcDbLine
 10
112.1826516791612
 20
244.0420425239295
 30
0.0
 11
112.1826516791612
 21
236.9006140953865
 31
0.0
  0
LINE
  5
197
330
4E
100
AcDbEntity
  8
1
  6
Continuous
 62
     7
100
AcDbLine
 10
134.9809736582309
 20
235.6137913450996
 30
0.0
 11
126.1826516791612
 21
235.6137913450996
 31
0.0
  0
LINE
  5
198
330
4E
100
AcDbEntity
  8
1
  6
Continuous
 62
     7
100
AcDbLine
 10
126.1826516791612
 20
234.6137913450996
 30
0.0
 11
135.9506008715924
 21
234.6137913450996
 31
0.0
  0
LINE
  5
199
330
4E
100
AcDbEntity
  8
1
  6
Continuous
 62
     7
100
AcDbLine
 10
137.7406727408919
 20
235.6137913450996
 30
0.0
 11
137.6826516791612
 21
235.6137913450996
 31
0.0
  0
LINE
  5
19A
330
4E
100
AcDbEntity
  8
1
  6
Continuous
 62
     7
100
AcDbLine
 10
139.4826516791613
 20
244.6137913450996
 30
0.0
 11
126.1826516791612
 21
244.6137913450996
 31
0.0
  0
LINE
  5
19B
330
4E
100
AcDbEntity
  8
1
  6
Continuous
 62
     7
100
AcDbLine
 10
140.1826516791612
 20
236.9006140953865
 30
0.0
 11
140.1826516791612
 21
244.0420425239295
 31
0.0
  0
LINE
  5
19C
330
4E
100
AcDbEntity
  8
1
  6
Continuous
 62
     7
100
AcDbLine
 10
117.4323553300191
 20
547.3943460549449
 30
0.0
 11
113.42179236826
 21
545.0788464493711
 31
0.0
  0
LINE
  5
19D
330
4E
100
AcDbEntity
  8
1
  6
Continuous
 62
     7
100
AcDbLine
 10
134.9329480283034
 20
547.3943460549449
 30
0.0
 11
138.9435109900628
 21
545.0788464493711
 31
0.0
  0
ARC
  5
19E
330
4E
100
AcDbEntity
  8
1
  6
Continuous
 62
     7
100
AcDbCircle
 10
354.699006644456
 20
240.471328309658
 30
0.0
 40
5.000000000000112
100
AcDbArc
 50
124.0557977425696
 51
-105.3375576695566
  0
ARC
  5
19F
330
4E
100
AcDbEntity
  8
1
  6
Continuous
 62
     7
100
AcDbCircle
 10
126.1826516791612
 20
536.2805244703015
 30
0.0
 40
15.49999999999999
100
AcDbArc
 50
25.41462091516078
 51
34.5853790848385
  0
ARC
  5
1A0
330
4E
100
AcDbEntity
  8
1
  6
Continuous
 62
     7
100
AcDbCircle
 10
126.1826516791612
 20
536.2805244703015
 30
0.0
 40
15.49999999999975
100
AcDbArc
 50
145.4146209151606
 51
154.5853790848392
  0
ARC
  5
1A1
330
4E
100
AcDbEntity
  8
1
  6
Continuous
 62
     7
100
AcDbCircle
 10
126.1826516791612
 20
536.2805244703015
 30
0.0
 40
15.50000000000003
100
AcDbArc
 50
-154.5853790848388
 51
-145.4146209151603
  0
ARC
  5
1A2
330
4E
100
AcDbEntity
  8
1
  6
Continuous
 62
     7
100
AcDbCircle
 10
126.1826516791612
 20
536.2805244703015
 30
0.0
 40
15.50000000000009
100
AcDbArc
 50
-94.58537908483844
 51
-90.0
  0
ARC
  5
1A3
330
4E
100
AcDbEntity
  8
1
  6
Continuous
 62
     7
100
AcDbCircle
 10
126.1826516791612
 20
536.2805244703015
 30
0.0
 40
15.50000000000015
100
AcDbArc
 50
-34.58537908483884
 51
-25.41462091516116
  0
ARC
  5
1A4
330
4E
100
AcDbEntity
  8
1
  6
Continuous
 62
     7
100
AcDbCircle
 10
126.1826516791612
 20
536.2805244703015
 30
0.0
 40
15.5
100
AcDbArc
 50
-90.0
 51
-85.41462091516006
  0
ARC
  5
1A5
330
4E
100
AcDbEntity
  8
1
  6
Continuous
 62
     7
100
AcDbCircle
 10
375.699006644456
 20
240.471328309658
 30
0.0
 40
4.999999999999955
100
AcDbArc
 50
-74.66244233044715
 51
55.94420225743315
  0
ARC
  5
1A6
330
4E
100
AcDbEntity
  8
1
  6
Continuous
 62
     7
100
AcDbCircle
 10
115.6826516791612
 20
240.471328309658
 30
0.0
 40
5.000000000000057
100
AcDbArc
 50
-134.4270040008051
 51
-105.3375576695554
  0
ARC
  5
1A7
330
4E
100
AcDbEntity
  8
1
  6
Continuous
 62
     7
100
AcDbCircle
 10
115.6826516791612
 20
240.471328309658
 30
0.0
 40
4.999999999999953
100
AcDbArc
 50
124.0557977425669
 51
134.4270040008051
  0
ARC
  5
1A8
330
4E
100
AcDbEntity
  8
1
  6
Continuous
 62
     7
100
AcDbCircle
 10
136.6826516791612
 20
240.471328309658
 30
0.0
 40
5.000000000000014
100
AcDbArc
 50
-74.66244233044463
 51
-45.57299599919494
  0
ARC
  5
1A9
330
4E
100
AcDbEntity
  8
1
  6
Continuous
 62
     7
100
AcDbCircle
 10
136.6826516791612
 20
240.471328309658
 30
0.0
 40
5.000000000000057
100
AcDbArc
 50
45.57299599919494
 51
55.94420225743126
  0
SPLINE
  5
1AA
330
4E
100
AcDbEntity
  8
1
  6
Continuous
 62
     7
100
AcDbSpline
210
0.0
220
0.0
230
1.0
 70
    11
 71
     3
 72
    79
 73
    75
 74
    73
 42
0.0000000001
 43
0.0000000001
 44
0.00000001
 40
0.0
 40
0.0
 40
0.0
 40
0.0
 40
0.2910229153818411
 40
0.5820342278738533
 40
0.8749339334364701
 40
1.167812547519366
 40
1.463561188767408
 40
1.759282806464951
 40
2.058487811140791
 40
2.357663885606017
 40
2.660503341347688
 40
2.963315625194768
 40
3.269530826276625
 40
3.575723468843869
 40
3.884662744191447
 40
4.193586027919092
 40
4.504289085610747
 40
4.814983882015403
 40
5.126294430971191
 40
5.437604979926951
 40
5.748299776331579
 40
6.059002834023273
 40
6.367926117750848
 40
6.676865393098479
 40
6.983058035665724
 40
7.289273236747561
 40
7.592085520594552
 40
7.894924976336319
 40
8.194101050801484
 40
8.493306055477405
 40
8.789027673175074
 40
9.084776314422918
 40
9.377654928505876
 40
9.670554634068475
 40
9.961565946560425
 40
10.25258886194238
 40
10.54295309984937
 40
10.83331733775636
 40
11.1243402531382
 40
11.41535156563004
 40
11.70825127119264
 40
12.00112988527556
 40
12.2968785265235
 40
12.59260014422106
 40
12.89180514889696
 40
13.19098122336217
 40
13.49382067910385
 40
13.79663296295096
 40
14.10284816403284
 40
14.40904080660011
 40
14.71798008194774
 40
15.02690336567534
 40
15.3376064233669
 40
15.64830121977159
 40
15.95961176872741
 40
16.27092231768317
 40
16.5816171140878
 40
16.89232017177944
 40
17.2012434555071
 40
17.51018273085469
 40
17.81637537342184
 40
18.12259057450373
 40
18.42540285835083
 40
18.72824231409254
 40
19.02741838855774
 40
19.32662339323364
 40
19.62234501093117
 40
19.91809365217916
 40
20.21097226626203
 40
20.50387197182474
 40
20.79488328431663
 40
21.08590619969841
 40
21.37627043760534
 40
21.66663467551238
 40
21.66663467551238
 40
21.66663467551238
 40
21.66663467551238
 10
377.0333188426877
 20
244.0283975610591
 30
0.0
 10
376.9369437839707
 20
244.0167218932577
 30
0.0
 10
376.7441975089462
 20
243.9933710231561
 30
0.0
 10
376.4602609996813
 20
243.9240150297055
 30
0.0
 10
376.1829967338226
 20
243.8305722721299
 30
0.0
 10
375.9142443499725
 20
243.710665286153
 30
0.0
 10
375.6565989664526
 20
243.5666197809657
 30
0.0
 10
375.4113720192179
 20
243.3985531801204
 30
0.0
 10
375.1811086631609
 20
243.2087184470463
 30
0.0
 10
374.9668764546447
 20
242.9975823183791
 30
0.0
 10
374.770922025882
 20
242.7678027147451
 30
0.0
 10
374.5941646822613
 20
242.5200741825209
 30
0.0
 10
374.4383938482943
 20
242.2573419426868
 30
0.0
 10
374.3044254309251
 20
241.9805909310452
 30
0.0
 10
374.1935023996398
 20
241.6928589532815
 30
0.0
 10
374.1063256072682
 20
241.3955055068587
 30
0.0
 10
374.0435775971753
 20
241.0914595107156
 30
0.0
 10
374.0057772179633
 20
240.7825179149616
 30
0.0
 10
373.993100144475
 20
240.4713283096589
 30
0.0
 10
374.0057772179629
 20
240.1601387043506
 30
0.0
 10
374.0435775971766
 20
239.8511971086134
 30
0.0
 10
374.1063256072636
 20
239.5471511124085
 30
0.0
 10
374.1935023996569
 20
239.2497976662149
 30
0.0
 10
374.3044254308618
 20
238.9620656875999
 30
0.0
 10
374.4383938485274
 20
238.6853146791079
 30
0.0
 10
374.5941646813948
 20
238.4225824275837
 30
0.0
 10
374.770922029076
 20
238.1748539385253
 30
0.0
 10
374.9668764427792
 20
237.9450741748047
 30
0.0
 10
375.1811087068504
 20
237.7339386366969
 30
0.0
 10
375.4113718568849
 20
237.5441017135692
 30
0.0
 10
375.6565995644799
 20
237.3760431954744
 30
0.0
 10
375.9142421261594
 20
237.2319676936814
 30
0.0
 10
376.1830049440506
 20
237.1121716232017
 30
0.0
 10
376.460230429743
 20
237.0183166263605
 30
0.0
 10
376.7443107832456
 20
236.9504897197708
 30
0.0
 10
377.0326782637584
 20
236.9097947581469
 30
0.0
 10
377.3233622974382
 20
236.8960289645819
 30
0.0
 10
377.6140463311177
 20
236.909794758147
 30
0.0
 10
377.9024138116305
 20
236.9504897197706
 30
0.0
 10
378.1864941651331
 20
237.0183166263605
 30
0.0
 10
378.4637196508254
 20
237.1121716232017
 30
0.0
 10
378.7324824687166
 20
237.2319676936814
 30
0.0
 10
378.990125030396
 20
237.3760431954743
 30
0.0
 10
379.2353527379913
 20
237.5441017135692
 30
0.0
 10
379.4656158880256
 20
237.7339386366968
 30
0.0
 10
379.6798481520968
 20
237.9450741748046
 30
0.0
 10
379.8758025657999
 20
238.1748539385254
 30
0.0
 10
380.0525599134813
 20
238.4225824275837
 30
0.0
 10
380.2083307463486
 20
238.6853146791078
 30
0.0
 10
380.3422991640142
 20
238.9620656876
 30
0.0
 10
380.4532221952196
 20
239.2497976662148
 30
0.0
 10
380.5403989876126
 20
239.5471511124085
 30
0.0
 10
380.6031469976992
 20
239.8511971086133
 30
0.0
 10
380.6409473769134
 20
240.1601387043509
 30
0.0
 10
380.653624450401
 20
240.471328309658
 30
0.0
 10
380.6409473769133
 20
240.7825179149647
 30
0.0
 10
380.6031469976994
 20
241.0914595107035
 30
0.0
 10
380.5403989876128
 20
241.3955055069039
 30
0.0
 10
380.4532221952181
 20
241.692858953114
 30
0.0
 10
380.3422991640184
 20
241.9805909316677
 30
0.0
 10
380.2083307463319
 20
242.2573419403857
 30
0.0
 10
380.0525599135435
 20
242.5200741910716
 30
0.0
 10
379.8758025655708
 20
242.7678026832255
 30
0.0
 10
379.6798481529477
 20
242.9975824354657
 30
0.0
 10
379.4656158848924
 20
243.2087180159253
 30
0.0
 10
379.235352749633
 20
243.3985547819938
 30
0.0
 10
378.9901249875088
 20
243.5666138797412
 30
0.0
 10
378.7324826281969
 20
243.710687230335
 30
0.0
 10
378.4637190620309
 20
243.8304912550919
 30
0.0
 10
378.1864963574487
 20
243.9243166882972
 30
0.0
 10
377.9024056881925
 20
243.9922532529691
 30
0.0
 10
377.6140766271214
 20
244.0325398098858
 30
0.0
 10
377.3232495144555
 20
244.0478265555699
 30
0.0
 10
377.1299623999437
 20
244.0348738925627
 30
0.0
 10
377.0333188426877
 20
244.0283975610591
 30
0.0
 11
377.0333188426877
 21
244.0283975610591
 31
0.0
 11
376.7451593464128
 21
243.9876735879726
 31
0.0
 11
376.4620771400302
 21
243.9202047179072
 31
0.0
 11
376.1846530974864
 21
243.8262571892684
 31
0.0
 11
375.917091345369
 21
243.707141315469
 31
0.0
 11
375.6589589766538
 21
243.5627981860118
 31
0.0
 11
375.4149463240426
 21
243.3957380155961
 31
0.0
 11
375.1840668185118
 21
243.2054269839954
 31
0.0
 11
374.9708915235606
 21
242.9955160096399
 31
0.0
 11
374.7743571995524
 21
242.7651120265134
 31
0.0
 11
374.5983836637527
 21
242.5186803038257
 31
0.0
 11
374.4421865232799
 21
242.2552980669878
 31
0.0
 11
374.3086908353157
 21
241.97973893421
 31
0.0
 11
374.1975409097586
 21
241.6914870133128
 31
0.0
 11
374.1105642557322
 21
241.3950605352723
 31
0.0
 11
374.0477591814107
 21
241.0907713427294
 31
0.0
 11
374.0099838197391
 21
240.7823815268089
 31
0.0
 11
373.9973286235256
 21
240.4713283096579
 31
0.0
 11
374.0099838197391
 21
240.160275092507
 31
0.0
 11
374.0477591814107
 21
239.8518852765865
 31
0.0
 11
374.1105642557322
 21
239.5475960840436
 31
0.0
 11
374.1975409097586
 21
239.2511696060032
 31
0.0
 11
374.3086908353157
 21
238.9629176851059
 31
0.0
 11
374.4421865232799
 21
238.6873585523281
 31
0.0
 11
374.5983836637527
 21
238.4239763154903
 31
0.0
 11
374.7743571995522
 21
238.1775445928025
 31
0.0
 11
374.9708915235606
 21
237.947140609676
 31
0.0
 11
375.1840668185118
 21
237.7372296353206
 31
0.0
 11
375.4149463240426
 21
237.5469186037198
 31
0.0
 11
375.6589589766539
 21
237.379858433304
 31
0.0
 11
375.9170913453689
 21
237.2355153038468
 31
0.0
 11
376.1846530974864
 21
237.1163994300474
 31
0.0
 11
376.4620771400302
 21
237.0224519014087
 31
0.0
 11
376.7451593464127
 21
236.9549830313433
 31
0.0
 11
377.0333188426877
 21
236.9142590582568
 31
0.0
 11
377.3233622974381
 21
236.9006140953865
 31
0.0
 11
377.6134057521886
 21
236.9142590582568
 31
0.0
 11
377.9015652484634
 21
236.9549830313433
 31
0.0
 11
378.1846474548458
 21
237.0224519014087
 31
0.0
 11
378.4620714973896
 21
237.1163994300474
 31
0.0
 11
378.729633249507
 21
237.2355153038469
 31
0.0
 11
378.9877656182222
 21
237.3798584333041
 31
0.0
 11
379.2317782708333
 21
237.5469186037198
 31
0.0
 11
379.4626577763642
 21
237.7372296353206
 31
0.0
 11
379.6758330713154
 21
237.947140609676
 31
0.0
 11
379.8723673953237
 21
238.1775445928024
 31
0.0
 11
380.0483409311233
 21
238.4239763154902
 31
0.0
 11
380.2045380715962
 21
238.6873585523281
 31
0.0
 11
380.3380337595605
 21
238.9629176851059
 31
0.0
 11
380.4491836851177
 21
239.2511696060032
 31
0.0
 11
380.536160339144
 21
239.5475960840436
 31
0.0
 11
380.5989654134653
 21
239.8518852765864
 31
0.0
 11
380.636740775137
 21
240.160275092507
 31
0.0
 11
380.6493959713505
 21
240.471328309658
 31
0.0
 11
380.636740775137
 21
240.7823815268089
 31
0.0
 11
380.5989654134654
 21
241.0907713427294
 31
0.0
 11
380.5361603391438
 21
241.3950605352723
 31
0.0
 11
380.4491836851175
 21
241.6914870133127
 31
0.0
 11
380.3380337595603
 21
241.9797389342099
 31
0.0
 11
380.2045380715962
 21
242.2552980669877
 31
0.0
 11
380.0483409311233
 21
242.5186803038256
 31
0.0
 11
379.8723673953237
 21
242.7651120265134
 31
0.0
 11
379.6758330713154
 21
242.9955160096399
 31
0.0
 11
379.4626577763642
 21
243.2054269839954
 31
0.0
 11
379.2317782708334
 21
243.3957380155961
 31
0.0
 11
378.9877656182223
 21
243.5627981860119
 31
0.0
 11
378.7296332495071
 21
243.7071413154691
 31
0.0
 11
378.4620714973897
 21
243.8262571892685
 31
0.0
 11
378.1846474548458
 21
243.9202047179073
 31
0.0
 11
377.9015652484634
 21
243.9876735879726
 31
0.0
 11
377.6134057521886
 21
244.0283975610591
 31
0.0
 11
377.3233622974382
 21
244.0420425239294
 31
0.0
 11
377.0333188426877
 21
244.0283975610591
 31
0.0
  0
SPLINE
  5
1AB
330
4E
100
AcDbEntity
  8
1
  6
Continuous
 62
     7
100
AcDbSpline
210
0.0
220
0.0
230
1.0
 70
    11
 71
     3
 72
    79
 73
    75
 74
    73
 42
0.0000000001
 43
0.0000000001
 44
0.00000001
 40
0.0
 40
0.0
 40
0.0
 40
0.0
 40
0.2910229153818973
 40
0.582034227873799
 40
0.8749339334365236
 40
1.167812547519368
 40
1.46356118876736
 40
1.759282806464856
 40
2.058487811140696
 40
2.357663885605881
 40
2.660503341347552
 40
2.963315625194633
 40
3.269530826276548
 40
3.575723468843767
 40
3.884662744191345
 40
4.193586027919006
 40
4.504289085610672
 40
4.814983882015328
 40
5.126294430971116
 40
5.43760497992688
 40
5.748299776331515
 40
6.059002834023198
 40
6.367926117750772
 40
6.676865393098404
 40
6.983058035665673
 40
7.289273236747452
 40
7.592085520594542
 40
7.894924976336197
 40
8.194101050801322
 40
8.493306055477287
 40
8.789027673174815
 40
9.084776314422856
 40
9.377654928505763
 40
9.670554634068415
 40
9.961565946560254
 40
10.25258886194221
 40
10.54295309984925
 40
10.83331733775619
 40
11.12434025313808
 40
11.41535156562998
 40
11.70825127119258
 40
12.00112988527555
 40
12.29687852652349
 40
12.59260014422105
 40
12.89180514889686
 40
13.19098122336207
 40
13.49382067910376
 40
13.7966329629509
 40
14.10284816403281
 40
14.40904080660005
 40
14.71798008194764
 40
15.02690336567525
 40
15.33760642336687
 40
15.64830121977154
 40
15.95961176872735
 40
16.27092231768312
 40
16.58161711408774
 40
16.89232017177938
 40
17.20124345550707
 40
17.51018273085465
 40
17.81637537342179
 40
18.12259057450368
 40
18.42540285835081
 40
18.72824231409255
 40
19.02741838855772
 40
19.32662339323358
 40
19.62234501093115
 40
19.9180936521791
 40
20.21097226626207
 40
20.50387197182472
 40
20.79488328431667
 40
21.08590619969845
 40
21.37627043760538
 40
21.66663467551242
 40
21.66663467551242
 40
21.66663467551242
 40
21.66663467551242
 10
353.3646944462241
 20
244.0283975610591
 30
0.0
 10
353.4610695049411
 20
244.0167218932577
 30
0.0
 10
353.6538157799655
 20
243.9933710231561
 30
0.0
 10
353.9377522892306
 20
243.9240150297056
 30
0.0
 10
354.2150165550892
 20
243.83057227213
 30
0.0
 10
354.4837689389393
 20
243.7106652861529
 30
0.0
 10
354.7414143224592
 20
243.5666197809658
 30
0.0
 10
354.9866412696939
 20
243.3985531801203
 30
0.0
 10
355.2169046257508
 20
243.2087184470463
 30
0.0
 10
355.4311368342669
 20
242.9975823183791
 30
0.0
 10
355.6270912630296
 20
242.7678027147451
 30
0.0
 10
355.8038486066503
 20
242.5200741825208
 30
0.0
 10
355.9596194406175
 20
242.2573419426869
 30
0.0
 10
356.0935878579866
 20
241.9805909310452
 30
0.0
 10
356.2045108892719
 20
241.6928589532815
 30
0.0
 10
356.2916876816435
 20
241.3955055068587
 30
0.0
 10
356.3544356917364
 20
241.0914595107157
 30
0.0
 10
356.3922360709487
 20
240.7825179149615
 30
0.0
 10
356.4049131444369
 20
240.4713283096589
 30
0.0
 10
356.3922360709488
 20
240.1601387043506
 30
0.0
 10
356.3544356917349
 20
239.8511971086134
 30
0.0
 10
356.2916876816479
 20
239.5471511124085
 30
0.0
 10
356.2045108892551
 20
239.2497976662149
 30
0.0
 10
356.0935878580496
 20
238.9620656875999
 30
0.0
 10
355.9596194403843
 20
238.6853146791081
 30
0.0
 10
355.803848607517
 20
238.4225824275836
 30
0.0
 10
355.6270912598355
 20
238.1748539385255
 30
0.0
 10
355.4311368461326
 20
237.9450741748047
 30
0.0
 10
355.2169045820613
 20
237.7339386366967
 30
0.0
 10
354.9866414320271
 20
237.5441017135693
 30
0.0
 10
354.7414137244319
 20
237.3760431954743
 30
0.0
 10
354.4837711627524
 20
237.2319676936815
 30
0.0
 10
354.2150083448611
 20
237.1121716232017
 30
0.0
 10
353.9377828591688
 20
237.0183166263606
 30
0.0
 10
353.6537025056662
 20
236.9504897197706
 30
0.0
 10
353.3653350251532
 20
236.909794758147
 30
0.0
 10
353.0746509914736
 20
236.8960289645819
 30
0.0
 10
352.7839669577941
 20
236.9097947581469
 30
0.0
 10
352.495599477281
 20
236.9504897197706
 30
0.0
 10
352.2115191237787
 20
237.0183166263605
 30
0.0
 10
351.9342936380862
 20
237.1121716232017
 30
0.0
 10
351.6655308201952
 20
237.2319676936814
 30
0.0
 10
351.4078882585155
 20
237.3760431954744
 30
0.0
 10
351.1626605509204
 20
237.5441017135692
 30
0.0
 10
350.9323974008862
 20
237.7339386366969
 30
0.0
 10
350.718165136815
 20
237.9450741748046
 30
0.0
 10
350.5222107231118
 20
238.1748539385254
 30
0.0
 10
350.3454533754305
 20
238.4225824275837
 30
0.0
 10
350.1896825425629
 20
238.6853146791078
 30
0.0
 10
350.0557141248975
 20
238.9620656876
 30
0.0
 10
349.9447910936923
 20
239.2497976662148
 30
0.0
 10
349.8576143012994
 20
239.5471511124086
 30
0.0
 10
349.794866291212
 20
239.8511971086132
 30
0.0
 10
349.7570659119986
 20
240.1601387043509
 30
0.0
 10
349.7443888385105
 20
240.471328309658
 30
0.0
 10
349.7570659119986
 20
240.7825179149648
 30
0.0
 10
349.7948662912123
 20
241.0914595107035
 30
0.0
 10
349.857614301299
 20
241.3955055069038
 30
0.0
 10
349.9447910936936
 20
241.692858953114
 30
0.0
 10
350.0557141248931
 20
241.9805909316678
 30
0.0
 10
350.1896825425798
 20
242.2573419403857
 30
0.0
 10
350.3454533753682
 20
242.5200741910716
 30
0.0
 10
350.522210723341
 20
242.7678026832256
 30
0.0
 10
350.7181651359641
 20
242.9975824354656
 30
0.0
 10
350.9323974040194
 20
243.2087180159255
 30
0.0
 10
351.1626605392786
 20
243.3985547819938
 30
0.0
 10
351.4078883014029
 20
243.5666138797411
 30
0.0
 10
351.6655306607149
 20
243.710687230335
 30
0.0
 10
351.9342942268808
 20
243.8304912550919
 30
0.0
 10
352.2115169314633
 20
243.9243166882972
 30
0.0
 10
352.4956076007193
 20
243.9922532529691
 30
0.0
 10
352.7839366617903
 20
244.0325398098858
 30
0.0
 10
353.0747637744562
 20
244.0478265555699
 30
0.0
 10
353.2680508889681
 20
244.0348738925627
 30
0.0
 10
353.3646944462241
 20
244.0283975610591
 30
0.0
 11
353.3646944462241
 21
244.0283975610591
 31
0.0
 11
353.6528539424991
 21
243.9876735879726
 31
0.0
 11
353.9359361488815
 21
243.9202047179072
 31
0.0
 11
354.2133601914254
 21
243.8262571892684
 31
0.0
 11
354.4809219435427
 21
243.707141315469
 31
0.0
 11
354.739054312258
 21
243.5627981860118
 31
0.0
 11
354.9830669648691
 21
243.3957380155961
 31
0.0
 11
355.2139464703998
 21
243.2054269839954
 31
0.0
 11
355.4271217653511
 21
242.9955160096399
 31
0.0
 11
355.6236560893593
 21
242.7651120265134
 31
0.0
 11
355.7996296251589
 21
242.5186803038257
 31
0.0
 11
355.9558267656318
 21
242.2552980669878
 31
0.0
 11
356.089322453596
 21
241.97973893421
 31
0.0
 11
356.2004723791531
 21
241.6914870133128
 31
0.0
 11
356.2874490331795
 21
241.3950605352723
 31
0.0
 11
356.3502541075011
 21
241.0907713427294
 31
0.0
 11
356.3880294691727
 21
240.7823815268089
 31
0.0
 11
356.4006846653862
 21
240.4713283096579
 31
0.0
 11
356.3880294691726
 21
240.160275092507
 31
0.0
 11
356.3502541075009
 21
239.8518852765865
 31
0.0
 11
356.2874490331794
 21
239.5475960840436
 31
0.0
 11
356.2004723791531
 21
239.2511696060032
 31
0.0
 11
356.089322453596
 21
238.9629176851059
 31
0.0
 11
355.9558267656317
 21
238.6873585523281
 31
0.0
 11
355.799629625159
 21
238.4239763154903
 31
0.0
 11
355.6236560893593
 21
238.1775445928025
 31
0.0
 11
355.4271217653512
 21
237.947140609676
 31
0.0
 11
355.2139464704
 21
237.7372296353206
 31
0.0
 11
354.9830669648691
 21
237.5469186037198
 31
0.0
 11
354.739054312258
 21
237.379858433304
 31
0.0
 11
354.4809219435427
 21
237.2355153038468
 31
0.0
 11
354.2133601914254
 21
237.1163994300474
 31
0.0
 11
353.9359361488815
 21
237.0224519014087
 31
0.0
 11
353.6528539424991
 21
236.9549830313433
 31
0.0
 11
353.3646944462241
 21
236.9142590582568
 31
0.0
 11
353.0746509914736
 21
236.9006140953865
 31
0.0
 11
352.7846075367232
 21
236.9142590582568
 31
0.0
 11
352.4964480404483
 21
236.9549830313433
 31
0.0
 11
352.2133658340658
 21
237.0224519014087
 31
0.0
 11
351.9359417915221
 21
237.1163994300474
 31
0.0
 11
351.6683800394046
 21
237.2355153038469
 31
0.0
 11
351.4102476706894
 21
237.3798584333041
 31
0.0
 11
351.1662350180783
 21
237.5469186037198
 31
0.0
 11
350.9353555125476
 21
237.7372296353206
 31
0.0
 11
350.7221802175963
 21
237.947140609676
 31
0.0
 11
350.525645893588
 21
238.1775445928024
 31
0.0
 11
350.3496723577883
 21
238.4239763154902
 31
0.0
 11
350.1934752173154
 21
238.6873585523281
 31
0.0
 11
350.0599795293512
 21
238.9629176851059
 31
0.0
 11
349.9488296037941
 21
239.2511696060032
 31
0.0
 11
349.8618529497678
 21
239.5475960840436
 31
0.0
 11
349.7990478754462
 21
239.8518852765864
 31
0.0
 11
349.7612725137747
 21
240.160275092507
 31
0.0
 11
349.7486173175611
 21
240.471328309658
 31
0.0
 11
349.7612725137747
 21
240.7823815268089
 31
0.0
 11
349.7990478754463
 21
241.0907713427294
 31
0.0
 11
349.8618529497678
 21
241.3950605352723
 31
0.0
 11
349.9488296037943
 21
241.6914870133127
 31
0.0
 11
350.0599795293514
 21
241.9797389342099
 31
0.0
 11
350.1934752173155
 21
242.2552980669877
 31
0.0
 11
350.3496723577883
 21
242.5186803038256
 31
0.0
 11
350.525645893588
 21
242.7651120265134
 31
0.0
 11
350.7221802175964
 21
242.9955160096399
 31
0.0
 11
350.9353555125475
 21
243.2054269839954
 31
0.0
 11
351.1662350180783
 21
243.3957380155961
 31
0.0
 11
351.4102476706894
 21
243.5627981860119
 31
0.0
 11
351.6683800394046
 21
243.7071413154691
 31
0.0
 11
351.9359417915221
 21
243.8262571892685
 31
0.0
 11
352.2133658340659
 21
243.9202047179073
 31
0.0
 11
352.4964480404484
 21
243.9876735879726
 31
0.0
 11
352.7846075367232
 21
244.0283975610591
 31
0.0
 11
353.0746509914736
 21
244.0420425239294
 31
0.0
 11
353.3646944462241
 21
244.0283975610591
 31
0.0
  0
SPLINE
  5
1AC
330
4E
100
AcDbEntity
  8
1
  6
Continuous
 62
     7
100
AcDbSpline
210
0.0
220
0.0
230
1.0
 70
    11
 71
     3
 72
    79
 73
    75
 74
    73
 42
0.0000000001
 43
0.0000000001
 44
0.00000001
 40
0.0
 40
0.0
 40
0.0
 40
0.0
 40
0.3261189881639182
 40
0.6517242273663078
 40
1.007570734071781
 40
1.362786578155818
 40
1.759886314710444
 40
2.156516714717132
 40
2.599210008268868
 40
3.041603627004188
 40
3.528307206464715
 40
4.014826849024963
 40
4.539616314403961
 40
5.0642955094966
 40
5.618233632287935
 40
6.172109437578972
 40
6.744280968665894
 40
7.316424323670613
 40
7.894787044418058
 40
8.473149765165617
 40
9.045293120170454
 40
9.617464651257267
 40
10.17134045654819
 40
10.72527857933953
 40
11.24995777443221
 40
11.77474723981126
 40
12.26126688237153
 40
12.74797046183207
 40
13.19036408056729
 40
13.63305737411898
 40
14.02968777412566
 40
14.42678751068029
 40
14.78200335476427
 40
15.13784986146985
 40
15.46345510067232
 40
15.78957408883612
 40
16.104489722409
 40
16.41940535598194
 40
16.74552434414587
 40
17.07112958334826
 40
17.42697609005377
 40
17.78219193413783
 40
18.17929167069233
 40
18.57592207069902
 40
19.01861536425072
 40
19.46100898298611
 40
19.94771256244659
 40
20.43423220500687
 40
20.95902167038588
 40
21.48370086547863
 40
22.03763898826996
 40
22.59151479356095
 40
23.16368632464787
 40
23.73582967965253
 40
24.31419240040003
 40
24.89255512114753
 40
25.46469847615225
 40
26.03687000723917
 40
26.59074581253022
 40
27.1446839353215
 40
27.66936313041413
 40
28.19415259579319
 40
28.68067223835358
 40
29.1673758178139
 40
29.60976943654923
 40
30.05246273010101
 40
30.44909313010773
 40
30.84619286666237
 40
31.20140871074635
 40
31.55725521745194
 40
31.8828604566544
 40
32.20897944481824
 40
32.52389507839107
 40
32.83881071196397
 40
32.83881071196397
 40
32.83881071196397
 40
32.83881071196397
 10
371.8247858013455
 20
240.7851447962962
 30
0.0
 10
371.8022285273507
 20
240.8917345545683
 30
0.0
 10
371.7571495147836
 20
241.104746155782
 30
0.0
 10
371.622621743212
 20
241.4145646504972
 30
0.0
 10
371.4458776530285
 20
241.7123484963807
 30
0.0
 10
371.2169962402734
 20
242.0034945399691
 30
0.0
 10
370.9477783304924
 20
242.2768867570562
 30
0.0
 10
370.6305082145696
 20
242.5408464841672
 30
0.0
 10
370.2784557938801
 20
242.7838526852513
 30
0.0
 10
369.8825824260898
 20
243.0135069358788
 30
0.0
 10
369.4578740114322
 20
243.2200578949804
 30
0.0
 10
368.9953566380855
 20
243.4090606501582
 30
0.0
 10
368.5101161363024
 20
243.5733744447985
 30
0.0
 10
367.9948746482742
 20
243.7163899466367
 30
0.0
 10
367.4632093875163
 20
243.8335423822809
 30
0.0
 10
366.9107603379171
 20
243.9265162733078
 30
0.0
 10
366.348369497982
 20
243.9928353322726
 30
0.0
 10
365.7753528477332
 20
244.0331815903167
 30
0.0
 10
365.1990066444595
 20
244.0464719220948
 30
0.0
 10
364.6226604411633
 20
244.0331815903189
 30
0.0
 10
364.049643790981
 20
243.9928353322638
 30
0.0
 10
363.4872529508054
 20
243.9265162733396
 30
0.0
 10
362.9348039020754
 20
243.8335423821662
 30
0.0
 10
362.4031386381521
 20
243.7163899470555
 30
0.0
 10
361.8878971613426
 20
243.573374443326
 30
0.0
 10
361.4026566191718
 20
243.409060655495
 30
0.0
 10
360.9401393860964
 20
243.2200578766675
 30
0.0
 10
360.5154304718925
 20
243.0135070017901
 30
0.0
 10
360.1195588075319
 20
242.7838524639615
 30
0.0
 10
359.7675003727646
 20
242.540847276861
 30
0.0
 10
359.4502504960774
 20
242.2768841373809
 30
0.0
 10
359.1809613669136
 20
242.0035039280008
 30
0.0
 10
358.9523193747947
 20
241.7123175176935
 30
0.0
 10
358.7747266495463
 20
241.4146767530986
 30
0.0
 10
358.6431135779117
 20
241.104366835108
 30
0.0
 10
358.5656886018354
 20
240.790208258082
 30
0.0
 10
358.5377284847225
 20
240.471328309658
 30
0.0
 10
358.5656886018351
 20
240.152448361234
 30
0.0
 10
358.6431135779118
 20
239.838289784208
 30
0.0
 10
358.7747266495462
 20
239.5279798662172
 30
0.0
 10
358.9523193747943
 20
239.2303391016225
 30
0.0
 10
359.1809613669137
 20
238.9391526913152
 30
0.0
 10
359.4502504960773
 20
238.6657724819351
 30
0.0
 10
359.7675003727645
 20
238.401809342455
 30
0.0
 10
360.1195588075319
 20
238.1588041553545
 30
0.0
 10
360.5154304718926
 20
237.9291496175259
 30
0.0
 10
360.9401393860964
 20
237.7225987426485
 30
0.0
 10
361.4026566191717
 20
237.5335959638209
 30
0.0
 10
361.8878971613427
 20
237.36928217599
 30
0.0
 10
362.403138638152
 20
237.2262666722603
 30
0.0
 10
362.9348039020755
 20
237.1091142371498
 30
0.0
 10
363.4872529508054
 20
237.0161403459762
 30
0.0
 10
364.049643790981
 20
236.949821287052
 30
0.0
 10
364.6226604411642
 20
236.9094750289968
 30
0.0
 10
365.199006644456
 20
236.8961846972221
 30
0.0
 10
365.7753528477462
 20
236.9094750289967
 30
0.0
 10
366.3483694979342
 20
236.9498212870526
 30
0.0
 10
366.9107603380928
 20
237.0161403459739
 30
0.0
 10
367.463209386884
 20
237.1091142371579
 30
0.0
 10
367.9948746505843
 20
237.2262666722307
 30
0.0
 10
368.5101161281848
 20
237.3692821760939
 30
0.0
 10
368.995356667507
 20
237.5335959634444
 30
0.0
 10
369.4578739104766
 20
237.7225987439402
 30
0.0
 10
369.8825827894442
 20
237.9291496128767
 30
0.0
 10
370.278454573958
 20
238.1588041709633
 30
0.0
 10
370.6305125845165
 20
238.4018092865415
 30
0.0
 10
370.9477638887977
 20
238.6657726667165
 30
0.0
 10
371.2170479944342
 20
238.9391520291214
 30
0.0
 10
371.4457068743169
 20
239.230341286734
 30
0.0
 10
371.6232397402791
 20
239.5279719589532
 30
0.0
 10
371.7550584030612
 20
239.8383165399546
 30
0.0
 10
371.8317382646195
 20
240.1523494894288
 30
0.0
 10
371.8623901649274
 20
240.4716832769933
 30
0.0
 10
371.8373205892063
 20
240.6806576231953
 30
0.0
 10
371.8247858013456
 20
240.7851447962962
 30
0.0
 11
371.8247858013455
 21
240.7851447962962
 31
0.0
 11
371.7466131387917
 21
241.1017559604555
 31
0.0
 11
371.6209068837151
 21
241.4021169253472
 31
0.0
 11
371.4393505002801
 21
241.7081626996498
 31
0.0
 11
371.2209884403851
 21
241.9883346230946
 31
0.0
 11
370.94324089101
 21
242.2721382516617
 31
0.0
 11
370.6389413388305
 21
242.5265345109755
 31
0.0
 11
370.2752937135115
 21
242.7789978880335
 31
0.0
 11
369.8929607066324
 21
243.0015593082046
 31
0.0
 11
369.4556921458573
 21
243.21528010742
 31
0.0
 11
369.0054967181582
 21
243.3997399661314
 31
0.0
 11
368.5086569965437
 21
243.5687200655477
 31
0.0
 11
368.0031703286243
 21
243.7093311828851
 31
0.0
 11
367.4623125216172
 21
243.8289985405102
 31
0.0
 11
366.9161422135003
 21
243.9210659191973
 31
0.0
 11
366.347942246461
 21
243.9883641988404
 31
0.0
 11
365.7772125684103
 21
244.0285593884552
 31
0.0
 11
365.1990066444558
 21
244.042025874794
 31
0.0
 11
364.6208007205012
 21
244.0285593884552
 31
0.0
 11
364.0500710424503
 21
243.9883641988403
 31
0.0
 11
363.4818710754112
 21
243.9210659191973
 31
0.0
 11
362.9357007672944
 21
243.8289985405101
 31
0.0
 11
362.3948429602872
 21
243.709331182885
 31
0.0
 11
361.8893562923678
 21
243.5687200655477
 31
0.0
 11
361.3925165707532
 21
243.3997399661313
 31
0.0
 11
360.9423211430541
 21
243.21528010742
 31
0.0
 11
360.505052582279
 21
243.0015593082046
 31
0.0
 11
360.1227195754
 21
242.7789978880335
 31
0.0
 11
359.7590719500811
 21
242.5265345109755
 31
0.0
 11
359.4547723979017
 21
242.2721382516617
 31
0.0
 11
359.1770248485265
 21
241.9883346230946
 31
0.0
 11
358.9586627886316
 21
241.7081626996498
 31
0.0
 11
358.7771064051964
 21
241.4021169253472
 31
0.0
 11
358.6514001501197
 21
241.1017559604555
 31
0.0
 11
358.573227487566
 21
240.7851447962962
 31
0.0
 11
358.5469392966307
 21
240.471328309658
 31
0.0
 11
358.5732274875659
 21
240.1575118230197
 31
0.0
 11
358.6514001501196
 21
239.8409006588604
 31
0.0
 11
358.7771064051963
 21
239.5405396939687
 31
0.0
 11
358.9586627886314
 21
239.2344939196661
 31
0.0
 11
359.1770248485265
 21
238.9543219962214
 31
0.0
 11
359.4547723979015
 21
238.6705183676544
 31
0.0
 11
359.759071950081
 21
238.4161221083406
 31
0.0
 11
360.1227195753999
 21
238.1636587312825
 31
0.0
 11
360.505052582279
 21
237.9410973111114
 31
0.0
 11
360.9423211430541
 21
237.727376511896
 31
0.0
 11
361.3925165707532
 21
237.5429166531846
 31
0.0
 11
361.8893562923678
 21
237.3739365537683
 31
0.0
 11
362.3948429602872
 21
237.2333254364309
 31
0.0
 11
362.9357007672944
 21
237.1136580788058
 31
0.0
 11
363.4818710754112
 21
237.0215907001186
 31
0.0
 11
364.0500710424505
 21
236.9542924204755
 31
0.0
 11
364.6208007205012
 21
236.9140972308608
 31
0.0
 11
365.1990066444557
 21
236.9006307445221
 31
0.0
 11
365.7772125684103
 21
236.9140972308607
 31
0.0
 11
366.347942246461
 21
236.9542924204755
 31
0.0
 11
366.9161422135003
 21
237.0215907001186
 31
0.0
 11
367.4623125216172
 21
237.1136580788058
 31
0.0
 11
368.0031703286243
 21
237.2333254364309
 31
0.0
 11
368.5086569965436
 21
237.3739365537682
 31
0.0
 11
369.0054967181582
 21
237.5429166531846
 31
0.0
 11
369.4556921458574
 21
237.7273765118959
 31
0.0
 11
369.8929607066324
 21
237.9410973111114
 31
0.0
 11
370.2752937135114
 21
238.1636587312825
 31
0.0
 11
370.6389413388304
 21
238.4161221083406
 31
0.0
 11
370.9432408910099
 21
238.6705183676544
 31
0.0
 11
371.2209884403851
 21
238.9543219962214
 31
0.0
 11
371.43935050028
 21
239.2344939196662
 31
0.0
 11
371.6209068837152
 21
239.5405396939689
 31
0.0
 11
371.7466131387919
 21
239.8409006588606
 31
0.0
 11
371.8247858013457
 21
240.1575118230198
 31
0.0
 11
371.8510739922808
 21
240.471328309658
 31
0.0
 11
371.8247858013456
 21
240.7851447962962
 31
0.0
  0
SPLINE
  5
1AD
330
4E
100
AcDbEntity
  8
1
  6
Continuous
 62
     7
100
AcDbSpline
210
0.0
220
0.0
230
1.0
 70
    11
 71
     3
 72
    79
 73
    75
 74
    73
 42
0.0000000001
 43
0.0000000001
 44
0.00000001
 40
0.0
 40
0.0
 40
0.0
 40
0.0
 40
0.3210813131182581
 40
0.6418951451340622
 40
0.9828988941045003
 40
1.323531056220997
 40
1.692967059529017
 40
2.062075182676619
 40
2.46373385856738
 40
2.865152866614887
 40
3.298564783375567
 40
3.731815227792754
 40
4.193131264619018
 40
4.654344171660823
 40
5.137240970539844
 40
5.620077103492286
 40
6.116559529336343
 40
6.613013907632082
 40
7.114121234392301
 40
7.615228561152576
 40
8.11168293944835
 40
8.608165365292429
 40
9.091001498244895
 40
9.573898297123945
 40
10.03511120416578
 40
10.49642724099206
 40
10.92967768540928
 40
11.36308960216989
 40
11.76450861021733
 40
12.16616728610806
 40
12.53527540925565
 40
12.90471141256364
 40
13.24534357468013
 40
13.58634732365058
 40
13.90716115566633
 40
14.22824246878462
 40
14.54200445402329
 40
14.85576643926201
 40
15.1768477523803
 40
15.49766158439604
 40
15.83866533336641
 40
16.17929749548298
 40
16.54873349879108
 40
16.91784162193864
 40
17.31950029782937
 40
17.7209193058768
 40
18.15433122263743
 40
18.58758166705461
 40
19.04889770388093
 40
19.51011061092272
 40
19.99300740980177
 40
20.47584354275426
 40
20.97232596859832
 40
21.46878034689411
 40
21.96988767365436
 40
22.47099500041458
 40
22.96744937871038
 40
23.46393180455448
 40
23.94676793750701
 40
24.42966473638597
 40
24.89087764342767
 40
25.35219368025395
 40
25.78544412467118
 40
26.21885604143184
 40
26.62027504947931
 40
27.02193372537009
 40
27.39104184851767
 40
27.76047785182566
 40
28.10111001394214
 40
28.44211376291256
 40
28.76292759492839
 40
29.08400890804669
 40
29.39777089328531
 40
29.71153287852399
 40
29.71153287852399
 40
29.71153287852399
 40
29.71153287852399
 10
113.4442833500616
 20
240.1583734580923
 30
0.0
 10
113.4635632012584
 20
240.0529123725804
 30
0.0
 10
113.5021068423128
 20
239.8420780573308
 30
0.0
 10
113.6171601543892
 20
239.5337384330517
 30
0.0
 10
113.7695486207259
 20
239.2356503396046
 30
0.0
 10
113.9666252651228
 20
238.9449782557814
 30
0.0
 10
114.1998117750344
 20
238.6702126776862
 30
0.0
 10
114.473980241605
 20
238.4061837326952
 30
0.0
 10
114.7795234417132
 20
238.1617997568035
 30
0.0
 10
115.1221410326187
 20
237.9319281825464
 30
0.0
 10
115.4908372493943
 20
237.7243609304139
 30
0.0
 10
115.8913919915365
 20
237.5351439708383
 30
0.0
 10
116.312496488689
 20
237.3701793556851
 30
0.0
 10
116.7588547946503
 20
237.2269953340536
 30
0.0
 10
117.2200506524834
 20
237.1094681071163
 30
0.0
 10
117.6987457488392
 20
237.0163843006148
 30
0.0
 10
118.1864130578361
 20
236.949881502054
 30
0.0
 10
118.683030863587
 20
236.9094959395962
 30
0.0
 10
119.1826516791585
 20
236.8961524593939
 30
0.0
 10
119.6822724947461
 20
236.9094959395948
 30
0.0
 10
120.1788903004495
 20
236.949881502059
 30
0.0
 10
120.6665576096191
 20
237.0163843005952
 30
0.0
 10
121.1452527053479
 20
237.1094681071871
 30
0.0
 10
121.6064485654725
 20
237.2269953337942
 30
0.0
 10
122.052806863249
 20
237.3701793566048
 30
0.0
 10
122.4739113900425
 20
237.535143967488
 30
0.0
 10
122.8744660279703
 20
237.7243609420769
 30
0.0
 10
123.243162619158
 20
237.931928140271
 30
0.0
 10
123.5857789106354
 20
238.1617999017257
 30
0.0
 10
123.8913267542745
 20
238.4061832086634
 30
0.0
 10
124.1654792199527
 20
238.6702144587667
 30
0.0
 10
124.3987228849346
 20
238.944971803018
 30
0.0
 10
124.5956019184029
 20
239.235672354963
 30
0.0
 10
124.7487014606181
 20
239.5336580097701
 30
0.0
 10
124.861248931128
 20
239.8423586292826
 30
0.0
 10
124.9278004414892
 20
240.1549292665193
 30
0.0
 10
124.9512756981764
 20
240.471328309658
 30
0.0
 10
124.9278004414891
 20
240.7877273527968
 30
0.0
 10
124.861248931128
 20
241.1002979900335
 30
0.0
 10
124.7487014606182
 20
241.408998609546
 30
0.0
 10
124.595601918403
 20
241.706984264353
 30
0.0
 10
124.3987228849346
 20
241.9976848162982
 30
0.0
 10
124.1654792199527
 20
242.2724421605494
 30
0.0
 10
123.8913267542745
 20
242.5364734106527
 30
0.0
 10
123.5857789106354
 20
242.7808567175906
 30
0.0
 10
123.243162619158
 20
243.010728479045
 30
0.0
 10
122.8744660279703
 20
243.2182956772392
 30
0.0
 10
122.4739113900425
 20
243.4075126518281
 30
0.0
 10
122.052806863249
 20
243.5724772627114
 30
0.0
 10
121.6064485654725
 20
243.7156612855218
 30
0.0
 10
121.1452527053479
 20
243.8331885121289
 30
0.0
 10
120.666557609619
 20
243.9262723187208
 30
0.0
 10
120.1788903004496
 20
243.992775117257
 30
0.0
 10
119.6822724947455
 20
244.0331606797214
 30
0.0
 10
119.182651679161
 20
244.0465041599219
 30
0.0
 10
118.6830308635777
 20
244.0331606797215
 30
0.0
 10
118.1864130578702
 20
243.9927751172565
 30
0.0
 10
117.6987457487131
 20
243.9262723187222
 30
0.0
 10
117.2200506529396
 20
243.833188512124
 30
0.0
 10
116.7588547929777
 20
243.7156612855403
 30
0.0
 10
116.3124964946204
 20
243.572477262646
 30
0.0
 10
115.8913919699305
 20
243.4075126520658
 30
0.0
 10
115.4908373246072
 20
243.2182956764115
 30
0.0
 10
115.1221407599892
 20
243.010728482045
 30
0.0
 10
114.7795243762991
 20
242.7808567073062
 30
0.0
 10
114.4739768621838
 20
242.5364734478401
 30
0.0
 10
114.1998232610173
 20
242.2724420341567
 30
0.0
 10
113.9665836519913
 20
241.9976852742124
 30
0.0
 10
113.7696905952491
 20
241.7069827020537
 30
0.0
 10
113.6166415138653
 20
241.4090043167087
 30
0.0
 10
113.5039162186643
 20
241.1002780795085
 30
0.0
 10
113.4380152726774
 20
240.7878011635357
 30
0.0
 10
113.4121637635133
 20
240.4710597939589
 30
0.0
 10
113.4335768212121
 20
240.2626022367145
 30
0.0
 10
113.4442833500616
 20
240.1583734580923
 30
0.0
 11
113.4442833500616
 21
240.1583734580923
 31
0.0
 11
113.5112788917643
 21
239.8443594344792
 31
0.0
 11
113.6202337239088
 21
239.5426139136093
 31
0.0
 11
113.7756585904862
 21
239.2390901622137
 31
0.0
 11
113.9658943145918
 21
238.9565293030308
 31
0.0
 11
114.2043876111471
 21
238.674387657685
 31
0.0
 11
114.4697247402521
 21
238.4178004123047
 31
0.0
 11
114.7828860974738
 21
238.166285688558
 31
0.0
 11
115.1159132166547
 21
237.9421648329647
 31
0.0
 11
115.493241579373
 21
237.7289297601494
 31
0.0
 11
115.8848092485665
 21
237.5435094051986
 31
0.0
 11
116.3141426003056
 21
237.3747333437517
 31
0.0
 11
116.7532316888061
 21
237.2336017810815
 31
0.0
 11
117.221077579207
 21
237.1139792865303
 31
0.0
 11
117.6950096067057
 21
237.0216799658642
 31
0.0
 11
118.1869063133993
 21
236.954356648091
 31
0.0
 11
118.6817258653815
 21
236.9141004596839
 31
0.0
 11
119.1826516791612
 21
236.9006140953866
 31
0.0
 11
119.6835774929409
 21
236.9141004596839
 31
0.0
 11
120.1783970449232
 21
236.9543566480909
 31
0.0
 11
120.6702937516168
 21
237.0216799658642
 31
0.0
 11
121.1442257791156
 21
237.1139792865303
 31
0.0
 11
121.6120716695165
 21
237.2336017810815
 31
0.0
 11
122.051160758017
 21
237.3747333437517
 31
0.0
 11
122.4804941097561
 21
237.5435094051986
 31
0.0
 11
122.8720617789496
 21
237.7289297601495
 31
0.0
 11
123.2493901416679
 21
237.9421648329647
 31
0.0
 11
123.5824172608487
 21
238.166285688558
 31
0.0
 11
123.8955786180704
 21
238.4178004123047
 31
0.0
 11
124.1609157471753
 21
238.6743876576851
 31
0.0
 11
124.3994090437306
 21
238.9565293030308
 31
0.0
 11
124.5896447678362
 21
239.2390901622136
 31
0.0
 11
124.7450696344136
 21
239.5426139136093
 31
0.0
 11
124.854024466558
 21
239.8443594344792
 31
0.0
 11
124.9210200082608
 21
240.1583734580923
 31
0.0
 11
124.9435109900627
 21
240.471328309658
 31
0.0
 11
124.9210200082608
 21
240.7842831612237
 31
0.0
 11
124.854024466558
 21
241.0982971848369
 31
0.0
 11
124.7450696344136
 21
241.4000427057067
 31
0.0
 11
124.5896447678363
 21
241.7035664571023
 31
0.0
 11
124.3994090437306
 21
241.9861273162853
 31
0.0
 11
124.1609157471753
 21
242.2682689616311
 31
0.0
 11
123.8955786180704
 21
242.5248562070114
 31
0.0
 11
123.5824172608487
 21
242.7763709307581
 31
0.0
 11
123.2493901416678
 21
243.0004917863514
 31
0.0
 11
122.8720617789496
 21
243.2137268591666
 31
0.0
 11
122.4804941097561
 21
243.3991472141174
 31
0.0
 11
122.051160758017
 21
243.5679232755644
 31
0.0
 11
121.6120716695165
 21
243.7090548382346
 31
0.0
 11
121.1442257791156
 21
243.8286773327857
 31
0.0
 11
120.6702937516168
 21
243.9209766534519
 31
0.0
 11
120.1783970449232
 21
243.9882999712252
 31
0.0
 11
119.6835774929409
 21
244.0285561596323
 31
0.0
 11
119.1826516791612
 21
244.0420425239295
 31
0.0
 11
118.6817258653816
 21
244.0285561596322
 31
0.0
 11
118.1869063133992
 21
243.9882999712251
 31
0.0
 11
117.6950096067056
 21
243.9209766534519
 31
0.0
 11
117.2210775792068
 21
243.8286773327858
 31
0.0
 11
116.753231688806
 21
243.7090548382346
 31
0.0
 11
116.3141426003056
 21
243.5679232755644
 31
0.0
 11
115.8848092485665
 21
243.3991472141174
 31
0.0
 11
115.493241579373
 21
243.2137268591665
 31
0.0
 11
115.1159132166547
 21
243.0004917863514
 31
0.0
 11
114.7828860974738
 21
242.776370930758
 31
0.0
 11
114.4697247402521
 21
242.5248562070113
 31
0.0
 11
114.2043876111471
 21
242.268268961631
 31
0.0
 11
113.9658943145919
 21
241.9861273162853
 31
0.0
 11
113.7756585904863
 21
241.7035664571024
 31
0.0
 11
113.620233723909
 21
241.4000427057067
 31
0.0
 11
113.5112788917646
 21
241.0982971848368
 31
0.0
 11
113.4442833500617
 21
240.7842831612236
 31
0.0
 11
113.4217923682597
 21
240.471328309658
 31
0.0
 11
113.4442833500616
 21
240.1583734580923
 31
0.0
  0
SPLINE
  5
1AE
330
4E
100
AcDbEntity
  8
1
  6
Continuous
 62
     7
100
AcDbSpline
210
0.0
220
0.0
230
1.0
 70
    11
 71
     3
 72
    79
 73
    75
 74
    73
 42
0.0000000001
 43
0.0000000001
 44
0.00000001
 40
0.0
 40
0.0
 40
0.0
 40
0.0
 40
0.3210813131182552
 40
0.64189514513404
 40
0.9828988941044392
 40
1.323531056220999
 40
1.692967059529083
 40
2.062075182676634
 40
2.463733858567341
 40
2.865152866614836
 40
3.298564783375528
 40
3.731815227792676
 40
4.193131264618888
 40
4.654344171660719
 40
5.137240970539837
 40
5.620077103492348
 40
6.11655952933642
 40
6.613013907632144
 40
7.114121234392321
 40
7.615228561152553
 40
8.111682939448413
 40
8.608165365292519
 40
9.091001498244985
 40
9.573898297123938
 40
10.03511120416565
 40
10.4964272409919
 40
10.92967768540911
 40
11.36308960216981
 40
11.76450861021729
 40
12.1661672861081
 40
12.53527540925571
 40
12.90471141256367
 40
13.24534357468014
 40
13.58634732365056
 40
13.90716115566632
 40
14.22824246878462
 40
14.54200445402329
 40
14.85576643926201
 40
15.17684775238031
 40
15.49766158439607
 40
15.83866533336644
 40
16.17929749548297
 40
16.54873349879103
 40
16.91784162193861
 40
17.31950029782935
 40
17.72091930587682
 40
18.15433122263752
 40
18.58758166705473
 40
19.04889770388096
 40
19.51011061092271
 40
19.99300740980165
 40
20.47584354275417
 40
20.97232596859828
 40
21.46878034689406
 40
21.96988767365432
 40
22.47099500041455
 40
22.96744937871033
 40
23.46393180455441
 40
23.94676793750687
 40
24.42966473638592
 40
24.89087764342775
 40
25.35219368025404
 40
25.78544412467124
 40
26.21885604143185
 40
26.62027504947925
 40
27.02193372537002
 40
27.39104184851759
 40
27.76047785182561
 40
28.1011100139421
 40
28.44211376291254
 40
28.76292759492836
 40
29.08400890804666
 40
29.39777089328527
 40
29.71153287852397
 40
29.71153287852397
 40
29.71153287852397
 40
29.71153287852397
 10
138.9210200082609
 20
240.1583734580923
 30
0.0
 10
138.901740157064
 20
240.0529123725803
 30
0.0
 10
138.8631965160095
 20
239.8420780573308
 30
0.0
 10
138.7481432039333
 20
239.5337384330519
 30
0.0
 10
138.5957547375967
 20
239.2356503396045
 30
0.0
 10
138.3986780931996
 20
238.9449782557814
 30
0.0
 10
138.165491583288
 20
238.6702126776863
 30
0.0
 10
137.8913231167174
 20
238.4061837326951
 30
0.0
 10
137.5857799166093
 20
238.1617997568035
 30
0.0
 10
137.2431623257038
 20
237.9319281825464
 30
0.0
 10
136.8744661089282
 20
237.724360930414
 30
0.0
 10
136.473911366786
 20
237.5351439708384
 30
0.0
 10
136.0528068696335
 20
237.3701793556851
 30
0.0
 10
135.6064485636723
 20
237.2269953340535
 30
0.0
 10
135.145252705839
 20
237.1094681071163
 30
0.0
 10
134.6665576094832
 20
237.0163843006149
 30
0.0
 10
134.1788903004863
 20
236.9498815020539
 30
0.0
 10
133.6822724947354
 20
236.9094959395962
 30
0.0
 10
133.1826516791639
 20
236.8961524593939
 30
0.0
 10
132.6830308635763
 20
236.9094959395949
 30
0.0
 10
132.1864130578729
 20
236.949881502059
 30
0.0
 10
131.6987457487034
 20
237.0163843005952
 30
0.0
 10
131.2200506529745
 20
237.109468107187
 30
0.0
 10
130.75885479285
 20
237.2269953337942
 30
0.0
 10
130.3124964950736
 20
237.3701793566048
 30
0.0
 10
129.8913919682802
 20
237.5351439674881
 30
0.0
 10
129.4908373303523
 20
237.724360942077
 30
0.0
 10
129.1221407391646
 20
237.931928140271
 30
0.0
 10
128.779524447687
 20
238.1617999017255
 30
0.0
 10
128.4739766040479
 20
238.4061832086634
 30
0.0
 10
128.1998241383697
 20
238.6702144587667
 30
0.0
 10
127.9665804733879
 20
238.9449718030179
 30
0.0
 10
127.7697014399195
 20
239.2356723549631
 30
0.0
 10
127.6166018977044
 20
239.53365800977
 30
0.0
 10
127.5040544271946
 20
239.8423586292827
 30
0.0
 10
127.4375029168333
 20
240.1549292665192
 30
0.0
 10
127.4140276601461
 20
240.4713283096581
 30
0.0
 10
127.4375029168333
 20
240.7877273527968
 30
0.0
 10
127.5040544271945
 20
241.1002979900335
 30
0.0
 10
127.6166018977043
 20
241.408998609546
 30
0.0
 10
127.7697014399196
 20
241.7069842643529
 30
0.0
 10
127.9665804733879
 20
241.9976848162981
 30
0.0
 10
128.1998241383697
 20
242.2724421605495
 30
0.0
 10
128.4739766040479
 20
242.5364734106527
 30
0.0
 10
128.779524447687
 20
242.7808567175904
 30
0.0
 10
129.1221407391646
 20
243.0107284790451
 30
0.0
 10
129.4908373303523
 20
243.2182956772392
 30
0.0
 10
129.8913919682802
 20
243.4075126518279
 30
0.0
 10
130.3124964950735
 20
243.5724772627113
 30
0.0
 10
130.75885479285
 20
243.7156612855219
 30
0.0
 10
131.2200506529745
 20
243.8331885121289
 30
0.0
 10
131.6987457487034
 20
243.9262723187209
 30
0.0
 10
132.1864130578728
 20
243.9927751172571
 30
0.0
 10
132.683030863577
 20
244.0331606797214
 30
0.0
 10
133.1826516791614
 20
244.0465041599218
 30
0.0
 10
133.6822724947448
 20
244.0331606797215
 30
0.0
 10
134.1788903004523
 20
243.9927751172565
 30
0.0
 10
134.6665576096094
 20
243.9262723187223
 30
0.0
 10
135.1452527053828
 20
243.833188512124
 30
0.0
 10
135.6064485653448
 20
243.7156612855403
 30
0.0
 10
136.0528068637022
 20
243.5724772626462
 30
0.0
 10
136.473911388392
 20
243.4075126520657
 30
0.0
 10
136.8744660337154
 20
243.2182956764115
 30
0.0
 10
137.2431625983332
 20
243.0107284820451
 30
0.0
 10
137.5857789820233
 20
242.7808567073062
 30
0.0
 10
137.8913264961386
 20
242.53647344784
 30
0.0
 10
138.1654800973051
 20
242.2724420341567
 30
0.0
 10
138.3987197063312
 20
241.9976852742124
 30
0.0
 10
138.5956127630733
 20
241.7069827020537
 30
0.0
 10
138.7486618444573
 20
241.4090043167086
 30
0.0
 10
138.8613871396581
 20
241.1002780795085
 30
0.0
 10
138.9272880856452
 20
240.7878011635357
 30
0.0
 10
138.9531395948092
 20
240.4710597939588
 30
0.0
 10
138.9317265371103
 20
240.2626022367145
 30
0.0
 10
138.9210200082609
 20
240.1583734580923
 30
0.0
 11
138.9210200082609
 21
240.1583734580923
 31
0.0
 11
138.8540244665581
 21
239.8443594344792
 31
0.0
 11
138.7450696344137
 21
239.5426139136093
 31
0.0
 11
138.5896447678364
 21
239.2390901622137
 31
0.0
 11
138.3994090437306
 21
238.9565293030308
 31
0.0
 11
138.1609157471753
 21
238.674387657685
 31
0.0
 11
137.8955786180704
 21
238.4178004123047
 31
0.0
 11
137.5824172608487
 21
238.166285688558
 31
0.0
 11
137.2493901416678
 21
237.9421648329647
 31
0.0
 11
136.8720617789495
 21
237.7289297601494
 31
0.0
 11
136.4804941097561
 21
237.5435094051986
 31
0.0
 11
136.051160758017
 21
237.3747333437517
 31
0.0
 11
135.6120716695165
 21
237.2336017810815
 31
0.0
 11
135.1442257791155
 21
237.1139792865303
 31
0.0
 11
134.6702937516167
 21
237.0216799658642
 31
0.0
 11
134.1783970449231
 21
236.954356648091
 31
0.0
 11
133.6835774929409
 21
236.9141004596839
 31
0.0
 11
133.1826516791612
 21
236.9006140953866
 31
0.0
 11
132.6817258653816
 21
236.9141004596839
 31
0.0
 11
132.1869063133992
 21
236.9543566480909
 31
0.0
 11
131.6950096067055
 21
237.0216799658642
 31
0.0
 11
131.2210775792068
 21
237.1139792865303
 31
0.0
 11
130.753231688806
 21
237.2336017810815
 31
0.0
 11
130.3141426003056
 21
237.3747333437517
 31
0.0
 11
129.8848092485665
 21
237.5435094051986
 31
0.0
 11
129.493241579373
 21
237.7289297601495
 31
0.0
 11
129.1159132166547
 21
237.9421648329647
 31
0.0
 11
128.7828860974738
 21
238.166285688558
 31
0.0
 11
128.4697247402521
 21
238.4178004123047
 31
0.0
 11
128.2043876111471
 21
238.6743876576851
 31
0.0
 11
127.9658943145918
 21
238.9565293030308
 31
0.0
 11
127.7756585904862
 21
239.2390901622136
 31
0.0
 11
127.6202337239089
 21
239.5426139136093
 31
0.0
 11
127.5112788917645
 21
239.8443594344792
 31
0.0
 11
127.4442833500617
 21
240.1583734580923
 31
0.0
 11
127.4217923682597
 21
240.471328309658
 31
0.0
 11
127.4442833500617
 21
240.7842831612237
 31
0.0
 11
127.5112788917645
 21
241.0982971848369
 31
0.0
 11
127.6202337239089
 21
241.4000427057067
 31
0.0
 11
127.7756585904862
 21
241.7035664571023
 31
0.0
 11
127.9658943145919
 21
241.9861273162853
 31
0.0
 11
128.2043876111471
 21
242.2682689616311
 31
0.0
 11
128.4697247402521
 21
242.5248562070114
 31
0.0
 11
128.7828860974738
 21
242.7763709307581
 31
0.0
 11
129.1159132166547
 21
243.0004917863514
 31
0.0
 11
129.493241579373
 21
243.2137268591666
 31
0.0
 11
129.8848092485665
 21
243.3991472141174
 31
0.0
 11
130.3141426003056
 21
243.5679232755644
 31
0.0
 11
130.753231688806
 21
243.7090548382346
 31
0.0
 11
131.2210775792068
 21
243.8286773327857
 31
0.0
 11
131.6950096067056
 21
243.9209766534519
 31
0.0
 11
132.1869063133992
 21
243.9882999712252
 31
0.0
 11
132.6817258653815
 21
244.0285561596323
 31
0.0
 11
133.1826516791612
 21
244.0420425239295
 31
0.0
 11
133.6835774929409
 21
244.0285561596322
 31
0.0
 11
134.1783970449232
 21
243.9882999712251
 31
0.0
 11
134.6702937516168
 21
243.9209766534519
 31
0.0
 11
135.1442257791156
 21
243.8286773327858
 31
0.0
 11
135.6120716695165
 21
243.7090548382346
 31
0.0
 11
136.051160758017
 21
243.5679232755644
 31
0.0
 11
136.4804941097561
 21
243.3991472141174
 31
0.0
 11
136.8720617789496
 21
243.2137268591665
 31
0.0
 11
137.2493901416678
 21
243.0004917863514
 31
0.0
 11
137.5824172608486
 21
242.776370930758
 31
0.0
 11
137.8955786180703
 21
242.5248562070113
 31
0.0
 11
138.1609157471753
 21
242.268268961631
 31
0.0
 11
138.3994090437306
 21
241.9861273162853
 31
0.0
 11
138.5896447678362
 21
241.7035664571024
 31
0.0
 11
138.7450696344135
 21
241.4000427057067
 31
0.0
 11
138.8540244665579
 21
241.0982971848368
 31
0.0
 11
138.9210200082608
 21
240.7842831612236
 31
0.0
 11
138.9435109900627
 21
240.471328309658
 31
0.0
 11
138.9210200082609
 21
240.1583734580923
 31
0.0
  0
ARC
  5
1AF
330
4E
100
AcDbEntity
  8
1
  6
Continuous
 62
     7
100
AcDbCircle
 10
353.699006644456
 20
234.6137913450996
 30
0.0
 40
0.9999999999999836
100
AcDbArc
 50
30.00000000000054
 51
90.0
  0
ARC
  5
1B0
330
4E
100
AcDbEntity
  8
1
  6
Continuous
 62
     7
100
AcDbCircle
 10
355.4310574520247
 20
235.6137913450996
 30
0.0
 40
0.9999999999998359
100
AcDbArc
 50
-149.9999999999946
 51
-90.0
  0
ARC
  5
1B1
330
4E
100
AcDbEntity
  8
1
  6
Continuous
 62
     7
100
AcDbCircle
 10
353.6409855827253
 20
236.6137913450996
 30
0.0
 40
1.000000000000029
100
AcDbArc
 50
-105.3375576695584
 51
-90.0
  0
ARC
  5
1B2
330
4E
100
AcDbEntity
  8
1
  6
Continuous
 62
     7
100
AcDbCircle
 10
376.699006644456
 20
234.6137913450996
 30
0.0
 40
1.0
100
AcDbArc
 50
90.0
 51
150.0000000000044
  0
ARC
  5
1B3
330
4E
100
AcDbEntity
  8
1
  6
Continuous
 62
     7
100
AcDbCircle
 10
374.966955836887
 20
235.6137913450996
 30
0.0
 40
1.0
100
AcDbArc
 50
-90.0
 51
-30.00000000000054
  0
ARC
  5
1B4
330
4E
100
AcDbEntity
  8
1
  6
Continuous
 62
     7
100
AcDbCircle
 10
376.7570277061864
 20
236.6137913450996
 30
0.0
 40
1.0
100
AcDbArc
 50
-90.0
 51
-74.6624423304448
  0
ARC
  5
1B5
330
4E
100
AcDbEntity
  8
1
  6
Continuous
 62
     7
100
AcDbCircle
 10
114.6826516791612
 20
234.6137913450996
 30
0.0
 40
0.9999999999998851
100
AcDbArc
 50
30.0000000000038
 51
90.0
  0
ARC
  5
1B6
330
4E
100
AcDbEntity
  8
1
  6
Continuous
 62
     7
100
AcDbCircle
 10
116.4147024867301
 20
235.6137913450996
 30
0.0
 40
1.000000000000144
100
AcDbArc
 50
-150.0000000000048
 51
-90.0
  0
ARC
  5
1B7
330
4E
100
AcDbEntity
  8
1
  6
Continuous
 62
     7
100
AcDbCircle
 10
114.6246306174306
 20
236.6137913450996
 30
0.0
 40
1.000000000000025
100
AcDbArc
 50
-105.3375576695576
 51
-90.0
  0
ARC
  5
1B8
330
4E
100
AcDbEntity
  8
1
  6
Continuous
 62
     7
100
AcDbCircle
 10
137.6826516791612
 20
234.6137913450996
 30
0.0
 40
1.0
100
AcDbArc
 50
90.0
 51
149.9999999999962
  0
ARC
  5
1B9
330
4E
100
AcDbEntity
  8
1
  6
Continuous
 62
     7
100
AcDbCircle
 10
135.9506008715924
 20
235.6137913450996
 30
0.0
 40
1.0
100
AcDbArc
 50
-90.0
 51
-29.9999999999981
  0
ARC
  5
1BA
330
4E
100
AcDbEntity
  8
1
  6
Continuous
 62
     7
100
AcDbCircle
 10
137.7406727408919
 20
236.6137913450996
 30
0.0
 40
1.0
100
AcDbArc
 50
-90.0
 51
-74.66244233044795
  0
ENDBLK
  5
50
330
4E
100
AcDbEntity
  8
0
100
AcDbBlockEnd
  0
BLOCK
  5
52
330
51
100
AcDbEntity
  8
0
100
AcDbBlockBegin
  2
_J__A4
 70
     0
 71
     0
 10
0.0
 20
0.0
 30
0.0
  3
_J__A4
  1

  0
POINT
  5
1BB
330
51
100
AcDbEntity
  8
1
 62
     4
100
AcDbPoint
 10
93.75
 20
17.0
 30
0.0
  0
POINT
  5
1BC
330
51
100
AcDbEntity
  8
1
 62
     4
100
AcDbPoint
 10
85.25
 20
17.0
 30
0.0
  0
POINT
  5
1BD
330
51
100
AcDbEntity
  8
1
 62
     4
100
AcDbPoint
 10
106.5
 20
19.00000000000001
 30
0.0
  0
POINT
  5
1BE
330
51
100
AcDbEntity
  8
1
 62
     4
100
AcDbPoint
 10
106.5
 20
12.5
 30
0.0
  0
POINT
  5
1BF
330
51
100
AcDbEntity
  8
1
 62
     4
100
AcDbPoint
 10
112.25
 20
12.5
 30
0.0
  0
POINT
  5
1C0
330
51
100
AcDbEntity
  8
1
 62
     4
100
AcDbPoint
 10
100.75
 20
12.5
 30
0.0
  0
POINT
  5
1C1
330
51
100
AcDbEntity
  8
1
 62
     4
100
AcDbPoint
 10
123.5
 20
19.00000000000001
 30
0.0
  0
POINT
  5
1C2
330
51
100
AcDbEntity
  8
1
 62
     4
100
AcDbPoint
 10
123.5
 20
12.5
 30
0.0
  0
POINT
  5
1C3
330
51
100
AcDbEntity
  8
1
 62
     4
100
AcDbPoint
 10
129.25
 20
12.5
 30
0.0
  0
POINT
  5
1C4
330
51
100
AcDbEntity
  8
1
 62
     4
100
AcDbPoint
 10
117.75
 20
12.5
 30
0.0
  0
POINT
  5
1C5
330
51
100
AcDbEntity
  8
1
 62
     4
100
AcDbPoint
 10
140.5
 20
19.00000000000001
 30
0.0
  0
POINT
  5
1C6
330
51
100
AcDbEntity
  8
1
 62
     4
100
AcDbPoint
 10
140.5
 20
12.5
 30
0.0
  0
POINT
  5
1C7
330
51
100
AcDbEntity
  8
1
 62
     4
100
AcDbPoint
 10
146.25
 20
12.5
 30
0.0
  0
POINT
  5
1C8
330
51
100
AcDbEntity
  8
1
 62
     4
100
AcDbPoint
 10
134.75
 20
12.5
 30
0.0
  0
POINT
  5
1C9
330
51
100
AcDbEntity
  8
1
 62
     4
100
AcDbPoint
 10
151.75
 20
12.5
 30
0.0
  0
POINT
  5
1CA
330
51
100
AcDbEntity
  8
1
 62
     4
100
AcDbPoint
 10
163.25
 20
12.5
 30
0.0
  0
POINT
  5
1CB
330
51
100
AcDbEntity
  8
1
 62
     4
100
AcDbPoint
 10
157.5
 20
12.5
 30
0.0
  0
POINT
  5
1CC
330
51
100
AcDbEntity
  8
1
 62
     4
100
AcDbPoint
 10
57.0
 20
14.25
 30
0.0
  0
POINT
  5
1CD
330
51
100
AcDbEntity
  8
1
 62
     4
100
AcDbPoint
 10
57.0
 20
22.75000000000001
 30
0.0
  0
POINT
  5
1CE
330
51
100
AcDbEntity
  8
1
 62
     4
100
AcDbPoint
 10
47.5
 20
282.0000000000003
 30
0.0
  0
POINT
  5
1CF
330
51
100
AcDbEntity
  8
1
 62
     4
100
AcDbPoint
 10
157.5
 20
19.00000000000001
 30
0.0
  0
POINT
  5
1D0
330
51
100
AcDbEntity
  8
1
 62
     4
100
AcDbPoint
 10
57.0
 20
16.25
 30
0.0
  0
POINT
  5
1D1
330
51
100
AcDbEntity
  8
1
 62
     4
100
AcDbPoint
 10
57.0
 20
24.75000000000001
 30
0.0
  0
POINT
  5
1D2
330
51
100
AcDbEntity
  8
1
 62
     4
100
AcDbPoint
 10
57.0
 20
20.75000000000001
 30
0.0
  0
POINT
  5
1D3
330
51
100
AcDbEntity
  8
1
 62
     4
100
AcDbPoint
 10
57.0
 20
12.25
 30
0.0
  0
POINT
  5
1D4
330
51
100
AcDbEntity
  8
1
 62
     4
100
AcDbPoint
 10
34.0
 20
34.00000000000001
 30
0.0
  0
LINE
  5
1D5
330
51
100
AcDbEntity
  8
1
  6
Continuous
 62
     7
100
AcDbLine
 10
105.0
 20
10.0
 30
0.0
 11
200.0
 21
10.0
 31
0.0
  0
LINE
  5
1D6
330
51
100
AcDbEntity
  8
1
  6
Continuous
 62
     2
100
AcDbLine
 10
105.0
 20
10.0
 30
0.0
 11
105.0
 21
5.0
 31
0.0
  0
LINE
  5
1D7
330
51
100
AcDbEntity
  8
1
  6
Continuous
 62
     7
100
AcDbLine
 10
200.0
 20
148.5
 30
0.0
 11
200.0
 21
287.0000000000003
 31
0.0
  0
LINE
  5
1D8
330
51
100
AcDbEntity
  8
1
  6
Continuous
 62
     2
100
AcDbLine
 10
200.0
 20
148.5
 30
0.0
 11
205.0
 21
148.5
 31
0.0
  0
LINE
  5
1D9
330
51
100
AcDbEntity
  8
1
  6
Continuous
 62
     7
100
AcDbLine
 10
25.0
 20
148.5
 30
0.0
 11
25.0
 21
287.0000000000003
 31
0.0
  0
LINE
  5
1DA
330
51
100
AcDbEntity
  8
1
  6
Continuous
 62
     2
100
AcDbLine
 10
25.0
 20
148.5
 30
0.0
 11
20.0
 21
148.5
 31
0.0
  0
LINE
  5
1DB
330
51
100
AcDbEntity
  8
1
  6
Continuous
 62
     7
100
AcDbLine
 10
105.0
 20
287.0000000000003
 30
0.0
 11
25.0
 21
287.0000000000003
 31
0.0
  0
LINE
  5
1DC
330
51
100
AcDbEntity
  8
1
  6
Continuous
 62
     2
100
AcDbLine
 10
105.0
 20
287.0000000000003
 30
0.0
 11
105.0
 21
292.0000000000003
 31
0.0
  0
LINE
  5
1DD
330
51
100
AcDbEntity
  8
1
  6
Continuous
 62
     2
100
AcDbLine
 10
166.0
 20
20.00000000000001
 30
0.0
 11
200.0
 21
20.00000000000001
 31
0.0
  0
LINE
  5
1DE
330
51
100
AcDbEntity
  8
1
  6
Continuous
 62
     2
100
AcDbLine
 10
98.0
 20
27.00000000000001
 30
0.0
 11
98.0
 21
9.99999999999999
 31
0.0
  0
LINE
  5
1DF
330
51
100
AcDbEntity
  8
1
  6
Continuous
 62
     2
100
AcDbLine
 10
115.0
 20
27.00000000000001
 30
0.0
 11
115.0
 21
9.99999999999999
 31
0.0
  0
LINE
  5
1E0
330
51
100
AcDbEntity
  8
1
  6
Continuous
 62
     2
100
AcDbLine
 10
149.0
 20
27.00000000000001
 30
0.0
 11
149.0
 21
10.0
 31
0.0
  0
LINE
  5
1E1
330
51
100
AcDbEntity
  8
1
  6
Continuous
 62
     2
100
AcDbLine
 10
132.0
 20
27.00000000000001
 30
0.0
 11
132.0
 21
9.99999999999999
 31
0.0
  0
LINE
  5
1E2
330
51
100
AcDbEntity
  8
1
  6
Continuous
 62
     2
100
AcDbLine
 10
166.0
 20
27.00000000000001
 30
0.0
 11
166.0
 21
10.0
 31
0.0
  0
LINE
  5
1E3
330
51
100
AcDbEntity
  8
1
  6
Continuous
 62
     2
100
AcDbLine
 10
55.0
 20
277.0000000000003
 30
0.0
 11
25.0
 21
277.0000000000003
 31
0.0
  0
LINE
  5
1E4
330
51
100
AcDbEntity
  8
1
  6
Continuous
 62
     7
100
AcDbLine
 10
25.0
 20
10.0
 30
0.0
 11
25.0
 21
148.5
 31
0.0
  0
LINE
  5
1E5
330
51
100
AcDbEntity
  8
1
  6
Continuous
 62
     2
100
AcDbLine
 10
40.0
 20
287.0000000000003
 30
0.0
 11
40.0
 21
277.0000000000003
 31
0.0
  0
LINE
  5
1E6
330
51
100
AcDbEntity
  8
1
  6
Continuous
 62
     2
100
AcDbLine
 10
55.0
 20
287.0000000000003
 30
0.0
 11
55.0
 21
277.0000000000003
 31
0.0
  0
LINE
  5
1E7
330
51
100
AcDbEntity
  8
1
  6
Continuous
 62
     2
100
AcDbLine
 10
33.0
 20
41.00000000000001
 30
0.0
 11
33.0
 21
27.0
 31
0.0
  0
LINE
  5
1E8
330
51
100
AcDbEntity
  8
1
  6
Continuous
 62
     7
100
AcDbLine
 10
200.0
 20
27.00000000000001
 30
0.0
 11
25.0
 21
27.00000000000001
 31
0.0
  0
LINE
  5
1E9
330
51
100
AcDbEntity
  8
1
  6
Continuous
 62
     7
100
AcDbLine
 10
25.0
 20
41.0
 30
0.0
 11
200.0
 21
41.0
 31
0.0
  0
LINE
  5
1EA
330
51
100
AcDbEntity
  8
1
  6
PHANTOM
 62
     4
100
AcDbLine
 10
0.0
 20
0.0
 30
0.0
 11
210.0
 21
0.0
 31
0.0
  0
LINE
  5
1EB
330
51
100
AcDbEntity
  8
1
  6
PHANTOM
 62
     4
100
AcDbLine
 10
210.0
 20
0.0
 30
0.0
 11
210.0
 21
297.0
 31
0.0
  0
LINE
  5
1EC
330
51
100
AcDbEntity
  8
1
  6
PHANTOM
 62
     4
100
AcDbLine
 10
210.0
 20
297.0
 30
0.0
 11
0.0
 21
297.0
 31
0.0
  0
LINE
  5
1ED
330
51
100
AcDbEntity
  8
1
  6
PHANTOM
 62
     4
100
AcDbLine
 10
0.0
 20
297.0
 30
0.0
 11
0.0
 21
0.0
 31
0.0
  0
LINE
  5
1EE
330
51
100
AcDbEntity
  8
1
  6
Continuous
 62
     7
100
AcDbLine
 10
25.0
 20
10.0
 30
0.0
 11
105.0
 21
10.0
 31
0.0
  0
LINE
  5
1EF
330
51
100
AcDbEntity
  8
1
  6
Continuous
 62
     7
100
AcDbLine
 10
200.0
 20
10.0
 30
0.0
 11
200.0
 21
148.5
 31
0.0
  0
LINE
  5
1F0
330
51
100
AcDbEntity
  8
1
  6
Continuous
 62
     7
100
AcDbLine
 10
200.0
 20
287.0000000000003
 30
0.0
 11
105.0
 21
287.0000000000003
 31
0.0
  0
LINE
  5
1F1
330
51
100
AcDbEntity
  8
1
  6
Continuous
 62
     2
100
AcDbLine
 10
25.0
 20
18.50000000000001
 30
0.0
 11
81.0
 21
18.50000000000001
 31
0.0
  0
LINE
  5
1F2
330
51
100
AcDbEntity
  8
1
  6
Continuous
 62
     2
100
AcDbLine
 10
33.0
 20
27.0
 30
0.0
 11
33.0
 21
10.0
 31
0.0
  0
LINE
  5
1F3
330
51
100
AcDbEntity
  8
1
  6
Continuous
 62
     7
100
AcDbLine
 10
191.0
 20
24.70000000000001
 30
0.0
 11
191.0
 21
22.30000000000001
 31
0.0
  0
LINE
  5
1F4
330
51
100
AcDbEntity
  8
1
  6
Continuous
 62
     7
100
AcDbLine
 10
191.0
 20
24.70000000000001
 30
0.0
 11
196.0
 21
25.50000000000001
 31
0.0
  0
LINE
  5
1F5
330
51
100
AcDbEntity
  8
1
  6
Continuous
 62
     7
100
AcDbLine
 10
196.0
 20
25.50000000000001
 30
0.0
 11
196.0
 21
21.50000000000001
 31
0.0
  0
LINE
  5
1F6
330
51
100
AcDbEntity
  8
1
  6
Continuous
 62
     7
100
AcDbLine
 10
196.0
 20
21.50000000000001
 30
0.0
 11
191.0
 21
22.30000000000001
 31
0.0
  0
LINE
  5
1F7
330
51
100
AcDbEntity
  8
1
  6
DOT_CENTER
 62
     2
100
AcDbLine
 10
184.0
 20
23.50000000000001
 30
0.0
 11
197.0
 21
23.50000000000001
 31
0.0
  0
LINE
  5
1F8
330
51
100
AcDbEntity
  8
1
  6
DOT_CENTER
 62
     2
100
AcDbLine
 10
187.0
 20
26.50000000000001
 30
0.0
 11
187.0
 21
20.50000000000001
 31
0.0
  0
LINE
  5
1F9
330
51
100
AcDbEntity
  8
1
  6
Continuous
 62
     2
100
AcDbLine
 10
81.0
 20
27.00000000000001
 30
0.0
 11
81.0
 21
10.0
 31
0.0
  0
CIRCLE
  5
1FA
330
51
100
AcDbEntity
  8
1
  6
Continuous
 62
     7
100
AcDbCircle
 10
103.5
 20
12.5
 30
0.0
 40
0.2999999999999972
  0
CIRCLE
  5
1FB
330
51
100
AcDbEntity
  8
1
  6
Continuous
 62
     7
100
AcDbCircle
 10
109.5
 20
12.5
 30
0.0
 40
0.2999999999999972
  0
CIRCLE
  5
1FC
330
51
100
AcDbEntity
  8
1
  6
Continuous
 62
     7
100
AcDbCircle
 10
120.5
 20
12.5
 30
0.0
 40
0.2999999999999972
  0
CIRCLE
  5
1FD
330
51
100
AcDbEntity
  8
1
  6
Continuous
 62
     7
100
AcDbCircle
 10
126.5
 20
12.5
 30
0.0
 40
0.2999999999999972
  0
CIRCLE
  5
1FE
330
51
100
AcDbEntity
  8
1
  6
Continuous
 62
     7
100
AcDbCircle
 10
137.5
 20
12.5
 30
0.0
 40
0.3000000000000114
  0
CIRCLE
  5
1FF
330
51
100
AcDbEntity
  8
1
  6
Continuous
 62
     7
100
AcDbCircle
 10
143.5
 20
12.5
 30
0.0
 40
0.3000000000000114
  0
CIRCLE
  5
200
330
51
100
AcDbEntity
  8
1
  6
Continuous
 62
     7
100
AcDbCircle
 10
160.5
 20
12.5
 30
0.0
 40
0.3000000000000114
  0
CIRCLE
  5
201
330
51
100
AcDbEntity
  8
1
  6
Continuous
 62
     7
100
AcDbCircle
 10
154.5
 20
12.5
 30
0.0
 40
0.3000000000000114
  0
CIRCLE
  5
202
330
51
100
AcDbEntity
  8
1
  6
Continuous
 62
     7
100
AcDbCircle
 10
187.0
 20
23.50000000000001
 30
0.0
 40
1.200000000000102
  0
CIRCLE
  5
203
330
51
100
AcDbEntity
  8
1
  6
Continuous
 62
     7
100
AcDbCircle
 10
187.0
 20
23.50000000000001
 30
0.0
 40
2.0
  0
CIRCLE
  5
204
330
51
100
AcDbEntity
  8
1
  6
DOT_CENTER
 62
     7
100
AcDbCircle
 10
89.5
 20
16.0
 30
0.0
 40
0.1000000000000227
  0
CIRCLE
  5
205
330
51
100
AcDbEntity
  8
1
  6
DOT_CENTER
 62
     7
100
AcDbCircle
 10
89.5
 20
18.0
 30
0.0
 40
0.1000000000000227
  0
MTEXT
  5
207
330
51
100
AcDbEntity
  8
1
 62
     7
100
AcDbMText
 10
188.5
 20
15.0
 30
0.0
 40
3.0
 41
0.0
 71
     5
 72
     1
  1
三栄水栓製作所
  7
CONVERTER_1
 73
     1
 44
1.32052821128451
  0
MTEXT
  5
208
330
51
100
AcDbEntity
  8
1
 62
     7
100
AcDbMText
 10
171.5
 20
15.0
 30
0.0
 40
2.5
 41
0.0
 71
     5
 72
     1
  1
株式会社
  7
CONVERTER_1
 73
     1
 44
1.32052821128451
  0
MTEXT
  5
209
330
51
100
AcDbEntity
  8
1
 62
     2
100
AcDbMText
 10
32.5
 20
282.0000000000003
 30
0.0
 40
5.0
 41
0.0
 71
     5
 72
     1
  1
図番
  7
CONVERTER_1
 73
     1
 44
0.60024009603842
  0
MTEXT
  5
20A
330
51
100
AcDbEntity
  8
1
 62
     2
100
AcDbMText
 10
29.0
 20
34.00000000000001
 30
0.0
 40
3.5
 41
0.0
 71
     5
 72
     1
  1
備考
  7
CONVERTER_1
 73
     1
 44
0.60024009603842
  0
MTEXT
  5
20B
330
51
100
AcDbEntity
  8
1
 62
     2
100
AcDbMText
 10
29.0
 20
22.75
 30
0.0
 40
3.5
 41
0.0
 71
     5
 72
     1
  1
品名
  7
CONVERTER_1
 73
     1
 44
0.96038415366146
  0
MTEXT
  5
20C
330
51
100
AcDbEntity
  8
1
 62
     2
100
AcDbMText
 10
29.0
 20
14.25
 30
0.0
 40
3.5
 41
0.0
 71
     5
 72
     1
  1
品番
  7
CONVERTER_1
 73
     1
 44
0.96038415366146
  0
MTEXT
  5
20D
330
51
100
AcDbEntity
  8
1
 62
     2
100
AcDbMText
 10
101.5
 20
25.00000000000001
 30
0.0
 40
3.0
 41
0.0
 71
     5
 72
     1
  1
承認
  7
CONVERTER_1
 73
     1
 44
0.78031212484994
  0
MTEXT
  5
20E
330
51
100
AcDbEntity
  8
1
 62
     2
100
AcDbMText
 10
175.0
 20
23.50000000000001
 30
0.0
 40
3.5
 41
0.0
 71
     5
 72
     1
  1
第三角法
  7
CONVERTER_1
 73
     1
 44
0.7202881152461
  0
MTEXT
  5
20F
330
51
100
AcDbEntity
  8
1
 62
     2
100
AcDbMText
 10
118.5
 20
25.00000000000001
 30
0.0
 40
3.0
 41
0.0
 71
     5
 72
     1
  1
検図
  7
CONVERTER_1
 73
     1
 44
0.78031212484994
  0
MTEXT
  5
210
330
51
100
AcDbEntity
  8
1
 62
     2
100
AcDbMText
 10
152.5
 20
25.00000000000001
 30
0.0
 40
3.0
 41
0.0
 71
     5
 72
     1
  1
設計
  7
CONVERTER_1
 73
     1
 44
0.78031212484994
  0
MTEXT
  5
211
330
51
100
AcDbEntity
  8
1
 62
     2
100
AcDbMText
 10
135.5
 20
25.00000000000001
 30
0.0
 40
3.0
 41
0.0
 71
     5
 72
     1
  1
製図
  7
CONVERTER_1
 73
     1
 44
0.78031212484994
  0
MTEXT
  5
212
330
51
100
AcDbEntity
  8
1
 62
     2
100
AcDbMText
 10
89.5
 20
24.00000000000001
 30
0.0
 40
3.5
 41
0.0
 71
     5
 72
     1
  1
尺度
  7
CONVERTER_1
 73
     1
 44
0.7202881152461
  0
MTEXT
  5
213
330
51
100
AcDbEntity
  8
1
 62
   250
100
AcDbMText
 10
25.0
 20
5.0
 30
0.0
 40
3.5
 41
0.0
 71
     4
 72
     1
  1
備考欄の文字列 原点位置=4
  7
CONVERTER_1
 73
     1
 44
0.7202881152461
  0
ENDBLK
  5
53
330
51
100
AcDbEntity
  8
0
100
AcDbBlockEnd
  0
BLOCK
  5
22E
330
227
100
AcDbEntity
  8
0
100
AcDbBlockBegin
  2
*D011
 70
     1
 71
     0
 10
0.0
 20
0.0
 30
0.0
  3
*D011
  1

  0
LINE
  5
228
330
227
100
AcDbEntity
  8
1
  6
Continuous
 62
     2
100
AcDbLine
 10
320.2228289959641
 20
151.0137913450995
 30
0.0
 11
320.2228289959641
 21
262.6137913450996
 31
0.0
  0
LINE
  5
229
330
227
100
AcDbEntity
  8
1
  6
Continuous
 62
     2
100
AcDbLine
 10
350.4037403722665
 20
262.6137913450996
 30
0.0
 11
317.7228289959641
 21
262.6137913450996
 31
0.0
  0
LINE
  5
22A
330
227
100
AcDbEntity
  8
1
  6
Continuous
 62
     2
100
AcDbLine
 10
205.8472072400453
 20
151.0137913450995
 30
0.0
 11
322.7228289959641
 21
151.0137913450995
 31
0.0
  0
SOLID
  5
22B
330
227
100
AcDbEntity
  8
1
 62
     2
100
AcDbTrace
 10
319.0708696420744
 20
159.7637913450995
 30
0.0
 11
321.3747883498538
 21
159.7637913450995
 31
0.0
 12
320.2228289959641
 22
151.0137913450995
 32
0.0
 13
320.2228289959641
 23
151.0137913450995
 33
0.0
  0
SOLID
  5
22C
330
227
100
AcDbEntity
  8
1
 62
     2
100
AcDbTrace
 10
321.3747883498538
 20
253.8637913450996
 30
0.0
 11
319.0708696420744
 21
253.8637913450996
 31
0.0
 12
320.2228289959641
 22
262.6137913450996
 32
0.0
 13
320.2228289959641
 23
262.6137913450996
 33
0.0
  0
MTEXT
  5
22D
330
227
100
AcDbEntity
  8
1
 62
     7
100
AcDbMText
 10
317.7228289959641
 20
214.313414914309
 30
0.0
 40
8.75
 41
0.0
 71
     7
 72
     1
  1
112
  7
CONVERTER_2
 11
0.0
 21
1.0
 31
0.0
 73
     1
 44
0.60024009603842
  0
ENDBLK
  5
22F
330
227
100
AcDbEntity
  8
0
100
AcDbBlockEnd
  0
BLOCK
  5
239
330
232
100
AcDbEntity
  8
0
100
AcDbBlockBegin
  2
*D112
 70
     1
 71
     0
 10
0.0
 20
0.0
 30
0.0
  3
*D112
  1

  0
LINE
  5
233
330
232
100
AcDbEntity
  8
1
  6
Continuous
 62
     2
100
AcDbLine
 10
484.1990066444561
 20
239.6137913450996
 30
0.0
 11
484.1990066444561
 21
285.6137913450996
 31
0.0
  0
LINE
  5
234
330
232
100
AcDbEntity
  8
1
  6
Continuous
 62
     2
100
AcDbLine
 10
445.1990066444561
 20
285.6137913450996
 30
0.0
 11
486.6990066444561
 21
285.6137913450996
 31
0.0
  0
LINE
  5
235
330
232
100
AcDbEntity
  8
1
  6
Continuous
 62
     2
100
AcDbLine
 10
445.1990066444561
 20
239.6137913450996
 30
0.0
 11
486.6990066444561
 21
239.6137913450996
 31
0.0
  0
SOLID
  5
236
330
232
100
AcDbEntity
  8
1
 62
     2
100
AcDbTrace
 10
483.0470472905664
 20
248.3637913450996
 30
0.0
 11
485.3509659983458
 21
248.3637913450996
 31
0.0
 12
484.1990066444561
 22
239.6137913450996
 32
0.0
 13
484.1990066444561
 23
239.6137913450996
 33
0.0
  0
SOLID
  5
237
330
232
100
AcDbEntity
  8
1
 62
     2
100
AcDbTrace
 10
485.3509659983458
 20
276.8637913450996
 30
0.0
 11
483.0470472905664
 21
276.8637913450996
 31
0.0
 12
484.1990066444561
 22
285.6137913450996
 32
0.0
 13
484.1990066444561
 23
285.6137913450996
 33
0.0
  0
MTEXT
  5
238
330
232
100
AcDbEntity
  8
1
 62
     7
100
AcDbMText
 10
481.6990066444561
 20
246.9512913450997
 30
0.0
 40
8.75
 41
0.0
 71
     7
 72
     1
  1
\C7;{\Fgdt;n}\C7;46
  7
CONVERTER_2
 11
0.0
 21
1.0
 31
0.0
 73
     1
 44
0.60024009603842
  0
ENDBLK
  5
23A
330
232
100
AcDbEntity
  8
0
100
AcDbBlockEnd
  0
BLOCK
  5
244
330
23D
100
AcDbEntity
  8
0
100
AcDbBlockBegin
  2
*D213
 70
     1
 71
     0
 10
0.0
 20
0.0
 30
0.0
  3
*D213
  1

  0
LINE
  5
23E
330
23D
100
AcDbEntity
  8
0
  6
Continuous
 62
     2
100
AcDbLine
 10
320.2228289959641
 20
262.6137913450996
 30
0.0
 11
320.2228289959641
 21
321.1137913450996
 31
0.0
  0
LINE
  5
23F
330
23D
100
AcDbEntity
  8
0
  6
Continuous
 62
     2
100
AcDbLine
 10
350.4037403722665
 20
262.6137913450996
 30
0.0
 11
317.7228289959641
 21
262.6137913450996
 31
0.0
  0
LINE
  5
240
330
23D
100
AcDbEntity
  8
0
  6
Continuous
 62
     2
100
AcDbLine
 10
400.199006644456
 20
321.1137913450996
 30
0.0
 11
317.7228289959641
 21
321.1137913450996
 31
0.0
  0
SOLID
  5
241
330
23D
100
AcDbEntity
  8
0
 62
     2
100
AcDbTrace
 10
319.0708696420744
 20
271.3637913450996
 30
0.0
 11
321.3747883498538
 21
271.3637913450996
 31
0.0
 12
320.2228289959641
 22
262.6137913450996
 32
0.0
 13
320.2228289959641
 23
262.6137913450996
 33
0.0
  0
SOLID
  5
242
330
23D
100
AcDbEntity
  8
0
 62
     2
100
AcDbTrace
 10
321.3747883498538
 20
312.3637913450996
 30
0.0
 11
319.0708696420744
 21
312.3637913450996
 31
0.0
 12
320.2228289959641
 22
321.1137913450996
 32
0.0
 13
320.2228289959641
 23
321.1137913450996
 33
0.0
  0
MTEXT
  5
243
330
23D
100
AcDbEntity
  8
0
 62
     7
100
AcDbMText
 10
317.7228289959641
 20
269.5491759594497
 30
0.0
 40
8.75
 41
0.0
 71
     7
 72
     1
  1
59リフト5
  7
CONVERTER_1
 11
0.0
 21
1.0
 31
0.0
 73
     1
 44
0.60024009603842
  0
ENDBLK
  5
245
330
23D
100
AcDbEntity
  8
0
100
AcDbBlockEnd
  0
BLOCK
  5
24F
330
248
100
AcDbEntity
  8
0
100
AcDbBlockBegin
  2
*D314
 70
     1
 71
     0
 10
0.0
 20
0.0
 30
0.0
  3
*D314
  1

  0
LINE
  5
249
330
248
100
AcDbEntity
  8
1
  6
Continuous
 62
     2
100
AcDbLine
 10
445.1990066444559
 20
126.0137913450995
 30
0.0
 11
459.1990066444559
 21
126.0137913450995
 31
0.0
  0
LINE
  5
24A
330
248
100
AcDbEntity
  8
1
  6
Continuous
 62
     2
100
AcDbLine
 10
459.1990066444559
 20
126.0137913450995
 30
0.0
 11
476.6990066444559
 21
126.0137913450995
 31
0.0
  0
LINE
  5
24B
330
248
100
AcDbEntity
  8
1
  6
Continuous
 62
     2
100
AcDbLine
 10
459.199006644456
 20
253.1137913450996
 30
0.0
 11
459.199006644456
 21
123.5137913450995
 31
0.0
  0
LINE
  5
24C
330
248
100
AcDbEntity
  8
1
  6
Continuous
 62
     2
100
AcDbLine
 10
445.199006644456
 20
236.1344548803725
 30
0.0
 11
445.199006644456
 21
123.5137913450995
 31
0.0
  0
SOLID
  5
24D
330
248
100
AcDbEntity
  8
1
 62
     2
100
AcDbTrace
 10
467.9490066444559
 20
127.1657506989892
 30
0.0
 11
467.9490066444559
 21
124.8618319912098
 31
0.0
 12
459.1990066444559
 22
126.0137913450995
 32
0.0
 13
459.1990066444559
 23
126.0137913450995
 33
0.0
  0
MTEXT
  5
24E
330
248
100
AcDbEntity
  8
1
 62
     7
100
AcDbMText
 10
465.6654216528071
 20
128.5137913450995
 30
0.0
 40
8.75
 41
0.0
 71
     7
 72
     1
  1
14
  7
CONVERTER_2
 11
0.9999999999970621
 21
2.424068405545307E-6
 31
0.0
 73
     1
 44
0.60024009603842
  0
ENDBLK
  5
250
330
248
100
AcDbEntity
  8
0
100
AcDbBlockEnd
  0
BLOCK
  5
252
330
251
100
AcDbEntity
  8
0
100
AcDbBlockBegin
  2
_None
 70
     0
 71
     0
 10
0.0
 20
0.0
 30
0.0
  3
_None
  1

  0
ENDBLK
  5
253
330
251
100
AcDbEntity
  8
0
100
AcDbBlockEnd
  0
BLOCK
  5
25D
330
256
100
AcDbEntity
  8
0
100
AcDbBlockBegin
  2
*D416
 70
     1
 71
     0
 10
0.0
 20
0.0
 30
0.0
  3
*D416
  1

  0
LINE
  5
257
330
256
100
AcDbEntity
  8
0
  6
Continuous
 62
     2
100
AcDbLine
 10
365.199006644456
 20
126.0137913450995
 30
0.0
 11
400.199006644456
 21
126.0137913450995
 31
0.0
  0
LINE
  5
258
330
256
100
AcDbEntity
  8
0
  6
Continuous
 62
     2
100
AcDbLine
 10
400.199006644456
 20
246.9625063951356
 30
0.0
 11
400.199006644456
 21
123.5137913450995
 31
0.0
  0
LINE
  5
259
330
256
100
AcDbEntity
  8
0
  6
Continuous
 62
     2
100
AcDbLine
 10
365.199006644456
 20
229.1137913450996
 30
0.0
 11
365.199006644456
 21
123.5137913450995
 31
0.0
  0
SOLID
  5
25A
330
256
100
AcDbEntity
  8
0
 62
     2
100
AcDbTrace
 10
373.949006644456
 20
127.1657506989892
 30
0.0
 11
373.949006644456
 21
124.8618319912098
 31
0.0
 12
365.199006644456
 22
126.0137913450995
 32
0.0
 13
365.199006644456
 23
126.0137913450995
 33
0.0
  0
SOLID
  5
25B
330
256
100
AcDbEntity
  8
0
 62
     2
100
AcDbTrace
 10
391.449006644456
 20
124.8618319912098
 30
0.0
 11
391.449006644456
 21
127.1657506989892
 31
0.0
 12
400.199006644456
 22
126.0137913450995
 32
0.0
 13
400.199006644456
 23
126.0137913450995
 33
0.0
  0
MTEXT
  5
25C
330
256
100
AcDbEntity
  8
0
 62
     7
100
AcDbMText
 10
376.136506644456
 20
128.5137913450995
 30
0.0
 40
8.75
 41
0.0
 71
     7
 72
     1
  1
35
  7
CONVERTER_2
 11
0.9999999999970621
 21
2.424068405545307E-6
 31
0.0
 73
     1
 44
0.60024009603842
  0
ENDBLK
  5
25E
330
256
100
AcDbEntity
  8
0
100
AcDbBlockEnd
  0
BLOCK
  5
268
330
261
100
AcDbEntity
  8
0
100
AcDbBlockBegin
  2
*D517
 70
     1
 71
     0
 10
0.0
 20
0.0
 30
0.0
  3
*D517
  1

  0
LINE
  5
262
330
261
100
AcDbEntity
  8
0
  6
Continuous
 62
     2
100
AcDbLine
 10
400.199006644456
 20
126.0137913450995
 30
0.0
 11
445.199006644456
 21
126.0137913450995
 31
0.0
  0
LINE
  5
263
330
261
100
AcDbEntity
  8
0
  6
Continuous
 62
     2
100
AcDbLine
 10
445.199006644456
 20
236.1344548803725
 30
0.0
 11
445.199006644456
 21
123.5137913450995
 31
0.0
  0
LINE
  5
264
330
261
100
AcDbEntity
  8
0
  6
Continuous
 62
     2
100
AcDbLine
 10
400.199006644456
 20
246.9625063951356
 30
0.0
 11
400.199006644456
 21
123.5137913450995
 31
0.0
  0
SOLID
  5
265
330
261
100
AcDbEntity
  8
0
 62
     2
100
AcDbTrace
 10
408.949006644456
 20
127.1657506989892
 30
0.0
 11
408.949006644456
 21
124.8618319912098
 31
0.0
 12
400.199006644456
 22
126.0137913450995
 32
0.0
 13
400.199006644456
 23
126.0137913450995
 33
0.0
  0
SOLID
  5
266
330
261
100
AcDbEntity
  8
0
 62
     2
100
AcDbTrace
 10
436.449006644456
 20
124.8618319912098
 30
0.0
 11
436.449006644456
 21
127.1657506989892
 31
0.0
 12
445.199006644456
 22
126.0137913450995
 32
0.0
 13
445.199006644456
 23
126.0137913450995
 33
0.0
  0
MTEXT
  5
267
330
261
100
AcDbEntity
  8
0
 62
     7
100
AcDbMText
 10
416.136506644456
 20
128.5137913450995
 30
0.0
 40
8.75
 41
0.0
 71
     7
 72
     1
  1
45
  7
CONVERTER_2
 11
0.9999999999970621
 21
2.424068405545307E-6
 31
0.0
 73
     1
 44
0.60024009603842
  0
ENDBLK
  5
269
330
261
100
AcDbEntity
  8
0
100
AcDbBlockEnd
  0
BLOCK
  5
273
330
26C
100
AcDbEntity
  8
0
100
AcDbBlockBegin
  2
*D618
 70
     1
 71
     0
 10
0.0
 20
0.0
 30
0.0
  3
*D618
  1

  0
LINE
  5
26D
330
26C
100
AcDbEntity
  8
0
  6
Continuous
 62
     2
100
AcDbLine
 10
195.1972072400453
 20
126.0137913450995
 30
0.0
 11
365.199006644456
 21
126.0137913450995
 31
0.0
  0
LINE
  5
26E
330
26C
100
AcDbEntity
  8
0
  6
Continuous
 62
     2
100
AcDbLine
 10
365.1990066444561
 20
229.1137913450996
 30
0.0
 11
365.1990066444561
 21
123.5137913450995
 31
0.0
  0
LINE
  5
26F
330
26C
100
AcDbEntity
  8
0
  6
Continuous
 62
     2
100
AcDbLine
 10
195.1972072400453
 20
148.9657464254776
 30
0.0
 11
195.1972072400453
 21
123.5137913450995
 31
0.0
  0
SOLID
  5
270
330
26C
100
AcDbEntity
  8
0
 62
     2
100
AcDbTrace
 10
203.9472072400453
 20
127.1657506989892
 30
0.0
 11
203.9472072400453
 21
124.8618319912098
 31
0.0
 12
195.1972072400453
 22
126.0137913450995
 32
0.0
 13
195.1972072400453
 23
126.0137913450995
 33
0.0
  0
SOLID
  5
271
330
26C
100
AcDbEntity
  8
0
 62
     2
100
AcDbTrace
 10
356.449006644456
 20
124.8618319912098
 30
0.0
 11
356.449006644456
 21
127.1657506989892
 31
0.0
 12
365.199006644456
 22
126.0137913450995
 32
0.0
 13
365.199006644456
 23
126.0137913450995
 33
0.0
  0
MTEXT
  5
272
330
26C
100
AcDbEntity
  8
0
 62
     7
100
AcDbMText
 10
271.0106069422507
 20
128.5137913450995
 30
0.0
 40
8.75
 41
0.0
 71
     7
 72
     1
  1
170
  7
CONVERTER_2
 11
0.9999999999970621
 21
2.424068405545307E-6
 31
0.0
 73
     1
 44
0.60024009603842
  0
ENDBLK
  5
274
330
26C
100
AcDbEntity
  8
0
100
AcDbBlockEnd
  0
ENDSEC
  0
SECTION
  2
ENTITIES
  0
INSERT
  5
54
330
1F
100
AcDbEntity
  8
1
100
AcDbBlockReference
  2
51-1
 10
2366.381596934454
 20
468.3565628672214
 30
0.0
 41
1.0
 42
1.0
 43
1.0
  0
INSERT
  5
55
330
1F
100
AcDbEntity
  8
0
100
AcDbBlockReference
  2
42-1
 10
312.0947465578524
 20
110.3241423355148
 30
0.0
  0
INSERT
  5
56
330
1F
100
AcDbEntity
  8
0
100
AcDbBlockReference
  2
37-1-13
 10
308.3977764276849
 20
146.1180854549551
 30
0.0
  0
INSERT
  5
57
330
1F
100
AcDbEntity
  8
0
100
AcDbBlockReference
  2
60-2-16-170
 10
227.0327726390422
 20
137.7476935151058
 30
0.0
  0
INSERT
  5
58
330
1F
100
AcDbEntity
  8
1
100
AcDbBlockReference
  2
30-111
 10
23.43097116172692
 20
147.9712593978547
 30
0.0
  0
INSERT
  5
59
330
1F
100
AcDbEntity
  8
0
100
AcDbBlockReference
  2
21-1A
 10
445.199006644456
 20
262.6137913450996
 30
0.0
  0
INSERT
  5
5A
330
1F
100
AcDbEntity
  8
0
100
AcDbBlockReference
  2
36-1A-13-M4
 10
154.3851482225076
 20
164.0446653356635
 30
0.0
  0
INSERT
  5
5B
330
1F
100
AcDbEntity
  8
1
100
AcDbBlockReference
  2
A10-0A-13
 10
400.199006644456
 20
262.6137913450996
 30
0.0
  0
INSERT
  5
5C
330
1F
100
AcDbEntity
  8
1
100
AcDbBlockReference
  2
32-1-16
 10
68.65326680878707
 20
443.0996234752087
 30
0.0
  0
INSERT
  5
5D
330
1F
100
AcDbEntity
  8
1
100
AcDbBlockReference
  2
_J__A4
 10
0.0
 20
0.0
 30
0.0
 41
2.5
 42
2.5
 43
2.5
  0
LINE
  5
214
330
1F
100
AcDbEntity
  8
1
  6
DASH_CENTER
 62
     2
100
AcDbLine
 10
126.1826516791612
 20
633.0023426644455
 30
0.0
 11
126.1826516791612
 21
353.3025278003364
 31
0.0
  0
LINE
  5
215
330
1F
100
AcDbEntity
  8
1
  6
DASH_CENTER
 62
     2
100
AcDbLine
 10
195.1972072400453
 20
148.9657464254776
 30
0.0
 11
195.1972072400453
 21
175.1137913450996
 31
0.0
  0
LINE
  5
216
330
1F
100
AcDbEntity
  8
1
  6
DASH_CENTER
 62
     2
100
AcDbLine
 10
222.1972072400453
 20
202.1137913450996
 30
0.0
 11
338.199006644456
 21
202.1137913450996
 31
0.0
  0
LINE
  5
217
330
1F
100
AcDbEntity
  8
1
  6
DASH_CENTER
 62
     2
100
AcDbLine
 10
365.199006644456
 20
229.1137913450996
 30
0.0
 11
365.199006644456
 21
271.2395300733874
 31
0.0
  0
LINE
  5
218
330
1F
100
AcDbEntity
  8
0
  6
Continuous
 62
     2
100
AcDbLine
 10
445.199006644456
 20
239.6137913450996
 30
0.0
 11
445.199006644456
 21
236.1344548803725
 31
0.0
  0
LINE
  5
219
330
1F
100
AcDbEntity
  8
1
  6
DASH_CENTER
 62
     2
100
AcDbLine
 10
462.2368131762089
 20
262.6137913450996
 30
0.0
 11
350.4037403722665
 21
262.6137913450996
 31
0.0
  0
LINE
  5
21A
330
1F
100
AcDbEntity
  8
1
  6
DASH_CENTER
 62
     2
100
AcDbLine
 10
400.199006644456
 20
246.9625063951356
 30
0.0
 11
400.199006644456
 21
324.2816044027584
 31
0.0
  0
LINE
  5
21B
330
1F
100
AcDbEntity
  8
0
  6
DASH_CENTER
 62
     2
100
AcDbLine
 10
126.1826516791612
 20
324.2816044027584
 30
0.0
 11
126.1826516791612
 21
148.9657464254776
 31
0.0
  0
ARC
  5
21C
330
1F
100
AcDbEntity
  8
1
  6
DASH_CENTER
 62
     2
100
AcDbCircle
 10
222.1972072400453
 20
175.1137913450996
 30
0.0
 40
27.0
100
AcDbArc
 50
90.0
 51
180.0
  0
ARC
  5
21D
330
1F
100
AcDbEntity
  8
1
  6
DASH_CENTER
 62
     2
100
AcDbCircle
 10
338.199006644456
 20
229.1137913450996
 30
0.0
 40
27.0
100
AcDbArc
 50
-90.0
 51
0.0
  0
SOLID
  5
21E
330
1F
100
AcDbEntity
  8
1
 62
     2
100
AcDbTrace
 10
140.0600256145657
 20
630.9342264303602
 30
0.0
 11
142.0552777437569
 21
629.7822670764705
 31
0.0
 12
136.6826516791612
 22
622.7805244703015
 32
0.0
 13
136.6826516791612
 23
622.7805244703015
 33
0.0
  0
LEADER
  5
21F
330
1F
100
AcDbEntity
  8
1
  6
Continuous
 62
     2
100
AcDbLeader
  3
Standard
 71
     0
 76
     3
 10
136.6826516791612
 20
622.7805244703015
 30
0.0
 10
149.6399041980979
 20
645.2231441595997
 30
0.0
 10
188.806319904558
 20
645.2231441595997
 30
0.0
  0
MTEXT
  5
221
330
1F
100
AcDbEntity
  8
1
 62
     7
100
AcDbMText
 10
234.375
 20
42.5
 30
0.0
 40
8.75
 41
0.0
 71
     5
 72
     1
  1
2,5
  7
CONVERTER_2
 73
     1
 44
0.7202881152461
  0
MTEXT
  5
222
330
1F
100
AcDbEntity
  8
1
 62
     7
100
AcDbMText
 10
213.125
 20
42.5
 30
0.0
 40
8.75
 41
0.0
 71
     5
 72
     1
  1
1
  7
CONVERTER_2
 73
     1
 44
0.7202881152461
  0
MTEXT
  5
223
330
1F
100
AcDbEntity
  8
1
 62
     7
100
AcDbMText
 10
169.2231120513279
 20
652.7231441595997
 30
0.0
 40
8.75
 41
0.0
 71
     5
 72
     1
  1
PJ1/2
  7
CONVERTER_2
 73
     1
 44
1.32052821128451
  0
MTEXT
  5
224
330
1F
100
AcDbEntity
  8
0
 62
     7
100
AcDbMText
 10
142.5
 20
35.625
 30
0.0
 40
8.75
 41
0.0
 71
     5
 72
     1
  1
A10JHK-13
  7
CONVERTER_2
 73
     1
 44
0.7202881152461
  0
MTEXT
  5
225
330
1F
100
AcDbEntity
  8
0
 62
     7
100
AcDbMText
 10
142.5
 20
56.87500000000003
 30
0.0
 40
8.75
 41
0.0
 71
     5
 72
     1
  1
泡沫自在水栓
  7
CONVERTER_1
 73
     1
 44
1.32052821128451
  0
MTEXT
  5
226
330
1F
100
AcDbEntity
  8
0
 62
     7
100
AcDbMText
 10
84.99999999999999
 20
85.00000000000003
 30
0.0
 40
8.75
 41
0.0
 71
     4
 72
     1
  1
JIS
  7
CONVERTER_2
 73
     1
 44
1.32052821128451
  0
DIMENSION
  5
231
330
1F
100
AcDbEntity
  8
1
100
AcDbDimension
  2
*D011
 10
320.2228289959641
 20
151.0137913450995
 30
0.0
 11
313.3478289959641
 21
222.188414914309
 31
0.0
  1
<>
 71
     5
 42
0.0
 53
90.0
  3
ME10_DIM_0
100
AcDbAlignedDimension
 13
350.4037403722665
 23
262.6137913450996
 33
0.0
 14
205.8472072400452
 24
151.0137913450995
 34
0.0
 50
90.0
100
AcDbRotatedDimension
  0
DIMENSION
  5
23C
330
1F
100
AcDbEntity
  8
1
100
AcDbDimension
  2
*D112
 10
484.1990066444561
 20
239.6137913450996
 30
0.0
 11
477.3240066444561
 21
262.6137913450997
 31
0.0
  1
<>
 71
     5
 42
0.0
 53
90.0
  3
ME10_DIM_1
100
AcDbAlignedDimension
 13
445.199006644456
 23
285.6137913450996
 33
0.0
 14
445.199006644456
 24
239.6137913450996
 34
0.0
 50
90.0
100
AcDbRotatedDimension
  0
DIMENSION
  5
247
330
1F
100
AcDbEntity
  8
0
100
AcDbDimension
  2
*D213
 10
320.2228289959641
 20
262.6137913450996
 30
0.0
 11
313.3478289959641
 21
293.1741759594497
 31
0.0
  1
59リフト5
 71
     5
 42
0.0
 53
90.0
  3
ME10_DIM_2
100
AcDbAlignedDimension
 13
400.199006644456
 23
321.1137913450997
 33
0.0
 14
350.4037403722665
 24
262.6137913450996
 34
0.0
 50
90.0
100
AcDbRotatedDimension
  0
DIMENSION
  5
255
330
1F
100
AcDbEntity
  8
1
100
AcDbDimension
  2
*D314
 10
445.1990066444559
 20
126.0137913450995
 30
0.0
 11
470.9154216528071
 21
132.8887913450995
 31
0.0
  1
<>
 71
     5
 42
0.0
 53
0.00013888888889
  3
ME10_DIM_3
100
AcDbAlignedDimension
 13
459.1990066444561
 23
253.1137913450996
 33
0.0
 14
445.199006644456
 24
236.1344548803725
 34
0.0
100
AcDbRotatedDimension
  0
DIMENSION
  5
260
330
1F
100
AcDbEntity
  8
0
100
AcDbDimension
  2
*D416
 10
365.199006644456
 20
126.0137913450995
 30
0.0
 11
382.699006644456
 21
132.8887913450995
 31
0.0
  1
<>
 71
     5
 42
0.0
 53
0.00013888888889
  3
ME10_DIM_4
100
AcDbAlignedDimension
 13
400.199006644456
 23
246.9625063951356
 33
0.0
 14
365.199006644456
 24
229.1137913450996
 34
0.0
100
AcDbRotatedDimension
  0
DIMENSION
  5
26B
330
1F
100
AcDbEntity
  8
0
100
AcDbDimension
  2
*D517
 10
400.199006644456
 20
126.0137913450995
 30
0.0
 11
422.699006644456
 21
132.8887913450995
 31
0.0
  1
<>
 71
     5
 42
0.0
 53
0.00013888888889
  3
ME10_DIM_5
100
AcDbAlignedDimension
 13
445.199006644456
 23
236.1344548803725
 33
0.0
 14
400.199006644456
 24
246.9625063951356
 34
0.0
100
AcDbRotatedDimension
  0
DIMENSION
  5
276
330
1F
100
AcDbEntity
  8
0
100
AcDbDimension
  2
*D618
 10
195.1972072400453
 20
126.0137913450995
 30
0.0
 11
280.1981069422507
 21
132.8887913450995
 31
0.0
  1
<>
 71
     5
 42
0.0
 53
0.00013888888889
  3
ME10_DIM_6
100
AcDbAlignedDimension
 13
365.199006644456
 23
229.1137913450996
 33
0.0
 14
195.1972072400453
 24
148.9657464254776
 34
0.0
100
AcDbRotatedDimension
  0
ENDSEC
  0
SECTION
  2
OBJECTS
  0
DICTIONARY
  5
C
330
0
100
AcDbDictionary
281
     1
  3
ACAD_GROUP
350
D
  3
ACAD_LAYOUT
350
1A
  3
ACAD_MLINESTYLE
350
17
  3
ACAD_PLOTSETTINGS
350
19
  3
ACAD_PLOTSTYLENAME
350
E
  3
ACAD_TABLESTYLE
350
2A
  3
AcDbVariableDictionary
350
2C
  0
DICTIONARY
  5
D
102
{ACAD_REACTORS
330
C
102
}
330
C
100
AcDbDictionary
281
     1
  0
DICTIONARY
  5
1A
102
{ACAD_REACTORS
330
C
102
}
330
C
100
AcDbDictionary
281
     1
  3
Layout1
350
1E
  3
Layout2
350
26
  3
Model
350
22
  0
DICTIONARY
  5
17
102
{ACAD_REACTORS
330
C
102
}
330
C
100
AcDbDictionary
281
     1
  3
Standard
350
18
  0
DICTIONARY
  5
19
102
{ACAD_REACTORS
330
C
102
}
330
C
100
AcDbDictionary
281
     1
  0
ACDBDICTIONARYWDFLT
  5
E
102
{ACAD_REACTORS
330
C
102
}
330
C
100
AcDbDictionary
281
     1
  3
Normal
350
F
100
AcDbDictionaryWithDefault
340
F
  0
DICTIONARY
  5
2A
102
{ACAD_REACTORS
330
C
102
}
330
C
100
AcDbDictionary
281
     1
  3
Standard
350
2B
  0
DICTIONARY
  5
2C
102
{ACAD_REACTORS
330
C
102
}
330
C
100
AcDbDictionary
281
     1
  3
CTABLESTYLE
350
2D
  0
LAYOUT
  5
1E
102
{ACAD_REACTORS
330
1A
102
}
330
1A
100
AcDbPlotSettings
  1

  2

  4

  6

 40
0.0
 41
0.0
 42
0.0
 43
0.0
 44
0.0
 45
0.0
 46
0.0
 47
0.0
 48
0.0
 49
0.0
140
0.0
141
0.0
142
1.0
143
1.0
 70
   688
 72
     0
 73
     0
 74
     5
  7

 75
    16
147
1.0
148
0.0
149
0.0
100
AcDbLayout
  1
Layout1
 70
     1
 71
     1
 10
0.0
 20
0.0
 11
12.0
 21
9.0
 12
0.0
 22
0.0
 32
0.0
 14
1.00000000000000E+20
 24
1.00000000000000E+20
 34
1.00000000000000E+20
 15
-1.00000000000000E+20
 25
-1.00000000000000E+20
 35
-1.00000000000000E+20
146
0.0
 13
0.0
 23
0.0
 33
0.0
 16
1.0
 26
0.0
 36
0.0
 17
0.0
 27
1.0
 37
0.0
 76
     0
330
1B
  0
LAYOUT
  5
26
102
{ACAD_REACTORS
330
1A
102
}
330
1A
100
AcDbPlotSettings
  1

  2

  4

  6

 40
0.0
 41
0.0
 42
0.0
 43
0.0
 44
0.0
 45
0.0
 46
0.0
 47
0.0
 48
0.0
 49
0.0
140
0.0
141
0.0
142
1.0
143
1.0
 70
   688
 72
     0
 73
     0
 74
     5
  7

 75
    16
147
1.0
148
0.0
149
0.0
100
AcDbLayout
  1
Layout2
 70
     1
 71
     2
 10
0.0
 20
0.0
 11
0.0
 21
0.0
 12
0.0
 22
0.0
 32
0.0
 14
0.0
 24
0.0
 34
0.0
 15
0.0
 25
0.0
 35
0.0
146
0.0
 13
0.0
 23
0.0
 33
0.0
 16
1.0
 26
0.0
 36
0.0
 17
0.0
 27
1.0
 37
0.0
 76
     0
330
23
  0
LAYOUT
  5
22
102
{ACAD_REACTORS
330
1A
102
}
330
1A
100
AcDbPlotSettings
  1

  2

  4

  6

 40
0.0
 41
0.0
 42
0.0
 43
0.0
 44
0.0
 45
0.0
 46
0.0
 47
0.0
 48
0.0
 49
0.0
140
0.0
141
0.0
142
1.0
143
1.0
 70
  1712
 72
     0
 73
     0
 74
     0
  7

 75
     0
147
1.0
148
0.0
149
0.0
100
AcDbLayout
  1
Model
 70
     1
 71
     0
 10
0.0
 20
0.0
 11
0.0
 21
0.0
 12
0.0
 22
0.0
 32
0.0
 14
0.0
 24
0.0
 34
0.0
 15
525.0
 25
742.5
 35
0.0
146
0.0
 13
0.0
 23
0.0
 33
0.0
 16
1.0
 26
0.0
 36
0.0
 17
0.0
 27
1.0
 37
0.0
 76
     0
330
1F
  0
MLINESTYLE
  5
18
102
{ACAD_REACTORS
330
17
102
}
330
17
100
AcDbMlineStyle
  2
Standard
 70
     0
  3

 62
   256
 51
90.0
 52
90.0
 71
     2
 49
0.5
 62
   256
  6
BYLAYER
 49
-0.5
 62
   256
  6
BYLAYER
  0
ACDBPLACEHOLDER
  5
F
102
{ACAD_REACTORS
330
E
102
}
330
E
  0
TABLESTYLE
  5
2B
102
{ACAD_REACTORS
330
2A
102
}
330
2A
100
AcDbTableStyle
  3
Standard
 70
     0
 71
     0
 40
0.06
 41
0.06
280
     0
281
     0
  7
Standard
140
0.18
170
     2
 62
     0
 63
     7
283
     0
274
    -2
284
     1
 64
     0
275
    -2
285
     1
 65
     0
276
    -2
286
     1
 66
     0
277
    -2
287
     1
 67
     0
278
    -2
288
     1
 68
     0
279
    -2
289
     1
 69
     0
  7
Standard
140
0.25
170
     5
 62
     0
 63
     7
283
     0
274
    -2
284
     1
 64
     0
275
    -2
285
     1
 65
     0
276
    -2
286
     1
 66
     0
277
    -2
287
     1
 67
     0
278
    -2
288
     1
 68
     0
279
    -2
289
     1
 69
     0
  7
Standard
140
0.18
170
     5
 62
     0
 63
     7
283
     0
274
    -2
284
     1
 64
     0
275
    -2
285
     1
 65
     0
276
    -2
286
     1
 66
     0
277
    -2
287
     1
 67
     0
278
    -2
288
     1
 68
     0
279
    -2
289
     1
 69
     0
  0
DICTIONARYVAR
  5
2D
102
{ACAD_REACTORS
330
2C
102
}
330
2C
100
DictionaryVariables
280
     0
  1
Standard
  0
ENDSEC
  0
EOF
