  0
SECTION
  2
HEADER
  9
$ACADVER
  1
AC1015
  9
$ACADMAINTVER
 70
     6
  9
$DWGCODEPAGE
  3
DOS932
  9
$INSBASE
 10
0.0
 20
0.0
 30
0.0
  9
$EXTMIN
 10
0.0
 20
0.0
 30
0.0
  9
$EXTMAX
 10
630.0000000000007
 20
891.0000000000009
 30
0.0
  9
$LIMMIN
 10
0.0
 20
0.0
  9
$LIMMAX
 10
12.0
 20
9.0
  9
$ORTHOMODE
 70
     0
  9
$REGENMODE
 70
     1
  9
$FILLMODE
 70
     1
  9
$QTEXTMODE
 70
     0
  9
$MIRRTEXT
 70
     1
  9
$LTSCALE
 40
1.0
  9
$ATTMODE
 70
     1
  9
$TEXTSIZE
 40
0.2
  9
$TRACEWID
 40
0.05
  9
$TEXTSTYLE
  7
Standard
  9
$CLAYER
  8
0
  9
$CELTYPE
  6
ByLayer
  9
$CECOLOR
 62
   256
  9
$CELTSCALE
 40
1.0
  9
$DISPSILH
 70
     0
  9
$DIMSCALE
 40
1.0
  9
$DIMASZ
 40
0.18
  9
$DIMEXO
 40
0.0625
  9
$DIMDLI
 40
0.38
  9
$DIMRND
 40
0.0
  9
$DIMDLE
 40
0.0
  9
$DIMEXE
 40
0.18
  9
$DIMTP
 40
0.0
  9
$DIMTM
 40
0.0
  9
$DIMTXT
 40
0.18
  9
$DIMCEN
 40
0.09
  9
$DIMTSZ
 40
0.0
  9
$DIMTOL
 70
     0
  9
$DIMLIM
 70
     0
  9
$DIMTIH
 70
     1
  9
$DIMTOH
 70
     1
  9
$DIMSE1
 70
     0
  9
$DIMSE2
 70
     0
  9
$DIMTAD
 70
     0
  9
$DIMZIN
 70
     0
  9
$DIMBLK
  1

  9
$DIMASO
 70
     1
  9
$DIMSHO
 70
     1
  9
$DIMPOST
  1

  9
$DIMAPOST
  1

  9
$DIMALT
 70
     0
  9
$DIMALTD
 70
     2
  9
$DIMALTF
 40
25.4
  9
$DIMLFAC
 40
1.0
  9
$DIMTOFL
 70
     0
  9
$DIMTVP
 40
0.0
  9
$DIMTIX
 70
     0
  9
$DIMSOXD
 70
     0
  9
$DIMSAH
 70
     0
  9
$DIMBLK1
  1

  9
$DIMBLK2
  1

  9
$DIMSTYLE
  2
Standard
  9
$DIMCLRD
 70
     0
  9
$DIMCLRE
 70
     0
  9
$DIMCLRT
 70
     0
  9
$DIMTFAC
 40
1.0
  9
$DIMGAP
 40
0.09
  9
$DIMJUST
 70
     0
  9
$DIMSD1
 70
     0
  9
$DIMSD2
 70
     0
  9
$DIMTOLJ
 70
     1
  9
$DIMTZIN
 70
     0
  9
$DIMALTZ
 70
     0
  9
$DIMALTTZ
 70
     0
  9
$DIMUPT
 70
     0
  9
$DIMDEC
 70
     4
  9
$DIMTDEC
 70
     4
  9
$DIMALTU
 70
     2
  9
$DIMALTTD
 70
     2
  9
$DIMTXSTY
  7
Standard
  9
$DIMAUNIT
 70
     0
  9
$DIMADEC
 70
     0
  9
$DIMALTRND
 40
0.0
  9
$DIMAZIN
 70
     0
  9
$DIMDSEP
 70
    46
  9
$DIMATFIT
 70
     3
  9
$DIMFRAC
 70
     0
  9
$DIMLDRBLK
  1

  9
$DIMLUNIT
 70
     2
  9
$DIMLWD
 70
    -2
  9
$DIMLWE
 70
    -2
  9
$DIMTMOVE
 70
     0
  9
$LUNITS
 70
     2
  9
$LUPREC
 70
     4
  9
$SKETCHINC
 40
0.1
  9
$FILLETRAD
 40
0.5
  9
$AUNITS
 70
     0
  9
$AUPREC
 70
     0
  9
$MENU
  1
.
  9
$ELEVATION
 40
0.0
  9
$PELEVATION
 40
0.0
  9
$THICKNESS
 40
0.0
  9
$LIMCHECK
 70
     0
  9
$CHAMFERA
 40
0.5
  9
$CHAMFERB
 40
0.5
  9
$CHAMFERC
 40
1.0
  9
$CHAMFERD
 40
0.0
  9
$SKPOLY
 70
     0
  9
$TDCREATE
 40
2456184.548611644
  9
$TDUCREATE
 40
2456184.173611644
  9
$TDUPDATE
 40
2456184.548611655
  9
$TDUUPDATE
 40
2456184.173611655
  9
$TDINDWG
 40
0.0000000116
  9
$TDUSRTIMER
 40
0.0000000116
  9
$USRTIMER
 70
     1
  9
$ANGBASE
 50
0.0
  9
$ANGDIR
 70
     0
  9
$PDMODE
 70
     0
  9
$PDSIZE
 40
0.0
  9
$PLINEWID
 40
0.0
  9
$SPLFRAME
 70
     0
  9
$SPLINETYPE
 70
     6
  9
$SPLINESEGS
 70
     8
  9
$HANDSEED
  5
282
  9
$SURFTAB1
 70
     6
  9
$SURFTAB2
 70
     6
  9
$SURFTYPE
 70
     6
  9
$SURFU
 70
     6
  9
$SURFV
 70
     6
  9
$UCSBASE
  2

  9
$UCSNAME
  2

  9
$UCSORG
 10
0.0
 20
0.0
 30
0.0
  9
$UCSXDIR
 10
1.0
 20
0.0
 30
0.0
  9
$UCSYDIR
 10
0.0
 20
1.0
 30
0.0
  9
$UCSORTHOREF
  2

  9
$UCSORTHOVIEW
 70
     0
  9
$UCSORGTOP
 10
0.0
 20
0.0
 30
0.0
  9
$UCSORGBOTTOM
 10
0.0
 20
0.0
 30
0.0
  9
$UCSORGLEFT
 10
0.0
 20
0.0
 30
0.0
  9
$UCSORGRIGHT
 10
0.0
 20
0.0
 30
0.0
  9
$UCSORGFRONT
 10
0.0
 20
0.0
 30
0.0
  9
$UCSORGBACK
 10
0.0
 20
0.0
 30
0.0
  9
$PUCSBASE
  2

  9
$PUCSNAME
  2

  9
$PUCSORG
 10
0.0
 20
0.0
 30
0.0
  9
$PUCSXDIR
 10
1.0
 20
0.0
 30
0.0
  9
$PUCSYDIR
 10
0.0
 20
1.0
 30
0.0
  9
$PUCSORTHOREF
  2

  9
$PUCSORTHOVIEW
 70
     0
  9
$PUCSORGTOP
 10
0.0
 20
0.0
 30
0.0
  9
$PUCSORGBOTTOM
 10
0.0
 20
0.0
 30
0.0
  9
$PUCSORGLEFT
 10
0.0
 20
0.0
 30
0.0
  9
$PUCSORGRIGHT
 10
0.0
 20
0.0
 30
0.0
  9
$PUCSORGFRONT
 10
0.0
 20
0.0
 30
0.0
  9
$PUCSORGBACK
 10
0.0
 20
0.0
 30
0.0
  9
$USERI1
 70
     0
  9
$USERI2
 70
     0
  9
$USERI3
 70
     0
  9
$USERI4
 70
     0
  9
$USERI5
 70
     0
  9
$USERR1
 40
13.2
  9
$USERR2
 40
0.0
  9
$USERR3
 40
0.0
  9
$USERR4
 40
0.0
  9
$USERR5
 40
0.0
  9
$WORLDVIEW
 70
     1
  9
$SHADEDGE
 70
     3
  9
$SHADEDIF
 70
    70
  9
$TILEMODE
 70
     1
  9
$MAXACTVP
 70
    64
  9
$PINSBASE
 10
0.0
 20
0.0
 30
0.0
  9
$PLIMCHECK
 70
     0
  9
$PEXTMIN
 10
1.00000000000000E+20
 20
1.00000000000000E+20
 30
1.00000000000000E+20
  9
$PEXTMAX
 10
-1.00000000000000E+20
 20
-1.00000000000000E+20
 30
-1.00000000000000E+20
  9
$PLIMMIN
 10
0.0
 20
0.0
  9
$PLIMMAX
 10
12.0
 20
9.0
  9
$UNITMODE
 70
     0
  9
$VISRETAIN
 70
     1
  9
$PLINEGEN
 70
     0
  9
$PSLTSCALE
 70
     1
  9
$TREEDEPTH
 70
  3020
  9
$CMLSTYLE
  2
Standard
  9
$CMLJUST
 70
     0
  9
$CMLSCALE
 40
1.0
  9
$PROXYGRAPHICS
 70
     1
  9
$MEASUREMENT
 70
     1
  9
$CELWEIGHT
370
    -1
  9
$ENDCAPS
280
     0
  9
$JOINSTYLE
280
     0
  9
$LWDISPLAY
290
     0
  9
$INSUNITS
 70
     1
  9
$HYPERLINKBASE
  1

  9
$STYLESHEET
  1

  9
$XEDIT
290
     1
  9
$CEPSNTYPE
380
     0
  9
$PSTYLEMODE
290
     0
  9
$FINGERPRINTGUID
  2
{FAEB1C30-E019-11D5-929B-00C0DF256EC4}
  9
$VERSIONGUID
  2
{FAEB1C32-E019-11D5-929B-00C0DF256EC4}
  9
$EXTNAMES
290
     1
  9
$PSVPSCALE
 40
0.0
  9
$OLESTARTUP
290
     0
  0
ENDSEC
  0
SECTION
  2
CLASSES
  0
CLASS
  1
ACDBDICTIONARYWDFLT
  2
AcDbDictionaryWithDefault
  3
ObjectDBX Classes
 90
        0
280
     0
281
     0
  0
CLASS
  1
TABLESTYLE
  2
AcDbTableStyle
  3
ObjectDBX Classes
 90
     2047
280
     0
281
     0
  0
CLASS
  1
DICTIONARYVAR
  2
AcDbDictionaryVar
  3
ObjectDBX Classes
 90
        0
280
     0
281
     0
  0
CLASS
  1

  2
exOdDbSpline
  3

 90
        0
280
     0
281
     1
  0
CLASS
  1

  2
exOdDbCircle
  3

 90
        0
280
     0
281
     1
  0
CLASS
  1
ACDBPLACEHOLDER
  2
AcDbPlaceHolder
  3
ObjectDBX Classes
 90
        0
280
     0
281
     0
  0
CLASS
  1
LAYOUT
  2
AcDbLayout
  3
ObjectDBX Classes
 90
        0
280
     0
281
     0
  0
ENDSEC
  0
SECTION
  2
TABLES
  0
TABLE
  2
VPORT
  5
8
330
0
100
AcDbSymbolTable
 70
     2
  0
VPORT
  5
29
330
8
100
AcDbSymbolTableRecord
100
AcDbViewportTableRecord
  2
*Active
 70
     0
 10
0.0
 20
0.0
 11
1.0
 21
1.0
 12
315.0000000000003
 22
445.5000000000005
 13
0.0
 23
0.0
 14
0.5
 24
0.5
 15
0.5
 25
0.5
 16
0.0
 26
0.0
 36
1.0
 17
0.0
 27
0.0
 37
0.0
 40
980.1000000000011
 41
1.60267857142857
 42
50.0
 43
0.0
 44
0.0
 50
0.0
 51
0.0
 71
     0
 72
   100
 73
     1
 74
     3
 75
     0
 76
     0
 77
     0
 78
     0
281
     0
 65
     1
110
0.0
120
0.0
130
0.0
111
1.0
121
0.0
131
0.0
112
0.0
122
1.0
132
0.0
 79
     0
146
0.0
  0
ENDTAB
  0
TABLE
  2
LTYPE
  5
5
330
0
100
AcDbSymbolTable
 70
     8
  0
LTYPE
  5
14
330
5
100
AcDbSymbolTableRecord
100
AcDbLinetypeTableRecord
  2
ByBlock
 70
     0
  3

 72
    65
 73
     0
 40
0.0
  0
LTYPE
  5
15
330
5
100
AcDbSymbolTableRecord
100
AcDbLinetypeTableRecord
  2
ByLayer
 70
     0
  3

 72
    65
 73
     0
 40
0.0
  0
LTYPE
  5
16
330
5
100
AcDbSymbolTableRecord
100
AcDbLinetypeTableRecord
  2
Continuous
 70
     0
  3
Solid line
 72
    65
 73
     0
 40
0.0
  0
LTYPE
  5
2E
330
5
100
AcDbSymbolTableRecord
100
AcDbLinetypeTableRecord
  2
DASHED
 70
     0
  3
Dashed
 72
    65
 73
     2
 40
15.0
 49
7.0
 74
     0
 49
-8.0
 74
     0
  0
LTYPE
  5
2F
330
5
100
AcDbSymbolTableRecord
100
AcDbLinetypeTableRecord
  2
DOTTED
 70
     0
  3
Dotted
 72
    65
 73
     2
 40
1.0
 49
0.0
 74
     0
 49
-1.0
 74
     0
  0
LTYPE
  5
30
330
5
100
AcDbSymbolTableRecord
100
AcDbLinetypeTableRecord
  2
DOT_CENTER
 70
     0
  3
Dot_Center
 72
    65
 73
     4
 40
14.0
 49
12.0
 74
     0
 49
-1.0
 74
     0
 49
0.0
 74
     0
 49
-1.0
 74
     0
  0
LTYPE
  5
31
330
5
100
AcDbSymbolTableRecord
100
AcDbLinetypeTableRecord
  2
LONG_DASHED
 70
     0
  3
Long_Dashed
 72
    65
 73
     2
 40
15.0
 49
10.0
 74
     0
 49
-5.0
 74
     0
  0
LTYPE
  5
32
330
5
100
AcDbSymbolTableRecord
100
AcDbLinetypeTableRecord
  2
DASH_CENTER
 70
     0
  3
Dash_Center
 72
    65
 73
     4
 40
14.0
 49
11.0
 74
     0
 49
-1.0
 74
     0
 49
1.0
 74
     0
 49
-1.0
 74
     0
  0
LTYPE
  5
33
330
5
100
AcDbSymbolTableRecord
100
AcDbLinetypeTableRecord
  2
PHANTOM
 70
     0
  3
Phantom
 72
    65
 73
     6
 40
13.0
 49
10.0
 74
     0
 49
-1.0
 74
     0
 49
0.0
 74
     0
 49
-1.0
 74
     0
 49
0.0
 74
     0
 49
-1.0
 74
     0
  0
LTYPE
  5
34
330
5
100
AcDbSymbolTableRecord
100
AcDbLinetypeTableRecord
  2
CENTER_DASH_DASH
 70
     0
  3
Center_Dash_Dash
 72
    65
 73
     6
 40
14.0
 49
9.0
 74
     0
 49
-1.0
 74
     0
 49
1.0
 74
     0
 49
-1.0
 74
     0
 49
1.0
 74
     0
 49
-1.0
 74
     0
  0
ENDTAB
  0
TABLE
  2
LAYER
  5
2
330
0
100
AcDbSymbolTable
 70
     2
  0
LAYER
  5
10
330
2
100
AcDbSymbolTableRecord
100
AcDbLayerTableRecord
  2
0
 70
     0
 62
     7
  6
Continuous
370
    -3
390
F
  0
LAYER
  5
35
330
2
100
AcDbSymbolTableRecord
100
AcDbLayerTableRecord
  2
1
 70
     0
 62
     7
  6
Continuous
370
    -3
390
F
  0
ENDTAB
  0
TABLE
  2
STYLE
  5
3
330
0
100
AcDbSymbolTable
 70
     3
  0
STYLE
  5
11
330
3
100
AcDbSymbolTableRecord
100
AcDbTextStyleTableRecord
  2
Standard
 70
     0
 40
0.0
 41
1.0
 50
0.0
 71
     0
 42
0.2
  3
txt
  4

  0
STYLE
  5
20C
330
3
100
AcDbSymbolTableRecord
100
AcDbTextStyleTableRecord
  2
CONVERTER_1
 70
     0
 40
0.0
 41
0.89
 50
0.0
 71
     0
 42
0.2
  3
msmincho.ttc
  4

1001
ACAD
1000
MS Mincho
1071
    32785
  0
STYLE
  5
22B
330
3
100
AcDbSymbolTableRecord
100
AcDbTextStyleTableRecord
  2
CONVERTER_2
 70
     0
 40
0.0
 41
0.9
 50
0.0
 71
     0
 42
0.2
  3
txt.shx
  4

  0
ENDTAB
  0
TABLE
  2
VIEW
  5
6
330
0
100
AcDbSymbolTable
 70
     0
  0
ENDTAB
  0
TABLE
  2
UCS
  5
7
330
0
100
AcDbSymbolTable
 70
     0
  0
ENDTAB
  0
TABLE
  2
APPID
  5
9
330
0
100
AcDbSymbolTable
 70
     1
  0
APPID
  5
12
330
9
100
AcDbSymbolTableRecord
100
AcDbRegAppTableRecord
  2
ACAD
 70
     0
  0
ENDTAB
  0
TABLE
  2
DIMSTYLE
  5
A
330
0
100
AcDbSymbolTable
 70
     8
100
AcDbDimStyleTable
  0
DIMSTYLE
105
27
330
A
100
AcDbSymbolTableRecord
100
AcDbDimStyleTableRecord
  2
Standard
 70
     0
340
11
  0
DIMSTYLE
105
23B
102
{ACAD_REACTORS
330
23C
102
}
330
A
100
AcDbSymbolTableRecord
100
AcDbDimStyleTableRecord
  2
ME10_DIM_0
 70
     0
 41
10.50000000000001
 42
0.0
 44
3.0
 73
     0
 74
     0
 77
     1
 78
     8
140
10.50000000000001
147
0.625
172
     1
173
     1
176
     2
177
     2
178
     7
271
     2
340
20C
  0
DIMSTYLE
105
249
102
{ACAD_REACTORS
330
24A
102
}
330
A
100
AcDbSymbolTableRecord
100
AcDbDimStyleTableRecord
  2
ME10_DIM_1
 70
     0
 41
10.50000000000001
 42
0.0
 44
3.0
 73
     0
 74
     0
 77
     1
 78
     8
140
10.50000000000001
147
0.625
172
     1
173
     1
176
     2
177
     2
178
     7
271
     2
340
22B
344
246
  0
DIMSTYLE
105
254
102
{ACAD_REACTORS
330
255
102
}
330
A
100
AcDbSymbolTableRecord
100
AcDbDimStyleTableRecord
  2
ME10_DIM_2
 70
     0
  3
{\Fgdt;n}<>
 41
10.50000000000001
 42
0.0
 44
3.0
 73
     0
 74
     0
 77
     1
 78
     8
140
10.50000000000001
147
0.625
172
     1
173
     1
176
     2
177
     2
178
     7
271
     2
340
22B
  0
DIMSTYLE
105
25F
102
{ACAD_REACTORS
330
260
102
}
330
A
100
AcDbSymbolTableRecord
100
AcDbDimStyleTableRecord
  2
ME10_DIM_3
 70
     0
 41
10.50000000000001
 42
0.0
 44
3.0
 73
     0
 74
     0
 77
     1
 78
     8
140
10.50000000000001
147
0.625
172
     1
173
     1
176
     2
177
     2
178
     7
271
     2
340
22B
  0
DIMSTYLE
105
26A
102
{ACAD_REACTORS
330
26B
102
}
330
A
100
AcDbSymbolTableRecord
100
AcDbDimStyleTableRecord
  2
ME10_DIM_4
 70
     0
 41
10.50000000000001
 42
0.0
 44
3.0
 73
     0
 74
     0
 77
     1
 78
     8
140
10.50000000000001
147
0.625
172
     1
173
     1
176
     2
177
     2
178
     7
271
     2
340
22B
  0
DIMSTYLE
105
275
102
{ACAD_REACTORS
330
276
102
}
330
A
100
AcDbSymbolTableRecord
100
AcDbDimStyleTableRecord
  2
ME10_DIM_5
 70
     0
 41
10.50000000000001
 42
0.0
 44
3.0
 73
     0
 74
     0
 77
     1
 78
     8
140
10.50000000000001
147
0.625
172
     1
173
     1
176
     2
177
     2
178
     7
271
     2
340
22B
  0
DIMSTYLE
105
280
102
{ACAD_REACTORS
330
281
102
}
330
A
100
AcDbSymbolTableRecord
100
AcDbDimStyleTableRecord
  2
ME10_DIM_6
 70
     0
 41
10.50000000000001
 42
0.0
 44
3.0
 73
     0
 74
     0
 77
     1
 78
     8
140
10.50000000000001
147
0.625
172
     1
173
     1
176
     2
177
     2
178
     7
271
     2
340
22B
  0
ENDTAB
  0
TABLE
  2
BLOCK_RECORD
  5
1
330
0
100
AcDbSymbolTable
 70
    19
  0
BLOCK_RECORD
  5
1F
330
1
100
AcDbSymbolTableRecord
100
AcDbBlockTableRecord
  2
*Model_Space
340
22
  0
BLOCK_RECORD
  5
1B
330
1
100
AcDbSymbolTableRecord
100
AcDbBlockTableRecord
  2
*Paper_Space
340
1E
  0
BLOCK_RECORD
  5
23
330
1
100
AcDbSymbolTableRecord
100
AcDbBlockTableRecord
  2
*Paper_Space0
340
26
  0
BLOCK_RECORD
  5
36
330
1
100
AcDbSymbolTableRecord
100
AcDbBlockTableRecord
  2
37-1-13
340
0
102
{BLKREFS
331
57
102
}
  0
BLOCK_RECORD
  5
39
330
1
100
AcDbSymbolTableRecord
100
AcDbBlockTableRecord
  2
51-1
340
0
102
{BLKREFS
331
40
102
}
  0
BLOCK_RECORD
  5
3C
330
1
100
AcDbSymbolTableRecord
100
AcDbBlockTableRecord
  2
42-1
340
0
102
{BLKREFS
331
41
102
}
  0
BLOCK_RECORD
  5
3F
330
1
100
AcDbSymbolTableRecord
100
AcDbBlockTableRecord
  2
R20F
340
0
102
{BLKREFS
331
58
102
}
  0
BLOCK_RECORD
  5
44
330
1
100
AcDbSymbolTableRecord
100
AcDbBlockTableRecord
  2
36-54
340
0
102
{BLKREFS
331
59
102
}
  0
BLOCK_RECORD
  5
47
330
1
100
AcDbSymbolTableRecord
100
AcDbBlockTableRecord
  2
32-1-16
340
0
102
{BLKREFS
331
5A
102
}
  0
BLOCK_RECORD
  5
4A
330
1
100
AcDbSymbolTableRecord
100
AcDbBlockTableRecord
  2
A10-0A-13
340
0
102
{BLKREFS
331
5B
102
}
  0
BLOCK_RECORD
  5
4D
330
1
100
AcDbSymbolTableRecord
100
AcDbBlockTableRecord
  2
60-1-16-170
340
0
102
{BLKREFS
331
51
102
}
  0
BLOCK_RECORD
  5
50
330
1
100
AcDbSymbolTableRecord
100
AcDbBlockTableRecord
  2
A10J-60X-16
340
0
102
{BLKREFS
331
5C
102
}
  0
BLOCK_RECORD
  5
54
330
1
100
AcDbSymbolTableRecord
100
AcDbBlockTableRecord
  2
_J__A4
340
0
102
{BLKREFS
331
5D
102
}
  0
BLOCK_RECORD
  5
232
330
1
100
AcDbSymbolTableRecord
100
AcDbBlockTableRecord
  2
*D011
340
0
  0
BLOCK_RECORD
  5
23D
330
1
100
AcDbSymbolTableRecord
100
AcDbBlockTableRecord
  2
*D112
340
0
  0
BLOCK_RECORD
  5
246
330
1
100
AcDbSymbolTableRecord
100
AcDbBlockTableRecord
  2
_None
340
0
  0
BLOCK_RECORD
  5
24B
330
1
100
AcDbSymbolTableRecord
100
AcDbBlockTableRecord
  2
*D214
340
0
  0
BLOCK_RECORD
  5
256
330
1
100
AcDbSymbolTableRecord
100
AcDbBlockTableRecord
  2
*D315
340
0
  0
BLOCK_RECORD
  5
261
330
1
100
AcDbSymbolTableRecord
100
AcDbBlockTableRecord
  2
*D416
340
0
  0
BLOCK_RECORD
  5
26C
330
1
100
AcDbSymbolTableRecord
100
AcDbBlockTableRecord
  2
*D517
340
0
  0
BLOCK_RECORD
  5
277
330
1
100
AcDbSymbolTableRecord
100
AcDbBlockTableRecord
  2
*D618
340
0
  0
ENDTAB
  0
ENDSEC
  0
SECTION
  2
BLOCKS
  0
BLOCK
  5
20
330
1F
100
AcDbEntity
  8
0
100
AcDbBlockBegin
  2
*Model_Space
 70
     0
 71
     0
 10
0.0
 20
0.0
 30
0.0
  3
*Model_Space
  1

  0
ENDBLK
  5
21
330
1F
100
AcDbEntity
  8
0
100
AcDbBlockEnd
  0
BLOCK
  5
1C
330
1B
100
AcDbEntity
 67
     1
  8
0
100
AcDbBlockBegin
  2
*Paper_Space
 70
     0
 71
     0
 10
0.0
 20
0.0
 30
0.0
  3
*Paper_Space
  1

  0
ENDBLK
  5
1D
330
1B
100
AcDbEntity
 67
     1
  8
0
100
AcDbBlockEnd
  0
BLOCK
  5
24
330
23
100
AcDbEntity
  8
0
100
AcDbBlockBegin
  2
*Paper_Space0
 70
     0
 71
     0
 10
0.0
 20
0.0
 30
0.0
  3
*Paper_Space0
  1

  0
ENDBLK
  5
25
330
23
100
AcDbEntity
  8
0
100
AcDbBlockEnd
  0
BLOCK
  5
37
330
36
100
AcDbEntity
  8
0
100
AcDbBlockBegin
  2
37-1-13
 70
     0
 71
     0
 10
358.1083622940239
 20
228.1168436780927
 30
0.0
  3
37-1-13
  1

  0
LINE
  5
5E
330
36
100
AcDbEntity
  8
1
  6
Continuous
 62
     7
100
AcDbLine
 10
162.8932375455003
 20
370.1125495682372
 30
0.0
 11
162.8932375455003
 21
377.1832637825087
 31
0.0
  0
LINE
  5
5F
330
36
100
AcDbEntity
  8
1
  6
Continuous
 62
     7
100
AcDbLine
 10
188.8932375455003
 20
377.1832637825087
 30
0.0
 11
188.8932375455003
 21
370.1125495682372
 31
0.0
  0
LINE
  5
60
330
36
100
AcDbEntity
  8
1
  6
Continuous
 62
     7
100
AcDbLine
 10
175.8932375455003
 20
370.1125495682372
 30
0.0
 11
162.8932375455003
 21
370.1125495682372
 31
0.0
  0
LINE
  5
61
330
36
100
AcDbEntity
  8
1
  6
Continuous
 62
     7
100
AcDbLine
 10
175.8932375455003
 20
370.1125495682372
 30
0.0
 11
188.8932375455003
 21
370.1125495682372
 31
0.0
  0
LINE
  5
62
330
36
100
AcDbEntity
  8
1
  6
Continuous
 62
     7
100
AcDbLine
 10
170.8932375455003
 20
384.1125495682372
 30
0.0
 11
169.8932375455003
 21
384.1125495682372
 31
0.0
  0
LINE
  5
63
330
36
100
AcDbEntity
  8
1
  6
Continuous
 62
     7
100
AcDbLine
 10
175.8932375455003
 20
384.1125495682372
 30
0.0
 11
181.8932375455003
 21
384.1125495682372
 31
0.0
  0
LINE
  5
64
330
36
100
AcDbEntity
  8
1
  6
Continuous
 62
     7
100
AcDbLine
 10
175.8932375455003
 20
384.1125495682372
 30
0.0
 11
170.8932375455003
 21
384.1125495682372
 31
0.0
  0
LINE
  5
65
330
36
100
AcDbEntity
  8
1
  6
Continuous
 62
     7
100
AcDbLine
 10
449.9095925107949
 20
377.6125495682372
 30
0.0
 11
462.4095925107947
 21
377.6125495682373
 31
0.0
  0
LINE
  5
66
330
36
100
AcDbEntity
  8
1
  6
Continuous
 62
     7
100
AcDbLine
 10
437.409592510795
 20
377.6125495682373
 30
0.0
 11
449.9095925107949
 21
377.6125495682372
 31
0.0
  0
LINE
  5
67
330
36
100
AcDbEntity
  8
1
  6
Continuous
 62
     7
100
AcDbLine
 10
462.9803067250663
 20
370.1125495682372
 30
0.0
 11
436.8388782965234
 21
370.1125495682372
 31
0.0
  0
LINE
  5
68
330
36
100
AcDbEntity
  8
1
  6
Continuous
 62
     7
100
AcDbLine
 10
455.9095925107949
 20
384.1125495682372
 30
0.0
 11
443.9095925107949
 21
384.1125495682372
 31
0.0
  0
ARC
  5
69
330
36
100
AcDbEntity
  8
1
  6
Continuous
 62
     7
100
AcDbCircle
 10
166.3932375455003
 20
373.6125495682372
 30
0.0
 40
4.999999999999926
100
AcDbArc
 50
126.8698976458418
 51
134.4270040008055
  0
ARC
  5
6A
330
36
100
AcDbEntity
  8
1
  6
Continuous
 62
     7
100
AcDbCircle
 10
149.9867823403855
 20
397.5190047733522
 30
0.0
 40
24.00000000000005
100
AcDbArc
 50
-56.04080749990234
 51
-33.95919250009776
  0
ARC
  5
6B
330
36
100
AcDbEntity
  8
1
  6
Continuous
 62
     7
100
AcDbCircle
 10
185.3932375455003
 20
373.6125495682372
 30
0.0
 40
5.000000000000016
100
AcDbArc
 50
45.57299599919448
 51
53.13010235415637
  0
ARC
  5
6C
330
36
100
AcDbEntity
  8
1
  6
Continuous
 62
     7
100
AcDbCircle
 10
201.7996927506152
 20
397.5190047733522
 30
0.0
 40
24.00000000000001
100
AcDbArc
 50
-146.0408074999024
 51
-123.9591925000975
  0
ARC
  5
6D
330
36
100
AcDbEntity
  8
1
  6
Continuous
 62
     7
100
AcDbCircle
 10
475.8160477159098
 20
397.5190047733523
 30
0.0
 40
24.0000000000001
100
AcDbArc
 50
-146.0408074999022
 51
-123.9591925000977
  0
ARC
  5
6E
330
36
100
AcDbEntity
  8
1
  6
Continuous
 62
     7
100
AcDbCircle
 10
459.4095925107949
 20
373.6125495682372
 30
0.0
 40
5.000000000000016
100
AcDbArc
 50
-44.42700400080553
 51
53.13010235415793
  0
ARC
  5
6F
330
36
100
AcDbEntity
  8
1
  6
Continuous
 62
     7
100
AcDbCircle
 10
424.0031373056799
 20
397.5190047733523
 30
0.0
 40
24.00000000000019
100
AcDbArc
 50
-56.04080749990232
 51
-33.95919250009776
  0
ARC
  5
70
330
36
100
AcDbEntity
  8
1
  6
Continuous
 62
     7
100
AcDbCircle
 10
440.4095925107949
 20
373.6125495682372
 30
0.0
 40
4.999999999999977
100
AcDbArc
 50
126.8698976458426
 51
-135.5729959991949
  0
SPLINE
  5
71
330
36
100
AcDbEntity
  8
1
  6
Continuous
 62
     7
100
AcDbSpline
210
0.0
220
0.0
230
1.0
 70
    11
 71
     3
 72
    79
 73
    75
 74
    73
 42
0.0000000001
 43
0.0000000001
 44
0.00000001
 40
0.0
 40
0.0
 40
0.0
 40
0.0
 40
0.3064252399305864
 40
0.6126997295783618
 40
0.9327163807029151
 40
1.25250595054608
 40
1.592278744069481
 40
1.931827979827557
 40
2.294403622084053
 40
2.656798547726801
 40
3.042205862991192
 40
3.42748165244528
 40
3.833206192908579
 40
4.238841967633205
 40
4.660421102442472
 40
5.081946086409713
 40
5.513562423792703
 40
5.945153204326174
 40
6.380194333749667
 40
6.815235463173161
 40
7.246826243706631
 40
7.678442581089687
 40
8.099967565056804
 40
8.521546699866072
 40
8.927182474590767
 40
9.332907015054111
 40
9.71818280450815
 40
10.10359011977264
 40
10.46598504541539
 40
10.82856068767188
 40
11.16810992343
 40
11.50788271695335
 40
11.82767228679641
 40
12.14768893792097
 40
12.45396342756878
 40
12.76038866749931
 40
13.06189449721451
 40
13.3634003269297
 40
13.6698255668603
 40
13.97610005650809
 40
14.2961167076326
 40
14.61590627747573
 40
14.95567907099905
 40
15.29522830675721
 40
15.65780394901374
 40
16.02019887465652
 40
16.40560618992093
 40
16.79088197937502
 40
17.19660651983835
 40
17.60224229456299
 40
18.0238214293722
 40
18.44534641333949
 40
18.87696275072248
 40
19.3085535312559
 40
19.74359466067933
 40
20.17863579010288
 40
20.61022657063635
 40
21.04184290801946
 40
21.46336789198664
 40
21.88494702679579
 40
22.29058280152052
 40
22.69630734198379
 40
23.0815831314379
 40
23.46699044670239
 40
23.82938537234505
 40
24.19196101460166
 40
24.53151025035982
 40
24.87128304388315
 40
25.19107261372625
 40
25.51108926485085
 40
25.81736375449863
 40
26.12378899442915
 40
26.4252948241444
 40
26.72680065385953
 40
26.72680065385953
 40
26.72680065385953
 40
26.72680065385953
 10
454.8894350965246
 20
373.9748238184042
 30
0.0
 10
454.8728320129552
 20
374.0757499833807
 30
0.0
 10
454.8396340139408
 20
374.2775526612621
 30
0.0
 10
454.7406159712412
 20
374.5735039335933
 30
0.0
 10
454.6087822705147
 20
374.8605737463266
 30
0.0
 10
454.4385510598789
 20
375.1400387645919
 30
0.0
 10
454.2362825322199
 20
375.4053419731722
 30
0.0
 10
453.9988808284539
 20
375.6595443445391
 30
0.0
 10
453.7334258303825
 20
375.8957500709008
 30
0.0
 10
453.4363598287825
 20
376.1172288305504
 30
0.0
 10
453.1158723345423
 20
376.3178430409166
 30
0.0
 10
452.7683334199634
 20
376.5002121640981
 30
0.0
 10
452.4023034698664
 20
376.6595837722912
 30
0.0
 10
452.0148752396287
 20
376.7976072031806
 30
0.0
 10
451.614089026854
 20
376.911099366211
 30
0.0
 10
451.1984868606514
 20
377.0008343814982
 30
0.0
 10
450.7748074804458
 20
377.065036672897
 30
0.0
 10
450.3435515581022
 20
377.1039629106042
 30
0.0
 10
449.909592510797
 20
377.1168599902186
 30
0.0
 10
449.4756334634794
 20
377.103962910605
 30
0.0
 10
449.0443775411719
 20
377.0650366728936
 30
0.0
 10
448.6206981608356
 20
377.0008343815111
 30
0.0
 10
448.2050959951089
 20
376.9110993661631
 30
0.0
 10
447.8043097805903
 20
376.7976072033572
 30
0.0
 10
447.4168815566252
 20
376.6595837716595
 30
0.0
 10
447.0508515836941
 20
376.5002121664097
 30
0.0
 10
446.7033127502416
 20
376.31784303277
 30
0.0
 10
446.3828249624278
 20
376.1172288602492
 30
0.0
 10
446.0857599943042
 20
375.8957499673718
 30
0.0
 10
445.8203012687116
 20
375.6595447215329
 30
0.0
 10
445.5829126388746
 20
375.405340664778
 30
0.0
 10
445.3805969159913
 20
375.1400435402338
 30
0.0
 10
445.210532042786
 20
374.8605570790595
 30
0.0
 10
445.0780939424057
 20
374.5735651807605
 30
0.0
 10
444.9812401372619
 20
374.277334912
 30
0.0
 10
444.923742655305
 20
373.9772528778548
 30
0.0
 10
444.903738492205
 20
373.6739414454586
 30
0.0
 10
444.9237426553051
 20
373.3706300130622
 30
0.0
 10
444.9812401372619
 20
373.0705479789174
 30
0.0
 10
445.0780939424058
 20
372.7743177101564
 30
0.0
 10
445.2105320427858
 20
372.4873258118577
 30
0.0
 10
445.3805969159913
 20
372.2078393506834
 30
0.0
 10
445.5829126388749
 20
371.9425422261391
 30
0.0
 10
445.8203012687115
 20
371.6883381693842
 30
0.0
 10
446.0857599943043
 20
371.4521329235453
 30
0.0
 10
446.3828249624276
 20
371.2306540306678
 30
0.0
 10
446.7033127502416
 20
371.030039858147
 30
0.0
 10
447.0508515836944
 20
370.8476707245074
 30
0.0
 10
447.4168815566252
 20
370.6882991192577
 30
0.0
 10
447.8043097805902
 20
370.5502756875598
 30
0.0
 10
448.2050959951087
 20
370.4367835247541
 30
0.0
 10
448.6206981608356
 20
370.3470485094056
 30
0.0
 10
449.0443775411719
 20
370.2828462180237
 30
0.0
 10
449.4756334634798
 20
370.2439199803118
 30
0.0
 10
449.9095925107951
 20
370.2310229006988
 30
0.0
 10
450.3435515581091
 20
370.2439199803118
 30
0.0
 10
450.77480748042
 20
370.2828462180238
 30
0.0
 10
451.1984868607467
 20
370.3470485094047
 30
0.0
 10
451.6140890265075
 20
370.4367835247576
 30
0.0
 10
452.0148752409019
 20
370.5502756875472
 30
0.0
 10
452.4023034653135
 20
370.6882991193025
 30
0.0
 10
452.7683334366184
 20
370.8476707243428
 30
0.0
 10
453.1158722758484
 20
371.0300398587271
 30
0.0
 10
453.4363600427563
 20
371.230654028553
 30
0.0
 10
453.7334250844755
 20
371.4521329309176
 30
0.0
 10
453.9988835446245
 20
371.6883381425379
 30
0.0
 10
454.2362731054805
 20
371.9425423193122
 30
0.0
 10
454.4385854675027
 20
372.2078390106009
 30
0.0
 10
454.6086621859112
 20
372.4873269987654
 30
0.0
 10
454.7410572458489
 20
372.7743133486299
 30
0.0
 10
454.838065170443
 20
373.0705634852541
 30
0.0
 10
454.8949955957743
 20
373.3705724189333
 30
0.0
 10
454.9170842726087
 20
373.6741525703928
 30
0.0
 10
454.8986514885526
 20
373.8746000690671
 30
0.0
 10
454.8894350965246
 20
373.9748238184042
 30
0.0
 11
454.8894350965246
 21
373.9748238184042
 31
0.0
 11
454.8316602332731
 21
374.2757532002245
 31
0.0
 11
454.7371043093389
 21
374.5670661595277
 31
0.0
 11
454.6032391426918
 21
374.8577391272345
 31
0.0
 11
454.4375786964989
 21
375.1312752044669
 31
0.0
 11
454.2319195963511
 21
375.4017375599715
 31
0.0
 11
454.0005952847357
 21
375.650298913282
 31
0.0
 11
453.7300859460411
 21
375.8917234232985
 31
0.0
 11
453.4398275573559
 21
376.1087030304727
 31
0.0
 11
453.1134110692244
 21
376.3136202697065
 31
0.0
 11
452.7724118422626
 21
376.4929438909919
 31
0.0
 11
452.4005824498364
 21
376.6552870635065
 31
0.0
 11
452.018548243746
 21
376.7916331199707
 31
0.0
 11
451.6130004618647
 21
376.9067850349254
 31
0.0
 11
451.2009967307506
 21
376.9958705986077
 31
0.0
 11
450.7742805342555
 21
377.0607238972492
 31
0.0
 11
450.3444392103672
 21
377.0995444861093
 31
0.0
 11
449.9095925107949
 21
377.1125495682372
 31
0.0
 11
449.4747458112226
 21
377.0995444861093
 31
0.0
 11
449.0449044873343
 21
377.0607238972492
 31
0.0
 11
448.6181882908392
 21
376.9958705986076
 31
0.0
 11
448.2061845597251
 21
376.9067850349254
 31
0.0
 11
447.8006367778439
 21
376.7916331199707
 31
0.0
 11
447.4186025717534
 21
376.6552870635067
 31
0.0
 11
447.0467731793272
 21
376.4929438909919
 31
0.0
 11
446.7057739523654
 21
376.3136202697065
 31
0.0
 11
446.3793574642338
 21
376.1087030304727
 31
0.0
 11
446.0890990755486
 21
375.8917234232985
 31
0.0
 11
445.8185897368539
 21
375.650298913282
 31
0.0
 11
445.5872654252385
 21
375.4017375599714
 31
0.0
 11
445.3816063250907
 21
375.1312752044669
 31
0.0
 11
445.215945878898
 21
374.8577391272346
 31
0.0
 11
445.082080712251
 21
374.5670661595277
 31
0.0
 11
444.9875247883167
 21
374.2757532002245
 31
0.0
 11
444.9297499250652
 21
373.9748238184042
 31
0.0
 11
444.9103704771151
 21
373.6739414454586
 31
0.0
 11
444.9297499250652
 21
373.3730590725129
 31
0.0
 11
444.9875247883167
 21
373.0721296906926
 31
0.0
 11
445.082080712251
 21
372.7808167313895
 31
0.0
 11
445.2159458788979
 21
372.4901437636825
 31
0.0
 11
445.3816063250908
 21
372.2166076864503
 31
0.0
 11
445.5872654252386
 21
371.9461453309457
 31
0.0
 11
445.8185897368539
 21
371.6975839776351
 31
0.0
 11
446.0890990755486
 21
371.4561594676185
 31
0.0
 11
446.3793574642338
 21
371.2391798604442
 31
0.0
 11
446.7057739523654
 21
371.0342626212105
 31
0.0
 11
447.0467731793272
 21
370.8549389999251
 31
0.0
 11
447.4186025717534
 21
370.6925958274105
 31
0.0
 11
447.8006367778438
 21
370.5562497709463
 31
0.0
 11
448.206184559725
 21
370.4410978559916
 31
0.0
 11
448.6181882908392
 21
370.3520122923094
 31
0.0
 11
449.0449044873343
 21
370.2871589936679
 31
0.0
 11
449.4747458112225
 21
370.2483384048077
 31
0.0
 11
449.9095925107948
 21
370.2353333226798
 31
0.0
 11
450.3444392103671
 21
370.2483384048078
 31
0.0
 11
450.7742805342554
 21
370.2871589936678
 31
0.0
 11
451.2009967307506
 21
370.3520122923094
 31
0.0
 11
451.6130004618647
 21
370.4410978559916
 31
0.0
 11
452.0185482437458
 21
370.5562497709463
 31
0.0
 11
452.4005824498364
 21
370.6925958274105
 31
0.0
 11
452.7724118422625
 21
370.8549389999251
 31
0.0
 11
453.1134110692244
 21
371.0342626212105
 31
0.0
 11
453.439827557356
 21
371.2391798604443
 31
0.0
 11
453.7300859460411
 21
371.4561594676185
 31
0.0
 11
454.0005952847358
 21
371.6975839776351
 31
0.0
 11
454.2319195963513
 21
371.9461453309457
 31
0.0
 11
454.4375786964989
 21
372.2166076864503
 31
0.0
 11
454.6032391426919
 21
372.4901437636825
 31
0.0
 11
454.7371043093389
 21
372.7808167313895
 31
0.0
 11
454.8316602332732
 21
373.0721296906926
 31
0.0
 11
454.8894350965246
 21
373.3730590725129
 31
0.0
 11
454.9088145444746
 21
373.6739414454586
 31
0.0
 11
454.8894350965246
 21
373.9748238184042
 31
0.0
  0
SPLINE
  5
72
330
36
100
AcDbEntity
  8
1
  6
Continuous
 62
     7
100
AcDbSpline
210
0.0
220
0.0
230
1.0
 70
    11
 71
     3
 72
    79
 73
    75
 74
    73
 42
0.0000000001
 43
0.0000000001
 44
0.00000001
 40
0.0
 40
0.0
 40
0.0
 40
0.0
 40
0.2747189236408078
 40
0.5494188550728095
 40
0.8269818908006577
 40
1.10451108895406
 40
1.38637094333838
 40
1.668188705864325
 40
1.955230460879953
 40
2.242228675934961
 40
2.534684706645827
 40
2.82710122565089
 40
3.124556086980951
 40
3.421979127181745
 40
3.723447795442484
 40
4.024894429881827
 40
4.328952919155966
 40
4.633000192511668
 40
4.937949371978244
 40
5.24289855144458
 40
5.546945824800221
 40
5.851004314074399
 40
6.152450948513834
 40
6.453919616774602
 40
6.75134265697527
 40
7.048797518305489
 40
7.341214037310444
 40
7.633670068021324
 40
7.920668283076347
 40
8.207710038091937
 40
8.489527800617932
 40
8.7713876550023
 40
9.048916853155816
 40
9.326479888883627
 40
9.601179820315542
 40
9.875898743956347
 40
10.14961637970835
 40
10.42333401546037
 40
10.69805293910118
 40
10.9727528705333
 40
11.25031590626107
 40
11.52784510441452
 40
11.80970495879885
 40
12.09152272132478
 40
12.37856447634045
 40
12.66556269139542
 40
12.9580187221064
 40
13.25043524111119
 40
13.54789010244141
 40
13.84531314264208
 40
14.14678181090278
 40
14.44822844534223
 40
14.75228693461635
 40
15.05633420797206
 40
15.36128338743846
 40
15.66623256690496
 40
15.97027984026062
 40
16.27433832953473
 40
16.57578496397412
 40
16.87725363223494
 40
17.17467667243571
 40
17.47213153376594
 40
17.76454805277085
 40
18.05700408348173
 40
18.34400229853672
 40
18.63104405355242
 40
18.91286181607837
 40
19.19472167046269
 40
19.47225086861613
 40
19.749813904344
 40
20.02451383577595
 40
20.29923275941682
 40
20.57295039516871
 40
20.84666803092085
 40
20.84666803092085
 40
20.84666803092085
 40
20.84666803092085
 10
460.7405747078865
 20
377.0890811913172
 30
0.0
 10
460.6499219058959
 20
377.0756204265758
 30
0.0
 10
460.4686225690367
 20
377.0486998276795
 30
0.0
 10
460.2024040031039
 20
376.9747067297625
 30
0.0
 10
459.9431678367212
 20
376.8773259698448
 30
0.0
 10
459.6923922942603
 20
376.7540676883845
 30
0.0
 10
459.452861656443
 20
376.6075387460145
 30
0.0
 10
459.2253734408599
 20
376.4375823082322
 30
0.0
 10
459.0127233458003
 20
376.2468309166846
 30
0.0
 10
458.8154470636176
 20
376.0353662617716
 30
0.0
 10
458.6360244683372
 20
375.806281801749
 30
0.0
 10
458.4749010346944
 20
375.5598223836793
 30
0.0
 10
458.3340375290687
 20
375.2993679622833
 30
0.0
 10
458.2138765476638
 20
375.0254552065714
 30
0.0
 10
458.1157567658374
 20
374.7414905258114
 30
0.0
 10
458.0401137623645
 20
374.4484552744963
 30
0.0
 10
457.9876655398048
 20
374.14952212704
 30
0.0
 10
457.9587521804737
 20
373.8462353126404
 30
0.0
 10
457.9535616053489
 20
373.5413210525401
 30
0.0
 10
457.9721924708621
 20
373.2369322568582
 30
0.0
 10
458.014451282949
 20
372.9352153913588
 30
0.0
 10
458.0800300893908
 20
372.6388857389766
 30
0.0
 10
458.1685210451713
 20
372.3494710311628
 30
0.0
 10
458.2790669454239
 20
372.0701091942602
 30
0.0
 10
458.4111893621553
 20
371.8017614263895
 30
0.0
 10
458.5634007134111
 20
371.5477717746503
 30
0.0
 10
458.7352351741978
 20
371.3086569406238
 30
0.0
 10
458.9245848247796
 20
371.0877068683969
 30
0.0
 10
459.1309939000186
 20
370.8851474869634
 30
0.0
 10
459.3518482616859
 20
370.7039563435606
 30
0.0
 10
459.5866101246393
 20
370.5442044828083
 30
0.0
 10
459.8323667814807
 20
370.4083504564904
 30
0.0
 10
460.0883418363102
 20
370.2963798216347
 30
0.0
 10
460.3515891127605
 20
370.2101182411853
 30
0.0
 10
460.6209252705126
 20
370.1494390633655
 30
0.0
 10
460.893638060206
 20
370.1155329054789
 30
0.0
 10
461.1680221638045
 20
370.1080431889438
 30
0.0
 10
461.4418091172724
 20
370.1276247177876
 30
0.0
 10
461.7127615369564
 20
370.1735232958973
 30
0.0
 10
461.9791600400435
 20
370.2460199582097
 30
0.0
 10
462.2383475161564
 20
370.3438056475846
 30
0.0
 10
462.4891361912144
 20
370.4669547126542
 30
0.0
 10
462.7286632580083
 20
370.6135133532105
 30
0.0
 10
462.9561524389519
 20
370.7834617626317
 30
0.0
 10
463.1688022707838
 20
370.9742153432979
 30
0.0
 10
463.3660786241999
 20
371.1856794058014
 30
0.0
 10
463.5455012000479
 20
371.4147640274344
 30
0.0
 10
463.7066246389483
 20
371.6612234017786
 30
0.0
 10
463.8474881431418
 20
371.9216778350834
 30
0.0
 10
463.9676491249339
 20
372.1955905875774
 30
0.0
 10
464.0657689066552
 20
372.4795552692106
 30
0.0
 10
464.1414119101565
 20
372.7725905202905
 30
0.0
 10
464.1938601327084
 20
373.0715236678105
 30
0.0
 10
464.2227734920415
 20
373.3748104821927
 30
0.0
 10
464.2279640671658
 20
373.679724742298
 30
0.0
 10
464.209333201653
 20
373.9841135379781
 30
0.0
 10
464.1670743895656
 20
374.2858304034792
 30
0.0
 10
464.1014955831244
 20
374.5821600558564
 30
0.0
 10
464.013004627342
 20
374.8715747636876
 30
0.0
 10
463.9024587270967
 20
375.1509366005273
 30
0.0
 10
463.7703363103378
 20
375.4192843686288
 30
0.0
 10
463.6181249591845
 20
375.6732740195145
 30
0.0
 10
463.446290498021
 20
375.9123888566745
 30
0.0
 10
463.256940848832
 20
376.1333389173197
 30
0.0
 10
463.050531768488
 20
376.335898341208
 30
0.0
 10
462.829677425685
 20
376.5170893277286
 30
0.0
 10
462.594915493549
 20
376.6768417638302
 30
0.0
 10
462.349159092624
 20
376.812693661839
 30
0.0
 10
462.0931830966518
 20
376.9246721236457
 30
0.0
 10
461.8299393095711
 20
377.0109046849797
 30
0.0
 10
461.5605902566914
 20
377.0716911042871
 30
0.0
 10
461.2879254328696
 20
377.1051983571319
 30
0.0
 10
461.0133629298683
 20
377.11417172066
 30
0.0
 10
460.8315041152139
 20
377.0974447010981
 30
0.0
 10
460.7405747078865
 20
377.0890811913172
 30
0.0
 11
460.7405747078865
 21
377.0890811913172
 31
0.0
 11
460.4697245553674
 21
377.0431390332621
 31
0.0
 11
460.2046244079786
 21
376.9711531722672
 31
0.0
 11
459.9449312028278
 21
376.8731701227077
 31
0.0
 11
459.6957391423309
 21
376.750999042607
 31
0.0
 11
459.4552935145615
 21
376.6039246478263
 31
0.0
 11
459.22941503837
 21
376.4354011620193
 31
0.0
 11
459.0156969822084
 21
376.24378289151
 31
0.0
 11
458.8197999750854
 21
376.0340393861397
 31
0.0
 11
458.6394059143395
 21
375.8038470475471
 31
0.0
 11
458.4792791934985
 21
375.5591700076358
 31
0.0
 11
458.3377062162405
 21
375.2975663252474
 31
0.0
 11
458.2181226970947
 21
375.0252425348966
 31
0.0
 11
458.1196102110842
 21
374.7403238657243
 31
0.0
 11
458.0441941421643
 21
374.4484634710773
 31
0.0
 11
457.9916172941756
 21
374.1489851914722
 31
0.0
 11
457.9627255754566
 21
373.8463137309337
 31
0.0
 11
457.9575357633947
 21
373.5414087163667
 31
0.0
 11
457.9761654589011
 21
373.2370291235841
 31
0.0
 11
458.0183755171034
 21
372.9359260591335
 31
0.0
 11
458.0841068617288
 21
372.6390574767044
 31
0.0
 11
458.1723192978098
 21
372.3508064757772
 31
0.0
 11
458.2832995869105
 21
372.0705088957412
 31
0.0
 11
458.4147750366403
 21
371.8037230809749
 31
0.0
 11
458.567745847556
 21
371.5486165825536
 31
0.0
 11
458.7385059668856
 21
371.3112383985654
 31
0.0
 11
458.9288750027287
 21
371.0892245249193
 31
0.0
 11
459.1338302045508
 21
370.8883232041401
 31
0.0
 11
459.3557898804183
 21
370.7063153158187
 31
0.0
 11
459.5888797726339
 21
370.5479159678968
 31
0.0
 11
459.8355768394139
 21
370.4115871934003
 31
0.0
 11
460.089913707963
 21
370.3005231887708
 31
0.0
 11
460.3536749242309
 21
370.2140867404671
 31
0.0
 11
460.6216914651404
 21
370.1538606155079
 31
0.0
 11
460.8943040088205
 21
370.1199064105461
 31
0.0
 11
461.1679227599925
 21
370.1125495682372
 31
0.0
 11
461.4409509646283
 21
370.1319646035198
 31
0.0
 11
461.7118011171474
 21
370.177906761575
 31
0.0
 11
461.9769012645363
 21
370.2498926225699
 31
0.0
 11
462.236594469687
 21
370.3478756721293
 31
0.0
 11
462.485786530184
 21
370.47004675223
 31
0.0
 11
462.7262321579535
 21
370.6171211470107
 31
0.0
 11
462.9521106341449
 21
370.7856446328177
 31
0.0
 11
463.1658286903065
 21
370.977262903327
 31
0.0
 11
463.3617256974295
 21
371.1870064086972
 31
0.0
 11
463.5421197581756
 21
371.4171987472899
 31
0.0
 11
463.7022464790163
 21
371.6618757872011
 31
0.0
 11
463.8438194562745
 21
371.9234794695896
 31
0.0
 11
463.9634029754201
 21
372.1958032599403
 31
0.0
 11
464.0619154614307
 21
372.4807219291125
 31
0.0
 11
464.1373315303506
 21
372.7725823237596
 31
0.0
 11
464.1899083783392
 21
373.0720606033647
 31
0.0
 11
464.2188000970583
 21
373.3747320639032
 31
0.0
 11
464.22398990912
 21
373.67963707847
 31
0.0
 11
464.2053602136139
 21
373.9840166712529
 31
0.0
 11
464.1631501554114
 21
374.2851197357035
 31
0.0
 11
464.0974188107861
 21
374.5819883181325
 31
0.0
 11
464.009206374705
 21
374.8702393190596
 31
0.0
 11
463.8982260856043
 21
375.1505368990956
 31
0.0
 11
463.7667506358746
 21
375.4173227138622
 31
0.0
 11
463.6137798249588
 21
375.6724292122834
 31
0.0
 11
463.4430197056292
 21
375.9098073962716
 31
0.0
 11
463.2526506697861
 21
376.1318212699176
 31
0.0
 11
463.0476954679641
 21
376.3327225906969
 31
0.0
 11
462.8257357920965
 21
376.5147304790183
 31
0.0
 11
462.592645899881
 21
376.6731298269403
 31
0.0
 11
462.345948833101
 21
376.8094586014368
 31
0.0
 11
462.0916119645519
 21
376.9205226060662
 31
0.0
 11
461.8278507482841
 21
377.0069590543699
 31
0.0
 11
461.5598342073745
 21
377.067185179329
 31
0.0
 11
461.2872216636943
 21
377.1011393842909
 31
0.0
 11
461.0136029125224
 21
377.1084962265998
 31
0.0
 11
460.7405747078865
 21
377.0890811913172
 31
0.0
  0
SPLINE
  5
73
330
36
100
AcDbEntity
  8
1
  6
Continuous
 62
     7
100
AcDbSpline
210
0.0
220
0.0
230
1.0
 70
    11
 71
     3
 72
    79
 73
    75
 74
    73
 42
0.0000000001
 43
0.0000000001
 44
0.00000001
 40
0.0
 40
0.0
 40
0.0
 40
0.0
 40
0.2747189236408639
 40
0.5494188550728107
 40
0.826981890800659
 40
1.104511088954061
 40
1.386370943338332
 40
1.668188705864323
 40
1.955230460880036
 40
2.242228675935005
 40
2.534684706645907
 40
2.827101225650876
 40
3.124556086981019
 40
3.421979127181767
 40
3.723447795442524
 40
4.024894429881867
 40
4.328952919155985
 40
4.633000192511693
 40
4.937949371978268
 40
5.242898551444604
 40
5.546945824800237
 40
5.85100431407439
 40
6.152450948513841
 40
6.453919616774609
 40
6.751342656975277
 40
7.048797518305525
 40
7.34121403731048
 40
7.633670068021397
 40
7.92066828307642
 40
8.207710038091967
 40
8.489527800617916
 40
8.771387655002284
 40
9.048916853155749
 40
9.326479888883613
 40
9.601179820315583
 40
9.875898743956331
 40
10.14961637970844
 40
10.42333401546041
 40
10.69805293910128
 40
10.97275287053328
 40
11.25031590626116
 40
11.52784510441462
 40
11.80970495879884
 40
12.09152272132478
 40
12.37856447634053
 40
12.66556269139546
 40
12.95801872210644
 40
13.25043524111127
 40
13.5478901024414
 40
13.84531314264211
 40
14.14678181090285
 40
14.44822844534228
 40
14.75228693461641
 40
15.05633420797211
 40
15.36128338743852
 40
15.66623256690503
 40
15.97027984026064
 40
16.27433832953476
 40
16.57578496397416
 40
16.87725363223498
 40
17.17467667243585
 40
17.47213153376602
 40
17.7645480527709
 40
18.05700408348181
 40
18.34400229853684
 40
18.6310440535525
 40
18.91286181607844
 40
19.19472167046276
 40
19.4722508686161
 40
19.74981390434402
 40
20.02451383577592
 40
20.29923275941679
 40
20.57295039516885
 40
20.84666803092087
 40
20.84666803092087
 40
20.84666803092087
 40
20.84666803092087
 10
439.0786103137032
 20
377.0890811913172
 30
0.0
 10
439.1692631156938
 20
377.0756204265758
 30
0.0
 10
439.3505624525531
 20
377.0486998276795
 30
0.0
 10
439.6167810184856
 20
376.9747067297627
 30
0.0
 10
439.8760171848686
 20
376.8773259698446
 30
0.0
 10
440.1267927273291
 20
376.7540676883846
 30
0.0
 10
440.366323365147
 20
376.6075387460144
 30
0.0
 10
440.5938115807297
 20
376.4375823082323
 30
0.0
 10
440.8064616757895
 20
376.2468309166847
 30
0.0
 10
441.0037379579722
 20
376.0353662617715
 30
0.0
 10
441.1831605532527
 20
375.8062818017492
 30
0.0
 10
441.3442839868952
 20
375.5598223836792
 30
0.0
 10
441.4851474925212
 20
375.2993679622834
 30
0.0
 10
441.6053084739259
 20
375.0254552065715
 30
0.0
 10
441.7034282557522
 20
374.7414905258114
 30
0.0
 10
441.7790712592254
 20
374.4484552744964
 30
0.0
 10
441.8315194817848
 20
374.1495221270397
 30
0.0
 10
441.8604328411161
 20
373.8462353126406
 30
0.0
 10
441.865623416241
 20
373.5413210525399
 30
0.0
 10
441.8469925507276
 20
373.2369322568583
 30
0.0
 10
441.8047337386406
 20
372.9352153913588
 30
0.0
 10
441.7391549321991
 20
372.6388857389768
 30
0.0
 10
441.6506639764186
 20
372.3494710311626
 30
0.0
 10
441.5401180761655
 20
372.0701091942602
 30
0.0
 10
441.4079956594345
 20
371.8017614263895
 30
0.0
 10
441.2557843081784
 20
371.5477717746502
 30
0.0
 10
441.0839498473921
 20
371.3086569406239
 30
0.0
 10
440.89460019681
 20
371.0877068683969
 30
0.0
 10
440.688191121571
 20
370.8851474869634
 30
0.0
 10
440.4673367599039
 20
370.7039563435605
 30
0.0
 10
440.2325748969505
 20
370.5442044828084
 30
0.0
 10
439.9868182401091
 20
370.4083504564906
 30
0.0
 10
439.7308431852795
 20
370.2963798216346
 30
0.0
 10
439.4675959088293
 20
370.2101182411854
 30
0.0
 10
439.1982597510772
 20
370.1494390633655
 30
0.0
 10
438.9255469613836
 20
370.115532905479
 30
0.0
 10
438.6511628577854
 20
370.1080431889438
 30
0.0
 10
438.3773759043173
 20
370.1276247177876
 30
0.0
 10
438.1064234846332
 20
370.1735232958972
 30
0.0
 10
437.8400249815462
 20
370.2460199582098
 30
0.0
 10
437.5808375054332
 20
370.3438056475845
 30
0.0
 10
437.3300488303753
 20
370.4669547126541
 30
0.0
 10
437.0905217635814
 20
370.6135133532105
 30
0.0
 10
436.863032582638
 20
370.7834617626318
 30
0.0
 10
436.6503827508058
 20
370.9742153432977
 30
0.0
 10
436.4531063973897
 20
371.1856794058016
 30
0.0
 10
436.2736838215419
 20
371.4147640274344
 30
0.0
 10
436.1125603826412
 20
371.6612234017786
 30
0.0
 10
435.9716968784481
 20
371.9216778350835
 30
0.0
 10
435.8515358966558
 20
372.1955905875773
 30
0.0
 10
435.7534161149343
 20
372.4795552692108
 30
0.0
 10
435.6777731114333
 20
372.7725905202904
 30
0.0
 10
435.6253248888812
 20
373.0715236678105
 30
0.0
 10
435.5964115295483
 20
373.3748104821928
 30
0.0
 10
435.5912209544237
 20
373.6797247422981
 30
0.0
 10
435.6098518199371
 20
373.9841135379782
 30
0.0
 10
435.652110632024
 20
374.2858304034792
 30
0.0
 10
435.7176894384651
 20
374.5821600558564
 30
0.0
 10
435.8061803942478
 20
374.8715747636875
 30
0.0
 10
435.916726294493
 20
375.1509366005273
 30
0.0
 10
436.048848711252
 20
375.4192843686288
 30
0.0
 10
436.2010600624054
 20
375.6732740195145
 30
0.0
 10
436.3728945235687
 20
375.9123888566747
 30
0.0
 10
436.5622441727577
 20
376.1333389173195
 30
0.0
 10
436.7686532531018
 20
376.335898341208
 30
0.0
 10
436.9895075959049
 20
376.5170893277286
 30
0.0
 10
437.2242695280405
 20
376.6768417638302
 30
0.0
 10
437.4700259289659
 20
376.8126936618389
 30
0.0
 10
437.7260019249376
 20
376.9246721236456
 30
0.0
 10
437.9892457120187
 20
377.0109046849797
 30
0.0
 10
438.2585947648981
 20
377.0716911042872
 30
0.0
 10
438.5312595887202
 20
377.1051983571319
 30
0.0
 10
438.8058220917214
 20
377.1141717206599
 30
0.0
 10
438.9876809063759
 20
377.0974447010981
 30
0.0
 10
439.0786103137032
 20
377.0890811913172
 30
0.0
 11
439.0786103137032
 21
377.0890811913172
 31
0.0
 11
439.3494604662224
 21
377.0431390332621
 31
0.0
 11
439.6145606136111
 21
376.9711531722672
 31
0.0
 11
439.8742538187619
 21
376.8731701227077
 31
0.0
 11
440.1234458792588
 21
376.750999042607
 31
0.0
 11
440.3638915070282
 21
376.6039246478263
 31
0.0
 11
440.5897699832198
 21
376.4354011620193
 31
0.0
 11
440.8034880393814
 21
376.24378289151
 31
0.0
 11
440.9993850465044
 21
376.0340393861397
 31
0.0
 11
441.1797791072503
 21
375.8038470475471
 31
0.0
 11
441.3399058280911
 21
375.5591700076358
 31
0.0
 11
441.4814788053494
 21
375.2975663252474
 31
0.0
 11
441.601062324495
 21
375.0252425348966
 31
0.0
 11
441.6995748105056
 21
374.7403238657243
 31
0.0
 11
441.7749908794255
 21
374.4484634710773
 31
0.0
 11
441.827567727414
 21
374.1489851914722
 31
0.0
 11
441.8564594461332
 21
373.8463137309337
 31
0.0
 11
441.8616492581949
 21
373.5414087163667
 31
0.0
 11
441.8430195626886
 21
373.2370291235841
 31
0.0
 11
441.8008095044863
 21
372.9359260591335
 31
0.0
 11
441.735078159861
 21
372.6390574767044
 31
0.0
 11
441.64686572378
 21
372.3508064757772
 31
0.0
 11
441.5358854346792
 21
372.0705088957412
 31
0.0
 11
441.4044099849494
 21
371.8037230809749
 31
0.0
 11
441.2514391740337
 21
371.5486165825536
 31
0.0
 11
441.0806790547042
 21
371.3112383985654
 31
0.0
 11
440.890310018861
 21
371.0892245249193
 31
0.0
 11
440.6853548170389
 21
370.8883232041401
 31
0.0
 11
440.4633951411714
 21
370.7063153158187
 31
0.0
 11
440.2303052489559
 21
370.5479159678968
 31
0.0
 11
439.9836081821759
 21
370.4115871934003
 31
0.0
 11
439.7292713136268
 21
370.3005231887708
 31
0.0
 11
439.4655100973589
 21
370.2140867404671
 31
0.0
 11
439.1974935564493
 21
370.1538606155079
 31
0.0
 11
438.9248810127692
 21
370.1199064105461
 31
0.0
 11
438.6512622615971
 21
370.1125495682372
 31
0.0
 11
438.3782340569614
 21
370.1319646035198
 31
0.0
 11
438.1073839044423
 21
370.177906761575
 31
0.0
 11
437.8422837570535
 21
370.2498926225699
 31
0.0
 11
437.5825905519026
 21
370.3478756721293
 31
0.0
 11
437.3333984914057
 21
370.47004675223
 31
0.0
 11
437.0929528636363
 21
370.6171211470107
 31
0.0
 11
436.8670743874449
 21
370.7856446328177
 31
0.0
 11
436.6533563312831
 21
370.977262903327
 31
0.0
 11
436.4574593241602
 21
371.1870064086972
 31
0.0
 11
436.2770652634142
 21
371.4171987472899
 31
0.0
 11
436.1169385425734
 21
371.6618757872011
 31
0.0
 11
435.9753655653154
 21
371.9234794695896
 31
0.0
 11
435.8557820461696
 21
372.1958032599403
 31
0.0
 11
435.7572695601589
 21
372.4807219291125
 31
0.0
 11
435.6818534912391
 21
372.7725823237596
 31
0.0
 11
435.6292766432505
 21
373.0720606033647
 31
0.0
 11
435.6003849245314
 21
373.3747320639032
 31
0.0
 11
435.5951951124696
 21
373.67963707847
 31
0.0
 11
435.613824807976
 21
373.9840166712529
 31
0.0
 11
435.6560348661782
 21
374.2851197357035
 31
0.0
 11
435.7217662108036
 21
374.5819883181325
 31
0.0
 11
435.8099786468846
 21
374.8702393190596
 31
0.0
 11
435.9209589359854
 21
375.1505368990956
 31
0.0
 11
436.0524343857153
 21
375.4173227138622
 31
0.0
 11
436.205405196631
 21
375.6724292122834
 31
0.0
 11
436.3761653159605
 21
375.9098073962716
 31
0.0
 11
436.5665343518036
 21
376.1318212699176
 31
0.0
 11
436.7714895536257
 21
376.3327225906969
 31
0.0
 11
436.9934492294933
 21
376.5147304790183
 31
0.0
 11
437.2265391217088
 21
376.6731298269403
 31
0.0
 11
437.4732361884887
 21
376.8094586014368
 31
0.0
 11
437.7275730570377
 21
376.9205226060662
 31
0.0
 11
437.9913342733057
 21
377.0069590543699
 31
0.0
 11
438.2593508142152
 21
377.067185179329
 31
0.0
 11
438.5319633578954
 21
377.1011393842909
 31
0.0
 11
438.8055821090674
 21
377.1084962265998
 31
0.0
 11
439.0786103137032
 21
377.0890811913172
 31
0.0
  0
SPLINE
  5
74
330
36
100
AcDbEntity
  8
1
  6
Continuous
 62
     7
100
AcDbSpline
210
0.0
220
0.0
230
1.0
 70
    11
 71
     3
 72
    79
 73
    75
 74
    73
 42
0.0000000001
 43
0.0000000001
 44
0.00000001
 40
0.0
 40
0.0
 40
0.0
 40
0.0
 40
0.3160436465962539
 40
0.6318966345053803
 40
0.9639391318840755
 40
1.295702698074522
 40
1.650847227467483
 40
2.005727789197514
 40
2.387357022599022
 40
2.768780714705228
 40
3.176769171734182
 40
3.584612394008218
 40
4.015944751163514
 40
4.447181172427968
 40
4.896666773394702
 40
5.346094681847126
 40
5.807047420514949
 40
6.267973152330057
 40
6.732835060374315
 40
7.197696968418653
 40
7.658622700233902
 40
8.119575438901649
 40
8.569003347353974
 40
9.018488948320734
 40
9.449725369585305
 40
9.881057726740554
 40
10.28890094901451
 40
10.6968894060434
 40
11.07831309814955
 40
11.45994233155103
 40
11.81482289328113
 40
12.1699674226741
 40
12.50173098886453
 40
12.83377348624324
 40
13.14962647415236
 40
13.46567012074863
 40
13.77589255555606
 40
14.08611499036343
 40
14.40215863695973
 40
14.71801162486887
 40
15.05005412224752
 40
15.38181768843798
 40
15.73696221783112
 40
16.09184277956116
 40
16.4734720129626
 40
16.85489570506876
 40
17.26288416209762
 40
17.67072738437158
 40
18.10205974152681
 40
18.53329616279155
 40
18.98278176375833
 40
19.43220967221058
 40
19.89316241087823
 40
20.35408814269345
 40
20.81895005073788
 40
21.28381195878225
 40
21.74473769059741
 40
22.20569042926504
 40
22.65511833771737
 40
23.10460393868417
 40
23.53584035994886
 40
23.96717271710419
 40
24.3750159393782
 40
24.78300439640706
 40
25.16442808851312
 40
25.5460573219146
 40
25.90093788364461
 40
26.25608241303776
 40
26.5878459792283
 40
26.91988847660695
 40
27.23574146451608
 40
27.55178511111242
 40
27.86200754591978
 40
28.17222998072715
 40
28.17222998072715
 40
28.17222998072715
 40
28.17222998072715
 10
176.8518515702701
 20
373.9574335101594
 30
0.0
 10
176.8696434796223
 20
374.0614275371441
 30
0.0
 10
176.9052165650559
 20
374.2693528549539
 30
0.0
 10
177.0113572879463
 20
374.5739985793237
 30
0.0
 10
177.1524106265515
 20
374.8691568693479
 30
0.0
 10
177.3346605452248
 20
375.1566683182461
 30
0.0
 10
177.5508757940287
 20
375.4291915433882
 30
0.0
 10
177.804814690586
 20
375.6905796119709
 30
0.0
 10
178.0884035101869
 20
375.9331130579207
 30
0.0
 10
178.4060009927713
 20
376.1607857192666
 30
0.0
 10
178.7483056764916
 20
376.3667665261784
 30
0.0
 10
179.119761369381
 20
376.5542086206839
 30
0.0
 10
179.5107049441135
 20
376.7178638814908
 30
0.0
 10
179.9247289534454
 20
376.8597164531949
 30
0.0
 10
180.3528261028332
 20
376.9762765509
 30
0.0
 10
180.7969104111077
 20
377.0684979240101
 30
0.0
 10
181.2495036607364
 20
377.1344418637099
 30
0.0
 10
181.710273531729
 20
377.1744491463181
 30
0.0
 10
182.1738910098165
 20
377.1876898392215
 30
0.0
 10
182.6375084879177
 20
377.1744491463193
 30
0.0
 10
183.0982783588699
 20
377.1344418637059
 30
0.0
 10
183.5508716086455
 20
377.0684979240258
 30
0.0
 10
183.9949559163855
 20
376.9762765508437
 30
0.0
 10
184.4230530677303
 20
376.8597164534015
 30
0.0
 10
184.8370770700417
 20
376.7178638807544
 30
0.0
 10
185.228020670279
 20
376.5542086233733
 30
0.0
 10
185.5994762729203
 20
376.3667665167458
 30
0.0
 10
185.9417812823219
 20
376.1607857535796
 30
0.0
 10
186.2593776246072
 20
375.9331129390682
 30
0.0
 10
186.5429705427083
 20
375.6905800436307
 30
0.0
 10
186.7968951589824
 20
375.4291900569146
 30
0.0
 10
187.0131617581524
 20
375.1566737291739
 30
0.0
 10
187.1952319578337
 20
374.8691381403494
 30
0.0
 10
187.3369360350745
 20
374.574067257797
 30
0.0
 10
187.440759822847
 20
374.2691103217828
 30
0.0
 10
187.5023047305414
 20
373.9602491914465
 30
0.0
 10
187.5238207720699
 20
373.647906675373
 30
0.0
 10
187.5023047305416
 20
373.3355641592995
 30
0.0
 10
187.4407598228473
 20
373.0267030289632
 30
0.0
 10
187.3369360350747
 20
372.7217460929488
 30
0.0
 10
187.1952319578337
 20
372.4266752103966
 30
0.0
 10
187.0131617581525
 20
372.139139621572
 30
0.0
 10
186.7968951589823
 20
371.8666232938314
 30
0.0
 10
186.5429705427083
 20
371.6052333071153
 30
0.0
 10
186.2593776246072
 20
371.3627004116777
 30
0.0
 10
185.9417812823219
 20
371.1350275971662
 30
0.0
 10
185.5994762729202
 20
370.9290468340003
 30
0.0
 10
185.228020670279
 20
370.7416047273727
 30
0.0
 10
184.8370770700417
 20
370.5779494699917
 30
0.0
 10
184.4230530677303
 20
370.4360968973442
 30
0.0
 10
183.9949559163853
 20
370.3195367999023
 30
0.0
 10
183.5508716086454
 20
370.2273154267201
 30
0.0
 10
183.09827835887
 20
370.1613714870402
 30
0.0
 10
182.6375084879171
 20
370.1213642044266
 30
0.0
 10
182.1738910098186
 20
370.1081235115248
 30
0.0
 10
181.710273531721
 20
370.1213642044265
 30
0.0
 10
181.2495036607653
 20
370.1613714870407
 30
0.0
 10
180.7969104110003
 20
370.2273154267188
 30
0.0
 10
180.3528261032223
 20
370.3195367999064
 30
0.0
 10
179.9247289520166
 20
370.4360968973295
 30
0.0
 10
179.5107049492058
 20
370.577949470044
 30
0.0
 10
179.1197613507824
 20
370.7416047271813
 30
0.0
 10
178.7483057417223
 20
370.9290468346712
 30
0.0
 10
178.4060007554848
 20
371.1350275947259
 30
0.0
 10
178.0884043320956
 20
371.3627004201309
 30
0.0
 10
177.8048117055009
 20
371.6052332764135
 30
0.0
 10
177.5508860735402
 20
371.866623399557
 30
0.0
 10
177.3346231266705
 20
372.1391392367192
 30
0.0
 10
177.1525401444556
 20
372.4266765424986
 30
0.0
 10
177.0108823510732
 20
372.7217412081847
 30
0.0
 10
176.9068937710299
 20
373.0267202791623
 30
0.0
 10
176.8459539689284
 20
373.3355001314751
 30
0.0
 10
176.8222185203503
 20
373.6481407591846
 30
0.0
 10
176.8419738869634
 20
373.8543359265011
 30
0.0
 10
176.8518515702701
 20
373.9574335101594
 30
0.0
 11
176.8518515702701
 21
373.9574335101594
 31
0.0
 11
176.9137339195564
 21
374.2673595681162
 31
0.0
 11
177.0147900464859
 21
374.5666099134479
 31
0.0
 11
177.1582437659544
 21
374.8660648356585
 31
0.0
 11
177.3350744793494
 21
375.1467745837108
 31
0.0
 11
177.5553850501858
 21
375.4253259957257
 31
0.0
 11
177.8021925963094
 21
375.6803284433027
 31
0.0
 11
178.091802884835
 21
375.9288576218044
 31
0.0
 11
178.4015052037639
 21
376.1514974802082
 31
0.0
 11
178.7507817859129
 21
376.3623539485252
 31
0.0
 11
179.1147255871729
 21
376.5464218802224
 31
0.0
 11
179.5124220792463
 21
376.7134102107178
 31
0.0
 11
179.9202979124012
 21
376.8534179096248
 31
0.0
 11
180.3539062937618
 21
376.9718285387516
 31
0.0
 11
180.7939190512146
 21
377.0633392931729
 31
0.0
 11
181.2500249345773
 21
377.1300090047912
 31
0.0
 11
181.7092212317168
 21
377.16989999303
 31
0.0
 11
182.1738910098188
 21
377.1832637825087
 31
0.0
 11
182.6385607879208
 21
377.1698999930301
 31
0.0
 11
183.0977570850604
 21
377.1300090047914
 31
0.0
 11
183.5538629684231
 21
377.063339293173
 31
0.0
 11
183.9938757258757
 21
376.9718285387517
 31
0.0
 11
184.4274841072364
 21
376.8534179096249
 31
0.0
 11
184.8353599403913
 21
376.7134102107178
 31
0.0
 11
185.2330564324647
 21
376.5464218802224
 31
0.0
 11
185.5970002337247
 21
376.3623539485253
 31
0.0
 11
185.9462768158736
 21
376.1514974802082
 31
0.0
 11
186.2559791348024
 21
375.9288576218045
 31
0.0
 11
186.545589423328
 21
375.6803284433028
 31
0.0
 11
186.7923969694516
 21
375.4253259957257
 31
0.0
 11
187.012707540288
 21
375.1467745837108
 31
0.0
 11
187.1895382536831
 21
374.8660648356585
 31
0.0
 11
187.3329919731516
 21
374.5666099134479
 31
0.0
 11
187.434048100081
 21
374.2673595681162
 31
0.0
 11
187.4959304493674
 21
373.9574335101594
 31
0.0
 11
187.5166933394588
 21
373.647906675373
 31
0.0
 11
187.4959304493675
 21
373.3383798405866
 31
0.0
 11
187.4340481000812
 21
373.0284537826297
 31
0.0
 11
187.3329919731517
 21
372.729203437298
 31
0.0
 11
187.1895382536832
 21
372.4297485150875
 31
0.0
 11
187.012707540288
 21
372.1490387670352
 31
0.0
 11
186.7923969694516
 21
371.8704873550202
 31
0.0
 11
186.545589423328
 21
371.6154849074432
 31
0.0
 11
186.2559791348024
 21
371.3669557289415
 31
0.0
 11
185.9462768158736
 21
371.1443158705378
 31
0.0
 11
185.5970002337247
 21
370.9334594022207
 31
0.0
 11
185.2330564324647
 21
370.7493914705235
 31
0.0
 11
184.8353599403914
 21
370.5824031400282
 31
0.0
 11
184.4274841072363
 21
370.442395441121
 31
0.0
 11
183.9938757258756
 21
370.3239848119943
 31
0.0
 11
183.553862968423
 21
370.2324740575729
 31
0.0
 11
183.0977570850604
 21
370.1658043459547
 31
0.0
 11
182.6385607879208
 21
370.1259133577159
 31
0.0
 11
182.1738910098187
 21
370.1125495682372
 31
0.0
 11
181.7092212317166
 21
370.1259133577159
 31
0.0
 11
181.2500249345771
 21
370.1658043459547
 31
0.0
 11
180.7939190512145
 21
370.2324740575729
 31
0.0
 11
180.3539062937619
 21
370.3239848119943
 31
0.0
 11
179.9202979124011
 21
370.442395441121
 31
0.0
 11
179.5124220792461
 21
370.5824031400281
 31
0.0
 11
179.1147255871726
 21
370.7493914705235
 31
0.0
 11
178.7507817859127
 21
370.9334594022207
 31
0.0
 11
178.4015052037637
 21
371.1443158705378
 31
0.0
 11
178.091802884835
 21
371.3669557289414
 31
0.0
 11
177.8021925963095
 21
371.6154849074432
 31
0.0
 11
177.5553850501859
 21
371.8704873550202
 31
0.0
 11
177.3350744793494
 21
372.1490387670352
 31
0.0
 11
177.1582437659541
 21
372.4297485150875
 31
0.0
 11
177.0147900464855
 21
372.729203437298
 31
0.0
 11
176.9137339195561
 21
373.0284537826297
 31
0.0
 11
176.8518515702699
 21
373.3383798405866
 31
0.0
 11
176.8310886801787
 21
373.647906675373
 31
0.0
 11
176.8518515702701
 21
373.9574335101594
 31
0.0
  0
SPLINE
  5
75
330
36
100
AcDbEntity
  8
1
  6
Continuous
 62
     7
100
AcDbSpline
210
0.0
220
0.0
230
1.0
 70
    11
 71
     3
 72
    79
 73
    75
 74
    73
 42
0.0000000001
 43
0.0000000001
 44
0.00000001
 40
0.0
 40
0.0
 40
0.0
 40
0.0
 40
0.3160436465962595
 40
0.6318966345053768
 40
0.9639391318840352
 40
1.295702698074527
 40
1.650847227467488
 40
2.005727789197539
 40
2.387357022599068
 40
2.768780714705275
 40
3.176769171734204
 40
3.584612394008214
 40
4.01594475116351
 40
4.447181172428018
 40
4.896666773394697
 40
5.346094681847121
 40
5.807047420514944
 40
6.267973152330108
 40
6.732835060374367
 40
7.197696968418733
 40
7.658622700233955
 40
8.119575438901673
 40
8.56900334735397
 40
9.01848894832073
 40
9.449725369585302
 40
9.881057726740602
 40
10.28890094901451
 40
10.69688940604347
 40
11.07831309814962
 40
11.45994233155111
 40
11.81482289328118
 40
12.16996742267414
 40
12.50173098886455
 40
12.8337734862433
 40
13.14962647415241
 40
13.46567012074868
 40
13.77589255555611
 40
14.08611499036348
 40
14.40215863695979
 40
14.71801162486894
 40
15.0500541222476
 40
15.38181768843801
 40
15.73696221783112
 40
16.09184277956121
 40
16.47347201296273
 40
16.85489570506884
 40
17.26288416209775
 40
17.67072738437168
 40
18.10205974152691
 40
18.53329616279157
 40
18.98278176375829
 40
19.43220967221055
 40
19.89316241087817
 40
20.35408814269341
 40
20.81895005073784
 40
21.28381195878221
 40
21.74473769059737
 40
22.20569042926507
 40
22.65511833771739
 40
23.10460393868422
 40
23.53584035994889
 40
23.96717271710422
 40
24.37501593937818
 40
24.78300439640706
 40
25.16442808851314
 40
25.54605732191458
 40
25.90093788364459
 40
26.25608241303775
 40
26.58784597922827
 40
26.91988847660695
 40
27.23574146451607
 40
27.55178511111242
 40
27.86200754591978
 40
28.17222998072716
 40
28.17222998072716
 40
28.17222998072716
 40
28.17222998072716
 10
174.9346235207307
 20
373.9574335101594
 30
0.0
 10
174.9168316113785
 20
374.0614275371441
 30
0.0
 10
174.8812585259449
 20
374.2693528549538
 30
0.0
 10
174.7751178030545
 20
374.5739985793239
 30
0.0
 10
174.6340644644495
 20
374.8691568693478
 30
0.0
 10
174.451814545776
 20
375.1566683182462
 30
0.0
 10
174.2355992969721
 20
375.4291915433881
 30
0.0
 10
173.9816604004148
 20
375.6905796119709
 30
0.0
 10
173.6980715808138
 20
375.9331130579208
 30
0.0
 10
173.3804740982295
 20
376.1607857192666
 30
0.0
 10
173.0381694145092
 20
376.3667665261784
 30
0.0
 10
172.6667137216198
 20
376.5542086206839
 30
0.0
 10
172.2757701468873
 20
376.7178638814908
 30
0.0
 10
171.8617461375553
 20
376.8597164531949
 30
0.0
 10
171.4336489881676
 20
376.9762765508997
 30
0.0
 10
170.9895646798931
 20
377.0684979240102
 30
0.0
 10
170.5369714302644
 20
377.1344418637098
 30
0.0
 10
170.0762015592718
 20
377.1744491463181
 30
0.0
 10
169.6125840811843
 20
377.1876898392216
 30
0.0
 10
169.148966603083
 20
377.1744491463193
 30
0.0
 10
168.6881967321309
 20
377.134441863706
 30
0.0
 10
168.2356034823553
 20
377.0684979240258
 30
0.0
 10
167.7915191746153
 20
376.9762765508435
 30
0.0
 10
167.3634220232704
 20
376.8597164534016
 30
0.0
 10
166.949398020959
 20
376.7178638807543
 30
0.0
 10
166.5584544207218
 20
376.5542086233733
 30
0.0
 10
166.1869988180805
 20
376.3667665167458
 30
0.0
 10
165.8446938086788
 20
376.1607857535795
 30
0.0
 10
165.5270974663935
 20
375.9331129390683
 30
0.0
 10
165.2435045482924
 20
375.6905800436306
 30
0.0
 10
164.9895799320184
 20
375.4291900569146
 30
0.0
 10
164.7733133328483
 20
375.1566737291741
 30
0.0
 10
164.5912431331672
 20
374.8691381403494
 30
0.0
 10
164.4495390559261
 20
374.5740672577972
 30
0.0
 10
164.3457152681538
 20
374.2691103217827
 30
0.0
 10
164.2841703604593
 20
373.9602491914466
 30
0.0
 10
164.2626543189307
 20
373.6479066753731
 30
0.0
 10
164.2841703604592
 20
373.3355641592993
 30
0.0
 10
164.3457152681535
 20
373.0267030289633
 30
0.0
 10
164.4495390559261
 20
372.7217460929487
 30
0.0
 10
164.5912431331672
 20
372.4266752103966
 30
0.0
 10
164.7733133328483
 20
372.1391396215719
 30
0.0
 10
164.9895799320184
 20
371.8666232938314
 30
0.0
 10
165.2435045482925
 20
371.6052333071153
 30
0.0
 10
165.5270974663937
 20
371.3627004116777
 30
0.0
 10
165.8446938086789
 20
371.1350275971664
 30
0.0
 10
166.1869988180805
 20
370.9290468340003
 30
0.0
 10
166.5584544207218
 20
370.7416047273725
 30
0.0
 10
166.9493980209591
 20
370.5779494699917
 30
0.0
 10
167.3634220232704
 20
370.4360968973442
 30
0.0
 10
167.7915191746153
 20
370.3195367999023
 30
0.0
 10
168.2356034823553
 20
370.22731542672
 30
0.0
 10
168.6881967321307
 20
370.1613714870403
 30
0.0
 10
169.1489666030835
 20
370.1213642044265
 30
0.0
 10
169.6125840811822
 20
370.1081235115248
 30
0.0
 10
170.0762015592797
 20
370.1213642044266
 30
0.0
 10
170.5369714302354
 20
370.1613714870405
 30
0.0
 10
170.9895646800004
 20
370.2273154267188
 30
0.0
 10
171.4336489877784
 20
370.3195367999064
 30
0.0
 10
171.8617461389842
 20
370.4360968973296
 30
0.0
 10
172.275770141795
 20
370.5779494700441
 30
0.0
 10
172.6667137402183
 20
370.7416047271813
 30
0.0
 10
173.0381693492784
 20
370.9290468346712
 30
0.0
 10
173.3804743355159
 20
371.1350275947258
 30
0.0
 10
173.6980707589051
 20
371.3627004201309
 30
0.0
 10
173.9816633854998
 20
371.6052332764136
 30
0.0
 10
174.2355890174605
 20
371.8666233995569
 30
0.0
 10
174.4518519643302
 20
372.1391392367192
 30
0.0
 10
174.6339349465451
 20
372.4266765424986
 30
0.0
 10
174.7755927399276
 20
372.7217412081845
 30
0.0
 10
174.8795813199708
 20
373.0267202791623
 30
0.0
 10
174.9405211220724
 20
373.335500131475
 30
0.0
 10
174.9642565706506
 20
373.6481407591846
 30
0.0
 10
174.9445012040373
 20
373.8543359265011
 30
0.0
 10
174.9346235207307
 20
373.9574335101594
 30
0.0
 11
174.9346235207307
 21
373.9574335101594
 31
0.0
 11
174.8727411714444
 21
374.2673595681162
 31
0.0
 11
174.7716850445149
 21
374.5666099134479
 31
0.0
 11
174.6282313250465
 21
374.8660648356585
 31
0.0
 11
174.4514006116514
 21
375.1467745837108
 31
0.0
 11
174.231090040815
 21
375.4253259957257
 31
0.0
 11
173.9842824946913
 21
375.6803284433027
 31
0.0
 11
173.6946722061657
 21
375.9288576218044
 31
0.0
 11
173.3849698872369
 21
376.1514974802082
 31
0.0
 11
173.0356933050879
 21
376.3623539485252
 31
0.0
 11
172.6717495038279
 21
376.5464218802224
 31
0.0
 11
172.2740530117545
 21
376.7134102107178
 31
0.0
 11
171.8661771785996
 21
376.8534179096248
 31
0.0
 11
171.432568797239
 21
376.9718285387516
 31
0.0
 11
170.9925560397862
 21
377.0633392931729
 31
0.0
 11
170.5364501564235
 21
377.1300090047912
 31
0.0
 11
170.0772538592839
 21
377.16989999303
 31
0.0
 11
169.612584081182
 21
377.1832637825087
 31
0.0
 11
169.1479143030799
 21
377.1698999930301
 31
0.0
 11
168.6887180059403
 21
377.1300090047914
 31
0.0
 11
168.2326121225777
 21
377.063339293173
 31
0.0
 11
167.7925993651251
 21
376.9718285387517
 31
0.0
 11
167.3589909837644
 21
376.8534179096249
 31
0.0
 11
166.9511151506095
 21
376.7134102107178
 31
0.0
 11
166.553418658536
 21
376.5464218802224
 31
0.0
 11
166.1894748572761
 21
376.3623539485253
 31
0.0
 11
165.8401982751271
 21
376.1514974802082
 31
0.0
 11
165.5304959561983
 21
375.9288576218045
 31
0.0
 11
165.2408856676727
 21
375.6803284433028
 31
0.0
 11
164.9940781215491
 21
375.4253259957257
 31
0.0
 11
164.7737675507127
 21
375.1467745837108
 31
0.0
 11
164.5969368373177
 21
374.8660648356585
 31
0.0
 11
164.4534831178492
 21
374.5666099134479
 31
0.0
 11
164.3524269909198
 21
374.2673595681162
 31
0.0
 11
164.2905446416333
 21
373.9574335101594
 31
0.0
 11
164.2697817515419
 21
373.647906675373
 31
0.0
 11
164.2905446416332
 21
373.3383798405866
 31
0.0
 11
164.3524269909196
 21
373.0284537826297
 31
0.0
 11
164.4534831178491
 21
372.729203437298
 31
0.0
 11
164.5969368373177
 21
372.4297485150875
 31
0.0
 11
164.7737675507127
 21
372.1490387670352
 31
0.0
 11
164.9940781215491
 21
371.8704873550202
 31
0.0
 11
165.2408856676728
 21
371.6154849074432
 31
0.0
 11
165.5304959561985
 21
371.3669557289415
 31
0.0
 11
165.8401982751272
 21
371.1443158705378
 31
0.0
 11
166.1894748572762
 21
370.9334594022207
 31
0.0
 11
166.5534186585361
 21
370.7493914705235
 31
0.0
 11
166.9511151506095
 21
370.5824031400282
 31
0.0
 11
167.3589909837644
 21
370.442395441121
 31
0.0
 11
167.7925993651251
 21
370.3239848119943
 31
0.0
 11
168.2326121225777
 21
370.2324740575729
 31
0.0
 11
168.6887180059402
 21
370.1658043459547
 31
0.0
 11
169.1479143030799
 21
370.1259133577159
 31
0.0
 11
169.612584081182
 21
370.1125495682372
 31
0.0
 11
170.077253859284
 21
370.1259133577159
 31
0.0
 11
170.5364501564236
 21
370.1658043459547
 31
0.0
 11
170.9925560397862
 21
370.2324740575729
 31
0.0
 11
171.4325687972388
 21
370.3239848119943
 31
0.0
 11
171.8661771785996
 21
370.442395441121
 31
0.0
 11
172.2740530117546
 21
370.5824031400281
 31
0.0
 11
172.6717495038281
 21
370.7493914705235
 31
0.0
 11
173.035693305088
 21
370.9334594022207
 31
0.0
 11
173.384969887237
 21
371.1443158705378
 31
0.0
 11
173.6946722061657
 21
371.3669557289414
 31
0.0
 11
173.9842824946912
 21
371.6154849074432
 31
0.0
 11
174.2310900408148
 21
371.8704873550202
 31
0.0
 11
174.4514006116513
 21
372.1490387670352
 31
0.0
 11
174.6282313250466
 21
372.4297485150875
 31
0.0
 11
174.7716850445152
 21
372.729203437298
 31
0.0
 11
174.8727411714446
 21
373.0284537826297
 31
0.0
 11
174.9346235207309
 21
373.3383798405866
 31
0.0
 11
174.9553864108221
 21
373.647906675373
 31
0.0
 11
174.9346235207307
 21
373.9574335101594
 31
0.0
  0
ENDBLK
  5
38
330
36
100
AcDbEntity
  8
0
100
AcDbBlockEnd
  0
BLOCK
  5
3A
330
39
100
AcDbEntity
  8
0
100
AcDbBlockBegin
  2
51-1
 70
     0
 71
     0
 10
1042.248335080016
 20
487.954876322103
 30
0.0
  3
51-1
  1

  0
LINE
  5
76
330
39
100
AcDbEntity
  8
1
  6
Continuous
 62
     7
100
AcDbLine
 10
181.6887925032347
 20
651.7763057935009
 30
0.0
 11
185.3402017147051
 21
665.4035504899338
 31
0.0
  0
LINE
  5
77
330
39
100
AcDbEntity
  8
1
  6
Continuous
 62
     7
100
AcDbLine
 10
201.7865133272304
 20
686.5865793769968
 30
0.0
 11
191.8106778422681
 21
676.6107438920345
 31
0.0
  0
LINE
  5
78
330
39
100
AcDbEntity
  8
1
  6
Continuous
 62
     7
100
AcDbLine
 10
196.7514632721166
 20
696.8285516963475
 30
0.0
 11
182.3637136730632
 21
692.9733658103801
 31
0.0
  0
LINE
  5
79
330
39
100
AcDbEntity
  8
1
  6
Continuous
 62
     7
100
AcDbLine
 10
155.7955167215043
 20
696.6247750218506
 30
0.0
 11
169.4227614179372
 21
692.9733658103801
 31
0.0
  0
LINE
  5
7A
330
39
100
AcDbEntity
  8
1
  6
Continuous
 62
     7
100
AcDbLine
 10
149.99996176377
 20
686.5865793769968
 30
0.0
 11
159.9757972487324
 21
676.6107438920345
 31
0.0
  0
LINE
  5
7B
330
39
100
AcDbEntity
  8
1
  6
Continuous
 62
     7
100
AcDbLine
 10
170.0976825877658
 20
651.7763057935009
 30
0.0
 11
166.4462733762954
 21
665.4035504899338
 31
0.0
  0
LINE
  5
7C
330
39
100
AcDbEntity
  8
1
  6
Continuous
 62
     7
100
AcDbLine
 10
203.5390066744818
 20
388.1125495682372
 30
0.0
 11
203.5390066744818
 21
390.9994584736047
 31
0.0
  0
LINE
  5
7D
330
39
100
AcDbEntity
  8
1
  6
Continuous
 62
     7
100
AcDbLine
 10
148.2474684165187
 20
390.9994584736047
 30
0.0
 11
148.2474684165187
 21
388.1125495682372
 31
0.0
  0
LINE
  5
7E
330
39
100
AcDbEntity
  8
1
  6
Continuous
 62
     7
100
AcDbLine
 10
203.0438726401114
 20
387.6125495682372
 30
0.0
 11
148.7426024508894
 21
387.6125495682372
 31
0.0
  0
LINE
  5
7F
330
39
100
AcDbEntity
  8
1
  6
Continuous
 62
     7
100
AcDbLine
 10
467.909592510795
 20
387.6125495682372
 30
0.0
 11
419.4095925107951
 21
387.6125495682372
 31
0.0
  0
LINE
  5
80
330
39
100
AcDbEntity
  8
1
  6
Continuous
 62
     7
100
AcDbLine
 10
418.9095925107951
 20
390.9994584736047
 30
0.0
 11
418.9095925107951
 21
388.1125495682372
 31
0.0
  0
LINE
  5
81
330
39
100
AcDbEntity
  8
1
  6
Continuous
 62
     7
100
AcDbLine
 10
468.409592510795
 20
390.587498990647
 30
0.0
 11
468.409592510795
 21
388.1125495682372
 31
0.0
  0
ARC
  5
82
330
39
100
AcDbEntity
  8
1
  6
Continuous
 62
     7
100
AcDbCircle
 10
175.8932375455001
 20
653.3292200641162
 30
0.0
 40
6.0
100
AcDbArc
 50
-90.0
 51
-15.00000000000067
  0
ARC
  5
83
330
39
100
AcDbEntity
  8
1
  6
Continuous
 62
     7
100
AcDbCircle
 10
197.5438726401112
 20
690.8292200641162
 30
0.0
 40
5.999999999999968
100
AcDbArc
 50
-45.00000000000077
 51
97.52424107894221
  0
ARC
  5
84
330
39
100
AcDbEntity
  8
1
  6
Continuous
 62
     7
100
AcDbCircle
 10
154.2426024508893
 20
690.8292200641162
 30
0.0
 40
6.000000000000007
100
AcDbArc
 50
75.00000000000134
 51
-135.0
  0
ARC
  5
85
330
39
100
AcDbEntity
  8
1
  6
Continuous
 62
     7
100
AcDbCircle
 10
175.8932375455001
 20
653.3292200641162
 30
0.0
 40
5.999999999999936
100
AcDbArc
 50
-164.9999999999986
 51
-90.0
  0
ARC
  5
86
330
39
100
AcDbEntity
  8
1
  6
Continuous
 62
     7
100
AcDbCircle
 10
174.3161221099909
 20
273.9713191000491
 30
0.0
 40
125.3087410656459
100
AcDbArc
 50
78.83482165015532
 51
87.03710349078958
  0
ARC
  5
87
330
39
100
AcDbEntity
  8
1
  6
Continuous
 62
     7
100
AcDbCircle
 10
177.4703529810096
 20
273.9713191000491
 30
0.0
 40
125.3087410656459
100
AcDbArc
 50
92.96289650921044
 51
101.1651783498446
  0
ARC
  5
88
330
39
100
AcDbEntity
  8
1
  6
Continuous
 62
     7
100
AcDbCircle
 10
436.9055476522593
 20
320.4392163128557
 30
0.0
 40
80.64072525632047
100
AcDbArc
 50
70.02008322088793
 51
73.19210648524872
  0
ARC
  5
89
330
39
100
AcDbEntity
  8
1
  6
Continuous
 62
     7
100
AcDbCircle
 10
449.809592510795
 20
250.5808834908169
 30
0.0
 40
148.6092050572047
100
AcDbArc
 50
91.85094579686891
 51
100.0532276375032
  0
ARC
  5
8A
330
39
100
AcDbEntity
  8
1
  6
Continuous
 62
     7
100
AcDbCircle
 10
451.8584743234054
 20
377.5523848032472
 30
0.0
 40
21.76119949013513
100
AcDbArc
 50
68.44320528903181
 51
82.2058875849482
  0
ARC
  5
8B
330
39
100
AcDbEntity
  8
1
  6
Continuous
 62
     7
100
AcDbCircle
 10
209.4883473719318
 20
658.9330743623708
 30
0.0
 40
25.00000000000004
100
AcDbArc
 50
135.0
 51
165.0000000000001
  0
ARC
  5
8C
330
39
100
AcDbEntity
  8
1
  6
Continuous
 62
     7
100
AcDbCircle
 10
175.8932375455001
 20
717.1215114676068
 30
0.0
 40
24.99999999999994
100
AcDbArc
 50
-104.9999999999998
 51
-74.99999999999986
  0
ARC
  5
8D
330
39
100
AcDbEntity
  8
1
  6
Continuous
 62
     7
100
AcDbCircle
 10
142.2981277190687
 20
658.9330743623708
 30
0.0
 40
24.99999999999999
100
AcDbArc
 50
14.99999999999987
 51
45.00000000000005
  0
ARC
  5
8E
330
39
100
AcDbEntity
  8
1
  6
Continuous
 62
     7
100
AcDbCircle
 10
203.0390066744818
 20
388.1125495682372
 30
0.0
 40
0.5
100
AcDbArc
 50
-90.0
 51
0.0
  0
ARC
  5
8F
330
39
100
AcDbEntity
  8
1
  6
Continuous
 62
     7
100
AcDbCircle
 10
197.5390066744818
 20
390.9994584736047
 30
0.0
 40
6.0
100
AcDbArc
 50
0.0
 51
80.00215651243079
  0
ARC
  5
90
330
39
100
AcDbEntity
  8
1
  6
Continuous
 62
     7
100
AcDbCircle
 10
154.2474684165187
 20
390.9994584736047
 30
0.0
 40
5.999999999999877
100
AcDbArc
 50
99.99784348756842
 51
180.0
  0
ARC
  5
91
330
39
100
AcDbEntity
  8
1
  6
Continuous
 62
     7
100
AcDbCircle
 10
148.7474684165187
 20
388.1125495682372
 30
0.0
 40
0.5
100
AcDbArc
 50
180.0
 51
-90.0
  0
ARC
  5
92
330
39
100
AcDbEntity
  8
1
  6
Continuous
 62
     7
100
AcDbCircle
 10
419.4095925107951
 20
388.1125495682372
 30
0.0
 40
0.5
100
AcDbArc
 50
180.0
 51
-90.0
  0
ARC
  5
93
330
39
100
AcDbEntity
  8
1
  6
Continuous
 62
     7
100
AcDbCircle
 10
424.9095925107951
 20
390.9994584736047
 30
0.0
 40
5.999999999999892
100
AcDbArc
 50
99.99784348756921
 51
180.0
  0
ARC
  5
94
330
39
100
AcDbEntity
  8
1
  6
Continuous
 62
     7
100
AcDbCircle
 10
457.7018839142857
 20
392.1907397051792
 30
0.0
 40
5.999999999999964
100
AcDbArc
 50
65.14402107788114
 51
68.98000123350812
  0
ARC
  5
95
330
39
100
AcDbEntity
  8
1
  6
Continuous
 62
     7
100
AcDbCircle
 10
467.909592510795
 20
388.1125495682372
 30
0.0
 40
0.5
100
AcDbArc
 50
-90.0
 51
0.0
  0
ARC
  5
96
330
39
100
AcDbEntity
  8
1
  6
Continuous
 62
     7
100
AcDbCircle
 10
462.409592510795
 20
390.587498990647
 30
0.0
 40
6.0
100
AcDbArc
 50
0.0
 51
70.02008322088796
  0
ENDBLK
  5
3B
330
39
100
AcDbEntity
  8
0
100
AcDbBlockEnd
  0
BLOCK
  5
3D
330
3C
100
AcDbEntity
  8
0
100
AcDbBlockBegin
  2
42-1
 70
     0
 71
     0
 10
361.8053324241914
 20
192.3229005586525
 30
0.0
  3
42-1
  1

  0
LINE
  5
97
330
3C
100
AcDbEntity
  8
1
  6
Continuous
 62
     7
100
AcDbLine
 10
449.909592510795
 20
402.1125495682372
 30
0.0
 11
454.909592510795
 21
402.1125495682372
 31
0.0
  0
LINE
  5
98
330
3C
100
AcDbEntity
  8
1
  6
Continuous
 62
     7
100
AcDbLine
 10
449.909592510795
 20
402.4423152884409
 30
0.0
 11
455.659592510795
 21
402.4423152884409
 31
0.0
  0
LINE
  5
99
330
3C
100
AcDbEntity
  8
1
  6
Continuous
 62
     2
100
AcDbLine
 10
450.909592510795
 20
400.0896485797979
 30
0.0
 11
450.909592510795
 21
401.3548876704084
 31
0.0
  0
LINE
  5
9A
330
3C
100
AcDbEntity
  8
1
  6
Continuous
 62
     2
100
AcDbLine
 10
451.909592510795
 20
399.8301123560831
 30
0.0
 11
451.909592510795
 21
401.5982028801412
 31
0.0
  0
LINE
  5
9B
330
3C
100
AcDbEntity
  8
1
  6
Continuous
 62
     2
100
AcDbLine
 10
452.909592510795
 20
399.4732500484749
 30
0.0
 11
452.909592510795
 21
401.8090760619097
 31
0.0
  0
LINE
  5
9C
330
3C
100
AcDbEntity
  8
1
  6
Continuous
 62
     2
100
AcDbLine
 10
453.909592510795
 20
399.2785978806887
 30
0.0
 11
453.909592510795
 21
401.922623159785
 31
0.0
  0
LINE
  5
9D
330
3C
100
AcDbEntity
  8
1
  6
Continuous
 62
     2
100
AcDbLine
 10
454.909592510795
 20
399.1125495682372
 30
0.0
 11
454.909592510795
 21
402.1125495682372
 31
0.0
  0
LINE
  5
9E
330
3C
100
AcDbEntity
  8
1
  6
Continuous
 62
     7
100
AcDbLine
 10
455.409592510795
 20
399.1125495682372
 30
0.0
 11
455.909592510795
 21
399.1125495682372
 31
0.0
  0
LINE
  5
9F
330
3C
100
AcDbEntity
  8
1
  6
Continuous
 62
     7
100
AcDbLine
 10
455.409592510795
 20
402.1125495682372
 30
0.0
 11
455.909592510795
 21
402.1125495682372
 31
0.0
  0
LINE
  5
A0
330
3C
100
AcDbEntity
  8
1
  6
Continuous
 62
     2
100
AcDbLine
 10
455.909592510795
 20
399.1125495682372
 30
0.0
 11
455.909592510795
 21
402.1125495682372
 31
0.0
  0
LINE
  5
A1
330
3C
100
AcDbEntity
  8
1
  6
Continuous
 62
     7
100
AcDbLine
 10
456.409592510795
 20
402.1125495682372
 30
0.0
 11
456.909592510795
 21
402.1125495682372
 31
0.0
  0
LINE
  5
A2
330
3C
100
AcDbEntity
  8
1
  6
Continuous
 62
     7
100
AcDbLine
 10
455.9095925107951
 20
402.3818717672604
 30
0.0
 11
456.909592510795
 21
402.1125495682372
 31
0.0
  0
LINE
  5
A3
330
3C
100
AcDbEntity
  8
1
  6
Continuous
 62
     7
100
AcDbLine
 10
456.409592510795
 20
399.1125495682372
 30
0.0
 11
456.909592510795
 21
399.1125495682372
 31
0.0
  0
LINE
  5
A4
330
3C
100
AcDbEntity
  8
1
  6
Continuous
 62
     7
100
AcDbLine
 10
456.909592510795
 20
402.1125495682372
 30
0.0
 11
456.909592510795
 21
399.1125495682372
 31
0.0
  0
LINE
  5
A5
330
3C
100
AcDbEntity
  8
1
  6
Continuous
 62
     2
100
AcDbLine
 10
456.409592510795
 20
399.1125495682372
 30
0.0
 11
456.409592510795
 21
402.1125495682372
 31
0.0
  0
LINE
  5
A6
330
3C
100
AcDbEntity
  8
1
  6
Continuous
 62
     7
100
AcDbLine
 10
455.909592510795
 20
402.1125495682372
 30
0.0
 11
456.409592510795
 21
402.1125495682372
 31
0.0
  0
LINE
  5
A7
330
3C
100
AcDbEntity
  8
1
  6
Continuous
 62
     7
100
AcDbLine
 10
455.909592510795
 20
399.1125495682372
 30
0.0
 11
456.409592510795
 21
399.1125495682372
 31
0.0
  0
LINE
  5
A8
330
3C
100
AcDbEntity
  8
1
  6
Continuous
 62
     2
100
AcDbLine
 10
455.409592510795
 20
399.1125495682372
 30
0.0
 11
455.409592510795
 21
402.1125495682372
 31
0.0
  0
LINE
  5
A9
330
3C
100
AcDbEntity
  8
1
  6
Continuous
 62
     7
100
AcDbLine
 10
454.909592510795
 20
402.1125495682372
 30
0.0
 11
455.409592510795
 21
402.1125495682372
 31
0.0
  0
LINE
  5
AA
330
3C
100
AcDbEntity
  8
1
  6
Continuous
 62
     7
100
AcDbLine
 10
454.909592510795
 20
399.1125495682372
 30
0.0
 11
455.409592510795
 21
399.1125495682372
 31
0.0
  0
LINE
  5
AB
330
3C
100
AcDbEntity
  8
1
  6
Continuous
 62
     2
100
AcDbLine
 10
454.409592510795
 20
399.2181368944247
 30
0.0
 11
454.409592510795
 21
401.9681373332151
 31
0.0
  0
LINE
  5
AC
330
3C
100
AcDbEntity
  8
1
  6
Continuous
 62
     2
100
AcDbLine
 10
453.409592510795
 20
399.3670222684993
 30
0.0
 11
453.409592510795
 21
401.8367678855021
 31
0.0
  0
LINE
  5
AD
330
3C
100
AcDbEntity
  8
1
  6
Continuous
 62
     2
100
AcDbLine
 10
452.409592510795
 20
399.7260987589145
 30
0.0
 11
452.409592510795
 21
401.6440926955231
 31
0.0
  0
LINE
  5
AE
330
3C
100
AcDbEntity
  8
1
  6
Continuous
 62
     2
100
AcDbLine
 10
451.409592510795
 20
400.0501433966065
 30
0.0
 11
451.409592510795
 21
401.3988697264589
 31
0.0
  0
LINE
  5
AF
330
3C
100
AcDbEntity
  8
1
  6
Continuous
 62
     7
100
AcDbLine
 10
444.909592510795
 20
402.1125495682372
 30
0.0
 11
449.909592510795
 21
402.1125495682372
 31
0.0
  0
LINE
  5
B0
330
3C
100
AcDbEntity
  8
1
  6
Continuous
 62
     7
100
AcDbLine
 10
444.159592510795
 20
402.4423152884409
 30
0.0
 11
449.909592510795
 21
402.4423152884409
 31
0.0
  0
LINE
  5
B1
330
3C
100
AcDbEntity
  8
1
  6
Continuous
 62
     2
100
AcDbLine
 10
448.909592510795
 20
401.3548876704084
 30
0.0
 11
448.909592510795
 21
400.0896485797979
 31
0.0
  0
LINE
  5
B2
330
3C
100
AcDbEntity
  8
1
  6
Continuous
 62
     2
100
AcDbLine
 10
447.909592510795
 20
401.5982028801412
 30
0.0
 11
447.909592510795
 21
399.8301123560831
 31
0.0
  0
LINE
  5
B3
330
3C
100
AcDbEntity
  8
1
  6
Continuous
 62
     2
100
AcDbLine
 10
446.909592510795
 20
401.8090760619097
 30
0.0
 11
446.909592510795
 21
399.4732500484749
 31
0.0
  0
LINE
  5
B4
330
3C
100
AcDbEntity
  8
1
  6
Continuous
 62
     2
100
AcDbLine
 10
445.909592510795
 20
401.922623159785
 30
0.0
 11
445.909592510795
 21
399.2785978806887
 31
0.0
  0
LINE
  5
B5
330
3C
100
AcDbEntity
  8
1
  6
Continuous
 62
     2
100
AcDbLine
 10
444.909592510795
 20
402.1125495682372
 30
0.0
 11
444.909592510795
 21
399.1125495682372
 31
0.0
  0
LINE
  5
B6
330
3C
100
AcDbEntity
  8
1
  6
Continuous
 62
     7
100
AcDbLine
 10
443.909592510795
 20
399.1125495682372
 30
0.0
 11
444.409592510795
 21
399.1125495682372
 31
0.0
  0
LINE
  5
B7
330
3C
100
AcDbEntity
  8
1
  6
Continuous
 62
     7
100
AcDbLine
 10
443.909592510795
 20
402.1125495682372
 30
0.0
 11
444.409592510795
 21
402.1125495682372
 31
0.0
  0
LINE
  5
B8
330
3C
100
AcDbEntity
  8
1
  6
Continuous
 62
     2
100
AcDbLine
 10
443.909592510795
 20
402.1125495682372
 30
0.0
 11
443.909592510795
 21
399.1125495682372
 31
0.0
  0
LINE
  5
B9
330
3C
100
AcDbEntity
  8
1
  6
Continuous
 62
     7
100
AcDbLine
 10
442.909592510795
 20
402.1125495682372
 30
0.0
 11
443.409592510795
 21
402.1125495682372
 31
0.0
  0
LINE
  5
BA
330
3C
100
AcDbEntity
  8
1
  6
Continuous
 62
     7
100
AcDbLine
 10
442.909592510795
 20
402.1125495682372
 30
0.0
 11
443.9095925107949
 21
402.3818717672604
 31
0.0
  0
LINE
  5
BB
330
3C
100
AcDbEntity
  8
1
  6
Continuous
 62
     7
100
AcDbLine
 10
442.909592510795
 20
399.1125495682372
 30
0.0
 11
443.409592510795
 21
399.1125495682372
 31
0.0
  0
LINE
  5
BC
330
3C
100
AcDbEntity
  8
1
  6
Continuous
 62
     7
100
AcDbLine
 10
442.909592510795
 20
399.1125495682372
 30
0.0
 11
442.909592510795
 21
402.1125495682372
 31
0.0
  0
LINE
  5
BD
330
3C
100
AcDbEntity
  8
1
  6
Continuous
 62
     2
100
AcDbLine
 10
443.409592510795
 20
402.1125495682372
 30
0.0
 11
443.409592510795
 21
399.1125495682372
 31
0.0
  0
LINE
  5
BE
330
3C
100
AcDbEntity
  8
1
  6
Continuous
 62
     7
100
AcDbLine
 10
443.409592510795
 20
402.1125495682372
 30
0.0
 11
443.909592510795
 21
402.1125495682372
 31
0.0
  0
LINE
  5
BF
330
3C
100
AcDbEntity
  8
1
  6
Continuous
 62
     7
100
AcDbLine
 10
443.409592510795
 20
399.1125495682372
 30
0.0
 11
443.909592510795
 21
399.1125495682372
 31
0.0
  0
LINE
  5
C0
330
3C
100
AcDbEntity
  8
1
  6
Continuous
 62
     2
100
AcDbLine
 10
444.409592510795
 20
402.1125495682372
 30
0.0
 11
444.409592510795
 21
399.1125495682372
 31
0.0
  0
LINE
  5
C1
330
3C
100
AcDbEntity
  8
1
  6
Continuous
 62
     7
100
AcDbLine
 10
444.409592510795
 20
402.1125495682372
 30
0.0
 11
444.909592510795
 21
402.1125495682372
 31
0.0
  0
LINE
  5
C2
330
3C
100
AcDbEntity
  8
1
  6
Continuous
 62
     7
100
AcDbLine
 10
444.409592510795
 20
399.1125495682372
 30
0.0
 11
444.909592510795
 21
399.1125495682372
 31
0.0
  0
LINE
  5
C3
330
3C
100
AcDbEntity
  8
1
  6
Continuous
 62
     7
100
AcDbLine
 10
449.909592510795
 20
399.1125495682372
 30
0.0
 11
444.909592510795
 21
399.1125495682372
 31
0.0
  0
LINE
  5
C4
330
3C
100
AcDbEntity
  8
1
  6
Continuous
 62
     2
100
AcDbLine
 10
445.409592510795
 20
401.9681373332151
 30
0.0
 11
445.409592510795
 21
399.2181368944247
 31
0.0
  0
LINE
  5
C5
330
3C
100
AcDbEntity
  8
1
  6
Continuous
 62
     2
100
AcDbLine
 10
446.409592510795
 20
401.8367678855021
 30
0.0
 11
446.409592510795
 21
399.3670222684993
 31
0.0
  0
LINE
  5
C6
330
3C
100
AcDbEntity
  8
1
  6
Continuous
 62
     2
100
AcDbLine
 10
447.409592510795
 20
401.6440926955231
 30
0.0
 11
447.409592510795
 21
399.7260987589145
 31
0.0
  0
LINE
  5
C7
330
3C
100
AcDbEntity
  8
1
  6
Continuous
 62
     2
100
AcDbLine
 10
448.409592510795
 20
401.3988697264589
 30
0.0
 11
448.409592510795
 21
400.0501433966065
 31
0.0
  0
LINE
  5
C8
330
3C
100
AcDbEntity
  8
1
  6
Continuous
 62
     7
100
AcDbLine
 10
454.909592510795
 20
399.1125495682372
 30
0.0
 11
449.909592510795
 21
399.1125495682372
 31
0.0
  0
LINE
  5
C9
330
3C
100
AcDbEntity
  8
1
  6
Continuous
 62
     2
100
AcDbLine
 10
176.8932375455001
 20
400.0896485797981
 30
0.0
 11
176.8932375455001
 21
401.3548876704085
 31
0.0
  0
LINE
  5
CA
330
3C
100
AcDbEntity
  8
1
  6
Continuous
 62
     2
100
AcDbLine
 10
177.8932375455001
 20
399.8301123560831
 30
0.0
 11
177.8932375455001
 21
401.5982028801412
 31
0.0
  0
LINE
  5
CB
330
3C
100
AcDbEntity
  8
1
  6
Continuous
 62
     2
100
AcDbLine
 10
178.8932375455001
 20
399.4732500484751
 30
0.0
 11
178.8932375455001
 21
401.8090760619097
 31
0.0
  0
LINE
  5
CC
330
3C
100
AcDbEntity
  8
1
  6
Continuous
 62
     2
100
AcDbLine
 10
179.8932375455001
 20
399.2785978806888
 30
0.0
 11
179.8932375455001
 21
401.922623159785
 31
0.0
  0
LINE
  5
CD
330
3C
100
AcDbEntity
  8
1
  6
Continuous
 62
     2
100
AcDbLine
 10
180.8932375455001
 20
399.1125495682372
 30
0.0
 11
180.8932375455001
 21
402.1125495682372
 31
0.0
  0
LINE
  5
CE
330
3C
100
AcDbEntity
  8
1
  6
Continuous
 62
     2
100
AcDbLine
 10
181.8932375455003
 20
399.1125495682372
 30
0.0
 11
181.8932375455003
 21
402.1125495682372
 31
0.0
  0
LINE
  5
CF
330
3C
100
AcDbEntity
  8
1
  6
Continuous
 62
     7
100
AcDbLine
 10
181.8932375455003
 20
402.3818717672605
 30
0.0
 11
182.8932375455003
 21
402.1125495682372
 31
0.0
  0
LINE
  5
D0
330
3C
100
AcDbEntity
  8
1
  6
Continuous
 62
     7
100
AcDbLine
 10
182.8932375455003
 20
402.1125495682372
 30
0.0
 11
182.8932375455003
 21
399.1125495682372
 31
0.0
  0
LINE
  5
D1
330
3C
100
AcDbEntity
  8
1
  6
Continuous
 62
     7
100
AcDbLine
 10
168.8932375455003
 20
399.1125495682372
 30
0.0
 11
168.8932375455003
 21
402.1125495682372
 31
0.0
  0
LINE
  5
D2
330
3C
100
AcDbEntity
  8
1
  6
Continuous
 62
     7
100
AcDbLine
 10
168.8932375455003
 20
402.1125495682372
 30
0.0
 11
169.8932375455001
 21
402.3818717672605
 31
0.0
  0
LINE
  5
D3
330
3C
100
AcDbEntity
  8
1
  6
Continuous
 62
     2
100
AcDbLine
 10
169.8932375455003
 20
402.1125495682372
 30
0.0
 11
169.8932375455003
 21
399.1125495682372
 31
0.0
  0
LINE
  5
D4
330
3C
100
AcDbEntity
  8
1
  6
Continuous
 62
     7
100
AcDbLine
 10
168.8932375455003
 20
399.1125495682372
 30
0.0
 11
182.8932375455003
 21
399.1125495682372
 31
0.0
  0
LINE
  5
D5
330
3C
100
AcDbEntity
  8
1
  6
Continuous
 62
     2
100
AcDbLine
 10
170.8932375455003
 20
402.1125495682372
 30
0.0
 11
170.8932375455003
 21
399.1125495682372
 31
0.0
  0
LINE
  5
D6
330
3C
100
AcDbEntity
  8
1
  6
Continuous
 62
     2
100
AcDbLine
 10
171.8932375455003
 20
401.922623159785
 30
0.0
 11
171.8932375455003
 21
399.2785978806888
 31
0.0
  0
LINE
  5
D7
330
3C
100
AcDbEntity
  8
1
  6
Continuous
 62
     2
100
AcDbLine
 10
172.8932375455003
 20
401.8090760619097
 30
0.0
 11
172.8932375455003
 21
399.4732500484751
 31
0.0
  0
LINE
  5
D8
330
3C
100
AcDbEntity
  8
1
  6
Continuous
 62
     2
100
AcDbLine
 10
173.8932375455003
 20
401.5982028801412
 30
0.0
 11
173.8932375455003
 21
399.8301123560831
 31
0.0
  0
LINE
  5
D9
330
3C
100
AcDbEntity
  8
1
  6
Continuous
 62
     2
100
AcDbLine
 10
174.8932375455003
 20
401.3548876704085
 30
0.0
 11
174.8932375455003
 21
400.0896485797981
 31
0.0
  0
LINE
  5
DA
330
3C
100
AcDbEntity
  8
1
  6
Continuous
 62
     7
100
AcDbLine
 10
170.1432375455003
 20
402.442315288441
 30
0.0
 11
181.6432375455001
 21
402.442315288441
 31
0.0
  0
LINE
  5
DB
330
3C
100
AcDbEntity
  8
1
  6
Continuous
 62
     7
100
AcDbLine
 10
168.8932375455003
 20
402.1125495682372
 30
0.0
 11
182.8932375455003
 21
402.1125495682372
 31
0.0
  0
ARC
  5
DC
330
3C
100
AcDbEntity
  8
1
  6
Continuous
 62
     7
100
AcDbCircle
 10
449.909592510795
 20
378.1125495682372
 30
0.0
 40
24.99999999999996
100
AcDbArc
 50
76.70292825279093
 51
90.0
  0
ARC
  5
DD
330
3C
100
AcDbEntity
  8
1
  6
Continuous
 62
     7
100
AcDbCircle
 10
449.909592510795
 20
378.1125495682372
 30
0.0
 40
25.00000000000001
100
AcDbArc
 50
76.11345963737075
 51
76.70292825279093
  0
ARC
  5
DE
330
3C
100
AcDbEntity
  8
1
  6
Continuous
 62
     7
100
AcDbCircle
 10
449.909592510795
 20
378.1125495682372
 30
0.0
 40
25.0
100
AcDbArc
 50
90.0
 51
103.2970717472091
  0
ARC
  5
DF
330
3C
100
AcDbEntity
  8
1
  6
Continuous
 62
     7
100
AcDbCircle
 10
449.909592510795
 20
378.1125495682372
 30
0.0
 40
24.99999999999996
100
AcDbArc
 50
103.2970717472091
 51
103.8865403626293
  0
ARC
  5
E0
330
3C
100
AcDbEntity
  8
1
  6
Continuous
 62
     7
100
AcDbCircle
 10
175.8932375455003
 20
378.1125495682372
 30
0.0
 40
25.0000000000001
100
AcDbArc
 50
76.11345963737107
 51
90.0
  0
ARC
  5
E1
330
3C
100
AcDbEntity
  8
1
  6
Continuous
 62
     7
100
AcDbCircle
 10
175.8932375455003
 20
378.1125495682372
 30
0.0
 40
25.0
100
AcDbArc
 50
90.0
 51
103.8865403626294
  0
CIRCLE
  5
E2
330
3C
100
AcDbEntity
  8
1
  6
Continuous
 62
     7
100
AcDbCircle
 10
175.8932375455003
 20
678.3292200641163
 30
0.0
 40
6.999999999999801
  0
CIRCLE
  5
E3
330
3C
100
AcDbEntity
  8
1
  6
Continuous
 62
     7
100
AcDbCircle
 10
175.8932375455003
 20
678.3292200641163
 30
0.0
 40
5.749999999999801
  0
ENDBLK
  5
3E
330
3C
100
AcDbEntity
  8
0
100
AcDbBlockEnd
  0
BLOCK
  5
42
330
3F
100
AcDbEntity
  8
0
100
AcDbBlockBegin
  2
R20F
 70
     0
 71
     0
 10
418.9847767144054
 20
388.1125495682372
 30
0.0
  3
R20F
  1

  0
INSERT
  5
40
330
3F
100
AcDbEntity
  8
1
100
AcDbBlockReference
  2
51-1
 10
1042.248335080016
 20
487.9548763221029
 30
0.0
 41
1.0
 42
1.0
 43
1.0
  0
INSERT
  5
41
330
3F
100
AcDbEntity
  8
0
100
AcDbBlockReference
  2
42-1
 10
361.8053324241914
 20
192.3229005586524
 30
0.0
 41
1.0
 42
1.0
 43
1.0
  0
ENDBLK
  5
43
330
3F
100
AcDbEntity
  8
0
100
AcDbBlockEnd
  0
BLOCK
  5
45
330
44
100
AcDbEntity
  8
0
100
AcDbBlockBegin
  2
36-54
 70
     0
 71
     0
 10
1086.930554910954
 20
502.1689509706047
 30
0.0
  3
36-54
  1

  0
LINE
  5
E4
330
44
100
AcDbEntity
  8
1
  6
Continuous
 62
     7
100
AcDbLine
 10
171.1432375455004
 20
387.6125495682372
 30
0.0
 11
171.1432375455004
 21
384.1125495682372
 31
0.0
  0
LINE
  5
E5
330
44
100
AcDbEntity
  8
1
  6
Continuous
 62
     7
100
AcDbLine
 10
180.6432375455004
 20
387.6125495682372
 30
0.0
 11
180.6432375455004
 21
384.1125495682372
 31
0.0
  0
LINE
  5
E6
330
44
100
AcDbEntity
  8
1
  6
Continuous
 62
     7
100
AcDbLine
 10
454.659592510795
 20
387.6125495682372
 30
0.0
 11
454.659592510795
 21
384.1125495682372
 31
0.0
  0
LINE
  5
E7
330
44
100
AcDbEntity
  8
1
  6
Continuous
 62
     7
100
AcDbLine
 10
445.159592510795
 20
387.6125495682372
 30
0.0
 11
445.159592510795
 21
384.1125495682372
 31
0.0
  0
ENDBLK
  5
46
330
44
100
AcDbEntity
  8
0
100
AcDbBlockEnd
  0
BLOCK
  5
48
330
47
100
AcDbEntity
  8
0
100
AcDbBlockBegin
  2
32-1-16
 70
     0
 71
     0
 10
118.3638526751261
 20
525.0983816983463
 30
0.0
  3
32-1-16
  1

  0
LINE
  5
E8
330
47
100
AcDbEntity
  8
1
  6
Continuous
 62
     7
100
AcDbLine
 10
184.6435338946425
 20
654.4430416487595
 30
0.0
 11
188.6540968564018
 21
652.1275420431857
 31
0.0
  0
LINE
  5
E9
330
47
100
AcDbEntity
  8
1
  6
Continuous
 62
     7
100
AcDbLine
 10
167.142941196358
 20
654.4430416487595
 30
0.0
 11
163.1323782345988
 21
652.1275420431857
 31
0.0
  0
LINE
  5
EA
330
47
100
AcDbEntity
  8
1
  6
Continuous
 62
     7
100
AcDbLine
 10
189.8932375455003
 20
318.8993723185241
 30
0.0
 11
189.8932375455003
 21
326.0408007470671
 31
0.0
  0
LINE
  5
EB
330
47
100
AcDbEntity
  8
1
  6
Continuous
 62
     7
100
AcDbLine
 10
189.1932375455003
 20
326.6125495682372
 30
0.0
 11
175.8932375455001
 21
326.6125495682372
 31
0.0
  0
LINE
  5
EC
330
47
100
AcDbEntity
  8
1
  6
Continuous
 62
     7
100
AcDbLine
 10
187.4512586072309
 20
317.6125495682372
 30
0.0
 11
187.3932375455003
 21
317.6125495682372
 31
0.0
  0
LINE
  5
ED
330
47
100
AcDbEntity
  8
1
  6
Continuous
 62
     7
100
AcDbLine
 10
175.8932375455001
 20
316.6125495682372
 30
0.0
 11
185.6611867379314
 21
316.6125495682372
 31
0.0
  0
LINE
  5
EE
330
47
100
AcDbEntity
  8
1
  6
Continuous
 62
     7
100
AcDbLine
 10
184.6915595245699
 20
317.6125495682372
 30
0.0
 11
175.8932375455001
 21
317.6125495682372
 31
0.0
  0
LINE
  5
EF
330
47
100
AcDbEntity
  8
1
  6
Continuous
 62
     7
100
AcDbLine
 10
161.8932375455003
 20
326.0408007470671
 30
0.0
 11
161.8932375455003
 21
318.8993723185241
 31
0.0
  0
LINE
  5
F0
330
47
100
AcDbEntity
  8
1
  6
Continuous
 62
     7
100
AcDbLine
 10
175.8932375455001
 20
326.6125495682372
 30
0.0
 11
162.5932375455002
 21
326.6125495682372
 31
0.0
  0
LINE
  5
F1
330
47
100
AcDbEntity
  8
1
  6
Continuous
 62
     7
100
AcDbLine
 10
164.3932375455001
 20
317.6125495682372
 30
0.0
 11
164.3352164837696
 21
317.6125495682372
 31
0.0
  0
LINE
  5
F2
330
47
100
AcDbEntity
  8
1
  6
Continuous
 62
     7
100
AcDbLine
 10
166.125288353069
 20
316.6125495682372
 30
0.0
 11
175.8932375455001
 21
316.6125495682372
 31
0.0
  0
LINE
  5
F3
330
47
100
AcDbEntity
  8
1
  6
Continuous
 62
     7
100
AcDbLine
 10
175.8932375455001
 20
317.6125495682372
 30
0.0
 11
167.0949155664306
 21
317.6125495682372
 31
0.0
  0
LINE
  5
F4
330
47
100
AcDbEntity
  8
1
  6
Continuous
 62
     7
100
AcDbLine
 10
428.2095925107949
 20
325.6125495682372
 30
0.0
 11
414.9095925107949
 21
325.6125495682372
 31
0.0
  0
LINE
  5
F5
330
47
100
AcDbEntity
  8
1
  6
Continuous
 62
     7
100
AcDbLine
 10
428.0965925107949
 20
325.6125495682372
 30
0.0
 11
428.2095925107949
 21
325.6125495682372
 31
0.0
  0
LINE
  5
F6
330
47
100
AcDbEntity
  8
1
  6
Continuous
 62
     7
100
AcDbLine
 10
426.4676135725254
 20
316.6125495682372
 30
0.0
 11
426.4095925107949
 21
316.6125495682372
 31
0.0
  0
LINE
  5
F7
330
47
100
AcDbEntity
  8
1
  6
Continuous
 62
     7
100
AcDbLine
 10
414.9095925107949
 20
315.6125495682372
 30
0.0
 11
424.677541703226
 21
315.6125495682372
 31
0.0
  0
LINE
  5
F8
330
47
100
AcDbEntity
  8
1
  6
Continuous
 62
     7
100
AcDbLine
 10
423.7079144898645
 20
316.6125495682372
 30
0.0
 11
414.9095925107949
 21
316.6125495682372
 31
0.0
  0
LINE
  5
F9
330
47
100
AcDbEntity
  8
1
  6
Continuous
 62
     7
100
AcDbLine
 10
177.1323782345988
 20
627.8788307372215
 30
0.0
 11
188.6540968564018
 21
634.5308980850465
 31
0.0
  0
LINE
  5
FA
330
47
100
AcDbEntity
  8
1
  6
Continuous
 62
     7
100
AcDbLine
 10
163.1323782345988
 20
634.5308980850465
 30
0.0
 11
174.6540968564018
 21
627.8788307372215
 31
0.0
  0
LINE
  5
FB
330
47
100
AcDbEntity
  8
1
  6
Continuous
 62
     7
100
AcDbLine
 10
161.8932375455003
 20
649.9812874119411
 30
0.0
 11
161.8932375455003
 21
636.6771527162911
 31
0.0
  0
LINE
  5
FC
330
47
100
AcDbEntity
  8
1
  6
Continuous
 62
     7
100
AcDbLine
 10
189.8932375455003
 20
649.9812874119411
 30
0.0
 11
189.8932375455003
 21
636.6771527162911
 31
0.0
  0
LINE
  5
FD
330
47
100
AcDbEntity
  8
1
  6
Continuous
 62
     7
100
AcDbLine
 10
414.9095925107949
 20
325.6125495682372
 30
0.0
 11
401.6095925107948
 21
325.6125495682372
 31
0.0
  0
LINE
  5
FE
330
47
100
AcDbEntity
  8
1
  6
Continuous
 62
     7
100
AcDbLine
 10
401.6095925107948
 20
325.6125495682372
 30
0.0
 11
401.7225925107948
 21
325.6125495682372
 31
0.0
  0
LINE
  5
FF
330
47
100
AcDbEntity
  8
1
  6
Continuous
 62
     7
100
AcDbLine
 10
403.4095925107949
 20
316.6125495682372
 30
0.0
 11
403.3515714490643
 21
316.6125495682372
 31
0.0
  0
LINE
  5
100
330
47
100
AcDbEntity
  8
1
  6
Continuous
 62
     7
100
AcDbLine
 10
405.1416433183637
 20
315.6125495682372
 30
0.0
 11
414.9095925107949
 21
315.6125495682372
 31
0.0
  0
LINE
  5
101
330
47
100
AcDbEntity
  8
1
  6
Continuous
 62
     7
100
AcDbLine
 10
414.9095925107949
 20
316.6125495682372
 30
0.0
 11
406.1112705317252
 21
316.6125495682372
 31
0.0
  0
ARC
  5
102
330
47
100
AcDbEntity
  8
1
  6
Continuous
 62
     7
100
AcDbCircle
 10
186.3932375455003
 20
322.4700865327957
 30
0.0
 40
5.000000000000016
100
AcDbArc
 50
45.57299599919448
 51
55.94420225743197
  0
ARC
  5
103
330
47
100
AcDbEntity
  8
1
  6
Continuous
 62
     7
100
AcDbCircle
 10
186.3932375455003
 20
322.4700865327957
 30
0.0
 40
4.999999999999985
100
AcDbArc
 50
-74.66244233044588
 51
-45.57299599919539
  0
ARC
  5
104
330
47
100
AcDbEntity
  8
1
  6
Continuous
 62
     7
100
AcDbCircle
 10
165.3932375455001
 20
322.4700865327957
 30
0.0
 40
4.999999999999922
100
AcDbArc
 50
124.0557977425675
 51
134.4270040008039
  0
ARC
  5
105
330
47
100
AcDbEntity
  8
1
  6
Continuous
 62
     7
100
AcDbCircle
 10
165.3932375455001
 20
322.4700865327957
 30
0.0
 40
4.999999999999958
100
AcDbArc
 50
-134.427004000803
 51
-105.3375576695544
  0
ARC
  5
106
330
47
100
AcDbEntity
  8
1
  6
Continuous
 62
     7
100
AcDbCircle
 10
425.4095925107949
 20
321.4700865327957
 30
0.0
 40
5.0
100
AcDbArc
 50
-74.66244233044527
 51
55.94420225743171
  0
ARC
  5
107
330
47
100
AcDbEntity
  8
1
  6
Continuous
 62
     7
100
AcDbCircle
 10
175.8932375455003
 20
643.3292200641162
 30
0.0
 40
15.5
100
AcDbArc
 50
-90.0
 51
-85.41462091516117
  0
ARC
  5
108
330
47
100
AcDbEntity
  8
1
  6
Continuous
 62
     7
100
AcDbCircle
 10
175.8932375455003
 20
643.3292200641162
 30
0.0
 40
15.50000000000005
100
AcDbArc
 50
-34.58537908483911
 51
-25.41462091516118
  0
ARC
  5
109
330
47
100
AcDbEntity
  8
1
  6
Continuous
 62
     7
100
AcDbCircle
 10
175.8932375455003
 20
643.3292200641162
 30
0.0
 40
15.49999999999999
100
AcDbArc
 50
-94.58537908483893
 51
-90.0
  0
ARC
  5
10A
330
47
100
AcDbEntity
  8
1
  6
Continuous
 62
     7
100
AcDbCircle
 10
175.8932375455003
 20
643.3292200641162
 30
0.0
 40
15.50000000000003
100
AcDbArc
 50
-154.5853790848388
 51
-145.414620915161
  0
ARC
  5
10B
330
47
100
AcDbEntity
  8
1
  6
Continuous
 62
     7
100
AcDbCircle
 10
175.8932375455003
 20
643.3292200641162
 30
0.0
 40
15.50000000000001
100
AcDbArc
 50
145.4146209151613
 51
154.5853790848392
  0
ARC
  5
10C
330
47
100
AcDbEntity
  8
1
  6
Continuous
 62
     7
100
AcDbCircle
 10
175.8932375455003
 20
643.3292200641162
 30
0.0
 40
15.49999999999998
100
AcDbArc
 50
25.4146209151608
 51
34.58537908483877
  0
ARC
  5
10D
330
47
100
AcDbEntity
  8
1
  6
Continuous
 62
     7
100
AcDbCircle
 10
404.4095925107949
 20
321.4700865327957
 30
0.0
 40
5.000000000000002
100
AcDbArc
 50
124.0557977425688
 51
-105.3375576695554
  0
SPLINE
  5
10E
330
47
100
AcDbEntity
  8
1
  6
Continuous
 62
     7
100
AcDbSpline
210
0.0
220
0.0
230
1.0
 70
    11
 71
     3
 72
    79
 73
    75
 74
    73
 42
0.0000000001
 43
0.0000000001
 44
0.00000001
 40
0.0
 40
0.0
 40
0.0
 40
0.0
 40
0.2910229153817808
 40
0.582034227873689
 40
0.8749339334363953
 40
1.167812547519291
 40
1.463561188767292
 40
1.759282806464803
 40
2.058487811140811
 40
2.357663885605957
 40
2.660503341347643
 40
2.963315625194737
 40
3.269530826276569
 40
3.575723468843838
 40
3.88466274419151
 40
4.193586027919069
 40
4.504289085610768
 40
4.814983882015403
 40
5.126294430971107
 40
5.437604979926928
 40
5.748299776331507
 40
6.059002834023151
 40
6.36792611775078
 40
6.676865393098358
 40
6.98305803566555
 40
7.28927323674746
 40
7.592085520594541
 40
7.894924976336228
 40
8.194101050801452
 40
8.49330605547738
 40
8.789027673174891
 40
9.084776314422847
 40
9.377654928505743
 40
9.670554634068395
 40
9.961565946560359
 40
10.25258886194215
 40
10.54295309984913
 40
10.83331733775618
 40
11.12434025313807
 40
11.41535156562997
 40
11.7082512711926
 40
12.0011298852755
 40
12.29687852652345
 40
12.59260014422101
 40
12.89180514889693
 40
13.19098122336212
 40
13.4938206791038
 40
13.79663296295085
 40
14.10284816403271
 40
14.40904080660001
 40
14.71798008194758
 40
15.02690336567521
 40
15.3376064233668
 40
15.64830121977143
 40
15.95961176872719
 40
16.27092231768296
 40
16.58161711408765
 40
16.89232017177925
 40
17.20124345550692
 40
17.51018273085451
 40
17.81637537342173
 40
18.12259057450364
 40
18.42540285835074
 40
18.72824231409239
 40
19.02741838855757
 40
19.32662339323346
 40
19.62234501093097
 40
19.91809365217893
 40
20.21097226626187
 40
20.50387197182454
 40
20.79488328431638
 40
21.08590619969834
 40
21.37627043760526
 40
21.66663467551219
 40
21.66663467551219
 40
21.66663467551219
 40
21.66663467551219
 10
426.7439047090267
 20
325.0271557841967
 30
0.0
 10
426.6475296503097
 20
325.0154801163953
 30
0.0
 10
426.4547833752853
 20
324.9921292462937
 30
0.0
 10
426.1708468660205
 20
324.9227732528432
 30
0.0
 10
425.8935826001617
 20
324.8293304952676
 30
0.0
 10
425.6248302163114
 20
324.7094235092906
 30
0.0
 10
425.3671848327916
 20
324.5653780041034
 30
0.0
 10
425.1219578855569
 20
324.397311403258
 30
0.0
 10
424.8916945294998
 20
324.2074766701841
 30
0.0
 10
424.6774623209836
 20
323.9963405415166
 30
0.0
 10
424.4815078922209
 20
323.7665609378829
 30
0.0
 10
424.3047505486003
 20
323.5188324056584
 30
0.0
 10
424.1489797146332
 20
323.2561001658246
 30
0.0
 10
424.0150112972641
 20
322.9793491541828
 30
0.0
 10
423.9040882659787
 20
322.6916171764192
 30
0.0
 10
423.8169114736072
 20
322.3942637299963
 30
0.0
 10
423.7541634635146
 20
322.0902177338534
 30
0.0
 10
423.716363084302
 20
321.7812761380991
 30
0.0
 10
423.7036860108139
 20
321.4700865327966
 30
0.0
 10
423.7163630843019
 20
321.1588969274883
 30
0.0
 10
423.7541634635159
 20
320.8499553317512
 30
0.0
 10
423.8169114736025
 20
320.5459093355462
 30
0.0
 10
423.9040882659958
 20
320.2485558893526
 30
0.0
 10
424.0150112972011
 20
319.9608239107378
 30
0.0
 10
424.1489797148662
 20
319.6840729022456
 30
0.0
 10
424.3047505477339
 20
319.4213406507215
 30
0.0
 10
424.4815078954151
 20
319.1736121616632
 30
0.0
 10
424.6774623091183
 20
318.9438323979424
 30
0.0
 10
424.8916945731894
 20
318.7326968598345
 30
0.0
 10
425.1219577232238
 20
318.542859936707
 30
0.0
 10
425.367185430819
 20
318.3748014186122
 30
0.0
 10
425.6248279924984
 20
318.2307259168191
 30
0.0
 10
425.8935908103896
 20
318.1109298463394
 30
0.0
 10
426.170816296082
 20
318.0170748494982
 30
0.0
 10
426.4548966495847
 20
317.9492479429085
 30
0.0
 10
426.7432641300974
 20
317.9085529812845
 30
0.0
 10
427.033948163777
 20
317.8947871877197
 30
0.0
 10
427.3246321974566
 20
317.9085529812846
 30
0.0
 10
427.6129996779695
 20
317.9492479429083
 30
0.0
 10
427.8970800314722
 20
318.0170748494982
 30
0.0
 10
428.1743055171643
 20
318.1109298463395
 30
0.0
 10
428.4430683350557
 20
318.2307259168192
 30
0.0
 10
428.700710896735
 20
318.374801418612
 30
0.0
 10
428.9459386043303
 20
318.542859936707
 30
0.0
 10
429.1762017543647
 20
318.7326968598345
 30
0.0
 10
429.3904340184356
 20
318.9438323979424
 30
0.0
 10
429.5863884321391
 20
319.1736121616632
 30
0.0
 10
429.7631457798202
 20
319.4213406507214
 30
0.0
 10
429.9189166126877
 20
319.6840729022457
 30
0.0
 10
430.052885030353
 20
319.9608239107377
 30
0.0
 10
430.1638080615584
 20
320.2485558893525
 30
0.0
 10
430.2509848539514
 20
320.5459093355463
 30
0.0
 10
430.3137328640385
 20
320.8499553317512
 30
0.0
 10
430.3515332432521
 20
321.1588969274885
 30
0.0
 10
430.3642103167401
 20
321.4700865327957
 30
0.0
 10
430.3515332432523
 20
321.7812761381024
 30
0.0
 10
430.3137328640382
 20
322.0902177338412
 30
0.0
 10
430.2509848539516
 20
322.3942637300415
 30
0.0
 10
430.1638080615572
 20
322.6916171762517
 30
0.0
 10
430.0528850303576
 20
322.9793491548055
 30
0.0
 10
429.9189166126707
 20
323.2561001635234
 30
0.0
 10
429.7631457798825
 20
323.5188324142093
 30
0.0
 10
429.5863884319097
 20
323.7665609063632
 30
0.0
 10
429.3904340192869
 20
323.9963406586035
 30
0.0
 10
429.1762017512314
 20
324.2074762390631
 30
0.0
 10
428.945938615972
 20
324.3973130051314
 30
0.0
 10
428.7007108538476
 20
324.5653721028787
 30
0.0
 10
428.4430684945359
 20
324.7094454534725
 30
0.0
 10
428.17430492837
 20
324.8292494782296
 30
0.0
 10
427.8970822237875
 20
324.9230749114348
 30
0.0
 10
427.6129915545315
 20
324.9910114761069
 30
0.0
 10
427.3246624934603
 20
325.0312980330235
 30
0.0
 10
427.0338353807944
 20
325.0465847787074
 30
0.0
 10
426.8405482662825
 20
325.0336321157002
 30
0.0
 10
426.7439047090267
 20
325.0271557841967
 30
0.0
 11
426.7439047090267
 21
325.0271557841967
 31
0.0
 11
426.4557452127518
 21
324.9864318111102
 31
0.0
 11
426.1726630063694
 21
324.9189629410448
 31
0.0
 11
425.8952389638255
 21
324.8250154124061
 31
0.0
 11
425.6276772117081
 21
324.7058995386067
 31
0.0
 11
425.3695448429928
 21
324.5615564091496
 31
0.0
 11
425.1255321903817
 21
324.3944962387338
 31
0.0
 11
424.8946526848508
 21
324.204185207133
 31
0.0
 11
424.6814773898996
 21
323.9942742327776
 31
0.0
 11
424.4849430658913
 21
323.7638702496512
 31
0.0
 11
424.3089695300917
 21
323.5174385269634
 31
0.0
 11
424.1527723896189
 21
323.2540562901255
 31
0.0
 11
424.0192767016547
 21
322.9784971573477
 31
0.0
 11
423.9081267760975
 21
322.6902452364504
 31
0.0
 11
423.8211501220712
 21
322.39381875841
 31
0.0
 11
423.7583450477497
 21
322.0895295658671
 31
0.0
 11
423.7205696860781
 21
321.7811397499465
 31
0.0
 11
423.7079144898645
 21
321.4700865327957
 31
0.0
 11
423.7205696860781
 21
321.1590333156447
 31
0.0
 11
423.7583450477498
 21
320.8506434997242
 31
0.0
 11
423.8211501220712
 21
320.5463543071813
 31
0.0
 11
423.9081267760976
 21
320.2499278291409
 31
0.0
 11
424.0192767016547
 21
319.9616759082437
 31
0.0
 11
424.1527723896189
 21
319.6861167754659
 31
0.0
 11
424.3089695300917
 21
319.422734538628
 31
0.0
 11
424.4849430658913
 21
319.1763028159402
 31
0.0
 11
424.6814773898996
 21
318.9458988328138
 31
0.0
 11
424.8946526848508
 21
318.7359878584583
 31
0.0
 11
425.1255321903817
 21
318.5456768268575
 31
0.0
 11
425.3695448429928
 21
318.3786166564418
 31
0.0
 11
425.627677211708
 21
318.2342735269846
 31
0.0
 11
425.8952389638254
 21
318.1151576531852
 31
0.0
 11
426.1726630063692
 21
318.0212101245464
 31
0.0
 11
426.4557452127517
 21
317.953741254481
 31
0.0
 11
426.7439047090265
 21
317.9130172813945
 31
0.0
 11
427.033948163777
 21
317.8993723185242
 31
0.0
 11
427.3239916185275
 21
317.9130172813945
 31
0.0
 11
427.6121511148024
 21
317.953741254481
 31
0.0
 11
427.8952333211849
 21
318.0212101245463
 31
0.0
 11
428.1726573637287
 21
318.1151576531852
 31
0.0
 11
428.4402191158461
 21
318.2342735269846
 31
0.0
 11
428.6983514845612
 21
318.3786166564418
 31
0.0
 11
428.9423641371724
 21
318.5456768268575
 31
0.0
 11
429.1732436427032
 21
318.7359878584583
 31
0.0
 11
429.3864189376544
 21
318.9458988328138
 31
0.0
 11
429.5829532616627
 21
319.1763028159402
 31
0.0
 11
429.7589267974623
 21
319.422734538628
 31
0.0
 11
429.9151239379351
 21
319.6861167754659
 31
0.0
 11
430.0486196258994
 21
319.9616759082437
 31
0.0
 11
430.1597695514565
 21
320.2499278291409
 31
0.0
 11
430.2467462054829
 21
320.5463543071813
 31
0.0
 11
430.3095512798043
 21
320.8506434997242
 31
0.0
 11
430.3473266414759
 21
321.1590333156447
 31
0.0
 11
430.3599818376895
 21
321.4700865327956
 31
0.0
 11
430.347326641476
 21
321.7811397499465
 31
0.0
 11
430.3095512798043
 21
322.0895295658671
 31
0.0
 11
430.2467462054828
 21
322.39381875841
 31
0.0
 11
430.1597695514565
 21
322.6902452364504
 31
0.0
 11
430.0486196258993
 21
322.9784971573477
 31
0.0
 11
429.9151239379351
 21
323.2540562901255
 31
0.0
 11
429.7589267974623
 21
323.5174385269634
 31
0.0
 11
429.5829532616627
 21
323.7638702496512
 31
0.0
 11
429.3864189376545
 21
323.9942742327776
 31
0.0
 11
429.1732436427033
 21
324.2041852071331
 31
0.0
 11
428.9423641371724
 21
324.3944962387338
 31
0.0
 11
428.6983514845613
 21
324.5615564091495
 31
0.0
 11
428.4402191158461
 21
324.7058995386066
 31
0.0
 11
428.1726573637287
 21
324.8250154124061
 31
0.0
 11
427.8952333211848
 21
324.9189629410449
 31
0.0
 11
427.6121511148024
 21
324.9864318111103
 31
0.0
 11
427.3239916185274
 21
325.0271557841968
 31
0.0
 11
427.033948163777
 21
325.040800747067
 31
0.0
 11
426.7439047090267
 21
325.0271557841967
 31
0.0
  0
SPLINE
  5
10F
330
47
100
AcDbEntity
  8
1
  6
Continuous
 62
     7
100
AcDbSpline
210
0.0
220
0.0
230
1.0
 70
    11
 71
     3
 72
    79
 73
    75
 74
    73
 42
0.0000000001
 43
0.0000000001
 44
0.00000001
 40
0.0
 40
0.0
 40
0.0
 40
0.0
 40
0.3261189881638906
 40
0.6517242273662843
 40
1.007570734071796
 40
1.362786578155797
 40
1.759886314710422
 40
2.156516714717008
 40
2.599210008268777
 40
3.041603627004097
 40
3.528307206464584
 40
4.014826849024926
 40
4.539616314403979
 40
5.064295509496658
 40
5.618233632287925
 40
6.172109437578967
 40
6.744280968665902
 40
7.316424323670562
 40
7.894787044418005
 40
8.473149765165619
 40
9.04529312017034
 40
9.617464651257269
 40
10.17134045654826
 40
10.72527857933941
 40
11.24995777443205
 40
11.7747472398111
 40
12.26126688237137
 40
12.74797046183186
 40
13.19036408056713
 40
13.6330573741189
 40
14.02968777412566
 40
14.4267875106802
 40
14.78200335476423
 40
15.13784986146968
 40
15.46345510067215
 40
15.78957408883603
 40
16.10448972240898
 40
16.41940535598188
 40
16.74552434414581
 40
17.07112958334826
 40
17.42697609005374
 40
17.78219193413772
 40
18.1792916706923
 40
18.57592207069899
 40
19.01861536425076
 40
19.46100898298618
 40
19.94771256244662
 40
20.4342322050069
 40
20.95902167038583
 40
21.48370086547854
 40
22.03763898826978
 40
22.59151479356087
 40
23.16368632464773
 40
23.73582967965251
 40
24.31419240040007
 40
24.89255512114757
 40
25.46469847615223
 40
26.03687000723916
 40
26.59074581253008
 40
27.14468393532143
 40
27.66936313041412
 40
28.19415259579312
 40
28.68067223835344
 40
29.16737581781385
 40
29.60976943654923
 40
30.05246273010092
 40
30.4490931301076
 40
30.84619286666218
 40
31.20140871074613
 40
31.55725521745169
 40
31.88286045665416
 40
32.20897944481808
 40
32.52389507839104
 40
32.83881071196394
 40
32.83881071196394
 40
32.83881071196394
 40
32.83881071196394
 10
421.5353716676846
 20
321.7839030194339
 30
0.0
 10
421.5128143936896
 20
321.890492777706
 30
0.0
 10
421.4677353811227
 20
322.1035043789196
 30
0.0
 10
421.3332076095511
 20
322.4133228736349
 30
0.0
 10
421.1564635193676
 20
322.7111067195183
 30
0.0
 10
420.9275821066125
 20
323.0022527631069
 30
0.0
 10
420.658364196831
 20
323.2756449801935
 30
0.0
 10
420.3410940809086
 20
323.5396047073049
 30
0.0
 10
419.9890416602194
 20
323.7826109083891
 30
0.0
 10
419.5931682924289
 20
324.0122651590165
 30
0.0
 10
419.1684598777714
 20
324.2188161181182
 30
0.0
 10
418.7059425044245
 20
324.4078188732959
 30
0.0
 10
418.2207020026414
 20
324.5721326679362
 30
0.0
 10
417.705460514613
 20
324.7151481697743
 30
0.0
 10
417.1737952538554
 20
324.8323006054186
 30
0.0
 10
416.621346204256
 20
324.9252744964454
 30
0.0
 10
416.0589553643208
 20
324.9915935554102
 30
0.0
 10
415.4859387140723
 20
325.0319398134545
 30
0.0
 10
414.9095925107986
 20
325.0452301452324
 30
0.0
 10
414.3332463075024
 20
325.0319398134566
 30
0.0
 10
413.7602296573201
 20
324.9915935554016
 30
0.0
 10
413.1978388171444
 20
324.9252744964774
 30
0.0
 10
412.6453897684145
 20
324.8323006053037
 30
0.0
 10
412.1137245044911
 20
324.7151481701935
 30
0.0
 10
411.5984830276817
 20
324.5721326664636
 30
0.0
 10
411.113242485511
 20
324.4078188786328
 30
0.0
 10
410.6507252524355
 20
324.2188160998052
 30
0.0
 10
410.2260163382318
 20
324.0122652249278
 30
0.0
 10
409.8301446738711
 20
323.7826106870993
 30
0.0
 10
409.4780862391037
 20
323.5396054999987
 30
0.0
 10
409.1608363624165
 20
323.2756423605186
 30
0.0
 10
408.891547233253
 20
323.0022621511385
 30
0.0
 10
408.6629052411334
 20
322.7110757408312
 30
0.0
 10
408.4853125158855
 20
322.4134349762363
 30
0.0
 10
408.3536994442509
 20
322.1031250582457
 30
0.0
 10
408.2762744681745
 20
321.7889664812196
 30
0.0
 10
408.2483143510614
 20
321.4700865327956
 30
0.0
 10
408.2762744681745
 20
321.1512065843717
 30
0.0
 10
408.3536994442508
 20
320.8370480073455
 30
0.0
 10
408.4853125158856
 20
320.5267380893549
 30
0.0
 10
408.6629052411332
 20
320.2290973247599
 30
0.0
 10
408.8915472332529
 20
319.9379109144528
 30
0.0
 10
409.1608363624162
 20
319.6645307050726
 30
0.0
 10
409.4780862391036
 20
319.4005675655926
 30
0.0
 10
409.8301446738709
 20
319.157562378492
 30
0.0
 10
410.2260163382317
 20
318.9279078406635
 30
0.0
 10
410.6507252524357
 20
318.7213569657862
 30
0.0
 10
411.1132424855108
 20
318.5323541869585
 30
0.0
 10
411.5984830276816
 20
318.3680403991277
 30
0.0
 10
412.113724504491
 20
318.225024895398
 30
0.0
 10
412.6453897684146
 20
318.1078724602873
 30
0.0
 10
413.1978388171444
 20
318.0148985691139
 30
0.0
 10
413.76022965732
 20
317.9485795101898
 30
0.0
 10
414.3332463075033
 20
317.9082332521344
 30
0.0
 10
414.9095925107951
 20
317.8949429203596
 30
0.0
 10
415.4859387140853
 20
317.9082332521342
 30
0.0
 10
416.0589553642734
 20
317.9485795101904
 30
0.0
 10
416.6213462044317
 20
318.0148985691117
 30
0.0
 10
417.1737952532231
 20
318.1078724602955
 30
0.0
 10
417.7054605169233
 20
318.2250248953684
 30
0.0
 10
418.220701994524
 20
318.3680403992315
 30
0.0
 10
418.7059425338459
 20
318.5323541865821
 30
0.0
 10
419.1684597768156
 20
318.7213569670778
 30
0.0
 10
419.5931686557835
 20
318.9279078360144
 30
0.0
 10
419.9890404402971
 20
319.157562394101
 30
0.0
 10
420.3410984508557
 20
319.4005675096791
 30
0.0
 10
420.6583497551368
 20
319.6645308898541
 30
0.0
 10
420.9276338607731
 20
319.937910252259
 30
0.0
 10
421.1562927406558
 20
320.2290995098713
 30
0.0
 10
421.3338256066182
 20
320.5267301820906
 30
0.0
 10
421.4656442694003
 20
320.8370747630921
 30
0.0
 10
421.5423241309583
 20
321.1511077125663
 30
0.0
 10
421.5729760312664
 20
321.470441500131
 30
0.0
 10
421.5479064555453
 20
321.6794158463329
 30
0.0
 10
421.5353716676846
 20
321.7839030194339
 30
0.0
 11
421.5353716676846
 21
321.7839030194339
 31
0.0
 11
421.4571990051308
 21
322.1005141835932
 31
0.0
 11
421.3314927500542
 21
322.4008751484849
 31
0.0
 11
421.149936366619
 21
322.7069209227875
 31
0.0
 11
420.9315743067241
 21
322.9870928462323
 31
0.0
 11
420.6538267573488
 21
323.2708964747993
 31
0.0
 11
420.3495272051696
 21
323.5252927341131
 31
0.0
 11
419.9858795798506
 21
323.7777561111712
 31
0.0
 11
419.6035465729715
 21
324.0003175313423
 31
0.0
 11
419.1662780121964
 21
324.2140383305577
 31
0.0
 11
418.7160825844973
 21
324.3984981892691
 31
0.0
 11
418.2192428628827
 21
324.5674782886854
 31
0.0
 11
417.7137561949633
 21
324.7080894060227
 31
0.0
 11
417.1728983879561
 21
324.8277567636478
 31
0.0
 11
416.6267280798393
 21
324.919824142335
 31
0.0
 11
416.0585281128
 21
324.9871224219781
 31
0.0
 11
415.4877984347493
 21
325.0273176115929
 31
0.0
 11
414.9095925107948
 21
325.0407840979316
 31
0.0
 11
414.3313865868402
 21
325.0273176115929
 31
0.0
 11
413.7606569087894
 21
324.9871224219781
 31
0.0
 11
413.1924569417502
 21
324.919824142335
 31
0.0
 11
412.6462866336333
 21
324.8277567636478
 31
0.0
 11
412.1054288266263
 21
324.7080894060227
 31
0.0
 11
411.599942158707
 21
324.5674782886854
 31
0.0
 11
411.1031024370924
 21
324.3984981892691
 31
0.0
 11
410.6529070093933
 21
324.2140383305577
 31
0.0
 11
410.2156384486182
 21
324.0003175313423
 31
0.0
 11
409.8333054417392
 21
323.7777561111712
 31
0.0
 11
409.4696578164202
 21
323.5252927341131
 31
0.0
 11
409.1653582642407
 21
323.2708964747993
 31
0.0
 11
408.8876107148656
 21
322.9870928462323
 31
0.0
 11
408.6692486549705
 21
322.7069209227875
 31
0.0
 11
408.4876922715355
 21
322.4008751484849
 31
0.0
 11
408.3619860164588
 21
322.1005141835932
 31
0.0
 11
408.2838133539051
 21
321.7839030194339
 31
0.0
 11
408.2575251629698
 21
321.4700865327956
 31
0.0
 11
408.2838133539051
 21
321.1562700461574
 31
0.0
 11
408.3619860164588
 21
320.8396588819981
 31
0.0
 11
408.4876922715354
 21
320.5392979171063
 31
0.0
 11
408.6692486549704
 21
320.2332521428037
 31
0.0
 11
408.8876107148655
 21
319.953080219359
 31
0.0
 11
409.1653582642406
 21
319.6692765907919
 31
0.0
 11
409.46965781642
 21
319.4148803314781
 31
0.0
 11
409.833305441739
 21
319.1624169544201
 31
0.0
 11
410.2156384486182
 21
318.939855534249
 31
0.0
 11
410.6529070093933
 21
318.7261347350336
 31
0.0
 11
411.1031024370924
 21
318.5416748763223
 31
0.0
 11
411.5999421587069
 21
318.372694776906
 31
0.0
 11
412.1054288266263
 21
318.2320836595686
 31
0.0
 11
412.6462866336333
 21
318.1124163019434
 31
0.0
 11
413.1924569417503
 21
318.0203489232563
 31
0.0
 11
413.7606569087895
 21
317.9530506436132
 31
0.0
 11
414.3313865868403
 21
317.9128554539984
 31
0.0
 11
414.9095925107949
 21
317.8993889676597
 31
0.0
 11
415.4877984347494
 21
317.9128554539983
 31
0.0
 11
416.0585281128001
 21
317.9530506436132
 31
0.0
 11
416.6267280798394
 21
318.0203489232563
 31
0.0
 11
417.1728983879561
 21
318.1124163019434
 31
0.0
 11
417.7137561949633
 21
318.2320836595686
 31
0.0
 11
418.2192428628827
 21
318.3726947769059
 31
0.0
 11
418.7160825844973
 21
318.5416748763223
 31
0.0
 11
419.1662780121964
 21
318.7261347350336
 31
0.0
 11
419.6035465729715
 21
318.939855534249
 31
0.0
 11
419.9858795798505
 21
319.1624169544202
 31
0.0
 11
420.3495272051695
 21
319.4148803314782
 31
0.0
 11
420.6538267573489
 21
319.669276590792
 31
0.0
 11
420.9315743067241
 21
319.953080219359
 31
0.0
 11
421.149936366619
 21
320.2332521428037
 31
0.0
 11
421.3314927500542
 21
320.5392979171063
 31
0.0
 11
421.4571990051309
 21
320.8396588819981
 31
0.0
 11
421.5353716676846
 21
321.1562700461574
 31
0.0
 11
421.5616598586198
 21
321.4700865327957
 31
0.0
 11
421.5353716676846
 21
321.7839030194339
 31
0.0
  0
SPLINE
  5
110
330
47
100
AcDbEntity
  8
1
  6
Continuous
 62
     7
100
AcDbSpline
210
0.0
220
0.0
230
1.0
 70
    11
 71
     3
 72
    79
 73
    75
 74
    73
 42
0.0000000001
 43
0.0000000001
 44
0.00000001
 40
0.0
 40
0.0
 40
0.0
 40
0.0
 40
0.2910229153818371
 40
0.5820342278738558
 40
0.8749339334364544
 40
1.16781254751935
 40
1.463561188767252
 40
1.75928280646481
 40
2.058487811140731
 40
2.357663885605917
 40
2.660503341347677
 40
2.963315625194737
 40
3.269530826276599
 40
3.575723468843868
 40
3.884662744191478
 40
4.19358602791907
 40
4.504289085610792
 40
4.814983882015421
 40
5.126294430971123
 40
5.437604979926946
 40
5.748299776331518
 40
6.05900283402315
 40
6.367926117750763
 40
6.676865393098361
 40
6.983058035665604
 40
7.289273236747514
 40
7.592085520594561
 40
7.894924976336248
 40
8.194101050801514
 40
8.493306055477399
 40
8.789027673174864
 40
9.08477631442287
 40
9.377654928505715
 40
9.67055463406842
 40
9.961565946560384
 40
10.25258886194223
 40
10.54295309984916
 40
10.83331733775609
 40
11.12434025313793
 40
11.41535156562988
 40
11.70825127119257
 40
12.00112988527546
 40
12.29687852652347
 40
12.59260014422098
 40
12.89180514889694
 40
13.19098122336209
 40
13.49382067910381
 40
13.79663296295083
 40
14.10284816403269
 40
14.40904080659998
 40
14.71798008194758
 40
15.02690336567519
 40
15.33760642336681
 40
15.64830121977143
 40
15.9596117687272
 40
16.27092231768297
 40
16.58161711408766
 40
16.89232017177924
 40
17.20124345550693
 40
17.51018273085452
 40
17.81637537342177
 40
18.12259057450365
 40
18.42540285835074
 40
18.72824231409239
 40
19.02741838855758
 40
19.32662339323343
 40
19.62234501093099
 40
19.91809365217894
 40
20.21097226626188
 40
20.5038719718246
 40
20.79488328431655
 40
21.08590619969828
 40
21.37627043760521
 40
21.66663467551219
 40
21.66663467551219
 40
21.66663467551219
 40
21.66663467551219
 10
403.0752803125631
 20
325.0271557841967
 30
0.0
 10
403.1716553712801
 20
325.0154801163953
 30
0.0
 10
403.3644016463044
 20
324.9921292462936
 30
0.0
 10
403.6483381555693
 20
324.9227732528432
 30
0.0
 10
403.9256024214282
 20
324.8293304952676
 30
0.0
 10
404.1943548052784
 20
324.7094235092906
 30
0.0
 10
404.4520001887979
 20
324.5653780041034
 30
0.0
 10
404.697227136033
 20
324.3973114032581
 30
0.0
 10
404.9274904920898
 20
324.207476670184
 30
0.0
 10
405.141722700606
 20
323.9963405415168
 30
0.0
 10
405.3376771293689
 20
323.7665609378829
 30
0.0
 10
405.5144344729894
 20
323.5188324056583
 30
0.0
 10
405.6702053069565
 20
323.2561001658246
 30
0.0
 10
405.8041737243257
 20
322.9793491541827
 30
0.0
 10
405.9150967556109
 20
322.6916171764192
 30
0.0
 10
406.0022735479824
 20
322.3942637299963
 30
0.0
 10
406.0650215580754
 20
322.0902177338533
 30
0.0
 10
406.1028219372876
 20
321.7812761380992
 30
0.0
 10
406.115499010776
 20
321.4700865327966
 30
0.0
 10
406.1028219372877
 20
321.1588969274883
 30
0.0
 10
406.065021558074
 20
320.8499553317512
 30
0.0
 10
406.0022735479871
 20
320.5459093355463
 30
0.0
 10
405.9150967555942
 20
320.2485558893525
 30
0.0
 10
405.8041737243887
 20
319.9608239107377
 30
0.0
 10
405.6702053067232
 20
319.6840729022457
 30
0.0
 10
405.5144344738561
 20
319.4213406507215
 30
0.0
 10
405.3376771261746
 20
319.1736121616632
 30
0.0
 10
405.1417227124715
 20
318.9438323979425
 30
0.0
 10
404.9274904484003
 20
318.7326968598345
 30
0.0
 10
404.6972272983658
 20
318.5428599367069
 30
0.0
 10
404.4519995907708
 20
318.3748014186122
 30
0.0
 10
404.1943570290914
 20
318.2307259168192
 30
0.0
 10
403.9255942112
 20
318.1109298463395
 30
0.0
 10
403.6483687255078
 20
318.0170748494983
 30
0.0
 10
403.3642883720051
 20
317.9492479429084
 30
0.0
 10
403.0759208914922
 20
317.9085529812846
 30
0.0
 10
402.7852368578128
 20
317.8947871877198
 30
0.0
 10
402.4945528241331
 20
317.9085529812845
 30
0.0
 10
402.2061853436204
 20
317.9492479429084
 30
0.0
 10
401.9221049901177
 20
318.017074849498
 30
0.0
 10
401.6448795044255
 20
318.1109298463396
 30
0.0
 10
401.376116686534
 20
318.2307259168191
 30
0.0
 10
401.1184741248547
 20
318.3748014186122
 30
0.0
 10
400.8732464172594
 20
318.5428599367069
 30
0.0
 10
400.6429832672251
 20
318.7326968598346
 30
0.0
 10
400.428751003154
 20
318.9438323979425
 30
0.0
 10
400.2327965894508
 20
319.1736121616631
 30
0.0
 10
400.0560392417696
 20
319.4213406507215
 30
0.0
 10
399.9002684089022
 20
319.6840729022457
 30
0.0
 10
399.7662999912369
 20
319.9608239107378
 30
0.0
 10
399.6553769600312
 20
320.2485558893525
 30
0.0
 10
399.5682001676386
 20
320.5459093355464
 30
0.0
 10
399.5054521575512
 20
320.849955331751
 30
0.0
 10
399.4676517783377
 20
321.1588969274886
 30
0.0
 10
399.4549747048494
 20
321.4700865327956
 30
0.0
 10
399.4676517783377
 20
321.7812761381026
 30
0.0
 10
399.5054521575514
 20
322.0902177338411
 30
0.0
 10
399.568200167638
 20
322.3942637300415
 30
0.0
 10
399.6553769600325
 20
322.6916171762517
 30
0.0
 10
399.7662999912321
 20
322.9793491548055
 30
0.0
 10
399.900268408919
 20
323.2561001635235
 30
0.0
 10
400.0560392417073
 20
323.5188324142093
 30
0.0
 10
400.2327965896798
 20
323.7665609063632
 30
0.0
 10
400.4287510023029
 20
323.9963406586035
 30
0.0
 10
400.6429832703582
 20
324.2074762390631
 30
0.0
 10
400.8732464056178
 20
324.3973130051314
 30
0.0
 10
401.1184741677419
 20
324.5653721028789
 30
0.0
 10
401.3761165270539
 20
324.7094454534724
 30
0.0
 10
401.6448800932197
 20
324.8292494782296
 30
0.0
 10
401.9221027978022
 20
324.9230749114348
 30
0.0
 10
402.2061934670583
 20
324.9910114761067
 30
0.0
 10
402.4945225281294
 20
325.0312980330236
 30
0.0
 10
402.7853496407952
 20
325.0465847787075
 30
0.0
 10
402.978636755307
 20
325.0336321157002
 30
0.0
 10
403.0752803125631
 20
325.0271557841967
 30
0.0
 11
403.0752803125631
 21
325.0271557841967
 31
0.0
 11
403.3634398088379
 21
324.9864318111102
 31
0.0
 11
403.6465220152205
 21
324.9189629410448
 31
0.0
 11
403.9239460577643
 21
324.8250154124061
 31
0.0
 11
404.1915078098817
 21
324.7058995386067
 31
0.0
 11
404.4496401785968
 21
324.5615564091496
 31
0.0
 11
404.693652831208
 21
324.3944962387338
 31
0.0
 11
404.9245323367388
 21
324.204185207133
 31
0.0
 11
405.1377076316901
 21
323.9942742327776
 31
0.0
 11
405.3342419556985
 21
323.7638702496512
 31
0.0
 11
405.510215491498
 21
323.5174385269634
 31
0.0
 11
405.6664126319708
 21
323.2540562901255
 31
0.0
 11
405.7999083199351
 21
322.9784971573477
 31
0.0
 11
405.9110582454921
 21
322.6902452364504
 31
0.0
 11
405.9980348995185
 21
322.39381875841
 31
0.0
 11
406.0608399738401
 21
322.0895295658671
 31
0.0
 11
406.0986153355117
 21
321.7811397499465
 31
0.0
 11
406.1112705317252
 21
321.4700865327957
 31
0.0
 11
406.0986153355115
 21
321.1590333156447
 31
0.0
 11
406.0608399738399
 21
320.8506434997242
 31
0.0
 11
405.9980348995185
 21
320.5463543071813
 31
0.0
 11
405.9110582454923
 21
320.2499278291409
 31
0.0
 11
405.7999083199351
 21
319.9616759082437
 31
0.0
 11
405.6664126319708
 21
319.6861167754659
 31
0.0
 11
405.510215491498
 21
319.422734538628
 31
0.0
 11
405.3342419556984
 21
319.1763028159402
 31
0.0
 11
405.1377076316901
 21
318.9458988328138
 31
0.0
 11
404.9245323367388
 21
318.7359878584583
 31
0.0
 11
404.693652831208
 21
318.5456768268575
 31
0.0
 11
404.449640178597
 21
318.3786166564418
 31
0.0
 11
404.1915078098817
 21
318.2342735269846
 31
0.0
 11
403.9239460577644
 21
318.1151576531852
 31
0.0
 11
403.6465220152205
 21
318.0212101245464
 31
0.0
 11
403.363439808838
 21
317.953741254481
 31
0.0
 11
403.0752803125631
 21
317.9130172813945
 31
0.0
 11
402.7852368578127
 21
317.8993723185242
 31
0.0
 11
402.4951934030623
 21
317.9130172813945
 31
0.0
 11
402.2070339067874
 21
317.953741254481
 31
0.0
 11
401.9239517004049
 21
318.0212101245463
 31
0.0
 11
401.6465276578611
 21
318.1151576531852
 31
0.0
 11
401.3789659057437
 21
318.2342735269846
 31
0.0
 11
401.1208335370285
 21
318.3786166564418
 31
0.0
 11
400.8768208844174
 21
318.5456768268575
 31
0.0
 11
400.6459413788865
 21
318.7359878584583
 31
0.0
 11
400.4327660839354
 21
318.9458988328138
 31
0.0
 11
400.236231759927
 21
319.1763028159402
 31
0.0
 11
400.0602582241275
 21
319.422734538628
 31
0.0
 11
399.9040610836547
 21
319.6861167754659
 31
0.0
 11
399.7705653956904
 21
319.9616759082437
 31
0.0
 11
399.6594154701332
 21
320.2499278291409
 31
0.0
 11
399.5724388161069
 21
320.5463543071813
 31
0.0
 11
399.5096337417854
 21
320.8506434997242
 31
0.0
 11
399.4718583801138
 21
321.1590333156447
 31
0.0
 11
399.4592031839001
 21
321.4700865327956
 31
0.0
 11
399.4718583801138
 21
321.7811397499465
 31
0.0
 11
399.5096337417854
 21
322.0895295658671
 31
0.0
 11
399.5724388161069
 21
322.39381875841
 31
0.0
 11
399.6594154701332
 21
322.6902452364504
 31
0.0
 11
399.7705653956904
 21
322.9784971573477
 31
0.0
 11
399.9040610836547
 21
323.2540562901255
 31
0.0
 11
400.0602582241274
 21
323.5174385269634
 31
0.0
 11
400.236231759927
 21
323.7638702496512
 31
0.0
 11
400.4327660839352
 21
323.9942742327776
 31
0.0
 11
400.6459413788865
 21
324.2041852071331
 31
0.0
 11
400.8768208844173
 21
324.3944962387338
 31
0.0
 11
401.1208335370284
 21
324.5615564091495
 31
0.0
 11
401.3789659057437
 21
324.7058995386066
 31
0.0
 11
401.646527657861
 21
324.8250154124061
 31
0.0
 11
401.9239517004049
 21
324.9189629410449
 31
0.0
 11
402.2070339067874
 21
324.9864318111103
 31
0.0
 11
402.4951934030622
 21
325.0271557841968
 31
0.0
 11
402.7852368578126
 21
325.040800747067
 31
0.0
 11
403.0752803125631
 21
325.0271557841967
 31
0.0
  0
SPLINE
  5
111
330
47
100
AcDbEntity
  8
1
  6
Continuous
 62
     7
100
AcDbSpline
210
0.0
220
0.0
230
1.0
 70
    11
 71
     3
 72
    79
 73
    75
 74
    73
 42
0.0000000001
 43
0.0000000001
 44
0.00000001
 40
0.0
 40
0.0
 40
0.0
 40
0.0
 40
0.3210813131182096
 40
0.6418951451339559
 40
0.9828988941042791
 40
1.323531056220941
 40
1.692967059529065
 40
2.062075182676638
 40
2.463733858567354
 40
2.865152866614857
 40
3.298564783375521
 40
3.731815227792809
 40
4.193131264619121
 40
4.6543441716607
 40
5.137240970539529
 40
5.6200771034921
 40
6.116559529336264
 40
6.613013907632064
 40
7.11412123439224
 40
7.615228561152415
 40
8.111682939448139
 40
8.608165365292258
 40
9.091001498244808
 40
9.573898297123884
 40
10.03511120416572
 40
10.49642724099197
 40
10.92967768540916
 40
11.36308960216987
 40
11.76450861021739
 40
12.16616728610821
 40
12.53527540925576
 40
12.90471141256382
 40
13.24534357468031
 40
13.58634732365066
 40
13.90716115566641
 40
14.22824246878468
 40
14.54200445402335
 40
14.85576643926201
 40
15.17684775238028
 40
15.49766158439604
 40
15.83866533336649
 40
16.179297495483
 40
16.54873349879106
 40
16.91784162193859
 40
17.31950029782933
 40
17.72091930587683
 40
18.15433122263749
 40
18.58758166705476
 40
19.04889770388114
 40
19.510110610923
 40
19.99300740980208
 40
20.47584354275467
 40
20.97232596859878
 40
21.46878034689435
 40
21.96988767365444
 40
22.47099500041473
 40
22.96744937871062
 40
23.4639318045546
 40
23.94676793750697
 40
24.42966473638596
 40
24.89087764342773
 40
25.35219368025407
 40
25.78544412467136
 40
26.21885604143198
 40
26.6202750494795
 40
27.02193372537031
 40
27.39104184851797
 40
27.76047785182603
 40
28.10111001394247
 40
28.44211376291292
 40
28.76292759492868
 40
29.08400890804694
 40
29.3977708932856
 40
29.71153287852432
 40
29.71153287852432
 40
29.71153287852432
 40
29.71153287852432
 10
177.1548692164009
 20
322.7830413843614
 30
0.0
 10
177.1741490675976
 20
322.8885024698734
 30
0.0
 10
177.212692708652
 20
323.0993367851228
 30
0.0
 10
177.3277460207283
 20
323.407676409402
 30
0.0
 10
177.4801344870649
 20
323.7057645028491
 30
0.0
 10
177.6772111314618
 20
323.9964365866724
 30
0.0
 10
177.9103976413737
 20
324.2712021647676
 30
0.0
 10
178.1845661079441
 20
324.5352311097585
 30
0.0
 10
178.4901093080524
 20
324.7796150856501
 30
0.0
 10
178.8327268989578
 20
325.0094866599073
 30
0.0
 10
179.2014231157335
 20
325.2170539120397
 30
0.0
 10
179.6019778578758
 20
325.4062708716154
 30
0.0
 10
180.0230823550282
 20
325.5712354867688
 30
0.0
 10
180.4694406609893
 20
325.7144195084001
 30
0.0
 10
180.9306365188224
 20
325.8319467353373
 30
0.0
 10
181.4093316151782
 20
325.925030541839
 30
0.0
 10
181.8969989241751
 20
325.9915333404001
 30
0.0
 10
182.3936167299261
 20
326.0319189028575
 30
0.0
 10
182.8932375454976
 20
326.0452623830597
 30
0.0
 10
183.3928583610852
 20
326.0319189028589
 30
0.0
 10
183.8894761667884
 20
325.9915333403946
 30
0.0
 10
184.3771434759581
 20
325.9250305418586
 30
0.0
 10
184.855838571687
 20
325.8319467352667
 30
0.0
 10
185.3170344318116
 20
325.7144195086597
 30
0.0
 10
185.7633927295881
 20
325.571235485849
 30
0.0
 10
186.1844972563815
 20
325.4062708749656
 30
0.0
 10
186.5850518943093
 20
325.2170539003767
 30
0.0
 10
186.9537484854971
 20
325.0094867021828
 30
0.0
 10
187.2963647769746
 20
324.779614940728
 30
0.0
 10
187.6019126206138
 20
324.5352316337903
 30
0.0
 10
187.8760650862919
 20
324.2712003836869
 30
0.0
 10
188.1093087512739
 20
323.9964430394358
 30
0.0
 10
188.3061877847422
 20
323.7057424874906
 30
0.0
 10
188.4592873269574
 20
323.4077568326837
 30
0.0
 10
188.5718347974671
 20
323.099056213171
 30
0.0
 10
188.6383863078282
 20
322.7864855759344
 30
0.0
 10
188.6618615645154
 20
322.4700865327957
 30
0.0
 10
188.6383863078285
 20
322.153687489657
 30
0.0
 10
188.5718347974674
 20
321.8411168524203
 30
0.0
 10
188.4592873269576
 20
321.5324162329077
 30
0.0
 10
188.3061877847424
 20
321.2344305781008
 30
0.0
 10
188.109308751274
 20
320.9437300261556
 30
0.0
 10
187.876065086292
 20
320.6689726819044
 30
0.0
 10
187.6019126206139
 20
320.4049414318009
 30
0.0
 10
187.2963647769748
 20
320.1605581248633
 30
0.0
 10
186.9537484854973
 20
319.9306863634087
 30
0.0
 10
186.5850518943096
 20
319.7231191652145
 30
0.0
 10
186.1844972563817
 20
319.5339021906257
 30
0.0
 10
185.7633927295881
 20
319.3689375797422
 30
0.0
 10
185.3170344318117
 20
319.2257535569318
 30
0.0
 10
184.855838571687
 20
319.1082263303247
 30
0.0
 10
184.377143475958
 20
319.0151425237329
 30
0.0
 10
183.8894761667886
 20
318.9486397251966
 30
0.0
 10
183.3928583610846
 20
318.9082541627326
 30
0.0
 10
182.8932375455002
 20
318.8949106825319
 30
0.0
 10
182.3936167299169
 20
318.9082541627323
 30
0.0
 10
181.8969989242094
 20
318.9486397251972
 30
0.0
 10
181.4093316150523
 20
319.0151425237315
 30
0.0
 10
180.930636519279
 20
319.1082263303296
 30
0.0
 10
180.469440659317
 20
319.2257535569134
 30
0.0
 10
180.0230823609597
 20
319.3689375798078
 30
0.0
 10
179.6019778362698
 20
319.533902190388
 30
0.0
 10
179.2014231909463
 20
319.7231191660422
 30
0.0
 10
178.8327266263284
 20
319.9306863604086
 30
0.0
 10
178.4901102426383
 20
320.1605581351476
 30
0.0
 10
178.1845627285229
 20
320.4049413946136
 30
0.0
 10
177.9104091273564
 20
320.6689728082971
 30
0.0
 10
177.6771695183302
 20
320.9437295682413
 30
0.0
 10
177.4802764615881
 20
321.2344321404
 30
0.0
 10
177.3272273802041
 20
321.532410525745
 30
0.0
 10
177.2145020850032
 20
321.841136762945
 30
0.0
 10
177.1486011390165
 20
322.1536136789181
 30
0.0
 10
177.1227496298525
 20
322.4703550484949
 30
0.0
 10
177.1441626875514
 20
322.6788126057392
 30
0.0
 10
177.1548692164009
 20
322.7830413843614
 30
0.0
 11
177.1548692164009
 21
322.7830413843614
 31
0.0
 11
177.2218647581036
 21
323.0970554079745
 31
0.0
 11
177.3308195902479
 21
323.3988009288444
 31
0.0
 11
177.4862444568252
 21
323.7023246802399
 31
0.0
 11
177.6764801809309
 21
323.984885539423
 31
0.0
 11
177.9149734774862
 21
324.2670271847688
 31
0.0
 11
178.1803106065912
 21
324.5236144301491
 31
0.0
 11
178.493471963813
 21
324.7751291538957
 31
0.0
 11
178.8264990829939
 21
324.9992500094891
 31
0.0
 11
179.2038274457121
 21
325.2124850823042
 31
0.0
 11
179.5953951149057
 21
325.3979054372551
 31
0.0
 11
180.0247284666448
 21
325.5666814987021
 31
0.0
 11
180.4638175551451
 21
325.7078130613722
 31
0.0
 11
180.9316634455458
 21
325.8274355559233
 31
0.0
 11
181.4055954730446
 21
325.9197348765896
 31
0.0
 11
181.8974921797383
 21
325.9870581943629
 31
0.0
 11
182.3923117317207
 21
326.0273143827699
 31
0.0
 11
182.8932375455003
 21
326.0408007470671
 31
0.0
 11
183.3941633592799
 21
326.0273143827699
 31
0.0
 11
183.8889829112622
 21
325.9870581943628
 31
0.0
 11
184.3808796179558
 21
325.9197348765896
 31
0.0
 11
184.8548116454547
 21
325.8274355559234
 31
0.0
 11
185.3226575358556
 21
325.7078130613724
 31
0.0
 11
185.7617466243561
 21
325.5666814987021
 31
0.0
 11
186.1910799760952
 21
325.3979054372551
 31
0.0
 11
186.5826476452886
 21
325.2124850823042
 31
0.0
 11
186.959976008007
 21
324.999250009489
 31
0.0
 11
187.2930031271879
 21
324.7751291538957
 31
0.0
 11
187.6061644844096
 21
324.5236144301489
 31
0.0
 11
187.8715016135146
 21
324.2670271847686
 31
0.0
 11
188.1099949100699
 21
323.9848855394229
 31
0.0
 11
188.3002306341756
 21
323.70232468024
 31
0.0
 11
188.4556555007528
 21
323.3988009288444
 31
0.0
 11
188.5646103328971
 21
323.0970554079745
 31
0.0
 11
188.6316058745999
 21
322.7830413843614
 31
0.0
 11
188.6540968564018
 21
322.4700865327957
 31
0.0
 11
188.6316058746001
 21
322.15713168123
 31
0.0
 11
188.5646103328974
 21
321.8431176576169
 31
0.0
 11
188.455655500753
 21
321.541372136747
 31
0.0
 11
188.3002306341757
 21
321.2378483853513
 31
0.0
 11
188.10999491007
 21
320.9552875261684
 31
0.0
 11
187.8715016135147
 21
320.6731458808227
 31
0.0
 11
187.6061644844098
 21
320.4165586354424
 31
0.0
 11
187.2930031271881
 21
320.1650439116957
 31
0.0
 11
186.9599760080072
 21
319.9409230561023
 31
0.0
 11
186.5826476452889
 21
319.7276879832871
 31
0.0
 11
186.1910799760954
 21
319.5422676283363
 31
0.0
 11
185.7617466243561
 21
319.3734915668892
 31
0.0
 11
185.3226575358556
 21
319.232360004219
 31
0.0
 11
184.8548116454547
 21
319.1127375096679
 31
0.0
 11
184.3808796179558
 21
319.0204381890018
 31
0.0
 11
183.8889829112621
 21
318.9531148712285
 31
0.0
 11
183.39416335928
 21
318.9128586828216
 31
0.0
 11
182.8932375455005
 21
318.8993723185242
 31
0.0
 11
182.3923117317208
 21
318.9128586828215
 31
0.0
 11
181.8974921797383
 21
318.9531148712286
 31
0.0
 11
181.4055954730448
 21
319.0204381890018
 31
0.0
 11
180.9316634455462
 21
319.1127375096679
 31
0.0
 11
180.4638175551453
 21
319.2323600042191
 31
0.0
 11
180.0247284666449
 21
319.3734915668894
 31
0.0
 11
179.5953951149057
 21
319.5422676283363
 31
0.0
 11
179.2038274457121
 21
319.7276879832871
 31
0.0
 11
178.8264990829939
 21
319.9409230561023
 31
0.0
 11
178.493471963813
 21
320.1650439116957
 31
0.0
 11
178.1803106065912
 21
320.4165586354424
 31
0.0
 11
177.9149734774861
 21
320.6731458808227
 31
0.0
 11
177.6764801809308
 21
320.9552875261685
 31
0.0
 11
177.4862444568252
 21
321.2378483853513
 31
0.0
 11
177.3308195902478
 21
321.541372136747
 31
0.0
 11
177.2218647581035
 21
321.8431176576169
 31
0.0
 11
177.1548692164008
 21
322.15713168123
 31
0.0
 11
177.132378234599
 21
322.4700865327957
 31
0.0
 11
177.1548692164009
 21
322.7830413843614
 31
0.0
  0
SPLINE
  5
112
330
47
100
AcDbEntity
  8
1
  6
Continuous
 62
     7
100
AcDbSpline
210
0.0
220
0.0
230
1.0
 70
    11
 71
     3
 72
    79
 73
    75
 74
    73
 42
0.0000000001
 43
0.0000000001
 44
0.00000001
 40
0.0
 40
0.0
 40
0.0
 40
0.0
 40
0.3210813131182333
 40
0.6418951451339987
 40
0.982898894104335
 40
1.323531056220949
 40
1.692967059529055
 40
2.062075182676587
 40
2.463733858567302
 40
2.865152866614782
 40
3.298564783375397
 40
3.731815227792685
 40
4.193131264618971
 40
4.654344171660712
 40
5.137240970539707
 40
5.620077103492251
 40
6.116559529336386
 40
6.613013907632101
 40
7.114121234392276
 40
7.615228561152452
 40
8.11168293944829
 40
8.608165365292409
 40
9.09100149824496
 40
9.573898297123927
 40
10.03511120416568
 40
10.49642724099201
 40
10.92967768540925
 40
11.36308960216986
 40
11.76450861021733
 40
12.16616728610809
 40
12.5352754092556
 40
12.90471141256368
 40
13.24534357468019
 40
13.58634732365055
 40
13.90716115566631
 40
14.2282424687846
 40
14.54200445402327
 40
14.85576643926193
 40
15.1768477523802
 40
15.49766158439599
 40
15.83866533336646
 40
16.17929749548295
 40
16.548733498791
 40
16.91784162193855
 40
17.31950029782929
 40
17.72091930587678
 40
18.15433122263747
 40
18.58758166705469
 40
19.04889770388105
 40
19.51011061092285
 40
19.99300740980184
 40
20.47584354275436
 40
20.97232596859841
 40
21.46878034689409
 40
21.96988767365421
 40
22.47099500041444
 40
22.96744937871025
 40
23.46393180455437
 40
23.94676793750691
 40
24.42966473638593
 40
24.89087764342775
 40
25.35219368025399
 40
25.78544412467123
 40
26.21885604143187
 40
26.6202750494794
 40
27.02193372537014
 40
27.39104184851771
 40
27.76047785182573
 40
28.10111001394218
 40
28.4421137629126
 40
28.76292759492839
 40
29.08400890804667
 40
29.39777089328534
 40
29.71153287852406
 40
29.71153287852406
 40
29.71153287852406
 40
29.71153287852406
 10
174.6316058745998
 20
322.7830413843614
 30
0.0
 10
174.6123260234029
 20
322.8885024698733
 30
0.0
 10
174.5737823823484
 20
323.0993367851228
 30
0.0
 10
174.4587290702722
 20
323.407676409402
 30
0.0
 10
174.3063406039356
 20
323.7057645028492
 30
0.0
 10
174.1092639595387
 20
323.9964365866723
 30
0.0
 10
173.876077449627
 20
324.2712021647675
 30
0.0
 10
173.6019089830565
 20
324.5352311097585
 30
0.0
 10
173.2963657829483
 20
324.7796150856502
 30
0.0
 10
172.9537481920429
 20
325.0094866599073
 30
0.0
 10
172.5850519752672
 20
325.2170539120397
 30
0.0
 10
172.184497233125
 20
325.4062708716153
 30
0.0
 10
171.7633927359726
 20
325.5712354867688
 30
0.0
 10
171.3170344300113
 20
325.7144195084002
 30
0.0
 10
170.8558385721781
 20
325.8319467353373
 30
0.0
 10
170.3771434758222
 20
325.925030541839
 30
0.0
 10
169.8894761668254
 20
325.9915333404
 30
0.0
 10
169.3928583610745
 20
326.0319189028576
 30
0.0
 10
168.893237545503
 20
326.0452623830598
 30
0.0
 10
168.3936167299154
 20
326.0319189028589
 30
0.0
 10
167.8969989242121
 20
325.9915333403945
 30
0.0
 10
167.4093316150424
 20
325.9250305418585
 30
0.0
 10
166.9306365193135
 20
325.8319467352667
 30
0.0
 10
166.4694406591889
 20
325.7144195086596
 30
0.0
 10
166.0230823614126
 20
325.571235485849
 30
0.0
 10
165.601977834619
 20
325.4062708749656
 30
0.0
 10
165.2014231966912
 20
325.2170539003768
 30
0.0
 10
164.8327266055035
 20
325.0094867021826
 30
0.0
 10
164.4901103140261
 20
324.7796149407282
 30
0.0
 10
164.1845624703871
 20
324.5352316337902
 30
0.0
 10
163.9104100047088
 20
324.271200383687
 30
0.0
 10
163.6771663397269
 20
323.9964430394358
 30
0.0
 10
163.4802873062585
 20
323.7057424874905
 30
0.0
 10
163.3271877640434
 20
323.4077568326837
 30
0.0
 10
163.2146402935335
 20
323.099056213171
 30
0.0
 10
163.1480887831724
 20
322.7864855759344
 30
0.0
 10
163.1246135264852
 20
322.4700865327958
 30
0.0
 10
163.1480887831723
 20
322.1536874896569
 30
0.0
 10
163.2146402935333
 20
321.8411168524203
 30
0.0
 10
163.3271877640432
 20
321.5324162329076
 30
0.0
 10
163.4802873062585
 20
321.2344305781007
 30
0.0
 10
163.6771663397269
 20
320.9437300261557
 30
0.0
 10
163.9104100047087
 20
320.6689726819043
 30
0.0
 10
164.1845624703869
 20
320.404941431801
 30
0.0
 10
164.490110314026
 20
320.1605581248632
 30
0.0
 10
164.8327266055035
 20
319.9306863634087
 30
0.0
 10
165.2014231966911
 20
319.7231191652145
 30
0.0
 10
165.6019778346192
 20
319.5339021906256
 30
0.0
 10
166.0230823614125
 20
319.3689375797424
 30
0.0
 10
166.4694406591891
 20
319.2257535569318
 30
0.0
 10
166.9306365193137
 20
319.1082263303247
 30
0.0
 10
167.4093316150426
 20
319.015142523733
 30
0.0
 10
167.8969989242119
 20
318.9486397251966
 30
0.0
 10
168.393616729916
 20
318.9082541627325
 30
0.0
 10
168.8932375455003
 20
318.8949106825319
 30
0.0
 10
169.3928583610836
 20
318.9082541627322
 30
0.0
 10
169.8894761667912
 20
318.9486397251972
 30
0.0
 10
170.3771434759483
 20
319.0151425237314
 30
0.0
 10
170.8558385717218
 20
319.1082263303296
 30
0.0
 10
171.3170344316838
 20
319.2257535569134
 30
0.0
 10
171.763392730041
 20
319.3689375798078
 30
0.0
 10
172.184497254731
 20
319.5339021903879
 30
0.0
 10
172.5850519000544
 20
319.7231191660422
 30
0.0
 10
172.9537484646723
 20
319.9306863604086
 30
0.0
 10
173.2963648483624
 20
320.1605581351476
 30
0.0
 10
173.6019123624778
 20
320.4049413946137
 30
0.0
 10
173.8760659636442
 20
320.6689728082969
 30
0.0
 10
174.1093055726702
 20
320.9437295682413
 30
0.0
 10
174.3061986294124
 20
321.2344321404
 30
0.0
 10
174.4592477107963
 20
321.5324105257451
 30
0.0
 10
174.5719730059973
 20
321.8411367629451
 30
0.0
 10
174.6378739519841
 20
322.1536136789181
 30
0.0
 10
174.6637254611482
 20
322.4703550484948
 30
0.0
 10
174.6423124034492
 20
322.6788126057392
 30
0.0
 10
174.6316058745998
 20
322.7830413843614
 30
0.0
 11
174.6316058745998
 21
322.7830413843614
 31
0.0
 11
174.564610332897
 21
323.0970554079745
 31
0.0
 11
174.4556555007526
 21
323.3988009288444
 31
0.0
 11
174.3002306341753
 21
323.7023246802399
 31
0.0
 11
174.1099949100697
 21
323.984885539423
 31
0.0
 11
173.8715016135144
 21
324.2670271847688
 31
0.0
 11
173.6061644844094
 21
324.5236144301491
 31
0.0
 11
173.2930031271877
 21
324.7751291538957
 31
0.0
 11
172.9599760080068
 21
324.9992500094891
 31
0.0
 11
172.5826476452886
 21
325.2124850823042
 31
0.0
 11
172.1910799760951
 21
325.3979054372551
 31
0.0
 11
171.7617466243559
 21
325.5666814987021
 31
0.0
 11
171.3226575358555
 21
325.7078130613722
 31
0.0
 11
170.8548116454546
 21
325.8274355559233
 31
0.0
 11
170.3808796179558
 21
325.9197348765896
 31
0.0
 11
169.8889829112622
 21
325.9870581943629
 31
0.0
 11
169.3941633592799
 21
326.0273143827699
 31
0.0
 11
168.8932375455003
 21
326.0408007470671
 31
0.0
 11
168.3923117317207
 21
326.0273143827699
 31
0.0
 11
167.8974921797383
 21
325.9870581943628
 31
0.0
 11
167.4055954730446
 21
325.9197348765896
 31
0.0
 11
166.9316634455458
 21
325.8274355559234
 31
0.0
 11
166.463817555145
 21
325.7078130613724
 31
0.0
 11
166.0247284666446
 21
325.5666814987021
 31
0.0
 11
165.5953951149054
 21
325.3979054372551
 31
0.0
 11
165.2038274457119
 21
325.2124850823042
 31
0.0
 11
164.8264990829937
 21
324.999250009489
 31
0.0
 11
164.4934719638128
 21
324.7751291538957
 31
0.0
 11
164.1803106065912
 21
324.5236144301489
 31
0.0
 11
163.9149734774862
 21
324.2670271847686
 31
0.0
 11
163.6764801809309
 21
323.9848855394229
 31
0.0
 11
163.4862444568252
 21
323.70232468024
 31
0.0
 11
163.3308195902479
 21
323.3988009288444
 31
0.0
 11
163.2218647581036
 21
323.0970554079745
 31
0.0
 11
163.1548692164008
 21
322.7830413843614
 31
0.0
 11
163.1323782345988
 21
322.4700865327957
 31
0.0
 11
163.1548692164006
 21
322.15713168123
 31
0.0
 11
163.2218647581033
 21
321.8431176576169
 31
0.0
 11
163.3308195902478
 21
321.541372136747
 31
0.0
 11
163.4862444568252
 21
321.2378483853513
 31
0.0
 11
163.6764801809308
 21
320.9552875261684
 31
0.0
 11
163.9149734774861
 21
320.6731458808227
 31
0.0
 11
164.180310606591
 21
320.4165586354424
 31
0.0
 11
164.4934719638127
 21
320.1650439116957
 31
0.0
 11
164.8264990829936
 21
319.9409230561023
 31
0.0
 11
165.2038274457119
 21
319.7276879832871
 31
0.0
 11
165.5953951149054
 21
319.5422676283363
 31
0.0
 11
166.0247284666446
 21
319.3734915668892
 31
0.0
 11
166.4638175551451
 21
319.232360004219
 31
0.0
 11
166.931663445546
 21
319.1127375096679
 31
0.0
 11
167.4055954730447
 21
319.0204381890018
 31
0.0
 11
167.8974921797383
 21
318.9531148712285
 31
0.0
 11
168.3923117317206
 21
318.9128586828216
 31
0.0
 11
168.8932375455001
 21
318.8993723185242
 31
0.0
 11
169.3941633592798
 21
318.9128586828215
 31
0.0
 11
169.8889829112621
 21
318.9531148712286
 31
0.0
 11
170.3808796179558
 21
319.0204381890018
 31
0.0
 11
170.8548116454546
 21
319.1127375096679
 31
0.0
 11
171.3226575358555
 21
319.2323600042191
 31
0.0
 11
171.761746624356
 21
319.3734915668894
 31
0.0
 11
172.1910799760951
 21
319.5422676283363
 31
0.0
 11
172.5826476452886
 21
319.7276879832871
 31
0.0
 11
172.9599760080068
 21
319.9409230561023
 31
0.0
 11
173.2930031271878
 21
320.1650439116957
 31
0.0
 11
173.6061644844094
 21
320.4165586354424
 31
0.0
 11
173.8715016135144
 21
320.6731458808227
 31
0.0
 11
174.1099949100696
 21
320.9552875261685
 31
0.0
 11
174.3002306341753
 21
321.2378483853513
 31
0.0
 11
174.4556555007526
 21
321.541372136747
 31
0.0
 11
174.564610332897
 21
321.8431176576169
 31
0.0
 11
174.6316058745998
 21
322.15713168123
 31
0.0
 11
174.6540968564017
 21
322.4700865327957
 31
0.0
 11
174.6316058745998
 21
322.7830413843614
 31
0.0
  0
ARC
  5
113
330
47
100
AcDbEntity
  8
1
  6
Continuous
 62
     7
100
AcDbCircle
 10
187.4512586072309
 20
318.6125495682372
 30
0.0
 40
1.0
100
AcDbArc
 50
-90.0
 51
-74.66244233044709
  0
ARC
  5
114
330
47
100
AcDbEntity
  8
1
  6
Continuous
 62
     7
100
AcDbCircle
 10
185.6611867379314
 20
317.6125495682372
 30
0.0
 40
1.0
100
AcDbArc
 50
-90.0
 51
-30.00000000000054
  0
ARC
  5
115
330
47
100
AcDbEntity
  8
1
  6
Continuous
 62
     7
100
AcDbCircle
 10
187.3932375455003
 20
316.6125495682372
 30
0.0
 40
1.0
100
AcDbArc
 50
90.0
 51
150.0000000000019
  0
ARC
  5
116
330
47
100
AcDbEntity
  8
1
  6
Continuous
 62
     7
100
AcDbCircle
 10
164.3352164837696
 20
318.6125495682372
 30
0.0
 40
0.9999999999999741
100
AcDbArc
 50
-105.3375576695592
 51
-90.0
  0
ARC
  5
117
330
47
100
AcDbEntity
  8
1
  6
Continuous
 62
     7
100
AcDbCircle
 10
166.125288353069
 20
317.6125495682372
 30
0.0
 40
0.9999999999999836
100
AcDbArc
 50
-149.9999999999995
 51
-90.0
  0
ARC
  5
118
330
47
100
AcDbEntity
  8
1
  6
Continuous
 62
     7
100
AcDbCircle
 10
164.3932375455001
 20
316.6125495682372
 30
0.0
 40
1.000000000000033
100
AcDbArc
 50
29.99999999999892
 51
90.0
  0
ARC
  5
119
330
47
100
AcDbEntity
  8
1
  6
Continuous
 62
     7
100
AcDbCircle
 10
426.4676135725254
 20
317.6125495682372
 30
0.0
 40
1.0
100
AcDbArc
 50
-90.0
 51
-74.6624423304408
  0
ARC
  5
11A
330
47
100
AcDbEntity
  8
1
  6
Continuous
 62
     7
100
AcDbCircle
 10
424.677541703226
 20
316.6125495682372
 30
0.0
 40
1.0
100
AcDbArc
 50
-90.0
 51
-30.00000000000054
  0
ARC
  5
11B
330
47
100
AcDbEntity
  8
1
  6
Continuous
 62
     7
100
AcDbCircle
 10
426.4095925107949
 20
315.6125495682372
 30
0.0
 40
1.0
100
AcDbArc
 50
90.0
 51
150.0000000000011
  0
ARC
  5
11C
330
47
100
AcDbEntity
  8
1
  6
Continuous
 62
     7
100
AcDbCircle
 10
403.3515714490643
 20
317.6125495682372
 30
0.0
 40
0.9999999999999741
100
AcDbArc
 50
-105.3375576695592
 51
-90.0
  0
ARC
  5
11D
330
47
100
AcDbEntity
  8
1
  6
Continuous
 62
     7
100
AcDbCircle
 10
405.1416433183637
 20
316.6125495682372
 30
0.0
 40
0.9999999999999836
100
AcDbArc
 50
-149.9999999999995
 51
-90.0
  0
ARC
  5
11E
330
47
100
AcDbEntity
  8
1
  6
Continuous
 62
     7
100
AcDbCircle
 10
403.4095925107949
 20
315.6125495682372
 30
0.0
 40
0.9999999999999836
100
AcDbArc
 50
30.00000000000054
 51
90.0
  0
ENDBLK
  5
49
330
47
100
AcDbEntity
  8
0
100
AcDbBlockEnd
  0
BLOCK
  5
4B
330
4A
100
AcDbEntity
  8
0
100
AcDbBlockBegin
  2
A10-0A-13
 70
     0
 71
     0
 10
449.9095925107949
 20
344.6125495682372
 30
0.0
  3
A10-0A-13
  1

  0
LINE
  5
11F
330
4A
100
AcDbEntity
  8
1
  6
Continuous
 62
     7
100
AcDbLine
 10
188.8932375455004
 20
328.9724946235972
 30
0.0
 11
187.9144318283194
 21
332.39831463373
 31
0.0
  0
LINE
  5
120
330
4A
100
AcDbEntity
  8
1
  6
Continuous
 62
     2
100
AcDbLine
 10
187.8932375455004
 20
327.1125495682372
 30
0.0
 11
188.8932375455004
 21
328.8446003758061
 31
0.0
  0
LINE
  5
121
330
4A
100
AcDbEntity
  8
1
  6
Continuous
 62
     7
100
AcDbLine
 10
188.8932375455004
 20
328.8446003758061
 30
0.0
 11
188.8932375455004
 21
326.6125495682372
 31
0.0
  0
LINE
  5
122
330
4A
100
AcDbEntity
  8
1
  6
Continuous
 62
     2
100
AcDbLine
 10
187.8932375455004
 20
327.1125495682372
 30
0.0
 11
187.8932375455004
 21
326.6125495682372
 31
0.0
  0
LINE
  5
123
330
4A
100
AcDbEntity
  8
1
  6
Continuous
 62
     7
100
AcDbLine
 10
188.8932375455004
 20
328.9724946235972
 30
0.0
 11
188.8932375455004
 21
328.8446003758061
 31
0.0
  0
LINE
  5
124
330
4A
100
AcDbEntity
  8
1
  6
Continuous
 62
     7
100
AcDbLine
 10
162.8932468756693
 20
344.5969744499597
 30
0.0
 11
163.6006603458512
 21
366.8804987606686
 31
0.0
  0
LINE
  5
125
330
4A
100
AcDbEntity
  8
1
  6
Continuous
 62
     7
100
AcDbLine
 10
187.8932375455001
 20
366.8804987606686
 30
0.0
 11
163.8932375455001
 21
366.8804987606686
 31
0.0
  0
LINE
  5
126
330
4A
100
AcDbEntity
  8
1
  6
Continuous
 62
     7
100
AcDbLine
 10
187.8932375455001
 20
368.6125495682372
 30
0.0
 11
163.8932375455003
 21
368.6125495682372
 31
0.0
  0
LINE
  5
127
330
4A
100
AcDbEntity
  8
1
  6
Continuous
 62
     7
100
AcDbLine
 10
188.8932375455003
 20
327.1125495682372
 30
0.0
 11
162.8932375455001
 21
327.1125495682372
 31
0.0
  0
LINE
  5
128
330
4A
100
AcDbEntity
  8
1
  6
Continuous
 62
     7
100
AcDbLine
 10
163.8720432626811
 20
332.39831463373
 30
0.0
 11
162.8932375455001
 21
328.9724946235972
 31
0.0
  0
LINE
  5
129
330
4A
100
AcDbEntity
  8
1
  6
Continuous
 62
     7
100
AcDbLine
 10
188.1858147451493
 20
366.8804987606686
 30
0.0
 11
188.8932282153312
 21
344.5969744499597
 31
0.0
  0
LINE
  5
12A
330
4A
100
AcDbEntity
  8
1
  6
Continuous
 62
     2
100
AcDbLine
 10
186.8932375455001
 20
370.1125495682372
 30
0.0
 11
186.8932375455001
 21
368.6125495682372
 31
0.0
  0
LINE
  5
12B
330
4A
100
AcDbEntity
  8
1
  6
Continuous
 62
     2
100
AcDbLine
 10
162.8932375455001
 20
328.8446003758061
 30
0.0
 11
163.8932375455001
 21
327.1125495682372
 31
0.0
  0
LINE
  5
12C
330
4A
100
AcDbEntity
  8
1
  6
Continuous
 62
     7
100
AcDbLine
 10
162.8932375455001
 20
326.6125495682372
 30
0.0
 11
162.8932375455001
 21
328.8446003758061
 31
0.0
  0
LINE
  5
12D
330
4A
100
AcDbEntity
  8
1
  6
Continuous
 62
     2
100
AcDbLine
 10
163.8932375455001
 20
326.6125495682372
 30
0.0
 11
163.8932375455001
 21
327.1125495682372
 31
0.0
  0
LINE
  5
12E
330
4A
100
AcDbEntity
  8
1
  6
Continuous
 62
     7
100
AcDbLine
 10
163.6006603458523
 20
366.8804987606686
 30
0.0
 11
163.8932375455001
 21
366.8804987606686
 31
0.0
  0
LINE
  5
12F
330
4A
100
AcDbEntity
  8
1
  6
Continuous
 62
     7
100
AcDbLine
 10
187.8932375455001
 20
366.8804987606686
 30
0.0
 11
188.1858147451493
 21
366.8804987606686
 31
0.0
  0
LINE
  5
130
330
4A
100
AcDbEntity
  8
1
  6
Continuous
 62
     2
100
AcDbLine
 10
186.8932375455001
 20
368.6125495682372
 30
0.0
 11
187.8932375455001
 21
366.8804987606686
 31
0.0
  0
LINE
  5
131
330
4A
100
AcDbEntity
  8
1
  6
Continuous
 62
     7
100
AcDbLine
 10
187.8932375455001
 20
366.8804987606686
 30
0.0
 11
187.8932375455001
 21
370.1125495682372
 31
0.0
  0
LINE
  5
132
330
4A
100
AcDbEntity
  8
1
  6
Continuous
 62
     2
100
AcDbLine
 10
163.8932375455001
 20
366.8804987606686
 30
0.0
 11
164.8932375455001
 21
368.6125495682372
 31
0.0
  0
LINE
  5
133
330
4A
100
AcDbEntity
  8
1
  6
Continuous
 62
     2
100
AcDbLine
 10
164.8932375455001
 20
368.6125495682372
 30
0.0
 11
164.8932375455003
 21
370.1125495682372
 31
0.0
  0
LINE
  5
134
330
4A
100
AcDbEntity
  8
1
  6
Continuous
 62
     7
100
AcDbLine
 10
163.8932375455001
 20
370.1125495682372
 30
0.0
 11
163.8932375455001
 21
366.8804987606686
 31
0.0
  0
LINE
  5
135
330
4A
100
AcDbEntity
  8
1
  6
Continuous
 62
     7
100
AcDbLine
 10
162.8932375455001
 20
328.8446003758061
 30
0.0
 11
162.8932375455001
 21
328.9724946235972
 31
0.0
  0
LINE
  5
136
330
4A
100
AcDbEntity
  8
1
  6
Continuous
 62
     7
100
AcDbLine
 10
153.3540079976365
 20
720.7929566430787
 30
0.0
 11
198.4324670933643
 21
720.7929566430787
 31
0.0
  0
LINE
  5
137
330
4A
100
AcDbEntity
  8
1
  6
Continuous
 62
     7
100
AcDbLine
 10
186.3932375455004
 20
736.3292200641163
 30
0.0
 11
165.3932375455004
 21
736.3292200641163
 31
0.0
  0
LINE
  5
138
330
4A
100
AcDbEntity
  8
1
  6
Continuous
 62
     7
100
AcDbLine
 10
165.3932375455004
 20
725.0612708716851
 30
0.0
 11
186.3932375455004
 21
725.0612708716851
 31
0.0
  0
LINE
  5
139
330
4A
100
AcDbEntity
  8
1
  6
Continuous
 62
     7
100
AcDbLine
 10
184.6432375455004
 20
645.3292200641163
 30
0.0
 11
184.6432375455004
 21
654.3096967549412
 31
0.0
  0
LINE
  5
13A
330
4A
100
AcDbEntity
  8
1
  6
Continuous
 62
     7
100
AcDbLine
 10
167.1432375455004
 20
645.3292200641163
 30
0.0
 11
167.1432375455004
 21
654.3096967549412
 31
0.0
  0
LINE
  5
13B
330
4A
100
AcDbEntity
  8
1
  6
Continuous
 62
     7
100
AcDbLine
 10
166.3932375455004
 20
737.3292200641163
 30
0.0
 11
185.3932375455004
 21
737.3292200641163
 31
0.0
  0
LINE
  5
13C
330
4A
100
AcDbEntity
  8
1
  6
Continuous
 62
     7
100
AcDbLine
 10
186.3932375455004
 20
736.3292200641163
 30
0.0
 11
185.3932375455004
 21
737.3292200641163
 31
0.0
  0
LINE
  5
13D
330
4A
100
AcDbEntity
  8
1
  6
Continuous
 62
     7
100
AcDbLine
 10
186.3932375455004
 20
736.3292200641163
 30
0.0
 11
186.3932375455004
 21
723.3292200641163
 31
0.0
  0
LINE
  5
13E
330
4A
100
AcDbEntity
  8
1
  6
Continuous
 62
     7
100
AcDbLine
 10
166.3932375455004
 20
737.3292200641163
 30
0.0
 11
165.3932375455004
 21
736.3292200641163
 31
0.0
  0
LINE
  5
13F
330
4A
100
AcDbEntity
  8
1
  6
Continuous
 62
     7
100
AcDbLine
 10
165.3932375455004
 20
723.3292200641163
 30
0.0
 11
165.3932375455004
 21
736.3292200641163
 31
0.0
  0
LINE
  5
140
330
4A
100
AcDbEntity
  8
1
  6
Continuous
 62
     7
100
AcDbLine
 10
167.1432375455004
 20
716.7929566430787
 30
0.0
 11
167.1432375455004
 21
702.3487433732912
 31
0.0
  0
LINE
  5
141
330
4A
100
AcDbEntity
  8
1
  6
Continuous
 62
     2
100
AcDbLine
 10
166.3932375455004
 20
725.0612708716851
 30
0.0
 11
166.3932375455004
 21
737.3292200641163
 31
0.0
  0
LINE
  5
142
330
4A
100
AcDbEntity
  8
1
  6
Continuous
 62
     2
100
AcDbLine
 10
165.3932375455004
 20
723.3292200641163
 30
0.0
 11
166.3932375455004
 21
725.0612708716851
 31
0.0
  0
LINE
  5
143
330
4A
100
AcDbEntity
  8
1
  6
Continuous
 62
     7
100
AcDbLine
 10
152.8932375455004
 20
723.3292200641163
 30
0.0
 11
152.8932375455004
 21
721.2914153099454
 31
0.0
  0
LINE
  5
144
330
4A
100
AcDbEntity
  8
1
  6
Continuous
 62
     7
100
AcDbLine
 10
184.6432375455004
 20
716.7929566430787
 30
0.0
 11
184.6432375455004
 21
702.3487433732912
 31
0.0
  0
LINE
  5
145
330
4A
100
AcDbEntity
  8
1
  6
Continuous
 62
     7
100
AcDbLine
 10
198.8932375455004
 20
721.2914153099454
 30
0.0
 11
198.8932375455004
 21
723.3292200641163
 31
0.0
  0
LINE
  5
146
330
4A
100
AcDbEntity
  8
1
  6
Continuous
 62
     7
100
AcDbLine
 10
198.8932375455004
 20
723.3292200641163
 30
0.0
 11
152.8932375455004
 21
723.3292200641163
 31
0.0
  0
LINE
  5
147
330
4A
100
AcDbEntity
  8
1
  6
Continuous
 62
     2
100
AcDbLine
 10
185.3932375455004
 20
725.0612708716851
 30
0.0
 11
186.3932375455004
 21
723.3292200641163
 31
0.0
  0
LINE
  5
148
330
4A
100
AcDbEntity
  8
1
  6
Continuous
 62
     2
100
AcDbLine
 10
185.3932375455004
 20
725.0612708716851
 30
0.0
 11
185.3932375455004
 21
737.3292200641163
 31
0.0
  0
LINE
  5
149
330
4A
100
AcDbEntity
  8
1
  6
Continuous
 62
     7
100
AcDbLine
 10
507.9095925107948
 20
355.1125495682372
 30
0.0
 11
507.9095925107948
 21
334.1125495682372
 31
0.0
  0
LINE
  5
14A
330
4A
100
AcDbEntity
  8
1
  6
Continuous
 62
     7
100
AcDbLine
 10
492.4095925107948
 20
357.3625495682372
 30
0.0
 11
492.4095925107948
 21
331.8625495682372
 31
0.0
  0
LINE
  5
14B
330
4A
100
AcDbEntity
  8
1
  6
Continuous
 62
     7
100
AcDbLine
 10
494.9095925107948
 20
334.1125495682372
 30
0.0
 11
494.9095925107948
 21
355.1125495682372
 31
0.0
  0
LINE
  5
14C
330
4A
100
AcDbEntity
  8
1
  6
Continuous
 62
     7
100
AcDbLine
 10
496.6416433183639
 20
355.1125495682372
 30
0.0
 11
496.6416433183639
 21
334.1125495682372
 31
0.0
  0
LINE
  5
14D
330
4A
100
AcDbEntity
  8
1
  6
Continuous
 62
     7
100
AcDbLine
 10
461.9095925107948
 20
366.8804987606686
 30
0.0
 11
437.9095925107947
 21
366.8804987606686
 31
0.0
  0
LINE
  5
14E
330
4A
100
AcDbEntity
  8
1
  6
Continuous
 62
     7
100
AcDbLine
 10
461.9095925107948
 20
368.6125495682372
 30
0.0
 11
437.9095925107949
 21
368.6125495682372
 31
0.0
  0
LINE
  5
14F
330
4A
100
AcDbEntity
  8
1
  6
Continuous
 62
     7
100
AcDbLine
 10
427.9095925107949
 20
327.1125495682372
 30
0.0
 11
401.9095925107947
 21
327.1125495682372
 31
0.0
  0
LINE
  5
150
330
4A
100
AcDbEntity
  8
1
  6
Continuous
 62
     7
100
AcDbLine
 10
437.4552362835297
 20
361.7844593907489
 30
0.0
 11
437.6170153111469
 21
366.8804987606686
 31
0.0
  0
LINE
  5
151
330
4A
100
AcDbEntity
  8
1
  6
Continuous
 62
     7
100
AcDbLine
 10
402.8883982279757
 20
332.39831463373
 30
0.0
 11
401.9095925107947
 21
328.9724946235972
 31
0.0
  0
LINE
  5
152
330
4A
100
AcDbEntity
  8
1
  6
Continuous
 62
     7
100
AcDbLine
 10
488.4095925107948
 20
353.3625495682372
 30
0.0
 11
472.0892566200638
 21
353.3625495682375
 31
0.0
  0
LINE
  5
153
330
4A
100
AcDbEntity
  8
1
  6
Continuous
 62
     7
100
AcDbLine
 10
462.2021697104439
 20
366.8804987606686
 30
0.0
 11
462.3542677029849
 21
362.0894119956305
 31
0.0
  0
LINE
  5
154
330
4A
100
AcDbEntity
  8
1
  6
Continuous
 62
     7
100
AcDbLine
 10
472.0892566200629
 20
335.8625495682371
 30
0.0
 11
488.4095925107948
 21
335.8625495682372
 31
0.0
  0
LINE
  5
155
330
4A
100
AcDbEntity
  8
1
  6
Continuous
 62
     7
100
AcDbLine
 10
431.4772839196279
 20
336.1125495682372
 30
0.0
 11
430.6510664008218
 21
336.1125495682372
 31
0.0
  0
LINE
  5
156
330
4A
100
AcDbEntity
  8
1
  6
Continuous
 62
     7
100
AcDbLine
 10
426.8907393279158
 20
332.538480763675
 30
0.0
 11
427.9095925107947
 21
328.9724946235972
 31
0.0
  0
LINE
  5
157
330
4A
100
AcDbEntity
  8
1
  6
Continuous
 62
     2
100
AcDbLine
 10
460.9095925107947
 20
370.1125495682372
 30
0.0
 11
460.9095925107947
 21
368.6125495682372
 31
0.0
  0
LINE
  5
158
330
4A
100
AcDbEntity
  8
1
  6
Continuous
 62
     7
100
AcDbLine
 10
507.9095925107948
 20
334.1125495682372
 30
0.0
 11
494.9095925107948
 21
334.1125495682372
 31
0.0
  0
LINE
  5
159
330
4A
100
AcDbEntity
  8
1
  6
Continuous
 62
     2
100
AcDbLine
 10
496.6416433183639
 20
335.1125495682372
 30
0.0
 11
494.9095925107948
 21
334.1125495682372
 31
0.0
  0
LINE
  5
15A
330
4A
100
AcDbEntity
  8
1
  6
Continuous
 62
     2
100
AcDbLine
 10
508.9095925107949
 20
335.1125495682372
 30
0.0
 11
496.6416433183639
 21
335.1125495682372
 31
0.0
  0
LINE
  5
15B
330
4A
100
AcDbEntity
  8
1
  6
Continuous
 62
     7
100
AcDbLine
 10
507.9095925107948
 20
334.1125495682372
 30
0.0
 11
508.9095925107949
 21
335.1125495682372
 31
0.0
  0
LINE
  5
15C
330
4A
100
AcDbEntity
  8
1
  6
Continuous
 62
     7
100
AcDbLine
 10
492.4095925107948
 20
331.8625495682372
 30
0.0
 11
492.4095925107949
 21
322.1125495682372
 31
0.0
  0
LINE
  5
15D
330
4A
100
AcDbEntity
  8
1
  6
Continuous
 62
     7
100
AcDbLine
 10
494.9095925107949
 20
321.6125495682372
 30
0.0
 11
492.9095925107948
 21
321.6125495682372
 31
0.0
  0
LINE
  5
15E
330
4A
100
AcDbEntity
  8
1
  6
Continuous
 62
     7
100
AcDbLine
 10
494.9095925107948
 20
334.1125495682372
 30
0.0
 11
494.9095925107949
 21
321.6125495682372
 31
0.0
  0
LINE
  5
15F
330
4A
100
AcDbEntity
  8
1
  6
Continuous
 62
     2
100
AcDbLine
 10
496.6416433183639
 20
354.1125495682372
 30
0.0
 11
508.9095925107948
 21
354.1125495682372
 31
0.0
  0
LINE
  5
160
330
4A
100
AcDbEntity
  8
1
  6
Continuous
 62
     7
100
AcDbLine
 10
494.9095925107948
 20
355.1125495682372
 30
0.0
 11
507.9095925107948
 21
355.1125495682372
 31
0.0
  0
LINE
  5
161
330
4A
100
AcDbEntity
  8
1
  6
Continuous
 62
     7
100
AcDbLine
 10
508.9095925107948
 20
354.1125495682372
 30
0.0
 11
507.9095925107948
 21
355.1125495682372
 31
0.0
  0
LINE
  5
162
330
4A
100
AcDbEntity
  8
1
  6
Continuous
 62
     2
100
AcDbLine
 10
494.9095925107948
 20
355.1125495682372
 30
0.0
 11
496.6416433183639
 21
354.1125495682372
 31
0.0
  0
LINE
  5
163
330
4A
100
AcDbEntity
  8
1
  6
Continuous
 62
     7
100
AcDbLine
 10
494.9095925107949
 20
367.6125495682372
 30
0.0
 11
494.9095925107948
 21
355.1125495682372
 31
0.0
  0
LINE
  5
164
330
4A
100
AcDbEntity
  8
1
  6
Continuous
 62
     7
100
AcDbLine
 10
494.9095925107949
 20
367.6125495682372
 30
0.0
 11
492.9095925107948
 21
367.6125495682372
 31
0.0
  0
LINE
  5
165
330
4A
100
AcDbEntity
  8
1
  6
Continuous
 62
     7
100
AcDbLine
 10
492.4095925107948
 20
357.3625495682372
 30
0.0
 11
492.4095925107948
 21
367.1125495682372
 31
0.0
  0
LINE
  5
166
330
4A
100
AcDbEntity
  8
1
  6
Continuous
 62
     7
100
AcDbLine
 10
427.9095925107947
 20
328.9724946235972
 30
0.0
 11
427.9095925107947
 21
326.6125495682372
 31
0.0
  0
LINE
  5
167
330
4A
100
AcDbEntity
  8
1
  6
Continuous
 62
     2
100
AcDbLine
 10
401.9095925107947
 20
328.8446003758061
 30
0.0
 11
402.9095925107947
 21
327.1125495682372
 31
0.0
  0
LINE
  5
168
330
4A
100
AcDbEntity
  8
1
  6
Continuous
 62
     7
100
AcDbLine
 10
401.9095925107947
 20
326.6125495682372
 30
0.0
 11
401.9095925107947
 21
328.8446003758061
 31
0.0
  0
LINE
  5
169
330
4A
100
AcDbEntity
  8
1
  6
Continuous
 62
     2
100
AcDbLine
 10
426.9095925107947
 20
327.1125495682372
 30
0.0
 11
427.9095925107947
 21
328.8446003758062
 31
0.0
  0
LINE
  5
16A
330
4A
100
AcDbEntity
  8
1
  6
Continuous
 62
     2
100
AcDbLine
 10
426.9095925107947
 20
327.1125495682372
 30
0.0
 11
426.9095925107947
 21
326.6125495682372
 31
0.0
  0
LINE
  5
16B
330
4A
100
AcDbEntity
  8
1
  6
Continuous
 62
     2
100
AcDbLine
 10
402.9095925107947
 20
326.6125495682372
 30
0.0
 11
402.9095925107947
 21
327.1125495682372
 31
0.0
  0
LINE
  5
16C
330
4A
100
AcDbEntity
  8
1
  6
Continuous
 62
     7
100
AcDbLine
 10
437.6170153111469
 20
366.8804987606686
 30
0.0
 11
437.9095925107947
 21
366.8804987606686
 31
0.0
  0
LINE
  5
16D
330
4A
100
AcDbEntity
  8
1
  6
Continuous
 62
     7
100
AcDbLine
 10
461.9095925107948
 20
366.8804987606686
 30
0.0
 11
462.2021697104439
 21
366.8804987606686
 31
0.0
  0
LINE
  5
16E
330
4A
100
AcDbEntity
  8
1
  6
Continuous
 62
     2
100
AcDbLine
 10
460.9095925107947
 20
368.6125495682372
 30
0.0
 11
461.9095925107948
 21
366.8804987606686
 31
0.0
  0
LINE
  5
16F
330
4A
100
AcDbEntity
  8
1
  6
Continuous
 62
     7
100
AcDbLine
 10
461.9095925107948
 20
366.8804987606686
 30
0.0
 11
461.9095925107948
 21
370.1125495682372
 31
0.0
  0
LINE
  5
170
330
4A
100
AcDbEntity
  8
1
  6
Continuous
 62
     2
100
AcDbLine
 10
437.9095925107947
 20
366.8804987606686
 30
0.0
 11
438.9095925107947
 21
368.6125495682372
 31
0.0
  0
LINE
  5
171
330
4A
100
AcDbEntity
  8
1
  6
Continuous
 62
     2
100
AcDbLine
 10
438.9095925107947
 20
368.6125495682372
 30
0.0
 11
438.9095925107949
 21
370.1125495682372
 31
0.0
  0
LINE
  5
172
330
4A
100
AcDbEntity
  8
1
  6
Continuous
 62
     7
100
AcDbLine
 10
437.9095925107947
 20
370.1125495682372
 30
0.0
 11
437.9095925107947
 21
366.8804987606686
 31
0.0
  0
LINE
  5
173
330
4A
100
AcDbEntity
  8
1
  6
Continuous
 62
     7
100
AcDbLine
 10
401.9095925107947
 20
328.8446003758061
 30
0.0
 11
401.9095925107947
 21
328.9724946235972
 31
0.0
  0
LINE
  5
174
330
4A
100
AcDbEntity
  8
1
  6
Continuous
 62
     7
100
AcDbLine
 10
508.9095925107949
 20
335.1125495682372
 30
0.0
 11
508.9095925107948
 21
354.1125495682372
 31
0.0
  0
ARC
  5
175
330
4A
100
AcDbEntity
  8
1
  6
Continuous
 62
     7
100
AcDbCircle
 10
175.8932375455003
 20
344.6125495682372
 30
0.0
 40
8.351995935906039
100
AcDbArc
 50
0.19057502307832
 51
90.0
  0
ARC
  5
176
330
4A
100
AcDbEntity
  8
1
  6
Continuous
 62
     7
100
AcDbCircle
 10
175.8932375455003
 20
344.6125495682372
 30
0.0
 40
8.351995935906075
100
AcDbArc
 50
90.0
 51
179.8094249769217
  0
ARC
  5
177
330
4A
100
AcDbEntity
  8
1
  6
Continuous
 62
     7
100
AcDbCircle
 10
148.8932375455004
 20
678.3292200641163
 30
0.0
 40
39.99999999999996
100
AcDbArc
 50
-20.0680546208193
 51
-8.44840117492208
  0
ARC
  5
178
330
4A
100
AcDbEntity
  8
0
  6
Continuous
 62
     7
100
AcDbCircle
 10
175.8932375455003
 20
344.6125495682372
 30
0.0
 40
23.0
100
AcDbArc
 50
0.0
 51
57.42219882713951
  0
ARC
  5
179
330
4A
100
AcDbEntity
  8
0
  6
Continuous
 62
     7
100
AcDbCircle
 10
175.8932375455003
 20
344.6125495682372
 30
0.0
 40
23.00000000000014
100
AcDbArc
 50
122.5778011728608
 51
-126.8963750032392
  0
ARC
  5
17A
330
4A
100
AcDbEntity
  8
0
  6
Continuous
 62
     7
100
AcDbCircle
 10
175.8932375455003
 20
344.6125495682372
 30
0.0
 40
22.99999999999985
100
AcDbArc
 50
-53.10362499676104
 51
0.0
  0
ARC
  5
17B
330
4A
100
AcDbEntity
  8
1
  6
Continuous
 62
     7
100
AcDbCircle
 10
175.8932375455003
 20
344.6125495682372
 30
0.0
 40
13.00000000000011
100
AcDbArc
 50
-179.9313547110608
 51
-145.6899072066107
  0
ARC
  5
17C
330
4A
100
AcDbEntity
  8
1
  6
Continuous
 62
     7
100
AcDbCircle
 10
164.188806971508
 20
328.7796511851723
 30
0.0
 40
24.00000000000156
100
AcDbArc
 50
8.67199482596315
 51
27.87011739414487
  0
ARC
  5
17D
330
4A
100
AcDbEntity
  8
1
  6
Continuous
 62
     7
100
AcDbCircle
 10
175.8932375455003
 20
344.6125495682372
 30
0.0
 40
13.0
100
AcDbArc
 50
180.0
 51
-179.9313547110608
  0
ARC
  5
17E
330
4A
100
AcDbEntity
  8
1
  6
Continuous
 62
     7
100
AcDbCircle
 10
175.8932375455003
 20
344.6125495682372
 30
0.0
 40
12.99999999999998
100
AcDbArc
 50
-34.31009279338959
 51
-0.06864528893923
  0
ARC
  5
17F
330
4A
100
AcDbEntity
  8
1
  6
Continuous
 62
     7
100
AcDbCircle
 10
187.5976681194925
 20
328.7796511851723
 30
0.0
 40
24.0000000000015
100
AcDbArc
 50
152.1298826058551
 51
171.3280051740369
  0
ARC
  5
180
330
4A
100
AcDbEntity
  8
1
  6
Continuous
 62
     7
100
AcDbCircle
 10
188.6432375455004
 20
716.7929566430787
 30
0.0
 40
4.0
100
AcDbArc
 50
90.0
 51
180.0
  0
ARC
  5
181
330
4A
100
AcDbEntity
  8
1
  6
Continuous
 62
     7
100
AcDbCircle
 10
163.1432375455004
 20
716.7929566430787
 30
0.0
 40
4.0
100
AcDbArc
 50
0.0
 51
90.0
  0
ARC
  5
182
330
4A
100
AcDbEntity
  8
1
  6
Continuous
 62
     7
100
AcDbCircle
 10
202.8932375455004
 20
678.3292200641163
 30
0.0
 40
40.00000000000006
100
AcDbArc
 50
-171.5515988250778
 51
-159.9319453791808
  0
ARC
  5
183
330
4A
100
AcDbEntity
  8
1
  6
Continuous
 62
     7
100
AcDbCircle
 10
175.8932375455004
 20
643.3292200641163
 30
0.0
 40
12.9999999999999
100
AcDbArc
 50
132.3049897071832
 51
47.69501029281675
  0
ARC
  5
184
330
4A
100
AcDbEntity
  8
1
  6
Continuous
 62
     7
100
AcDbCircle
 10
449.9095925107947
 20
360.6125495682371
 30
0.0
 40
28.99999999999987
100
AcDbArc
 50
-117.4392401506813
 51
-68.30528397761421
  0
ARC
  5
185
330
4A
100
AcDbEntity
  8
1
  6
Continuous
 62
     7
100
AcDbCircle
 10
430.868627135216
 20
332.1184705346134
 30
0.0
 40
3.999999999997971
100
AcDbArc
 50
93.11786651757498
 51
173.972686104896
  0
ARC
  5
186
330
4A
100
AcDbEntity
  8
1
  6
Continuous
 62
     7
100
AcDbCircle
 10
488.4095925107948
 20
331.8625495682372
 30
0.0
 40
4.0
100
AcDbArc
 50
0.0
 51
90.0
  0
ARC
  5
187
330
4A
100
AcDbEntity
  8
1
  6
Continuous
 62
     7
100
AcDbCircle
 10
488.4095925107948
 20
357.3625495682372
 30
0.0
 40
4.0
100
AcDbArc
 50
-90.0
 51
0.0
  0
ARC
  5
188
330
4A
100
AcDbEntity
  8
1
  6
Continuous
 62
     7
100
AcDbCircle
 10
426.6140230847871
 20
328.7796511851723
 30
0.0
 40
24.00000000000211
100
AcDbArc
 50
99.36066212030305
 51
171.3280051740369
  0
ARC
  5
189
330
4A
100
AcDbEntity
  8
1
  6
Continuous
 62
     7
100
AcDbCircle
 10
430.6802372724561
 20
304.1125495677778
 30
0.0
 40
49.0000000004597
100
AcDbArc
 50
92.19404509977881
 51
99.36066212030438
  0
ARC
  5
18A
330
4A
100
AcDbEntity
  8
1
  6
Continuous
 62
     7
100
AcDbCircle
 10
428.4597680058681
 20
362.0700298122632
 30
0.0
 40
9.000000000003894
100
AcDbArc
 50
-87.8059549002254
 51
-1.81830296445973
  0
ARC
  5
18B
330
4A
100
AcDbEntity
  8
1
  6
Continuous
 62
     7
100
AcDbCircle
 10
194.2451319642122
 20
344.6735911603029
 30
0.0
 40
9.999999999999954
100
AcDbArc
 50
-179.8094249769229
 51
-152.1298826058542
  0
ARC
  5
18C
330
4A
100
AcDbEntity
  8
1
  6
Continuous
 62
     7
100
AcDbCircle
 10
157.5413431267883
 20
344.6735911603029
 30
0.0
 40
10.00000000000013
100
AcDbArc
 50
-27.87011739414572
 51
-0.1905750230771
  0
ARC
  5
18D
330
4A
100
AcDbEntity
  8
1
  6
Continuous
 62
     7
100
AcDbCircle
 10
214.6432375455004
 20
702.3487433732912
 30
0.0
 40
30.0
100
AcDbArc
 50
180.0
 51
-163.6603718092956
  0
ARC
  5
18E
330
4A
100
AcDbEntity
  8
1
  6
Continuous
 62
     7
100
AcDbCircle
 10
186.6432375455004
 20
645.3292200641163
 30
0.0
 40
2.0
100
AcDbArc
 50
180.0
 51
-90.0
  0
ARC
  5
18F
330
4A
100
AcDbEntity
  8
1
  6
Continuous
 62
     7
100
AcDbCircle
 10
165.1432375455004
 20
645.3292200641163
 30
0.0
 40
2.0
100
AcDbArc
 50
-90.0
 51
0.0
  0
ARC
  5
190
330
4A
100
AcDbEntity
  8
1
  6
Continuous
 62
     7
100
AcDbCircle
 10
137.1432375455004
 20
702.3487433732912
 30
0.0
 40
29.9999999999999
100
AcDbArc
 50
-16.33962819070452
 51
0.0
  0
ARC
  5
191
330
4A
100
AcDbEntity
  8
1
  6
Continuous
 62
     7
100
AcDbCircle
 10
137.1432375455004
 20
654.3096967549412
 30
0.0
 40
30.0
100
AcDbArc
 50
0.0
 51
20.06805462081917
  0
ARC
  5
192
330
4A
100
AcDbEntity
  8
1
  6
Continuous
 62
     7
100
AcDbCircle
 10
214.6432375455004
 20
654.3096967549412
 30
0.0
 40
30.00000000000007
100
AcDbArc
 50
159.9319453791809
 51
180.0
  0
ARC
  5
193
330
4A
100
AcDbEntity
  8
1
  6
Continuous
 62
     7
100
AcDbCircle
 10
153.3932375455004
 20
721.2914153099454
 30
0.0
 40
0.5
100
AcDbArc
 50
180.0
 51
-94.49999999999618
  0
ARC
  5
194
330
4A
100
AcDbEntity
  8
1
  6
Continuous
 62
     7
100
AcDbCircle
 10
198.3932375455004
 20
721.2914153099454
 30
0.0
 40
0.5000000000001016
100
AcDbArc
 50
-85.50000000000384
 51
0.0
  0
ARC
  5
195
330
4A
100
AcDbEntity
  8
1
  6
Continuous
 62
     7
100
AcDbCircle
 10
472.0892566200638
 20
384.3625495682375
 30
0.0
 40
30.99999999999998
100
AcDbArc
 50
-91.92633614020622
 51
-90.0
  0
ARC
  5
196
330
4A
100
AcDbEntity
  8
1
  6
Continuous
 62
     7
100
AcDbCircle
 10
471.3497359806419
 20
362.3749824171434
 30
0.0
 40
8.999999999998732
100
AcDbArc
 50
-178.181697035548
 51
-91.92633614020365
  0
ARC
  5
197
330
4A
100
AcDbEntity
  8
1
  6
Continuous
 62
     7
100
AcDbCircle
 10
472.0892566200638
 20
304.8625495682371
 30
0.0
 40
31.0
100
AcDbArc
 50
90.00000000000168
 51
111.6947160223879
  0
ARC
  5
198
330
4A
100
AcDbEntity
  8
1
  6
Continuous
 62
     7
100
AcDbCircle
 10
431.4772839196279
 20
325.1125495682372
 30
0.0
 40
11.00000000000005
100
AcDbArc
 50
62.5607598493189
 51
90.0
  0
ARC
  5
199
330
4A
100
AcDbEntity
  8
1
  6
Continuous
 62
     7
100
AcDbCircle
 10
492.9095925107948
 20
322.1125495682372
 30
0.0
 40
0.4999999999999432
100
AcDbArc
 50
180.0
 51
-90.0
  0
ARC
  5
19A
330
4A
100
AcDbEntity
  8
1
  6
Continuous
 62
     7
100
AcDbCircle
 10
492.9095925107948
 20
367.1125495682372
 30
0.0
 40
0.5
100
AcDbArc
 50
90.0
 51
180.0
  0
ENDBLK
  5
4C
330
4A
100
AcDbEntity
  8
0
100
AcDbBlockEnd
  0
BLOCK
  5
4E
330
4D
100
AcDbEntity
  8
0
100
AcDbBlockBegin
  2
60-1-16-170
 70
     0
 71
     0
 10
276.7433585053811
 20
219.7464517382434
 30
0.0
  3
60-1-16-170
  1

  0
LINE
  5
19B
330
4D
100
AcDbEntity
  8
1
  6
Continuous
 62
     7
100
AcDbLine
 10
167.8932375455003
 20
256.1125495682372
 30
0.0
 11
167.8932375455003
 21
316.6125495682372
 31
0.0
  0
LINE
  5
19C
330
4D
100
AcDbEntity
  8
1
  6
Continuous
 62
     7
100
AcDbLine
 10
183.8932375455003
 20
256.1125495682372
 30
0.0
 11
183.8932375455003
 21
316.6125495682372
 31
0.0
  0
LINE
  5
19D
330
4D
100
AcDbEntity
  8
1
  6
Continuous
 62
     7
100
AcDbLine
 10
168.5068305395142
 20
251.1125495682372
 30
0.0
 11
183.2796445514863
 21
251.1125495682372
 31
0.0
  0
LINE
  5
19E
330
4D
100
AcDbEntity
  8
1
  6
Continuous
 62
     7
100
AcDbLine
 10
183.8932375455003
 20
256.1125495682372
 30
0.0
 11
167.8932375455003
 21
256.1125495682372
 31
0.0
  0
LINE
  5
19F
330
4D
100
AcDbEntity
  8
1
  6
Continuous
 62
     7
100
AcDbLine
 10
167.8932375455003
 20
631.7822146803237
 30
0.0
 11
167.8932375455003
 21
473.3274206597056
 31
0.0
  0
LINE
  5
1A0
330
4D
100
AcDbEntity
  8
1
  6
Continuous
 62
     7
100
AcDbLine
 10
183.8932375455003
 20
631.7822146803237
 30
0.0
 11
183.8932375455003
 21
473.3274206597056
 31
0.0
  0
LINE
  5
1A1
330
4D
100
AcDbEntity
  8
1
  6
Continuous
 62
     7
100
AcDbLine
 10
237.5213861003981
 20
250.1125495682372
 30
0.0
 11
252.2942001123703
 21
250.1125495682372
 31
0.0
  0
LINE
  5
1A2
330
4D
100
AcDbEntity
  8
1
  6
Continuous
 62
     7
100
AcDbLine
 10
252.9077931063843
 20
255.1125495682372
 30
0.0
 11
236.9077931063843
 21
255.1125495682372
 31
0.0
  0
LINE
  5
1A3
330
4D
100
AcDbEntity
  8
1
  6
Continuous
 62
     7
100
AcDbLine
 10
387.9095925107949
 20
291.1125495682372
 30
0.0
 11
271.9077931063843
 21
291.1125495682372
 31
0.0
  0
LINE
  5
1A4
330
4D
100
AcDbEntity
  8
1
  6
Continuous
 62
     7
100
AcDbLine
 10
406.9095925107949
 20
310.1125495682372
 30
0.0
 11
406.9095925107949
 21
315.6125495682372
 31
0.0
  0
LINE
  5
1A5
330
4D
100
AcDbEntity
  8
1
  6
Continuous
 62
     7
100
AcDbLine
 10
422.9095925107949
 20
315.6125495682372
 30
0.0
 11
422.9095925107949
 21
310.1125495682372
 31
0.0
  0
LINE
  5
1A6
330
4D
100
AcDbEntity
  8
1
  6
Continuous
 62
     7
100
AcDbLine
 10
236.9077931063843
 20
255.1125495682372
 30
0.0
 11
236.9077931063843
 21
256.1125495682372
 31
0.0
  0
LINE
  5
1A7
330
4D
100
AcDbEntity
  8
1
  6
Continuous
 62
     7
100
AcDbLine
 10
252.9077931063843
 20
255.1125495682372
 30
0.0
 11
252.9077931063843
 21
256.1125495682372
 31
0.0
  0
LINE
  5
1A8
330
4D
100
AcDbEntity
  8
1
  6
Continuous
 62
     7
100
AcDbLine
 10
387.9095925107949
 20
275.1125495682372
 30
0.0
 11
271.9077931063843
 21
275.1125495682372
 31
0.0
  0
ARC
  5
1A9
330
4D
100
AcDbEntity
  8
1
  6
Continuous
 62
     7
100
AcDbCircle
 10
175.8932375455003
 20
284.1125495682372
 30
0.0
 40
8.0
100
AcDbArc
 50
0.0
 51
180.0
  0
ARC
  5
1AA
330
4D
100
AcDbEntity
  8
1
  6
Continuous
 62
     7
100
AcDbCircle
 10
180.6832112507819
 20
253.968829861015
 30
0.0
 40
3.860026294718416
100
AcDbArc
 50
-47.7283445035818
 51
0.0
  0
ARC
  5
1AB
330
4D
100
AcDbEntity
  8
1
  6
Continuous
 62
     7
100
AcDbCircle
 10
171.1032638402184
 20
253.968829861015
 30
0.0
 40
3.86002629471802
100
AcDbArc
 50
146.2642089999716
 51
180.0
  0
ARC
  5
1AC
330
4D
100
AcDbEntity
  8
1
  6
Continuous
 62
     7
100
AcDbCircle
 10
171.1032638402184
 20
253.968829861015
 30
0.0
 40
3.86002629471821
100
AcDbArc
 50
180.0
 51
-132.271655496416
  0
ARC
  5
1AD
330
4D
100
AcDbEntity
  8
1
  6
Continuous
 62
     7
100
AcDbCircle
 10
180.6832112507819
 20
253.968829861015
 30
0.0
 40
3.860026294718296
100
AcDbArc
 50
0.0
 51
33.73579100002586
  0
ARC
  5
1AE
330
4D
100
AcDbEntity
  8
1
  6
Continuous
 62
     7
100
AcDbCircle
 10
175.8932375455003
 20
473.3274206597056
 30
0.0
 40
8.650000000000093
100
AcDbArc
 50
157.6465744006673
 51
-90.0
  0
ARC
  5
1AF
330
4D
100
AcDbEntity
  8
1
  6
Continuous
 62
     7
100
AcDbCircle
 10
175.8932375455003
 20
473.3274206597056
 30
0.0
 40
8.650000000000205
100
AcDbArc
 50
-90.0
 51
22.35342559933271
  0
ARC
  5
1B0
330
4D
100
AcDbEntity
  8
1
  6
Continuous
 62
     7
100
AcDbCircle
 10
175.8932375455003
 20
473.3274206597056
 30
0.0
 40
8.0
100
AcDbArc
 50
180.0
 51
0.0
  0
ARC
  5
1B1
330
4D
100
AcDbEntity
  8
1
  6
Continuous
 62
     7
100
AcDbCircle
 10
387.9095925107949
 20
310.1125495682372
 30
0.0
 40
35.0
100
AcDbArc
 50
-90.0
 51
0.0
  0
ARC
  5
1B2
330
4D
100
AcDbEntity
  8
1
  6
Continuous
 62
     7
100
AcDbCircle
 10
387.9095925107949
 20
310.1125495682372
 30
0.0
 40
19.0
100
AcDbArc
 50
-90.0
 51
0.0
  0
ARC
  5
1B3
330
4D
100
AcDbEntity
  8
1
  6
Continuous
 62
     7
100
AcDbCircle
 10
271.9077931063843
 20
256.1125495682372
 30
0.0
 40
35.0
100
AcDbArc
 50
90.0
 51
180.0
  0
ARC
  5
1B4
330
4D
100
AcDbEntity
  8
1
  6
Continuous
 62
     7
100
AcDbCircle
 10
271.9077931063843
 20
256.1125495682372
 30
0.0
 40
19.0
100
AcDbArc
 50
90.0
 51
180.0
  0
ARC
  5
1B5
330
4D
100
AcDbEntity
  8
1
  6
Continuous
 62
     7
100
AcDbCircle
 10
249.6977668116659
 20
252.968829861015
 30
0.0
 40
3.860026294718416
100
AcDbArc
 50
-47.7283445035818
 51
0.0
  0
ARC
  5
1B6
330
4D
100
AcDbEntity
  8
1
  6
Continuous
 62
     7
100
AcDbCircle
 10
240.1178194011023
 20
252.968829861015
 30
0.0
 40
3.860026294717933
100
AcDbArc
 50
146.2642089999712
 51
180.0
  0
ARC
  5
1B7
330
4D
100
AcDbEntity
  8
1
  6
Continuous
 62
     7
100
AcDbCircle
 10
240.1178194011023
 20
252.968829861015
 30
0.0
 40
3.86002629471821
100
AcDbArc
 50
180.0
 51
-132.271655496416
  0
ARC
  5
1B8
330
4D
100
AcDbEntity
  8
1
  6
Continuous
 62
     7
100
AcDbCircle
 10
249.6977668116659
 20
252.968829861015
 30
0.0
 40
3.86002629471821
100
AcDbArc
 50
0.0
 51
33.73579100002552
  0
ENDBLK
  5
4F
330
4D
100
AcDbEntity
  8
0
100
AcDbBlockEnd
  0
BLOCK
  5
52
330
50
100
AcDbEntity
  8
0
100
AcDbBlockBegin
  2
A10J-60X-16
 70
     0
 71
     0
 10
236.2577931063841
 20
247.9645046486152
 30
0.0
  3
A10J-60X-16
  1

  0
INSERT
  5
51
330
50
100
AcDbEntity
  8
0
100
AcDbBlockReference
  2
60-1-16-170
 10
276.743358505381
 20
219.7464517382433
 30
0.0
 41
1.0
 42
1.0
 43
1.0
  0
LINE
  5
1B9
330
50
100
AcDbEntity
  8
1
  6
PHANTOM
 62
     4
100
AcDbLine
 10
244.9077931063843
 20
247.9645046486152
 30
0.0
 11
244.9077931063843
 21
257.1125495682372
 31
0.0
  0
LINE
  5
1BA
330
50
100
AcDbEntity
  8
1
  6
PHANTOM
 62
     4
100
AcDbLine
 10
271.9077931063843
 20
283.1125495682372
 30
0.0
 11
387.9095925107949
 21
283.1125495682372
 31
0.0
  0
LINE
  5
1BB
330
50
100
AcDbEntity
  8
1
  6
PHANTOM
 62
     4
100
AcDbLine
 10
414.9095925107949
 20
310.1125495682372
 30
0.0
 11
414.9095925107949
 21
352.2382882965251
 31
0.0
  0
LINE
  5
1BC
330
50
100
AcDbEntity
  8
0
  6
PHANTOM
 62
     4
100
AcDbLine
 10
494.9095925107949
 20
321.6125495682372
 30
0.0
 11
494.9095925107949
 21
318.1332131035101
 31
0.0
  0
LINE
  5
1BD
330
50
100
AcDbEntity
  8
1
  6
PHANTOM
 62
     4
100
AcDbLine
 10
175.8932375455003
 20
740.0510382582601
 30
0.0
 11
175.8932375455003
 21
461.3512233941511
 31
0.0
  0
LINE
  5
1BE
330
50
100
AcDbEntity
  8
1
  6
PHANTOM
 62
     4
100
AcDbLine
 10
187.2674597393624
 20
473.3274206597056
 30
0.0
 11
164.9152863332794
 21
473.3274206597056
 31
0.0
  0
ARC
  5
1BF
330
50
100
AcDbEntity
  8
1
  6
PHANTOM
 62
     4
100
AcDbCircle
 10
271.9077931063843
 20
256.1125495682372
 30
0.0
 40
27.0
100
AcDbArc
 50
90.0
 51
180.0
  0
ARC
  5
1C0
330
50
100
AcDbEntity
  8
1
  6
PHANTOM
 62
     4
100
AcDbCircle
 10
387.9095925107949
 20
310.1125495682372
 30
0.0
 40
27.0
100
AcDbArc
 50
-90.0
 51
0.0
  0
ENDBLK
  5
53
330
50
100
AcDbEntity
  8
0
100
AcDbBlockEnd
  0
BLOCK
  5
55
330
54
100
AcDbEntity
  8
0
100
AcDbBlockBegin
  2
_J__A4
 70
     0
 71
     0
 10
0.0
 20
0.0
 30
0.0
  3
_J__A4
  1

  0
POINT
  5
1C1
330
54
100
AcDbEntity
  8
1
 62
     4
100
AcDbPoint
 10
93.75
 20
17.0
 30
0.0
  0
POINT
  5
1C2
330
54
100
AcDbEntity
  8
1
 62
     4
100
AcDbPoint
 10
85.25
 20
17.0
 30
0.0
  0
POINT
  5
1C3
330
54
100
AcDbEntity
  8
1
 62
     4
100
AcDbPoint
 10
106.5
 20
19.00000000000001
 30
0.0
  0
POINT
  5
1C4
330
54
100
AcDbEntity
  8
1
 62
     4
100
AcDbPoint
 10
106.5
 20
12.5
 30
0.0
  0
POINT
  5
1C5
330
54
100
AcDbEntity
  8
1
 62
     4
100
AcDbPoint
 10
112.25
 20
12.5
 30
0.0
  0
POINT
  5
1C6
330
54
100
AcDbEntity
  8
1
 62
     4
100
AcDbPoint
 10
100.75
 20
12.5
 30
0.0
  0
POINT
  5
1C7
330
54
100
AcDbEntity
  8
1
 62
     4
100
AcDbPoint
 10
123.5
 20
19.00000000000001
 30
0.0
  0
POINT
  5
1C8
330
54
100
AcDbEntity
  8
1
 62
     4
100
AcDbPoint
 10
123.5
 20
12.5
 30
0.0
  0
POINT
  5
1C9
330
54
100
AcDbEntity
  8
1
 62
     4
100
AcDbPoint
 10
129.25
 20
12.5
 30
0.0
  0
POINT
  5
1CA
330
54
100
AcDbEntity
  8
1
 62
     4
100
AcDbPoint
 10
117.75
 20
12.5
 30
0.0
  0
POINT
  5
1CB
330
54
100
AcDbEntity
  8
1
 62
     4
100
AcDbPoint
 10
140.5
 20
19.00000000000001
 30
0.0
  0
POINT
  5
1CC
330
54
100
AcDbEntity
  8
1
 62
     4
100
AcDbPoint
 10
140.5
 20
12.5
 30
0.0
  0
POINT
  5
1CD
330
54
100
AcDbEntity
  8
1
 62
     4
100
AcDbPoint
 10
146.25
 20
12.5
 30
0.0
  0
POINT
  5
1CE
330
54
100
AcDbEntity
  8
1
 62
     4
100
AcDbPoint
 10
134.75
 20
12.5
 30
0.0
  0
POINT
  5
1CF
330
54
100
AcDbEntity
  8
1
 62
     4
100
AcDbPoint
 10
151.75
 20
12.5
 30
0.0
  0
POINT
  5
1D0
330
54
100
AcDbEntity
  8
1
 62
     4
100
AcDbPoint
 10
163.25
 20
12.5
 30
0.0
  0
POINT
  5
1D1
330
54
100
AcDbEntity
  8
1
 62
     4
100
AcDbPoint
 10
157.5
 20
12.5
 30
0.0
  0
POINT
  5
1D2
330
54
100
AcDbEntity
  8
1
 62
     4
100
AcDbPoint
 10
57.0
 20
14.25
 30
0.0
  0
POINT
  5
1D3
330
54
100
AcDbEntity
  8
1
 62
     4
100
AcDbPoint
 10
57.0
 20
22.75000000000001
 30
0.0
  0
POINT
  5
1D4
330
54
100
AcDbEntity
  8
1
 62
     4
100
AcDbPoint
 10
47.5
 20
282.0000000000003
 30
0.0
  0
POINT
  5
1D5
330
54
100
AcDbEntity
  8
1
 62
     4
100
AcDbPoint
 10
157.5
 20
19.00000000000001
 30
0.0
  0
POINT
  5
1D6
330
54
100
AcDbEntity
  8
1
 62
     4
100
AcDbPoint
 10
57.0
 20
16.25
 30
0.0
  0
POINT
  5
1D7
330
54
100
AcDbEntity
  8
1
 62
     4
100
AcDbPoint
 10
57.0
 20
24.75000000000001
 30
0.0
  0
POINT
  5
1D8
330
54
100
AcDbEntity
  8
1
 62
     4
100
AcDbPoint
 10
57.0
 20
20.75000000000001
 30
0.0
  0
POINT
  5
1D9
330
54
100
AcDbEntity
  8
1
 62
     4
100
AcDbPoint
 10
57.0
 20
12.25
 30
0.0
  0
POINT
  5
1DA
330
54
100
AcDbEntity
  8
1
 62
     4
100
AcDbPoint
 10
34.0
 20
34.00000000000001
 30
0.0
  0
LINE
  5
1DB
330
54
100
AcDbEntity
  8
1
  6
Continuous
 62
     7
100
AcDbLine
 10
105.0
 20
10.0
 30
0.0
 11
200.0
 21
10.0
 31
0.0
  0
LINE
  5
1DC
330
54
100
AcDbEntity
  8
1
  6
Continuous
 62
     2
100
AcDbLine
 10
105.0
 20
10.0
 30
0.0
 11
105.0
 21
5.0
 31
0.0
  0
LINE
  5
1DD
330
54
100
AcDbEntity
  8
1
  6
Continuous
 62
     7
100
AcDbLine
 10
200.0
 20
148.5
 30
0.0
 11
200.0
 21
287.0000000000003
 31
0.0
  0
LINE
  5
1DE
330
54
100
AcDbEntity
  8
1
  6
Continuous
 62
     2
100
AcDbLine
 10
200.0
 20
148.5
 30
0.0
 11
205.0
 21
148.5
 31
0.0
  0
LINE
  5
1DF
330
54
100
AcDbEntity
  8
1
  6
Continuous
 62
     7
100
AcDbLine
 10
25.0
 20
148.5
 30
0.0
 11
25.0
 21
287.0000000000003
 31
0.0
  0
LINE
  5
1E0
330
54
100
AcDbEntity
  8
1
  6
Continuous
 62
     2
100
AcDbLine
 10
25.0
 20
148.5
 30
0.0
 11
20.0
 21
148.5
 31
0.0
  0
LINE
  5
1E1
330
54
100
AcDbEntity
  8
1
  6
Continuous
 62
     7
100
AcDbLine
 10
105.0
 20
287.0000000000003
 30
0.0
 11
25.0
 21
287.0000000000003
 31
0.0
  0
LINE
  5
1E2
330
54
100
AcDbEntity
  8
1
  6
Continuous
 62
     2
100
AcDbLine
 10
105.0
 20
287.0000000000003
 30
0.0
 11
105.0
 21
292.0000000000003
 31
0.0
  0
LINE
  5
1E3
330
54
100
AcDbEntity
  8
1
  6
Continuous
 62
     2
100
AcDbLine
 10
166.0
 20
20.00000000000001
 30
0.0
 11
200.0
 21
20.00000000000001
 31
0.0
  0
LINE
  5
1E4
330
54
100
AcDbEntity
  8
1
  6
Continuous
 62
     2
100
AcDbLine
 10
98.0
 20
27.00000000000001
 30
0.0
 11
98.0
 21
9.99999999999999
 31
0.0
  0
LINE
  5
1E5
330
54
100
AcDbEntity
  8
1
  6
Continuous
 62
     2
100
AcDbLine
 10
115.0
 20
27.00000000000001
 30
0.0
 11
115.0
 21
9.99999999999999
 31
0.0
  0
LINE
  5
1E6
330
54
100
AcDbEntity
  8
1
  6
Continuous
 62
     2
100
AcDbLine
 10
149.0
 20
27.00000000000001
 30
0.0
 11
149.0
 21
10.0
 31
0.0
  0
LINE
  5
1E7
330
54
100
AcDbEntity
  8
1
  6
Continuous
 62
     2
100
AcDbLine
 10
132.0
 20
27.00000000000001
 30
0.0
 11
132.0
 21
9.99999999999999
 31
0.0
  0
LINE
  5
1E8
330
54
100
AcDbEntity
  8
1
  6
Continuous
 62
     2
100
AcDbLine
 10
166.0
 20
27.00000000000001
 30
0.0
 11
166.0
 21
10.0
 31
0.0
  0
LINE
  5
1E9
330
54
100
AcDbEntity
  8
1
  6
Continuous
 62
     2
100
AcDbLine
 10
55.0
 20
277.0000000000003
 30
0.0
 11
25.0
 21
277.0000000000003
 31
0.0
  0
LINE
  5
1EA
330
54
100
AcDbEntity
  8
1
  6
Continuous
 62
     7
100
AcDbLine
 10
25.0
 20
10.0
 30
0.0
 11
25.0
 21
148.5
 31
0.0
  0
LINE
  5
1EB
330
54
100
AcDbEntity
  8
1
  6
Continuous
 62
     2
100
AcDbLine
 10
40.0
 20
287.0000000000003
 30
0.0
 11
40.0
 21
277.0000000000003
 31
0.0
  0
LINE
  5
1EC
330
54
100
AcDbEntity
  8
1
  6
Continuous
 62
     2
100
AcDbLine
 10
55.0
 20
287.0000000000003
 30
0.0
 11
55.0
 21
277.0000000000003
 31
0.0
  0
LINE
  5
1ED
330
54
100
AcDbEntity
  8
1
  6
Continuous
 62
     2
100
AcDbLine
 10
33.0
 20
41.00000000000001
 30
0.0
 11
33.0
 21
27.0
 31
0.0
  0
LINE
  5
1EE
330
54
100
AcDbEntity
  8
1
  6
Continuous
 62
     7
100
AcDbLine
 10
200.0
 20
27.00000000000001
 30
0.0
 11
25.0
 21
27.00000000000001
 31
0.0
  0
LINE
  5
1EF
330
54
100
AcDbEntity
  8
1
  6
Continuous
 62
     7
100
AcDbLine
 10
25.0
 20
41.0
 30
0.0
 11
200.0
 21
41.0
 31
0.0
  0
LINE
  5
1F0
330
54
100
AcDbEntity
  8
1
  6
PHANTOM
 62
     4
100
AcDbLine
 10
0.0
 20
0.0
 30
0.0
 11
210.0
 21
0.0
 31
0.0
  0
LINE
  5
1F1
330
54
100
AcDbEntity
  8
1
  6
PHANTOM
 62
     4
100
AcDbLine
 10
210.0
 20
0.0
 30
0.0
 11
210.0
 21
297.0
 31
0.0
  0
LINE
  5
1F2
330
54
100
AcDbEntity
  8
1
  6
PHANTOM
 62
     4
100
AcDbLine
 10
210.0
 20
297.0
 30
0.0
 11
0.0
 21
297.0
 31
0.0
  0
LINE
  5
1F3
330
54
100
AcDbEntity
  8
1
  6
PHANTOM
 62
     4
100
AcDbLine
 10
0.0
 20
297.0
 30
0.0
 11
0.0
 21
0.0
 31
0.0
  0
LINE
  5
1F4
330
54
100
AcDbEntity
  8
1
  6
Continuous
 62
     7
100
AcDbLine
 10
25.0
 20
10.0
 30
0.0
 11
105.0
 21
10.0
 31
0.0
  0
LINE
  5
1F5
330
54
100
AcDbEntity
  8
1
  6
Continuous
 62
     7
100
AcDbLine
 10
200.0
 20
10.0
 30
0.0
 11
200.0
 21
148.5
 31
0.0
  0
LINE
  5
1F6
330
54
100
AcDbEntity
  8
1
  6
Continuous
 62
     7
100
AcDbLine
 10
200.0
 20
287.0000000000003
 30
0.0
 11
105.0
 21
287.0000000000003
 31
0.0
  0
LINE
  5
1F7
330
54
100
AcDbEntity
  8
1
  6
Continuous
 62
     2
100
AcDbLine
 10
25.0
 20
18.50000000000001
 30
0.0
 11
81.0
 21
18.50000000000001
 31
0.0
  0
LINE
  5
1F8
330
54
100
AcDbEntity
  8
1
  6
Continuous
 62
     2
100
AcDbLine
 10
33.0
 20
27.0
 30
0.0
 11
33.0
 21
10.0
 31
0.0
  0
LINE
  5
1F9
330
54
100
AcDbEntity
  8
1
  6
Continuous
 62
     7
100
AcDbLine
 10
191.0
 20
24.70000000000001
 30
0.0
 11
191.0
 21
22.30000000000001
 31
0.0
  0
LINE
  5
1FA
330
54
100
AcDbEntity
  8
1
  6
Continuous
 62
     7
100
AcDbLine
 10
191.0
 20
24.70000000000001
 30
0.0
 11
196.0
 21
25.50000000000001
 31
0.0
  0
LINE
  5
1FB
330
54
100
AcDbEntity
  8
1
  6
Continuous
 62
     7
100
AcDbLine
 10
196.0
 20
25.50000000000001
 30
0.0
 11
196.0
 21
21.50000000000001
 31
0.0
  0
LINE
  5
1FC
330
54
100
AcDbEntity
  8
1
  6
Continuous
 62
     7
100
AcDbLine
 10
196.0
 20
21.50000000000001
 30
0.0
 11
191.0
 21
22.30000000000001
 31
0.0
  0
LINE
  5
1FD
330
54
100
AcDbEntity
  8
1
  6
DOT_CENTER
 62
     2
100
AcDbLine
 10
184.0
 20
23.50000000000001
 30
0.0
 11
197.0
 21
23.50000000000001
 31
0.0
  0
LINE
  5
1FE
330
54
100
AcDbEntity
  8
1
  6
DOT_CENTER
 62
     2
100
AcDbLine
 10
187.0
 20
26.50000000000001
 30
0.0
 11
187.0
 21
20.50000000000001
 31
0.0
  0
LINE
  5
1FF
330
54
100
AcDbEntity
  8
1
  6
Continuous
 62
     2
100
AcDbLine
 10
81.0
 20
27.00000000000001
 30
0.0
 11
81.0
 21
10.0
 31
0.0
  0
CIRCLE
  5
200
330
54
100
AcDbEntity
  8
1
  6
Continuous
 62
     7
100
AcDbCircle
 10
103.5
 20
12.5
 30
0.0
 40
0.2999999999999972
  0
CIRCLE
  5
201
330
54
100
AcDbEntity
  8
1
  6
Continuous
 62
     7
100
AcDbCircle
 10
109.5
 20
12.5
 30
0.0
 40
0.2999999999999972
  0
CIRCLE
  5
202
330
54
100
AcDbEntity
  8
1
  6
Continuous
 62
     7
100
AcDbCircle
 10
120.5
 20
12.5
 30
0.0
 40
0.2999999999999972
  0
CIRCLE
  5
203
330
54
100
AcDbEntity
  8
1
  6
Continuous
 62
     7
100
AcDbCircle
 10
126.5
 20
12.5
 30
0.0
 40
0.2999999999999972
  0
CIRCLE
  5
204
330
54
100
AcDbEntity
  8
1
  6
Continuous
 62
     7
100
AcDbCircle
 10
137.5
 20
12.5
 30
0.0
 40
0.3000000000000114
  0
CIRCLE
  5
205
330
54
100
AcDbEntity
  8
1
  6
Continuous
 62
     7
100
AcDbCircle
 10
143.5
 20
12.5
 30
0.0
 40
0.3000000000000114
  0
CIRCLE
  5
206
330
54
100
AcDbEntity
  8
1
  6
Continuous
 62
     7
100
AcDbCircle
 10
160.5
 20
12.5
 30
0.0
 40
0.3000000000000114
  0
CIRCLE
  5
207
330
54
100
AcDbEntity
  8
1
  6
Continuous
 62
     7
100
AcDbCircle
 10
154.5
 20
12.5
 30
0.0
 40
0.3000000000000114
  0
CIRCLE
  5
208
330
54
100
AcDbEntity
  8
1
  6
Continuous
 62
     7
100
AcDbCircle
 10
187.0
 20
23.50000000000001
 30
0.0
 40
1.200000000000102
  0
CIRCLE
  5
209
330
54
100
AcDbEntity
  8
1
  6
Continuous
 62
     7
100
AcDbCircle
 10
187.0
 20
23.50000000000001
 30
0.0
 40
2.0
  0
CIRCLE
  5
20A
330
54
100
AcDbEntity
  8
1
  6
DOT_CENTER
 62
     7
100
AcDbCircle
 10
89.5
 20
16.0
 30
0.0
 40
0.1000000000000227
  0
CIRCLE
  5
20B
330
54
100
AcDbEntity
  8
1
  6
DOT_CENTER
 62
     7
100
AcDbCircle
 10
89.5
 20
18.0
 30
0.0
 40
0.1000000000000227
  0
MTEXT
  5
20D
330
54
100
AcDbEntity
  8
1
 62
     7
100
AcDbMText
 10
188.5
 20
15.0
 30
0.0
 40
3.0
 41
0.0
 71
     5
 72
     1
  1
三栄水栓製作所
  7
CONVERTER_1
 73
     1
 44
1.32052821128451
  0
MTEXT
  5
20E
330
54
100
AcDbEntity
  8
1
 62
     7
100
AcDbMText
 10
171.5
 20
15.0
 30
0.0
 40
2.5
 41
0.0
 71
     5
 72
     1
  1
株式会社
  7
CONVERTER_1
 73
     1
 44
1.32052821128451
  0
MTEXT
  5
20F
330
54
100
AcDbEntity
  8
1
 62
     2
100
AcDbMText
 10
32.5
 20
282.0000000000003
 30
0.0
 40
5.0
 41
0.0
 71
     5
 72
     1
  1
図番
  7
CONVERTER_1
 73
     1
 44
0.60024009603842
  0
MTEXT
  5
210
330
54
100
AcDbEntity
  8
1
 62
     2
100
AcDbMText
 10
29.0
 20
34.00000000000001
 30
0.0
 40
3.5
 41
0.0
 71
     5
 72
     1
  1
備考
  7
CONVERTER_1
 73
     1
 44
0.60024009603842
  0
MTEXT
  5
211
330
54
100
AcDbEntity
  8
1
 62
     2
100
AcDbMText
 10
29.0
 20
22.75
 30
0.0
 40
3.5
 41
0.0
 71
     5
 72
     1
  1
品名
  7
CONVERTER_1
 73
     1
 44
0.96038415366146
  0
MTEXT
  5
212
330
54
100
AcDbEntity
  8
1
 62
     2
100
AcDbMText
 10
29.0
 20
14.25
 30
0.0
 40
3.5
 41
0.0
 71
     5
 72
     1
  1
品番
  7
CONVERTER_1
 73
     1
 44
0.96038415366146
  0
MTEXT
  5
213
330
54
100
AcDbEntity
  8
1
 62
     2
100
AcDbMText
 10
101.5
 20
25.00000000000001
 30
0.0
 40
3.0
 41
0.0
 71
     5
 72
     1
  1
承認
  7
CONVERTER_1
 73
     1
 44
0.78031212484994
  0
MTEXT
  5
214
330
54
100
AcDbEntity
  8
1
 62
     2
100
AcDbMText
 10
175.0
 20
23.50000000000001
 30
0.0
 40
3.5
 41
0.0
 71
     5
 72
     1
  1
第三角法
  7
CONVERTER_1
 73
     1
 44
0.7202881152461
  0
MTEXT
  5
215
330
54
100
AcDbEntity
  8
1
 62
     2
100
AcDbMText
 10
118.5
 20
25.00000000000001
 30
0.0
 40
3.0
 41
0.0
 71
     5
 72
     1
  1
検図
  7
CONVERTER_1
 73
     1
 44
0.78031212484994
  0
MTEXT
  5
216
330
54
100
AcDbEntity
  8
1
 62
     2
100
AcDbMText
 10
152.5
 20
25.00000000000001
 30
0.0
 40
3.0
 41
0.0
 71
     5
 72
     1
  1
設計
  7
CONVERTER_1
 73
     1
 44
0.78031212484994
  0
MTEXT
  5
217
330
54
100
AcDbEntity
  8
1
 62
     2
100
AcDbMText
 10
135.5
 20
25.00000000000001
 30
0.0
 40
3.0
 41
0.0
 71
     5
 72
     1
  1
製図
  7
CONVERTER_1
 73
     1
 44
0.78031212484994
  0
MTEXT
  5
218
330
54
100
AcDbEntity
  8
1
 62
     2
100
AcDbMText
 10
89.5
 20
24.00000000000001
 30
0.0
 40
3.5
 41
0.0
 71
     5
 72
     1
  1
尺度
  7
CONVERTER_1
 73
     1
 44
0.7202881152461
  0
MTEXT
  5
219
330
54
100
AcDbEntity
  8
1
 62
   250
100
AcDbMText
 10
25.0
 20
5.0
 30
0.0
 40
3.5
 41
0.0
 71
     4
 72
     1
  1
備考欄の文字列 原点位置=4
  7
CONVERTER_1
 73
     1
 44
0.7202881152461
  0
ENDBLK
  5
56
330
54
100
AcDbEntity
  8
0
100
AcDbBlockEnd
  0
BLOCK
  5
239
330
232
100
AcDbEntity
  8
0
100
AcDbBlockBegin
  2
*D011
 70
     1
 71
     0
 10
0.0
 20
0.0
 30
0.0
  3
*D011
  1

  0
LINE
  5
233
330
232
100
AcDbEntity
  8
1
  6
Continuous
 62
     2
100
AcDbLine
 10
370.4334148623031
 20
344.6125495682372
 30
0.0
 11
370.4334148623031
 21
403.1125495682372
 31
0.0
  0
LINE
  5
234
330
232
100
AcDbEntity
  8
1
  6
Continuous
 62
     2
100
AcDbLine
 10
400.1143262386055
 20
344.6125495682372
 30
0.0
 11
367.4334148623031
 21
344.6125495682372
 31
0.0
  0
LINE
  5
235
330
232
100
AcDbEntity
  8
1
  6
Continuous
 62
     2
100
AcDbLine
 10
449.909592510795
 20
403.1125495682372
 30
0.0
 11
367.4334148623031
 21
403.1125495682372
 31
0.0
  0
SOLID
  5
236
330
232
100
AcDbEntity
  8
1
 62
     2
100
AcDbTrace
 10
369.0510636376354
 20
355.1125495682372
 30
0.0
 11
371.8157660869708
 21
355.1125495682372
 31
0.0
 12
370.4334148623031
 22
344.6125495682372
 32
0.0
 13
370.4334148623031
 23
344.6125495682372
 33
0.0
  0
SOLID
  5
237
330
232
100
AcDbEntity
  8
1
 62
     2
100
AcDbTrace
 10
371.8157660869708
 20
392.6125495682372
 30
0.0
 11
369.0510636376354
 21
392.6125495682372
 31
0.0
 12
370.4334148623031
 22
403.1125495682372
 32
0.0
 13
370.4334148623031
 23
403.1125495682372
 33
0.0
  0
MTEXT
  5
238
330
232
100
AcDbEntity
  8
1
 62
     7
100
AcDbMText
 10
367.4334148623031
 20
344.8699145437413
 30
0.0
 40
10.50000000000001
 41
0.0
 71
     7
 72
     1
  1
59リフト5
  7
CONVERTER_1
 11
0.0
 21
1.0
 31
0.0
 73
     1
 44
0.60024009603842
  0
ENDBLK
  5
23A
330
232
100
AcDbEntity
  8
0
100
AcDbBlockEnd
  0
BLOCK
  5
244
330
23D
100
AcDbEntity
  8
0
100
AcDbBlockBegin
  2
*D112
 70
     1
 71
     0
 10
0.0
 20
0.0
 30
0.0
  3
*D112
  1

  0
LINE
  5
23E
330
23D
100
AcDbEntity
  8
1
  6
Continuous
 62
     2
100
AcDbLine
 10
508.9095925107949
 20
220.1125495682372
 30
0.0
 11
536.6611023102554
 21
220.1125495682372
 31
0.0
  0
LINE
  5
23F
330
23D
100
AcDbEntity
  8
1
  6
Continuous
 62
     2
100
AcDbLine
 10
494.9095925107949
 20
220.1125495682372
 30
0.0
 11
508.9095925107949
 21
220.1125495682372
 31
0.0
  0
LINE
  5
240
330
23D
100
AcDbEntity
  8
1
  6
Continuous
 62
     2
100
AcDbLine
 10
494.9095925107949
 20
318.1332131035101
 30
0.0
 11
494.9095925107949
 21
217.1125495682372
 31
0.0
  0
LINE
  5
241
330
23D
100
AcDbEntity
  8
1
  6
Continuous
 62
     2
100
AcDbLine
 10
508.9095925107949
 20
335.1125495682372
 30
0.0
 11
508.9095925107949
 21
217.1125495682372
 31
0.0
  0
SOLID
  5
242
330
23D
100
AcDbEntity
  8
1
 62
     2
100
AcDbTrace
 10
519.4095925107949
 20
221.4949007929048
 30
0.0
 11
519.4095925107949
 21
218.7301983435696
 31
0.0
 12
508.9095925107949
 22
220.1125495682372
 32
0.0
 13
508.9095925107949
 23
220.1125495682372
 33
0.0
  0
MTEXT
  5
243
330
23D
100
AcDbEntity
  8
1
 62
     7
100
AcDbMText
 10
524.0611023102555
 20
223.1125495682372
 30
0.0
 40
10.50000000000001
 41
0.0
 71
     7
 72
     1
  1
14
  7
CONVERTER_2
 11
0.9999999999970621
 21
2.424068405545307E-6
 31
0.0
 73
     1
 44
0.60024009603842
  0
ENDBLK
  5
245
330
23D
100
AcDbEntity
  8
0
100
AcDbBlockEnd
  0
BLOCK
  5
247
330
246
100
AcDbEntity
  8
0
100
AcDbBlockBegin
  2
_None
 70
     0
 71
     0
 10
0.0
 20
0.0
 30
0.0
  3
_None
  1

  0
ENDBLK
  5
248
330
246
100
AcDbEntity
  8
0
100
AcDbBlockEnd
  0
BLOCK
  5
252
330
24B
100
AcDbEntity
  8
0
100
AcDbBlockBegin
  2
*D214
 70
     1
 71
     0
 10
0.0
 20
0.0
 30
0.0
  3
*D214
  1

  0
LINE
  5
24C
330
24B
100
AcDbEntity
  8
1
  6
Continuous
 62
     2
100
AcDbLine
 10
538.9095925107949
 20
321.6125495682372
 30
0.0
 11
538.9095925107949
 21
367.6125495682372
 31
0.0
  0
LINE
  5
24D
330
24B
100
AcDbEntity
  8
1
  6
Continuous
 62
     2
100
AcDbLine
 10
494.9095925107949
 20
321.6125495682372
 30
0.0
 11
541.9095925107949
 21
321.6125495682372
 31
0.0
  0
LINE
  5
24E
330
24B
100
AcDbEntity
  8
1
  6
Continuous
 62
     2
100
AcDbLine
 10
494.9095925107949
 20
367.6125495682372
 30
0.0
 11
541.9095925107949
 21
367.6125495682372
 31
0.0
  0
SOLID
  5
24F
330
24B
100
AcDbEntity
  8
1
 62
     2
100
AcDbTrace
 10
537.5272412861273
 20
332.1125495682372
 30
0.0
 11
540.2919437354626
 21
332.1125495682372
 31
0.0
 12
538.9095925107949
 22
321.6125495682372
 32
0.0
 13
538.9095925107949
 23
321.6125495682372
 33
0.0
  0
SOLID
  5
250
330
24B
100
AcDbEntity
  8
1
 62
     2
100
AcDbTrace
 10
540.2919437354626
 20
357.1125495682372
 30
0.0
 11
537.5272412861273
 21
357.1125495682372
 31
0.0
 12
538.9095925107949
 22
367.6125495682372
 32
0.0
 13
538.9095925107949
 23
367.6125495682372
 33
0.0
  0
MTEXT
  5
251
330
24B
100
AcDbEntity
  8
1
 62
     7
100
AcDbMText
 10
535.9095925107949
 20
325.8175495682372
 30
0.0
 40
10.50000000000001
 41
0.0
 71
     7
 72
     1
  1
\C7;{\Fgdt;n}\C7;46
  7
CONVERTER_2
 11
0.0
 21
1.0
 31
0.0
 73
     1
 44
0.60024009603842
  0
ENDBLK
  5
253
330
24B
100
AcDbEntity
  8
0
100
AcDbBlockEnd
  0
BLOCK
  5
25D
330
256
100
AcDbEntity
  8
0
100
AcDbBlockBegin
  2
*D315
 70
     1
 71
     0
 10
0.0
 20
0.0
 30
0.0
  3
*D315
  1

  0
LINE
  5
257
330
256
100
AcDbEntity
  8
0
  6
Continuous
 62
     2
100
AcDbLine
 10
370.4334148623031
 20
344.6125495682372
 30
0.0
 11
370.4334148623031
 21
250.1125495682373
 31
0.0
  0
LINE
  5
258
330
256
100
AcDbEntity
  8
0
  6
Continuous
 62
     2
100
AcDbLine
 10
252.2942001123703
 20
250.1125495682373
 30
0.0
 11
373.4334148623031
 21
250.1125495682373
 31
0.0
  0
LINE
  5
259
330
256
100
AcDbEntity
  8
0
  6
Continuous
 62
     2
100
AcDbLine
 10
400.1143262386055
 20
344.6125495682372
 30
0.0
 11
367.4334148623031
 21
344.6125495682372
 31
0.0
  0
SOLID
  5
25A
330
256
100
AcDbEntity
  8
0
 62
     2
100
AcDbTrace
 10
371.8157660869708
 20
334.1125495682372
 30
0.0
 11
369.0510636376354
 21
334.1125495682372
 31
0.0
 12
370.4334148623031
 22
344.6125495682372
 32
0.0
 13
370.4334148623031
 23
344.6125495682372
 33
0.0
  0
SOLID
  5
25B
330
256
100
AcDbEntity
  8
0
 62
     2
100
AcDbTrace
 10
369.0510636376354
 20
260.6125495682373
 30
0.0
 11
371.8157660869708
 21
260.6125495682373
 31
0.0
 12
370.4334148623031
 22
250.1125495682373
 32
0.0
 13
370.4334148623031
 23
250.1125495682373
 33
0.0
  0
MTEXT
  5
25C
330
256
100
AcDbEntity
  8
0
 62
     7
100
AcDbMText
 10
367.4334148623031
 20
301.2795867734475
 30
0.0
 40
10.50000000000001
 41
0.0
 71
     7
 72
     1
  1
95
  7
CONVERTER_2
 11
0.0
 21
1.0
 31
0.0
 73
     1
 44
0.60024009603842
  0
ENDBLK
  5
25E
330
256
100
AcDbEntity
  8
0
100
AcDbBlockEnd
  0
BLOCK
  5
268
330
261
100
AcDbEntity
  8
0
100
AcDbBlockBegin
  2
*D416
 70
     1
 71
     0
 10
0.0
 20
0.0
 30
0.0
  3
*D416
  1

  0
LINE
  5
262
330
261
100
AcDbEntity
  8
0
  6
Continuous
 62
     2
100
AcDbLine
 10
244.9077931063843
 20
220.1125495682372
 30
0.0
 11
414.9095925107949
 21
220.1125495682372
 31
0.0
  0
LINE
  5
263
330
261
100
AcDbEntity
  8
0
  6
Continuous
 62
     2
100
AcDbLine
 10
244.9077931063843
 20
247.9645046486152
 30
0.0
 11
244.9077931063843
 21
217.1125495682372
 31
0.0
  0
LINE
  5
264
330
261
100
AcDbEntity
  8
0
  6
Continuous
 62
     2
100
AcDbLine
 10
414.9095925107949
 20
310.1125495682372
 30
0.0
 11
414.9095925107949
 21
217.1125495682372
 31
0.0
  0
SOLID
  5
265
330
261
100
AcDbEntity
  8
0
 62
     2
100
AcDbTrace
 10
255.4077931063843
 20
221.4949007929048
 30
0.0
 11
255.4077931063843
 21
218.7301983435696
 31
0.0
 12
244.9077931063843
 22
220.1125495682372
 32
0.0
 13
244.9077931063843
 23
220.1125495682372
 33
0.0
  0
SOLID
  5
266
330
261
100
AcDbEntity
  8
0
 62
     2
100
AcDbTrace
 10
404.4095925107949
 20
218.7301983435696
 30
0.0
 11
404.4095925107949
 21
221.4949007929048
 31
0.0
 12
414.9095925107949
 22
220.1125495682372
 32
0.0
 13
414.9095925107949
 23
220.1125495682372
 33
0.0
  0
MTEXT
  5
267
330
261
100
AcDbEntity
  8
0
 62
     7
100
AcDbMText
 10
318.8836928085896
 20
223.1125495682372
 30
0.0
 40
10.50000000000001
 41
0.0
 71
     7
 72
     1
  1
170
  7
CONVERTER_2
 11
0.9999999999970621
 21
2.424068405545307E-6
 31
0.0
 73
     1
 44
0.60024009603842
  0
ENDBLK
  5
269
330
261
100
AcDbEntity
  8
0
100
AcDbBlockEnd
  0
BLOCK
  5
273
330
26C
100
AcDbEntity
  8
0
100
AcDbBlockBegin
  2
*D517
 70
     1
 71
     0
 10
0.0
 20
0.0
 30
0.0
  3
*D517
  1

  0
LINE
  5
26D
330
26C
100
AcDbEntity
  8
0
  6
Continuous
 62
     2
100
AcDbLine
 10
414.9095925107949
 20
220.1125495682372
 30
0.0
 11
449.9095925107949
 21
220.1125495682372
 31
0.0
  0
LINE
  5
26E
330
26C
100
AcDbEntity
  8
0
  6
Continuous
 62
     2
100
AcDbLine
 10
414.9095925107949
 20
310.1125495682372
 30
0.0
 11
414.9095925107949
 21
217.1125495682372
 31
0.0
  0
LINE
  5
26F
330
26C
100
AcDbEntity
  8
0
  6
Continuous
 62
     2
100
AcDbLine
 10
449.9095925107949
 20
328.9612646182733
 30
0.0
 11
449.9095925107949
 21
217.1125495682372
 31
0.0
  0
SOLID
  5
270
330
26C
100
AcDbEntity
  8
0
 62
     2
100
AcDbTrace
 10
425.4095925107949
 20
221.4949007929048
 30
0.0
 11
425.4095925107949
 21
218.7301983435696
 31
0.0
 12
414.9095925107949
 22
220.1125495682372
 32
0.0
 13
414.9095925107949
 23
220.1125495682372
 33
0.0
  0
SOLID
  5
271
330
26C
100
AcDbEntity
  8
0
 62
     2
100
AcDbTrace
 10
439.4095925107949
 20
218.7301983435696
 30
0.0
 11
439.4095925107949
 21
221.4949007929048
 31
0.0
 12
449.9095925107949
 22
220.1125495682372
 32
0.0
 13
449.9095925107949
 23
220.1125495682372
 33
0.0
  0
MTEXT
  5
272
330
26C
100
AcDbEntity
  8
0
 62
     7
100
AcDbMText
 10
424.5345925107948
 20
223.1125495682372
 30
0.0
 40
10.50000000000001
 41
0.0
 71
     7
 72
     1
  1
35
  7
CONVERTER_2
 11
0.9999999999970621
 21
2.424068405545307E-6
 31
0.0
 73
     1
 44
0.60024009603842
  0
ENDBLK
  5
274
330
26C
100
AcDbEntity
  8
0
100
AcDbBlockEnd
  0
BLOCK
  5
27E
330
277
100
AcDbEntity
  8
0
100
AcDbBlockBegin
  2
*D618
 70
     1
 71
     0
 10
0.0
 20
0.0
 30
0.0
  3
*D618
  1

  0
LINE
  5
278
330
277
100
AcDbEntity
  8
0
  6
Continuous
 62
     2
100
AcDbLine
 10
449.9095925107949
 20
220.1125495682372
 30
0.0
 11
494.9095925107949
 21
220.1125495682372
 31
0.0
  0
LINE
  5
279
330
277
100
AcDbEntity
  8
0
  6
Continuous
 62
     2
100
AcDbLine
 10
449.9095925107949
 20
328.9612646182733
 30
0.0
 11
449.9095925107949
 21
217.1125495682372
 31
0.0
  0
LINE
  5
27A
330
277
100
AcDbEntity
  8
0
  6
Continuous
 62
     2
100
AcDbLine
 10
494.9095925107949
 20
318.1332131035101
 30
0.0
 11
494.9095925107949
 21
217.1125495682372
 31
0.0
  0
SOLID
  5
27B
330
277
100
AcDbEntity
  8
0
 62
     2
100
AcDbTrace
 10
460.4095925107949
 20
221.4949007929048
 30
0.0
 11
460.4095925107949
 21
218.7301983435696
 31
0.0
 12
449.9095925107949
 22
220.1125495682372
 32
0.0
 13
449.9095925107949
 23
220.1125495682372
 33
0.0
  0
SOLID
  5
27C
330
277
100
AcDbEntity
  8
0
 62
     2
100
AcDbTrace
 10
484.4095925107949
 20
218.7301983435696
 30
0.0
 11
484.4095925107949
 21
221.4949007929048
 31
0.0
 12
494.9095925107949
 22
220.1125495682372
 32
0.0
 13
494.9095925107949
 23
220.1125495682372
 33
0.0
  0
MTEXT
  5
27D
330
277
100
AcDbEntity
  8
0
 62
     7
100
AcDbMText
 10
464.5345925107948
 20
223.1125495682372
 30
0.0
 40
10.50000000000001
 41
0.0
 71
     7
 72
     1
  1
45
  7
CONVERTER_2
 11
0.9999999999970621
 21
2.424068405545307E-6
 31
0.0
 73
     1
 44
0.60024009603842
  0
ENDBLK
  5
27F
330
277
100
AcDbEntity
  8
0
100
AcDbBlockEnd
  0
ENDSEC
  0
SECTION
  2
ENTITIES
  0
INSERT
  5
57
330
1F
100
AcDbEntity
  8
0
100
AcDbBlockReference
  2
37-1-13
 10
358.1083622940238
 20
228.1168436780926
 30
0.0
 41
1.0
 42
1.0
 43
1.0
  0
INSERT
  5
58
330
1F
100
AcDbEntity
  8
0
100
AcDbBlockReference
  2
R20F
 10
418.9847767144053
 20
388.1125495682371
 30
0.0
 41
1.0
 42
1.0
 43
1.0
  0
INSERT
  5
59
330
1F
100
AcDbEntity
  8
1
100
AcDbBlockReference
  2
36-54
 10
1086.930554910954
 20
502.1689509706046
 30
0.0
 41
1.0
 42
1.0
 43
1.0
  0
INSERT
  5
5A
330
1F
100
AcDbEntity
  8
1
100
AcDbBlockReference
  2
32-1-16
 10
118.3638526751261
 20
525.0983816983462
 30
0.0
 41
1.0
 42
1.0
 43
1.0
  0
INSERT
  5
5B
330
1F
100
AcDbEntity
  8
1
100
AcDbBlockReference
  2
A10-0A-13
 10
449.9095925107948
 20
344.6125495682372
 30
0.0
 41
1.0
 42
1.0
 43
1.0
  0
INSERT
  5
5C
330
1F
100
AcDbEntity
  8
1
100
AcDbBlockReference
  2
A10J-60X-16
 10
236.257793106384
 20
247.9645046486151
 30
0.0
 41
1.0
 42
1.0
 43
1.0
  0
INSERT
  5
5D
330
1F
100
AcDbEntity
  8
1
100
AcDbBlockReference
  2
_J__A4
 10
0.0
 20
0.0
 30
0.0
 41
3.0
 42
3.0
 43
3.0
  0
LINE
  5
21A
330
1F
100
AcDbEntity
  8
0
  6
DASH_CENTER
 62
     2
100
AcDbLine
 10
175.8932375455003
 20
406.280362625896
 30
0.0
 11
175.8932375455003
 21
247.6695770666534
 31
0.0
  0
LINE
  5
21B
330
1F
100
AcDbEntity
  8
1
  6
DASH_CENTER
 62
     2
100
AcDbLine
 10
449.9095925107949
 20
328.9612646182733
 30
0.0
 11
449.9095925107949
 21
406.280362625896
 31
0.0
  0
LINE
  5
21C
330
1F
100
AcDbEntity
  8
1
  6
DASH_CENTER
 62
     2
100
AcDbLine
 10
511.9473990425479
 20
344.6125495682372
 30
0.0
 11
400.1143262386055
 21
344.6125495682372
 31
0.0
  0
LINE
  5
21D
330
1F
100
AcDbEntity
  8
1
  6
DASH_CENTER
 62
     2
100
AcDbLine
 10
192.8932375455004
 20
678.3292200641163
 30
0.0
 11
158.8932375455004
 21
678.3292200641163
 31
0.0
  0
LINE
  5
21E
330
1F
100
AcDbEntity
  8
1
  6
DASH_CENTER
 62
     2
100
AcDbLine
 10
191.8932375455004
 20
643.3292200641163
 30
0.0
 11
159.8932375455004
 21
643.3292200641163
 31
0.0
  0
LINE
  5
21F
330
1F
100
AcDbEntity
  8
1
  6
DASH_CENTER
 62
     2
100
AcDbLine
 10
184.5534915833447
 20
673.3292200641162
 30
0.0
 11
146.4483738168293
 21
695.3292200641162
 31
0.0
  0
LINE
  5
220
330
1F
100
AcDbEntity
  8
1
  6
DASH_CENTER
 62
     2
100
AcDbLine
 10
167.2329835076558
 20
673.3292200641162
 30
0.0
 11
205.3381012741712
 21
695.3292200641163
 31
0.0
  0
LINE
  5
221
330
1F
100
AcDbEntity
  8
0
  6
DASH_CENTER
 62
     2
100
AcDbLine
 10
149.8932375455003
 20
344.6125495682372
 30
0.0
 11
201.8932375455003
 21
344.6125495682372
 31
0.0
  0
LINE
  5
222
330
1F
100
AcDbEntity
  8
1
  6
DASH_CENTER
 62
     2
100
AcDbLine
 10
244.9077931063843
 20
247.9645046486152
 30
0.0
 11
244.9077931063843
 21
257.1125495682372
 31
0.0
  0
LINE
  5
223
330
1F
100
AcDbEntity
  8
1
  6
DASH_CENTER
 62
     2
100
AcDbLine
 10
271.9077931063843
 20
283.1125495682372
 30
0.0
 11
387.9095925107949
 21
283.1125495682372
 31
0.0
  0
LINE
  5
224
330
1F
100
AcDbEntity
  8
1
  6
DASH_CENTER
 62
     2
100
AcDbLine
 10
414.9095925107949
 20
310.1125495682372
 30
0.0
 11
414.9095925107949
 21
352.2382882965251
 31
0.0
  0
LINE
  5
225
330
1F
100
AcDbEntity
  8
1
  6
DASH_CENTER
 62
     2
100
AcDbLine
 10
175.8932375455003
 20
740.0510382582601
 30
0.0
 11
175.8932375455003
 21
461.3512233941511
 31
0.0
  0
LINE
  5
226
330
1F
100
AcDbEntity
  8
1
  6
DASH_CENTER
 62
     2
100
AcDbLine
 10
187.2674597393624
 20
473.3274206597056
 30
0.0
 11
164.9152863332794
 21
473.3274206597056
 31
0.0
  0
ARC
  5
227
330
1F
100
AcDbEntity
  8
1
  6
DASH_CENTER
 62
     2
100
AcDbCircle
 10
271.9077931063843
 20
256.1125495682372
 30
0.0
 40
27.0
100
AcDbArc
 50
90.0
 51
180.0
  0
ARC
  5
228
330
1F
100
AcDbEntity
  8
1
  6
DASH_CENTER
 62
     2
100
AcDbCircle
 10
387.9095925107949
 20
310.1125495682372
 30
0.0
 40
27.0
100
AcDbArc
 50
-90.0
 51
0.0
  0
SOLID
  5
229
330
1F
100
AcDbEntity
  8
1
 62
     2
100
AcDbTrace
 10
190.4460862679858
 20
739.6136624161867
 30
0.0
 11
192.8403888230152
 21
738.231311191519
 31
0.0
 12
186.3932375455004
 22
729.8292200641163
 32
0.0
 13
186.3932375455004
 23
729.8292200641163
 33
0.0
  0
LEADER
  5
22A
330
1F
100
AcDbEntity
  8
1
  6
Continuous
 62
     2
100
AcDbLeader
  3
Standard
 71
     0
 76
     3
 10
186.3932375455004
 20
729.8292200641163
 30
0.0
 10
200.7162884346095
 20
754.6374719234478
 30
0.0
 10
249.981326010001
 20
754.6374719234478
 30
0.0
  0
MTEXT
  5
22C
330
1F
100
AcDbEntity
  8
1
 62
     7
100
AcDbMText
 10
281.2500000000003
 20
51.00000000000005
 30
0.0
 40
10.50000000000001
 41
0.0
 71
     5
 72
     1
  1
3
  7
CONVERTER_2
 73
     1
 44
0.7202881152461
  0
MTEXT
  5
22D
330
1F
100
AcDbEntity
  8
1
 62
     7
100
AcDbMText
 10
255.7500000000003
 20
51.00000000000005
 30
0.0
 40
10.50000000000001
 41
0.0
 71
     5
 72
     1
  1
1
  7
CONVERTER_2
 73
     1
 44
0.7202881152461
  0
MTEXT
  5
22E
330
1F
100
AcDbEntity
  8
0
 62
     7
100
AcDbMText
 10
171.0000000000002
 20
42.75000000000004
 30
0.0
 40
10.50000000000001
 41
0.0
 71
     5
 72
     1
  1
A10JK-13
  7
CONVERTER_2
 73
     1
 44
0.7202881152461
  0
MTEXT
  5
22F
330
1F
100
AcDbEntity
  8
0
 62
     7
100
AcDbMText
 10
171.0000000000002
 20
68.2500000000001
 30
0.0
 40
10.50000000000001
 41
0.0
 71
     5
 72
     1
  1
自在水栓
  7
CONVERTER_1
 73
     1
 44
1.32052821128451
  0
MTEXT
  5
230
330
1F
100
AcDbEntity
  8
1
 62
     7
100
AcDbMText
 10
225.3488072223052
 20
763.6374719234478
 30
0.0
 40
10.50000000000001
 41
0.0
 71
     5
 72
     1
  1
PJ1/2
  7
CONVERTER_2
 73
     1
 44
1.32052821128451
  0
MTEXT
  5
231
330
1F
100
AcDbEntity
  8
0
 62
     7
100
AcDbMText
 10
102.0000000000001
 20
102.0000000000001
 30
0.0
 40
10.50000000000001
 41
0.0
 71
     4
 72
     1
  1
JIS
  7
CONVERTER_2
 73
     1
 44
1.32052821128451
  0
DIMENSION
  5
23C
330
1F
100
AcDbEntity
  8
1
100
AcDbDimension
  2
*D011
 10
370.4334148623031
 20
344.6125495682372
 30
0.0
 11
362.1834148623031
 21
373.2199145437413
 31
0.0
  1
59リフト5
 71
     5
 42
0.0
 53
90.0
  3
ME10_DIM_0
100
AcDbAlignedDimension
 13
449.9095925107949
 23
403.1125495682371
 33
0.0
 14
400.1143262386055
 24
344.6125495682372
 34
0.0
 50
90.0
100
AcDbRotatedDimension
  0
DIMENSION
  5
24A
330
1F
100
AcDbEntity
  8
1
100
AcDbDimension
  2
*D112
 10
494.9095925107949
 20
220.1125495682372
 30
0.0
 11
530.3611023102554
 21
228.3625495682372
 31
0.0
  1
<>
 71
     5
 42
0.0
 53
0.00013888888889
  3
ME10_DIM_1
100
AcDbAlignedDimension
 13
508.9095925107947
 23
335.1125495682371
 33
0.0
 14
494.9095925107948
 24
318.13321310351
 34
0.0
100
AcDbRotatedDimension
  0
DIMENSION
  5
255
330
1F
100
AcDbEntity
  8
1
100
AcDbDimension
  2
*D214
 10
538.9095925107949
 20
321.6125495682372
 30
0.0
 11
530.6595925107949
 21
344.6125495682372
 31
0.0
  1
<>
 71
     5
 42
0.0
 53
90.0
  3
ME10_DIM_2
100
AcDbAlignedDimension
 13
494.9095925107948
 23
367.6125495682371
 33
0.0
 14
494.9095925107948
 24
321.6125495682371
 34
0.0
 50
90.0
100
AcDbRotatedDimension
  0
DIMENSION
  5
260
330
1F
100
AcDbEntity
  8
0
100
AcDbDimension
  2
*D315
 10
370.4334148623031
 20
344.6125495682372
 30
0.0
 11
362.1834148623031
 21
309.1545867734475
 31
0.0
  1
95
 71
     5
 42
0.0
 53
90.0
  3
ME10_DIM_3
100
AcDbAlignedDimension
 13
252.2942001123702
 23
250.1125495682371
 33
0.0
 14
400.1143262386055
 24
344.6125495682372
 34
0.0
 50
90.0
100
AcDbRotatedDimension
  0
DIMENSION
  5
26B
330
1F
100
AcDbEntity
  8
0
100
AcDbDimension
  2
*D416
 10
244.9077931063843
 20
220.1125495682372
 30
0.0
 11
329.9086928085896
 21
228.3625495682372
 31
0.0
  1
<>
 71
     5
 42
0.0
 53
0.00013888888889
  3
ME10_DIM_4
100
AcDbAlignedDimension
 13
414.9095925107947
 23
310.1125495682371
 33
0.0
 14
244.9077931063843
 24
247.9645046486151
 34
0.0
100
AcDbRotatedDimension
  0
DIMENSION
  5
276
330
1F
100
AcDbEntity
  8
0
100
AcDbDimension
  2
*D517
 10
414.9095925107949
 20
220.1125495682372
 30
0.0
 11
432.4095925107948
 21
228.3625495682372
 31
0.0
  1
<>
 71
     5
 42
0.0
 53
0.00013888888889
  3
ME10_DIM_5
100
AcDbAlignedDimension
 13
449.9095925107949
 23
328.9612646182733
 33
0.0
 14
414.9095925107947
 24
310.1125495682371
 34
0.0
100
AcDbRotatedDimension
  0
DIMENSION
  5
281
330
1F
100
AcDbEntity
  8
0
100
AcDbDimension
  2
*D618
 10
449.9095925107949
 20
220.1125495682372
 30
0.0
 11
472.4095925107948
 21
228.3625495682372
 31
0.0
  1
<>
 71
     5
 42
0.0
 53
0.00013888888889
  3
ME10_DIM_6
100
AcDbAlignedDimension
 13
494.9095925107948
 23
318.13321310351
 33
0.0
 14
449.9095925107949
 24
328.9612646182733
 34
0.0
100
AcDbRotatedDimension
  0
ENDSEC
  0
SECTION
  2
OBJECTS
  0
DICTIONARY
  5
C
330
0
100
AcDbDictionary
281
     1
  3
ACAD_GROUP
350
D
  3
ACAD_LAYOUT
350
1A
  3
ACAD_MLINESTYLE
350
17
  3
ACAD_PLOTSETTINGS
350
19
  3
ACAD_PLOTSTYLENAME
350
E
  3
ACAD_TABLESTYLE
350
2A
  3
AcDbVariableDictionary
350
2C
  0
DICTIONARY
  5
D
102
{ACAD_REACTORS
330
C
102
}
330
C
100
AcDbDictionary
281
     1
  0
DICTIONARY
  5
1A
102
{ACAD_REACTORS
330
C
102
}
330
C
100
AcDbDictionary
281
     1
  3
Layout1
350
1E
  3
Layout2
350
26
  3
Model
350
22
  0
DICTIONARY
  5
17
102
{ACAD_REACTORS
330
C
102
}
330
C
100
AcDbDictionary
281
     1
  3
Standard
350
18
  0
DICTIONARY
  5
19
102
{ACAD_REACTORS
330
C
102
}
330
C
100
AcDbDictionary
281
     1
  0
ACDBDICTIONARYWDFLT
  5
E
102
{ACAD_REACTORS
330
C
102
}
330
C
100
AcDbDictionary
281
     1
  3
Normal
350
F
100
AcDbDictionaryWithDefault
340
F
  0
DICTIONARY
  5
2A
102
{ACAD_REACTORS
330
C
102
}
330
C
100
AcDbDictionary
281
     1
  3
Standard
350
2B
  0
DICTIONARY
  5
2C
102
{ACAD_REACTORS
330
C
102
}
330
C
100
AcDbDictionary
281
     1
  3
CTABLESTYLE
350
2D
  0
LAYOUT
  5
1E
102
{ACAD_REACTORS
330
1A
102
}
330
1A
100
AcDbPlotSettings
  1

  2

  4

  6

 40
0.0
 41
0.0
 42
0.0
 43
0.0
 44
0.0
 45
0.0
 46
0.0
 47
0.0
 48
0.0
 49
0.0
140
0.0
141
0.0
142
1.0
143
1.0
 70
   688
 72
     0
 73
     0
 74
     5
  7

 75
    16
147
1.0
148
0.0
149
0.0
100
AcDbLayout
  1
Layout1
 70
     1
 71
     1
 10
0.0
 20
0.0
 11
12.0
 21
9.0
 12
0.0
 22
0.0
 32
0.0
 14
1.00000000000000E+20
 24
1.00000000000000E+20
 34
1.00000000000000E+20
 15
-1.00000000000000E+20
 25
-1.00000000000000E+20
 35
-1.00000000000000E+20
146
0.0
 13
0.0
 23
0.0
 33
0.0
 16
1.0
 26
0.0
 36
0.0
 17
0.0
 27
1.0
 37
0.0
 76
     0
330
1B
  0
LAYOUT
  5
26
102
{ACAD_REACTORS
330
1A
102
}
330
1A
100
AcDbPlotSettings
  1

  2

  4

  6

 40
0.0
 41
0.0
 42
0.0
 43
0.0
 44
0.0
 45
0.0
 46
0.0
 47
0.0
 48
0.0
 49
0.0
140
0.0
141
0.0
142
1.0
143
1.0
 70
   688
 72
     0
 73
     0
 74
     5
  7

 75
    16
147
1.0
148
0.0
149
0.0
100
AcDbLayout
  1
Layout2
 70
     1
 71
     2
 10
0.0
 20
0.0
 11
0.0
 21
0.0
 12
0.0
 22
0.0
 32
0.0
 14
0.0
 24
0.0
 34
0.0
 15
0.0
 25
0.0
 35
0.0
146
0.0
 13
0.0
 23
0.0
 33
0.0
 16
1.0
 26
0.0
 36
0.0
 17
0.0
 27
1.0
 37
0.0
 76
     0
330
23
  0
LAYOUT
  5
22
102
{ACAD_REACTORS
330
1A
102
}
330
1A
100
AcDbPlotSettings
  1

  2

  4

  6

 40
0.0
 41
0.0
 42
0.0
 43
0.0
 44
0.0
 45
0.0
 46
0.0
 47
0.0
 48
0.0
 49
0.0
140
0.0
141
0.0
142
1.0
143
1.0
 70
  1712
 72
     0
 73
     0
 74
     0
  7

 75
     0
147
1.0
148
0.0
149
0.0
100
AcDbLayout
  1
Model
 70
     1
 71
     0
 10
0.0
 20
0.0
 11
0.0
 21
0.0
 12
0.0
 22
0.0
 32
0.0
 14
0.0
 24
0.0
 34
0.0
 15
630.0000000000007
 25
891.0000000000009
 35
0.0
146
0.0
 13
0.0
 23
0.0
 33
0.0
 16
1.0
 26
0.0
 36
0.0
 17
0.0
 27
1.0
 37
0.0
 76
     0
330
1F
  0
MLINESTYLE
  5
18
102
{ACAD_REACTORS
330
17
102
}
330
17
100
AcDbMlineStyle
  2
Standard
 70
     0
  3

 62
   256
 51
90.0
 52
90.0
 71
     2
 49
0.5
 62
   256
  6
BYLAYER
 49
-0.5
 62
   256
  6
BYLAYER
  0
ACDBPLACEHOLDER
  5
F
102
{ACAD_REACTORS
330
E
102
}
330
E
  0
TABLESTYLE
  5
2B
102
{ACAD_REACTORS
330
2A
102
}
330
2A
100
AcDbTableStyle
  3
Standard
 70
     0
 71
     0
 40
0.06
 41
0.06
280
     0
281
     0
  7
Standard
140
0.18
170
     2
 62
     0
 63
     7
283
     0
274
    -2
284
     1
 64
     0
275
    -2
285
     1
 65
     0
276
    -2
286
     1
 66
     0
277
    -2
287
     1
 67
     0
278
    -2
288
     1
 68
     0
279
    -2
289
     1
 69
     0
  7
Standard
140
0.25
170
     5
 62
     0
 63
     7
283
     0
274
    -2
284
     1
 64
     0
275
    -2
285
     1
 65
     0
276
    -2
286
     1
 66
     0
277
    -2
287
     1
 67
     0
278
    -2
288
     1
 68
     0
279
    -2
289
     1
 69
     0
  7
Standard
140
0.18
170
     5
 62
     0
 63
     7
283
     0
274
    -2
284
     1
 64
     0
275
    -2
285
     1
 65
     0
276
    -2
286
     1
 66
     0
277
    -2
287
     1
 67
     0
278
    -2
288
     1
 68
     0
279
    -2
289
     1
 69
     0
  0
DICTIONARYVAR
  5
2D
102
{ACAD_REACTORS
330
2C
102
}
330
2C
100
DictionaryVariables
280
     0
  1
Standard
  0
ENDSEC
  0
EOF
