  0
SECTION
  2
HEADER
  9
$ACADVER
  1
AC1015
  9
$ACADMAINTVER
 70
     6
  9
$DWGCODEPAGE
  3
ANSI_932
  9
$INSBASE
 10
0.0
 20
0.0
 30
0.0
  9
$EXTMIN
 10
0.0
 20
0.0
 30
0.0
  9
$EXTMAX
 10
630.0
 20
891.0
 30
0.0
  9
$LIMMIN
 10
0.0
 20
0.0
  9
$LIMMAX
 10
12.0
 20
9.0
  9
$ORTHOMODE
 70
     0
  9
$REGENMODE
 70
     1
  9
$FILLMODE
 70
     1
  9
$QTEXTMODE
 70
     0
  9
$MIRRTEXT
 70
     1
  9
$LTSCALE
 40
1.0
  9
$ATTMODE
 70
     1
  9
$TEXTSIZE
 40
0.2
  9
$TRACEWID
 40
0.05
  9
$TEXTSTYLE
  7
Standard
  9
$CLAYER
  8
0
  9
$CELTYPE
  6
ByLayer
  9
$CECOLOR
 62
   256
  9
$CELTSCALE
 40
1.0
  9
$DISPSILH
 70
     0
  9
$DIMSCALE
 40
1.0
  9
$DIMASZ
 40
0.18
  9
$DIMEXO
 40
0.0625
  9
$DIMDLI
 40
0.38
  9
$DIMRND
 40
0.0
  9
$DIMDLE
 40
0.0
  9
$DIMEXE
 40
0.18
  9
$DIMTP
 40
0.0
  9
$DIMTM
 40
0.0
  9
$DIMTXT
 40
0.18
  9
$DIMCEN
 40
0.09
  9
$DIMTSZ
 40
0.0
  9
$DIMTOL
 70
     0
  9
$DIMLIM
 70
     0
  9
$DIMTIH
 70
     1
  9
$DIMTOH
 70
     1
  9
$DIMSE1
 70
     0
  9
$DIMSE2
 70
     0
  9
$DIMTAD
 70
     0
  9
$DIMZIN
 70
     0
  9
$DIMBLK
  1

  9
$DIMASO
 70
     1
  9
$DIMSHO
 70
     1
  9
$DIMPOST
  1

  9
$DIMAPOST
  1

  9
$DIMALT
 70
     0
  9
$DIMALTD
 70
     2
  9
$DIMALTF
 40
25.4
  9
$DIMLFAC
 40
1.0
  9
$DIMTOFL
 70
     0
  9
$DIMTVP
 40
0.0
  9
$DIMTIX
 70
     0
  9
$DIMSOXD
 70
     0
  9
$DIMSAH
 70
     0
  9
$DIMBLK1
  1

  9
$DIMBLK2
  1

  9
$DIMSTYLE
  2
Standard
  9
$DIMCLRD
 70
     0
  9
$DIMCLRE
 70
     0
  9
$DIMCLRT
 70
     0
  9
$DIMTFAC
 40
1.0
  9
$DIMGAP
 40
0.09
  9
$DIMJUST
 70
     0
  9
$DIMSD1
 70
     0
  9
$DIMSD2
 70
     0
  9
$DIMTOLJ
 70
     1
  9
$DIMTZIN
 70
     0
  9
$DIMALTZ
 70
     0
  9
$DIMALTTZ
 70
     0
  9
$DIMUPT
 70
     0
  9
$DIMDEC
 70
     4
  9
$DIMTDEC
 70
     4
  9
$DIMALTU
 70
     2
  9
$DIMALTTD
 70
     2
  9
$DIMTXSTY
  7
Standard
  9
$DIMAUNIT
 70
     0
  9
$DIMADEC
 70
     0
  9
$DIMALTRND
 40
0.0
  9
$DIMAZIN
 70
     0
  9
$DIMDSEP
 70
    46
  9
$DIMATFIT
 70
     3
  9
$DIMFRAC
 70
     0
  9
$DIMLDRBLK
  1

  9
$DIMLUNIT
 70
     2
  9
$DIMLWD
 70
    -2
  9
$DIMLWE
 70
    -2
  9
$DIMTMOVE
 70
     0
  9
$LUNITS
 70
     2
  9
$LUPREC
 70
     4
  9
$SKETCHINC
 40
0.1
  9
$FILLETRAD
 40
0.5
  9
$AUNITS
 70
     0
  9
$AUPREC
 70
     0
  9
$MENU
  1
.
  9
$ELEVATION
 40
0.0
  9
$PELEVATION
 40
0.0
  9
$THICKNESS
 40
0.0
  9
$LIMCHECK
 70
     0
  9
$CHAMFERA
 40
0.5
  9
$CHAMFERB
 40
0.5
  9
$CHAMFERC
 40
1.0
  9
$CHAMFERD
 40
0.0
  9
$SKPOLY
 70
     0
  9
$TDCREATE
 40
2456569.655414387
  9
$TDUCREATE
 40
2456569.280414387
  9
$TDUPDATE
 40
2456569.655416007
  9
$TDUUPDATE
 40
2456569.280416007
  9
$TDINDWG
 40
0.0000000116
  9
$TDUSRTIMER
 40
0.0000000116
  9
$USRTIMER
 70
     1
  9
$ANGBASE
 50
0.0
  9
$ANGDIR
 70
     0
  9
$PDMODE
 70
     0
  9
$PDSIZE
 40
0.0
  9
$PLINEWID
 40
0.0
  9
$SPLFRAME
 70
     0
  9
$SPLINETYPE
 70
     6
  9
$SPLINESEGS
 70
     8
  9
$HANDSEED
  5
273
  9
$SURFTAB1
 70
     6
  9
$SURFTAB2
 70
     6
  9
$SURFTYPE
 70
     6
  9
$SURFU
 70
     6
  9
$SURFV
 70
     6
  9
$UCSBASE
  2

  9
$UCSNAME
  2

  9
$UCSORG
 10
0.0
 20
0.0
 30
0.0
  9
$UCSXDIR
 10
1.0
 20
0.0
 30
0.0
  9
$UCSYDIR
 10
0.0
 20
1.0
 30
0.0
  9
$UCSORTHOREF
  2

  9
$UCSORTHOVIEW
 70
     0
  9
$UCSORGTOP
 10
0.0
 20
0.0
 30
0.0
  9
$UCSORGBOTTOM
 10
0.0
 20
0.0
 30
0.0
  9
$UCSORGLEFT
 10
0.0
 20
0.0
 30
0.0
  9
$UCSORGRIGHT
 10
0.0
 20
0.0
 30
0.0
  9
$UCSORGFRONT
 10
0.0
 20
0.0
 30
0.0
  9
$UCSORGBACK
 10
0.0
 20
0.0
 30
0.0
  9
$PUCSBASE
  2

  9
$PUCSNAME
  2

  9
$PUCSORG
 10
0.0
 20
0.0
 30
0.0
  9
$PUCSXDIR
 10
1.0
 20
0.0
 30
0.0
  9
$PUCSYDIR
 10
0.0
 20
1.0
 30
0.0
  9
$PUCSORTHOREF
  2

  9
$PUCSORTHOVIEW
 70
     0
  9
$PUCSORGTOP
 10
0.0
 20
0.0
 30
0.0
  9
$PUCSORGBOTTOM
 10
0.0
 20
0.0
 30
0.0
  9
$PUCSORGLEFT
 10
0.0
 20
0.0
 30
0.0
  9
$PUCSORGRIGHT
 10
0.0
 20
0.0
 30
0.0
  9
$PUCSORGFRONT
 10
0.0
 20
0.0
 30
0.0
  9
$PUCSORGBACK
 10
0.0
 20
0.0
 30
0.0
  9
$USERI1
 70
     0
  9
$USERI2
 70
     0
  9
$USERI3
 70
     0
  9
$USERI4
 70
     0
  9
$USERI5
 70
     0
  9
$USERR1
 40
18.1
  9
$USERR2
 40
0.0
  9
$USERR3
 40
0.0
  9
$USERR4
 40
0.0
  9
$USERR5
 40
0.0
  9
$WORLDVIEW
 70
     1
  9
$SHADEDGE
 70
     3
  9
$SHADEDIF
 70
    70
  9
$TILEMODE
 70
     1
  9
$MAXACTVP
 70
    64
  9
$PINSBASE
 10
0.0
 20
0.0
 30
0.0
  9
$PLIMCHECK
 70
     0
  9
$PEXTMIN
 10
1.00000000000000E+20
 20
1.00000000000000E+20
 30
1.00000000000000E+20
  9
$PEXTMAX
 10
-1.00000000000000E+20
 20
-1.00000000000000E+20
 30
-1.00000000000000E+20
  9
$PLIMMIN
 10
0.0
 20
0.0
  9
$PLIMMAX
 10
12.0
 20
9.0
  9
$UNITMODE
 70
     0
  9
$VISRETAIN
 70
     1
  9
$PLINEGEN
 70
     0
  9
$PSLTSCALE
 70
     1
  9
$TREEDEPTH
 70
  3020
  9
$CMLSTYLE
  2
Standard
  9
$CMLJUST
 70
     0
  9
$CMLSCALE
 40
1.0
  9
$PROXYGRAPHICS
 70
     1
  9
$MEASUREMENT
 70
     1
  9
$CELWEIGHT
370
    -1
  9
$ENDCAPS
280
     0
  9
$JOINSTYLE
280
     0
  9
$LWDISPLAY
290
     0
  9
$INSUNITS
 70
     4
  9
$HYPERLINKBASE
  1

  9
$STYLESHEET
  1

  9
$XEDIT
290
     1
  9
$CEPSNTYPE
380
     0
  9
$PSTYLEMODE
290
     1
  9
$FINGERPRINTGUID
  2
{DECC257F-0F29-4D3A-8BD0-D89AD6781BF7}
  9
$VERSIONGUID
  2
{FAEB1C32-E019-11D5-929B-00C0DF256EC4}
  9
$EXTNAMES
290
     1
  9
$PSVPSCALE
 40
0.0
  9
$OLESTARTUP
290
     0
  0
ENDSEC
  0
SECTION
  2
CLASSES
  0
CLASS
  1
ACDBDICTIONARYWDFLT
  2
AcDbDictionaryWithDefault
  3
ObjectDBX Classes
 90
        0
280
     0
281
     0
  0
CLASS
  1
VISUALSTYLE
  2
AcDbVisualStyle
  3
ObjectDBX Classes
 90
     4095
280
     0
281
     0
  0
CLASS
  1
MATERIAL
  2
AcDbMaterial
  3
ObjectDBX Classes
 90
     1153
280
     0
281
     0
  0
CLASS
  1
DICTIONARYVAR
  2
AcDbDictionaryVar
  3
ObjectDBX Classes
 90
        0
280
     0
281
     0
  0
CLASS
  1
ACDBPLACEHOLDER
  2
AcDbPlaceHolder
  3
ObjectDBX Classes
 90
        0
280
     0
281
     0
  0
CLASS
  1
LAYOUT
  2
AcDbLayout
  3
ObjectDBX Classes
 90
        0
280
     0
281
     0
  0
ENDSEC
  0
SECTION
  2
TABLES
  0
TABLE
  2
VPORT
  5
8
330
0
100
AcDbSymbolTable
 70
     1
  0
VPORT
  5
29
330
8
100
AcDbSymbolTableRecord
100
AcDbViewportTableRecord
  2
*Active
 70
     0
 10
0.0
 20
0.0
 11
1.0
 21
1.0
 12
315.0
 22
445.5
 13
0.0
 23
0.0
 14
0.5
 24
0.5
 15
0.5
 25
0.5
 16
0.0
 26
0.0
 36
1.0
 17
0.0
 27
0.0
 37
0.0
 40
980.1
 41
1.60267857142857
 42
50.0
 43
0.0
 44
0.0
 50
0.0
 51
0.0
 71
     0
 72
   100
 73
     1
 74
     3
 75
     0
 76
     0
 77
     0
 78
     0
281
     0
 65
     1
110
0.0
120
0.0
130
0.0
111
1.0
121
0.0
131
0.0
112
0.0
122
1.0
132
0.0
 79
     0
146
0.0
  0
ENDTAB
  0
TABLE
  2
LTYPE
  5
5
330
0
100
AcDbSymbolTable
 70
     8
  0
LTYPE
  5
14
330
5
100
AcDbSymbolTableRecord
100
AcDbLinetypeTableRecord
  2
ByBlock
 70
     0
  3

 72
    65
 73
     0
 40
0.0
  0
LTYPE
  5
15
330
5
100
AcDbSymbolTableRecord
100
AcDbLinetypeTableRecord
  2
ByLayer
 70
     0
  3

 72
    65
 73
     0
 40
0.0
  0
LTYPE
  5
16
330
5
100
AcDbSymbolTableRecord
100
AcDbLinetypeTableRecord
  2
Continuous
 70
     0
  3
Solid line
 72
    65
 73
     0
 40
0.0
  0
LTYPE
  5
3F
330
5
100
AcDbSymbolTableRecord
100
AcDbLinetypeTableRecord
  2
DASHED
 70
     0
  3
Dashed
 72
    65
 73
     2
 40
15.0
 49
7.0
 74
     0
 49
-8.0
 74
     0
  0
LTYPE
  5
40
330
5
100
AcDbSymbolTableRecord
100
AcDbLinetypeTableRecord
  2
DOTTED
 70
     0
  3
Dotted
 72
    65
 73
     2
 40
1.0
 49
0.0
 74
     0
 49
-1.0
 74
     0
  0
LTYPE
  5
41
330
5
100
AcDbSymbolTableRecord
100
AcDbLinetypeTableRecord
  2
DOT_CENTER
 70
     0
  3
Dot_Center
 72
    65
 73
     4
 40
14.0
 49
12.0
 74
     0
 49
-1.0
 74
     0
 49
0.0
 74
     0
 49
-1.0
 74
     0
  0
LTYPE
  5
42
330
5
100
AcDbSymbolTableRecord
100
AcDbLinetypeTableRecord
  2
LONG_DASHED
 70
     0
  3
Long_Dashed
 72
    65
 73
     2
 40
15.0
 49
10.0
 74
     0
 49
-5.0
 74
     0
  0
LTYPE
  5
43
330
5
100
AcDbSymbolTableRecord
100
AcDbLinetypeTableRecord
  2
DASH_CENTER
 70
     0
  3
Dash_Center
 72
    65
 73
     4
 40
14.0
 49
11.0
 74
     0
 49
-1.0
 74
     0
 49
1.0
 74
     0
 49
-1.0
 74
     0
  0
LTYPE
  5
44
330
5
100
AcDbSymbolTableRecord
100
AcDbLinetypeTableRecord
  2
PHANTOM
 70
     0
  3
Phantom
 72
    65
 73
     6
 40
13.0
 49
10.0
 74
     0
 49
-1.0
 74
     0
 49
0.0
 74
     0
 49
-1.0
 74
     0
 49
0.0
 74
     0
 49
-1.0
 74
     0
  0
LTYPE
  5
45
330
5
100
AcDbSymbolTableRecord
100
AcDbLinetypeTableRecord
  2
CENTER_DASH_DASH
 70
     0
  3
Center_Dash_Dash
 72
    65
 73
     6
 40
14.0
 49
9.0
 74
     0
 49
-1.0
 74
     0
 49
1.0
 74
     0
 49
-1.0
 74
     0
 49
1.0
 74
     0
 49
-1.0
 74
     0
  0
ENDTAB
  0
TABLE
  2
LAYER
  5
2
330
0
100
AcDbSymbolTable
 70
     2
  0
LAYER
  5
10
330
2
100
AcDbSymbolTableRecord
100
AcDbLayerTableRecord
  2
0
 70
     0
 62
     7
  6
Continuous
370
    -3
390
F
  0
LAYER
  5
46
330
2
100
AcDbSymbolTableRecord
100
AcDbLayerTableRecord
  2
1
 70
     0
 62
     7
  6
Continuous
370
    -3
390
F
  0
ENDTAB
  0
TABLE
  2
STYLE
  5
3
330
0
100
AcDbSymbolTable
 70
     3
  0
STYLE
  5
11
330
3
100
AcDbSymbolTableRecord
100
AcDbTextStyleTableRecord
  2
Standard
 70
     0
 40
0.0
 41
1.0
 50
0.0
 71
     0
 42
0.2
  3
txt
  4

  0
STYLE
  5
169
330
3
100
AcDbSymbolTableRecord
100
AcDbTextStyleTableRecord
  2
CONVERTER_11
 70
     0
 40
0.0
 41
0.89
 50
0.0
 71
     0
 42
0.2
  3
MS Mincho.ttf
  4

1001
ACAD
1000
MS Mincho
1071
    32785
  0
STYLE
  5
1F1
330
3
100
AcDbSymbolTableRecord
100
AcDbTextStyleTableRecord
  2
CONVERTER_12
 70
     0
 40
0.0
 41
0.9
 50
0.0
 71
     0
 42
0.2
  3
txt.shx
  4

  0
ENDTAB
  0
TABLE
  2
VIEW
  5
6
330
0
100
AcDbSymbolTable
 70
     0
  0
ENDTAB
  0
TABLE
  2
UCS
  5
7
330
0
100
AcDbSymbolTable
 70
     0
  0
ENDTAB
  0
TABLE
  2
APPID
  5
9
330
0
100
AcDbSymbolTable
 70
     1
  0
APPID
  5
12
330
9
100
AcDbSymbolTableRecord
100
AcDbRegAppTableRecord
  2
ACAD
 70
     0
  0
ENDTAB
  0
TABLE
  2
DIMSTYLE
  5
A
330
0
100
AcDbSymbolTable
 70
     8
100
AcDbDimStyleTable
  0
DIMSTYLE
105
27
330
A
100
AcDbSymbolTableRecord
100
AcDbDimStyleTableRecord
  2
Standard
 70
     0
178
     0
340
11
  0
DIMSTYLE
105
201
102
{ACAD_REACTORS
330
202
102
}
330
A
100
AcDbSymbolTableRecord
100
AcDbDimStyleTableRecord
  2
ME10_DIM_10
 70
     0
 41
10.5
 42
0.0
 44
3.0
 73
     0
 74
     0
 77
     1
 78
     8
140
10.5
147
3.0
172
     1
173
     1
174
     1
175
     1
176
     2
177
     2
271
     2
178
     7
271
     2
340
1F1
  0
DIMSTYLE
105
20C
102
{ACAD_REACTORS
330
20D
102
}
330
A
100
AcDbSymbolTableRecord
100
AcDbDimStyleTableRecord
  2
ME10_DIM_11
 70
     0
 41
10.5
 42
0.0
 44
3.0
 73
     0
 74
     0
 77
     1
 78
     8
140
10.5
147
3.0
172
     1
173
     1
174
     1
175
     1
176
     2
177
     2
271
     2
178
     7
271
     2
340
1F1
  0
DIMSTYLE
105
217
102
{ACAD_REACTORS
330
218
102
}
330
A
100
AcDbSymbolTableRecord
100
AcDbDimStyleTableRecord
  2
ME10_DIM_12
 70
     0
 41
10.5
 42
0.0
 44
3.0
 73
     0
 74
     0
 77
     1
 78
     8
140
10.5
147
3.0
172
     1
173
     1
174
     1
175
     1
176
     2
177
     2
271
     2
178
     7
271
     2
340
169
  0
DIMSTYLE
105
222
102
{ACAD_REACTORS
330
223
102
}
330
A
100
AcDbSymbolTableRecord
100
AcDbDimStyleTableRecord
  2
ME10_DIM_13
 70
     0
 41
10.5
 42
0.0
 44
3.0
 73
     0
 74
     0
 77
     1
 78
     8
140
10.5
147
3.0
172
     1
173
     1
174
     1
175
     1
176
     2
177
     2
271
     2
178
     7
271
     2
340
1F1
  0
DIMSTYLE
105
22D
102
{ACAD_REACTORS
330
22E
102
}
330
A
100
AcDbSymbolTableRecord
100
AcDbDimStyleTableRecord
  2
ME10_DIM_14
 70
     0
 41
10.5
 42
0.0
 44
3.0
 73
     0
 74
     0
 77
     1
 78
     8
140
10.5
147
3.0
172
     1
173
     1
174
     1
175
     1
176
     2
177
     2
271
     0
178
     7
271
     0
340
1F1
  0
DIMSTYLE
105
238
102
{ACAD_REACTORS
330
239
102
}
330
A
100
AcDbSymbolTableRecord
100
AcDbDimStyleTableRecord
  2
ME10_DIM_15
 70
     0
  3
{\Fgdt;n}<>
 41
10.5
 42
0.0
 44
3.0
 73
     0
 74
     0
 77
     1
 78
     8
140
10.5
147
3.0
172
     1
173
     1
174
     1
175
     1
176
     2
177
     2
271
     2
178
     7
271
     2
340
1F1
  0
DIMSTYLE
105
246
102
{ACAD_REACTORS
330
247
102
}
330
A
100
AcDbSymbolTableRecord
100
AcDbDimStyleTableRecord
  2
ME10_DIM_16
 70
     0
 41
10.5
 42
0.0
 44
3.0
 73
     0
 74
     0
 77
     1
 78
     8
140
10.5
147
3.0
172
     1
173
     1
174
     1
175
     1
176
     2
177
     2
271
     2
178
     7
271
     2
340
1F1
344
243
  0
ENDTAB
  0
TABLE
  2
BLOCK_RECORD
  5
1
330
0
100
AcDbSymbolTable
 70
    19
  0
BLOCK_RECORD
  5
1F
330
1
100
AcDbSymbolTableRecord
100
AcDbBlockTableRecord
  2
*Model_Space
340
22
  0
BLOCK_RECORD
  5
1B
330
1
100
AcDbSymbolTableRecord
100
AcDbBlockTableRecord
  2
*Paper_Space
340
1E
  0
BLOCK_RECORD
  5
23
330
1
100
AcDbSymbolTableRecord
100
AcDbBlockTableRecord
  2
*Paper_Space0
340
26
  0
BLOCK_RECORD
  5
47
330
1
100
AcDbSymbolTableRecord
100
AcDbBlockTableRecord
  2
32-1-19
340
0
102
{BLKREFS
331
4E
102
}
  0
BLOCK_RECORD
  5
4A
330
1
100
AcDbSymbolTableRecord
100
AcDbBlockTableRecord
  2
60-1-19-170
340
0
102
{BLKREFS
331
4F
102
}
  0
BLOCK_RECORD
  5
4D
330
1
100
AcDbSymbolTableRecord
100
AcDbBlockTableRecord
  2
61-1X-19-170
340
0
102
{BLKREFS
331
6B
102
}
  0
BLOCK_RECORD
  5
52
330
1
100
AcDbSymbolTableRecord
100
AcDbBlockTableRecord
  2
37-1-20
340
0
102
{BLKREFS
331
5F
102
}
  0
BLOCK_RECORD
  5
55
330
1
100
AcDbSymbolTableRecord
100
AcDbBlockTableRecord
  2
36-1-20
340
0
102
{BLKREFS
331
60
102
}
  0
BLOCK_RECORD
  5
58
330
1
100
AcDbSymbolTableRecord
100
AcDbBlockTableRecord
  2
42-1
340
0
102
{BLKREFS
331
61
102
}
  0
BLOCK_RECORD
  5
5B
330
1
100
AcDbSymbolTableRecord
100
AcDbBlockTableRecord
  2
21-1C
340
0
102
{BLKREFS
331
62
102
}
  0
BLOCK_RECORD
  5
5E
330
1
100
AcDbSymbolTableRecord
100
AcDbBlockTableRecord
  2
R10AK-20-B
340
0
102
{BLKREFS
331
6C
102
}
  0
BLOCK_RECORD
  5
65
330
1
100
AcDbSymbolTableRecord
100
AcDbBlockTableRecord
  2
開示A4
340
0
102
{BLKREFS
331
6D
102
}
  0
BLOCK_RECORD
  5
68
330
1
100
AcDbSymbolTableRecord
100
AcDbBlockTableRecord
  2
A10-0-20
340
0
102
{BLKREFS
331
6E
102
}
  0
BLOCK_RECORD
  5
1F8
330
1
100
AcDbSymbolTableRecord
100
AcDbBlockTableRecord
  2
*D11
340
0
  0
BLOCK_RECORD
  5
203
330
1
100
AcDbSymbolTableRecord
100
AcDbBlockTableRecord
  2
*D12
340
0
  0
BLOCK_RECORD
  5
20E
330
1
100
AcDbSymbolTableRecord
100
AcDbBlockTableRecord
  2
*D13
340
0
  0
BLOCK_RECORD
  5
219
330
1
100
AcDbSymbolTableRecord
100
AcDbBlockTableRecord
  2
*D14
340
0
  0
BLOCK_RECORD
  5
224
330
1
100
AcDbSymbolTableRecord
100
AcDbBlockTableRecord
  2
*D15
340
0
  0
BLOCK_RECORD
  5
22F
330
1
100
AcDbSymbolTableRecord
100
AcDbBlockTableRecord
  2
*D16
340
0
  0
BLOCK_RECORD
  5
23A
330
1
100
AcDbSymbolTableRecord
100
AcDbBlockTableRecord
  2
*D17
340
0
  0
BLOCK_RECORD
  5
243
330
1
100
AcDbSymbolTableRecord
100
AcDbBlockTableRecord
  2
_NONE
340
0
  0
ENDTAB
  0
ENDSEC
  0
SECTION
  2
BLOCKS
  0
BLOCK
  5
20
330
1F
100
AcDbEntity
  8
0
100
AcDbBlockBegin
  2
*Model_Space
 70
     0
 10
0.0
 20
0.0
 30
0.0
  3
*Model_Space
  1

  0
ENDBLK
  5
21
330
1F
100
AcDbEntity
  8
0
100
AcDbBlockEnd
  0
BLOCK
  5
1C
330
1B
100
AcDbEntity
 67
     1
  8
0
100
AcDbBlockBegin
  2
*Paper_Space
 70
     0
 10
0.0
 20
0.0
 30
0.0
  3
*Paper_Space
  1

  0
ENDBLK
  5
1D
330
1B
100
AcDbEntity
 67
     1
  8
0
100
AcDbBlockEnd
  0
BLOCK
  5
24
330
23
100
AcDbEntity
  8
0
100
AcDbBlockBegin
  2
*Paper_Space0
 70
     0
 10
0.0
 20
0.0
 30
0.0
  3
*Paper_Space0
  1

  0
ENDBLK
  5
25
330
23
100
AcDbEntity
  8
0
100
AcDbBlockEnd
  0
BLOCK
  5
48
330
47
100
AcDbEntity
  8
0
100
AcDbBlockBegin
  2
32-1-19
 70
     0
 10
-13.91572183364076
 20
519.3404324085941
 30
0.0
  3
32-1-19
  1

  0
LINE
  5
6F
330
47
100
AcDbEntity
  8
1
  6
Continuous
 62
     7
100
AcDbLine
 10
191.1793431077526
 20
639.5891223533467
 30
0.0
 11
193.8183576866571
 21
638.065486575821
 31
0.0
  0
LINE
  5
70
330
47
100
AcDbEntity
  8
1
  6
Continuous
 62
     7
100
AcDbLine
 10
427.6793431077527
 20
295.0387665327078
 30
0.0
 11
427.6793431077527
 21
293.9505867410781
 31
0.0
  0
LINE
  5
71
330
47
100
AcDbEntity
  8
1
  6
Continuous
 62
     7
100
AcDbLine
 10
415.6793431077527
 20
295.5083890807286
 30
0.0
 11
426.1485193027688
 21
295.5083890807286
 31
0.0
  0
LINE
  5
72
330
47
100
AcDbEntity
  8
1
  6
Continuous
 62
     7
100
AcDbLine
 10
163.6793431077527
 20
306.0294756297556
 30
0.0
 11
163.6793431077527
 21
297.7228517668374
 31
0.0
  0
LINE
  5
73
330
47
100
AcDbEntity
  8
1
  6
Continuous
 62
     7
100
AcDbLine
 10
167.6793431077527
 20
293.9505867410781
 30
0.0
 11
167.6793431077527
 21
295.0387665327078
 31
0.0
  0
LINE
  5
74
330
47
100
AcDbEntity
  8
1
  6
Continuous
 62
     7
100
AcDbLine
 10
169.2101669127367
 20
295.5083890807286
 30
0.0
 11
179.6793431077526
 21
295.5083890807286
 31
0.0
  0
LINE
  5
75
330
47
100
AcDbEntity
  8
1
  6
Continuous
 62
     7
100
AcDbLine
 10
195.6793431077526
 20
297.7228517668374
 30
0.0
 11
195.6793431077526
 21
306.0294756297556
 31
0.0
  0
LINE
  5
76
330
47
100
AcDbEntity
  8
1
  6
Continuous
 62
     7
100
AcDbLine
 10
191.6793431077526
 20
295.0387665327078
 30
0.0
 11
191.6793431077526
 21
293.9505867410781
 31
0.0
  0
LINE
  5
77
330
47
100
AcDbEntity
  8
1
  6
Continuous
 62
     7
100
AcDbLine
 10
164.3793431077527
 20
306.7505867410781
 30
0.0
 11
194.9793431077525
 21
306.7505867410781
 31
0.0
  0
LINE
  5
78
330
47
100
AcDbEntity
  8
1
  6
Continuous
 62
     7
100
AcDbLine
 10
191.4793431077525
 20
293.7505867410781
 30
0.0
 11
167.8793431077527
 21
293.7505867410781
 31
0.0
  0
LINE
  5
79
330
47
100
AcDbEntity
  8
1
  6
Continuous
 62
     7
100
AcDbLine
 10
179.6793431077526
 20
295.5083890807286
 30
0.0
 11
190.1485193027687
 21
295.5083890807286
 31
0.0
  0
LINE
  5
7A
330
47
100
AcDbEntity
  8
1
  6
Continuous
 62
     7
100
AcDbLine
 10
403.6793431077527
 20
293.9505867410781
 30
0.0
 11
403.6793431077527
 21
295.0387665327078
 31
0.0
  0
LINE
  5
7B
330
47
100
AcDbEntity
  8
1
  6
Continuous
 62
     7
100
AcDbLine
 10
400.3793431077527
 20
306.7505867410781
 30
0.0
 11
430.9793431077526
 21
306.7505867410781
 31
0.0
  0
LINE
  5
7C
330
47
100
AcDbEntity
  8
1
  6
Continuous
 62
     7
100
AcDbLine
 10
427.4793431077526
 20
293.7505867410781
 30
0.0
 11
403.8793431077527
 21
293.7505867410781
 31
0.0
  0
LINE
  5
7D
330
47
100
AcDbEntity
  8
1
  6
Continuous
 62
     7
100
AcDbLine
 10
193.8183576866571
 20
617.4413970940979
 30
0.0
 11
181.5403285288483
 21
610.352673654719
 31
0.0
  0
LINE
  5
7E
330
47
100
AcDbEntity
  8
1
  6
Continuous
 62
     7
100
AcDbLine
 10
195.6793431077526
 20
634.8421652743383
 30
0.0
 11
195.6793431077526
 21
620.6647183955805
 31
0.0
  0
LINE
  5
7F
330
47
100
AcDbEntity
  8
1
  6
Continuous
 62
     7
100
AcDbLine
 10
165.5403285288483
 20
638.065486575821
 30
0.0
 11
168.1793431077526
 21
639.5891223533467
 31
0.0
  0
LINE
  5
80
330
47
100
AcDbEntity
  8
1
  6
Continuous
 62
     7
100
AcDbLine
 10
163.6793431077526
 20
620.6647183955805
 30
0.0
 11
163.6793431077526
 21
634.8421652743383
 31
0.0
  0
LINE
  5
81
330
47
100
AcDbEntity
  8
1
  6
Continuous
 62
     7
100
AcDbLine
 10
177.8183576866571
 20
610.352673654719
 30
0.0
 11
165.5403285288483
 21
617.4413970940979
 31
0.0
  0
LINE
  5
82
330
47
100
AcDbEntity
  8
1
  6
Continuous
 62
     7
100
AcDbLine
 10
405.2101669127366
 20
295.5083890807286
 30
0.0
 11
415.6793431077527
 21
295.5083890807286
 31
0.0
  0
ARC
  5
83
330
47
100
AcDbEntity
  8
1
  6
Continuous
 62
     7
100
AcDbCircle
 10
426.6793431077527
 20
301.8761636982964
 30
0.0
 40
6.500000000000005
100
AcDbArc
 50
282.3736251161893
 51
48.58268958187888
  0
ARC
  5
84
330
47
100
AcDbEntity
  8
1
  6
Continuous
 62
     7
100
AcDbCircle
 10
168.6793431077527
 20
301.8761636982964
 30
0.0
 40
6.499999999999995
100
AcDbArc
 50
219.7151372318262
 51
257.6263748838119
  0
ARC
  5
85
330
47
100
AcDbEntity
  8
1
  6
Continuous
 62
     7
100
AcDbCircle
 10
168.6793431077527
 20
301.8761636982964
 30
0.0
 40
6.500000000000082
100
AcDbArc
 50
131.4173104181217
 51
140.2848627681727
  0
ARC
  5
86
330
47
100
AcDbEntity
  8
1
  6
Continuous
 62
     7
100
AcDbCircle
 10
190.6793431077526
 20
301.8761636982964
 30
0.0
 40
6.49999999999998
100
AcDbArc
 50
282.3736251161883
 51
320.2848627681738
  0
ARC
  5
87
330
47
100
AcDbEntity
  8
1
  6
Continuous
 62
     7
100
AcDbCircle
 10
190.6793431077526
 20
301.8761636982964
 30
0.0
 40
6.500000000000104
100
AcDbArc
 50
39.71513723182731
 51
48.58268958187888
  0
ARC
  5
88
330
47
100
AcDbEntity
  8
1
  6
Continuous
 62
     7
100
AcDbCircle
 10
404.6793431077527
 20
301.8761636982964
 30
0.0
 40
6.5000000000001
100
AcDbArc
 50
131.4173104181219
 51
257.6263748838112
  0
ARC
  5
89
330
47
100
AcDbEntity
  8
1
  6
Continuous
 62
     7
100
AcDbCircle
 10
179.6793431077526
 20
627.7534418349594
 30
0.0
 40
17.50000000000012
100
AcDbArc
 50
323.8955081861618
 51
336.1044918138386
  0
ARC
  5
8A
330
47
100
AcDbEntity
  8
1
  6
Continuous
 62
     7
100
AcDbCircle
 10
179.6793431077526
 20
627.7534418349594
 30
0.0
 40
17.49999999999999
100
AcDbArc
 50
23.89550818616144
 51
36.10449181383818
  0
ARC
  5
8B
330
47
100
AcDbEntity
  8
1
  6
Continuous
 62
     7
100
AcDbCircle
 10
179.6793431077526
 20
627.7534418349594
 30
0.0
 40
17.49999999999996
100
AcDbArc
 50
143.8955081861614
 51
156.1044918138386
  0
ARC
  5
8C
330
47
100
AcDbEntity
  8
1
  6
Continuous
 62
     7
100
AcDbCircle
 10
179.6793431077526
 20
627.7534418349594
 30
0.0
 40
17.49999999999999
100
AcDbArc
 50
203.8955081861615
 51
216.1044918138386
  0
ARC
  5
8D
330
47
100
AcDbEntity
  8
1
  6
Continuous
 62
     7
100
AcDbCircle
 10
179.6793431077526
 20
627.7534418349594
 30
0.0
 40
17.49999999999996
100
AcDbArc
 50
263.895508186162
 51
276.1044918138386
  0
SPLINE
  5
8E
330
47
100
AcDbEntity
  8
1
  6
Continuous
 62
     7
100
AcDbSpline
210
0.0
220
0.0
230
1.0
 70
    11
 71
     3
 72
    79
 73
    75
 74
    73
 42
0.000000001
 43
0.0000000001
 44
0.00000001
 40
0.0
 40
0.0
 40
0.0
 40
0.0
 40
0.3706045442899334
 40
0.7410099135622146
 40
1.129028521707209
 40
1.516750769712972
 40
1.930011253016956
 40
2.342984807897251
 40
2.785295812381494
 40
3.227378551350105
 40
3.698701852433325
 40
4.16986112608773
 40
4.666948171104271
 40
5.163925541461643
 40
5.681087119052427
 40
6.198182206672263
 40
6.728040374522516
 40
7.257867273715735
 40
7.792055941353046
 40
8.326244608988134
 40
8.856071508174269
 40
9.385929676011425
 40
9.903024763611034
 40
10.42018634117184
 40
10.91716371148766
 40
11.41425075644555
 40
11.88541003002288
 40
12.35673333100041
 40
12.79881606983461
 40
13.24112707413725
 40
13.65410062878865
 40
14.06736111178004
 40
14.45508335936094
 40
14.84310196680218
 40
15.21350733412729
 40
15.58411188617493
 40
15.94839956300886
 40
16.31268723984166
 40
16.68329179188583
 40
17.05369715920543
 40
17.44171576663908
 40
17.82943801421115
 40
18.2426984971921
 40
18.65567205183263
 40
19.0979830561235
 40
19.54006579494587
 40
20.01138909591118
 40
20.4825483694766
 40
20.9796354144224
 40
21.47661278472675
 40
21.99377436227607
 40
22.51086944986492
 40
23.0407276176916
 40
23.57055451686778
 40
24.10474318449356
 40
24.63893185212232
 40
25.16875875130769
 40
25.6986169191504
 40
26.21571200676339
 40
26.73287358434757
 40
27.22985095469872
 40
27.72693799970882
 40
28.19809727335635
 40
28.66942057443094
 40
29.11150331338833
 40
29.55381431785502
 40
29.9667878727073
 40
30.38004835595872
 40
30.76777060385428
 40
31.15578921169912
 40
31.52619457954505
 40
31.89679913237219
 40
32.26108681123883
 40
32.62537448047208
 40
32.62537448047208
 40
32.62537448047208
 40
32.62537448047208
 10
165.5641511563329
 20
302.2396715992054
 30
0.0
 10
165.5845625992015
 20
302.3616872136474
 30
0.0
 10
165.6253745072933
 20
302.6056528687743
 30
0.0
 10
165.7471221924042
 20
302.9632997439791
 30
0.0
 10
165.9090907579377
 20
303.3100441582005
 30
0.0
 10
166.1182910733385
 20
303.6476886936035
 30
0.0
 10
166.3666995128191
 20
303.968015592025
 30
0.0
 10
166.6583384742291
 20
304.2750718149069
 30
0.0
 10
166.9842636690729
 20
304.5602146157896
 30
0.0
 10
167.3491178635562
 20
304.8277090904128
 30
0.0
 10
167.7425728984438
 20
305.0698809564408
 30
0.0
 10
168.1693655796814
 20
305.2901258039254
 30
0.0
 10
168.6187285381539
 20
305.4825208271852
 30
0.0
 10
169.0944732961198
 20
305.6492044049118
 30
0.0
 10
169.5865200141029
 20
305.7862217062932
 30
0.0
 10
170.0968367204606
 20
305.894588198774
 30
0.0
 10
170.6170102754771
 20
305.9721015908649
 30
0.0
 10
171.1465273498875
 20
306.0191112464327
 30
0.0
 10
171.679343097839
 20
306.0346790629848
 30
0.0
 10
172.2121588458056
 20
306.0191112465125
 30
0.0
 10
172.7416759201706
 20
305.9721015910217
 30
0.0
 10
173.2618494753507
 20
305.8945881990427
 30
0.0
 10
173.7721661811117
 20
305.7862217065864
 30
0.0
 10
174.2642129012821
 20
305.6492044056102
 30
0.0
 10
174.7399576513942
 20
305.4825208269924
 30
0.0
 10
175.1893206384448
 20
305.2901258076449
 30
0.0
 10
175.616113218353
 20
305.0698809470595
 30
0.0
 10
176.0095686195337
 20
304.827709129312
 30
0.0
 10
176.3744215276304
 20
304.5602144861937
 30
0.0
 10
176.7003513553786
 20
304.2750722934217
 30
0.0
 10
176.9919741134136
 20
303.9680139451741
 30
0.0
 10
177.2404409488099
 20
303.6476947082543
 30
0.0
 10
177.4494360614023
 20
303.3100232526285
 30
0.0
 10
177.612149145
 20
302.9633765139787
 30
0.0
 10
177.7312372416764
 20
302.6053807221629
 30
0.0
 10
177.8018899274937
 20
302.2427618696574
 30
0.0
 10
177.8265207757582
 20
301.8761636987202
 30
0.0
 10
177.8018899275069
 20
301.5095655277836
 30
0.0
 10
177.7312372417025
 20
301.1469466752788
 30
0.0
 10
177.6121491450391
 20
300.7889508834645
 30
0.0
 10
177.4494360614537
 20
300.4423041448171
 30
0.0
 10
177.2404409488733
 20
300.104632689194
 30
0.0
 10
176.9919741134886
 20
299.784313452278
 30
0.0
 10
176.7003513554646
 20
299.4772551040352
 30
0.0
 10
176.3744215277271
 20
299.1921129112682
 30
0.0
 10
176.0095686196403
 20
298.9246182681566
 30
0.0
 10
175.6161132184694
 20
298.6824464504159
 30
0.0
 10
175.1893206385704
 20
298.4622015898391
 30
0.0
 10
174.7399576515286
 20
298.2698065705009
 30
0.0
 10
174.2642129014251
 20
298.1031229918938
 30
0.0
 10
173.7721661812628
 20
297.96610569093
 30
0.0
 10
173.26184947551
 20
297.8577391984875
 30
0.0
 10
172.7416759203383
 20
297.780225806524
 30
0.0
 10
172.212158845981
 20
297.7332161510502
 30
0.0
 10
171.6793430980259
 20
297.7176483345973
 30
0.0
 10
171.1465273500726
 20
297.733216151169
 30
0.0
 10
170.6170102757133
 20
297.7802258067665
 30
0.0
 10
170.0968367205559
 20
297.8577391988595
 30
0.0
 10
169.5865200147653
 20
297.9661056914515
 30
0.0
 10
169.0944732947659
 20
298.1031229925542
 30
0.0
 10
168.6187285441143
 20
298.2698065714148
 30
0.0
 10
168.1693655591225
 20
298.4622015906896
 30
0.0
 10
167.742572972034
 20
298.6824464524454
 30
0.0
 10
167.3491175969654
 20
298.9246182670278
 30
0.0
 10
166.9842645973626
 20
299.1921129224513
 30
0.0
 10
166.658335099432
 20
299.4772550722934
 30
0.0
 10
166.3667111882019
 20
299.78431357222
 30
0.0
 10
166.1182485092784
 20
300.1046322642803
 30
0.0
 10
165.9092387914095
 20
300.4423056364991
 30
0.0
 10
165.7465786994914
 20
300.7889454236636
 30
0.0
 10
165.6273013052668
 20
301.1469660504558
 30
0.0
 10
165.5573445204021
 20
301.50949360791
 30
0.0
 10
165.5301579239518
 20
301.8764270701274
 30
0.0
 10
165.5528200817267
 20
302.118590090364
 30
0.0
 10
165.5641511563329
 20
302.2396715992055
 30
0.0
 11
165.5641511563329
 21
302.2396715992054
 31
0.0
 11
165.6351642819215
 21
302.6034089633879
 31
0.0
 11
165.751279802903
 21
302.9551436958677
 31
0.0
 11
165.9158538429778
 21
303.3065321207707
 31
0.0
 11
166.1191805669945
 21
303.6366635864921
 31
0.0
 11
166.3719822545984
 21
303.9635818234182
 31
0.0
 11
166.6558451046708
 21
304.2635302177541
 31
0.0
 11
166.9882812210277
 21
304.5552925407845
 31
0.0
 11
167.3444686607742
 21
304.8171468052149
 31
0.0
 11
167.7455187028511
 21
305.064744296818
 31
0.0
 11
168.1640203030324
 21
305.2811870646954
 31
0.0
 11
168.6207809747666
 21
305.4773125833292
 31
0.0
 11
169.0897101974863
 21
305.6419087276169
 31
0.0
 11
169.5878151157071
 21
305.7810043342087
 31
0.0
 11
170.0935998063123
 21
305.8885644401354
 31
0.0
 11
170.6176363560617
 21
305.9668930591971
 31
0.0
 11
171.1453853352026
 21
306.013771179111
 31
0.0
 11
171.6793431077527
 21
306.0294756297555
 31
0.0
 11
172.2133008803028
 21
306.013771179111
 31
0.0
 11
172.7410498594438
 21
305.9668930591971
 31
0.0
 11
173.2650864091933
 21
305.8885644401354
 31
0.0
 11
173.7708710997985
 21
305.7810043342087
 31
0.0
 11
174.2689760180193
 21
305.6419087276169
 31
0.0
 11
174.7379052407391
 21
305.4773125833293
 31
0.0
 11
175.1946659124733
 21
305.2811870646955
 31
0.0
 11
175.6131675126546
 21
305.0647442968182
 31
0.0
 11
176.0142175547314
 21
304.8171468052149
 31
0.0
 11
176.3704049944779
 21
304.5552925407844
 31
0.0
 11
176.7028411108348
 21
304.2635302177541
 31
0.0
 11
176.9867039609072
 21
303.9635818234182
 31
0.0
 11
177.2395056485111
 21
303.6366635864921
 31
0.0
 11
177.4428323725278
 21
303.3065321207706
 31
0.0
 11
177.6074064126026
 21
302.9551436958677
 31
0.0
 11
177.7235219335841
 21
302.6034089633879
 31
0.0
 11
177.7945350591727
 21
302.2396715992055
 31
0.0
 11
177.8183576866572
 21
301.8761636982965
 31
0.0
 11
177.7945350591727
 21
301.5126557973875
 31
0.0
 11
177.7235219335841
 21
301.148918433205
 31
0.0
 11
177.6074064126026
 21
300.7971837007252
 31
0.0
 11
177.4428323725278
 21
300.4457952758223
 31
0.0
 11
177.2395056485112
 21
300.1156638101007
 31
0.0
 11
176.9867039609072
 21
299.7887455731747
 31
0.0
 11
176.7028411108348
 21
299.4887971788388
 31
0.0
 11
176.3704049944779
 21
299.1970348558085
 31
0.0
 11
176.0142175547314
 21
298.9351805913781
 31
0.0
 11
175.6131675126545
 21
298.6875830997747
 31
0.0
 11
175.1946659124732
 21
298.4711403318973
 31
0.0
 11
174.7379052407391
 21
298.2750148132636
 31
0.0
 11
174.2689760180193
 21
298.110418668976
 31
0.0
 11
173.7708710997985
 21
297.9713230623843
 31
0.0
 11
173.2650864091933
 21
297.8637629564576
 31
0.0
 11
172.7410498594439
 21
297.7854343373959
 31
0.0
 11
172.213300880303
 21
297.738556217482
 31
0.0
 11
171.6793431077529
 21
297.7228517668374
 31
0.0
 11
171.1453853352028
 21
297.7385562174819
 31
0.0
 11
170.6176363560617
 21
297.7854343373958
 31
0.0
 11
170.0935998063123
 21
297.8637629564575
 31
0.0
 11
169.5878151157072
 21
297.9713230623842
 31
0.0
 11
169.0897101974863
 21
298.110418668976
 31
0.0
 11
168.6207809747665
 21
298.2750148132635
 31
0.0
 11
168.1640203030324
 21
298.4711403318973
 31
0.0
 11
167.7455187028511
 21
298.6875830997748
 31
0.0
 11
167.3444686607742
 21
298.935180591378
 31
0.0
 11
166.9882812210277
 21
299.1970348558084
 31
0.0
 11
166.6558451046708
 21
299.4887971788388
 31
0.0
 11
166.3719822545984
 21
299.7887455731747
 31
0.0
 11
166.1191805669945
 21
300.1156638101007
 31
0.0
 11
165.9158538429778
 21
300.4457952758223
 31
0.0
 11
165.751279802903
 21
300.7971837007251
 31
0.0
 11
165.6351642819215
 21
301.1489184332049
 31
0.0
 11
165.5641511563329
 21
301.5126557973875
 31
0.0
 11
165.5403285288484
 21
301.8761636982965
 31
0.0
 11
165.5641511563329
 21
302.2396715992055
 31
0.0
  0
SPLINE
  5
8F
330
47
100
AcDbEntity
  8
1
  6
Continuous
 62
     7
100
AcDbSpline
210
0.0
220
0.0
230
1.0
 70
    11
 71
     3
 72
    79
 73
    75
 74
    73
 42
0.000000001
 43
0.0000000001
 44
0.00000001
 40
0.0
 40
0.0
 40
0.0
 40
0.0
 40
0.3706045442899116
 40
0.7410099135622195
 40
1.12902852170725
 40
1.516750769712969
 40
1.930011253016935
 40
2.34298480789723
 40
2.785295812381537
 40
3.227378551350125
 40
3.6987018524332
 40
4.169861126087505
 40
4.666948171104019
 40
5.163925541461526
 40
5.681087119052502
 40
6.198182206672449
 40
6.728040374522703
 40
7.25786727371595
 40
7.792055941353232
 40
8.326244608988178
 40
8.856071508174145
 40
9.385929676011274
 40
9.903024763610828
 40
10.42018634117161
 40
10.91716371148745
 40
11.41425075644545
 40
11.88541003002288
 40
12.35673333100034
 40
12.79881606983447
 40
13.24112707413709
 40
13.65410062878846
 40
14.06736111177988
 40
14.45508335936079
 40
14.84310196680202
 40
15.21350733412712
 40
15.58411188617477
 40
15.9483995630087
 40
16.3126872398415
 40
16.68329179188566
 40
17.05369715920527
 40
17.44171576663892
 40
17.829438014211
 40
18.24269849719197
 40
18.6556720518325
 40
19.09798305612331
 40
19.54006579494556
 40
20.01138909591078
 40
20.48254836947629
 40
20.97963541442225
 40
21.4766127847266
 40
21.99377436227595
 40
22.51086944986475
 40
23.04072761769145
 40
23.57055451686763
 40
24.10474318449335
 40
24.638931852122
 40
25.16875875130723
 40
25.69861691914997
 40
26.215712006763
 40
26.73287358434727
 40
27.22985095469853
 40
27.72693799970862
 40
28.19809727335613
 40
28.66942057443062
 40
29.11150331338795
 40
29.55381431785474
 40
29.96678787270704
 40
30.38004835595839
 40
30.76777060385391
 40
31.15578921169877
 40
31.52619457954474
 40
31.89679913237186
 40
32.2610868112385
 40
32.62537448047174
 40
32.62537448047174
 40
32.62537448047174
 40
32.62537448047174
 10
193.7945350591725
 20
302.2396715992054
 30
0.0
 10
193.7741236163039
 20
302.3616872136473
 30
0.0
 10
193.7333117082122
 20
302.6056528687745
 30
0.0
 10
193.6115640231012
 20
302.9632997439791
 30
0.0
 10
193.4495954575676
 20
303.3100441582004
 30
0.0
 10
193.240395142167
 20
303.6476886936036
 30
0.0
 10
192.9919867026862
 20
303.968015592025
 30
0.0
 10
192.7003477412764
 20
304.2750718149069
 30
0.0
 10
192.3744225464324
 20
304.5602146157896
 30
0.0
 10
192.0095683519492
 20
304.8277090904128
 30
0.0
 10
191.6161133170617
 20
305.0698809564407
 30
0.0
 10
191.1893206358243
 20
305.2901258039255
 30
0.0
 10
190.7399576773516
 20
305.4825208271851
 30
0.0
 10
190.2642129193858
 20
305.6492044049119
 30
0.0
 10
189.7721662014025
 20
305.7862217062932
 30
0.0
 10
189.2618494950447
 20
305.8945881987739
 30
0.0
 10
188.7416759400281
 20
305.9721015908649
 30
0.0
 10
188.2121588656177
 20
306.0191112464327
 30
0.0
 10
187.6793431176663
 20
306.0346790629847
 30
0.0
 10
187.1465273696997
 20
306.0191112465125
 30
0.0
 10
186.6170102953349
 20
305.9721015910217
 30
0.0
 10
186.0968367401549
 20
305.8945881990426
 30
0.0
 10
185.586520034394
 20
305.7862217065865
 30
0.0
 10
185.0944733142234
 20
305.6492044056101
 30
0.0
 10
184.6187285641115
 20
305.4825208269925
 30
0.0
 10
184.1693655770607
 20
305.2901258076448
 30
0.0
 10
183.7425729971525
 20
305.0698809470597
 30
0.0
 10
183.3491175959718
 20
304.8277091293119
 30
0.0
 10
182.9842646878751
 20
304.5602144861938
 30
0.0
 10
182.6583348601271
 20
304.2750722934215
 30
0.0
 10
182.366712102092
 20
303.9680139451741
 30
0.0
 10
182.1182452666958
 20
303.6476947082544
 30
0.0
 10
181.9092501541033
 20
303.3100232526284
 30
0.0
 10
181.7465370705056
 20
302.9633765139787
 30
0.0
 10
181.6274489738292
 20
302.6053807221629
 30
0.0
 10
181.556796288012
 20
302.2427618696574
 30
0.0
 10
181.5321654397473
 20
301.8761636987202
 30
0.0
 10
181.5567962879988
 20
301.5095655277835
 30
0.0
 10
181.627448973803
 20
301.1469466752789
 30
0.0
 10
181.7465370704666
 20
300.7889508834645
 30
0.0
 10
181.9092501540518
 20
300.4423041448171
 30
0.0
 10
182.1182452666324
 20
300.1046326891941
 30
0.0
 10
182.3667121020171
 20
299.7843134522781
 30
0.0
 10
182.658334860041
 20
299.4772551040353
 30
0.0
 10
182.9842646877784
 20
299.1921129112682
 30
0.0
 10
183.3491175958651
 20
298.9246182681566
 30
0.0
 10
183.7425729970361
 20
298.682446450416
 30
0.0
 10
184.169365576935
 20
298.462201589839
 30
0.0
 10
184.618728563977
 20
298.2698065705011
 30
0.0
 10
185.0944733140804
 20
298.1031229918937
 30
0.0
 10
185.5865200342428
 20
297.96610569093
 30
0.0
 10
186.0968367399955
 20
297.8577391984875
 30
0.0
 10
186.6170102951673
 20
297.7802258065239
 30
0.0
 10
187.1465273695247
 20
297.7332161510503
 30
0.0
 10
187.6793431174795
 20
297.7176483345972
 30
0.0
 10
188.2121588654329
 20
297.733216151169
 30
0.0
 10
188.7416759397921
 20
297.7802258067665
 30
0.0
 10
189.2618494949494
 20
297.8577391988595
 30
0.0
 10
189.7721662007401
 20
297.9661056914514
 30
0.0
 10
190.2642129207395
 20
298.1031229925543
 30
0.0
 10
190.7399576713912
 20
298.2698065714147
 30
0.0
 10
191.1893206563831
 20
298.4622015906896
 30
0.0
 10
191.6161132434715
 20
298.6824464524453
 30
0.0
 10
192.0095686185401
 20
298.9246182670278
 30
0.0
 10
192.3744216181427
 20
299.1921129224514
 30
0.0
 10
192.7003511160734
 20
299.4772550722934
 30
0.0
 10
192.9919750273038
 20
299.78431357222
 30
0.0
 10
193.2404377062269
 20
300.1046322642802
 30
0.0
 10
193.4494474240958
 20
300.4423056364991
 30
0.0
 10
193.612107516014
 20
300.7889454236637
 30
0.0
 10
193.7313849102387
 20
301.1469660504558
 30
0.0
 10
193.8013416951033
 20
301.50949360791
 30
0.0
 10
193.8285282915534
 20
301.8764270701274
 30
0.0
 10
193.8058661337787
 20
302.1185900903639
 30
0.0
 10
193.7945350591725
 20
302.2396715992055
 30
0.0
 11
193.7945350591725
 21
302.2396715992054
 31
0.0
 11
193.723521933584
 21
302.6034089633879
 31
0.0
 11
193.6074064126024
 21
302.9551436958677
 31
0.0
 11
193.4428323725275
 21
303.3065321207707
 31
0.0
 11
193.2395056485109
 21
303.6366635864921
 31
0.0
 11
192.986703960907
 21
303.9635818234182
 31
0.0
 11
192.7028411108346
 21
304.2635302177541
 31
0.0
 11
192.3704049944776
 21
304.5552925407845
 31
0.0
 11
192.0142175547311
 21
304.8171468052149
 31
0.0
 11
191.6131675126544
 21
305.064744296818
 31
0.0
 11
191.1946659124732
 21
305.2811870646954
 31
0.0
 11
190.7379052407391
 21
305.4773125833292
 31
0.0
 11
190.2689760180192
 21
305.6419087276169
 31
0.0
 11
189.7708710997982
 21
305.7810043342087
 31
0.0
 11
189.265086409193
 21
305.8885644401354
 31
0.0
 11
188.7410498594435
 21
305.9668930591971
 31
0.0
 11
188.2133008803026
 21
306.013771179111
 31
0.0
 11
187.6793431077526
 21
306.0294756297555
 31
0.0
 11
187.1453853352026
 21
306.013771179111
 31
0.0
 11
186.6176363560617
 21
305.9668930591971
 31
0.0
 11
186.0935998063123
 21
305.8885644401354
 31
0.0
 11
185.5878151157072
 21
305.7810043342087
 31
0.0
 11
185.0897101974863
 21
305.6419087276169
 31
0.0
 11
184.6207809747665
 21
305.4773125833293
 31
0.0
 11
184.1640203030323
 21
305.2811870646955
 31
0.0
 11
183.7455187028508
 21
305.0647442968182
 31
0.0
 11
183.3444686607741
 21
304.8171468052149
 31
0.0
 11
182.9882812210277
 21
304.5552925407844
 31
0.0
 11
182.6558451046708
 21
304.2635302177541
 31
0.0
 11
182.3719822545984
 21
303.9635818234182
 31
0.0
 11
182.1191805669945
 21
303.6366635864921
 31
0.0
 11
181.9158538429778
 21
303.3065321207706
 31
0.0
 11
181.751279802903
 21
302.9551436958677
 31
0.0
 11
181.6351642819215
 21
302.6034089633879
 31
0.0
 11
181.5641511563329
 21
302.2396715992055
 31
0.0
 11
181.5403285288484
 21
301.8761636982965
 31
0.0
 11
181.5641511563329
 21
301.5126557973875
 31
0.0
 11
181.6351642819215
 21
301.148918433205
 31
0.0
 11
181.751279802903
 21
300.7971837007252
 31
0.0
 11
181.9158538429778
 21
300.4457952758223
 31
0.0
 11
182.1191805669945
 21
300.1156638101007
 31
0.0
 11
182.3719822545984
 21
299.7887455731747
 31
0.0
 11
182.6558451046708
 21
299.4887971788388
 31
0.0
 11
182.9882812210277
 21
299.1970348558085
 31
0.0
 11
183.3444686607741
 21
298.9351805913781
 31
0.0
 11
183.7455187028508
 21
298.6875830997747
 31
0.0
 11
184.1640203030323
 21
298.4711403318973
 31
0.0
 11
184.6207809747665
 21
298.2750148132636
 31
0.0
 11
185.0897101974863
 21
298.110418668976
 31
0.0
 11
185.5878151157072
 21
297.9713230623843
 31
0.0
 11
186.0935998063123
 21
297.8637629564576
 31
0.0
 11
186.6176363560617
 21
297.7854343373959
 31
0.0
 11
187.1453853352026
 21
297.738556217482
 31
0.0
 11
187.6793431077526
 21
297.7228517668374
 31
0.0
 11
188.2133008803026
 21
297.7385562174819
 31
0.0
 11
188.7410498594436
 21
297.7854343373958
 31
0.0
 11
189.265086409193
 21
297.8637629564575
 31
0.0
 11
189.7708710997982
 21
297.9713230623842
 31
0.0
 11
190.2689760180191
 21
298.110418668976
 31
0.0
 11
190.737905240739
 21
298.2750148132635
 31
0.0
 11
191.1946659124731
 21
298.4711403318973
 31
0.0
 11
191.6131675126544
 21
298.6875830997748
 31
0.0
 11
192.0142175547312
 21
298.935180591378
 31
0.0
 11
192.3704049944776
 21
299.1970348558084
 31
0.0
 11
192.7028411108346
 21
299.4887971788388
 31
0.0
 11
192.9867039609071
 21
299.7887455731747
 31
0.0
 11
193.2395056485109
 21
300.1156638101007
 31
0.0
 11
193.4428323725275
 21
300.4457952758223
 31
0.0
 11
193.6074064126024
 21
300.7971837007251
 31
0.0
 11
193.723521933584
 21
301.1489184332049
 31
0.0
 11
193.7945350591725
 21
301.5126557973875
 31
0.0
 11
193.8183576866569
 21
301.8761636982965
 31
0.0
 11
193.7945350591725
 21
302.2396715992055
 31
0.0
  0
SPLINE
  5
90
330
47
100
AcDbEntity
  8
1
  6
Continuous
 62
     7
100
AcDbSpline
210
0.0
220
0.0
230
1.0
 70
    11
 71
     3
 72
    79
 73
    75
 74
    73
 42
0.000000001
 43
0.0000000001
 44
0.00000001
 40
0.0
 40
0.0
 40
0.0
 40
0.0
 40
0.3744539397988313
 40
0.7484972842158709
 40
1.150447816251146
 40
1.551855589588329
 40
1.992608339320907
 40
2.432913516760769
 40
2.917182953666978
 40
3.401143381531958
 40
3.927920973204611
 40
4.454498665492936
 40
5.01838420500634
 40
5.582145594311174
 40
6.174598447462135
 40
6.76697956776102
 40
7.377365560627428
 40
7.98771871997068
 40
8.604202637364144
 40
9.22068655475861
 40
9.83103971410473
 40
10.44142570697455
 40
11.03380682727583
 40
11.62625968042548
 40
12.19002106972209
 40
12.75390660921513
 40
13.280484301467
 40
13.80726189307707
 40
14.29122232085033
 40
14.77549175761535
 40
15.21579693486347
 40
15.65654968430998
 40
16.05795745724484
 40
16.45990798858044
 40
16.83395133089933
 40
17.20840527768581
 40
17.5726575610863
 40
17.93690984448567
 40
18.31136379126892
 40
18.68540713358273
 40
19.08735766491149
 40
19.48876543783888
 40
19.92951818727668
 40
20.3698233645162
 40
20.85409280127184
 40
21.33805322903637
 40
21.86483082063749
 40
22.39140851288096
 40
22.9552940523658
 40
23.51905544165514
 40
24.11150829479804
 40
24.70388941509336
 40
25.31427540795822
 40
25.9246285673001
 40
26.54111248469144
 40
27.15759640208312
 40
27.76794956142604
 40
28.37833555429347
 40
28.97071667459504
 40
29.56316952775018
 40
30.12693091706054
 40
30.69081645658058
 40
31.21739414887574
 40
31.74417174055503
 40
32.22813216842452
 40
32.71240160532993
 40
33.15270678275903
 40
33.59345953245674
 40
33.99486730570371
 40
34.39681783745819
 40
34.77086118031979
 40
35.14531512791047
 40
35.50956741349628
 40
35.8738196902242
 40
35.8738196902242
 40
35.8738196902242
 40
35.8738196902242
 10
422.7402613718561
 20
301.5268417055496
 30
0.0
 10
422.7164170875569
 20
301.4040795745887
 30
0.0
 10
422.6687546738172
 20
301.1586899215505
 30
0.0
 10
422.5264634045896
 20
300.8005350333352
 30
0.0
 10
422.3386070137356
 20
300.4550574611733
 30
0.0
 10
422.0954974996031
 20
300.1178276408261
 30
0.0
 10
421.808547219077
 20
299.7998968178322
 30
0.0
 10
421.4708397317909
 20
299.493823461946
 30
0.0
 10
421.0951782151977
 20
299.211158199949
 30
0.0
 10
420.6734477873647
 20
298.9447704265597
 30
0.0
 10
420.2202190009404
 20
298.7046378694205
 30
0.0
 10
419.727325544316
 20
298.4853875216015
 30
0.0
 10
419.2096189698627
 20
298.2944742917269
 30
0.0
 10
418.6604497701962
 20
298.1285697189919
 30
0.0
 10
418.0933605046827
 20
297.9925146900871
 30
0.0
 10
417.5044684629926
 20
297.8846614736504
 30
0.0
 10
416.9047366295239
 20
297.8076613480918
 30
0.0
 10
416.2938542982313
 20
297.7608637035051
 30
0.0
 10
415.6793431177302
 20
297.7454225828727
 30
0.0
 10
415.0648319372082
 20
297.7608637035524
 30
0.0
 10
414.45394960598
 20
297.8076613481927
 30
0.0
 10
413.8542177722831
 20
297.8846614737507
 30
0.0
 10
413.2653257314284
 20
297.9925146903358
 30
0.0
 10
412.6982364628794
 20
298.1285697187739
 30
0.0
 10
412.1490672740314
 20
298.2944742931466
 30
0.0
 10
411.6313606605179
 20
298.4853875169626
 30
0.0
 10
411.1384673405038
 20
298.7046378856831
 30
0.0
 10
410.68523806516
 20
298.9447703675519
 30
0.0
 10
410.2635093213142
 20
299.2111583995414
 30
0.0
 10
409.8878418177374
 20
299.4938227412403
 30
0.0
 10
409.5501547562561
 20
299.7998992357489
 30
0.0
 10
409.2631319640142
 20
300.1178189150496
 30
0.0
 10
409.0202702989711
 20
300.45508682313
 30
0.0
 10
408.8315274157857
 20
300.800428161923
 30
0.0
 10
408.6923286410278
 20
301.1590582918899
 30
0.0
 10
408.6101992040602
 20
301.5221332493196
 30
0.0
 10
408.5809651138759
 20
301.8900311850626
 30
0.0
 10
408.6101992040507
 20
302.2579291208052
 30
0.0
 10
408.6923286410087
 20
302.6210040782337
 30
0.0
 10
408.8315274157574
 20
302.979634208199
 30
0.0
 10
409.0202702989342
 20
303.3249755469893
 30
0.0
 10
409.2631319639689
 20
303.6622434550663
 30
0.0
 10
409.5501547562031
 20
303.9801631343629
 30
0.0
 10
409.8878418176776
 20
304.2862396288661
 30
0.0
 10
410.2635093212479
 20
304.5689039705586
 30
0.0
 10
410.6852380650879
 20
304.8352920025411
 30
0.0
 10
411.1384673404261
 20
305.0754244844014
 30
0.0
 10
411.6313606604355
 20
305.2946748531116
 30
0.0
 10
412.1490672739447
 20
305.4855880769163
 30
0.0
 10
412.6982364627892
 20
305.6514926512757
 30
0.0
 10
413.265325731335
 20
305.7875476796983
 30
0.0
 10
413.8542177721871
 20
305.8954008962655
 30
0.0
 10
414.4539496058816
 20
305.9724010218027
 30
0.0
 10
415.0648319371081
 20
306.0191986664199
 30
0.0
 10
415.6793431176238
 20
306.0346397870716
 30
0.0
 10
416.2938542981382
 20
306.0191986664117
 30
0.0
 10
416.9047366293699
 20
305.9724010217806
 30
0.0
 10
417.5044684630485
 20
305.8954008962216
 30
0.0
 10
418.0933605039596
 20
305.7875476796056
 30
0.0
 10
418.66044977229
 20
305.6514926511554
 30
0.0
 10
419.2096189618981
 20
305.4855880765914
 30
0.0
 10
419.7273255726374
 20
305.2946748530939
 30
0.0
 10
420.2202189023103
 20
305.0754244827415
 30
0.0
 10
420.673448143019
 20
304.8352920060042
 30
0.0
 10
421.0951770060623
 20
304.568903955454
 30
0.0
 10
421.470844085721
 20
304.2862396786052
 30
0.0
 10
421.8085325932867
 20
303.9801629615072
 30
0.0
 10
422.0955502516343
 20
303.6622440707363
 30
0.0
 10
422.3384294642244
 20
303.324973465515
 30
0.0
 10
422.5271095837787
 20
302.9796417713639
 30
0.0
 10
422.6665273063792
 20
302.6209779936936
 30
0.0
 10
422.7478586627956
 20
302.258025680418
 30
0.0
 10
422.7799955121653
 20
301.8896816624188
 30
0.0
 10
422.7535060819104
 20
301.6477883571467
 30
0.0
 10
422.7402613718561
 20
301.5268417055496
 30
0.0
 11
422.7402613718561
 21
301.5268417055496
 31
0.0
 11
422.6574876330363
 21
301.1616509793236
 31
0.0
 11
422.523448149237
 21
300.8124492628305
 31
0.0
 11
422.3313092581329
 21
300.4593956178243
 31
0.0
 11
422.0977634781038
 21
300.1329226957089
 31
0.0
 11
421.8032443038547
 21
299.8050180720543
 31
0.0
 11
421.4776549572082
 21
299.5086058143518
 31
0.0
 11
421.0913684350344
 21
299.2165448443096
 31
0.0
 11
420.6825772459566
 21
298.9574937693837
 31
0.0
 11
420.217537254615
 21
298.7100418801064
 31
0.0
 11
419.7366144753255
 21
298.4955719606326
 31
0.0
 11
419.2078020825124
 21
298.2998058888228
 31
0.0
 11
418.6682230516161
 21
298.136461548588
 31
0.0
 11
418.092234596071
 21
297.9977615763909
 31
0.0
 11
417.509575247392
 21
297.8908809182428
 31
0.0
 11
416.9041978375203
 21
297.8128472594387
 31
0.0
 11
416.2956290057906
 21
297.7662108341065
 31
0.0
 11
415.6793431077527
 21
297.7505867410781
 31
0.0
 11
415.0630572097148
 21
297.7662108341064
 31
0.0
 11
414.4544883779851
 21
297.8128472594386
 31
0.0
 11
413.8491109681133
 21
297.8908809182428
 31
0.0
 11
413.2664516194343
 21
297.9977615763909
 31
0.0
 11
412.6904631638894
 21
298.1364615485881
 31
0.0
 11
412.1508841329929
 21
298.2998058888228
 31
0.0
 11
411.6220717401798
 21
298.4955719606324
 31
0.0
 11
411.1411489608905
 21
298.7100418801063
 31
0.0
 11
410.6761089695488
 21
298.9574937693836
 31
0.0
 11
410.267317780471
 21
299.2165448443095
 31
0.0
 11
409.8810312582972
 21
299.5086058143518
 31
0.0
 11
409.5554419116505
 21
299.8050180720544
 31
0.0
 11
409.2609227374015
 21
300.1329226957089
 31
0.0
 11
409.0273769573725
 21
300.4593956178242
 31
0.0
 11
408.8352380662685
 21
300.8124492628305
 31
0.0
 11
408.7011985824691
 21
301.1616509793236
 31
0.0
 11
408.6184248436493
 21
301.5268417055496
 31
0.0
 11
408.5906196683737
 21
301.8900311854168
 31
0.0
 11
408.6184248436493
 21
302.2532206652841
 31
0.0
 11
408.7011985824691
 21
302.6184113915101
 31
0.0
 11
408.8352380662685
 21
302.9676131080032
 31
0.0
 11
409.0273769573724
 21
303.3206667530093
 31
0.0
 11
409.2609227374015
 21
303.6471396751248
 31
0.0
 11
409.5554419116505
 21
303.9750442987793
 31
0.0
 11
409.8810312582972
 21
304.2714565564819
 31
0.0
 11
410.2673177804711
 21
304.563517526524
 31
0.0
 11
410.6761089695489
 21
304.82256860145
 31
0.0
 11
411.1411489608905
 21
305.0700204907274
 31
0.0
 11
411.6220717401799
 21
305.2844904102012
 31
0.0
 11
412.1508841329928
 21
305.4802564820108
 31
0.0
 11
412.6904631638893
 21
305.6436008222455
 31
0.0
 11
413.2664516194343
 21
305.7823007944427
 31
0.0
 11
413.8491109681133
 21
305.8891814525908
 31
0.0
 11
414.4544883779852
 21
305.9672151113949
 31
0.0
 11
415.0630572097148
 21
306.0138515367272
 31
0.0
 11
415.6793431077526
 21
306.0294756297555
 31
0.0
 11
416.2956290057906
 21
306.0138515367272
 31
0.0
 11
416.9041978375203
 21
305.9672151113949
 31
0.0
 11
417.509575247392
 21
305.8891814525908
 31
0.0
 11
418.0922345960711
 21
305.7823007944426
 31
0.0
 11
418.6682230516161
 21
305.6436008222455
 31
0.0
 11
419.2078020825126
 21
305.4802564820108
 31
0.0
 11
419.7366144753256
 21
305.2844904102012
 31
0.0
 11
420.217537254615
 21
305.0700204907274
 31
0.0
 11
420.6825772459566
 21
304.82256860145
 31
0.0
 11
421.0913684350344
 21
304.563517526524
 31
0.0
 11
421.4776549572082
 21
304.2714565564819
 31
0.0
 11
421.8032443038549
 21
303.9750442987793
 31
0.0
 11
422.0977634781039
 21
303.6471396751247
 31
0.0
 11
422.3313092581329
 21
303.3206667530093
 31
0.0
 11
422.523448149237
 21
302.9676131080032
 31
0.0
 11
422.6574876330363
 21
302.6184113915101
 31
0.0
 11
422.740261371856
 21
302.2532206652839
 31
0.0
 11
422.7680665471316
 21
301.8900311854168
 31
0.0
 11
422.7402613718561
 21
301.5268417055496
 31
0.0
  0
SPLINE
  5
91
330
47
100
AcDbEntity
  8
1
  6
Continuous
 62
     7
100
AcDbSpline
210
0.0
220
0.0
230
1.0
 70
    11
 71
     3
 72
    79
 73
    75
 74
    73
 42
0.000000001
 43
0.0000000001
 44
0.00000001
 40
0.0
 40
0.0
 40
0.0
 40
0.0
 40
0.3113974471105382
 40
0.622760423782005
 40
0.938884818571014
 40
1.254949276734488
 40
1.57817384881948
 40
1.901326476588784
 40
2.233053326532126
 40
2.564708705595623
 40
2.905253946691506
 40
3.245736828132217
 40
3.594369015231253
 40
3.942952647654869
 40
4.29804268930043
 40
4.653099956588798
 40
5.012341051186688
 40
5.371565723152902
 40
5.732232178441796
 40
6.092898633722371
 40
6.452123305663334
 40
6.81136440021824
 40
7.166421667445729
 40
7.521511709010781
 40
7.870095341334163
 40
8.218727528309282
 40
8.559210409603313
 40
8.899755650523355
 40
9.231411029383052
 40
9.563137879084604
 40
9.886290506571862
 40
10.20951507831275
 40
10.52557953603767
 40
10.84170393016666
 40
11.15306690530659
 40
11.46446436106125
 40
11.77419121123471
 40
12.0839180614072
 40
12.39531551715842
 40
12.70667849229272
 40
13.02280288641407
 40
13.33886734412945
 40
13.6620919158588
 40
13.9852445433333
 40
14.31697139302032
 40
14.64862677186466
 40
14.98917201276793
 40
15.32965489404477
 40
15.67828708100168
 40
16.02687071330644
 40
16.38196075485214
 40
16.73701802206026
 40
17.09625911659531
 40
17.45548378851619
 40
17.8161502437763
 40
18.17681669904453
 40
18.53604137099005
 40
18.89528246556695
 40
19.25033973283395
 40
19.60542977445774
 40
19.95401340685919
 40
20.30264559393512
 40
20.64312847535178
 40
20.98367371642126
 40
21.31532909545556
 40
21.64705594536418
 40
21.97020857308855
 40
22.29343314510668
 40
22.60949760315037
 40
22.92562199765954
 40
23.23698497327421
 40
23.54838242971911
 40
23.85810928145992
 40
24.16783612302095
 40
24.16783612302095
 40
24.16783612302095
 40
24.16783612302095
 10
402.1322567143276
 20
306.0136068582354
 30
0.0
 10
402.2352558744502
 20
306.0000243677819
 30
0.0
 10
402.4412427939167
 20
305.9728608962396
 30
0.0
 10
402.7444269743742
 20
305.892078118806
 30
0.0
 10
403.0400478577517
 20
305.7835462625623
 30
0.0
 10
403.3269238998936
 20
305.6440131798277
 30
0.0
 10
403.6013021740284
 20
305.476860940226
 30
0.0
 10
403.8628899414011
 20
305.2814854353649
 30
0.0
 10
404.1078488509637
 20
305.0614207440722
 30
0.0
 10
404.3362016734394
 20
304.8162237570608
 30
0.0
 10
404.5444978235707
 20
304.5500673665039
 30
0.0
 10
404.7327736185402
 20
304.2626344499928
 30
0.0
 10
404.8982748289297
 20
303.9584627033902
 30
0.0
 10
405.0408905649945
 20
303.637600182225
 30
0.0
 10
405.1587133874252
 20
303.3045587845593
 30
0.0
 10
405.251480186809
 20
302.9600224577024
 30
0.0
 10
405.3181191531108
 20
302.6080926032506
 30
0.0
 10
405.358347088364
 20
302.2503012126157
 30
0.0
 10
405.3717829660886
 20
301.8900311951121
 30
0.0
 10
405.3583470886556
 20
301.5297611775985
 30
0.0
 10
405.3181191536939
 20
301.1719697869784
 30
0.0
 10
405.2514801876975
 20
300.820039932434
 30
0.0
 10
405.1587133885869
 20
300.4755036058553
 30
0.0
 10
405.040890566579
 20
300.1424622070699
 30
0.0
 10
404.8982748304238
 20
299.8215996898908
 30
0.0
 10
404.7327736218867
 20
299.5174279284269
 30
0.0
 10
404.5444978217181
 20
299.2299950659473
 30
0.0
 10
404.336201692375
 20
298.9638384762125
 30
0.0
 10
404.1078487959564
 20
298.7186422137592
 30
0.0
 10
403.8628901603458
 20
298.4985748556767
 30
0.0
 10
403.601301397659
 20
298.3032090582494
 30
0.0
 10
403.3269267933084
 20
298.1360210474566
 30
0.0
 10
403.0400373460309
 20
297.9966186549476
 30
0.0
 10
402.7444660183912
 20
297.8876036993061
 30
0.0
 10
402.4410995352767
 20
297.8085981376092
 30
0.0
 10
402.1333430829857
 20
297.7613245622133
 30
0.0
 10
401.8229366477531
 20
297.7452322859577
 30
0.0
 10
401.5125302125208
 20
297.7613245621919
 30
0.0
 10
401.2047737602298
 20
297.8085981375668
 30
0.0
 10
400.9014072771157
 20
297.8876036992425
 30
0.0
 10
400.6058359494761
 20
297.9966186548631
 30
0.0
 10
400.3189465021993
 20
298.1360210473513
 30
0.0
 10
400.0445718978494
 20
298.3032090581238
 30
0.0
 10
399.7829831351634
 20
298.4985748555306
 30
0.0
 10
399.538024499554
 20
298.7186422135932
 30
0.0
 10
399.3096716031365
 20
298.9638384760264
 30
0.0
 10
399.1013754737953
 20
299.2299950657418
 30
0.0
 10
398.9130996736287
 20
299.5174279282019
 30
0.0
 10
398.7475984650939
 20
299.8215996896465
 30
0.0
 10
398.604982728941
 20
300.142462206806
 30
0.0
 10
398.4871599069359
 20
300.4755036055723
 30
0.0
 10
398.394393107828
 20
300.8200399321316
 30
0.0
 10
398.3277541418349
 20
301.1719697866565
 30
0.0
 10
398.2875262068761
 20
301.529761177257
 30
0.0
 10
398.2740903294472
 20
301.8900311947489
 30
0.0
 10
398.2875262071746
 20
302.2503012122373
 30
0.0
 10
398.3277541424335
 20
302.6080926028308
 30
0.0
 10
398.3943931087296
 20
302.9600224573351
 30
0.0
 10
398.4871599081483
 20
303.3045587838944
 30
0.0
 10
398.6049827304606
 20
303.6376001825535
 30
0.0
 10
398.747598466967
 20
303.9584626999643
 30
0.0
 10
398.9130996757255
 20
304.2626344603019
 30
0.0
 10
399.1013754766346
 20
304.550067326578
 30
0.0
 10
399.3096716048693
 20
304.8162239019682
 30
0.0
 10
399.5380245069808
 20
305.0614202162042
 30
0.0
 10
399.7829831233892
 20
305.2814873832278
 30
0.0
 10
400.0445719577809
 20
305.4768538755968
 30
0.0
 10
400.3189462998284
 20
305.6440393249456
 30
0.0
 10
400.6058367074504
 20
305.7834510749683
 30
0.0
 10
400.9014044873735
 20
305.8924314394473
 30
0.0
 10
401.2047840242734
 20
305.9715642533671
 30
0.0
 10
401.5124919989477
 20
306.0183652200765
 30
0.0
 10
401.8230784472611
 20
306.0362124246523
 30
0.0
 10
402.0291972929706
 20
306.0211420449726
 30
0.0
 10
402.1322567143276
 20
306.0136068582354
 30
0.0
 11
402.1322567143276
 21
306.0136068582354
 31
0.0
 11
402.4400327036905
 21
305.9662537597177
 31
0.0
 11
402.7414042154855
 21
305.8880098188687
 31
0.0
 11
403.0380048909111
 21
305.7786358182455
 31
0.0
 11
403.322402208907
 21
305.6407412677385
 31
0.0
 11
403.5984712212861
 21
305.4726340867953
 31
0.0
 11
403.8575445262218
 21
305.2794796319734
 31
0.0
 11
404.1044091619231
 21
305.0578931826
 31
0.0
 11
404.3306169137189
 21
304.8153538178801
 31
0.0
 11
404.5406221265563
 21
304.5472701149528
 31
0.0
 11
404.7273530785404
 21
304.262559482735
 31
0.0
 11
404.8941053565596
 21
303.956392731375
 31
0.0
 11
405.0358229978677
 21
303.6379172080991
 31
0.0
 11
405.1543600036731
 21
303.3031965545263
 31
0.0
 11
405.2467628322359
 21
302.9603738885129
 31
0.0
 11
405.3136660261509
 21
302.6074176211041
 31
0.0
 11
405.3538400221578
 21
302.2504464527842
 31
0.0
 11
405.3672983668912
 21
301.8900311854169
 31
0.0
 11
405.3538400221578
 21
301.5296159180494
 31
0.0
 11
405.3136660261509
 21
301.1726447497295
 31
0.0
 11
405.246762832236
 21
300.8196884823207
 31
0.0
 11
405.1543600036731
 21
300.4768658163074
 31
0.0
 11
405.0358229978677
 21
300.1421451627346
 31
0.0
 11
404.8941053565596
 21
299.8236696394586
 31
0.0
 11
404.7273530785404
 21
299.5175028880986
 31
0.0
 11
404.5406221265563
 21
299.2327922558807
 31
0.0
 11
404.3306169137189
 21
298.9647085529535
 31
0.0
 11
404.1044091619231
 21
298.7221691882337
 31
0.0
 11
403.8575445262218
 21
298.5005827388603
 31
0.0
 11
403.5984712212861
 21
298.3074282840383
 31
0.0
 11
403.322402208907
 21
298.1393211030951
 31
0.0
 11
403.0380048909112
 21
298.0014265525882
 31
0.0
 11
402.7414042154855
 21
297.8920525519649
 31
0.0
 11
402.4400327036904
 21
297.8138086111159
 31
0.0
 11
402.1322567143276
 21
297.7664555125982
 31
0.0
 11
401.8229366472017
 21
297.7505867410781
 31
0.0
 11
401.5136165800757
 21
297.7664555125982
 31
0.0
 11
401.2058405907129
 21
297.8138086111159
 31
0.0
 11
400.9044690789178
 21
297.8920525519649
 31
0.0
 11
400.607868403492
 21
298.0014265525881
 31
0.0
 11
400.3234710854963
 21
298.1393211030952
 31
0.0
 11
400.0474020731172
 21
298.3074282840383
 31
0.0
 11
399.7883287681814
 21
298.5005827388603
 31
0.0
 11
399.5414641324801
 21
298.7221691882337
 31
0.0
 11
399.3152563806843
 21
298.9647085529535
 31
0.0
 11
399.1052511678471
 21
299.2327922558807
 31
0.0
 11
398.9185202158629
 21
299.5175028880986
 31
0.0
 11
398.7517679378438
 21
299.8236696394586
 31
0.0
 11
398.6100502965356
 21
300.1421451627346
 31
0.0
 11
398.4915132907303
 21
300.4768658163073
 31
0.0
 11
398.3991104621674
 21
300.8196884823207
 31
0.0
 11
398.3322072682524
 21
301.1726447497296
 31
0.0
 11
398.2920332722455
 21
301.5296159180495
 31
0.0
 11
398.2785749275122
 21
301.8900311854168
 31
0.0
 11
398.2920332722455
 21
302.2504464527841
 31
0.0
 11
398.3322072682524
 21
302.607417621104
 31
0.0
 11
398.3991104621674
 21
302.960373888513
 31
0.0
 11
398.4915132907302
 21
303.3031965545263
 31
0.0
 11
398.6100502965356
 21
303.6379172080991
 31
0.0
 11
398.7517679378437
 21
303.956392731375
 31
0.0
 11
398.9185202158629
 21
304.262559482735
 31
0.0
 11
399.105251167847
 21
304.5472701149529
 31
0.0
 11
399.3152563806843
 21
304.8153538178801
 31
0.0
 11
399.5414641324801
 21
305.0578931825999
 31
0.0
 11
399.7883287681814
 21
305.2794796319734
 31
0.0
 11
400.0474020731172
 21
305.4726340867954
 31
0.0
 11
400.3234710854963
 21
305.6407412677386
 31
0.0
 11
400.607868403492
 21
305.7786358182456
 31
0.0
 11
400.9044690789178
 21
305.8880098188687
 31
0.0
 11
401.2058405907129
 21
305.9662537597177
 31
0.0
 11
401.5136165800756
 21
306.0136068582354
 31
0.0
 11
401.8229366472016
 21
306.0294756297556
 31
0.0
 11
402.1322567143276
 21
306.0136068582354
 31
0.0
  0
SPLINE
  5
92
330
47
100
AcDbEntity
  8
1
  6
Continuous
 62
     7
100
AcDbSpline
210
0.0
220
0.0
230
1.0
 70
    11
 71
     3
 72
    79
 73
    75
 74
    73
 42
0.000000001
 43
0.0000000001
 44
0.00000001
 40
0.0
 40
0.0
 40
0.0
 40
0.0
 40
0.311397447110482
 40
0.6227604237819488
 40
0.9388848185711178
 40
1.254949276734541
 40
1.578173848819484
 40
1.901326476588788
 40
2.23305332653213
 40
2.564708705595589
 40
2.905253946691436
 40
3.245736828132178
 40
3.594369015231187
 40
3.94295264765478
 40
4.29804268930036
 40
4.653099956588728
 40
5.012341051186618
 40
5.371565723152832
 40
5.732232178441726
 40
6.092898633722295
 40
6.452123305663277
 40
6.811364400218194
 40
7.166421667445667
 40
7.521511709010738
 40
7.87009534133412
 40
8.218727528309213
 40
8.559210409603212
 40
8.899755650523254
 40
9.23141102938295
 40
9.56313787908446
 40
9.886290506571719
 40
10.20951507831255
 40
10.52557953603758
 40
10.84170393016656
 40
11.1530669053065
 40
11.46446436106116
 40
11.77419121123473
 40
12.08391806140711
 40
12.39531551715833
 40
12.70667849229268
 40
13.02280288641398
 40
13.33886734412937
 40
13.66209191585861
 40
13.98524454333312
 40
14.31697139302014
 40
14.64862677186456
 40
14.98917201276786
 40
15.32965489404467
 40
15.6782870810016
 40
16.02687071330633
 40
16.38196075485206
 40
16.73701802206018
 40
17.09625911659523
 40
17.45548378851611
 40
17.81615024377621
 40
18.17681669904445
 40
18.53604137098997
 40
18.89528246556686
 40
19.25033973283388
 40
19.60542977445765
 40
19.95401340685913
 40
20.30264559393503
 40
20.64312847535169
 40
20.98367371642125
 40
21.31532909545554
 40
21.64705594536416
 40
21.97020857308849
 40
22.29343314510656
 40
22.60949760315026
 40
22.92562199765932
 40
23.23698497327405
 40
23.54838242971906
 40
23.85810928145993
 40
24.16783612302089
 40
24.16783612302089
 40
24.16783612302089
 40
24.16783612302089
 10
429.2264295011777
 20
306.0136068582354
 30
0.0
 10
429.1234303410551
 20
306.0000243677817
 30
0.0
 10
428.9174434215887
 20
305.9728608962397
 30
0.0
 10
428.6142592411312
 20
305.8920781188059
 30
0.0
 10
428.3186383577535
 20
305.7835462625622
 30
0.0
 10
428.0317623156117
 20
305.6440131798277
 30
0.0
 10
427.7573840414769
 20
305.4768609402259
 30
0.0
 10
427.4957962741043
 20
305.2814854353649
 30
0.0
 10
427.2508373645413
 20
305.0614207440723
 30
0.0
 10
427.0224845420662
 20
304.8162237570608
 30
0.0
 10
426.8141883919347
 20
304.5500673665039
 30
0.0
 10
426.6259125969652
 20
304.2626344499929
 30
0.0
 10
426.4604113865756
 20
303.9584627033902
 30
0.0
 10
426.3177956505113
 20
303.637600182225
 30
0.0
 10
426.1999728280801
 20
303.3045587845593
 30
0.0
 10
426.1072060286965
 20
302.9600224577023
 30
0.0
 10
426.0405670623948
 20
302.6080926032507
 30
0.0
 10
426.0003391271413
 20
302.2503012126156
 30
0.0
 10
425.986903249417
 20
301.8900311951121
 30
0.0
 10
426.0003391268495
 20
301.5297611775984
 30
0.0
 10
426.0405670618114
 20
301.1719697869784
 30
0.0
 10
426.1072060278082
 20
300.820039932434
 30
0.0
 10
426.1999728269186
 20
300.4755036058553
 30
0.0
 10
426.3177956489266
 20
300.1424622070697
 30
0.0
 10
426.4604113850819
 20
299.8215996898908
 30
0.0
 10
426.6259125936185
 20
299.5174279284269
 30
0.0
 10
426.8141883937874
 20
299.2299950659474
 30
0.0
 10
427.0224845231302
 20
298.9638384762124
 30
0.0
 10
427.250837419549
 20
298.7186422137593
 30
0.0
 10
427.4957960551594
 20
298.4985748556767
 30
0.0
 10
427.7573848178464
 20
298.3032090582495
 30
0.0
 10
428.0317594221969
 20
298.1360210474565
 30
0.0
 10
428.3186488694744
 20
297.9966186549477
 30
0.0
 10
428.6142201971142
 20
297.887603699306
 30
0.0
 10
428.9175866802286
 20
297.8085981376094
 30
0.0
 10
429.2253431325198
 20
297.7613245622132
 30
0.0
 10
429.5357495677523
 20
297.7452322859578
 30
0.0
 10
429.8461560029846
 20
297.761324562192
 30
0.0
 10
430.1539124552756
 20
297.8085981375667
 30
0.0
 10
430.4572789383897
 20
297.8876036992425
 30
0.0
 10
430.7528502660292
 20
297.9966186548631
 30
0.0
 10
431.0397397133059
 20
298.1360210473513
 30
0.0
 10
431.314114317656
 20
298.3032090581237
 30
0.0
 10
431.5757030803418
 20
298.4985748555306
 30
0.0
 10
431.8206617159514
 20
298.7186422135933
 30
0.0
 10
432.0490146123688
 20
298.9638384760265
 30
0.0
 10
432.25731074171
 20
299.2299950657418
 30
0.0
 10
432.4455865418769
 20
299.517427928202
 30
0.0
 10
432.6110877504115
 20
299.8215996896464
 30
0.0
 10
432.7537034865645
 20
300.1424622068062
 30
0.0
 10
432.8715263085696
 20
300.4755036055723
 30
0.0
 10
432.9642931076775
 20
300.8200399321317
 30
0.0
 10
433.0309320736704
 20
301.1719697866564
 30
0.0
 10
433.0711600086293
 20
301.5297611772571
 30
0.0
 10
433.0845958860583
 20
301.8900311947489
 30
0.0
 10
433.071160008331
 20
302.2503012122373
 30
0.0
 10
433.0309320730718
 20
302.6080926028308
 30
0.0
 10
432.9642931067759
 20
302.9600224573351
 30
0.0
 10
432.8715263073569
 20
303.3045587838944
 30
0.0
 10
432.7537034850448
 20
303.6376001825535
 30
0.0
 10
432.6110877485382
 20
303.9584626999642
 30
0.0
 10
432.44558653978
 20
304.262634460302
 30
0.0
 10
432.2573107388708
 20
304.5500673265782
 30
0.0
 10
432.0490146106358
 20
304.816223901968
 30
0.0
 10
431.8206617085245
 20
305.0614202162043
 30
0.0
 10
431.575703092116
 20
305.2814873832279
 30
0.0
 10
431.3141142577244
 20
305.4768538755968
 30
0.0
 10
431.0397399156769
 20
305.6440393249457
 30
0.0
 10
430.7528495080551
 20
305.7834510749684
 30
0.0
 10
430.457281728132
 20
305.8924314394473
 30
0.0
 10
430.153902191232
 20
305.9715642533671
 30
0.0
 10
429.8461942165577
 20
306.0183652200764
 30
0.0
 10
429.5356077682441
 20
306.0362124246523
 30
0.0
 10
429.3294889225348
 20
306.0211420449727
 30
0.0
 10
429.2264295011777
 20
306.0136068582354
 30
0.0
 11
429.2264295011777
 21
306.0136068582354
 31
0.0
 11
428.9186535118149
 21
305.9662537597177
 31
0.0
 11
428.6172820000198
 21
305.8880098188687
 31
0.0
 11
428.3206813245941
 21
305.7786358182455
 31
0.0
 11
428.0362840065983
 21
305.6407412677385
 31
0.0
 11
427.7602149942192
 21
305.4726340867953
 31
0.0
 11
427.5011416892835
 21
305.2794796319734
 31
0.0
 11
427.2542770535823
 21
305.0578931826
 31
0.0
 11
427.0280693017864
 21
304.8153538178801
 31
0.0
 11
426.8180640889491
 21
304.5472701149528
 31
0.0
 11
426.6313331369649
 21
304.262559482735
 31
0.0
 11
426.4645808589458
 21
303.956392731375
 31
0.0
 11
426.3228632176377
 21
303.6379172080991
 31
0.0
 11
426.2043262118323
 21
303.3031965545263
 31
0.0
 11
426.1119233832695
 21
302.9603738885129
 31
0.0
 11
426.0450201893545
 21
302.6074176211041
 31
0.0
 11
426.0048461933476
 21
302.2504464527842
 31
0.0
 11
425.9913878486142
 21
301.8900311854169
 31
0.0
 11
426.0048461933475
 21
301.5296159180494
 31
0.0
 11
426.0450201893545
 21
301.1726447497295
 31
0.0
 11
426.1119233832695
 21
300.8196884823207
 31
0.0
 11
426.2043262118323
 21
300.4768658163074
 31
0.0
 11
426.3228632176377
 21
300.1421451627346
 31
0.0
 11
426.4645808589459
 21
299.8236696394586
 31
0.0
 11
426.631333136965
 21
299.5175028880986
 31
0.0
 11
426.818064088949
 21
299.2327922558807
 31
0.0
 11
427.0280693017864
 21
298.9647085529535
 31
0.0
 11
427.2542770535823
 21
298.7221691882337
 31
0.0
 11
427.5011416892835
 21
298.5005827388603
 31
0.0
 11
427.7602149942192
 21
298.3074282840383
 31
0.0
 11
428.0362840065983
 21
298.1393211030951
 31
0.0
 11
428.3206813245941
 21
298.0014265525882
 31
0.0
 11
428.6172820000198
 21
297.8920525519649
 31
0.0
 11
428.918653511815
 21
297.8138086111159
 31
0.0
 11
429.2264295011778
 21
297.7664555125982
 31
0.0
 11
429.5357495683037
 21
297.7505867410781
 31
0.0
 11
429.8450696354297
 21
297.7664555125982
 31
0.0
 11
430.1528456247925
 21
297.8138086111159
 31
0.0
 11
430.4542171365877
 21
297.8920525519649
 31
0.0
 11
430.7508178120133
 21
298.0014265525881
 31
0.0
 11
431.0352151300091
 21
298.1393211030952
 31
0.0
 11
431.3112841423881
 21
298.3074282840383
 31
0.0
 11
431.5703574473239
 21
298.5005827388603
 31
0.0
 11
431.8172220830251
 21
298.7221691882337
 31
0.0
 11
432.043429834821
 21
298.9647085529535
 31
0.0
 11
432.2534350476583
 21
299.2327922558807
 31
0.0
 11
432.4401659996424
 21
299.5175028880986
 31
0.0
 11
432.6069182776616
 21
299.8236696394586
 31
0.0
 11
432.7486359189697
 21
300.1421451627346
 31
0.0
 11
432.8671729247752
 21
300.4768658163073
 31
0.0
 11
432.959575753338
 21
300.8196884823207
 31
0.0
 11
433.0264789472531
 21
301.1726447497296
 31
0.0
 11
433.0666529432599
 21
301.5296159180495
 31
0.0
 11
433.0801112879932
 21
301.8900311854168
 31
0.0
 11
433.0666529432599
 21
302.2504464527841
 31
0.0
 11
433.026478947253
 21
302.607417621104
 31
0.0
 11
432.959575753338
 21
302.960373888513
 31
0.0
 11
432.8671729247752
 21
303.3031965545263
 31
0.0
 11
432.7486359189697
 21
303.6379172080991
 31
0.0
 11
432.6069182776616
 21
303.956392731375
 31
0.0
 11
432.4401659996424
 21
304.262559482735
 31
0.0
 11
432.2534350476584
 21
304.5472701149529
 31
0.0
 11
432.0434298348209
 21
304.8153538178801
 31
0.0
 11
431.8172220830252
 21
305.0578931825999
 31
0.0
 11
431.5703574473239
 21
305.2794796319734
 31
0.0
 11
431.3112841423882
 21
305.4726340867954
 31
0.0
 11
431.0352151300091
 21
305.6407412677386
 31
0.0
 11
430.7508178120133
 21
305.7786358182456
 31
0.0
 11
430.4542171365877
 21
305.8880098188687
 31
0.0
 11
430.1528456247925
 21
305.9662537597177
 31
0.0
 11
429.8450696354297
 21
306.0136068582354
 31
0.0
 11
429.5357495683037
 21
306.0294756297556
 31
0.0
 11
429.2264295011777
 21
306.0136068582354
 31
0.0
  0
ARC
  5
93
330
47
100
AcDbEntity
  8
1
  6
Continuous
 62
     7
100
AcDbCircle
 10
427.4793431077527
 20
293.9505867410781
 30
0.0
 40
0.1999999999999886
100
AcDbArc
 50
269.9999999999674
 51
0.0
  0
ARC
  5
94
330
47
100
AcDbEntity
  8
1
  6
Continuous
 62
     7
100
AcDbCircle
 10
428.1793431077527
 20
295.0387665327078
 30
0.0
 40
0.499999999999909
100
AcDbArc
 50
102.3736251161813
 51
180.0
  0
ARC
  5
95
330
47
100
AcDbEntity
  8
1
  6
Continuous
 62
     7
100
AcDbCircle
 10
167.8793431077527
 20
293.9505867410781
 30
0.0
 40
0.2000000000000171
100
AcDbArc
 50
180.0
 51
270.0
  0
ARC
  5
96
330
47
100
AcDbEntity
  8
1
  6
Continuous
 62
     7
100
AcDbCircle
 10
167.1793431077527
 20
295.0387665327078
 30
0.0
 40
0.5
100
AcDbArc
 50
0.0
 51
77.62637488380278
  0
ARC
  5
97
330
47
100
AcDbEntity
  8
1
  6
Continuous
 62
     7
100
AcDbCircle
 10
191.4793431077525
 20
293.9505867410781
 30
0.0
 40
0.1999999999999886
100
AcDbArc
 50
270.0
 51
0.0
  0
ARC
  5
98
330
47
100
AcDbEntity
  8
1
  6
Continuous
 62
     7
100
AcDbCircle
 10
192.1793431077526
 20
295.0387665327078
 30
0.0
 40
0.4999999999999334
100
AcDbArc
 50
102.373625116194
 51
180.0
  0
ARC
  5
99
330
47
100
AcDbEntity
  8
1
  6
Continuous
 62
     7
100
AcDbCircle
 10
403.8793431077527
 20
293.9505867410781
 30
0.0
 40
0.1999999999999886
100
AcDbArc
 50
180.0
 51
270.0
  0
ARC
  5
9A
330
47
100
AcDbEntity
  8
1
  6
Continuous
 62
     7
100
AcDbCircle
 10
403.1793431077527
 20
295.0387665327078
 30
0.0
 40
0.5
100
AcDbArc
 50
0.0
 51
77.62637488381232
  0
ENDBLK
  5
49
330
47
100
AcDbEntity
  8
0
100
AcDbBlockEnd
  0
BLOCK
  5
4B
330
4A
100
AcDbEntity
  8
0
100
AcDbBlockBegin
  2
60-1-19-170
 70
     0
 10
263.1793431077526
 20
198.0005867410781
 30
0.0
  3
60-1-19-170
  1

  0
LINE
  5
9B
330
4A
100
AcDbEntity
  8
1
  6
Continuous
 62
     7
100
AcDbLine
 10
170.1793431077526
 20
293.7505867410781
 30
0.0
 11
170.1793431077526
 21
228.800586741078
 31
0.0
  0
LINE
  5
9C
330
4A
100
AcDbEntity
  8
1
  6
Continuous
 62
     7
100
AcDbLine
 10
189.1793431077526
 20
293.7505867410781
 30
0.0
 11
189.1793431077526
 21
228.800586741078
 31
0.0
  0
LINE
  5
9D
330
4A
100
AcDbEntity
  8
1
  6
Continuous
 62
     7
100
AcDbLine
 10
189.194958811416
 20
228.800586741078
 30
0.0
 11
170.1874452045117
 21
228.800586741078
 31
0.0
  0
LINE
  5
9E
330
4A
100
AcDbEntity
  8
1
  6
Continuous
 62
     7
100
AcDbLine
 10
170.9660363268303
 20
223.0005867410781
 30
0.0
 11
188.3926498886751
 21
223.0005867410781
 31
0.0
  0
LINE
  5
9F
330
4A
100
AcDbEntity
  8
1
  6
Continuous
 62
     7
100
AcDbLine
 10
189.1793431077526
 20
614.7630607781928
 30
0.0
 11
189.1793431077526
 21
457.7534418349594
 31
0.0
  0
LINE
  5
A0
330
4A
100
AcDbEntity
  8
1
  6
Continuous
 62
     7
100
AcDbLine
 10
170.1793431077526
 20
614.7630607781928
 30
0.0
 11
170.1793431077526
 21
457.7534418349594
 31
0.0
  0
LINE
  5
A1
330
4A
100
AcDbEntity
  8
1
  6
Continuous
 62
     7
100
AcDbLine
 10
255.1949588114161
 20
228.800586741078
 30
0.0
 11
236.1874452045117
 21
228.800586741078
 31
0.0
  0
LINE
  5
A2
330
4A
100
AcDbEntity
  8
1
  6
Continuous
 62
     7
100
AcDbLine
 10
406.1793431077527
 20
291.0005867410781
 30
0.0
 11
406.1793431077527
 21
293.7505867410781
 31
0.0
  0
LINE
  5
A3
330
4A
100
AcDbEntity
  8
1
  6
Continuous
 62
     7
100
AcDbLine
 10
425.1793431077527
 20
293.7505867410781
 30
0.0
 11
425.1793431077527
 21
291.0005867410781
 31
0.0
  0
LINE
  5
A4
330
4A
100
AcDbEntity
  8
1
  6
Continuous
 62
     7
100
AcDbLine
 10
385.6793431077527
 20
251.5005867410781
 30
0.0
 11
275.6793431077525
 21
251.5005867410781
 31
0.0
  0
LINE
  5
A5
330
4A
100
AcDbEntity
  8
1
  6
Continuous
 62
     7
100
AcDbLine
 10
385.6793431077527
 20
270.5005867410781
 30
0.0
 11
275.6793431077525
 21
270.5005867410781
 31
0.0
  0
LINE
  5
A6
330
4A
100
AcDbEntity
  8
1
  6
Continuous
 62
     7
100
AcDbLine
 10
236.9660363268303
 20
223.0005867410781
 30
0.0
 11
254.392649888675
 21
223.0005867410781
 31
0.0
  0
LINE
  5
A7
330
4A
100
AcDbEntity
  8
1
  6
Continuous
 62
     7
100
AcDbLine
 10
255.1949588114161
 20
231.800586741078
 30
0.0
 11
255.1949588114161
 21
228.800586741078
 31
0.0
  0
LINE
  5
A8
330
4A
100
AcDbEntity
  8
1
  6
Continuous
 62
     7
100
AcDbLine
 10
236.1874452045117
 20
231.800586741078
 30
0.0
 11
236.1874452045117
 21
228.800586741078
 31
0.0
  0
ARC
  5
A9
330
4A
100
AcDbEntity
  8
1
  6
Continuous
 62
     7
100
AcDbCircle
 10
179.6793431077526
 20
261.0005867410781
 30
0.0
 40
9.5
100
AcDbArc
 50
0.0
 51
180.0
  0
ARC
  5
AA
330
4A
100
AcDbEntity
  8
1
  6
Continuous
 62
     7
100
AcDbCircle
 10
172.9717646032814
 20
226.2256720289191
 30
0.0
 40
3.792442522868035
100
AcDbArc
 50
137.2376153226118
 51
179.809203463204
  0
ARC
  5
AB
330
4A
100
AcDbEntity
  8
1
  6
Continuous
 62
     7
100
AcDbCircle
 10
186.3524225776762
 20
226.2383009444901
 30
0.0
 40
3.826920530076569
100
AcDbArc
 50
302.2168480373574
 51
42.03176167825007
  0
ARC
  5
AC
330
4A
100
AcDbEntity
  8
1
  6
Continuous
 62
     7
100
AcDbCircle
 10
173.0062636378291
 20
226.2383009444901
 30
0.0
 40
3.826920530076507
100
AcDbArc
 50
180.0
 51
237.7831519626437
  0
ARC
  5
AD
330
4A
100
AcDbEntity
  8
1
  6
Continuous
 62
     7
100
AcDbCircle
 10
179.6793431077526
 20
457.7534418349594
 30
0.0
 40
9.5
100
AcDbArc
 50
180.0
 51
0.0
  0
ARC
  5
AE
330
4A
100
AcDbEntity
  8
1
  6
Continuous
 62
     7
100
AcDbCircle
 10
179.6793431077526
 20
457.7534418349594
 30
0.0
 40
10.50000000000001
100
AcDbArc
 50
154.7912347032415
 51
25.20876529675848
  0
ARC
  5
AF
330
4A
100
AcDbEntity
  8
1
  6
Continuous
 62
     7
100
AcDbCircle
 10
385.6793431077527
 20
291.0005867410781
 30
0.0
 40
20.5
100
AcDbArc
 50
270.0
 51
0.0
  0
ARC
  5
B0
330
4A
100
AcDbEntity
  8
1
  6
Continuous
 62
     7
100
AcDbCircle
 10
385.6793431077527
 20
291.0005867410781
 30
0.0
 40
39.5
100
AcDbArc
 50
270.0
 51
0.0
  0
ARC
  5
B1
330
4A
100
AcDbEntity
  8
1
  6
Continuous
 62
     7
100
AcDbCircle
 10
275.6926843035305
 20
230.9869725513734
 30
0.0
 40
39.51361644193476
100
AcDbArc
 50
90.01934508392524
 51
178.8201547182279
  0
ARC
  5
B2
330
4A
100
AcDbEntity
  8
1
  6
Continuous
 62
     7
100
AcDbCircle
 10
275.6793431077525
 20
231.0005867410781
 30
0.0
 40
20.5
100
AcDbArc
 50
90.0
 51
177.7634992335207
  0
ARC
  5
B3
330
4A
100
AcDbEntity
  8
1
  6
Continuous
 62
     7
100
AcDbCircle
 10
238.9717646032814
 20
226.2256720289191
 30
0.0
 40
3.792442522868035
100
AcDbArc
 50
137.2376153226118
 51
179.809203463204
  0
ARC
  5
B4
330
4A
100
AcDbEntity
  8
1
  6
Continuous
 62
     7
100
AcDbCircle
 10
252.352422577676
 20
226.2383009444901
 30
0.0
 40
3.82692053007663
100
AcDbArc
 50
302.2168480373588
 51
42.03176167824722
  0
ARC
  5
B5
330
4A
100
AcDbEntity
  8
1
  6
Continuous
 62
     7
100
AcDbCircle
 10
239.0062636378291
 20
226.2383009444901
 30
0.0
 40
3.826920530076507
100
AcDbArc
 50
180.0
 51
237.7831519626437
  0
ENDBLK
  5
4C
330
4A
100
AcDbEntity
  8
0
100
AcDbBlockEnd
  0
BLOCK
  5
50
330
4D
100
AcDbEntity
  8
0
100
AcDbBlockBegin
  2
61-1X-19-170
 70
     0
 10
160.1793431077526
 20
223.0005867410781
 30
0.0
  3
61-1X-19-170
  1

  0
INSERT
  5
4E
330
4D
100
AcDbEntity
  8
1
100
AcDbBlockReference
  2
32-1-19
 10
-13.91572183364076
 20
519.3404324085941
 30
0.0
  0
INSERT
  5
4F
330
4D
100
AcDbEntity
  8
1
100
AcDbBlockReference
  2
60-1-19-170
 10
263.1793431077526
 20
198.0005867410781
 30
0.0
  0
LINE
  5
B6
330
4D
100
AcDbEntity
  8
1
  6
PHANTOM
 62
     4
100
AcDbLine
 10
160.1793431077526
 20
457.7534418349594
 30
0.0
 11
199.1793431077526
 21
457.7534418349594
 31
0.0
  0
ENDBLK
  5
51
330
4D
100
AcDbEntity
  8
0
100
AcDbBlockEnd
  0
BLOCK
  5
53
330
52
100
AcDbEntity
  8
0
100
AcDbBlockBegin
  2
37-1-20
 70
     0
 10
59.74827505734822
 20
590.0355790270751
 30
0.0
  3
37-1-20
  1

  0
LINE
  5
B7
330
52
100
AcDbEntity
  8
1
  6
Continuous
 62
     7
100
AcDbLine
 10
473.6368093485904
 20
366.5935139011364
 30
0.0
 11
460.6793431077526
 21
366.5935139011364
 31
0.0
  0
LINE
  5
B8
330
52
100
AcDbEntity
  8
1
  6
Continuous
 62
     7
100
AcDbLine
 10
197.1793431077526
 20
359.0935139011361
 30
0.0
 11
197.1793431077522
 21
366.5935139011364
 31
0.0
  0
LINE
  5
B9
330
52
100
AcDbEntity
  8
1
  6
Continuous
 62
     7
100
AcDbLine
 10
192.6368093485905
 20
366.5935139011364
 30
0.0
 11
179.6793431077526
 21
366.5935139011364
 31
0.0
  0
LINE
  5
BA
330
52
100
AcDbEntity
  8
1
  6
Continuous
 62
     7
100
AcDbLine
 10
162.179343107753
 20
366.5935139011364
 30
0.0
 11
162.1793431077526
 21
359.0935139011361
 31
0.0
  0
LINE
  5
BB
330
52
100
AcDbEntity
  8
1
  6
Continuous
 62
     7
100
AcDbLine
 10
179.6793431077526
 20
366.5935139011364
 30
0.0
 11
166.7218768669148
 21
366.5935139011364
 31
0.0
  0
LINE
  5
BC
330
52
100
AcDbEntity
  8
1
  6
Continuous
 62
     7
100
AcDbLine
 10
197.1793431077526
 20
359.0935139011361
 30
0.0
 11
162.1793431077526
 21
359.0935139011361
 31
0.0
  0
LINE
  5
BD
330
52
100
AcDbEntity
  8
1
  6
Continuous
 62
     7
100
AcDbLine
 10
172.6793431077526
 20
375.0935139011361
 30
0.0
 11
186.6793431077526
 21
375.0935139011361
 31
0.0
  0
LINE
  5
BE
330
52
100
AcDbEntity
  8
1
  6
Continuous
 62
     7
100
AcDbLine
 10
460.6793431077526
 20
366.5935139011364
 30
0.0
 11
447.7218768669149
 21
366.5935139011364
 31
0.0
  0
LINE
  5
BF
330
52
100
AcDbEntity
  8
1
  6
Continuous
 62
     7
100
AcDbLine
 10
478.1793431077527
 20
359.0935139011361
 30
0.0
 11
443.1793431077527
 21
359.0935139011361
 31
0.0
  0
LINE
  5
C0
330
52
100
AcDbEntity
  8
1
  6
Continuous
 62
     7
100
AcDbLine
 10
453.6793431077527
 20
375.0935139011361
 30
0.0
 11
467.6793431077527
 21
375.0935139011361
 31
0.0
  0
ARC
  5
C1
330
52
100
AcDbEntity
  8
1
  6
Continuous
 62
     7
100
AcDbCircle
 10
474.2464701893583
 20
362.8435139011361
 30
0.0
 40
5.434150291650004
100
AcDbArc
 50
316.3635352807804
 51
43.63646471922599
  0
ARC
  5
C2
330
52
100
AcDbEntity
  8
1
  6
Continuous
 62
     7
100
AcDbCircle
 10
491.3206146750752
 20
393.5621434842996
 30
0.0
 40
29.99999999999992
100
AcDbArc
 50
217.9970561126711
 51
244.0209558023178
  0
ARC
  5
C3
330
52
100
AcDbEntity
  8
1
  6
Continuous
 62
     7
100
AcDbCircle
 10
210.3206146750754
 20
393.5621434842997
 30
0.0
 40
30.00000000000022
100
AcDbArc
 50
217.9970561126709
 51
244.0209558023176
  0
ARC
  5
C4
330
52
100
AcDbEntity
  8
1
  6
Continuous
 62
     7
100
AcDbCircle
 10
149.0380715404302
 20
393.5621434842997
 30
0.0
 40
29.99999999999996
100
AcDbArc
 50
295.9790441976818
 51
322.0029438873286
  0
ARC
  5
C5
330
52
100
AcDbEntity
  8
1
  6
Continuous
 62
     7
100
AcDbCircle
 10
447.112216026147
 20
362.8435139011361
 30
0.0
 40
5.43415029164991
100
AcDbArc
 50
136.3635352807744
 51
223.6364647192201
  0
ARC
  5
C6
330
52
100
AcDbEntity
  8
1
  6
Continuous
 62
     7
100
AcDbCircle
 10
430.0380715404301
 20
393.5621434842996
 30
0.0
 40
29.99999999999994
100
AcDbArc
 50
295.9790441976822
 51
322.0029438873289
  0
SPLINE
  5
C7
330
52
100
AcDbEntity
  8
1
  6
Continuous
 62
     7
100
AcDbSpline
210
0.0
220
0.0
230
1.0
 70
    11
 71
     3
 72
    79
 73
    75
 74
    73
 42
0.000000001
 43
0.0000000001
 44
0.00000001
 40
0.0
 40
0.0
 40
0.0
 40
0.0
 40
0.3391478282604344
 40
0.6779273414050078
 40
1.041834265542315
 40
1.405253425680831
 40
1.804114029273896
 40
2.202571399271267
 40
2.640647340356558
 40
3.078444315261407
 40
3.554838690440641
 40
4.031052345060111
 40
4.540904999932379
 40
5.050645307403162
 40
5.586259706990345
 40
6.12180915344932
 40
6.67359706710642
 40
7.225355240305387
 40
7.782642957331529
 40
8.339930674358712
 40
8.891688847560339
 40
9.443476761220687
 40
9.979026207681787
 40
10.51464060726732
 40
11.02438091472947
 40
11.5342335695809
 40
12.01044722416334
 40
12.48684159927927
 40
12.92463857409168
 40
13.36271451503513
 40
13.76117188484017
 40
14.16003248814683
 40
14.52345164788252
 40
14.88735857131977
 40
15.22613808236756
 40
15.56528591762811
 40
15.89525115796702
 40
16.22521639830476
 40
16.56436423356207
 40
16.90314374460486
 40
17.26705066803546
 40
17.63046982776353
 40
18.02933043106154
 40
18.42778780085768
 40
18.86586374179167
 40
19.30366071659529
 40
19.78005509170226
 40
20.25626874627638
 40
20.76612140111972
 40
21.27586170857453
 40
21.81147610815323
 40
22.34702555460826
 40
22.89881346826345
 40
23.4505716414608
 40
24.00785935848485
 40
24.56514707550907
 40
25.11690524870755
 40
25.66869316236555
 40
26.20424260882707
 40
26.7398570084182
 40
27.24959731589431
 40
27.75944997077308
 40
28.23566362539928
 40
28.71205800058495
 40
29.149854975494
 40
29.58793091657825
 40
29.98638828656451
 40
30.38524889012238
 40
30.74866805017021
 40
31.11257497402618
 40
31.45135448561635
 40
31.79050232168094
 40
32.12046756420419
 40
32.45043279785537
 40
32.45043279785537
 40
32.45043279785537
 40
32.45043279785537
 10
182.0464709147796
 20
363.1725207582953
 30
0.0
 10
182.0680213260158
 20
363.2837159651563
 30
0.0
 10
182.1110987355457
 20
363.5059856226555
 30
0.0
 10
182.2397020086456
 20
363.8304215774525
 30
0.0
 10
182.4095075362671
 20
364.1434002083735
 30
0.0
 10
182.6292522691919
 20
364.4488951582156
 30
0.0
 10
182.8886473345358
 20
364.736935540962
 30
0.0
 10
183.1939149048689
 20
365.0142139508021
 30
0.0
 10
183.5335128418862
 20
365.2703071828647
 30
0.0
 10
183.9147411655198
 20
365.5116361889649
 30
0.0
 10
184.3244617994254
 20
365.7291928158708
 30
0.0
 10
184.7700233046104
 20
365.9278191798456
 30
0.0
 10
185.2380299320316
 20
366.1007814016158
 30
0.0
 10
185.7344655858785
 20
366.2510801354264
 30
0.0
 10
186.2471109107572
 20
366.3743409197912
 30
0.0
 10
186.7794568501263
 20
366.4720489198488
 30
0.0
 10
187.3216078226223
 20
366.5418077167595
 30
0.0
 10
187.8738342537152
 20
366.584203205643
 30
0.0
 10
188.429343097776
 20
366.5981924587073
 30
0.0
 10
188.9848519418558
 20
366.5842032055975
 30
0.0
 10
189.5370783728904
 20
366.5418077166627
 30
0.0
 10
190.079229345592
 20
366.472048919751
 30
0.0
 10
190.6115752842078
 20
366.3743409195597
 30
0.0
 10
191.1242206118229
 20
366.2510801356164
 30
0.0
 10
191.6206562559151
 20
366.1007814003368
 30
0.0
 10
192.0886629185577
 20
365.927819184024
 30
0.0
 10
192.5342243005333
 20
365.7291928012529
 30
0.0
 10
192.9439453754553
 20
365.5116362420984
 30
0.0
 10
193.3251721796889
 20
365.2703070032391
 30
0.0
 10
193.6647755195294
 20
365.0142145997595
 30
0.0
 10
193.9700246504797
 20
364.736933363201
 30
0.0
 10
194.2294851904079
 20
364.4489030191411
 30
0.0
 10
194.4490060338799
 20
364.1433737441806
 30
0.0
 10
194.6196125350496
 20
363.8305179161203
 30
0.0
 10
194.7454205846808
 20
363.5056534091736
 30
0.0
 10
194.8196551043457
 20
363.1767615203993
 30
0.0
 10
194.8460699177963
 20
362.8435139014916
 30
0.0
 10
194.8196551043555
 20
362.510266282584
 30
0.0
 10
194.7454205847
 20
362.181374393811
 30
0.0
 10
194.6196125350781
 20
361.8565098868659
 30
0.0
 10
194.449006033917
 20
361.5436540588081
 30
0.0
 10
194.2294851904531
 20
361.238124783851
 30
0.0
 10
193.9700246505327
 20
360.9500944397954
 30
0.0
 10
193.6647755195896
 20
360.6728132032425
 30
0.0
 10
193.3251721797556
 20
360.4167207997691
 30
0.0
 10
192.9439453755282
 20
360.1753915609172
 30
0.0
 10
192.5342243006114
 20
359.9578350017707
 30
0.0
 10
192.0886629186408
 20
359.7592086190098
 30
0.0
 10
191.6206562560022
 20
359.5862464027081
 30
0.0
 10
191.1242206119138
 20
359.435947667442
 30
0.0
 10
190.6115752843019
 20
359.3126868835141
 30
0.0
 10
190.0792293456887
 20
359.2149788833407
 30
0.0
 10
189.53707837299
 20
359.1452200864495
 30
0.0
 10
188.9848519419567
 20
359.1028245975382
 30
0.0
 10
188.429343097883
 20
359.0888353444558
 30
0.0
 10
187.8738342538107
 20
359.1028245975479
 30
0.0
 10
187.321607822773
 20
359.1452200864748
 30
0.0
 10
186.7794568500884
 20
359.2149788833892
 30
0.0
 10
186.2471109114221
 20
359.3126868836121
 30
0.0
 10
185.7344655840047
 20
359.4359476675722
 30
0.0
 10
185.2380299392279
 20
359.5862464030328
 30
0.0
 10
184.7700232790882
 20
359.7592086190713
 30
0.0
 10
184.3244618884019
 20
359.9578350033263
 30
0.0
 10
183.9147408447263
 20
360.1753915578825
 30
0.0
 10
183.5335139329387
 20
360.4167208134751
 30
0.0
 10
183.1939109756918
 20
360.6728131585936
 30
0.0
 10
182.8886605391811
 20
360.9500945956771
 30
0.0
 10
182.6292046353285
 20
361.2381242293784
 30
0.0
 10
182.4096679392506
 20
361.543655935302
 30
0.0
 10
182.2391181519972
 20
361.856503068831
 30
0.0
 10
182.1131121838112
 20
362.1813979205402
 30
0.0
 10
182.0395991909821
 20
362.5101791893539
 30
0.0
 10
182.0105596363726
 20
362.8438292209964
 30
0.0
 10
182.0345004920185
 20
363.0629569132244
 30
0.0
 10
182.0464709147796
 20
363.1725207582953
 30
0.0
 11
182.0464709147796
 21
363.1725207582953
 31
0.0
 11
182.1212845447085
 21
363.5033140094742
 31
0.0
 11
182.242453686294
 21
363.8196834079804
 31
0.0
 11
182.4161119801048
 21
364.1394818538715
 31
0.0
 11
182.6272490753229
 21
364.4352767367732
 31
0.0
 11
182.8934517750165
 21
364.7323051926649
 31
0.0
 11
183.1878051797867
 21
365.0008649601318
 31
0.0
 11
183.5369672757784
 21
365.2654332137113
 31
0.0
 11
183.9065349508662
 21
365.5001371223265
 31
0.0
 11
184.3268947342016
 21
365.7243005743547
 31
0.0
 11
184.7616636338416
 21
365.9186081880403
 31
0.0
 11
185.239678841877
 21
366.0959530232057
 31
0.0
 11
185.7274652880391
 21
366.2439380359593
 31
0.0
 11
186.2481329582065
 21
366.3695881942924
 31
0.0
 11
186.7748562001962
 21
366.4664170946921
 31
0.0
 11
187.3220969751914
 21
366.5371096391528
 31
0.0
 11
187.8722351735514
 21
366.5793594249196
 31
0.0
 11
188.4293431077526
 21
366.5935139011366
 31
0.0
 11
188.9864510419539
 21
366.5793594249197
 31
0.0
 11
189.5365892403139
 21
366.5371096391528
 31
0.0
 11
190.083830015309
 21
366.4664170946921
 31
0.0
 11
190.6105532572988
 21
366.3695881942923
 31
0.0
 11
191.1312209274663
 21
366.2439380359594
 31
0.0
 11
191.6190073736286
 21
366.0959530232058
 31
0.0
 11
192.097022581664
 21
365.9186081880404
 31
0.0
 11
192.5317914813039
 21
365.7243005743547
 31
0.0
 11
192.9521512646392
 21
365.5001371223265
 31
0.0
 11
193.3217189397268
 21
365.2654332137112
 31
0.0
 11
193.6708810357186
 21
365.0008649601316
 31
0.0
 11
193.9652344404888
 21
364.7323051926647
 31
0.0
 11
194.2314371401823
 21
364.4352767367731
 31
0.0
 11
194.4425742354004
 21
364.1394818538715
 31
0.0
 11
194.6162325292113
 21
363.8196834079806
 31
0.0
 11
194.7374016707969
 21
363.5033140094744
 31
0.0
 11
194.8122153007259
 21
363.1725207582953
 31
0.0
 11
194.8373459167409
 21
362.8435139011363
 31
0.0
 11
194.8122153007259
 21
362.5145070439773
 31
0.0
 11
194.7374016707969
 21
362.1837137927982
 31
0.0
 11
194.6162325292113
 21
361.867344394292
 31
0.0
 11
194.4425742354004
 21
361.5475459484009
 31
0.0
 11
194.2314371401823
 21
361.2517510654994
 31
0.0
 11
193.9652344404887
 21
360.9547226096078
 31
0.0
 11
193.6708810357185
 21
360.686162842141
 31
0.0
 11
193.3217189397268
 21
360.4215945885616
 31
0.0
 11
192.9521512646391
 21
360.1868906799463
 31
0.0
 11
192.5317914813039
 21
359.9627272279179
 31
0.0
 11
192.097022581664
 21
359.7684196142322
 31
0.0
 11
191.6190073736286
 21
359.5910747790667
 31
0.0
 11
191.1312209274663
 21
359.4430897663131
 31
0.0
 11
190.6105532572988
 21
359.3174396079802
 31
0.0
 11
190.083830015309
 21
359.2206107075805
 31
0.0
 11
189.5365892403138
 21
359.1499181631197
 31
0.0
 11
188.9864510419539
 21
359.107668377353
 31
0.0
 11
188.4293431077526
 21
359.093513901136
 31
0.0
 11
187.8722351735514
 21
359.1076683773529
 31
0.0
 11
187.3220969751914
 21
359.1499181631196
 31
0.0
 11
186.7748562001962
 21
359.2206107075804
 31
0.0
 11
186.2481329582065
 21
359.3174396079802
 31
0.0
 11
185.7274652880391
 21
359.4430897663132
 31
0.0
 11
185.239678841877
 21
359.5910747790668
 31
0.0
 11
184.7616636338416
 21
359.7684196142322
 31
0.0
 11
184.3268947342016
 21
359.9627272279178
 31
0.0
 11
183.9065349508662
 21
360.1868906799462
 31
0.0
 11
183.5369672757784
 21
360.4215945885615
 31
0.0
 11
183.1878051797867
 21
360.686162842141
 31
0.0
 11
182.8934517750165
 21
360.9547226096079
 31
0.0
 11
182.6272490753229
 21
361.2517510654994
 31
0.0
 11
182.4161119801049
 21
361.547545948401
 31
0.0
 11
182.242453686294
 21
361.8673443942919
 31
0.0
 11
182.1212845447084
 21
362.1837137927981
 31
0.0
 11
182.0464709147796
 21
362.5145070439773
 31
0.0
 11
182.0213402987646
 21
362.8435139011364
 31
0.0
 11
182.0464709147796
 21
363.1725207582953
 31
0.0
  0
SPLINE
  5
C8
330
52
100
AcDbEntity
  8
1
  6
Continuous
 62
     7
100
AcDbSpline
210
0.0
220
0.0
230
1.0
 70
    11
 71
     3
 72
    79
 73
    75
 74
    73
 42
0.000000001
 43
0.0000000001
 44
0.00000001
 40
0.0
 40
0.0
 40
0.0
 40
0.0
 40
0.3391478282604533
 40
0.6779273414050672
 40
1.041834265542401
 40
1.405253425680901
 40
1.804114029273928
 40
2.202571399271341
 40
2.640647340356632
 40
3.078444315261362
 40
3.55483869044052
 40
4.031052345059887
 40
4.540904999932235
 40
5.050645307403154
 40
5.58625970699042
 40
6.121809153449423
 40
6.673597067106495
 40
7.225355240305461
 40
7.782642957331632
 40
8.339930674358758
 40
8.891688847560413
 40
9.443476761220762
 40
9.979026207681834
 40
10.51464060726731
 40
11.02438091472927
 40
11.53423356958067
 40
12.01044722416322
 40
12.48684159927922
 40
12.92463857409173
 40
13.3627145150352
 40
13.76117188484022
 40
14.16003248814692
 40
14.52345164788259
 40
14.88735857131981
 40
15.22613808236757
 40
15.56528591762809
 40
15.895251157967
 40
16.22521639830473
 40
16.56436423356201
 40
16.90314374460475
 40
17.26705066803531
 40
17.63046982776337
 40
18.02933043106134
 40
18.42778780085752
 40
18.8658637417916
 40
19.30366071659524
 40
19.78005509170236
 40
20.25626874627655
 40
20.7661214011199
 40
21.27586170857449
 40
21.81147610815305
 40
22.34702555460811
 40
22.89881346826324
 40
23.45057164146062
 40
24.00785935848462
 40
24.56514707550892
 40
25.1169052487074
 40
25.66869316236538
 40
26.20424260882692
 40
26.73985700841824
 40
27.24959731589444
 40
27.75944997077326
 40
28.23566362539941
 40
28.71205800058495
 40
29.14985497549386
 40
29.58793091657813
 40
29.98638828656441
 40
30.38524889012225
 40
30.74866805017009
 40
31.11257497402607
 40
31.45135448561628
 40
31.7905023216809
 40
32.12046756420416
 40
32.45043279785534
 40
32.45043279785534
 40
32.45043279785534
 40
32.45043279785534
 10
177.3122153007259
 20
363.1725207582953
 30
0.0
 10
177.2906648894896
 20
363.2837159651563
 30
0.0
 10
177.2475874799597
 20
363.5059856226555
 30
0.0
 10
177.1189842068598
 20
363.8304215774525
 30
0.0
 10
176.9491786792381
 20
364.1434002083736
 30
0.0
 10
176.7294339463134
 20
364.4488951582155
 30
0.0
 10
176.4700388809695
 20
364.7369355409621
 30
0.0
 10
176.1647713106364
 20
365.014213950802
 30
0.0
 10
175.825173373619
 20
365.2703071828647
 30
0.0
 10
175.4439450499856
 20
365.5116361889648
 30
0.0
 10
175.03422441608
 20
365.7291928158708
 30
0.0
 10
174.5886629108951
 20
365.9278191798456
 30
0.0
 10
174.1206562834739
 20
366.1007814016158
 30
0.0
 10
173.6242206296269
 20
366.2510801354264
 30
0.0
 10
173.111575304748
 20
366.3743409197912
 30
0.0
 10
172.579229365379
 20
366.4720489198487
 30
0.0
 10
172.0370783928831
 20
366.5418077167593
 30
0.0
 10
171.4848519617901
 20
366.5842032056431
 30
0.0
 10
170.9293431177293
 20
366.5981924587072
 30
0.0
 10
170.3738342736495
 20
366.5842032055975
 30
0.0
 10
169.8216078426149
 20
366.5418077166627
 30
0.0
 10
169.2794568699134
 20
366.4720489197512
 30
0.0
 10
168.7471109312975
 20
366.3743409195596
 30
0.0
 10
168.2344656036825
 20
366.2510801356166
 30
0.0
 10
167.7380299595904
 20
366.1007814003368
 30
0.0
 10
167.2700232969479
 20
365.927819184024
 30
0.0
 10
166.8244619149721
 20
365.729192801253
 30
0.0
 10
166.4147408400501
 20
365.5116362420982
 30
0.0
 10
166.0335140358163
 20
365.2703070032392
 30
0.0
 10
165.6939106959759
 20
365.0142145997595
 30
0.0
 10
165.3886615650256
 20
364.7369333632011
 30
0.0
 10
165.1292010250973
 20
364.4489030191411
 30
0.0
 10
164.9096801816254
 20
364.1433737441806
 30
0.0
 10
164.7390736804556
 20
363.8305179161203
 30
0.0
 10
164.6132656308246
 20
363.5056534091736
 30
0.0
 10
164.5390311111597
 20
363.1767615203993
 30
0.0
 10
164.5126162977094
 20
362.8435139014916
 30
0.0
 10
164.53903111115
 20
362.5102662825841
 30
0.0
 10
164.6132656308054
 20
362.181374393811
 30
0.0
 10
164.7390736804272
 20
361.8565098868659
 30
0.0
 10
164.9096801815884
 20
361.5436540588082
 30
0.0
 10
165.129201025052
 20
361.238124783851
 30
0.0
 10
165.3886615649724
 20
360.9500944397954
 30
0.0
 10
165.6939106959156
 20
360.6728132032424
 30
0.0
 10
166.0335140357496
 20
360.4167207997691
 30
0.0
 10
166.4147408399773
 20
360.175391560917
 30
0.0
 10
166.824461914894
 20
359.9578350017708
 30
0.0
 10
167.2700232968648
 20
359.7592086190098
 30
0.0
 10
167.7380299595033
 20
359.5862464027082
 30
0.0
 10
168.2344656035916
 20
359.435947667442
 30
0.0
 10
168.7471109312034
 20
359.3126868835139
 30
0.0
 10
169.2794568698165
 20
359.2149788833407
 30
0.0
 10
169.8216078425152
 20
359.1452200864495
 30
0.0
 10
170.3738342735486
 20
359.1028245975383
 30
0.0
 10
170.9293431176221
 20
359.0888353444559
 30
0.0
 10
171.4848519616945
 20
359.1028245975479
 30
0.0
 10
172.0370783927323
 20
359.1452200864747
 30
0.0
 10
172.5792293654168
 20
359.2149788833892
 30
0.0
 10
173.1115753040833
 20
359.3126868836121
 30
0.0
 10
173.6242206315007
 20
359.4359476675723
 30
0.0
 10
174.1206562762776
 20
359.5862464030329
 30
0.0
 10
174.5886629364174
 20
359.7592086190711
 30
0.0
 10
175.0342243271036
 20
359.9578350033263
 30
0.0
 10
175.4439453707791
 20
360.1753915578826
 30
0.0
 10
175.8251722825666
 20
360.4167208134753
 30
0.0
 10
176.1647752398135
 20
360.6728131585936
 30
0.0
 10
176.4700256763241
 20
360.950094595677
 30
0.0
 10
176.7294815801767
 20
361.2381242293785
 30
0.0
 10
176.9490182762546
 20
361.5436559353019
 30
0.0
 10
177.1195680635081
 20
361.856503068831
 30
0.0
 10
177.2455740316942
 20
362.1813979205402
 30
0.0
 10
177.3190870245234
 20
362.5101791893539
 30
0.0
 10
177.3481265791331
 20
362.8438292209964
 30
0.0
 10
177.324185723487
 20
363.0629569132244
 30
0.0
 10
177.3122153007259
 20
363.1725207582953
 30
0.0
 11
177.3122153007259
 21
363.1725207582953
 31
0.0
 11
177.2374016707969
 21
363.5033140094742
 31
0.0
 11
177.1162325292113
 21
363.8196834079804
 31
0.0
 11
176.9425742354004
 21
364.1394818538715
 31
0.0
 11
176.7314371401823
 21
364.4352767367732
 31
0.0
 11
176.4652344404888
 21
364.7323051926649
 31
0.0
 11
176.1708810357186
 21
365.0008649601318
 31
0.0
 11
175.8217189397268
 21
365.2654332137113
 31
0.0
 11
175.4521512646392
 21
365.5001371223265
 31
0.0
 11
175.0317914813039
 21
365.7243005743547
 31
0.0
 11
174.597022581664
 21
365.9186081880403
 31
0.0
 11
174.1190073736285
 21
366.0959530232057
 31
0.0
 11
173.6312209274663
 21
366.2439380359593
 31
0.0
 11
173.1105532572988
 21
366.3695881942924
 31
0.0
 11
172.583830015309
 21
366.4664170946921
 31
0.0
 11
172.0365892403139
 21
366.5371096391528
 31
0.0
 11
171.4864510419539
 21
366.5793594249196
 31
0.0
 11
170.9293431077526
 21
366.5935139011366
 31
0.0
 11
170.3722351735514
 21
366.5793594249197
 31
0.0
 11
169.8220969751914
 21
366.5371096391528
 31
0.0
 11
169.2748562001962
 21
366.4664170946921
 31
0.0
 11
168.7481329582065
 21
366.3695881942923
 31
0.0
 11
168.2274652880391
 21
366.2439380359594
 31
0.0
 11
167.739678841877
 21
366.0959530232058
 31
0.0
 11
167.2616636338416
 21
365.9186081880404
 31
0.0
 11
166.8268947342016
 21
365.7243005743547
 31
0.0
 11
166.4065349508662
 21
365.5001371223265
 31
0.0
 11
166.0369672757784
 21
365.2654332137112
 31
0.0
 11
165.6878051797867
 21
365.0008649601316
 31
0.0
 11
165.3934517750165
 21
364.7323051926647
 31
0.0
 11
165.1272490753229
 21
364.4352767367731
 31
0.0
 11
164.9161119801048
 21
364.1394818538715
 31
0.0
 11
164.742453686294
 21
363.8196834079806
 31
0.0
 11
164.6212845447085
 21
363.5033140094744
 31
0.0
 11
164.5464709147797
 21
363.1725207582953
 31
0.0
 11
164.5213402987647
 21
362.8435139011363
 31
0.0
 11
164.5464709147797
 21
362.5145070439773
 31
0.0
 11
164.6212845447085
 21
362.1837137927982
 31
0.0
 11
164.742453686294
 21
361.867344394292
 31
0.0
 11
164.9161119801048
 21
361.5475459484009
 31
0.0
 11
165.1272490753229
 21
361.2517510654994
 31
0.0
 11
165.3934517750165
 21
360.9547226096078
 31
0.0
 11
165.6878051797867
 21
360.686162842141
 31
0.0
 11
166.0369672757785
 21
360.4215945885616
 31
0.0
 11
166.4065349508662
 21
360.1868906799463
 31
0.0
 11
166.8268947342016
 21
359.9627272279179
 31
0.0
 11
167.2616636338416
 21
359.7684196142322
 31
0.0
 11
167.739678841877
 21
359.5910747790667
 31
0.0
 11
168.2274652880391
 21
359.4430897663131
 31
0.0
 11
168.7481329582065
 21
359.3174396079802
 31
0.0
 11
169.2748562001962
 21
359.2206107075805
 31
0.0
 11
169.8220969751914
 21
359.1499181631197
 31
0.0
 11
170.3722351735514
 21
359.107668377353
 31
0.0
 11
170.9293431077526
 21
359.093513901136
 31
0.0
 11
171.4864510419539
 21
359.1076683773529
 31
0.0
 11
172.0365892403139
 21
359.1499181631196
 31
0.0
 11
172.583830015309
 21
359.2206107075804
 31
0.0
 11
173.1105532572988
 21
359.3174396079802
 31
0.0
 11
173.6312209274663
 21
359.4430897663132
 31
0.0
 11
174.1190073736285
 21
359.5910747790668
 31
0.0
 11
174.597022581664
 21
359.7684196142322
 31
0.0
 11
175.0317914813039
 21
359.9627272279178
 31
0.0
 11
175.4521512646392
 21
360.1868906799462
 31
0.0
 11
175.8217189397268
 21
360.4215945885615
 31
0.0
 11
176.1708810357186
 21
360.686162842141
 31
0.0
 11
176.4652344404888
 21
360.9547226096079
 31
0.0
 11
176.7314371401823
 21
361.2517510654994
 31
0.0
 11
176.9425742354004
 21
361.547545948401
 31
0.0
 11
177.1162325292113
 21
361.8673443942919
 31
0.0
 11
177.2374016707969
 21
362.1837137927981
 31
0.0
 11
177.3122153007259
 21
362.5145070439773
 31
0.0
 11
177.3373459167409
 21
362.8435139011364
 31
0.0
 11
177.3122153007259
 21
363.1725207582953
 31
0.0
  0
SPLINE
  5
C9
330
52
100
AcDbEntity
  8
1
  6
Continuous
 62
     7
100
AcDbSpline
210
0.0
220
0.0
230
1.0
 70
    11
 71
     3
 72
    79
 73
    75
 74
    73
 42
0.000000001
 43
0.0000000001
 44
0.00000001
 40
0.0
 40
0.0
 40
0.0
 40
0.0
 40
0.3450399137484271
 40
0.689394116498848
 40
1.070453636315418
 40
1.450714751769255
 40
1.881165822682718
 40
2.311065839989332
 40
2.795574581376915
 40
3.279748744793918
 40
3.816034401406428
 40
4.352121292836852
 40
4.932968327977044
 40
5.513698732907113
 40
6.128527578114151
 40
6.743291375382276
 40
7.379331447663181
 40
8.015342322269914
 40
8.658578534171308
 40
9.301814746076971
 40
9.937825620695815
 40
10.57386569299549
 40
11.18862949028673
 40
11.80345833551919
 40
12.38418874047152
 40
12.96503577562703
 40
13.50112266705856
 40
14.03740832364939
 40
14.52158248701505
 40
15.00609122830132
 40
15.4359912454535
 40
15.86644231611135
 40
16.24670343119331
 40
16.62776295033282
 40
16.97211715095886
 40
17.31715707083726
 40
17.64845856969103
 40
17.97976006854374
 40
18.32479998841925
 40
18.669154189041
 40
19.05021370817479
 40
19.4304748232508
 40
19.86092589390189
 40
20.29082591104746
 40
20.77533465232696
 40
21.25950881568656
 40
21.79579447227139
 40
22.33188136369754
 40
22.91272839884827
 40
23.49345880379641
 40
24.10828764902538
 40
24.72305144631417
 40
25.35909151861269
 40
25.99510239323164
 40
26.63833860513921
 40
27.28157481704455
 40
27.91758569165777
 40
28.55362576394774
 40
29.16838956122788
 40
29.78321840645032
 40
30.36394881139825
 40
30.94479584655974
 40
31.48088273801248
 40
32.01716839464891
 40
32.50134255808825
 40
32.98585129949455
 40
33.41575131681008
 40
33.84620238771056
 40
34.22646350310093
 40
34.60752302267338
 40
34.95187722385759
 40
35.29691714454427
 40
35.62821864557048
 40
35.95952013882746
 40
35.95952013882746
 40
35.95952013882746
 40
35.95952013882746
 10
468.0492587528092
 20
363.1735075595863
 30
0.0
 10
468.024011394586
 20
363.2860105175876
 30
0.0
 10
467.9735668634939
 20
363.5107928547554
 30
0.0
 10
467.8231369517487
 20
363.8367943793338
 30
0.0
 10
467.6261923094451
 20
364.1492663939159
 30
0.0
 10
467.3710853555853
 20
364.4551595293319
 30
0.0
 10
467.0717293728183
 20
364.7415775155071
 30
0.0
 10
466.7186075630246
 20
365.0187177638109
 30
0.0
 10
466.32740083094
 20
365.2733197483917
 30
0.0
 10
465.8870063364653
 20
365.5144043235748
 30
0.0
 10
465.4150410113208
 20
365.7309211250033
 30
0.0
 10
464.9005945126876
 20
365.9293303637365
 30
0.0
 10
464.3612527227377
 20
366.1016520430336
 30
0.0
 10
463.7882064842323
 20
366.2517880714893
 30
0.0
 10
463.1971526613574
 20
366.3746895105401
 30
0.0
 10
462.5827585602227
 20
366.4722939535317
 30
0.0
 10
461.9574574513341
 20
366.5418794916364
 30
0.0
 10
461.3202272633067
 20
366.5842383450856
 30
0.0
 10
460.6793431177537
 20
366.598177873654
 30
0.0
 10
460.0384589721735
 20
366.5842383449249
 30
0.0
 10
459.4012287842246
 20
366.5418794913035
 30
0.0
 10
458.7759276750461
 20
366.4722939531037
 30
0.0
 10
458.1615335749493
 20
366.3746895097939
 30
0.0
 10
457.5704797482937
 20
366.2517880713147
 30
0.0
 10
456.9974335231444
 20
366.1016520403767
 30
0.0
 10
456.4580916852132
 20
365.9293303696633
 30
0.0
 10
455.9436453525313
 20
365.7309211010873
 30
0.0
 10
455.4716794382517
 20
365.5144044056381
 30
0.0
 10
455.0312869400338
 20
365.2733194716196
 30
0.0
 10
454.6400731919523
 20
365.0187187487441
 30
0.0
 10
454.2869747810828
 20
364.7415742934016
 30
0.0
 10
453.9875369543712
 20
364.4551710237556
 30
0.0
 10
453.7327019837733
 20
364.1492289842611
 30
0.0
 10
453.5347995395446
 20
363.8369291908684
 30
0.0
 10
453.3876217901558
 20
363.5103429021732
 30
0.0
 10
453.3011989827384
 20
363.1796473792076
 30
0.0
 10
453.2696438597226
 20
362.8435139014287
 30
0.0
 10
453.3011989827314
 20
362.5073804236504
 30
0.0
 10
453.3876217901417
 20
362.1766849006855
 30
0.0
 10
453.5347995395242
 20
361.8500986119923
 30
0.0
 10
453.7327019837472
 20
361.537798818602
 30
0.0
 10
453.9875369543395
 20
361.2318567791109
 30
0.0
 10
454.2869747810462
 20
360.9454535094691
 30
0.0
 10
454.6400731919115
 20
360.6683090541317
 30
0.0
 10
455.0312869399891
 20
360.4137083312624
 30
0.0
 10
455.4716794382041
 20
360.1726233972514
 30
0.0
 10
455.9436453524814
 20
359.9561067018109
 30
0.0
 10
456.4580916851615
 20
359.7576974332455
 30
0.0
 10
456.9974335230918
 20
359.5853757625447
 30
0.0
 10
457.570479748241
 20
359.4352397316217
 30
0.0
 10
458.1615335748967
 20
359.3123382931608
 30
0.0
 10
458.7759276749947
 20
359.2147338498723
 30
0.0
 10
459.4012287841745
 20
359.1451483116981
 30
0.0
 10
460.0384589721272
 20
359.1027894581064
 30
0.0
 10
460.6793431177049
 20
359.0888499294132
 30
0.0
 10
461.3202272632809
 20
359.1027894580175
 30
0.0
 10
461.9574574512391
 20
359.1451483115274
 30
0.0
 10
462.5827585603992
 20
359.2147338496283
 30
0.0
 10
463.1971526605706
 20
359.3123382928776
 30
0.0
 10
463.7882064869617
 20
359.4352397312641
 30
0.0
 10
464.3612527130509
 20
359.5853757623595
 30
0.0
 10
464.9005945476073
 20
359.7576974324949
 30
0.0
 10
465.4150408919588
 20
359.9561067032436
 30
0.0
 10
465.8870067647981
 20
360.1726233913683
 30
0.0
 10
466.3273994034072
 20
360.4137083508174
 30
0.0
 10
466.7186126580206
 20
360.6683089852154
 30
0.0
 10
467.0717127145557
 20
360.9454537367917
 30
0.0
 10
467.3711447849582
 20
361.231855971819
 30
0.0
 10
467.6259988846373
 20
361.5378014513797
 30
0.0
 10
467.8238339644847
 20
361.8500891327594
 30
0.0
 10
467.9712404453005
 20
362.1767165498757
 30
0.0
 10
468.0568378212579
 20
362.5072636553739
 30
0.0
 10
468.0913593029638
 20
362.8439305061877
 30
0.0
 10
468.0632922656752
 20
363.0636485422764
 30
0.0
 10
468.0492587528092
 20
363.1735075595862
 30
0.0
 11
468.0492587528092
 21
363.1735075595863
 31
0.0
 11
467.9618847191323
 21
363.5073013950971
 31
0.0
 11
467.8221500400559
 21
363.8220299051147
 31
0.0
 11
467.619196174784
 21
364.1445451540004
 31
0.0
 11
467.3769703136221
 21
364.4376750703835
 31
0.0
 11
467.0670146518499
 21
364.7363648961471
 31
0.0
 11
466.7294810059812
 21
365.0026073846585
 31
0.0
 11
466.3241785212078
 21
365.2680854746189
 31
0.0
 11
465.8998236851823
 21
365.5012111781158
 31
0.0
 11
465.4128444498261
 21
365.7258298100421
 31
0.0
 11
464.912845857817
 21
365.9191962061852
 31
0.0
 11
464.3597950536078
 21
366.0967295444903
 31
0.0
 11
463.7981051071208
 21
366.2442158395976
 31
0.0
 11
463.1962609828787
 21
366.3699065673155
 31
0.0
 11
462.5891357425784
 21
366.4665164479634
 31
0.0
 11
461.9570337838734
 21
366.5371853050452
 31
0.0
 11
461.3224239734289
 21
366.5793779716166
 31
0.0
 11
460.6793431077527
 21
366.5935139011365
 31
0.0
 11
460.0362622420764
 21
366.5793779716166
 31
0.0
 11
459.4016524316318
 21
366.5371853050452
 31
0.0
 11
458.7695504729269
 21
366.4665164479634
 31
0.0
 11
458.1624252326267
 21
366.3699065673155
 31
0.0
 11
457.5605811083845
 21
366.2442158395976
 31
0.0
 11
456.9988911618976
 21
366.0967295444902
 31
0.0
 11
456.4458403576883
 21
365.9191962061851
 31
0.0
 11
455.9458417656794
 21
365.7258298100421
 31
0.0
 11
455.4588625303231
 21
365.5012111781158
 31
0.0
 11
455.0345076942976
 21
365.2680854746189
 31
0.0
 11
454.6292052095242
 21
365.0026073846585
 31
0.0
 11
454.2916715636555
 21
364.736364896147
 31
0.0
 11
453.9817159018833
 21
364.4376750703835
 31
0.0
 11
453.7394900407213
 21
364.1445451540004
 31
0.0
 11
453.5365361754493
 21
363.8220299051147
 31
0.0
 11
453.3968014963731
 21
363.5073013950971
 31
0.0
 11
453.3094274626961
 21
363.1735075595861
 31
0.0
 11
453.2800188142784
 21
362.8435139011362
 31
0.0
 11
453.3094274626961
 21
362.5135202426862
 31
0.0
 11
453.396801496373
 21
362.1797264071753
 31
0.0
 11
453.5365361754493
 21
361.8649978971578
 31
0.0
 11
453.7394900407213
 21
361.5424826482721
 31
0.0
 11
453.9817159018833
 21
361.249352731889
 31
0.0
 11
454.2916715636555
 21
360.9506629061254
 31
0.0
 11
454.6292052095241
 21
360.6844204176139
 31
0.0
 11
455.0345076942974
 21
360.4189423276534
 31
0.0
 11
455.458862530323
 21
360.1858166241566
 31
0.0
 11
455.9458417656793
 21
359.9611979922303
 31
0.0
 11
456.4458403576882
 21
359.7678315960873
 31
0.0
 11
456.9988911618976
 21
359.5902982577821
 31
0.0
 11
457.5605811083845
 21
359.4428119626747
 31
0.0
 11
458.1624252326266
 21
359.3171212349569
 31
0.0
 11
458.7695504729269
 21
359.220511354309
 31
0.0
 11
459.4016524316318
 21
359.1498424972272
 31
0.0
 11
460.0362622420764
 21
359.1076498306559
 31
0.0
 11
460.6793431077527
 21
359.093513901136
 31
0.0
 11
461.3224239734288
 21
359.1076498306559
 31
0.0
 11
461.9570337838735
 21
359.1498424972272
 31
0.0
 11
462.5891357425784
 21
359.220511354309
 31
0.0
 11
463.1962609828786
 21
359.317121234957
 31
0.0
 11
463.7981051071208
 21
359.4428119626748
 31
0.0
 11
464.3597950536077
 21
359.5902982577821
 31
0.0
 11
464.9128458578171
 21
359.7678315960873
 31
0.0
 11
465.4128444498261
 21
359.9611979922304
 31
0.0
 11
465.8998236851822
 21
360.1858166241566
 31
0.0
 11
466.3241785212079
 21
360.4189423276536
 31
0.0
 11
466.7294810059812
 21
360.684420417614
 31
0.0
 11
467.0670146518499
 21
360.9506629061253
 31
0.0
 11
467.376970313622
 21
361.2493527318888
 31
0.0
 11
467.619196174784
 21
361.5424826482721
 31
0.0
 11
467.8221500400559
 21
361.8649978971578
 31
0.0
 11
467.9618847191322
 21
362.1797264071753
 31
0.0
 11
468.0492587528092
 21
362.5135202426862
 31
0.0
 11
468.078667401227
 21
362.8435139011362
 31
0.0
 11
468.0492587528092
 21
363.1735075595862
 31
0.0
  0
SPLINE
  5
CA
330
52
100
AcDbEntity
  8
1
  6
Continuous
 62
     7
100
AcDbSpline
210
0.0
220
0.0
230
1.0
 70
    11
 71
     3
 72
    79
 73
    75
 74
    73
 42
0.000000001
 43
0.0000000001
 44
0.00000001
 40
0.0
 40
0.0
 40
0.0
 40
0.0
 40
0.3242478913559945
 40
0.648494377471698
 40
0.9730009938208664
 40
1.297504960715731
 40
1.622407071249718
 40
1.947305634849662
 40
2.272691935367572
 40
2.59807423353189
 40
2.923974776884408
 40
3.249871350563597
 40
3.576254173059273
 40
3.902633531387119
 40
4.229408753456315
 40
4.556181420325034
 40
4.883212213060199
 40
5.210241651713103
 40
5.537360689360134
 40
5.864479726993932
 40
6.191509165607499
 40
6.51853995827677
 40
6.845312625053735
 40
7.172087847005161
 40
7.498467205189447
 40
7.824850027515726
 40
8.150746600999843
 40
8.476647144130972
 40
8.80202944204682
 40
9.127415742286567
 40
9.452314305573873
 40
9.777216415748553
 40
10.1017203822061
 40
10.42622699794206
 40
10.75047348280047
 40
11.07472138314585
 40
11.39887889263948
 40
11.72303640213206
 40
12.0472843024747
 40
12.37153078732824
 40
12.69603740305753
 40
13.02054136950652
 40
13.34544347967093
 40
13.67034204294619
 40
13.9957283431722
 40
14.32111064107281
 40
14.64701118418711
 40
14.97290775765291
 40
15.29929057995954
 40
15.62566993812292
 40
15.95244516005218
 40
16.27921782680601
 40
16.60624861945135
 40
16.93327805803989
 40
17.26039709564792
 40
17.58751613326855
 40
17.9145455718944
 40
18.241576364602
 40
18.56834903144278
 40
18.89512425348342
 40
19.2215036117822
 40
19.54788643424814
 40
19.87378300789686
 40
20.19968355121734
 40
20.52506584934713
 40
20.85045214982576
 40
21.17535071337765
 40
21.50025282384514
 40
21.82475679062861
 40
22.14926340673525
 40
22.47350989204076
 40
22.79775779300723
 40
23.12191530376442
 40
23.44607280427146
 40
23.44607280427146
 40
23.44607280427146
 40
23.44607280427146
 10
445.8476773898229
 20
366.5778502968813
 30
0.0
 10
445.9550840624458
 20
366.5651634266122
 30
0.0
 10
446.1698969427915
 20
366.5397897458226
 30
0.0
 10
446.4863412556763
 20
366.4658456505771
 30
0.0
 10
446.7955266495481
 20
366.3665331713686
 30
0.0
 10
447.0948459346412
 20
366.2396803819252
 30
0.0
 10
447.382107910282
 20
366.0873046265189
 30
0.0
 10
447.6550716930975
 20
365.9100215526001
 30
0.0
 10
447.9117194140783
 20
365.7095941648224
 30
0.0
 10
448.1500219752656
 20
365.4871786773658
 30
0.0
 10
448.3682678483221
 20
365.2448238613899
 30
0.0
 10
448.5646708577802
 20
364.9840372892689
 30
0.0
 10
448.7378944879475
 20
364.7071233441415
 30
0.0
 10
448.8864381044763
 20
364.4158965812011
 30
0.0
 10
449.0093866695864
 20
364.1128344112259
 30
0.0
 10
449.1055679402507
 20
363.8000188527126
 30
0.0
 10
449.174513186336
 20
363.4800089850469
 30
0.0
 10
449.2154200763514
 20
363.1551065069806
 30
0.0
 10
449.2282697024944
 20
362.8278617890655
 30
0.0
 10
449.2126668873647
 20
362.50073678169
 30
0.0
 10
449.1690275107804
 20
362.1761900228411
 30
0.0
 10
449.0973919403157
 20
361.8567716335773
 30
0.0
 10
448.9985818469785
 20
361.5447764801949
 30
0.0
 10
448.8730874781332
 20
361.2427596059526
 30
0.0
 10
448.7220985543113
 20
360.9527930966108
 30
0.0
 10
448.5465509289587
 20
360.6773465569979
 30
0.0
 10
448.3479604463055
 20
360.4182219198585
 30
0.0
 10
448.1276829869224
 20
360.1777119829
 30
0.0
 10
447.8875172679963
 20
359.9573101950953
 30
0.0
 10
447.6291922978534
 20
359.759047274231
 30
0.0
 10
447.3547457100709
 20
359.5840756598378
 30
0.0
 10
447.0662143194248
 20
359.4340915749823
 30
0.0
 10
446.7658285184846
 20
359.309877229005
 30
0.0
 10
446.4558545527119
 20
359.2127398980774
 30
0.0
 10
446.1386643843421
 20
359.1430649249128
 30
0.0
 10
445.8166690568387
 20
359.1017366392297
 30
0.0
 10
445.4923229428586
 20
359.0887210170976
 30
0.0
 10
445.1680978336041
 20
359.1044654320389
 30
0.0
 10
444.8464616682836
 20
359.1485017271531
 30
0.0
 10
444.529869018958
 20
359.2208432725197
 30
0.0
 10
444.2207234024219
 20
359.3205854816824
 30
0.0
 10
443.9213934544164
 20
359.4473230663779
 30
0.0
 10
443.6341343399193
 20
359.5997297270919
 30
0.0
 10
443.3611697905327
 20
359.7770045142418
 30
0.0
 10
443.1045222758254
 20
359.9774341257635
 30
0.0
 10
442.8662196598796
 20
360.1998490169873
 30
0.0
 10
442.6479738020619
 20
360.4422039930508
 30
0.0
 10
442.4515707890535
 20
360.7029905223083
 30
0.0
 10
442.2783471603686
 20
360.9799044789884
 30
0.0
 10
442.1298035439684
 20
361.2711312388676
 30
0.0
 10
442.006854979346
 20
361.5741934096871
 30
0.0
 10
441.9106737090713
 20
361.8870089679843
 30
0.0
 10
441.8417284633995
 20
362.2070188357058
 30
0.0
 10
441.8008215737894
 20
362.5319213137422
 30
0.0
 10
441.7879719480529
 20
362.8591660316389
 30
0.0
 10
441.8035747635876
 20
363.1862910389802
 30
0.0
 10
441.8472141405766
 20
363.5108377977889
 30
0.0
 10
441.9188497114442
 20
363.8302561869968
 30
0.0
 10
442.0176598051868
 20
364.1422513403344
 30
0.0
 10
442.1431541744289
 20
364.4442682144465
 30
0.0
 10
442.2941430986745
 20
364.7342347239289
 30
0.0
 10
442.4696907243532
 20
365.0096812626246
 30
0.0
 10
442.6682812076953
 20
365.268805902742
 30
0.0
 10
442.8885586664192
 20
365.5093158280998
 30
0.0
 10
443.1287243897148
 20
365.7297176585848
 30
0.0
 10
443.3870493454919
 20
365.9279804196804
 30
0.0
 10
443.6614959887546
 20
366.1029526288031
 30
0.0
 10
443.9500271744718
 20
366.2529344949016
 30
0.0
 10
444.2504137413589
 20
366.3771571108488
 30
0.0
 10
444.5603848521946
 20
366.4742635926621
 30
0.0
 10
444.877585669595
 20
366.544053607337
 30
0.0
 10
445.1995412675373
 20
366.5849526601259
 30
0.0
 10
445.5240356164399
 20
366.5995697786715
 30
0.0
 10
445.7397967997318
 20
366.5850901224701
 30
0.0
 10
445.8476773898229
 20
366.5778502968813
 30
0.0
 11
445.8476773898229
 21
366.5778502968813
 31
0.0
 11
446.1689208493021
 21
366.5338123500474
 31
0.0
 11
446.4850341028924
 21
366.4616445318269
 31
0.0
 11
446.7938491034203
 21
366.3619558201183
 31
0.0
 11
447.0926968430271
 21
366.2354929682127
 31
0.0
 11
447.3796837548033
 21
366.0831778547301
 31
0.0
 11
447.6521982157854
 21
365.9062740811486
 31
0.0
 11
447.9086206185877
 21
365.7059648306234
 31
0.0
 11
448.1465382266218
 21
365.4839989510382
 31
0.0
 11
448.3645927951604
 21
365.2417937296603
 31
0.0
 11
448.5607007084989
 21
364.9815049226813
 31
0.0
 11
448.7337574712418
 21
364.7047792396016
 31
0.0
 11
448.8821084149811
 21
364.4140637721239
 31
0.0
 11
449.0049132933498
 21
364.1112420298178
 31
0.0
 11
449.1010033102033
 21
363.7989167434752
 31
0.0
 11
449.1698365724227
 21
363.4792120024504
 31
0.0
 11
449.2107410149643
 21
363.1547507869569
 31
0.0
 11
449.2235271991567
 21
362.8278817331644
 31
0.0
 11
449.2079909843902
 21
362.5011318427832
 31
0.0
 11
449.1643577678403
 21
362.17702631029
 31
0.0
 11
449.0928367443836
 21
361.8579120946475
 31
0.0
 11
448.9941220266874
 21
361.5464064280249
 31
0.0
 11
448.8687733621183
 21
361.244628764744
 31
0.0
 11
448.7179814064672
 21
360.9551719084598
 31
0.0
 11
448.5426022253953
 21
360.6799122316932
 31
0.0
 11
448.3443110201094
 21
360.4212828160832
 31
0.0
 11
448.1242261033581
 21
360.1809210189068
 31
0.0
 11
447.8844491569767
 21
359.9609649871717
 31
0.0
 11
447.6263503035583
 21
359.7628205288365
 31
0.0
 11
447.3523569101852
 21
359.5882161275755
 31
0.0
 11
447.064098482956
 21
359.4383212962526
 31
0.0
 11
446.7641971851159
 21
359.31437761576
 31
0.0
 11
446.4545542738061
 21
359.2172909984084
 31
0.0
 11
446.1378449460478
 21
359.1477857123287
 31
0.0
 11
445.8162422965835
 21
359.1064524705371
 31
0.0
 11
445.4923431077527
 21
359.0935139011362
 31
0.0
 11
445.1685642594548
 21
359.1091775053912
 31
0.0
 11
444.8473207999755
 21
359.1532154522252
 31
0.0
 11
444.5312075463852
 21
359.2253832704456
 31
0.0
 11
444.2223925458574
 21
359.3250719821541
 31
0.0
 11
443.9235448062506
 21
359.4515348340598
 31
0.0
 11
443.6365578944744
 21
359.6038499475423
 31
0.0
 11
443.3640434334923
 21
359.7807537211239
 31
0.0
 11
443.10762103069
 21
359.9810629716491
 31
0.0
 11
442.8697034226559
 21
360.2030288512343
 31
0.0
 11
442.6516488541172
 21
360.4452340726122
 31
0.0
 11
442.4555409407788
 21
360.7055228795912
 31
0.0
 11
442.2824841780358
 21
360.9822485626709
 31
0.0
 11
442.1341332342965
 21
361.2729640301486
 31
0.0
 11
442.0113283559278
 21
361.5757857724547
 31
0.0
 11
441.9152383390743
 21
361.8881110587972
 31
0.0
 11
441.846405076855
 21
362.2078157998221
 31
0.0
 11
441.8055006343134
 21
362.5322770153156
 31
0.0
 11
441.7927144501209
 21
362.859146069108
 31
0.0
 11
441.8082506648875
 21
363.1858959594892
 31
0.0
 11
441.8518838814374
 21
363.5100014919823
 31
0.0
 11
441.9234049048941
 21
363.829115707625
 31
0.0
 11
442.0221196225904
 21
364.1406213742477
 31
0.0
 11
442.1474682871593
 21
364.4423990375285
 31
0.0
 11
442.2982602428105
 21
364.7318558938127
 31
0.0
 11
442.4736394238822
 21
365.0071155705792
 31
0.0
 11
442.6719306291683
 21
365.2657449861892
 31
0.0
 11
442.8920155459195
 21
365.5061067833657
 31
0.0
 11
443.131792492301
 21
365.7260628151009
 31
0.0
 11
443.3898913457194
 21
365.924207273436
 31
0.0
 11
443.6638847390923
 21
366.098811674697
 31
0.0
 11
443.9521431663217
 21
366.2487065060199
 31
0.0
 11
444.2520444641617
 21
366.3726501865125
 31
0.0
 11
444.5616873754716
 21
366.469736803864
 31
0.0
 11
444.8783967032298
 21
366.5392420899437
 31
0.0
 11
445.1999993526942
 21
366.5805753317354
 31
0.0
 11
445.5238985415251
 21
366.5935139011364
 31
0.0
 11
445.8476773898229
 21
366.5778502968813
 31
0.0
  0
SPLINE
  5
CB
330
52
100
AcDbEntity
  8
1
  6
Continuous
 62
     7
100
AcDbSpline
210
0.0
220
0.0
230
1.0
 70
    11
 71
     3
 72
    79
 73
    75
 74
    73
 42
0.000000001
 43
0.0000000001
 44
0.00000001
 40
0.0
 40
0.0
 40
0.0
 40
0.0
 40
0.3242478913558818
 40
0.6484943774717515
 40
0.9730009938208657
 40
1.297504960715782
 40
1.622407071249769
 40
1.947305634849666
 40
2.272691935367487
 40
2.598074233531888
 40
2.923974776884329
 40
3.249871350563552
 40
3.576254173059258
 40
3.902633531387131
 40
4.229408753456305
 40
4.556181420325007
 40
4.883212213060173
 40
5.210241651713069
 40
5.537360689360102
 40
5.864479726993897
 40
6.191509165607487
 40
6.51853995827672
 40
6.845312625053719
 40
7.172087847005079
 40
7.498467205189418
 40
7.824850027515605
 40
8.150746600999723
 40
8.476647144130851
 40
8.80202944204674
 40
9.127415742286532
 40
9.452314305573838
 40
9.777216415748567
 40
10.10172038220601
 40
10.42622699794208
 40
10.75047348280043
 40
11.07472138314593
 40
11.39887889263944
 40
11.72303640213208
 40
12.0472843024746
 40
12.37153078732814
 40
12.6960374030575
 40
13.02054136950648
 40
13.34544347967089
 40
13.67034204294615
 40
13.99572834317216
 40
14.32111064107273
 40
14.64701118418695
 40
14.97290775765286
 40
15.29929057995946
 40
15.62566993812284
 40
15.95244516005212
 40
16.27921782680593
 40
16.60624861945126
 40
16.93327805803981
 40
17.26039709564784
 40
17.58751613326846
 40
17.91454557189433
 40
18.24157636460191
 40
18.56834903144269
 40
18.89512425348333
 40
19.22150361178211
 40
19.54788643424814
 40
19.87378300789675
 40
20.19968355121719
 40
20.52506584934707
 40
20.85045214982575
 40
21.17535071337764
 40
21.50025282384508
 40
21.8247567906286
 40
22.14926340673508
 40
22.4735098920407
 40
22.79775779300711
 40
23.1219153037643
 40
23.44607280427129
 40
23.44607280427129
 40
23.44607280427129
 40
23.44607280427129
 10
475.5110088256826
 20
366.5778502968813
 30
0.0
 10
475.4036021530595
 20
366.5651634266123
 30
0.0
 10
475.1887892727141
 20
366.5397897458226
 30
0.0
 10
474.872344959829
 20
366.4658456505771
 30
0.0
 10
474.5631595659573
 20
366.3665331713686
 30
0.0
 10
474.2638402808642
 20
366.2396803819251
 30
0.0
 10
473.9765783052234
 20
366.087304626519
 30
0.0
 10
473.7036145224079
 20
365.9100215526002
 30
0.0
 10
473.4469668014272
 20
365.7095941648222
 30
0.0
 10
473.2086642402397
 20
365.487178677366
 30
0.0
 10
472.9904183671836
 20
365.2448238613898
 30
0.0
 10
472.7940153577251
 20
364.9840372892688
 30
0.0
 10
472.6207917275581
 20
364.7071233441416
 30
0.0
 10
472.4722481110289
 20
364.415896581201
 30
0.0
 10
472.3492995459192
 20
364.112834411226
 30
0.0
 10
472.2531182752548
 20
363.8000188527126
 30
0.0
 10
472.1841730291694
 20
363.4800089850468
 30
0.0
 10
472.1432661391542
 20
363.1551065069808
 30
0.0
 10
472.1304165130111
 20
362.8278617890654
 30
0.0
 10
472.1460193281408
 20
362.5007367816899
 30
0.0
 10
472.1896587047252
 20
362.1761900228412
 30
0.0
 10
472.2612942751895
 20
361.8567716335774
 30
0.0
 10
472.3601043685271
 20
361.5447764801949
 30
0.0
 10
472.4855987373722
 20
361.2427596059525
 30
0.0
 10
472.6365876611942
 20
360.952793096611
 30
0.0
 10
472.8121352865465
 20
360.6773465569976
 30
0.0
 10
473.0107257691999
 20
360.4182219198587
 30
0.0
 10
473.2310032285829
 20
360.1777119828998
 30
0.0
 10
473.471168947509
 20
359.9573101950953
 30
0.0
 10
473.7294939176521
 20
359.759047274231
 30
0.0
 10
474.0039405054345
 20
359.5840756598379
 30
0.0
 10
474.2924718960809
 20
359.4340915749822
 30
0.0
 10
474.5928576970207
 20
359.3098772290049
 30
0.0
 10
474.9028316627935
 20
359.2127398980776
 30
0.0
 10
475.2200218311634
 20
359.1430649249127
 30
0.0
 10
475.5420171586667
 20
359.1017366392298
 30
0.0
 10
475.8663632726469
 20
359.0887210170976
 30
0.0
 10
476.1905883819014
 20
359.1044654320389
 30
0.0
 10
476.5122245472217
 20
359.1485017271528
 30
0.0
 10
476.8288171965476
 20
359.22084327252
 30
0.0
 10
477.1379628130834
 20
359.3205854816823
 30
0.0
 10
477.4372927610891
 20
359.4473230663777
 30
0.0
 10
477.724551875586
 20
359.5997297270919
 30
0.0
 10
477.9975164249727
 20
359.7770045142419
 30
0.0
 10
478.2541639396799
 20
359.9774341257634
 30
0.0
 10
478.4924665556258
 20
360.1998490169874
 30
0.0
 10
478.7107124134433
 20
360.4422039930509
 30
0.0
 10
478.9071154264519
 20
360.7029905223081
 30
0.0
 10
479.0803390551368
 20
360.9799044789884
 30
0.0
 10
479.2288826715371
 20
361.2711312388676
 30
0.0
 10
479.3518312361593
 20
361.5741934096872
 30
0.0
 10
479.4480125064341
 20
361.8870089679843
 30
0.0
 10
479.5169577521059
 20
362.2070188357058
 30
0.0
 10
479.5578646417156
 20
362.5319213137421
 30
0.0
 10
479.5707142674526
 20
362.8591660316389
 30
0.0
 10
479.5551114519176
 20
363.1862910389803
 30
0.0
 10
479.5114720749287
 20
363.5108377977888
 30
0.0
 10
479.4398365040612
 20
363.8302561869967
 30
0.0
 10
479.3410264103189
 20
364.1422513403345
 30
0.0
 10
479.2155320410765
 20
364.4442682144464
 30
0.0
 10
479.064543116831
 20
364.7342347239291
 30
0.0
 10
478.8889954911521
 20
365.0096812626244
 30
0.0
 10
478.6904050078102
 20
365.268805902742
 30
0.0
 10
478.4701275490862
 20
365.5093158280999
 30
0.0
 10
478.2299618257907
 20
365.7297176585846
 30
0.0
 10
477.9716368700134
 20
365.9279804196804
 30
0.0
 10
477.6971902267507
 20
366.102952628803
 30
0.0
 10
477.4086590410336
 20
366.2529344949016
 30
0.0
 10
477.1082724741464
 20
366.3771571108488
 30
0.0
 10
476.7983013633107
 20
366.4742635926622
 30
0.0
 10
476.4811005459106
 20
366.5440536073369
 30
0.0
 10
476.1591449479681
 20
366.5849526601257
 30
0.0
 10
475.8346505990656
 20
366.5995697786716
 30
0.0
 10
475.6188894157736
 20
366.5850901224702
 30
0.0
 10
475.5110088256826
 20
366.5778502968813
 30
0.0
 11
475.5110088256826
 21
366.5778502968813
 31
0.0
 11
475.1897653662034
 21
366.5338123500474
 31
0.0
 11
474.873652112613
 21
366.4616445318269
 31
0.0
 11
474.5648371120851
 21
366.3619558201183
 31
0.0
 11
474.2659893724783
 21
366.2354929682127
 31
0.0
 11
473.9790024607021
 21
366.0831778547301
 31
0.0
 11
473.70648799972
 21
365.9062740811486
 31
0.0
 11
473.4500655969178
 21
365.7059648306234
 31
0.0
 11
473.2121479888837
 21
365.4839989510382
 31
0.0
 11
472.9940934203451
 21
365.2417937296603
 31
0.0
 11
472.7979855070066
 21
364.9815049226813
 31
0.0
 11
472.6249287442636
 21
364.7047792396016
 31
0.0
 11
472.4765778005243
 21
364.4140637721239
 31
0.0
 11
472.3537729221556
 21
364.1112420298178
 31
0.0
 11
472.2576829053021
 21
363.7989167434752
 31
0.0
 11
472.1888496430828
 21
363.4792120024504
 31
0.0
 11
472.1479452005412
 21
363.1547507869569
 31
0.0
 11
472.1351590163488
 21
362.8278817331644
 31
0.0
 11
472.1506952311152
 21
362.5011318427832
 31
0.0
 11
472.1943284476653
 21
362.17702631029
 31
0.0
 11
472.2658494711218
 21
361.8579120946475
 31
0.0
 11
472.3645641888182
 21
361.5464064280249
 31
0.0
 11
472.4899128533871
 21
361.244628764744
 31
0.0
 11
472.6407048090383
 21
360.9551719084598
 31
0.0
 11
472.81608399011
 21
360.6799122316932
 31
0.0
 11
473.0143751953959
 21
360.4212828160832
 31
0.0
 11
473.2344601121472
 21
360.1809210189068
 31
0.0
 11
473.4742370585287
 21
359.9609649871717
 31
0.0
 11
473.7323359119471
 21
359.7628205288365
 31
0.0
 11
474.0063293053202
 21
359.5882161275755
 31
0.0
 11
474.2945877325495
 21
359.4383212962526
 31
0.0
 11
474.5944890303895
 21
359.31437761576
 31
0.0
 11
474.9041319416993
 21
359.2172909984084
 31
0.0
 11
475.2208412694577
 21
359.1477857123287
 31
0.0
 11
475.5424439189221
 21
359.1064524705371
 31
0.0
 11
475.8663431077528
 21
359.0935139011362
 31
0.0
 11
476.1901219560507
 21
359.1091775053912
 31
0.0
 11
476.5113654155298
 21
359.1532154522252
 31
0.0
 11
476.8274786691201
 21
359.2253832704456
 31
0.0
 11
477.1362936696481
 21
359.3250719821541
 31
0.0
 11
477.4351414092548
 21
359.4515348340598
 31
0.0
 11
477.7221283210311
 21
359.6038499475423
 31
0.0
 11
477.9946427820132
 21
359.7807537211239
 31
0.0
 11
478.2510651848154
 21
359.9810629716491
 31
0.0
 11
478.4889827928495
 21
360.2030288512343
 31
0.0
 11
478.7070373613881
 21
360.4452340726122
 31
0.0
 11
478.9031452747266
 21
360.7055228795912
 31
0.0
 11
479.0762020374696
 21
360.9822485626709
 31
0.0
 11
479.2245529812088
 21
361.2729640301486
 31
0.0
 11
479.3473578595776
 21
361.5757857724547
 31
0.0
 11
479.443447876431
 21
361.8881110587972
 31
0.0
 11
479.5122811386503
 21
362.2078157998221
 31
0.0
 11
479.553185581192
 21
362.5322770153156
 31
0.0
 11
479.5659717653845
 21
362.859146069108
 31
0.0
 11
479.550435550618
 21
363.1858959594892
 31
0.0
 11
479.506802334068
 21
363.5100014919823
 31
0.0
 11
479.4352813106113
 21
363.829115707625
 31
0.0
 11
479.336566592915
 21
364.1406213742477
 31
0.0
 11
479.2112179283461
 21
364.4423990375285
 31
0.0
 11
479.0604259726949
 21
364.7318558938127
 31
0.0
 11
478.885046791623
 21
365.0071155705792
 31
0.0
 11
478.6867555863371
 21
365.2657449861892
 31
0.0
 11
478.4666706695859
 21
365.5061067833657
 31
0.0
 11
478.2268937232044
 21
365.7260628151009
 31
0.0
 11
477.9687948697859
 21
365.924207273436
 31
0.0
 11
477.694801476413
 21
366.098811674697
 31
0.0
 11
477.4065430491837
 21
366.2487065060199
 31
0.0
 11
477.1066417513436
 21
366.3726501865125
 31
0.0
 11
476.7969988400339
 21
366.469736803864
 31
0.0
 11
476.4802895122755
 21
366.5392420899437
 31
0.0
 11
476.1586868628112
 21
366.5805753317354
 31
0.0
 11
475.8347876739804
 21
366.5935139011364
 31
0.0
 11
475.5110088256826
 21
366.5778502968813
 31
0.0
  0
ENDBLK
  5
54
330
52
100
AcDbEntity
  8
0
100
AcDbBlockEnd
  0
BLOCK
  5
56
330
55
100
AcDbEntity
  8
0
100
AcDbBlockBegin
  2
36-1-20
 70
     0
 10
659.2333429479285
 20
226.9664747536376
 30
0.0
  3
36-1-20
  1

  0
LINE
  5
CC
330
55
100
AcDbEntity
  8
1
  6
Continuous
 62
     7
100
AcDbLine
 10
466.1793431077527
 20
387.7466574062388
 30
0.0
 11
466.1793431077527
 21
375.0935139011361
 31
0.0
  0
LINE
  5
CD
330
55
100
AcDbEntity
  8
1
  6
Continuous
 62
     7
100
AcDbLine
 10
455.1793431077527
 20
375.0935139011361
 30
0.0
 11
455.1793431077527
 21
387.7466574062388
 31
0.0
  0
LINE
  5
CE
330
55
100
AcDbEntity
  8
1
  6
Continuous
 62
     7
100
AcDbLine
 10
185.1793431077526
 20
388.7466574062388
 30
0.0
 11
185.1793431077526
 21
375.0935139011361
 31
0.0
  0
LINE
  5
CF
330
55
100
AcDbEntity
  8
1
  6
Continuous
 62
     7
100
AcDbLine
 10
174.1793431077526
 20
375.0935139011361
 30
0.0
 11
174.1793431077526
 21
388.7466574062388
 31
0.0
  0
ENDBLK
  5
57
330
55
100
AcDbEntity
  8
0
100
AcDbBlockEnd
  0
BLOCK
  5
59
330
58
100
AcDbEntity
  8
0
100
AcDbBlockBegin
  2
42-1
 70
     0
 10
-66.03374385809195
 20
354.8201882158554
 30
0.0
  3
42-1
  1

  0
LINE
  5
D0
330
58
100
AcDbEntity
  8
1
  6
Continuous
 62
     2
100
AcDbLine
 10
178.6793431077526
 20
402.4889955084099
 30
0.0
 11
178.6793431077526
 21
401.2237564177995
 31
0.0
  0
LINE
  5
D1
330
58
100
AcDbEntity
  8
1
  6
Continuous
 62
     2
100
AcDbLine
 10
177.6793431077526
 20
402.7323107181427
 30
0.0
 11
177.6793431077526
 21
400.9642201940845
 31
0.0
  0
LINE
  5
D2
330
58
100
AcDbEntity
  8
1
  6
Continuous
 62
     2
100
AcDbLine
 10
176.6793431077526
 20
402.9431838999111
 30
0.0
 11
176.6793431077526
 21
400.6073578864765
 31
0.0
  0
LINE
  5
D3
330
58
100
AcDbEntity
  8
1
  6
Continuous
 62
     2
100
AcDbLine
 10
175.6793431077526
 20
403.0567309977864
 30
0.0
 11
175.6793431077526
 21
400.4127057186901
 31
0.0
  0
LINE
  5
D4
330
58
100
AcDbEntity
  8
1
  6
Continuous
 62
     2
100
AcDbLine
 10
174.6793431077526
 20
403.2466574062388
 30
0.0
 11
174.6793431077526
 21
400.2466574062388
 31
0.0
  0
LINE
  5
D5
330
58
100
AcDbEntity
  8
1
  6
Continuous
 62
     2
100
AcDbLine
 10
173.6793431077526
 20
403.2466574062388
 30
0.0
 11
173.6793431077526
 21
400.2466574062388
 31
0.0
  0
LINE
  5
D6
330
58
100
AcDbEntity
  8
1
  6
Continuous
 62
     7
100
AcDbLine
 10
172.6793431077526
 20
403.2466574062388
 30
0.0
 11
173.6793431077526
 21
403.5159796052618
 31
0.0
  0
LINE
  5
D7
330
58
100
AcDbEntity
  8
1
  6
Continuous
 62
     7
100
AcDbLine
 10
172.6793431077526
 20
400.2466574062388
 30
0.0
 11
172.6793431077526
 21
403.2466574062388
 31
0.0
  0
LINE
  5
D8
330
58
100
AcDbEntity
  8
1
  6
Continuous
 62
     7
100
AcDbLine
 10
173.9293431077526
 20
403.5764231264423
 30
0.0
 11
185.4293431077526
 21
403.5764231264423
 31
0.0
  0
LINE
  5
D9
330
58
100
AcDbEntity
  8
1
  6
Continuous
 62
     2
100
AcDbLine
 10
180.6793431077526
 20
401.2237564177995
 30
0.0
 11
180.6793431077526
 21
402.4889955084099
 31
0.0
  0
LINE
  5
DA
330
58
100
AcDbEntity
  8
1
  6
Continuous
 62
     2
100
AcDbLine
 10
181.6793431077526
 20
400.9642201940845
 30
0.0
 11
181.6793431077526
 21
402.7323107181427
 31
0.0
  0
LINE
  5
DB
330
58
100
AcDbEntity
  8
1
  6
Continuous
 62
     2
100
AcDbLine
 10
182.6793431077526
 20
400.6073578864765
 30
0.0
 11
182.6793431077526
 21
402.9431838999111
 31
0.0
  0
LINE
  5
DC
330
58
100
AcDbEntity
  8
1
  6
Continuous
 62
     2
100
AcDbLine
 10
183.6793431077526
 20
400.4127057186901
 30
0.0
 11
183.6793431077526
 21
403.0567309977864
 31
0.0
  0
LINE
  5
DD
330
58
100
AcDbEntity
  8
1
  6
Continuous
 62
     2
100
AcDbLine
 10
184.6793431077526
 20
400.2466574062388
 30
0.0
 11
184.6793431077526
 21
403.2466574062388
 31
0.0
  0
LINE
  5
DE
330
58
100
AcDbEntity
  8
1
  6
Continuous
 62
     2
100
AcDbLine
 10
185.6793431077526
 20
400.2466574062388
 30
0.0
 11
185.6793431077526
 21
403.2466574062388
 31
0.0
  0
LINE
  5
DF
330
58
100
AcDbEntity
  8
1
  6
Continuous
 62
     7
100
AcDbLine
 10
185.6793431077527
 20
403.5159796052618
 30
0.0
 11
186.6793431077526
 21
403.2466574062388
 31
0.0
  0
LINE
  5
E0
330
58
100
AcDbEntity
  8
1
  6
Continuous
 62
     7
100
AcDbLine
 10
186.6793431077526
 20
403.2466574062388
 30
0.0
 11
186.6793431077526
 21
400.2466574062388
 31
0.0
  0
LINE
  5
E1
330
58
100
AcDbEntity
  8
1
  6
Continuous
 62
     7
100
AcDbLine
 10
172.6793431077526
 20
403.2466574062388
 30
0.0
 11
186.6793431077526
 21
403.2466574062388
 31
0.0
  0
LINE
  5
E2
330
58
100
AcDbEntity
  8
1
  6
Continuous
 62
     7
100
AcDbLine
 10
186.6793431077526
 20
400.2466574062388
 30
0.0
 11
172.6793431077526
 21
400.2466574062388
 31
0.0
  0
LINE
  5
E3
330
58
100
AcDbEntity
  8
1
  6
Continuous
 62
     2
100
AcDbLine
 10
459.6793431077527
 20
401.4889955084099
 30
0.0
 11
459.6793431077527
 21
400.2237564177995
 31
0.0
  0
LINE
  5
E4
330
58
100
AcDbEntity
  8
1
  6
Continuous
 62
     2
100
AcDbLine
 10
458.6793431077527
 20
401.7323107181427
 30
0.0
 11
458.6793431077527
 21
399.9642201940845
 31
0.0
  0
LINE
  5
E5
330
58
100
AcDbEntity
  8
1
  6
Continuous
 62
     2
100
AcDbLine
 10
457.6793431077527
 20
401.9431838999111
 30
0.0
 11
457.6793431077527
 21
399.6073578864765
 31
0.0
  0
LINE
  5
E6
330
58
100
AcDbEntity
  8
1
  6
Continuous
 62
     2
100
AcDbLine
 10
456.6793431077527
 20
402.0567309977864
 30
0.0
 11
456.6793431077527
 21
399.4127057186901
 31
0.0
  0
LINE
  5
E7
330
58
100
AcDbEntity
  8
1
  6
Continuous
 62
     2
100
AcDbLine
 10
455.6793431077527
 20
402.2466574062388
 30
0.0
 11
455.6793431077527
 21
399.2466574062388
 31
0.0
  0
LINE
  5
E8
330
58
100
AcDbEntity
  8
1
  6
Continuous
 62
     2
100
AcDbLine
 10
454.6793431077527
 20
402.2466574062388
 30
0.0
 11
454.6793431077527
 21
399.2466574062388
 31
0.0
  0
LINE
  5
E9
330
58
100
AcDbEntity
  8
1
  6
Continuous
 62
     7
100
AcDbLine
 10
453.6793431077527
 20
402.2466574062388
 30
0.0
 11
454.6793431077526
 21
402.5159796052618
 31
0.0
  0
LINE
  5
EA
330
58
100
AcDbEntity
  8
1
  6
Continuous
 62
     7
100
AcDbLine
 10
453.6793431077527
 20
399.2466574062388
 30
0.0
 11
453.6793431077527
 21
402.2466574062388
 31
0.0
  0
LINE
  5
EB
330
58
100
AcDbEntity
  8
1
  6
Continuous
 62
     7
100
AcDbLine
 10
454.9293431077527
 20
402.5764231264423
 30
0.0
 11
466.4293431077527
 21
402.5764231264423
 31
0.0
  0
LINE
  5
EC
330
58
100
AcDbEntity
  8
1
  6
Continuous
 62
     2
100
AcDbLine
 10
461.6793431077527
 20
400.2237564177995
 30
0.0
 11
461.6793431077527
 21
401.4889955084099
 31
0.0
  0
LINE
  5
ED
330
58
100
AcDbEntity
  8
1
  6
Continuous
 62
     2
100
AcDbLine
 10
462.6793431077527
 20
399.9642201940845
 30
0.0
 11
462.6793431077527
 21
401.7323107181427
 31
0.0
  0
LINE
  5
EE
330
58
100
AcDbEntity
  8
1
  6
Continuous
 62
     2
100
AcDbLine
 10
463.6793431077527
 20
399.6073578864765
 30
0.0
 11
463.6793431077527
 21
401.9431838999111
 31
0.0
  0
LINE
  5
EF
330
58
100
AcDbEntity
  8
1
  6
Continuous
 62
     2
100
AcDbLine
 10
464.6793431077527
 20
399.4127057186901
 30
0.0
 11
464.6793431077527
 21
402.0567309977864
 31
0.0
  0
LINE
  5
F0
330
58
100
AcDbEntity
  8
1
  6
Continuous
 62
     2
100
AcDbLine
 10
465.6793431077527
 20
399.2466574062388
 30
0.0
 11
465.6793431077527
 21
402.2466574062388
 31
0.0
  0
LINE
  5
F1
330
58
100
AcDbEntity
  8
1
  6
Continuous
 62
     2
100
AcDbLine
 10
466.6793431077527
 20
399.2466574062388
 30
0.0
 11
466.6793431077527
 21
402.2466574062388
 31
0.0
  0
LINE
  5
F2
330
58
100
AcDbEntity
  8
1
  6
Continuous
 62
     7
100
AcDbLine
 10
466.6793431077528
 20
402.5159796052618
 30
0.0
 11
467.6793431077527
 21
402.2466574062388
 31
0.0
  0
LINE
  5
F3
330
58
100
AcDbEntity
  8
1
  6
Continuous
 62
     7
100
AcDbLine
 10
467.6793431077527
 20
402.2466574062388
 30
0.0
 11
467.6793431077527
 21
399.2466574062388
 31
0.0
  0
LINE
  5
F4
330
58
100
AcDbEntity
  8
1
  6
Continuous
 62
     7
100
AcDbLine
 10
453.6793431077527
 20
402.2466574062388
 30
0.0
 11
467.6793431077527
 21
402.2466574062388
 31
0.0
  0
LINE
  5
F5
330
58
100
AcDbEntity
  8
1
  6
Continuous
 62
     7
100
AcDbLine
 10
467.6793431077527
 20
399.2466574062388
 30
0.0
 11
453.6793431077527
 21
399.2466574062388
 31
0.0
  0
ARC
  5
F6
330
58
100
AcDbEntity
  8
1
  6
Continuous
 62
     7
100
AcDbCircle
 10
179.6793431077526
 20
379.2466574062388
 30
0.0
 40
25.0
100
AcDbArc
 50
90.0
 51
103.8865403626291
  0
ARC
  5
F7
330
58
100
AcDbEntity
  8
1
  6
Continuous
 62
     7
100
AcDbCircle
 10
179.6793431077526
 20
379.2466574062388
 30
0.0
 40
24.99999999999984
100
AcDbArc
 50
76.11345963737071
 51
90.0
  0
ARC
  5
F8
330
58
100
AcDbEntity
  8
1
  6
Continuous
 62
     7
100
AcDbCircle
 10
460.6793431077527
 20
378.2466574062388
 30
0.0
 40
25.0
100
AcDbArc
 50
90.0
 51
103.8865403626293
  0
ARC
  5
F9
330
58
100
AcDbEntity
  8
1
  6
Continuous
 62
     7
100
AcDbCircle
 10
460.6793431077527
 20
378.2466574062388
 30
0.0
 40
24.99999999999985
100
AcDbArc
 50
76.11345963737065
 51
90.0
  0
CIRCLE
  5
FA
330
58
100
AcDbEntity
  8
1
  6
Continuous
 62
     7
100
AcDbCircle
 10
179.6793431077526
 20
671.5173919487243
 30
0.0
 40
5.75
  0
CIRCLE
  5
FB
330
58
100
AcDbEntity
  8
1
  6
Continuous
 62
     7
100
AcDbCircle
 10
179.6793431077526
 20
671.5173919487243
 30
0.0
 40
7.0
  0
ENDBLK
  5
5A
330
58
100
AcDbEntity
  8
0
100
AcDbBlockEnd
  0
BLOCK
  5
5C
330
5B
100
AcDbEntity
  8
0
100
AcDbBlockBegin
  2
21-1C
 70
     0
 10
1699.707568077694
 20
509.4224088449756
 30
0.0
  3
21-1C
  1

  0
LINE
  5
FC
330
5B
100
AcDbEntity
  8
1
  6
Continuous
 62
     7
100
AcDbLine
 10
479.1793431077531
 20
390.721606828649
 30
0.0
 11
479.1793431077531
 21
388.2466574062393
 31
0.0
  0
LINE
  5
FD
330
5B
100
AcDbEntity
  8
1
  6
Continuous
 62
     7
100
AcDbLine
 10
429.6793431077531
 20
391.1335663116067
 30
0.0
 11
429.6793431077531
 21
388.2466574062393
 31
0.0
  0
LINE
  5
FE
330
5B
100
AcDbEntity
  8
1
  6
Continuous
 62
     7
100
AcDbLine
 10
478.6793431077531
 20
387.7466574062393
 30
0.0
 11
430.1793431077531
 21
387.7466574062393
 31
0.0
  0
LINE
  5
FF
330
5B
100
AcDbEntity
  8
1
  6
Continuous
 62
     7
100
AcDbLine
 10
206.8299782023643
 20
388.7466574062393
 30
0.0
 11
152.5287080131423
 21
388.7466574062393
 31
0.0
  0
LINE
  5
100
330
5B
100
AcDbEntity
  8
1
  6
Continuous
 62
     7
100
AcDbLine
 10
152.0335739787716
 20
392.1335663116067
 30
0.0
 11
152.0335739787716
 21
389.2466574062393
 31
0.0
  0
LINE
  5
101
330
5B
100
AcDbEntity
  8
1
  6
Continuous
 62
     7
100
AcDbLine
 10
207.3251122367346
 20
389.2466574062393
 30
0.0
 11
207.3251122367346
 21
392.1335663116067
 31
0.0
  0
LINE
  5
102
330
5B
100
AcDbEntity
  8
1
  6
Continuous
 62
     7
100
AcDbLine
 10
185.4748980654875
 20
644.9644776781093
 30
0.0
 11
189.126307276958
 21
658.5917223745421
 31
0.0
  0
LINE
  5
103
330
5B
100
AcDbEntity
  8
1
  6
Continuous
 62
     7
100
AcDbLine
 10
205.5726188894834
 20
679.7747512616052
 30
0.0
 11
195.596783404521
 21
669.7989157766428
 31
0.0
  0
LINE
  5
104
330
5B
100
AcDbEntity
  8
1
  6
Continuous
 62
     7
100
AcDbLine
 10
200.5375688343694
 20
690.0167235809558
 30
0.0
 11
186.1498192353162
 21
686.1615376949883
 31
0.0
  0
LINE
  5
105
330
5B
100
AcDbEntity
  8
1
  6
Continuous
 62
     7
100
AcDbLine
 10
159.5816222837574
 20
689.8129469064589
 30
0.0
 11
173.2088669801901
 21
686.1615376949883
 31
0.0
  0
LINE
  5
106
330
5B
100
AcDbEntity
  8
1
  6
Continuous
 62
     7
100
AcDbLine
 10
153.7860673260229
 20
679.7747512616052
 30
0.0
 11
163.7619028109853
 21
669.7989157766428
 31
0.0
  0
LINE
  5
107
330
5B
100
AcDbEntity
  8
1
  6
Continuous
 62
     7
100
AcDbLine
 10
173.8837881500187
 20
644.9644776781093
 30
0.0
 11
170.2323789385483
 21
658.5917223745421
 31
0.0
  0
ARC
  5
108
330
5B
100
AcDbEntity
  8
1
  6
Continuous
 62
     7
100
AcDbCircle
 10
462.6282249203635
 20
377.6864926412492
 30
0.0
 40
21.76119949013524
100
AcDbArc
 50
68.44320528903191
 51
82.20588758494824
  0
ARC
  5
109
330
5B
100
AcDbEntity
  8
1
  6
Continuous
 62
     7
100
AcDbCircle
 10
460.5793431077531
 20
250.7149913288189
 30
0.0
 40
148.6092050572047
100
AcDbArc
 50
91.85094579686891
 51
100.0532276375031
  0
ARC
  5
10A
330
5B
100
AcDbEntity
  8
1
  6
Continuous
 62
     7
100
AcDbCircle
 10
447.6752982492174
 20
320.5733241508578
 30
0.0
 40
80.6407252563204
100
AcDbArc
 50
70.02008322088783
 51
73.19210648524869
  0
ARC
  5
10B
330
5B
100
AcDbEntity
  8
1
  6
Continuous
 62
     7
100
AcDbCircle
 10
181.2564585432625
 20
275.1054269380511
 30
0.0
 40
125.308741065646
100
AcDbArc
 50
92.96289650921042
 51
101.1651783498447
  0
ARC
  5
10C
330
5B
100
AcDbEntity
  8
1
  6
Continuous
 62
     7
100
AcDbCircle
 10
178.1022276722439
 20
275.1054269380511
 30
0.0
 40
125.3087410656459
100
AcDbArc
 50
78.83482165015542
 51
87.03710349078962
  0
ARC
  5
10D
330
5B
100
AcDbEntity
  8
1
  6
Continuous
 62
     7
100
AcDbCircle
 10
179.6793431077531
 20
646.5173919487245
 30
0.0
 40
6.0
100
AcDbArc
 50
270.0
 51
344.9999999999998
  0
ARC
  5
10E
330
5B
100
AcDbEntity
  8
1
  6
Continuous
 62
     7
100
AcDbCircle
 10
201.3299782023641
 20
684.0173919487244
 30
0.0
 40
5.999999999999968
100
AcDbArc
 50
315.0000000000007
 51
97.52424107894112
  0
ARC
  5
10F
330
5B
100
AcDbEntity
  8
1
  6
Continuous
 62
     7
100
AcDbCircle
 10
158.0287080131421
 20
684.0173919487244
 30
0.0
 40
6.000000000000198
100
AcDbArc
 50
74.99999999999874
 51
225.0
  0
ARC
  5
110
330
5B
100
AcDbEntity
  8
1
  6
Continuous
 62
     7
100
AcDbCircle
 10
179.6793431077531
 20
646.5173919487245
 30
0.0
 40
6.000000000000017
100
AcDbArc
 50
195.0
 51
270.0
  0
ARC
  5
111
330
5B
100
AcDbEntity
  8
1
  6
Continuous
 62
     7
100
AcDbCircle
 10
473.1793431077531
 20
390.721606828649
 30
0.0
 40
6.0
100
AcDbArc
 50
0.0
 51
70.02008322088692
  0
ARC
  5
112
330
5B
100
AcDbEntity
  8
1
  6
Continuous
 62
     7
100
AcDbCircle
 10
478.6793431077531
 20
388.2466574062393
 30
0.0
 40
0.5
100
AcDbArc
 50
270.0
 51
0.0
  0
ARC
  5
113
330
5B
100
AcDbEntity
  8
1
  6
Continuous
 62
     7
100
AcDbCircle
 10
468.4716345112439
 20
392.3248475431813
 30
0.0
 40
5.999999999999813
100
AcDbArc
 50
65.14402107788167
 51
68.98000123350914
  0
ARC
  5
114
330
5B
100
AcDbEntity
  8
1
  6
Continuous
 62
     7
100
AcDbCircle
 10
435.6793431077531
 20
391.1335663116067
 30
0.0
 40
5.999999999999985
100
AcDbArc
 50
99.99784348756796
 51
180.0
  0
ARC
  5
115
330
5B
100
AcDbEntity
  8
1
  6
Continuous
 62
     7
100
AcDbCircle
 10
430.1793431077531
 20
388.2466574062393
 30
0.0
 40
0.5
100
AcDbArc
 50
180.0
 51
270.0
  0
ARC
  5
116
330
5B
100
AcDbEntity
  8
1
  6
Continuous
 62
     7
100
AcDbCircle
 10
152.5335739787716
 20
389.2466574062393
 30
0.0
 40
0.5
100
AcDbArc
 50
180.0
 51
270.0
  0
ARC
  5
117
330
5B
100
AcDbEntity
  8
1
  6
Continuous
 62
     7
100
AcDbCircle
 10
158.0335739787716
 20
392.1335663116067
 30
0.0
 40
6.000000000000009
100
AcDbArc
 50
99.9978434875693
 51
180.0
  0
ARC
  5
118
330
5B
100
AcDbEntity
  8
1
  6
Continuous
 62
     7
100
AcDbCircle
 10
201.3251122367346
 20
392.1335663116067
 30
0.0
 40
6.0
100
AcDbArc
 50
0.0
 51
80.00215651243097
  0
ARC
  5
119
330
5B
100
AcDbEntity
  8
1
  6
Continuous
 62
     7
100
AcDbCircle
 10
206.8251122367346
 20
389.2466574062393
 30
0.0
 40
0.5
100
AcDbArc
 50
270.0
 51
0.0
  0
ARC
  5
11A
330
5B
100
AcDbEntity
  8
1
  6
Continuous
 62
     7
100
AcDbCircle
 10
213.2744529341846
 20
652.1212462469792
 30
0.0
 40
24.99999999999988
100
AcDbArc
 50
135.0
 51
165.0000000000003
  0
ARC
  5
11B
330
5B
100
AcDbEntity
  8
1
  6
Continuous
 62
     7
100
AcDbCircle
 10
179.6793431077531
 20
710.3096833522151
 30
0.0
 40
25.00000000000008
100
AcDbArc
 50
255.0000000000001
 51
285.0000000000001
  0
ARC
  5
11C
330
5B
100
AcDbEntity
  8
1
  6
Continuous
 62
     7
100
AcDbCircle
 10
146.0842332813216
 20
652.1212462469792
 30
0.0
 40
24.99999999999995
100
AcDbArc
 50
14.99999999999962
 51
44.99999999999982
  0
ENDBLK
  5
5D
330
5B
100
AcDbEntity
  8
0
100
AcDbBlockEnd
  0
BLOCK
  5
63
330
5E
100
AcDbEntity
  8
0
100
AcDbBlockBegin
  2
R10AK-20-B
 70
     0
 10
152.0287080131422
 20
359.0102343763908
 30
0.0
  3
R10AK-20-B
  1

  0
INSERT
  5
5F
330
5E
100
AcDbEntity
  8
1
100
AcDbBlockReference
  2
37-1-20
 10
59.74827505734822
 20
590.0355790270751
 30
0.0
  0
INSERT
  5
60
330
5E
100
AcDbEntity
  8
1
100
AcDbBlockReference
  2
36-1-20
 10
659.2333429479285
 20
226.9664747536376
 30
0.0
  0
INSERT
  5
61
330
5E
100
AcDbEntity
  8
1
100
AcDbBlockReference
  2
42-1
 10
-66.03374385809195
 20
354.8201882158554
 30
0.0
  0
INSERT
  5
62
330
5E
100
AcDbEntity
  8
1
100
AcDbBlockReference
  2
21-1C
 10
1699.707568077692
 20
509.4224088449751
 30
0.0
 41
1.0
 42
1.0
 43
1.0
  0
LINE
  5
11D
330
5E
100
AcDbEntity
  8
1
  6
PHANTOM
 62
     4
100
AcDbLine
 10
179.6793431077526
 20
405.9966574062386
 30
0.0
 11
179.6793431077526
 21
382.9966574062395
 31
0.0
  0
ENDBLK
  5
64
330
5E
100
AcDbEntity
  8
0
100
AcDbBlockEnd
  0
BLOCK
  5
66
330
65
100
AcDbEntity
  8
0
100
AcDbBlockBegin
  2
開示A4
 70
     0
 10
0.0
 20
0.0
 30
0.0
  3
開示A4
  1

  0
POINT
  5
11E
330
65
100
AcDbEntity
  8
1
 62
     4
100
AcDbPoint
 10
93.75
 20
17.0
 30
0.0
  0
POINT
  5
11F
330
65
100
AcDbEntity
  8
1
 62
     4
100
AcDbPoint
 10
85.25
 20
17.0
 30
0.0
  0
POINT
  5
120
330
65
100
AcDbEntity
  8
1
 62
     4
100
AcDbPoint
 10
106.5
 20
19.00000000000001
 30
0.0
  0
POINT
  5
121
330
65
100
AcDbEntity
  8
1
 62
     4
100
AcDbPoint
 10
106.5
 20
12.5
 30
0.0
  0
POINT
  5
122
330
65
100
AcDbEntity
  8
1
 62
     4
100
AcDbPoint
 10
112.25
 20
12.5
 30
0.0
  0
POINT
  5
123
330
65
100
AcDbEntity
  8
1
 62
     4
100
AcDbPoint
 10
100.75
 20
12.5
 30
0.0
  0
POINT
  5
124
330
65
100
AcDbEntity
  8
1
 62
     4
100
AcDbPoint
 10
123.5
 20
19.00000000000001
 30
0.0
  0
POINT
  5
125
330
65
100
AcDbEntity
  8
1
 62
     4
100
AcDbPoint
 10
123.5
 20
12.5
 30
0.0
  0
POINT
  5
126
330
65
100
AcDbEntity
  8
1
 62
     4
100
AcDbPoint
 10
129.25
 20
12.5
 30
0.0
  0
POINT
  5
127
330
65
100
AcDbEntity
  8
1
 62
     4
100
AcDbPoint
 10
117.75
 20
12.5
 30
0.0
  0
POINT
  5
128
330
65
100
AcDbEntity
  8
1
 62
     4
100
AcDbPoint
 10
140.5
 20
19.00000000000001
 30
0.0
  0
POINT
  5
129
330
65
100
AcDbEntity
  8
1
 62
     4
100
AcDbPoint
 10
140.5
 20
12.5
 30
0.0
  0
POINT
  5
12A
330
65
100
AcDbEntity
  8
1
 62
     4
100
AcDbPoint
 10
146.25
 20
12.5
 30
0.0
  0
POINT
  5
12B
330
65
100
AcDbEntity
  8
1
 62
     4
100
AcDbPoint
 10
134.75
 20
12.5
 30
0.0
  0
POINT
  5
12C
330
65
100
AcDbEntity
  8
1
 62
     4
100
AcDbPoint
 10
151.75
 20
12.5
 30
0.0
  0
POINT
  5
12D
330
65
100
AcDbEntity
  8
1
 62
     4
100
AcDbPoint
 10
163.25
 20
12.5
 30
0.0
  0
POINT
  5
12E
330
65
100
AcDbEntity
  8
1
 62
     4
100
AcDbPoint
 10
157.5
 20
12.5
 30
0.0
  0
POINT
  5
12F
330
65
100
AcDbEntity
  8
1
 62
     4
100
AcDbPoint
 10
57.0
 20
14.25
 30
0.0
  0
POINT
  5
130
330
65
100
AcDbEntity
  8
1
 62
     4
100
AcDbPoint
 10
57.0
 20
22.75000000000001
 30
0.0
  0
POINT
  5
131
330
65
100
AcDbEntity
  8
1
 62
     4
100
AcDbPoint
 10
47.5
 20
282.0000000000003
 30
0.0
  0
POINT
  5
132
330
65
100
AcDbEntity
  8
1
 62
     4
100
AcDbPoint
 10
157.5
 20
19.00000000000001
 30
0.0
  0
POINT
  5
133
330
65
100
AcDbEntity
  8
1
 62
     4
100
AcDbPoint
 10
57.0
 20
16.25
 30
0.0
  0
POINT
  5
134
330
65
100
AcDbEntity
  8
1
 62
     4
100
AcDbPoint
 10
57.0
 20
24.75000000000001
 30
0.0
  0
POINT
  5
135
330
65
100
AcDbEntity
  8
1
 62
     4
100
AcDbPoint
 10
57.0
 20
20.75000000000001
 30
0.0
  0
POINT
  5
136
330
65
100
AcDbEntity
  8
1
 62
     4
100
AcDbPoint
 10
57.0
 20
12.25
 30
0.0
  0
POINT
  5
137
330
65
100
AcDbEntity
  8
1
 62
     4
100
AcDbPoint
 10
34.0
 20
34.00000000000001
 30
0.0
  0
LINE
  5
138
330
65
100
AcDbEntity
  8
1
  6
Continuous
 62
     7
100
AcDbLine
 10
105.0
 20
10.0
 30
0.0
 11
200.0
 21
10.0
 31
0.0
  0
LINE
  5
139
330
65
100
AcDbEntity
  8
1
  6
Continuous
 62
     2
100
AcDbLine
 10
105.0
 20
10.0
 30
0.0
 11
105.0
 21
5.0
 31
0.0
  0
LINE
  5
13A
330
65
100
AcDbEntity
  8
1
  6
Continuous
 62
     7
100
AcDbLine
 10
200.0
 20
148.5
 30
0.0
 11
200.0
 21
287.0000000000003
 31
0.0
  0
LINE
  5
13B
330
65
100
AcDbEntity
  8
1
  6
Continuous
 62
     2
100
AcDbLine
 10
200.0
 20
148.5
 30
0.0
 11
205.0
 21
148.5
 31
0.0
  0
LINE
  5
13C
330
65
100
AcDbEntity
  8
1
  6
Continuous
 62
     7
100
AcDbLine
 10
25.0
 20
148.5
 30
0.0
 11
25.0
 21
287.0000000000003
 31
0.0
  0
LINE
  5
13D
330
65
100
AcDbEntity
  8
1
  6
Continuous
 62
     2
100
AcDbLine
 10
25.0
 20
148.5
 30
0.0
 11
20.0
 21
148.5
 31
0.0
  0
LINE
  5
13E
330
65
100
AcDbEntity
  8
1
  6
Continuous
 62
     7
100
AcDbLine
 10
105.0
 20
287.0000000000003
 30
0.0
 11
25.0
 21
287.0000000000003
 31
0.0
  0
LINE
  5
13F
330
65
100
AcDbEntity
  8
1
  6
Continuous
 62
     2
100
AcDbLine
 10
105.0
 20
287.0000000000003
 30
0.0
 11
105.0
 21
292.0000000000003
 31
0.0
  0
LINE
  5
140
330
65
100
AcDbEntity
  8
1
  6
Continuous
 62
     2
100
AcDbLine
 10
166.0
 20
20.00000000000001
 30
0.0
 11
200.0
 21
20.00000000000001
 31
0.0
  0
LINE
  5
141
330
65
100
AcDbEntity
  8
1
  6
Continuous
 62
     2
100
AcDbLine
 10
98.0
 20
27.00000000000001
 30
0.0
 11
98.0
 21
9.99999999999999
 31
0.0
  0
LINE
  5
142
330
65
100
AcDbEntity
  8
1
  6
Continuous
 62
     2
100
AcDbLine
 10
115.0
 20
27.00000000000001
 30
0.0
 11
115.0
 21
9.99999999999999
 31
0.0
  0
LINE
  5
143
330
65
100
AcDbEntity
  8
1
  6
Continuous
 62
     2
100
AcDbLine
 10
149.0
 20
27.00000000000001
 30
0.0
 11
149.0
 21
10.0
 31
0.0
  0
LINE
  5
144
330
65
100
AcDbEntity
  8
1
  6
Continuous
 62
     2
100
AcDbLine
 10
132.0
 20
27.00000000000001
 30
0.0
 11
132.0
 21
9.99999999999999
 31
0.0
  0
LINE
  5
145
330
65
100
AcDbEntity
  8
1
  6
Continuous
 62
     2
100
AcDbLine
 10
166.0
 20
27.00000000000001
 30
0.0
 11
166.0
 21
10.0
 31
0.0
  0
LINE
  5
146
330
65
100
AcDbEntity
  8
1
  6
Continuous
 62
     2
100
AcDbLine
 10
55.0
 20
277.0000000000003
 30
0.0
 11
25.0
 21
277.0000000000003
 31
0.0
  0
LINE
  5
147
330
65
100
AcDbEntity
  8
1
  6
Continuous
 62
     7
100
AcDbLine
 10
25.0
 20
10.0
 30
0.0
 11
25.0
 21
148.5
 31
0.0
  0
LINE
  5
148
330
65
100
AcDbEntity
  8
1
  6
Continuous
 62
     2
100
AcDbLine
 10
40.0
 20
287.0000000000003
 30
0.0
 11
40.0
 21
277.0000000000003
 31
0.0
  0
LINE
  5
149
330
65
100
AcDbEntity
  8
1
  6
Continuous
 62
     2
100
AcDbLine
 10
55.0
 20
287.0000000000003
 30
0.0
 11
55.0
 21
277.0000000000003
 31
0.0
  0
LINE
  5
14A
330
65
100
AcDbEntity
  8
1
  6
Continuous
 62
     2
100
AcDbLine
 10
33.0
 20
41.00000000000001
 30
0.0
 11
33.0
 21
27.0
 31
0.0
  0
LINE
  5
14B
330
65
100
AcDbEntity
  8
1
  6
Continuous
 62
     7
100
AcDbLine
 10
200.0
 20
27.00000000000001
 30
0.0
 11
25.0
 21
27.00000000000001
 31
0.0
  0
LINE
  5
14C
330
65
100
AcDbEntity
  8
1
  6
Continuous
 62
     7
100
AcDbLine
 10
25.0
 20
41.0
 30
0.0
 11
200.0
 21
41.0
 31
0.0
  0
LINE
  5
14D
330
65
100
AcDbEntity
  8
1
  6
PHANTOM
 62
     4
100
AcDbLine
 10
0.0
 20
0.0
 30
0.0
 11
210.0
 21
0.0
 31
0.0
  0
LINE
  5
14E
330
65
100
AcDbEntity
  8
1
  6
PHANTOM
 62
     4
100
AcDbLine
 10
210.0
 20
0.0
 30
0.0
 11
210.0
 21
297.0
 31
0.0
  0
LINE
  5
14F
330
65
100
AcDbEntity
  8
1
  6
PHANTOM
 62
     4
100
AcDbLine
 10
210.0
 20
297.0
 30
0.0
 11
0.0
 21
297.0
 31
0.0
  0
LINE
  5
150
330
65
100
AcDbEntity
  8
1
  6
PHANTOM
 62
     4
100
AcDbLine
 10
0.0
 20
297.0
 30
0.0
 11
0.0
 21
0.0
 31
0.0
  0
LINE
  5
151
330
65
100
AcDbEntity
  8
1
  6
Continuous
 62
     7
100
AcDbLine
 10
25.0
 20
10.0
 30
0.0
 11
105.0
 21
10.0
 31
0.0
  0
LINE
  5
152
330
65
100
AcDbEntity
  8
1
  6
Continuous
 62
     7
100
AcDbLine
 10
200.0
 20
10.0
 30
0.0
 11
200.0
 21
148.5
 31
0.0
  0
LINE
  5
153
330
65
100
AcDbEntity
  8
1
  6
Continuous
 62
     7
100
AcDbLine
 10
200.0
 20
287.0000000000003
 30
0.0
 11
105.0
 21
287.0000000000003
 31
0.0
  0
LINE
  5
154
330
65
100
AcDbEntity
  8
1
  6
Continuous
 62
     2
100
AcDbLine
 10
25.0
 20
18.50000000000001
 30
0.0
 11
81.0
 21
18.50000000000001
 31
0.0
  0
LINE
  5
155
330
65
100
AcDbEntity
  8
1
  6
Continuous
 62
     2
100
AcDbLine
 10
33.0
 20
27.0
 30
0.0
 11
33.0
 21
10.0
 31
0.0
  0
LINE
  5
156
330
65
100
AcDbEntity
  8
1
  6
Continuous
 62
     7
100
AcDbLine
 10
191.0
 20
24.70000000000001
 30
0.0
 11
191.0
 21
22.30000000000001
 31
0.0
  0
LINE
  5
157
330
65
100
AcDbEntity
  8
1
  6
Continuous
 62
     7
100
AcDbLine
 10
191.0
 20
24.70000000000001
 30
0.0
 11
196.0
 21
25.50000000000001
 31
0.0
  0
LINE
  5
158
330
65
100
AcDbEntity
  8
1
  6
Continuous
 62
     7
100
AcDbLine
 10
196.0
 20
25.50000000000001
 30
0.0
 11
196.0
 21
21.50000000000001
 31
0.0
  0
LINE
  5
159
330
65
100
AcDbEntity
  8
1
  6
Continuous
 62
     7
100
AcDbLine
 10
196.0
 20
21.50000000000001
 30
0.0
 11
191.0
 21
22.30000000000001
 31
0.0
  0
LINE
  5
15A
330
65
100
AcDbEntity
  8
1
  6
DOT_CENTER
 62
     2
100
AcDbLine
 10
184.0
 20
23.50000000000001
 30
0.0
 11
197.0
 21
23.50000000000001
 31
0.0
  0
LINE
  5
15B
330
65
100
AcDbEntity
  8
1
  6
DOT_CENTER
 62
     2
100
AcDbLine
 10
187.0
 20
26.50000000000001
 30
0.0
 11
187.0
 21
20.50000000000001
 31
0.0
  0
LINE
  5
15C
330
65
100
AcDbEntity
  8
1
  6
Continuous
 62
     2
100
AcDbLine
 10
81.0
 20
27.00000000000001
 30
0.0
 11
81.0
 21
10.0
 31
0.0
  0
CIRCLE
  5
15D
330
65
100
AcDbEntity
  8
1
  6
Continuous
 62
     7
100
AcDbCircle
 10
103.5
 20
12.5
 30
0.0
 40
0.2999999999999972
  0
CIRCLE
  5
15E
330
65
100
AcDbEntity
  8
1
  6
Continuous
 62
     7
100
AcDbCircle
 10
109.5
 20
12.5
 30
0.0
 40
0.2999999999999972
  0
CIRCLE
  5
15F
330
65
100
AcDbEntity
  8
1
  6
Continuous
 62
     7
100
AcDbCircle
 10
120.5
 20
12.5
 30
0.0
 40
0.2999999999999972
  0
CIRCLE
  5
160
330
65
100
AcDbEntity
  8
1
  6
Continuous
 62
     7
100
AcDbCircle
 10
126.5
 20
12.5
 30
0.0
 40
0.2999999999999972
  0
CIRCLE
  5
161
330
65
100
AcDbEntity
  8
1
  6
Continuous
 62
     7
100
AcDbCircle
 10
137.5
 20
12.5
 30
0.0
 40
0.3000000000000114
  0
CIRCLE
  5
162
330
65
100
AcDbEntity
  8
1
  6
Continuous
 62
     7
100
AcDbCircle
 10
143.5
 20
12.5
 30
0.0
 40
0.3000000000000114
  0
CIRCLE
  5
163
330
65
100
AcDbEntity
  8
1
  6
Continuous
 62
     7
100
AcDbCircle
 10
160.5
 20
12.5
 30
0.0
 40
0.3000000000000114
  0
CIRCLE
  5
164
330
65
100
AcDbEntity
  8
1
  6
Continuous
 62
     7
100
AcDbCircle
 10
154.5
 20
12.5
 30
0.0
 40
0.3000000000000114
  0
CIRCLE
  5
165
330
65
100
AcDbEntity
  8
1
  6
Continuous
 62
     7
100
AcDbCircle
 10
187.0
 20
23.50000000000001
 30
0.0
 40
1.200000000000102
  0
CIRCLE
  5
166
330
65
100
AcDbEntity
  8
1
  6
Continuous
 62
     7
100
AcDbCircle
 10
187.0
 20
23.50000000000001
 30
0.0
 40
2.0
  0
CIRCLE
  5
167
330
65
100
AcDbEntity
  8
1
  6
DOT_CENTER
 62
     7
100
AcDbCircle
 10
89.5
 20
16.0
 30
0.0
 40
0.1000000000000227
  0
CIRCLE
  5
168
330
65
100
AcDbEntity
  8
1
  6
DOT_CENTER
 62
     7
100
AcDbCircle
 10
89.5
 20
18.0
 30
0.0
 40
0.1000000000000227
  0
MTEXT
  5
16A
330
65
100
AcDbEntity
  8
1
 62
     7
100
AcDbMText
 10
188.5
 20
15.0
 30
0.0
 40
3.0
 41
0.0
 71
     5
 72
     1
  1
三栄水栓製作所
  7
CONVERTER_11
 73
     1
 44
1.0
  0
MTEXT
  5
16B
330
65
100
AcDbEntity
  8
1
 62
     7
100
AcDbMText
 10
171.5
 20
15.0
 30
0.0
 40
2.5
 41
0.0
 71
     5
 72
     1
  1
株式会社
  7
CONVERTER_11
 73
     1
 44
1.0
  0
MTEXT
  5
16C
330
65
100
AcDbEntity
  8
1
 62
     2
100
AcDbMText
 10
32.5
 20
282.0000000000003
 30
0.0
 40
5.0
 41
0.0
 71
     5
 72
     1
  1
図番
  7
CONVERTER_11
 73
     1
 44
0.45454545454545
  0
MTEXT
  5
16D
330
65
100
AcDbEntity
  8
1
 62
     2
100
AcDbMText
 10
29.0
 20
34.00000000000001
 30
0.0
 40
3.5
 41
0.0
 71
     5
 72
     1
  1
備考
  7
CONVERTER_11
 73
     1
 44
0.45454545454545
  0
MTEXT
  5
16E
330
65
100
AcDbEntity
  8
1
 62
     2
100
AcDbMText
 10
29.0
 20
22.75
 30
0.0
 40
3.5
 41
0.0
 71
     5
 72
     1
  1
品名
  7
CONVERTER_11
 73
     1
 44
0.72727272727273
  0
MTEXT
  5
16F
330
65
100
AcDbEntity
  8
1
 62
     2
100
AcDbMText
 10
29.0
 20
14.25
 30
0.0
 40
3.5
 41
0.0
 71
     5
 72
     1
  1
品番
  7
CONVERTER_11
 73
     1
 44
0.72727272727273
  0
MTEXT
  5
170
330
65
100
AcDbEntity
  8
1
 62
     2
100
AcDbMText
 10
101.5
 20
25.00000000000001
 30
0.0
 40
3.0
 41
0.0
 71
     5
 72
     1
  1
承認
  7
CONVERTER_11
 73
     1
 44
0.59090909090909
  0
MTEXT
  5
171
330
65
100
AcDbEntity
  8
1
 62
     2
100
AcDbMText
 10
175.0
 20
23.50000000000001
 30
0.0
 40
3.5
 41
0.0
 71
     5
 72
     1
  1
第三角法
  7
CONVERTER_11
 73
     1
 44
0.54545454545455
  0
MTEXT
  5
172
330
65
100
AcDbEntity
  8
1
 62
     2
100
AcDbMText
 10
118.5
 20
25.00000000000001
 30
0.0
 40
3.0
 41
0.0
 71
     5
 72
     1
  1
検図
  7
CONVERTER_11
 73
     1
 44
0.59090909090909
  0
MTEXT
  5
173
330
65
100
AcDbEntity
  8
1
 62
     2
100
AcDbMText
 10
152.5
 20
25.00000000000001
 30
0.0
 40
3.0
 41
0.0
 71
     5
 72
     1
  1
設計
  7
CONVERTER_11
 73
     1
 44
0.59090909090909
  0
MTEXT
  5
174
330
65
100
AcDbEntity
  8
1
 62
     2
100
AcDbMText
 10
135.5
 20
25.00000000000001
 30
0.0
 40
3.0
 41
0.0
 71
     5
 72
     1
  1
製図
  7
CONVERTER_11
 73
     1
 44
0.59090909090909
  0
MTEXT
  5
175
330
65
100
AcDbEntity
  8
1
 62
     2
100
AcDbMText
 10
89.5
 20
24.00000000000001
 30
0.0
 40
3.5
 41
0.0
 71
     5
 72
     1
  1
尺度
  7
CONVERTER_11
 73
     1
 44
0.54545454545455
  0
MTEXT
  5
176
330
65
100
AcDbEntity
  8
1
 62
   250
100
AcDbMText
 10
25.0
 20
5.0
 30
0.0
 40
3.5
 41
0.0
 71
     4
 72
     1
  1
備考欄の文字列 原点位置=4
  7
CONVERTER_11
 73
     1
 44
0.54545454545455
  0
ENDBLK
  5
67
330
65
100
AcDbEntity
  8
0
100
AcDbBlockEnd
  0
BLOCK
  5
69
330
68
100
AcDbEntity
  8
0
100
AcDbBlockBegin
  2
A10-0-20
 70
     0
 10
460.6793431077527
 20
414.750586741078
 30
0.0
  3
A10-0-20
  1

  0
LINE
  5
177
330
68
100
AcDbEntity
  8
0
  6
Continuous
 62
     2
100
AcDbLine
 10
193.8663431077526
 20
306.7505867410781
 30
0.0
 11
193.8663431077526
 21
307.2505867410781
 31
0.0
  0
LINE
  5
178
330
68
100
AcDbEntity
  8
0
  6
Continuous
 62
     2
100
AcDbLine
 10
193.8663431077526
 20
307.2505867410781
 30
0.0
 11
194.6793431077526
 21
308.6587440476315
 31
0.0
  0
LINE
  5
179
330
68
100
AcDbEntity
  8
0
  6
Continuous
 62
     7
100
AcDbLine
 10
194.6793431077526
 20
306.7505867410781
 30
0.0
 11
194.6793431077526
 21
308.6587440476315
 31
0.0
  0
LINE
  5
17A
330
68
100
AcDbEntity
  8
0
  6
Continuous
 62
     7
100
AcDbLine
 10
193.0530781272117
 20
319.381751065655
 30
0.0
 11
194.6793431077526
 21
308.6587440476315
 31
0.0
  0
LINE
  5
17B
330
68
100
AcDbEntity
  8
0
  6
Continuous
 62
     7
100
AcDbLine
 10
164.6793431077526
 20
308.6587440476315
 30
0.0
 11
166.3056080882938
 21
319.381751065655
 31
0.0
  0
LINE
  5
17C
330
68
100
AcDbEntity
  8
0
  6
Continuous
 62
     7
100
AcDbLine
 10
194.6793431077526
 20
307.2505867410781
 30
0.0
 11
164.6793431077526
 21
307.2505867410781
 31
0.0
  0
LINE
  5
17D
330
68
100
AcDbEntity
  8
0
  6
Continuous
 62
     2
100
AcDbLine
 10
165.4923431077527
 20
307.2505867410781
 30
0.0
 11
165.4923431077527
 21
306.7505867410781
 31
0.0
  0
LINE
  5
17E
330
68
100
AcDbEntity
  8
0
  6
Continuous
 62
     2
100
AcDbLine
 10
164.6793431077526
 20
308.6587440476315
 30
0.0
 11
165.4923431077527
 21
307.2505867410781
 31
0.0
  0
LINE
  5
17F
330
68
100
AcDbEntity
  8
0
  6
Continuous
 62
     7
100
AcDbLine
 10
164.6793431077526
 20
308.6587440476315
 30
0.0
 11
164.6793431077526
 21
306.7505867410781
 31
0.0
  0
LINE
  5
180
330
68
100
AcDbEntity
  8
0
  6
Continuous
 62
     2
100
AcDbLine
 10
164.4923431077527
 20
357.7505867410781
 30
0.0
 11
164.4923431077527
 21
359.0935139011361
 31
0.0
  0
LINE
  5
181
330
68
100
AcDbEntity
  8
0
  6
Continuous
 62
     2
100
AcDbLine
 10
163.6793431077526
 20
356.3424294345245
 30
0.0
 11
164.4923431077527
 21
357.7505867410781
 31
0.0
  0
LINE
  5
182
330
68
100
AcDbEntity
  8
0
  6
Continuous
 62
     7
100
AcDbLine
 10
163.6793431077526
 20
357.7505867410781
 30
0.0
 11
164.4923431077527
 21
357.7505867410781
 31
0.0
  0
LINE
  5
183
330
68
100
AcDbEntity
  8
0
  6
Continuous
 62
     7
100
AcDbLine
 10
163.6793431077526
 20
331.7817156152273
 30
0.0
 11
163.6793431077526
 21
359.0935139011361
 31
0.0
  0
LINE
  5
184
330
68
100
AcDbEntity
  8
0
  6
Continuous
 62
     7
100
AcDbLine
 10
194.8663431077526
 20
357.7505867410781
 30
0.0
 11
195.6793431077526
 21
357.7505867410781
 31
0.0
  0
LINE
  5
185
330
68
100
AcDbEntity
  8
0
  6
Continuous
 62
     7
100
AcDbLine
 10
195.6793431077526
 20
331.7817156152273
 30
0.0
 11
195.6793431077526
 21
359.0935139011361
 31
0.0
  0
LINE
  5
186
330
68
100
AcDbEntity
  8
0
  6
Continuous
 62
     2
100
AcDbLine
 10
194.8663431077526
 20
357.7505867410781
 30
0.0
 11
195.6793431077526
 21
356.3424294345245
 31
0.0
  0
LINE
  5
187
330
68
100
AcDbEntity
  8
0
  6
Continuous
 62
     2
100
AcDbLine
 10
194.8663431077526
 20
359.0935139011361
 30
0.0
 11
194.8663431077526
 21
357.7505867410781
 31
0.0
  0
LINE
  5
188
330
68
100
AcDbEntity
  8
0
  6
Continuous
 62
     7
100
AcDbLine
 10
204.6793431077526
 20
724.517391948724
 30
0.0
 11
204.6793431077526
 21
726.517391948724
 31
0.0
  0
LINE
  5
189
330
68
100
AcDbEntity
  8
1
  6
Continuous
 62
     7
100
AcDbLine
 10
204.1793431077526
 20
724.017391948724
 30
0.0
 11
155.1793431077526
 21
724.017391948724
 31
0.0
  0
LINE
  5
18A
330
68
100
AcDbEntity
  8
1
  6
Continuous
 62
     7
100
AcDbLine
 10
191.1793431077529
 20
694.6474589611648
 30
0.0
 11
191.1793431077526
 21
720.017391948724
 31
0.0
  0
LINE
  5
18B
330
68
100
AcDbEntity
  8
0
  6
Continuous
 62
     7
100
AcDbLine
 10
192.9003431077524
 20
741.355391948724
 30
0.0
 11
192.9003431077524
 21
726.517391948724
 31
0.0
  0
LINE
  5
18C
330
68
100
AcDbEntity
  8
0
  6
Continuous
 62
     2
100
AcDbLine
 10
191.7383431077524
 20
728.530034987119
 30
0.0
 11
192.9003431077524
 21
726.517391948724
 31
0.0
  0
LINE
  5
18D
330
68
100
AcDbEntity
  8
0
  6
Continuous
 62
     2
100
AcDbLine
 10
191.7383431077524
 20
742.517391948724
 30
0.0
 11
191.7383431077524
 21
728.530034987119
 31
0.0
  0
LINE
  5
18E
330
68
100
AcDbEntity
  8
0
  6
Continuous
 62
     7
100
AcDbLine
 10
192.9003431077524
 20
741.355391948724
 30
0.0
 11
191.7383431077524
 21
742.517391948724
 31
0.0
  0
LINE
  5
18F
330
68
100
AcDbEntity
  8
0
  6
Continuous
 62
     7
100
AcDbLine
 10
191.1793431077526
 20
628.517391948724
 30
0.0
 11
191.1793431077529
 21
648.3873249362834
 31
0.0
  0
LINE
  5
190
330
68
100
AcDbEntity
  8
0
  6
Continuous
 62
     7
100
AcDbLine
 10
168.1793431077526
 20
628.517391948724
 30
0.0
 11
168.1793431077529
 21
648.3873249362834
 31
0.0
  0
LINE
  5
191
330
68
100
AcDbEntity
  8
1
  6
Continuous
 62
     7
100
AcDbLine
 10
168.1793431077529
 20
694.6474589611648
 30
0.0
 11
168.1793431077526
 21
720.017391948724
 31
0.0
  0
LINE
  5
192
330
68
100
AcDbEntity
  8
0
  6
Continuous
 62
     7
100
AcDbLine
 10
166.4583431077526
 20
741.355391948724
 30
0.0
 11
192.9003431077524
 21
741.355391948724
 31
0.0
  0
LINE
  5
193
330
68
100
AcDbEntity
  8
0
  6
Continuous
 62
     7
100
AcDbLine
 10
166.4583431077526
 20
728.530034987119
 30
0.0
 11
192.9003431077524
 21
728.530034987119
 31
0.0
  0
LINE
  5
194
330
68
100
AcDbEntity
  8
0
  6
Continuous
 62
     7
100
AcDbLine
 10
167.6203431077524
 20
742.517391948724
 30
0.0
 11
166.4583431077526
 21
741.355391948724
 31
0.0
  0
LINE
  5
195
330
68
100
AcDbEntity
  8
0
  6
Continuous
 62
     7
100
AcDbLine
 10
167.6203431077524
 20
742.517391948724
 30
0.0
 11
191.7383431077524
 21
742.517391948724
 31
0.0
  0
LINE
  5
196
330
68
100
AcDbEntity
  8
0
  6
Continuous
 62
     2
100
AcDbLine
 10
167.6203431077524
 20
728.530034987119
 30
0.0
 11
167.6203431077524
 21
742.517391948724
 31
0.0
  0
LINE
  5
197
330
68
100
AcDbEntity
  8
0
  6
Continuous
 62
     2
100
AcDbLine
 10
166.4583431077526
 20
726.517391948724
 30
0.0
 11
167.6203431077524
 21
728.530034987119
 31
0.0
  0
LINE
  5
198
330
68
100
AcDbEntity
  8
0
  6
Continuous
 62
     7
100
AcDbLine
 10
166.4583431077526
 20
726.517391948724
 30
0.0
 11
166.4583431077526
 21
741.355391948724
 31
0.0
  0
LINE
  5
199
330
68
100
AcDbEntity
  8
1
  6
Continuous
 62
     7
100
AcDbLine
 10
154.6793431077526
 20
726.517391948724
 30
0.0
 11
154.6793431077526
 21
724.517391948724
 31
0.0
  0
LINE
  5
19A
330
68
100
AcDbEntity
  8
0
  6
Continuous
 62
     7
100
AcDbLine
 10
154.6793431077526
 20
726.517391948724
 30
0.0
 11
204.6793431077526
 21
726.517391948724
 31
0.0
  0
LINE
  5
19B
330
68
100
AcDbEntity
  8
0
  6
Continuous
 62
     7
100
AcDbLine
 10
515.6793431077526
 20
302.7505867410781
 30
0.0
 11
513.6793431077526
 21
302.7505867410781
 31
0.0
  0
LINE
  5
19C
330
68
100
AcDbEntity
  8
0
  6
Continuous
 62
     7
100
AcDbLine
 10
513.1768405126329
 20
327.7505867410781
 30
0.0
 11
513.1808844408861
 21
303.2113571932141
 31
0.0
  0
LINE
  5
19D
330
68
100
AcDbEntity
  8
0
  6
Continuous
 62
     7
100
AcDbLine
 10
400.6793431077527
 20
308.6587440476315
 30
0.0
 11
402.3056080882938
 21
319.381751065655
 31
0.0
  0
LINE
  5
19E
330
68
100
AcDbEntity
  8
0
  6
Continuous
 62
     7
100
AcDbLine
 10
439.7212321737543
 20
339.3417402230048
 30
0.0
 11
418.5287995951993
 21
335.6049425725605
 31
0.0
  0
LINE
  5
19F
330
68
100
AcDbEntity
  8
0
  6
Continuous
 62
     7
100
AcDbLine
 10
430.0725070117353
 20
313.6002825664629
 30
0.0
 11
430.6793431077527
 21
308.6587440476315
 31
0.0
  0
LINE
  5
1A0
330
68
100
AcDbEntity
  8
0
  6
Continuous
 62
     7
100
AcDbLine
 10
483.8094101201932
 20
316.2505867410779
 30
0.0
 11
509.1916737728202
 21
316.2505867410781
 31
0.0
  0
LINE
  5
1A1
330
68
100
AcDbEntity
  8
0
  6
Continuous
 62
     2
100
AcDbLine
 10
429.8663431077526
 20
307.2505867410781
 30
0.0
 11
430.6793431077527
 21
308.6587440476315
 31
0.0
  0
LINE
  5
1A2
330
68
100
AcDbEntity
  8
0
  6
Continuous
 62
     7
100
AcDbLine
 10
430.6793431077526
 20
307.2505867410781
 30
0.0
 11
400.6793431077527
 21
307.2505867410781
 31
0.0
  0
LINE
  5
1A3
330
68
100
AcDbEntity
  8
0
  6
Continuous
 62
     2
100
AcDbLine
 10
400.6793431077527
 20
308.6587440476315
 30
0.0
 11
401.4923431077527
 21
307.2505867410781
 31
0.0
  0
LINE
  5
1A4
330
68
100
AcDbEntity
  8
0
  6
Continuous
 62
     7
100
AcDbLine
 10
400.6793431077527
 20
308.6587440476315
 30
0.0
 11
400.6793431077527
 21
306.7505867410781
 31
0.0
  0
LINE
  5
1A5
330
68
100
AcDbEntity
  8
0
  6
Continuous
 62
     7
100
AcDbLine
 10
517.6919861461477
 20
327.7505867410781
 30
0.0
 11
517.6919861461477
 21
314.529586741078
 31
0.0
  0
LINE
  5
1A6
330
68
100
AcDbEntity
  8
0
  6
Continuous
 62
     7
100
AcDbLine
 10
517.6919861461477
 20
327.7505867410781
 30
0.0
 11
517.6919861461477
 21
340.971586741078
 31
0.0
  0
LINE
  5
1A7
330
68
100
AcDbEntity
  8
0
  6
Continuous
 62
     2
100
AcDbLine
 10
444.6793431077526
 20
356.3424294345245
 30
0.0
 11
445.4923431077527
 21
357.7505867410781
 31
0.0
  0
LINE
  5
1A8
330
68
100
AcDbEntity
  8
0
  6
Continuous
 62
     7
100
AcDbLine
 10
444.6793431077526
 20
345.2505867410781
 30
0.0
 11
444.6793431077527
 21
359.0935139011361
 31
0.0
  0
LINE
  5
1A9
330
68
100
AcDbEntity
  8
0
  6
Continuous
 62
     7
100
AcDbLine
 10
509.1916737728202
 20
339.2505867410781
 30
0.0
 11
482.6793431077527
 21
339.2505867410781
 31
0.0
  0
LINE
  5
1AA
330
68
100
AcDbEntity
  8
0
  6
Continuous
 62
     7
100
AcDbLine
 10
515.6793431077526
 20
352.7505867410781
 30
0.0
 11
513.6793431077526
 21
352.7505867410781
 31
0.0
  0
LINE
  5
1AB
330
68
100
AcDbEntity
  8
0
  6
Continuous
 62
     7
100
AcDbLine
 10
513.1808844408861
 20
352.289816288942
 30
0.0
 11
513.1768405126329
 21
327.7505867410781
 31
0.0
  0
LINE
  5
1AC
330
68
100
AcDbEntity
  8
0
  6
Continuous
 62
     7
100
AcDbLine
 10
515.6793431077526
 20
340.971586741078
 30
0.0
 11
530.5173431077526
 21
340.971586741078
 31
0.0
  0
LINE
  5
1AD
330
68
100
AcDbEntity
  8
1
  6
Continuous
 62
     7
100
AcDbLine
 10
515.6793431077526
 20
352.7505867410781
 30
0.0
 11
515.6793431077526
 21
302.7505867410781
 31
0.0
  0
LINE
  5
1AE
330
68
100
AcDbEntity
  8
0
  6
Continuous
 62
     2
100
AcDbLine
 10
515.6793431077526
 20
340.971586741078
 30
0.0
 11
517.6919861461477
 21
339.809586741078
 31
0.0
  0
LINE
  5
1AF
330
68
100
AcDbEntity
  8
0
  6
Continuous
 62
     7
100
AcDbLine
 10
531.6793431077526
 20
339.809586741078
 30
0.0
 11
530.5173431077526
 21
340.971586741078
 31
0.0
  0
LINE
  5
1B0
330
68
100
AcDbEntity
  8
0
  6
Continuous
 62
     7
100
AcDbLine
 10
530.5173431077526
 20
314.529586741078
 30
0.0
 11
531.6793431077526
 21
315.691586741078
 31
0.0
  0
LINE
  5
1B1
330
68
100
AcDbEntity
  8
0
  6
Continuous
 62
     7
100
AcDbLine
 10
531.6793431077526
 20
339.809586741078
 30
0.0
 11
531.6793431077526
 21
315.691586741078
 31
0.0
  0
LINE
  5
1B2
330
68
100
AcDbEntity
  8
0
  6
Continuous
 62
     2
100
AcDbLine
 10
517.6919861461477
 20
315.691586741078
 30
0.0
 11
515.6793431077526
 21
314.529586741078
 31
0.0
  0
LINE
  5
1B3
330
68
100
AcDbEntity
  8
0
  6
Continuous
 62
     7
100
AcDbLine
 10
530.5173431077526
 20
314.529586741078
 30
0.0
 11
515.6793431077526
 21
314.529586741078
 31
0.0
  0
LINE
  5
1B4
330
68
100
AcDbEntity
  8
0
  6
Continuous
 62
     7
100
AcDbLine
 10
444.6793431077527
 20
357.7505867410781
 30
0.0
 11
476.6793431077527
 21
357.7505867410781
 31
0.0
  0
LINE
  5
1B5
330
68
100
AcDbEntity
  8
0
  6
Continuous
 62
     7
100
AcDbLine
 10
476.6793431077527
 20
345.2505867410781
 30
0.0
 11
476.6793431077527
 21
359.0935139011361
 31
0.0
  0
LINE
  5
1B6
330
68
100
AcDbEntity
  8
0
  6
Continuous
 62
     2
100
AcDbLine
 10
475.8663431077527
 20
357.7505867410781
 30
0.0
 11
476.6793431077527
 21
356.3424294345245
 31
0.0
  0
LINE
  5
1B7
330
68
100
AcDbEntity
  8
0
  6
Continuous
 62
     7
100
AcDbLine
 10
430.6793431077527
 20
306.7505867410781
 30
0.0
 11
430.6793431077527
 21
308.6587440476315
 31
0.0
  0
LINE
  5
1B8
330
68
100
AcDbEntity
  8
0
  6
Continuous
 62
     2
100
AcDbLine
 10
429.8663431077526
 20
306.7505867410781
 30
0.0
 11
429.8663431077526
 21
307.2505867410781
 31
0.0
  0
LINE
  5
1B9
330
68
100
AcDbEntity
  8
0
  6
Continuous
 62
     2
100
AcDbLine
 10
401.4923431077527
 20
307.2505867410781
 30
0.0
 11
401.4923431077527
 21
306.7505867410781
 31
0.0
  0
LINE
  5
1BA
330
68
100
AcDbEntity
  8
1
  6
Continuous
 62
     7
100
AcDbLine
 10
530.5173431077526
 20
340.971586741078
 30
0.0
 11
530.5173431077526
 21
327.7505867410781
 31
0.0
  0
LINE
  5
1BB
330
68
100
AcDbEntity
  8
0
  6
Continuous
 62
     2
100
AcDbLine
 10
517.6919861461477
 20
339.809586741078
 30
0.0
 11
531.6793431077526
 21
339.809586741078
 31
0.0
  0
LINE
  5
1BC
330
68
100
AcDbEntity
  8
1
  6
Continuous
 62
     7
100
AcDbLine
 10
530.5173431077526
 20
314.529586741078
 30
0.0
 11
530.5173431077526
 21
327.7505867410781
 31
0.0
  0
LINE
  5
1BD
330
68
100
AcDbEntity
  8
0
  6
Continuous
 62
     2
100
AcDbLine
 10
531.6793431077526
 20
315.691586741078
 30
0.0
 11
517.6919861461477
 21
315.691586741078
 31
0.0
  0
LINE
  5
1BE
330
68
100
AcDbEntity
  8
0
  6
Continuous
 62
     2
100
AcDbLine
 10
475.8663431077527
 20
359.0935139011361
 30
0.0
 11
475.8663431077527
 21
357.7505867410781
 31
0.0
  0
LINE
  5
1BF
330
68
100
AcDbEntity
  8
0
  6
Continuous
 62
     2
100
AcDbLine
 10
445.4923431077527
 20
357.7505867410781
 30
0.0
 11
445.4923431077527
 21
359.0935139011361
 31
0.0
  0
ARC
  5
1C0
330
68
100
AcDbEntity
  8
0
  6
Continuous
 62
     7
100
AcDbCircle
 10
213.1793431077529
 20
671.517391948724
 30
0.0
 40
50.00000000000006
100
AcDbArc
 50
155.6042478880917
 51
160.6412741066295
  0
ARC
  5
1C1
330
68
100
AcDbEntity
  8
0
  6
Continuous
 62
     7
100
AcDbCircle
 10
146.1793431077529
 20
671.517391948724
 30
0.0
 40
49.99999999999981
100
AcDbArc
 50
335.6042478880921
 51
358.6830860326477
  0
ARC
  5
1C2
330
68
100
AcDbEntity
  8
0
  6
Continuous
 62
     7
100
AcDbCircle
 10
179.6793431077526
 20
327.7505867410781
 30
0.0
 40
25.0
100
AcDbArc
 50
306.869897645844
 51
50.20818050044269
  0
ARC
  5
1C3
330
68
100
AcDbEntity
  8
0
  6
Continuous
 62
     7
100
AcDbCircle
 10
179.6793431077526
 20
327.7505867410781
 30
0.0
 40
24.99999999999995
100
AcDbArc
 50
129.7918194995573
 51
233.130102354156
  0
ARC
  5
1C4
330
68
100
AcDbEntity
  8
1
  6
Continuous
 62
     7
100
AcDbCircle
 10
179.6793431077526
 20
327.7505867410781
 30
0.0
 40
16.50000000000023
100
AcDbArc
 50
325.1186731174724
 51
14.14111023393141
  0
ARC
  5
1C5
330
68
100
AcDbEntity
  8
1
  6
Continuous
 62
     7
100
AcDbCircle
 10
179.6793431077526
 20
327.7505867410781
 30
0.0
 40
16.49999999999998
100
AcDbArc
 50
165.8588897660686
 51
214.8813268825282
  0
ARC
  5
1C6
330
68
100
AcDbEntity
  8
0
  6
Continuous
 62
     7
100
AcDbCircle
 10
146.1793431077529
 20
671.517391948724
 30
0.0
 40
49.99999999999939
100
AcDbArc
 50
19.35872589337062
 51
24.3957521119083
  0
ARC
  5
1C7
330
68
100
AcDbEntity
  8
0
  6
Continuous
 62
     7
100
AcDbCircle
 10
213.1793431077529
 20
671.517391948724
 30
0.0
 40
50.00000000000038
100
AcDbArc
 50
181.3169139673522
 51
204.3957521119079
  0
ARC
  5
1C8
330
68
100
AcDbEntity
  8
0
  6
Continuous
 62
     7
100
AcDbCircle
 10
179.6793431077526
 20
626.517391948724
 30
0.0
 40
15.0
100
AcDbArc
 50
140.0554948101851
 51
39.94450518981488
  0
ARC
  5
1C9
330
68
100
AcDbEntity
  8
0
  6
Continuous
 62
     7
100
AcDbCircle
 10
438.6793431077527
 20
345.2505867410781
 30
0.0
 40
6.000000000000044
100
AcDbArc
 50
280.0000000000001
 51
0.0
  0
ARC
  5
1CA
330
68
100
AcDbEntity
  8
0
  6
Continuous
 62
     7
100
AcDbCircle
 10
460.6793431077527
 20
361.2505867410779
 30
0.0
 40
49.99999999999986
100
AcDbArc
 50
240.4064132701823
 51
294.3957521119079
  0
ARC
  5
1CB
330
68
100
AcDbEntity
  8
0
  6
Continuous
 62
     7
100
AcDbCircle
 10
434.0117380237841
 20
314.2948752771306
 30
0.0
 40
3.999999999999925
100
AcDbArc
 50
60.40641327018248
 51
189.9999999999994
  0
ARC
  5
1CC
330
68
100
AcDbEntity
  8
0
  6
Continuous
 62
     7
100
AcDbCircle
 10
513.6793431077526
 20
352.2505867410781
 30
0.0
 40
0.5
100
AcDbArc
 50
90.0
 51
175.5000000000028
  0
ARC
  5
1CD
330
68
100
AcDbEntity
  8
0
  6
Continuous
 62
     7
100
AcDbCircle
 10
173.3569230669676
 20
315.9087875123163
 30
0.0
 40
19.99999999999997
100
AcDbArc
 50
10.00000000000037
 51
52.97702336025284
  0
ARC
  5
1CE
330
68
100
AcDbEntity
  8
0
  6
Continuous
 62
     7
100
AcDbCircle
 10
186.0017631485379
 20
315.9087875123163
 30
0.0
 40
19.99999999999991
100
AcDbArc
 50
127.0229766397471
 51
169.9999999999996
  0
ARC
  5
1CF
330
68
100
AcDbEntity
  8
1
  6
Continuous
 62
     7
100
AcDbCircle
 10
155.1793431077526
 20
724.517391948724
 30
0.0
 40
0.5
100
AcDbArc
 50
180.0
 51
270.0
  0
ARC
  5
1D0
330
68
100
AcDbEntity
  8
1
  6
Continuous
 62
     7
100
AcDbCircle
 10
204.1793431077526
 20
724.517391948724
 30
0.0
 40
0.5
100
AcDbArc
 50
270.0
 51
0.0
  0
ARC
  5
1D1
330
68
100
AcDbEntity
  8
1
  6
Continuous
 62
     7
100
AcDbCircle
 10
164.1793431077526
 20
720.017391948724
 30
0.0
 40
4.0
100
AcDbArc
 50
0.0
 51
90.0
  0
ARC
  5
1D2
330
68
100
AcDbEntity
  8
1
  6
Continuous
 62
     7
100
AcDbCircle
 10
195.1793431077526
 20
720.017391948724
 30
0.0
 40
4.0
100
AcDbArc
 50
90.0
 51
180.0
  0
ARC
  5
1D3
330
68
100
AcDbEntity
  8
0
  6
Continuous
 62
     7
100
AcDbCircle
 10
197.1793431077526
 20
648.3873249362832
 30
0.0
 40
5.999999999999926
100
AcDbArc
 50
155.6042478880883
 51
179.9999999999978
  0
ARC
  5
1D4
330
68
100
AcDbEntity
  8
0
  6
Continuous
 62
     7
100
AcDbCircle
 10
197.1793431077526
 20
694.6474589611646
 30
0.0
 40
5.999999999999687
100
AcDbArc
 50
179.9999999999978
 51
204.3957521119067
  0
ARC
  5
1D5
330
68
100
AcDbEntity
  8
0
  6
Continuous
 62
     7
100
AcDbCircle
 10
162.1793431077529
 20
648.3873249362834
 30
0.0
 40
6.0
100
AcDbArc
 50
0.0
 51
24.39575211190893
  0
ARC
  5
1D6
330
68
100
AcDbEntity
  8
0
  6
Continuous
 62
     7
100
AcDbCircle
 10
162.1793431077529
 20
694.6474589611648
 30
0.0
 40
5.999999999999967
100
AcDbArc
 50
335.6042478880921
 51
0.0
  0
ARC
  5
1D7
330
68
100
AcDbEntity
  8
0
  6
Continuous
 62
     7
100
AcDbCircle
 10
193.1793431077526
 20
628.517391948724
 30
0.0
 40
2.0
100
AcDbArc
 50
180.0
 51
270.0
  0
ARC
  5
1D8
330
68
100
AcDbEntity
  8
0
  6
Continuous
 62
     7
100
AcDbCircle
 10
166.1793431077526
 20
628.517391948724
 30
0.0
 40
2.0
100
AcDbArc
 50
270.0
 51
0.0
  0
ARC
  5
1D9
330
68
100
AcDbEntity
  8
0
  6
Continuous
 62
     7
100
AcDbCircle
 10
513.6793431077526
 20
303.2505867410781
 30
0.0
 40
0.4999999999999972
100
AcDbArc
 50
184.5000000000102
 51
270.0
  0
ARC
  5
1DA
330
68
100
AcDbEntity
  8
0
  6
Continuous
 62
     7
100
AcDbCircle
 10
422.0017631485379
 20
315.9087875123163
 30
0.0
 40
20.00000000000006
100
AcDbArc
 50
100.0
 51
169.9999999999996
  0
ARC
  5
1DB
330
68
100
AcDbEntity
  8
0
  6
Continuous
 62
     7
100
AcDbCircle
 10
483.8094101201932
 20
310.2505867410779
 30
0.0
 40
6.0
100
AcDbArc
 50
90.0
 51
114.3957521119078
  0
ARC
  5
1DC
330
68
100
AcDbEntity
  8
0
  6
Continuous
 62
     7
100
AcDbCircle
 10
482.6793431077527
 20
345.2505867410781
 30
0.0
 40
6.0
100
AcDbArc
 50
180.0
 51
270.0
  0
ARC
  5
1DD
330
68
100
AcDbEntity
  8
0
  6
Continuous
 62
     7
100
AcDbCircle
 10
509.1916737728202
 20
343.2505867410781
 30
0.0
 40
4.0
100
AcDbArc
 50
270.0
 51
355.499999999998
  0
ARC
  5
1DE
330
68
100
AcDbEntity
  8
0
  6
Continuous
 62
     7
100
AcDbCircle
 10
509.1916737728202
 20
312.2505867410781
 30
0.0
 40
3.999999999999916
100
AcDbArc
 50
4.49999999999881
 51
90.0
  0
ARC
  5
1DF
330
68
100
AcDbEntity
  8
1
  6
Continuous
 62
     7
100
AcDbCircle
 10
179.6793431077528
 20
324.2919256376174
 30
0.0
 40
9.499999999999948
100
AcDbArc
 50
52.97702336025299
 51
127.0229766397474
  0
ENDBLK
  5
6A
330
68
100
AcDbEntity
  8
0
100
AcDbBlockEnd
  0
BLOCK
  5
1FF
330
1F8
100
AcDbEntity
  8
0
100
AcDbBlockBegin
  2
*D11
 70
     1
 10
0.0
 20
0.0
 30
0.0
  3
*D11
  1

  0
LINE
  5
1F9
330
1F8
100
AcDbEntity
  8
1
  6
Continuous
 62
     2
100
AcDbLine
 10
460.6793431077526
 20
193.0005867410781
 30
0.0
 11
515.6793431077526
 21
193.0005867410781
 31
0.0
  0
LINE
  5
1FA
330
1F8
100
AcDbEntity
  8
1
  6
Continuous
 62
     2
100
AcDbLine
 10
515.6793431077526
 20
302.7505867410781
 30
0.0
 11
515.6793431077526
 21
190.0005867410781
 31
0.0
  0
LINE
  5
1FB
330
1F8
100
AcDbEntity
  8
1
  6
Continuous
 62
     2
100
AcDbLine
 10
460.6793431077526
 20
306.7766356195912
 30
0.0
 11
460.6793431077526
 21
190.0005867410781
 31
0.0
  0
SOLID
  5
1FC
330
1F8
100
AcDbEntity
  8
1
 62
     2
100
AcDbTrace
 10
471.1793431077526
 20
194.3829379657458
 30
0.0
 11
471.1793431077526
 21
191.6182355164105
 31
0.0
 12
460.6793431077526
 22
193.0005867410781
 32
0.0
 13
460.6793431077526
 23
193.0005867410781
 33
0.0
  0
SOLID
  5
1FD
330
1F8
100
AcDbEntity
  8
1
 62
     2
100
AcDbTrace
 10
505.1793431077526
 20
191.6182355164105
 30
0.0
 11
505.1793431077526
 21
194.3829379657458
 31
0.0
 12
515.6793431077526
 22
193.0005867410781
 32
0.0
 13
515.6793431077526
 23
193.0005867410781
 33
0.0
  0
MTEXT
  5
1FE
330
1F8
100
AcDbEntity
  8
1
 62
     7
100
AcDbMText
 10
480.3043431077526
 20
196.0005867410781
 30
0.0
 40
10.5
 41
0.0
 71
     7
 72
     1
  1
55
  7
CONVERTER_12
 11
0.9999999999970619
 21
2.424068405545306E-6
 31
0.0
 73
     1
 44
0.60024009603842
  0
ENDBLK
  5
200
330
1F8
100
AcDbEntity
  8
0
100
AcDbBlockEnd
  0
BLOCK
  5
20A
330
203
100
AcDbEntity
  8
0
100
AcDbBlockBegin
  2
*D12
 70
     1
 10
0.0
 20
0.0
 30
0.0
  3
*D12
  1

  0
LINE
  5
204
330
203
100
AcDbEntity
  8
1
  6
Continuous
 62
     2
100
AcDbLine
 10
415.6793431077527
 20
193.0005867410781
 30
0.0
 11
460.6793431077527
 21
193.0005867410781
 31
0.0
  0
LINE
  5
205
330
203
100
AcDbEntity
  8
1
  6
Continuous
 62
     2
100
AcDbLine
 10
460.6793431077527
 20
306.7766356195912
 30
0.0
 11
460.6793431077527
 21
190.0005867410781
 31
0.0
  0
LINE
  5
206
330
203
100
AcDbEntity
  8
1
  6
Continuous
 62
     2
100
AcDbLine
 10
415.6793431077527
 20
291.0005867410781
 30
0.0
 11
415.6793431077527
 21
190.0005867410781
 31
0.0
  0
SOLID
  5
207
330
203
100
AcDbEntity
  8
1
 62
     2
100
AcDbTrace
 10
426.1793431077527
 20
194.3829379657458
 30
0.0
 11
426.1793431077527
 21
191.6182355164105
 31
0.0
 12
415.6793431077527
 22
193.0005867410781
 32
0.0
 13
415.6793431077527
 23
193.0005867410781
 33
0.0
  0
SOLID
  5
208
330
203
100
AcDbEntity
  8
1
 62
     2
100
AcDbTrace
 10
450.1793431077527
 20
191.6182355164105
 30
0.0
 11
450.1793431077527
 21
194.3829379657458
 31
0.0
 12
460.6793431077527
 22
193.0005867410781
 32
0.0
 13
460.6793431077527
 23
193.0005867410781
 33
0.0
  0
MTEXT
  5
209
330
203
100
AcDbEntity
  8
1
 62
     7
100
AcDbMText
 10
430.3043431077526
 20
196.0005867410781
 30
0.0
 40
10.5
 41
0.0
 71
     7
 72
     1
  1
45
  7
CONVERTER_12
 11
0.9999999999970619
 21
2.424068405545306E-6
 31
0.0
 73
     1
 44
0.60024009603842
  0
ENDBLK
  5
20B
330
203
100
AcDbEntity
  8
0
100
AcDbBlockEnd
  0
BLOCK
  5
215
330
20E
100
AcDbEntity
  8
0
100
AcDbBlockBegin
  2
*D13
 70
     1
 10
0.0
 20
0.0
 30
0.0
  3
*D13
  1

  0
LINE
  5
20F
330
20E
100
AcDbEntity
  8
0
  6
Continuous
 62
     2
100
AcDbLine
 10
364.4432932215171
 20
403.2466574062388
 30
0.0
 11
364.4432932215171
 21
327.7505867410781
 31
0.0
  0
LINE
  5
210
330
20E
100
AcDbEntity
  8
0
  6
Continuous
 62
     2
100
AcDbLine
 10
403.1030797571863
 20
327.7505867410781
 30
0.0
 11
361.4432932215171
 21
327.7505867410781
 31
0.0
  0
LINE
  5
211
330
20E
100
AcDbEntity
  8
0
  6
Continuous
 62
     2
100
AcDbLine
 10
460.6793431077527
 20
403.2466574062388
 30
0.0
 11
361.4432932215171
 21
403.2466574062388
 31
0.0
  0
SOLID
  5
212
330
20E
100
AcDbEntity
  8
0
 62
     2
100
AcDbTrace
 10
365.8256444461848
 20
392.7466574062388
 30
0.0
 11
363.0609419968494
 21
392.7466574062388
 31
0.0
 12
364.4432932215171
 22
403.2466574062388
 32
0.0
 13
364.4432932215171
 23
403.2466574062388
 33
0.0
  0
SOLID
  5
213
330
20E
100
AcDbEntity
  8
0
 62
     2
100
AcDbTrace
 10
363.0609419968494
 20
338.2505867410781
 30
0.0
 11
365.8256444461848
 21
338.2505867410781
 31
0.0
 12
364.4432932215171
 22
327.7505867410781
 32
0.0
 13
364.4432932215171
 23
327.7505867410781
 33
0.0
  0
MTEXT
  5
214
330
20E
100
AcDbEntity
  8
0
 62
     7
100
AcDbMText
 10
361.4432932215171
 20
339.4064173342405
 30
0.0
 40
10.5
 41
0.0
 71
     7
 72
     1
  1
76リフト7
  7
CONVERTER_11
 11
0.0
 21
1.0
 31
0.0
 73
     1
 44
0.45454545454545
  0
ENDBLK
  5
216
330
20E
100
AcDbEntity
  8
0
100
AcDbBlockEnd
  0
BLOCK
  5
220
330
219
100
AcDbEntity
  8
0
100
AcDbBlockBegin
  2
*D14
 70
     1
 10
0.0
 20
0.0
 30
0.0
  3
*D14
  1

  0
LINE
  5
21A
330
219
100
AcDbEntity
  8
1
  6
Continuous
 62
     2
100
AcDbLine
 10
245.6793431077526
 20
193.0005867410781
 30
0.0
 11
415.6793431077526
 21
193.0005867410781
 31
0.0
  0
LINE
  5
21B
330
219
100
AcDbEntity
  8
1
  6
Continuous
 62
     2
100
AcDbLine
 10
415.6793431077526
 20
291.0005867410781
 30
0.0
 11
415.6793431077526
 21
190.0005867410781
 31
0.0
  0
LINE
  5
21C
330
219
100
AcDbEntity
  8
1
  6
Continuous
 62
     2
100
AcDbLine
 10
245.6793431077526
 20
219.3174073425849
 30
0.0
 11
245.6793431077526
 21
190.0005867410781
 31
0.0
  0
SOLID
  5
21D
330
219
100
AcDbEntity
  8
1
 62
     2
100
AcDbTrace
 10
256.1793431077526
 20
194.3829379657458
 30
0.0
 11
256.1793431077526
 21
191.6182355164105
 31
0.0
 12
245.6793431077526
 22
193.0005867410781
 32
0.0
 13
245.6793431077526
 23
193.0005867410781
 33
0.0
  0
SOLID
  5
21E
330
219
100
AcDbEntity
  8
1
 62
     2
100
AcDbTrace
 10
405.1793431077526
 20
191.6182355164105
 30
0.0
 11
405.1793431077526
 21
194.3829379657458
 31
0.0
 12
415.6793431077526
 22
193.0005867410781
 32
0.0
 13
415.6793431077526
 23
193.0005867410781
 33
0.0
  0
MTEXT
  5
21F
330
219
100
AcDbEntity
  8
1
 62
     7
100
AcDbMText
 10
319.6543431077526
 20
196.0005867410781
 30
0.0
 40
10.5
 41
0.0
 71
     7
 72
     1
  1
170
  7
CONVERTER_12
 11
0.9999999999970619
 21
2.424068405545306E-6
 31
0.0
 73
     1
 44
0.60024009603842
  0
ENDBLK
  5
221
330
219
100
AcDbEntity
  8
0
100
AcDbBlockEnd
  0
BLOCK
  5
22B
330
224
100
AcDbEntity
  8
0
100
AcDbBlockBegin
  2
*D15
 70
     1
 10
0.0
 20
0.0
 30
0.0
  3
*D15
  1

  0
LINE
  5
225
330
224
100
AcDbEntity
  8
1
  6
Continuous
 62
     2
100
AcDbLine
 10
364.4432932215171
 20
327.7505867410781
 30
0.0
 11
364.4432932215171
 21
223.0005867410781
 31
0.0
  0
LINE
  5
226
330
224
100
AcDbEntity
  8
1
  6
Continuous
 62
     2
100
AcDbLine
 10
254.3926498886749
 20
223.0005867410781
 30
0.0
 11
367.4432932215171
 21
223.0005867410781
 31
0.0
  0
LINE
  5
227
330
224
100
AcDbEntity
  8
1
  6
Continuous
 62
     2
100
AcDbLine
 10
403.1030797571863
 20
327.7505867410781
 30
0.0
 11
361.4432932215171
 21
327.7505867410781
 31
0.0
  0
SOLID
  5
228
330
224
100
AcDbEntity
  8
1
 62
     2
100
AcDbTrace
 10
365.8256444461848
 20
317.2505867410781
 30
0.0
 11
363.0609419968494
 21
317.2505867410781
 31
0.0
 12
364.4432932215171
 22
327.7505867410781
 32
0.0
 13
364.4432932215171
 23
327.7505867410781
 33
0.0
  0
SOLID
  5
229
330
224
100
AcDbEntity
  8
1
 62
     2
100
AcDbTrace
 10
363.0609419968494
 20
233.5005867410781
 30
0.0
 11
365.8256444461848
 21
233.5005867410781
 31
0.0
 12
364.4432932215171
 22
223.0005867410781
 32
0.0
 13
364.4432932215171
 23
223.0005867410781
 33
0.0
  0
MTEXT
  5
22A
330
224
100
AcDbEntity
  8
1
 62
     7
100
AcDbMText
 10
361.4432932215171
 20
277.5644827309583
 30
0.0
 40
10.5
 41
0.0
 71
     7
 72
     1
  1
105
  7
CONVERTER_12
 11
0.0
 21
1.0
 31
0.0
 73
     1
 44
0.60024009603842
  0
ENDBLK
  5
22C
330
224
100
AcDbEntity
  8
0
100
AcDbBlockEnd
  0
BLOCK
  5
236
330
22F
100
AcDbEntity
  8
0
100
AcDbBlockBegin
  2
*D16
 70
     1
 10
0.0
 20
0.0
 30
0.0
  3
*D16
  1

  0
LINE
  5
230
330
22F
100
AcDbEntity
  8
1
  6
Continuous
 62
     2
100
AcDbLine
 10
561.6793431077526
 20
352.7505867410781
 30
0.0
 11
561.6793431077526
 21
302.7505867410781
 31
0.0
  0
LINE
  5
231
330
22F
100
AcDbEntity
  8
1
  6
Continuous
 62
     2
100
AcDbLine
 10
515.6793431077526
 20
302.7505867410781
 30
0.0
 11
564.6793431077526
 21
302.7505867410781
 31
0.0
  0
LINE
  5
232
330
22F
100
AcDbEntity
  8
1
  6
Continuous
 62
     2
100
AcDbLine
 10
515.6793431077526
 20
352.7505867410781
 30
0.0
 11
564.6793431077526
 21
352.7505867410781
 31
0.0
  0
SOLID
  5
233
330
22F
100
AcDbEntity
  8
1
 62
     2
100
AcDbTrace
 10
563.0616943324203
 20
342.2505867410781
 30
0.0
 11
560.296991883085
 21
342.2505867410781
 31
0.0
 12
561.6793431077526
 22
352.7505867410781
 32
0.0
 13
561.6793431077526
 23
352.7505867410781
 33
0.0
  0
SOLID
  5
234
330
22F
100
AcDbEntity
  8
1
 62
     2
100
AcDbTrace
 10
560.296991883085
 20
313.2505867410781
 30
0.0
 11
563.0616943324203
 21
313.2505867410781
 31
0.0
 12
561.6793431077526
 22
302.7505867410781
 32
0.0
 13
561.6793431077526
 23
302.7505867410781
 33
0.0
  0
MTEXT
  5
235
330
22F
100
AcDbEntity
  8
1
 62
     7
100
AcDbMText
 10
558.6793431077526
 20
317.5655867410781
 30
0.0
 40
10.5
 41
0.0
 71
     7
 72
     1
  1
\C7;{\Fgdt;n}\C7;50
  7
CONVERTER_12
 11
0.0
 21
1.0
 31
0.0
 73
     1
 44
0.60024009603842
  0
ENDBLK
  5
237
330
22F
100
AcDbEntity
  8
0
100
AcDbBlockEnd
  0
BLOCK
  5
241
330
23A
100
AcDbEntity
  8
0
100
AcDbBlockBegin
  2
*D17
 70
     1
 10
0.0
 20
0.0
 30
0.0
  3
*D17
  1

  0
LINE
  5
23B
330
23A
100
AcDbEntity
  8
0
  6
Continuous
 62
     2
100
AcDbLine
 10
515.6793431077526
 20
193.0005867410781
 30
0.0
 11
531.6793431077526
 21
193.0005867410781
 31
0.0
  0
LINE
  5
23C
330
23A
100
AcDbEntity
  8
0
  6
Continuous
 62
     2
100
AcDbLine
 10
531.6793431077526
 20
193.0005867410781
 30
0.0
 11
553.2907504629029
 21
193.0005867410781
 31
0.0
  0
LINE
  5
23D
330
23A
100
AcDbEntity
  8
0
  6
Continuous
 62
     2
100
AcDbLine
 10
531.6793431077526
 20
315.691586741078
 30
0.0
 11
531.6793431077526
 21
190.0005867410781
 31
0.0
  0
LINE
  5
23E
330
23A
100
AcDbEntity
  8
0
  6
Continuous
 62
     2
100
AcDbLine
 10
515.6793431077526
 20
302.7505867410781
 30
0.0
 11
515.6793431077526
 21
190.0005867410781
 31
0.0
  0
SOLID
  5
23F
330
23A
100
AcDbEntity
  8
0
 62
     2
100
AcDbTrace
 10
542.1793431077526
 20
194.3829379657458
 30
0.0
 11
542.1793431077526
 21
191.6182355164105
 31
0.0
 12
531.6793431077526
 22
193.0005867410781
 32
0.0
 13
531.6793431077526
 23
193.0005867410781
 33
0.0
  0
MTEXT
  5
240
330
23A
100
AcDbEntity
  8
0
 62
     7
100
AcDbMText
 10
540.690750462903
 20
196.0005867410781
 30
0.0
 40
10.5
 41
0.0
 71
     7
 72
     1
  1
16
  7
CONVERTER_12
 11
0.9999999999970619
 21
2.424068405545306E-6
 31
0.0
 73
     1
 44
0.60024009603842
  0
ENDBLK
  5
242
330
23A
100
AcDbEntity
  8
0
100
AcDbBlockEnd
  0
BLOCK
  5
244
330
243
100
AcDbEntity
  8
0
100
AcDbBlockBegin
  2
_NONE
 70
     0
 10
0.0
 20
0.0
 30
0.0
  3
_NONE
  1

  0
ENDBLK
  5
245
330
243
100
AcDbEntity
  8
0
100
AcDbBlockEnd
  0
ENDSEC
  0
SECTION
  2
ENTITIES
  0
INSERT
  5
6B
330
1F
100
AcDbEntity
  8
1
100
AcDbBlockReference
  2
61-1X-19-170
 10
160.1793431077526
 20
223.0005867410781
 30
0.0
  0
INSERT
  5
6C
330
1F
100
AcDbEntity
  8
1
100
AcDbBlockReference
  2
R10AK-20-B
 10
152.0287080131422
 20
359.0102343763908
 30
0.0
  0
INSERT
  5
6D
330
1F
100
AcDbEntity
  8
1
100
AcDbBlockReference
  2
開示A4
 10
0.0
 20
0.0
 30
0.0
 41
3.0
 42
3.0
 43
3.0
  0
INSERT
  5
6E
330
1F
100
AcDbEntity
  8
0
100
AcDbBlockReference
  2
A10-0-20
 10
460.6793431077527
 20
414.750586741078
 30
0.0
  0
LINE
  5
1E0
330
1F
100
AcDbEntity
  8
0
  6
DASH_CENTER
 62
     2
100
AcDbLine
 10
165.7922963341921
 20
457.7534418349594
 30
0.0
 11
193.8063138765074
 21
457.7534418349594
 31
0.0
  0
LINE
  5
1E1
330
1F
100
AcDbEntity
  8
0
  6
DASH_CENTER
 62
     2
100
AcDbLine
 10
196.9682188473973
 20
626.517391948724
 30
0.0
 11
163.1793431077526
 21
626.517391948724
 31
0.0
  0
LINE
  5
1E2
330
1F
100
AcDbEntity
  8
0
  6
DASH_CENTER
 62
     2
100
AcDbLine
 10
199.3556744686991
 20
671.517391948724
 30
0.0
 11
161.1435160714166
 21
671.517391948724
 31
0.0
  0
LINE
  5
1E3
330
1F
100
AcDbEntity
  8
1
  6
DASH_CENTER
 62
     2
100
AcDbLine
 10
188.3395971455977
 20
666.5173919487245
 30
0.0
 11
150.2344793790823
 21
688.5173919487244
 31
0.0
  0
LINE
  5
1E4
330
1F
100
AcDbEntity
  8
1
  6
DASH_CENTER
 62
     2
100
AcDbLine
 10
171.0190890699088
 20
666.5173919487245
 30
0.0
 11
209.124206836424
 21
688.5173919487245
 31
0.0
  0
LINE
  5
1E5
330
1F
100
AcDbEntity
  8
1
  6
DASH_CENTER
 62
     2
100
AcDbLine
 10
245.6793431077527
 20
219.3174073425849
 30
0.0
 11
245.6793431077527
 21
231.4001353017252
 31
0.0
  0
LINE
  5
1E6
330
1F
100
AcDbEntity
  8
1
  6
DASH_CENTER
 62
     2
100
AcDbLine
 10
385.6793431077527
 20
261.0005867410781
 30
0.0
 11
275.6793431077525
 21
261.0005867410781
 31
0.0
  0
LINE
  5
1E7
330
1F
100
AcDbEntity
  8
0
  6
DASH_CENTER
 62
     2
100
AcDbLine
 10
179.6793431077526
 20
442.6303451751635
 30
0.0
 11
179.6793431077526
 21
745.4862085167712
 31
0.0
  0
LINE
  5
1E8
330
1F
100
AcDbEntity
  8
1
  6
DASH_CENTER
 62
     2
100
AcDbLine
 10
460.6793431077527
 20
306.7766356195912
 30
0.0
 11
460.6793431077527
 21
407.7466574062388
 31
0.0
  0
LINE
  5
1E9
330
1F
100
AcDbEntity
  8
0
  6
DASH_CENTER
 62
     2
100
AcDbLine
 10
535.6793431077526
 20
327.7505867410781
 30
0.0
 11
403.1030797571863
 21
327.7505867410781
 31
0.0
  0
LINE
  5
1EA
330
1F
100
AcDbEntity
  8
0
  6
DASH_CENTER
 62
     2
100
AcDbLine
 10
415.6793431077527
 20
291.0005867410781
 30
0.0
 11
415.6793431077527
 21
330.2829447970792
 31
0.0
  0
LINE
  5
1EB
330
1F
100
AcDbEntity
  8
0
  6
DASH_CENTER
 62
     2
100
AcDbLine
 10
179.6793431077526
 20
406.720083111188
 30
0.0
 11
179.6793431077526
 21
219.3174073425849
 31
0.0
  0
LINE
  5
1EC
330
1F
100
AcDbEntity
  8
0
  6
DASH_CENTER
 62
     2
100
AcDbLine
 10
151.0793431077528
 20
327.7505867410781
 30
0.0
 11
208.2793431077528
 21
327.7505867410781
 31
0.0
  0
ARC
  5
1ED
330
1F
100
AcDbEntity
  8
1
  6
DASH_CENTER
 62
     2
100
AcDbCircle
 10
275.6793431077525
 20
231.0005867410781
 30
0.0
 40
30.0
100
AcDbArc
 50
90.0
 51
180.0
  0
ARC
  5
1EE
330
1F
100
AcDbEntity
  8
1
  6
DASH_CENTER
 62
     2
100
AcDbCircle
 10
385.6793431077527
 20
291.0005867410781
 30
0.0
 40
30.0
100
AcDbArc
 50
270.0
 51
0.0
  0
SOLID
  5
1EF
330
1F
100
AcDbEntity
  8
1
 62
     2
100
AcDbTrace
 10
196.9531918302378
 20
743.7208343007944
 30
0.0
 11
199.3474943852672
 21
742.3384830761267
 31
0.0
 12
192.9003431077524
 22
733.936391948724
 32
0.0
 13
192.9003431077524
 23
733.936391948724
 33
0.0
  0
LEADER
  5
1F0
330
1F
100
AcDbEntity
  8
1
  6
Continuous
 62
     2
100
AcDbLeader
  3
Standard
 71
     0
 76
     3
 10
192.9003431077524
 20
733.936391948724
 30
0.0
 10
212.5000118938548
 20
767.8840140977752
 30
0.0
 10
258.202103662152
 20
767.8840140977752
 30
0.0
  0
MTEXT
  5
1F2
330
1F
100
AcDbEntity
  8
0
 62
     7
100
AcDbMText
 10
171.0
 20
42.75
 30
0.0
 40
10.5
 41
0.0
 71
     5
 72
     1
  1
A10JK-20
  7
CONVERTER_12
 73
     1
 44
0.7202881152461
  0
MTEXT
  5
1F3
330
1F
100
AcDbEntity
  8
0
 62
     7
100
AcDbMText
 10
171.0
 20
68.25000000000003
 30
0.0
 40
10.5
 41
0.0
 71
     5
 72
     1
  1
自在水栓
  7
CONVERTER_11
 73
     1
 44
1.0
  0
MTEXT
  5
1F4
330
1F
100
AcDbEntity
  8
1
 62
     7
100
AcDbMText
 10
235.3510577780034
 20
776.8840140977752
 30
0.0
 40
10.5
 41
0.0
 71
     5
 72
     1
  1
PJ3/4
  7
CONVERTER_12
 73
     1
 44
0.90036014405762
  0
MTEXT
  5
1F5
330
1F
100
AcDbEntity
  8
1
 62
     7
100
AcDbMText
 10
102.0
 20
102.0
 30
0.0
 40
10.5
 41
0.0
 71
     4
 72
     1
  1
JIS
  7
CONVERTER_12
 73
     1
 44
0.7202881152461
  0
MTEXT
  5
1F6
330
1F
100
AcDbEntity
  8
1
 62
     7
100
AcDbMText
 10
255.75
 20
51.0
 30
0.0
 40
10.5
 41
0.0
 71
     5
 72
     1
  1
1
  7
CONVERTER_12
 73
     1
 44
0.7202881152461
  0
MTEXT
  5
1F7
330
1F
100
AcDbEntity
  8
1
 62
     7
100
AcDbMText
 10
281.25
 20
51.0
 30
0.0
 40
10.5
 41
0.0
 71
     5
 72
     1
  1
3
  7
CONVERTER_12
 73
     1
 44
0.7202881152461
  0
DIMENSION
  5
202
330
1F
100
AcDbEntity
  8
1
100
AcDbDimension
  2
*D11
 10
460.6793431077526
 20
193.0005867410781
 30
0.0
 11
488.1793431077526
 21
201.2505867410781
 31
0.0
 70
    32
  1
<>
 71
     5
 42
-1.0
 53
0.00013888888889
  3
ME10_DIM_10
100
AcDbAlignedDimension
 13
515.6793431077526
 23
302.7505867410781
 33
0.0
 14
460.6793431077527
 24
306.7766356195912
 34
0.0
100
AcDbRotatedDimension
  0
DIMENSION
  5
20D
330
1F
100
AcDbEntity
  8
1
100
AcDbDimension
  2
*D12
 10
415.6793431077527
 20
193.0005867410781
 30
0.0
 11
438.1793431077526
 21
201.2505867410781
 31
0.0
 70
    32
  1
<>
 71
     5
 42
-1.0
 53
0.00013888888889
  3
ME10_DIM_11
100
AcDbAlignedDimension
 13
460.6793431077527
 23
306.7766356195912
 33
0.0
 14
415.6793431077527
 24
291.0005867410781
 34
0.0
100
AcDbRotatedDimension
  0
DIMENSION
  5
218
330
1F
100
AcDbEntity
  8
0
100
AcDbDimension
  2
*D13
 10
364.4432932215171
 20
403.2466574062388
 30
0.0
 11
356.1932932215171
 21
367.7564173342405
 31
0.0
 70
    32
  1
76リフト7
 71
     5
 42
-1.0
 53
90.0
  3
ME10_DIM_12
100
AcDbAlignedDimension
 13
403.1030797571863
 23
327.7505867410781
 33
0.0
 14
460.6793431077526
 24
403.2466574062388
 34
0.0
 50
90.0
100
AcDbRotatedDimension
  0
DIMENSION
  5
223
330
1F
100
AcDbEntity
  8
1
100
AcDbDimension
  2
*D14
 10
245.6793431077526
 20
193.0005867410781
 30
0.0
 11
330.6793431077526
 21
201.2505867410781
 31
0.0
 70
    32
  1
<>
 71
     5
 42
-1.0
 53
0.00013888888889
  3
ME10_DIM_13
100
AcDbAlignedDimension
 13
415.6793431077527
 23
291.0005867410781
 33
0.0
 14
245.6793431077527
 24
219.3174073425849
 34
0.0
100
AcDbRotatedDimension
  0
DIMENSION
  5
22E
330
1F
100
AcDbEntity
  8
1
100
AcDbDimension
  2
*D15
 10
364.4432932215171
 20
327.7505867410781
 30
0.0
 11
356.1932932215171
 21
288.5894827309583
 31
0.0
 70
    32
  1
105
 71
     5
 42
-1.0
 53
90.0
  3
ME10_DIM_14
100
AcDbAlignedDimension
 13
254.392649888675
 23
223.0005867410781
 33
0.0
 14
403.1030797571863
 24
327.7505867410781
 34
0.0
 50
90.0
100
AcDbRotatedDimension
  0
DIMENSION
  5
239
330
1F
100
AcDbEntity
  8
1
100
AcDbDimension
  2
*D16
 10
561.6793431077526
 20
352.7505867410781
 30
0.0
 11
553.4293431077526
 21
327.7505867410781
 31
0.0
 70
    32
  1
<>
 71
     5
 42
-1.0
 53
90.0
  3
ME10_DIM_15
100
AcDbAlignedDimension
 13
515.6793431077526
 23
302.7505867410781
 33
0.0
 14
515.6793431077526
 24
352.7505867410781
 34
0.0
 50
90.0
100
AcDbRotatedDimension
  0
DIMENSION
  5
247
330
1F
100
AcDbEntity
  8
0
100
AcDbDimension
  2
*D17
 10
515.6793431077526
 20
193.0005867410781
 30
0.0
 11
546.990750462903
 21
201.2505867410781
 31
0.0
 70
    32
  1
<>
 71
     5
 42
-1.0
 53
0.00013888888889
  3
ME10_DIM_16
100
AcDbAlignedDimension
 13
531.6793431077526
 23
315.691586741078
 33
0.0
 14
515.6793431077526
 24
302.7505867410781
 34
0.0
100
AcDbRotatedDimension
  0
ENDSEC
  0
SECTION
  2
OBJECTS
  0
DICTIONARY
  5
C
330
0
100
AcDbDictionary
281
     1
  3
ACAD_GROUP
350
D
  3
ACAD_LAYOUT
350
1A
  3
ACAD_MATERIAL
350
3B
  3
ACAD_MLEADERSTYLE
350
24A
  3
ACAD_MLINESTYLE
350
17
  3
ACAD_PLOTSETTINGS
350
19
  3
ACAD_PLOTSTYLENAME
350
E
  3
ACAD_VISUALSTYLE
350
2A
  3
AcDbVariableDictionary
350
248
  0
DICTIONARY
  5
D
102
{ACAD_REACTORS
330
C
102
}
330
C
100
AcDbDictionary
281
     1
  0
DICTIONARY
  5
1A
102
{ACAD_REACTORS
330
C
102
}
330
C
100
AcDbDictionary
281
     1
  3
Layout1
350
1E
  3
Layout2
350
26
  3
Model
350
22
  0
DICTIONARY
  5
3B
102
{ACAD_REACTORS
330
C
102
}
330
C
100
AcDbDictionary
281
     1
  3
ByBlock
350
3D
  3
ByLayer
350
3C
  3
Global
350
3E
  0
DICTIONARY
  5
24A
102
{ACAD_REACTORS
330
C
102
}
330
C
100
AcDbDictionary
281
     1
  0
DICTIONARY
  5
17
102
{ACAD_REACTORS
330
C
102
}
330
C
100
AcDbDictionary
281
     1
  3
Standard
350
18
  0
DICTIONARY
  5
19
102
{ACAD_REACTORS
330
C
102
}
330
C
100
AcDbDictionary
281
     1
  0
ACDBDICTIONARYWDFLT
  5
E
102
{ACAD_REACTORS
330
C
102
}
330
C
100
AcDbDictionary
281
     1
  3
Normal
350
F
100
AcDbDictionaryWithDefault
340
F
  0
DICTIONARY
  5
2A
102
{ACAD_REACTORS
330
C
102
}
330
C
100
AcDbDictionary
281
     1
  3
2dWireframe
350
2F
  3
3D Hidden
350
31
  3
3dWireframe
350
30
  3
Basic
350
32
  3
Brighten
350
36
  3
ColorChange
350
3A
  3
Conceptual
350
34
  3
Dim
350
35
  3
Facepattern
350
39
  3
Flat
350
2B
  3
FlatWithEdges
350
2C
  3
Gouraud
350
2D
  3
GouraudWithEdges
350
2E
  3
Linepattern
350
38
  3
Realistic
350
33
  3
Thicken
350
37
  0
DICTIONARY
  5
248
102
{ACAD_REACTORS
330
C
102
}
330
C
100
AcDbDictionary
281
     1
  3
DIMASSOC
350
24B
  3
HIDETEXT
350
24C
  0
LAYOUT
  5
1E
102
{ACAD_REACTORS
330
1A
102
}
330
1A
100
AcDbPlotSettings
  1

  2
none_device
  4

  6

 40
0.0
 41
0.0
 42
0.0
 43
0.0
 44
0.0
 45
0.0
 46
0.0
 47
0.0
 48
0.0
 49
0.0
140
0.0
141
0.0
142
1.0
143
1.0
 70
   688
 72
     0
 73
     0
 74
     5
  7

 75
    16
147
1.0
148
0.0
149
0.0
100
AcDbLayout
  1
Layout1
 70
     1
 71
     1
 10
0.0
 20
0.0
 11
12.0
 21
9.0
 12
0.0
 22
0.0
 32
0.0
 14
1.00000000000000E+20
 24
1.00000000000000E+20
 34
1.00000000000000E+20
 15
-1.00000000000000E+20
 25
-1.00000000000000E+20
 35
-1.00000000000000E+20
146
0.0
 13
0.0
 23
0.0
 33
0.0
 16
1.0
 26
0.0
 36
0.0
 17
0.0
 27
1.0
 37
0.0
 76
     0
330
1B
  0
LAYOUT
  5
26
102
{ACAD_REACTORS
330
1A
102
}
330
1A
100
AcDbPlotSettings
  1

  2
none_device
  4

  6

 40
0.0
 41
0.0
 42
0.0
 43
0.0
 44
0.0
 45
0.0
 46
0.0
 47
0.0
 48
0.0
 49
0.0
140
0.0
141
0.0
142
1.0
143
1.0
 70
   688
 72
     0
 73
     0
 74
     5
  7

 75
    16
147
1.0
148
0.0
149
0.0
100
AcDbLayout
  1
Layout2
 70
     1
 71
     2
 10
0.0
 20
0.0
 11
0.0
 21
0.0
 12
0.0
 22
0.0
 32
0.0
 14
0.0
 24
0.0
 34
0.0
 15
0.0
 25
0.0
 35
0.0
146
0.0
 13
0.0
 23
0.0
 33
0.0
 16
1.0
 26
0.0
 36
0.0
 17
0.0
 27
1.0
 37
0.0
 76
     0
330
23
  0
LAYOUT
  5
22
102
{ACAD_REACTORS
330
1A
102
}
330
1A
100
AcDbPlotSettings
  1

  2
none_device
  4

  6

 40
0.0
 41
0.0
 42
0.0
 43
0.0
 44
0.0
 45
0.0
 46
0.0
 47
0.0
 48
0.0
 49
0.0
140
0.0
141
0.0
142
1.0
143
1.0
 70
  1712
 72
     0
 73
     0
 74
     0
  7

 75
     0
147
1.0
148
0.0
149
0.0
100
AcDbLayout
  1
Model
 70
     1
 71
     0
 10
0.0
 20
0.0
 11
12.0
 21
9.0
 12
0.0
 22
0.0
 32
0.0
 14
0.0
 24
0.0
 34
0.0
 15
630.0
 25
891.0
 35
0.0
146
0.0
 13
0.0
 23
0.0
 33
0.0
 16
1.0
 26
0.0
 36
0.0
 17
0.0
 27
1.0
 37
0.0
 76
     0
330
1F
331
29
  0
MATERIAL
  5
3D
102
{ACAD_REACTORS
330
3B
102
}
102
{ACAD_XDICTIONARY
360
26F
102
}
330
3B
100
AcDbMaterial
  1
ByBlock
  0
MATERIAL
  5
3C
102
{ACAD_REACTORS
330
3B
102
}
102
{ACAD_XDICTIONARY
360
26D
102
}
330
3B
100
AcDbMaterial
  1
ByLayer
  0
MATERIAL
  5
3E
102
{ACAD_REACTORS
330
3B
102
}
102
{ACAD_XDICTIONARY
360
271
102
}
330
3B
100
AcDbMaterial
  1
Global
  0
MLINESTYLE
  5
18
102
{ACAD_REACTORS
330
17
102
}
330
17
100
AcDbMlineStyle
  2
Standard
 70
     0
  3

 62
   256
 51
90.0
 52
90.0
 71
     2
 49
0.5
 62
   256
  6
BYLAYER
 49
-0.5
 62
   256
  6
BYLAYER
  0
ACDBPLACEHOLDER
  5
F
102
{ACAD_REACTORS
330
E
102
}
330
E
  0
VISUALSTYLE
  5
2F
102
{ACAD_REACTORS
330
2A
102
}
102
{ACAD_XDICTIONARY
360
255
102
}
330
2A
100
AcDbVisualStyle
  2
2dWireframe
 70
     4
 71
     0
 72
     2
 73
     0
 90
        0
 40
-0.6
 41
-30.0
 62
     5
 63
     7
 74
     1
 91
        4
 64
     7
 65
   257
 75
     1
175
     1
 42
1.0
 92
        0
 66
   257
 43
1.0
 76
     1
 77
     6
 78
     2
 67
     7
 79
     5
170
     0
171
     0
290
     0
174
     0
 93
        1
 44
0.0
173
     0
291
     0
 45
0.0
1001
ACAD
1000
AcDbSavedByObjectVersion
1070
     0
  0
VISUALSTYLE
  5
31
102
{ACAD_REACTORS
330
2A
102
}
102
{ACAD_XDICTIONARY
360
259
102
}
330
2A
100
AcDbVisualStyle
  2
3D Hidden
 70
     6
 71
     1
 72
     2
 73
     2
 90
        0
 40
-0.6
 41
-30.0
 62
     5
 63
     7
 74
     2
 91
        2
 64
     7
 65
   257
 75
     2
175
     1
 42
40.0
 92
        0
 66
   257
 43
1.0
 76
     1
 77
     6
 78
     2
 67
     7
 79
     3
170
     0
171
     0
290
     0
174
     0
 93
        1
 44
0.0
173
     0
291
     0
 45
0.0
1001
ACAD
1000
AcDbSavedByObjectVersion
1070
     0
  0
VISUALSTYLE
  5
30
102
{ACAD_REACTORS
330
2A
102
}
102
{ACAD_XDICTIONARY
360
257
102
}
330
2A
100
AcDbVisualStyle
  2
3dWireframe
 70
     5
 71
     0
 72
     2
 73
     0
 90
        0
 40
-0.6
 41
-30.0
 62
     5
 63
     7
 74
     1
 91
        4
 64
     7
 65
   257
 75
     1
175
     1
 42
1.0
 92
        0
 66
   257
 43
1.0
 76
     1
 77
     6
 78
     2
 67
     7
 79
     5
170
     0
171
     0
290
     0
174
     0
 93
        1
 44
0.0
173
     0
291
     0
 45
0.0
1001
ACAD
1000
AcDbSavedByObjectVersion
1070
     0
  0
VISUALSTYLE
  5
32
102
{ACAD_REACTORS
330
2A
102
}
102
{ACAD_XDICTIONARY
360
25B
102
}
330
2A
100
AcDbVisualStyle
  2
Basic
 70
     7
 71
     1
 72
     0
 73
     1
 90
        0
 40
-0.6
 41
-30.0
 62
     5
 63
     7
 74
     0
 91
        4
 64
     7
 65
   257
 75
     1
175
     1
 42
1.0
 92
        8
 66
     7
 43
1.0
 76
     1
 77
     6
 78
     2
 67
     7
 79
     5
170
     0
171
     0
290
     0
174
     0
 93
        1
 44
0.0
173
     0
291
     1
 45
0.0
1001
ACAD
1000
AcDbSavedByObjectVersion
1070
     0
  0
VISUALSTYLE
  5
36
102
{ACAD_REACTORS
330
2A
102
}
102
{ACAD_XDICTIONARY
360
263
102
}
330
2A
100
AcDbVisualStyle
  2
Brighten
 70
    12
 71
     2
 72
     2
 73
     0
 90
        0
 40
-0.6
 41
-30.0
 62
     5
 63
     7
 74
     1
 91
        4
 64
     7
 65
   257
 75
     1
175
     1
 42
1.0
 92
        8
 66
     7
 43
1.0
 76
     1
 77
     6
 78
     2
 67
     7
 79
     5
170
     0
171
     0
290
     0
174
     0
 93
        1
 44
50.0
173
     0
291
     1
 45
0.0
1001
ACAD
1000
AcDbSavedByObjectVersion
1070
     0
  0
VISUALSTYLE
  5
3A
102
{ACAD_REACTORS
330
2A
102
}
102
{ACAD_XDICTIONARY
360
26B
102
}
330
2A
100
AcDbVisualStyle
  2
ColorChange
 70
    16
 71
     2
 72
     2
 73
     3
 90
        0
 40
-0.6
 41
-30.0
 62
     5
 63
     8
 74
     1
 91
        4
 64
     7
 65
   257
 75
     1
175
     1
 42
1.0
 92
        8
 66
     8
 43
1.0
 76
     1
 77
     6
 78
     2
 67
     7
 79
     5
170
     0
171
     0
290
     0
174
     0
 93
        1
 44
0.0
173
     0
291
     1
 45
0.0
1001
ACAD
1000
AcDbSavedByObjectVersion
1070
     0
  0
VISUALSTYLE
  5
34
102
{ACAD_REACTORS
330
2A
102
}
102
{ACAD_XDICTIONARY
360
25F
102
}
330
2A
100
AcDbVisualStyle
  2
Conceptual
 70
     9
 71
     3
 72
     2
 73
     0
 90
        0
 40
-0.6
 41
-30.0
 62
     5
 63
     7
 74
     2
 91
        2
 64
     7
 65
   257
 75
     1
175
     1
 42
40.0
 92
        8
 66
     7
 43
1.0
 76
     1
 77
     6
 78
     2
 67
     7
 79
     3
170
     0
171
     0
290
     0
174
     0
 93
        1
 44
0.0
173
     0
291
     0
 45
0.0
1001
ACAD
1000
AcDbSavedByObjectVersion
1070
     0
  0
VISUALSTYLE
  5
35
102
{ACAD_REACTORS
330
2A
102
}
102
{ACAD_XDICTIONARY
360
261
102
}
330
2A
100
AcDbVisualStyle
  2
Dim
 70
    11
 71
     2
 72
     2
 73
     0
 90
        0
 40
-0.6
 41
-30.0
 62
     5
 63
     7
 74
     1
 91
        4
 64
     7
 65
   257
 75
     1
175
     1
 42
1.0
 92
        8
 66
     7
 43
1.0
 76
     1
 77
     6
 78
     2
 67
     7
 79
     5
170
     0
171
     0
290
     0
174
     0
 93
        1
 44
-50.0
173
     0
291
     1
 45
0.0
1001
ACAD
1000
AcDbSavedByObjectVersion
1070
     0
  0
VISUALSTYLE
  5
39
102
{ACAD_REACTORS
330
2A
102
}
102
{ACAD_XDICTIONARY
360
269
102
}
330
2A
100
AcDbVisualStyle
  2
Facepattern
 70
    15
 71
     2
 72
     2
 73
     0
 90
        0
 40
-0.6
 41
-30.0
 62
     5
 63
     7
 74
     1
 91
        4
 64
     7
 65
   257
 75
     1
175
     1
 42
1.0
 92
        8
 66
     7
 43
1.0
 76
     1
 77
     6
 78
     2
 67
     7
 79
     5
170
     0
171
     0
290
     0
174
     0
 93
        1
 44
0.0
173
     0
291
     1
 45
0.0
1001
ACAD
1000
AcDbSavedByObjectVersion
1070
     0
  0
VISUALSTYLE
  5
2B
102
{ACAD_REACTORS
330
2A
102
}
102
{ACAD_XDICTIONARY
360
24D
102
}
330
2A
100
AcDbVisualStyle
  2
Flat
 70
     0
 71
     2
 72
     1
 73
     1
 90
        2
 40
-0.6
 41
30.0
 62
     5
 63
     7
 74
     0
 91
        4
 64
     7
 65
   257
 75
     1
175
     1
 42
1.0
 92
        8
 66
     7
 43
1.0
 76
     1
 77
     6
 78
     2
 67
     7
 79
     5
170
     0
171
     0
290
     0
174
     0
 93
       13
 44
0.0
173
     0
291
     1
 45
0.0
1001
ACAD
1000
AcDbSavedByObjectVersion
1070
     0
  0
VISUALSTYLE
  5
2C
102
{ACAD_REACTORS
330
2A
102
}
102
{ACAD_XDICTIONARY
360
24F
102
}
330
2A
100
AcDbVisualStyle
  2
FlatWithEdges
 70
     1
 71
     2
 72
     1
 73
     1
 90
        2
 40
-0.6
 41
30.0
 62
     5
 63
     7
 74
     1
 91
        4
 64
     7
 65
   257
 75
     1
175
     1
 42
1.0
 92
        0
 66
   257
 43
1.0
 76
     1
 77
     6
 78
     2
 67
     7
 79
     5
170
     0
171
     0
290
     0
174
     0
 93
       13
 44
0.0
173
     0
291
     1
 45
0.0
1001
ACAD
1000
AcDbSavedByObjectVersion
1070
     0
  0
VISUALSTYLE
  5
2D
102
{ACAD_REACTORS
330
2A
102
}
102
{ACAD_XDICTIONARY
360
251
102
}
330
2A
100
AcDbVisualStyle
  2
Gouraud
 70
     2
 71
     2
 72
     2
 73
     1
 90
        2
 40
-0.6
 41
30.0
 62
     5
 63
     7
 74
     0
 91
        4
 64
     7
 65
   257
 75
     1
175
     1
 42
1.0
 92
        0
 66
     7
 43
1.0
 76
     1
 77
     6
 78
     2
 67
     7
 79
     5
170
     0
171
     0
290
     0
174
     0
 93
       13
 44
0.0
173
     0
291
     1
 45
0.0
1001
ACAD
1000
AcDbSavedByObjectVersion
1070
     0
  0
VISUALSTYLE
  5
2E
102
{ACAD_REACTORS
330
2A
102
}
102
{ACAD_XDICTIONARY
360
253
102
}
330
2A
100
AcDbVisualStyle
  2
GouraudWithEdges
 70
     3
 71
     2
 72
     2
 73
     1
 90
        2
 40
-0.6
 41
30.0
 62
     5
 63
     7
 74
     1
 91
        4
 64
     7
 65
   257
 75
     1
175
     1
 42
1.0
 92
        0
 66
   257
 43
1.0
 76
     1
 77
     6
 78
     2
 67
     7
 79
     5
170
     0
171
     0
290
     0
174
     0
 93
       13
 44
0.0
173
     0
291
     1
 45
0.0
1001
ACAD
1000
AcDbSavedByObjectVersion
1070
     0
  0
VISUALSTYLE
  5
38
102
{ACAD_REACTORS
330
2A
102
}
102
{ACAD_XDICTIONARY
360
267
102
}
330
2A
100
AcDbVisualStyle
  2
Linepattern
 70
    14
 71
     2
 72
     2
 73
     0
 90
        0
 40
-0.6
 41
-30.0
 62
     5
 63
     7
 74
     1
 91
        4
 64
     7
 65
   257
 75
     7
175
     7
 42
1.0
 92
        8
 66
     7
 43
1.0
 76
     1
 77
     6
 78
     2
 67
     7
 79
     5
170
     0
171
     0
290
     0
174
     0
 93
        1
 44
0.0
173
     0
291
     1
 45
0.0
1001
ACAD
1000
AcDbSavedByObjectVersion
1070
     0
  0
VISUALSTYLE
  5
33
102
{ACAD_REACTORS
330
2A
102
}
102
{ACAD_XDICTIONARY
360
25D
102
}
330
2A
100
AcDbVisualStyle
  2
Realistic
 70
     8
 71
     2
 72
     2
 73
     0
 90
        0
 40
-0.6
 41
-30.0
 62
     5
 63
     7
 74
     1
 91
        0
 64
     7
 65
   257
 75
     1
175
     1
 42
1.0
 92
        8
 66
     8
 43
1.0
 76
     1
 77
     6
 78
     2
 67
     7
 79
     5
170
     0
171
     0
290
     0
174
     0
 93
       13
 44
0.0
173
     0
291
     0
 45
0.0
1001
ACAD
1000
AcDbSavedByObjectVersion
1070
     0
  0
VISUALSTYLE
  5
37
102
{ACAD_REACTORS
330
2A
102
}
102
{ACAD_XDICTIONARY
360
265
102
}
330
2A
100
AcDbVisualStyle
  2
Thicken
 70
    13
 71
     2
 72
     2
 73
     0
 90
        0
 40
-0.6
 41
-30.0
 62
     5
 63
     7
 74
     1
 91
        4
 64
     7
 65
   257
 75
     1
175
     1
 42
1.0
 92
       12
 66
     7
 43
1.0
 76
     1
 77
     6
 78
     2
 67
     7
 79
     5
170
     0
171
     0
290
     0
174
     0
 93
        1
 44
0.0
173
     0
291
     1
 45
0.0
1001
ACAD
1000
AcDbSavedByObjectVersion
1070
     0
  0
DICTIONARYVAR
  5
24B
102
{ACAD_REACTORS
330
248
102
}
330
248
100
DictionaryVariables
280
     0
  1
2
  0
DICTIONARYVAR
  5
24C
102
{ACAD_REACTORS
330
248
102
}
330
248
100
DictionaryVariables
280
     0
  1
1
  0
DICTIONARY
  5
26F
330
3D
100
AcDbDictionary
280
     1
281
     1
  3
ACAD_XREC_ROUNDTRIP
360
270
  0
DICTIONARY
  5
26D
330
3C
100
AcDbDictionary
280
     1
281
     1
  3
ACAD_XREC_ROUNDTRIP
360
26E
  0
DICTIONARY
  5
271
330
3E
100
AcDbDictionary
280
     1
281
     1
  3
ACAD_XREC_ROUNDTRIP
360
272
  0
DICTIONARY
  5
255
330
2F
100
AcDbDictionary
280
     1
281
     1
  3
ACAD_XREC_ROUNDTRIP
360
256
  0
DICTIONARY
  5
259
330
31
100
AcDbDictionary
280
     1
281
     1
  3
ACAD_XREC_ROUNDTRIP
360
25A
  0
DICTIONARY
  5
257
330
30
100
AcDbDictionary
280
     1
281
     1
  3
ACAD_XREC_ROUNDTRIP
360
258
  0
DICTIONARY
  5
25B
330
32
100
AcDbDictionary
280
     1
281
     1
  3
ACAD_XREC_ROUNDTRIP
360
25C
  0
DICTIONARY
  5
263
330
36
100
AcDbDictionary
280
     1
281
     1
  3
ACAD_XREC_ROUNDTRIP
360
264
  0
DICTIONARY
  5
26B
330
3A
100
AcDbDictionary
280
     1
281
     1
  3
ACAD_XREC_ROUNDTRIP
360
26C
  0
DICTIONARY
  5
25F
330
34
100
AcDbDictionary
280
     1
281
     1
  3
ACAD_XREC_ROUNDTRIP
360
260
  0
DICTIONARY
  5
261
330
35
100
AcDbDictionary
280
     1
281
     1
  3
ACAD_XREC_ROUNDTRIP
360
262
  0
DICTIONARY
  5
269
330
39
100
AcDbDictionary
280
     1
281
     1
  3
ACAD_XREC_ROUNDTRIP
360
26A
  0
DICTIONARY
  5
24D
330
2B
100
AcDbDictionary
280
     1
281
     1
  3
ACAD_XREC_ROUNDTRIP
360
24E
  0
DICTIONARY
  5
24F
330
2C
100
AcDbDictionary
280
     1
281
     1
  3
ACAD_XREC_ROUNDTRIP
360
250
  0
DICTIONARY
  5
251
330
2D
100
AcDbDictionary
280
     1
281
     1
  3
ACAD_XREC_ROUNDTRIP
360
252
  0
DICTIONARY
  5
253
330
2E
100
AcDbDictionary
280
     1
281
     1
  3
ACAD_XREC_ROUNDTRIP
360
254
  0
DICTIONARY
  5
267
330
38
100
AcDbDictionary
280
     1
281
     1
  3
ACAD_XREC_ROUNDTRIP
360
268
  0
DICTIONARY
  5
25D
330
33
100
AcDbDictionary
280
     1
281
     1
  3
ACAD_XREC_ROUNDTRIP
360
25E
  0
DICTIONARY
  5
265
330
37
100
AcDbDictionary
280
     1
281
     1
  3
ACAD_XREC_ROUNDTRIP
360
266
  0
XRECORD
  5
270
102
{ACAD_REACTORS
330
26F
102
}
330
26F
100
AcDbXrecord
280
     1
102
MATERIAL
148
0.0
149
0.0
149
0.0
 93
        0
 94
      127
282
     0
 72
     1
 77
     1
171
     1
175
     1
179
     1
273
     0
  0
XRECORD
  5
26E
102
{ACAD_REACTORS
330
26D
102
}
330
26D
100
AcDbXrecord
280
     1
102
MATERIAL
148
0.0
149
0.0
149
0.0
 93
        0
 94
      127
282
     0
 72
     1
 77
     1
171
     1
175
     1
179
     1
273
     0
  0
XRECORD
  5
272
102
{ACAD_REACTORS
330
271
102
}
330
271
100
AcDbXrecord
280
     1
102
MATERIAL
148
0.0
149
0.0
149
0.0
 93
        0
 94
      127
282
     0
 72
     1
 77
     1
171
     1
175
     1
179
     1
273
     0
  0
XRECORD
  5
256
102
{ACAD_REACTORS
330
255
102
}
330
255
100
AcDbXrecord
280
     1
102
RTVSPropertyOp0
 70
     1
102
RTVSPropertyOp1
 70
     1
102
RTVSPropertyOp2
 70
     1
102
RTVSPropertyOp3
 70
     1
102
RTVSPropertyOp4
 70
     1
102
RTVSPropertyOp5
 70
     1
102
RTVSPropertyOp6
 70
     1
102
RTVSPropertyOp7
 70
     1
102
RTVSPropertyOp8
 70
     1
102
RTVSPropertyOp9
 70
     1
102
RTVSPropertyOp10
 70
     1
102
RTVSPropertyOp11
 70
     1
102
RTVSPropertyOp12
 70
     1
102
RTVSPropertyOp13
 70
     1
102
RTVSPropertyOp14
 70
     1
102
RTVSPropertyOp15
 70
     1
102
RTVSPropertyOp16
 70
     1
102
RTVSPropertyOp17
 70
     1
102
RTVSPropertyOp18
 70
     1
102
RTVSPropertyOp19
 70
     1
102
RTVSPropertyOp20
 70
     1
102
RTVSPropertyOp21
 70
     1
102
RTVSPropertyOp22
 70
     1
102
RTVSPropertyOp23
 70
     1
102
RTVSPropertyOp24
 70
     1
102
RTVSPropertyOp25
 70
     1
102
RTVSPropertyOp26
 70
     1
102
RTVSPropertyOp27
 70
     1
102
RTVSPropertyOp28
 70
     1
102
RTVSPropertyOp29
 70
     1
102
RTVSPropertyOp30
 70
     1
102
RTVSPropertyOp31
 70
     1
102
RTVSPropertyOp32
 70
     1
  0
XRECORD
  5
25A
102
{ACAD_REACTORS
330
259
102
}
330
259
100
AcDbXrecord
280
     1
102
RTVSPropertyOp0
 70
     1
102
RTVSPropertyOp1
 70
     1
102
RTVSPropertyOp2
 70
     1
102
RTVSPropertyOp3
 70
     1
102
RTVSPropertyOp4
 70
     1
102
RTVSPropertyOp5
 70
     1
102
RTVSPropertyOp6
 70
     1
102
RTVSPropertyOp7
 70
     1
102
RTVSPropertyOp8
 70
     1
102
RTVSPropertyOp9
 70
     1
102
RTVSPropertyOp10
 70
     1
102
RTVSPropertyOp11
 70
     1
102
RTVSPropertyOp12
 70
     1
102
RTVSPropertyOp13
 70
     1
102
RTVSPropertyOp14
 70
     1
102
RTVSPropertyOp15
 70
     1
102
RTVSPropertyOp16
 70
     1
102
RTVSPropertyOp17
 70
     1
102
RTVSPropertyOp18
 70
     1
102
RTVSPropertyOp19
 70
     1
102
RTVSPropertyOp20
 70
     1
102
RTVSPropertyOp21
 70
     1
102
RTVSPropertyOp22
 70
     1
102
RTVSPropertyOp23
 70
     1
102
RTVSPropertyOp24
 70
     1
102
RTVSPropertyOp25
 70
     1
102
RTVSPropertyOp26
 70
     1
102
RTVSPropertyOp27
 70
     1
102
RTVSPropertyOp28
 70
     1
102
RTVSPropertyOp29
 70
     1
102
RTVSPropertyOp30
 70
     1
102
RTVSPropertyOp31
 70
     1
102
RTVSPropertyOp32
 70
     1
  0
XRECORD
  5
258
102
{ACAD_REACTORS
330
257
102
}
330
257
100
AcDbXrecord
280
     1
102
RTVSPropertyOp0
 70
     1
102
RTVSPropertyOp1
 70
     1
102
RTVSPropertyOp2
 70
     1
102
RTVSPropertyOp3
 70
     1
102
RTVSPropertyOp4
 70
     1
102
RTVSPropertyOp5
 70
     1
102
RTVSPropertyOp6
 70
     1
102
RTVSPropertyOp7
 70
     1
102
RTVSPropertyOp8
 70
     1
102
RTVSPropertyOp9
 70
     1
102
RTVSPropertyOp10
 70
     1
102
RTVSPropertyOp11
 70
     1
102
RTVSPropertyOp12
 70
     1
102
RTVSPropertyOp13
 70
     1
102
RTVSPropertyOp14
 70
     1
102
RTVSPropertyOp15
 70
     1
102
RTVSPropertyOp16
 70
     1
102
RTVSPropertyOp17
 70
     1
102
RTVSPropertyOp18
 70
     1
102
RTVSPropertyOp19
 70
     1
102
RTVSPropertyOp20
 70
     1
102
RTVSPropertyOp21
 70
     1
102
RTVSPropertyOp22
 70
     1
102
RTVSPropertyOp23
 70
     1
102
RTVSPropertyOp24
 70
     1
102
RTVSPropertyOp25
 70
     1
102
RTVSPropertyOp26
 70
     1
102
RTVSPropertyOp27
 70
     1
102
RTVSPropertyOp28
 70
     1
102
RTVSPropertyOp29
 70
     1
102
RTVSPropertyOp30
 70
     1
102
RTVSPropertyOp31
 70
     1
102
RTVSPropertyOp32
 70
     1
  0
XRECORD
  5
25C
102
{ACAD_REACTORS
330
25B
102
}
330
25B
100
AcDbXrecord
280
     1
102
RTVSPropertyOp0
 70
     1
102
RTVSPropertyOp1
 70
     1
102
RTVSPropertyOp2
 70
     1
102
RTVSPropertyOp3
 70
     1
102
RTVSPropertyOp4
 70
     1
102
RTVSPropertyOp5
 70
     1
102
RTVSPropertyOp6
 70
     1
102
RTVSPropertyOp7
 70
     1
102
RTVSPropertyOp8
 70
     1
102
RTVSPropertyOp9
 70
     1
102
RTVSPropertyOp10
 70
     1
102
RTVSPropertyOp11
 70
     1
102
RTVSPropertyOp12
 70
     1
102
RTVSPropertyOp13
 70
     1
102
RTVSPropertyOp14
 70
     1
102
RTVSPropertyOp15
 70
     1
102
RTVSPropertyOp16
 70
     1
102
RTVSPropertyOp17
 70
     1
102
RTVSPropertyOp18
 70
     1
102
RTVSPropertyOp19
 70
     1
102
RTVSPropertyOp20
 70
     1
102
RTVSPropertyOp21
 70
     1
102
RTVSPropertyOp22
 70
     1
102
RTVSPropertyOp23
 70
     1
102
RTVSPropertyOp24
 70
     1
102
RTVSPropertyOp25
 70
     1
102
RTVSPropertyOp26
 70
     1
102
RTVSPropertyOp27
 70
     1
102
RTVSPropertyOp28
 70
     1
102
RTVSPropertyOp29
 70
     1
102
RTVSPropertyOp30
 70
     1
102
RTVSPropertyOp31
 70
     1
102
RTVSPropertyOp32
 70
     1
  0
XRECORD
  5
264
102
{ACAD_REACTORS
330
263
102
}
330
263
100
AcDbXrecord
280
     1
102
RTVSPropertyOp0
 70
     1
102
RTVSPropertyOp1
 70
     1
102
RTVSPropertyOp2
 70
     1
102
RTVSPropertyOp3
 70
     1
102
RTVSPropertyOp4
 70
     1
102
RTVSPropertyOp5
 70
     1
102
RTVSPropertyOp6
 70
     1
102
RTVSPropertyOp7
 70
     1
102
RTVSPropertyOp8
 70
     1
102
RTVSPropertyOp9
 70
     1
102
RTVSPropertyOp10
 70
     1
102
RTVSPropertyOp11
 70
     1
102
RTVSPropertyOp12
 70
     1
102
RTVSPropertyOp13
 70
     1
102
RTVSPropertyOp14
 70
     1
102
RTVSPropertyOp15
 70
     1
102
RTVSPropertyOp16
 70
     1
102
RTVSPropertyOp17
 70
     1
102
RTVSPropertyOp18
 70
     1
102
RTVSPropertyOp19
 70
     1
102
RTVSPropertyOp20
 70
     1
102
RTVSPropertyOp21
 70
     1
102
RTVSPropertyOp22
 70
     1
102
RTVSPropertyOp23
 70
     1
102
RTVSPropertyOp24
 70
     1
102
RTVSPropertyOp25
 70
     1
102
RTVSPropertyOp26
 70
     1
102
RTVSPropertyOp27
 70
     1
102
RTVSPropertyOp28
 70
     1
102
RTVSPropertyOp29
 70
     1
102
RTVSPropertyOp30
 70
     1
102
RTVSPropertyOp31
 70
     1
102
RTVSPropertyOp32
 70
     1
  0
XRECORD
  5
26C
102
{ACAD_REACTORS
330
26B
102
}
330
26B
100
AcDbXrecord
280
     1
102
RTVSPropertyOp0
 70
     1
102
RTVSPropertyOp1
 70
     1
102
RTVSPropertyOp2
 70
     1
102
RTVSPropertyOp3
 70
     1
102
RTVSPropertyOp4
 70
     1
102
RTVSPropertyOp5
 70
     1
102
RTVSPropertyOp6
 70
     1
102
RTVSPropertyOp7
 70
     1
102
RTVSPropertyOp8
 70
     1
102
RTVSPropertyOp9
 70
     1
102
RTVSPropertyOp10
 70
     1
102
RTVSPropertyOp11
 70
     1
102
RTVSPropertyOp12
 70
     1
102
RTVSPropertyOp13
 70
     1
102
RTVSPropertyOp14
 70
     1
102
RTVSPropertyOp15
 70
     1
102
RTVSPropertyOp16
 70
     1
102
RTVSPropertyOp17
 70
     1
102
RTVSPropertyOp18
 70
     1
102
RTVSPropertyOp19
 70
     1
102
RTVSPropertyOp20
 70
     1
102
RTVSPropertyOp21
 70
     1
102
RTVSPropertyOp22
 70
     1
102
RTVSPropertyOp23
 70
     1
102
RTVSPropertyOp24
 70
     1
102
RTVSPropertyOp25
 70
     1
102
RTVSPropertyOp26
 70
     1
102
RTVSPropertyOp27
 70
     1
102
RTVSPropertyOp28
 70
     1
102
RTVSPropertyOp29
 70
     1
102
RTVSPropertyOp30
 70
     1
102
RTVSPropertyOp31
 70
     1
102
RTVSPropertyOp32
 70
     1
  0
XRECORD
  5
260
102
{ACAD_REACTORS
330
25F
102
}
330
25F
100
AcDbXrecord
280
     1
102
RTVSPropertyOp0
 70
     1
102
RTVSPropertyOp1
 70
     1
102
RTVSPropertyOp2
 70
     1
102
RTVSPropertyOp3
 70
     1
102
RTVSPropertyOp4
 70
     1
102
RTVSPropertyOp5
 70
     1
102
RTVSPropertyOp6
 70
     1
102
RTVSPropertyOp7
 70
     1
102
RTVSPropertyOp8
 70
     1
102
RTVSPropertyOp9
 70
     1
102
RTVSPropertyOp10
 70
     1
102
RTVSPropertyOp11
 70
     1
102
RTVSPropertyOp12
 70
     1
102
RTVSPropertyOp13
 70
     1
102
RTVSPropertyOp14
 70
     1
102
RTVSPropertyOp15
 70
     1
102
RTVSPropertyOp16
 70
     1
102
RTVSPropertyOp17
 70
     1
102
RTVSPropertyOp18
 70
     1
102
RTVSPropertyOp19
 70
     1
102
RTVSPropertyOp20
 70
     1
102
RTVSPropertyOp21
 70
     1
102
RTVSPropertyOp22
 70
     1
102
RTVSPropertyOp23
 70
     1
102
RTVSPropertyOp24
 70
     1
102
RTVSPropertyOp25
 70
     1
102
RTVSPropertyOp26
 70
     1
102
RTVSPropertyOp27
 70
     1
102
RTVSPropertyOp28
 70
     1
102
RTVSPropertyOp29
 70
     1
102
RTVSPropertyOp30
 70
     1
102
RTVSPropertyOp31
 70
     1
102
RTVSPropertyOp32
 70
     1
  0
XRECORD
  5
262
102
{ACAD_REACTORS
330
261
102
}
330
261
100
AcDbXrecord
280
     1
102
RTVSPropertyOp0
 70
     1
102
RTVSPropertyOp1
 70
     1
102
RTVSPropertyOp2
 70
     1
102
RTVSPropertyOp3
 70
     1
102
RTVSPropertyOp4
 70
     1
102
RTVSPropertyOp5
 70
     1
102
RTVSPropertyOp6
 70
     1
102
RTVSPropertyOp7
 70
     1
102
RTVSPropertyOp8
 70
     1
102
RTVSPropertyOp9
 70
     1
102
RTVSPropertyOp10
 70
     1
102
RTVSPropertyOp11
 70
     1
102
RTVSPropertyOp12
 70
     1
102
RTVSPropertyOp13
 70
     1
102
RTVSPropertyOp14
 70
     1
102
RTVSPropertyOp15
 70
     1
102
RTVSPropertyOp16
 70
     1
102
RTVSPropertyOp17
 70
     1
102
RTVSPropertyOp18
 70
     1
102
RTVSPropertyOp19
 70
     1
102
RTVSPropertyOp20
 70
     1
102
RTVSPropertyOp21
 70
     1
102
RTVSPropertyOp22
 70
     1
102
RTVSPropertyOp23
 70
     1
102
RTVSPropertyOp24
 70
     1
102
RTVSPropertyOp25
 70
     1
102
RTVSPropertyOp26
 70
     1
102
RTVSPropertyOp27
 70
     1
102
RTVSPropertyOp28
 70
     1
102
RTVSPropertyOp29
 70
     1
102
RTVSPropertyOp30
 70
     1
102
RTVSPropertyOp31
 70
     1
102
RTVSPropertyOp32
 70
     1
  0
XRECORD
  5
26A
102
{ACAD_REACTORS
330
269
102
}
330
269
100
AcDbXrecord
280
     1
102
RTVSPropertyOp0
 70
     1
102
RTVSPropertyOp1
 70
     1
102
RTVSPropertyOp2
 70
     1
102
RTVSPropertyOp3
 70
     1
102
RTVSPropertyOp4
 70
     1
102
RTVSPropertyOp5
 70
     1
102
RTVSPropertyOp6
 70
     1
102
RTVSPropertyOp7
 70
     1
102
RTVSPropertyOp8
 70
     1
102
RTVSPropertyOp9
 70
     1
102
RTVSPropertyOp10
 70
     1
102
RTVSPropertyOp11
 70
     1
102
RTVSPropertyOp12
 70
     1
102
RTVSPropertyOp13
 70
     1
102
RTVSPropertyOp14
 70
     1
102
RTVSPropertyOp15
 70
     1
102
RTVSPropertyOp16
 70
     1
102
RTVSPropertyOp17
 70
     1
102
RTVSPropertyOp18
 70
     1
102
RTVSPropertyOp19
 70
     1
102
RTVSPropertyOp20
 70
     1
102
RTVSPropertyOp21
 70
     1
102
RTVSPropertyOp22
 70
     1
102
RTVSPropertyOp23
 70
     1
102
RTVSPropertyOp24
 70
     1
102
RTVSPropertyOp25
 70
     1
102
RTVSPropertyOp26
 70
     1
102
RTVSPropertyOp27
 70
     1
102
RTVSPropertyOp28
 70
     1
102
RTVSPropertyOp29
 70
     1
102
RTVSPropertyOp30
 70
     1
102
RTVSPropertyOp31
 70
     1
102
RTVSPropertyOp32
 70
     1
  0
XRECORD
  5
24E
102
{ACAD_REACTORS
330
24D
102
}
330
24D
100
AcDbXrecord
280
     1
102
RTVSPropertyOp0
 70
     1
102
RTVSPropertyOp1
 70
     1
102
RTVSPropertyOp2
 70
     1
102
RTVSPropertyOp3
 70
     1
102
RTVSPropertyOp4
 70
     1
102
RTVSPropertyOp5
 70
     1
102
RTVSPropertyOp6
 70
     1
102
RTVSPropertyOp7
 70
     1
102
RTVSPropertyOp8
 70
     1
102
RTVSPropertyOp9
 70
     1
102
RTVSPropertyOp10
 70
     1
102
RTVSPropertyOp11
 70
     1
102
RTVSPropertyOp12
 70
     1
102
RTVSPropertyOp13
 70
     1
102
RTVSPropertyOp14
 70
     1
102
RTVSPropertyOp15
 70
     1
102
RTVSPropertyOp16
 70
     1
102
RTVSPropertyOp17
 70
     1
102
RTVSPropertyOp18
 70
     1
102
RTVSPropertyOp19
 70
     1
102
RTVSPropertyOp20
 70
     1
102
RTVSPropertyOp21
 70
     1
102
RTVSPropertyOp22
 70
     1
102
RTVSPropertyOp23
 70
     1
102
RTVSPropertyOp24
 70
     1
102
RTVSPropertyOp25
 70
     1
102
RTVSPropertyOp26
 70
     1
102
RTVSPropertyOp27
 70
     1
102
RTVSPropertyOp28
 70
     1
102
RTVSPropertyOp29
 70
     1
102
RTVSPropertyOp30
 70
     1
102
RTVSPropertyOp31
 70
     1
102
RTVSPropertyOp32
 70
     1
  0
XRECORD
  5
250
102
{ACAD_REACTORS
330
24F
102
}
330
24F
100
AcDbXrecord
280
     1
102
RTVSPropertyOp0
 70
     1
102
RTVSPropertyOp1
 70
     1
102
RTVSPropertyOp2
 70
     1
102
RTVSPropertyOp3
 70
     1
102
RTVSPropertyOp4
 70
     1
102
RTVSPropertyOp5
 70
     1
102
RTVSPropertyOp6
 70
     1
102
RTVSPropertyOp7
 70
     1
102
RTVSPropertyOp8
 70
     1
102
RTVSPropertyOp9
 70
     1
102
RTVSPropertyOp10
 70
     1
102
RTVSPropertyOp11
 70
     1
102
RTVSPropertyOp12
 70
     1
102
RTVSPropertyOp13
 70
     1
102
RTVSPropertyOp14
 70
     1
102
RTVSPropertyOp15
 70
     1
102
RTVSPropertyOp16
 70
     1
102
RTVSPropertyOp17
 70
     1
102
RTVSPropertyOp18
 70
     1
102
RTVSPropertyOp19
 70
     1
102
RTVSPropertyOp20
 70
     1
102
RTVSPropertyOp21
 70
     1
102
RTVSPropertyOp22
 70
     1
102
RTVSPropertyOp23
 70
     1
102
RTVSPropertyOp24
 70
     1
102
RTVSPropertyOp25
 70
     1
102
RTVSPropertyOp26
 70
     1
102
RTVSPropertyOp27
 70
     1
102
RTVSPropertyOp28
 70
     1
102
RTVSPropertyOp29
 70
     1
102
RTVSPropertyOp30
 70
     1
102
RTVSPropertyOp31
 70
     1
102
RTVSPropertyOp32
 70
     1
  0
XRECORD
  5
252
102
{ACAD_REACTORS
330
251
102
}
330
251
100
AcDbXrecord
280
     1
102
RTVSPropertyOp0
 70
     1
102
RTVSPropertyOp1
 70
     1
102
RTVSPropertyOp2
 70
     1
102
RTVSPropertyOp3
 70
     1
102
RTVSPropertyOp4
 70
     1
102
RTVSPropertyOp5
 70
     1
102
RTVSPropertyOp6
 70
     1
102
RTVSPropertyOp7
 70
     1
102
RTVSPropertyOp8
 70
     1
102
RTVSPropertyOp9
 70
     1
102
RTVSPropertyOp10
 70
     1
102
RTVSPropertyOp11
 70
     1
102
RTVSPropertyOp12
 70
     1
102
RTVSPropertyOp13
 70
     1
102
RTVSPropertyOp14
 70
     1
102
RTVSPropertyOp15
 70
     1
102
RTVSPropertyOp16
 70
     1
102
RTVSPropertyOp17
 70
     1
102
RTVSPropertyOp18
 70
     1
102
RTVSPropertyOp19
 70
     1
102
RTVSPropertyOp20
 70
     1
102
RTVSPropertyOp21
 70
     1
102
RTVSPropertyOp22
 70
     1
102
RTVSPropertyOp23
 70
     1
102
RTVSPropertyOp24
 70
     1
102
RTVSPropertyOp25
 70
     1
102
RTVSPropertyOp26
 70
     1
102
RTVSPropertyOp27
 70
     1
102
RTVSPropertyOp28
 70
     1
102
RTVSPropertyOp29
 70
     1
102
RTVSPropertyOp30
 70
     1
102
RTVSPropertyOp31
 70
     1
102
RTVSPropertyOp32
 70
     1
  0
XRECORD
  5
254
102
{ACAD_REACTORS
330
253
102
}
330
253
100
AcDbXrecord
280
     1
102
RTVSPropertyOp0
 70
     1
102
RTVSPropertyOp1
 70
     1
102
RTVSPropertyOp2
 70
     1
102
RTVSPropertyOp3
 70
     1
102
RTVSPropertyOp4
 70
     1
102
RTVSPropertyOp5
 70
     1
102
RTVSPropertyOp6
 70
     1
102
RTVSPropertyOp7
 70
     1
102
RTVSPropertyOp8
 70
     1
102
RTVSPropertyOp9
 70
     1
102
RTVSPropertyOp10
 70
     1
102
RTVSPropertyOp11
 70
     1
102
RTVSPropertyOp12
 70
     1
102
RTVSPropertyOp13
 70
     1
102
RTVSPropertyOp14
 70
     1
102
RTVSPropertyOp15
 70
     1
102
RTVSPropertyOp16
 70
     1
102
RTVSPropertyOp17
 70
     1
102
RTVSPropertyOp18
 70
     1
102
RTVSPropertyOp19
 70
     1
102
RTVSPropertyOp20
 70
     1
102
RTVSPropertyOp21
 70
     1
102
RTVSPropertyOp22
 70
     1
102
RTVSPropertyOp23
 70
     1
102
RTVSPropertyOp24
 70
     1
102
RTVSPropertyOp25
 70
     1
102
RTVSPropertyOp26
 70
     1
102
RTVSPropertyOp27
 70
     1
102
RTVSPropertyOp28
 70
     1
102
RTVSPropertyOp29
 70
     1
102
RTVSPropertyOp30
 70
     1
102
RTVSPropertyOp31
 70
     1
102
RTVSPropertyOp32
 70
     1
  0
XRECORD
  5
268
102
{ACAD_REACTORS
330
267
102
}
330
267
100
AcDbXrecord
280
     1
102
RTVSPropertyOp0
 70
     1
102
RTVSPropertyOp1
 70
     1
102
RTVSPropertyOp2
 70
     1
102
RTVSPropertyOp3
 70
     1
102
RTVSPropertyOp4
 70
     1
102
RTVSPropertyOp5
 70
     1
102
RTVSPropertyOp6
 70
     1
102
RTVSPropertyOp7
 70
     1
102
RTVSPropertyOp8
 70
     1
102
RTVSPropertyOp9
 70
     1
102
RTVSPropertyOp10
 70
     1
102
RTVSPropertyOp11
 70
     1
102
RTVSPropertyOp12
 70
     1
102
RTVSPropertyOp13
 70
     1
102
RTVSPropertyOp14
 70
     1
102
RTVSPropertyOp15
 70
     1
102
RTVSPropertyOp16
 70
     1
102
RTVSPropertyOp17
 70
     1
102
RTVSPropertyOp18
 70
     1
102
RTVSPropertyOp19
 70
     1
102
RTVSPropertyOp20
 70
     1
102
RTVSPropertyOp21
 70
     1
102
RTVSPropertyOp22
 70
     1
102
RTVSPropertyOp23
 70
     1
102
RTVSPropertyOp24
 70
     1
102
RTVSPropertyOp25
 70
     1
102
RTVSPropertyOp26
 70
     1
102
RTVSPropertyOp27
 70
     1
102
RTVSPropertyOp28
 70
     1
102
RTVSPropertyOp29
 70
     1
102
RTVSPropertyOp30
 70
     1
102
RTVSPropertyOp31
 70
     1
102
RTVSPropertyOp32
 70
     1
  0
XRECORD
  5
25E
102
{ACAD_REACTORS
330
25D
102
}
330
25D
100
AcDbXrecord
280
     1
102
RTVSPropertyOp0
 70
     1
102
RTVSPropertyOp1
 70
     1
102
RTVSPropertyOp2
 70
     1
102
RTVSPropertyOp3
 70
     1
102
RTVSPropertyOp4
 70
     1
102
RTVSPropertyOp5
 70
     1
102
RTVSPropertyOp6
 70
     1
102
RTVSPropertyOp7
 70
     1
102
RTVSPropertyOp8
 70
     1
102
RTVSPropertyOp9
 70
     1
102
RTVSPropertyOp10
 70
     1
102
RTVSPropertyOp11
 70
     1
102
RTVSPropertyOp12
 70
     1
102
RTVSPropertyOp13
 70
     1
102
RTVSPropertyOp14
 70
     1
102
RTVSPropertyOp15
 70
     1
102
RTVSPropertyOp16
 70
     1
102
RTVSPropertyOp17
 70
     1
102
RTVSPropertyOp18
 70
     1
102
RTVSPropertyOp19
 70
     1
102
RTVSPropertyOp20
 70
     1
102
RTVSPropertyOp21
 70
     1
102
RTVSPropertyOp22
 70
     1
102
RTVSPropertyOp23
 70
     1
102
RTVSPropertyOp24
 70
     1
102
RTVSPropertyOp25
 70
     1
102
RTVSPropertyOp26
 70
     1
102
RTVSPropertyOp27
 70
     1
102
RTVSPropertyOp28
 70
     1
102
RTVSPropertyOp29
 70
     1
102
RTVSPropertyOp30
 70
     1
102
RTVSPropertyOp31
 70
     1
102
RTVSPropertyOp32
 70
     1
  0
XRECORD
  5
266
102
{ACAD_REACTORS
330
265
102
}
330
265
100
AcDbXrecord
280
     1
102
RTVSPropertyOp0
 70
     1
102
RTVSPropertyOp1
 70
     1
102
RTVSPropertyOp2
 70
     1
102
RTVSPropertyOp3
 70
     1
102
RTVSPropertyOp4
 70
     1
102
RTVSPropertyOp5
 70
     1
102
RTVSPropertyOp6
 70
     1
102
RTVSPropertyOp7
 70
     1
102
RTVSPropertyOp8
 70
     1
102
RTVSPropertyOp9
 70
     1
102
RTVSPropertyOp10
 70
     1
102
RTVSPropertyOp11
 70
     1
102
RTVSPropertyOp12
 70
     1
102
RTVSPropertyOp13
 70
     1
102
RTVSPropertyOp14
 70
     1
102
RTVSPropertyOp15
 70
     1
102
RTVSPropertyOp16
 70
     1
102
RTVSPropertyOp17
 70
     1
102
RTVSPropertyOp18
 70
     1
102
RTVSPropertyOp19
 70
     1
102
RTVSPropertyOp20
 70
     1
102
RTVSPropertyOp21
 70
     1
102
RTVSPropertyOp22
 70
     1
102
RTVSPropertyOp23
 70
     1
102
RTVSPropertyOp24
 70
     1
102
RTVSPropertyOp25
 70
     1
102
RTVSPropertyOp26
 70
     1
102
RTVSPropertyOp27
 70
     1
102
RTVSPropertyOp28
 70
     1
102
RTVSPropertyOp29
 70
     1
102
RTVSPropertyOp30
 70
     1
102
RTVSPropertyOp31
 70
     1
102
RTVSPropertyOp32
 70
     1
  0
ENDSEC
  0
EOF
