  0
SECTION
  2
HEADER
  9
$ACADVER
  1
AC1015
  9
$ACADMAINTVER
 70
     6
  9
$DWGCODEPAGE
  3
ANSI_932
  9
$INSBASE
 10
0.0
 20
0.0
 30
0.0
  9
$EXTMIN
 10
0.0
 20
0.0
 30
0.0
  9
$EXTMAX
 10
735.0
 20
1039.5
 30
0.0
  9
$LIMMIN
 10
0.0
 20
0.0
  9
$LIMMAX
 10
12.0
 20
9.0
  9
$ORTHOMODE
 70
     0
  9
$REGENMODE
 70
     1
  9
$FILLMODE
 70
     1
  9
$QTEXTMODE
 70
     0
  9
$MIRRTEXT
 70
     1
  9
$LTSCALE
 40
1.0
  9
$ATTMODE
 70
     1
  9
$TEXTSIZE
 40
0.2
  9
$TRACEWID
 40
0.05
  9
$TEXTSTYLE
  7
Standard
  9
$CLAYER
  8
0
  9
$CELTYPE
  6
ByLayer
  9
$CECOLOR
 62
   256
  9
$CELTSCALE
 40
1.0
  9
$DISPSILH
 70
     0
  9
$DIMSCALE
 40
1.0
  9
$DIMASZ
 40
0.18
  9
$DIMEXO
 40
0.0625
  9
$DIMDLI
 40
0.38
  9
$DIMRND
 40
0.0
  9
$DIMDLE
 40
0.0
  9
$DIMEXE
 40
0.18
  9
$DIMTP
 40
0.0
  9
$DIMTM
 40
0.0
  9
$DIMTXT
 40
0.18
  9
$DIMCEN
 40
0.09
  9
$DIMTSZ
 40
0.0
  9
$DIMTOL
 70
     0
  9
$DIMLIM
 70
     0
  9
$DIMTIH
 70
     1
  9
$DIMTOH
 70
     1
  9
$DIMSE1
 70
     0
  9
$DIMSE2
 70
     0
  9
$DIMTAD
 70
     0
  9
$DIMZIN
 70
     0
  9
$DIMBLK
  1

  9
$DIMASO
 70
     1
  9
$DIMSHO
 70
     1
  9
$DIMPOST
  1

  9
$DIMAPOST
  1

  9
$DIMALT
 70
     0
  9
$DIMALTD
 70
     2
  9
$DIMALTF
 40
25.4
  9
$DIMLFAC
 40
1.0
  9
$DIMTOFL
 70
     0
  9
$DIMTVP
 40
0.0
  9
$DIMTIX
 70
     0
  9
$DIMSOXD
 70
     0
  9
$DIMSAH
 70
     0
  9
$DIMBLK1
  1

  9
$DIMBLK2
  1

  9
$DIMSTYLE
  2
Standard
  9
$DIMCLRD
 70
     0
  9
$DIMCLRE
 70
     0
  9
$DIMCLRT
 70
     0
  9
$DIMTFAC
 40
1.0
  9
$DIMGAP
 40
0.09
  9
$DIMJUST
 70
     0
  9
$DIMSD1
 70
     0
  9
$DIMSD2
 70
     0
  9
$DIMTOLJ
 70
     1
  9
$DIMTZIN
 70
     0
  9
$DIMALTZ
 70
     0
  9
$DIMALTTZ
 70
     0
  9
$DIMUPT
 70
     0
  9
$DIMDEC
 70
     4
  9
$DIMTDEC
 70
     4
  9
$DIMALTU
 70
     2
  9
$DIMALTTD
 70
     2
  9
$DIMTXSTY
  7
Standard
  9
$DIMAUNIT
 70
     0
  9
$DIMADEC
 70
     0
  9
$DIMALTRND
 40
0.0
  9
$DIMAZIN
 70
     0
  9
$DIMDSEP
 70
    46
  9
$DIMATFIT
 70
     3
  9
$DIMFRAC
 70
     0
  9
$DIMLDRBLK
  1

  9
$DIMLUNIT
 70
     2
  9
$DIMLWD
 70
    -2
  9
$DIMLWE
 70
    -2
  9
$DIMTMOVE
 70
     0
  9
$LUNITS
 70
     2
  9
$LUPREC
 70
     4
  9
$SKETCHINC
 40
0.1
  9
$FILLETRAD
 40
0.5
  9
$AUNITS
 70
     0
  9
$AUPREC
 70
     0
  9
$MENU
  1
.
  9
$ELEVATION
 40
0.0
  9
$PELEVATION
 40
0.0
  9
$THICKNESS
 40
0.0
  9
$LIMCHECK
 70
     0
  9
$CHAMFERA
 40
0.5
  9
$CHAMFERB
 40
0.5
  9
$CHAMFERC
 40
1.0
  9
$CHAMFERD
 40
0.0
  9
$SKPOLY
 70
     0
  9
$TDCREATE
 40
2457185.749500602
  9
$TDUCREATE
 40
2457185.374500602
  9
$TDUPDATE
 40
2457185.749501863
  9
$TDUUPDATE
 40
2457185.374501863
  9
$TDINDWG
 40
0.0000000116
  9
$TDUSRTIMER
 40
0.0000000116
  9
$USRTIMER
 70
     1
  9
$ANGBASE
 50
0.0
  9
$ANGDIR
 70
     0
  9
$PDMODE
 70
     0
  9
$PDSIZE
 40
0.0
  9
$PLINEWID
 40
0.0
  9
$SPLFRAME
 70
     0
  9
$SPLINETYPE
 70
     6
  9
$SPLINESEGS
 70
     8
  9
$HANDSEED
  5
29D
  9
$SURFTAB1
 70
     6
  9
$SURFTAB2
 70
     6
  9
$SURFTYPE
 70
     6
  9
$SURFU
 70
     6
  9
$SURFV
 70
     6
  9
$UCSBASE
  2

  9
$UCSNAME
  2

  9
$UCSORG
 10
0.0
 20
0.0
 30
0.0
  9
$UCSXDIR
 10
1.0
 20
0.0
 30
0.0
  9
$UCSYDIR
 10
0.0
 20
1.0
 30
0.0
  9
$UCSORTHOREF
  2

  9
$UCSORTHOVIEW
 70
     0
  9
$UCSORGTOP
 10
0.0
 20
0.0
 30
0.0
  9
$UCSORGBOTTOM
 10
0.0
 20
0.0
 30
0.0
  9
$UCSORGLEFT
 10
0.0
 20
0.0
 30
0.0
  9
$UCSORGRIGHT
 10
0.0
 20
0.0
 30
0.0
  9
$UCSORGFRONT
 10
0.0
 20
0.0
 30
0.0
  9
$UCSORGBACK
 10
0.0
 20
0.0
 30
0.0
  9
$PUCSBASE
  2

  9
$PUCSNAME
  2

  9
$PUCSORG
 10
0.0
 20
0.0
 30
0.0
  9
$PUCSXDIR
 10
1.0
 20
0.0
 30
0.0
  9
$PUCSYDIR
 10
0.0
 20
1.0
 30
0.0
  9
$PUCSORTHOREF
  2

  9
$PUCSORTHOVIEW
 70
     0
  9
$PUCSORGTOP
 10
0.0
 20
0.0
 30
0.0
  9
$PUCSORGBOTTOM
 10
0.0
 20
0.0
 30
0.0
  9
$PUCSORGLEFT
 10
0.0
 20
0.0
 30
0.0
  9
$PUCSORGRIGHT
 10
0.0
 20
0.0
 30
0.0
  9
$PUCSORGFRONT
 10
0.0
 20
0.0
 30
0.0
  9
$PUCSORGBACK
 10
0.0
 20
0.0
 30
0.0
  9
$USERI1
 70
     0
  9
$USERI2
 70
     0
  9
$USERI3
 70
     0
  9
$USERI4
 70
     0
  9
$USERI5
 70
     0
  9
$USERR1
 40
18.1
  9
$USERR2
 40
0.0
  9
$USERR3
 40
0.0
  9
$USERR4
 40
0.0
  9
$USERR5
 40
0.0
  9
$WORLDVIEW
 70
     1
  9
$SHADEDGE
 70
     3
  9
$SHADEDIF
 70
    70
  9
$TILEMODE
 70
     1
  9
$MAXACTVP
 70
    64
  9
$PINSBASE
 10
0.0
 20
0.0
 30
0.0
  9
$PLIMCHECK
 70
     0
  9
$PEXTMIN
 10
1.00000000000000E+20
 20
1.00000000000000E+20
 30
1.00000000000000E+20
  9
$PEXTMAX
 10
-1.00000000000000E+20
 20
-1.00000000000000E+20
 30
-1.00000000000000E+20
  9
$PLIMMIN
 10
0.0
 20
0.0
  9
$PLIMMAX
 10
12.0
 20
9.0
  9
$UNITMODE
 70
     0
  9
$VISRETAIN
 70
     1
  9
$PLINEGEN
 70
     0
  9
$PSLTSCALE
 70
     1
  9
$TREEDEPTH
 70
  3020
  9
$CMLSTYLE
  2
Standard
  9
$CMLJUST
 70
     0
  9
$CMLSCALE
 40
1.0
  9
$PROXYGRAPHICS
 70
     1
  9
$MEASUREMENT
 70
     1
  9
$CELWEIGHT
370
    -1
  9
$ENDCAPS
280
     0
  9
$JOINSTYLE
280
     0
  9
$LWDISPLAY
290
     0
  9
$INSUNITS
 70
     4
  9
$HYPERLINKBASE
  1

  9
$STYLESHEET
  1

  9
$XEDIT
290
     1
  9
$CEPSNTYPE
380
     0
  9
$PSTYLEMODE
290
     1
  9
$FINGERPRINTGUID
  2
{713228E1-1B58-4425-BB59-F973A9C80872}
  9
$VERSIONGUID
  2
{FAEB1C32-E019-11D5-929B-00C0DF256EC4}
  9
$EXTNAMES
290
     1
  9
$PSVPSCALE
 40
0.0
  9
$OLESTARTUP
290
     0
  0
ENDSEC
  0
SECTION
  2
CLASSES
  0
CLASS
  1
ACDBDICTIONARYWDFLT
  2
AcDbDictionaryWithDefault
  3
ObjectDBX Classes
 90
        0
280
     0
281
     0
  0
CLASS
  1
VISUALSTYLE
  2
AcDbVisualStyle
  3
ObjectDBX Classes
 90
     4095
280
     0
281
     0
  0
CLASS
  1
MATERIAL
  2
AcDbMaterial
  3
ObjectDBX Classes
 90
     1153
280
     0
281
     0
  0
CLASS
  1
DICTIONARYVAR
  2
AcDbDictionaryVar
  3
ObjectDBX Classes
 90
        0
280
     0
281
     0
  0
CLASS
  1
ACDBPLACEHOLDER
  2
AcDbPlaceHolder
  3
ObjectDBX Classes
 90
        0
280
     0
281
     0
  0
CLASS
  1
LAYOUT
  2
AcDbLayout
  3
ObjectDBX Classes
 90
        0
280
     0
281
     0
  0
ENDSEC
  0
SECTION
  2
TABLES
  0
TABLE
  2
VPORT
  5
8
330
0
100
AcDbSymbolTable
 70
     1
  0
VPORT
  5
29
330
8
100
AcDbSymbolTableRecord
100
AcDbViewportTableRecord
  2
*Active
 70
     0
 10
0.0
 20
0.0
 11
1.0
 21
1.0
 12
367.5
 22
519.75
 13
0.0
 23
0.0
 14
0.5
 24
0.5
 15
0.5
 25
0.5
 16
0.0
 26
0.0
 36
1.0
 17
0.0
 27
0.0
 37
0.0
 40
1143.45
 41
1.60267857142857
 42
50.0
 43
0.0
 44
0.0
 50
0.0
 51
0.0
 71
     0
 72
   100
 73
     1
 74
     3
 75
     0
 76
     0
 77
     0
 78
     0
281
     0
 65
     1
110
0.0
120
0.0
130
0.0
111
1.0
121
0.0
131
0.0
112
0.0
122
1.0
132
0.0
 79
     0
146
0.0
  0
ENDTAB
  0
TABLE
  2
LTYPE
  5
5
330
0
100
AcDbSymbolTable
 70
     8
  0
LTYPE
  5
14
330
5
100
AcDbSymbolTableRecord
100
AcDbLinetypeTableRecord
  2
ByBlock
 70
     0
  3

 72
    65
 73
     0
 40
0.0
  0
LTYPE
  5
15
330
5
100
AcDbSymbolTableRecord
100
AcDbLinetypeTableRecord
  2
ByLayer
 70
     0
  3

 72
    65
 73
     0
 40
0.0
  0
LTYPE
  5
16
330
5
100
AcDbSymbolTableRecord
100
AcDbLinetypeTableRecord
  2
Continuous
 70
     0
  3
Solid line
 72
    65
 73
     0
 40
0.0
  0
LTYPE
  5
3F
330
5
100
AcDbSymbolTableRecord
100
AcDbLinetypeTableRecord
  2
DASHED
 70
     0
  3
Dashed
 72
    65
 73
     2
 40
15.0
 49
7.0
 74
     0
 49
-8.0
 74
     0
  0
LTYPE
  5
40
330
5
100
AcDbSymbolTableRecord
100
AcDbLinetypeTableRecord
  2
DOTTED
 70
     0
  3
Dotted
 72
    65
 73
     2
 40
1.0
 49
0.0
 74
     0
 49
-1.0
 74
     0
  0
LTYPE
  5
41
330
5
100
AcDbSymbolTableRecord
100
AcDbLinetypeTableRecord
  2
DOT_CENTER
 70
     0
  3
Dot_Center
 72
    65
 73
     4
 40
14.0
 49
12.0
 74
     0
 49
-1.0
 74
     0
 49
0.0
 74
     0
 49
-1.0
 74
     0
  0
LTYPE
  5
42
330
5
100
AcDbSymbolTableRecord
100
AcDbLinetypeTableRecord
  2
LONG_DASHED
 70
     0
  3
Long_Dashed
 72
    65
 73
     2
 40
15.0
 49
10.0
 74
     0
 49
-5.0
 74
     0
  0
LTYPE
  5
43
330
5
100
AcDbSymbolTableRecord
100
AcDbLinetypeTableRecord
  2
DASH_CENTER
 70
     0
  3
Dash_Center
 72
    65
 73
     4
 40
14.0
 49
11.0
 74
     0
 49
-1.0
 74
     0
 49
1.0
 74
     0
 49
-1.0
 74
     0
  0
LTYPE
  5
44
330
5
100
AcDbSymbolTableRecord
100
AcDbLinetypeTableRecord
  2
PHANTOM
 70
     0
  3
Phantom
 72
    65
 73
     6
 40
13.0
 49
10.0
 74
     0
 49
-1.0
 74
     0
 49
0.0
 74
     0
 49
-1.0
 74
     0
 49
0.0
 74
     0
 49
-1.0
 74
     0
  0
LTYPE
  5
45
330
5
100
AcDbSymbolTableRecord
100
AcDbLinetypeTableRecord
  2
CENTER_DASH_DASH
 70
     0
  3
Center_Dash_Dash
 72
    65
 73
     6
 40
14.0
 49
9.0
 74
     0
 49
-1.0
 74
     0
 49
1.0
 74
     0
 49
-1.0
 74
     0
 49
1.0
 74
     0
 49
-1.0
 74
     0
  0
ENDTAB
  0
TABLE
  2
LAYER
  5
2
330
0
100
AcDbSymbolTable
 70
     2
  0
LAYER
  5
10
330
2
100
AcDbSymbolTableRecord
100
AcDbLayerTableRecord
  2
0
 70
     0
 62
     7
  6
Continuous
370
    -3
390
F
  0
LAYER
  5
46
330
2
100
AcDbSymbolTableRecord
100
AcDbLayerTableRecord
  2
1
 70
     0
 62
     7
  6
Continuous
370
    -3
390
F
  0
ENDTAB
  0
TABLE
  2
STYLE
  5
3
330
0
100
AcDbSymbolTable
 70
     3
  0
STYLE
  5
11
330
3
100
AcDbSymbolTableRecord
100
AcDbTextStyleTableRecord
  2
Standard
 70
     0
 40
0.0
 41
1.0
 50
0.0
 71
     0
 42
0.2
  3
txt
  4

  0
STYLE
  5
1FA
330
3
100
AcDbSymbolTableRecord
100
AcDbTextStyleTableRecord
  2
CONVERTER_11
 70
     0
 40
0.0
 41
0.89
 50
0.0
 71
     0
 42
0.2
  3
MS Mincho.ttf
  4

1001
ACAD
1000
MS Mincho
1071
    32785
  0
STYLE
  5
21B
330
3
100
AcDbSymbolTableRecord
100
AcDbTextStyleTableRecord
  2
CONVERTER_12
 70
     0
 40
0.0
 41
0.9
 50
0.0
 71
     0
 42
0.2
  3
txt.shx
  4

  0
ENDTAB
  0
TABLE
  2
VIEW
  5
6
330
0
100
AcDbSymbolTable
 70
     0
  0
ENDTAB
  0
TABLE
  2
UCS
  5
7
330
0
100
AcDbSymbolTable
 70
     0
  0
ENDTAB
  0
TABLE
  2
APPID
  5
9
330
0
100
AcDbSymbolTable
 70
     1
  0
APPID
  5
12
330
9
100
AcDbSymbolTableRecord
100
AcDbRegAppTableRecord
  2
ACAD
 70
     0
  0
ENDTAB
  0
TABLE
  2
DIMSTYLE
  5
A
330
0
100
AcDbSymbolTable
 70
     8
100
AcDbDimStyleTable
  0
DIMSTYLE
105
27
330
A
100
AcDbSymbolTableRecord
100
AcDbDimStyleTableRecord
  2
Standard
 70
     0
178
     0
340
11
  0
DIMSTYLE
105
22E
102
{ACAD_REACTORS
330
22F
102
}
330
A
100
AcDbSymbolTableRecord
100
AcDbDimStyleTableRecord
  2
ME10_DIM_10
 70
     0
 41
12.25
 42
0.0
 44
3.5
 73
     0
 74
     0
 77
     1
 78
     8
140
12.25
147
3.5
172
     1
173
     1
174
     1
175
     1
176
     2
177
     2
271
     2
178
     7
271
     2
340
21B
344
22B
  0
DIMSTYLE
105
239
102
{ACAD_REACTORS
330
23A
102
}
330
A
100
AcDbSymbolTableRecord
100
AcDbDimStyleTableRecord
  2
ME10_DIM_11
 70
     0
 41
12.25
 42
0.0
 44
3.5
 73
     0
 74
     0
 77
     1
 78
     8
140
12.25
147
3.5
172
     1
173
     1
174
     1
175
     1
176
     2
177
     2
271
     2
178
     7
271
     2
340
1FA
  0
DIMSTYLE
105
244
102
{ACAD_REACTORS
330
245
102
}
330
A
100
AcDbSymbolTableRecord
100
AcDbDimStyleTableRecord
  2
ME10_DIM_12
 70
     0
 41
12.25
 42
0.0
 44
3.5
 73
     0
 74
     0
 77
     1
 78
     8
140
12.25
147
3.5
172
     1
173
     1
174
     1
175
     1
176
     2
177
     2
271
     2
178
     7
271
     2
340
21B
  0
DIMSTYLE
105
24F
102
{ACAD_REACTORS
330
250
102
}
330
A
100
AcDbSymbolTableRecord
100
AcDbDimStyleTableRecord
  2
ME10_DIM_13
 70
     0
  3
{\Fgdt;n}<>
 41
12.25
 42
0.0
 44
3.5
 73
     0
 74
     0
 77
     1
 78
     8
140
12.25
147
3.5
172
     1
173
     1
174
     1
175
     1
176
     2
177
     2
271
     2
178
     7
271
     2
340
21B
  0
DIMSTYLE
105
25A
102
{ACAD_REACTORS
330
25B
102
}
330
A
100
AcDbSymbolTableRecord
100
AcDbDimStyleTableRecord
  2
ME10_DIM_14
 70
     0
 41
12.25
 42
0.0
 44
3.5
 73
     0
 74
     0
 77
     1
 78
     8
140
12.25
147
3.5
172
     1
173
     1
174
     1
175
     1
176
     2
177
     2
271
     2
178
     7
271
     2
340
21B
  0
DIMSTYLE
105
265
102
{ACAD_REACTORS
330
266
102
}
330
A
100
AcDbSymbolTableRecord
100
AcDbDimStyleTableRecord
  2
ME10_DIM_15
 70
     0
 41
12.25
 42
0.0
 44
3.5
 73
     0
 74
     0
 77
     1
 78
     8
140
12.25
147
3.5
172
     1
173
     1
174
     1
175
     1
176
     2
177
     2
271
     2
178
     7
271
     2
340
21B
  0
DIMSTYLE
105
270
102
{ACAD_REACTORS
330
271
102
}
330
A
100
AcDbSymbolTableRecord
100
AcDbDimStyleTableRecord
  2
ME10_DIM_16
 70
     0
 41
12.25
 42
0.0
 44
3.5
 73
     0
 74
     0
 77
     1
 78
     8
140
12.25
147
3.5
172
     1
173
     1
174
     1
175
     1
176
     2
177
     2
271
     2
178
     7
271
     2
340
21B
  0
ENDTAB
  0
TABLE
  2
BLOCK_RECORD
  5
1
330
0
100
AcDbSymbolTable
 70
    17
  0
BLOCK_RECORD
  5
1F
330
1
100
AcDbSymbolTableRecord
100
AcDbBlockTableRecord
  2
*Model_Space
340
22
  0
BLOCK_RECORD
  5
1B
330
1
100
AcDbSymbolTableRecord
100
AcDbBlockTableRecord
  2
*Paper_Space
340
1E
  0
BLOCK_RECORD
  5
23
330
1
100
AcDbSymbolTableRecord
100
AcDbBlockTableRecord
  2
*Paper_Space0
340
26
  0
BLOCK_RECORD
  5
47
330
1
100
AcDbSymbolTableRecord
100
AcDbBlockTableRecord
  2
42-1
340
0
102
{BLKREFS
331
5F
102
}
  0
BLOCK_RECORD
  5
4A
330
1
100
AcDbSymbolTableRecord
100
AcDbBlockTableRecord
  2
37-1-13
340
0
102
{BLKREFS
331
60
102
}
  0
BLOCK_RECORD
  5
4D
330
1
100
AcDbSymbolTableRecord
100
AcDbBlockTableRecord
  2
60-1-16-300
340
0
102
{BLKREFS
331
61
102
}
  0
BLOCK_RECORD
  5
50
330
1
100
AcDbSymbolTableRecord
100
AcDbBlockTableRecord
  2
32-1-16
340
0
102
{BLKREFS
331
62
102
}
  0
BLOCK_RECORD
  5
53
330
1
100
AcDbSymbolTableRecord
100
AcDbBlockTableRecord
  2
A10-0A-13
340
0
102
{BLKREFS
331
63
102
}
  0
BLOCK_RECORD
  5
56
330
1
100
AcDbSymbolTableRecord
100
AcDbBlockTableRecord
  2
36-54-M11
340
0
102
{BLKREFS
331
64
102
}
  0
BLOCK_RECORD
  5
59
330
1
100
AcDbSymbolTableRecord
100
AcDbBlockTableRecord
  2
51-1
340
0
102
{BLKREFS
331
65
102
}
  0
BLOCK_RECORD
  5
5C
330
1
100
AcDbSymbolTableRecord
100
AcDbBlockTableRecord
  2
開示A4
340
0
102
{BLKREFS
331
66
102
}
  0
BLOCK_RECORD
  5
222
330
1
100
AcDbSymbolTableRecord
100
AcDbBlockTableRecord
  2
*D9
340
0
  0
BLOCK_RECORD
  5
22B
330
1
100
AcDbSymbolTableRecord
100
AcDbBlockTableRecord
  2
_NONE
340
0
  0
BLOCK_RECORD
  5
230
330
1
100
AcDbSymbolTableRecord
100
AcDbBlockTableRecord
  2
*D11
340
0
  0
BLOCK_RECORD
  5
23B
330
1
100
AcDbSymbolTableRecord
100
AcDbBlockTableRecord
  2
*D12
340
0
  0
BLOCK_RECORD
  5
246
330
1
100
AcDbSymbolTableRecord
100
AcDbBlockTableRecord
  2
*D13
340
0
  0
BLOCK_RECORD
  5
251
330
1
100
AcDbSymbolTableRecord
100
AcDbBlockTableRecord
  2
*D14
340
0
  0
BLOCK_RECORD
  5
25C
330
1
100
AcDbSymbolTableRecord
100
AcDbBlockTableRecord
  2
*D15
340
0
  0
BLOCK_RECORD
  5
267
330
1
100
AcDbSymbolTableRecord
100
AcDbBlockTableRecord
  2
*D16
340
0
  0
ENDTAB
  0
ENDSEC
  0
SECTION
  2
BLOCKS
  0
BLOCK
  5
20
330
1F
100
AcDbEntity
  8
0
100
AcDbBlockBegin
  2
*Model_Space
 70
     0
 10
0.0
 20
0.0
 30
0.0
  3
*Model_Space
  1

  0
ENDBLK
  5
21
330
1F
100
AcDbEntity
  8
0
100
AcDbBlockEnd
  0
BLOCK
  5
1C
330
1B
100
AcDbEntity
 67
     1
  8
0
100
AcDbBlockBegin
  2
*Paper_Space
 70
     0
 10
0.0
 20
0.0
 30
0.0
  3
*Paper_Space
  1

  0
ENDBLK
  5
1D
330
1B
100
AcDbEntity
 67
     1
  8
0
100
AcDbBlockEnd
  0
BLOCK
  5
24
330
23
100
AcDbEntity
  8
0
100
AcDbBlockBegin
  2
*Paper_Space0
 70
     0
 10
0.0
 20
0.0
 30
0.0
  3
*Paper_Space0
  1

  0
ENDBLK
  5
25
330
23
100
AcDbEntity
  8
0
100
AcDbBlockEnd
  0
BLOCK
  5
48
330
47
100
AcDbEntity
  8
0
100
AcDbBlockBegin
  2
42-1
 70
     0
 10
434.7713083419232
 20
195.3241423355146
 30
0.0
  3
42-1
  1

  0
LINE
  5
67
330
47
100
AcDbEntity
  8
1
  6
Continuous
 62
     2
100
AcDbLine
 10
169.8592134632319
 20
403.0908903566602
 30
0.0
 11
169.8592134632319
 21
404.3561294472706
 31
0.0
  0
LINE
  5
68
330
47
100
AcDbEntity
  8
1
  6
Continuous
 62
     2
100
AcDbLine
 10
170.8592134632319
 20
402.8313541329452
 30
0.0
 11
170.8592134632319
 21
404.5994446570034
 31
0.0
  0
LINE
  5
69
330
47
100
AcDbEntity
  8
1
  6
Continuous
 62
     2
100
AcDbLine
 10
171.8592134632319
 20
402.4744918253372
 30
0.0
 11
171.8592134632319
 21
404.8103178387718
 31
0.0
  0
LINE
  5
6A
330
47
100
AcDbEntity
  8
1
  6
Continuous
 62
     2
100
AcDbLine
 10
172.8592134632319
 20
402.279839657551
 30
0.0
 11
172.8592134632319
 21
404.9238649366471
 31
0.0
  0
LINE
  5
6B
330
47
100
AcDbEntity
  8
1
  6
Continuous
 62
     2
100
AcDbLine
 10
173.8592134632319
 20
402.1137913450993
 30
0.0
 11
173.8592134632319
 21
405.1137913450993
 31
0.0
  0
LINE
  5
6C
330
47
100
AcDbEntity
  8
1
  6
Continuous
 62
     2
100
AcDbLine
 10
174.859213463232
 20
402.1137913450993
 30
0.0
 11
174.859213463232
 21
405.1137913450993
 31
0.0
  0
LINE
  5
6D
330
47
100
AcDbEntity
  8
1
  6
Continuous
 62
     7
100
AcDbLine
 10
174.859213463232
 20
405.3831135441226
 30
0.0
 11
175.859213463232
 21
405.1137913450993
 31
0.0
  0
LINE
  5
6E
330
47
100
AcDbEntity
  8
1
  6
Continuous
 62
     7
100
AcDbLine
 10
175.859213463232
 20
405.1137913450993
 30
0.0
 11
175.859213463232
 21
402.1137913450993
 31
0.0
  0
LINE
  5
6F
330
47
100
AcDbEntity
  8
1
  6
Continuous
 62
     7
100
AcDbLine
 10
161.859213463232
 20
402.1137913450993
 30
0.0
 11
161.859213463232
 21
405.1137913450993
 31
0.0
  0
LINE
  5
70
330
47
100
AcDbEntity
  8
1
  6
Continuous
 62
     7
100
AcDbLine
 10
161.859213463232
 20
405.1137913450993
 30
0.0
 11
162.8592134632319
 21
405.3831135441226
 31
0.0
  0
LINE
  5
71
330
47
100
AcDbEntity
  8
1
  6
Continuous
 62
     2
100
AcDbLine
 10
162.859213463232
 20
405.1137913450993
 30
0.0
 11
162.859213463232
 21
402.1137913450993
 31
0.0
  0
LINE
  5
72
330
47
100
AcDbEntity
  8
1
  6
Continuous
 62
     7
100
AcDbLine
 10
161.859213463232
 20
402.1137913450993
 30
0.0
 11
175.859213463232
 21
402.1137913450993
 31
0.0
  0
LINE
  5
73
330
47
100
AcDbEntity
  8
1
  6
Continuous
 62
     2
100
AcDbLine
 10
163.859213463232
 20
405.1137913450993
 30
0.0
 11
163.859213463232
 21
402.1137913450993
 31
0.0
  0
LINE
  5
74
330
47
100
AcDbEntity
  8
1
  6
Continuous
 62
     2
100
AcDbLine
 10
164.859213463232
 20
404.9238649366471
 30
0.0
 11
164.859213463232
 21
402.279839657551
 31
0.0
  0
LINE
  5
75
330
47
100
AcDbEntity
  8
1
  6
Continuous
 62
     2
100
AcDbLine
 10
165.859213463232
 20
404.8103178387718
 30
0.0
 11
165.859213463232
 21
402.4744918253372
 31
0.0
  0
LINE
  5
76
330
47
100
AcDbEntity
  8
1
  6
Continuous
 62
     2
100
AcDbLine
 10
166.859213463232
 20
404.5994446570034
 30
0.0
 11
166.859213463232
 21
402.8313541329452
 31
0.0
  0
LINE
  5
77
330
47
100
AcDbEntity
  8
1
  6
Continuous
 62
     2
100
AcDbLine
 10
167.859213463232
 20
404.3561294472706
 30
0.0
 11
167.859213463232
 21
403.0908903566602
 31
0.0
  0
LINE
  5
78
330
47
100
AcDbEntity
  8
1
  6
Continuous
 62
     7
100
AcDbLine
 10
163.109213463232
 20
405.4435570653031
 30
0.0
 11
174.6092134632319
 21
405.4435570653031
 31
0.0
  0
LINE
  5
79
330
47
100
AcDbEntity
  8
1
  6
Continuous
 62
     7
100
AcDbLine
 10
161.859213463232
 20
405.1137913450993
 30
0.0
 11
175.859213463232
 21
405.1137913450993
 31
0.0
  0
LINE
  5
7A
330
47
100
AcDbEntity
  8
1
  6
Continuous
 62
     2
100
AcDbLine
 10
583.8755684285265
 20
403.0908903566602
 30
0.0
 11
583.8755684285265
 21
404.3561294472706
 31
0.0
  0
LINE
  5
7B
330
47
100
AcDbEntity
  8
1
  6
Continuous
 62
     2
100
AcDbLine
 10
584.8755684285265
 20
402.8313541329452
 30
0.0
 11
584.8755684285265
 21
404.5994446570034
 31
0.0
  0
LINE
  5
7C
330
47
100
AcDbEntity
  8
1
  6
Continuous
 62
     2
100
AcDbLine
 10
585.8755684285265
 20
402.4744918253372
 30
0.0
 11
585.8755684285265
 21
404.8103178387718
 31
0.0
  0
LINE
  5
7D
330
47
100
AcDbEntity
  8
1
  6
Continuous
 62
     2
100
AcDbLine
 10
586.8755684285265
 20
402.279839657551
 30
0.0
 11
586.8755684285265
 21
404.9238649366471
 31
0.0
  0
LINE
  5
7E
330
47
100
AcDbEntity
  8
1
  6
Continuous
 62
     2
100
AcDbLine
 10
587.8755684285265
 20
402.1137913450993
 30
0.0
 11
587.8755684285265
 21
405.1137913450993
 31
0.0
  0
LINE
  5
7F
330
47
100
AcDbEntity
  8
1
  6
Continuous
 62
     2
100
AcDbLine
 10
588.8755684285265
 20
402.1137913450993
 30
0.0
 11
588.8755684285265
 21
405.1137913450993
 31
0.0
  0
LINE
  5
80
330
47
100
AcDbEntity
  8
1
  6
Continuous
 62
     7
100
AcDbLine
 10
588.8755684285265
 20
405.3831135441226
 30
0.0
 11
589.8755684285265
 21
405.1137913450993
 31
0.0
  0
LINE
  5
81
330
47
100
AcDbEntity
  8
1
  6
Continuous
 62
     7
100
AcDbLine
 10
589.8755684285265
 20
405.1137913450993
 30
0.0
 11
589.8755684285265
 21
402.1137913450993
 31
0.0
  0
LINE
  5
82
330
47
100
AcDbEntity
  8
1
  6
Continuous
 62
     7
100
AcDbLine
 10
575.8755684285265
 20
402.1137913450993
 30
0.0
 11
575.8755684285265
 21
405.1137913450993
 31
0.0
  0
LINE
  5
83
330
47
100
AcDbEntity
  8
1
  6
Continuous
 62
     7
100
AcDbLine
 10
575.8755684285265
 20
405.1137913450993
 30
0.0
 11
576.8755684285265
 21
405.3831135441226
 31
0.0
  0
LINE
  5
84
330
47
100
AcDbEntity
  8
1
  6
Continuous
 62
     2
100
AcDbLine
 10
576.8755684285265
 20
405.1137913450993
 30
0.0
 11
576.8755684285265
 21
402.1137913450993
 31
0.0
  0
LINE
  5
85
330
47
100
AcDbEntity
  8
1
  6
Continuous
 62
     7
100
AcDbLine
 10
575.8755684285265
 20
402.1137913450993
 30
0.0
 11
589.8755684285265
 21
402.1137913450993
 31
0.0
  0
LINE
  5
86
330
47
100
AcDbEntity
  8
1
  6
Continuous
 62
     2
100
AcDbLine
 10
577.8755684285265
 20
405.1137913450993
 30
0.0
 11
577.8755684285265
 21
402.1137913450993
 31
0.0
  0
LINE
  5
87
330
47
100
AcDbEntity
  8
1
  6
Continuous
 62
     2
100
AcDbLine
 10
578.8755684285265
 20
404.9238649366471
 30
0.0
 11
578.8755684285265
 21
402.279839657551
 31
0.0
  0
LINE
  5
88
330
47
100
AcDbEntity
  8
1
  6
Continuous
 62
     2
100
AcDbLine
 10
579.8755684285265
 20
404.8103178387718
 30
0.0
 11
579.8755684285265
 21
402.4744918253372
 31
0.0
  0
LINE
  5
89
330
47
100
AcDbEntity
  8
1
  6
Continuous
 62
     2
100
AcDbLine
 10
580.8755684285265
 20
404.5994446570034
 30
0.0
 11
580.8755684285265
 21
402.8313541329452
 31
0.0
  0
LINE
  5
8A
330
47
100
AcDbEntity
  8
1
  6
Continuous
 62
     2
100
AcDbLine
 10
581.8755684285265
 20
404.3561294472706
 30
0.0
 11
581.8755684285265
 21
403.0908903566602
 31
0.0
  0
LINE
  5
8B
330
47
100
AcDbEntity
  8
1
  6
Continuous
 62
     7
100
AcDbLine
 10
577.1255684285265
 20
405.4435570653031
 30
0.0
 11
588.6255684285265
 21
405.4435570653031
 31
0.0
  0
LINE
  5
8C
330
47
100
AcDbEntity
  8
1
  6
Continuous
 62
     7
100
AcDbLine
 10
575.8755684285265
 20
405.1137913450993
 30
0.0
 11
589.8755684285265
 21
405.1137913450993
 31
0.0
  0
ARC
  5
8D
330
47
100
AcDbEntity
  8
1
  6
Continuous
 62
     7
100
AcDbCircle
 10
168.859213463232
 20
381.1137913450993
 30
0.0
 40
25.0000000000001
100
AcDbArc
 50
76.11345963737108
 51
90.0
  0
ARC
  5
8E
330
47
100
AcDbEntity
  8
1
  6
Continuous
 62
     7
100
AcDbCircle
 10
168.859213463232
 20
381.1137913450993
 30
0.0
 40
25.0
100
AcDbArc
 50
90.0
 51
103.8865403626292
  0
ARC
  5
8F
330
47
100
AcDbEntity
  8
1
  6
Continuous
 62
     7
100
AcDbCircle
 10
582.8755684285265
 20
381.1137913450993
 30
0.0
 40
25.0000000000001
100
AcDbArc
 50
76.11345963737108
 51
90.0
  0
ARC
  5
90
330
47
100
AcDbEntity
  8
1
  6
Continuous
 62
     7
100
AcDbCircle
 10
582.8755684285265
 20
381.1137913450993
 30
0.0
 40
25.0
100
AcDbArc
 50
90.0
 51
103.8865403626289
  0
CIRCLE
  5
91
330
47
100
AcDbEntity
  8
1
  6
Continuous
 62
     7
100
AcDbCircle
 10
168.859213463232
 20
797.6136576060047
 30
0.0
 40
6.999999999999886
  0
CIRCLE
  5
92
330
47
100
AcDbEntity
  8
1
  6
Continuous
 62
     7
100
AcDbCircle
 10
168.859213463232
 20
797.6136576060047
 30
0.0
 40
5.749999999999886
  0
ENDBLK
  5
49
330
47
100
AcDbEntity
  8
0
100
AcDbBlockEnd
  0
BLOCK
  5
4B
330
4A
100
AcDbEntity
  8
0
100
AcDbBlockBegin
  2
37-1-13
 70
     0
 10
431.0743382117556
 20
231.1180854549548
 30
0.0
  3
37-1-13
  1

  0
LINE
  5
93
330
4A
100
AcDbEntity
  8
1
  6
PHANTOM
 62
     4
100
AcDbLine
 10
153.2929034081863
 20
797.6136576060046
 30
0.0
 11
184.3559102062295
 21
797.6136576060046
 31
0.0
  0
LINE
  5
94
330
4A
100
AcDbEntity
  8
1
  6
PHANTOM
 62
     4
100
AcDbLine
 10
168.8592134632315
 20
779.6147490355249
 30
0.0
 11
168.8592134632315
 21
815.3186433033953
 31
0.0
  0
LINE
  5
95
330
4A
100
AcDbEntity
  8
1
  6
Continuous
 62
     7
100
AcDbLine
 10
180.9213623285534
 20
789.5666355014732
 30
0.0
 11
179.8835826275104
 21
788.9674731117165
 31
0.0
  0
LINE
  5
96
330
4A
100
AcDbEntity
  8
1
  6
Continuous
 62
     7
100
AcDbLine
 10
169.7970645979099
 20
812.0832959998686
 30
0.0
 11
170.8348442989532
 21
811.4841336101117
 31
0.0
  0
LINE
  5
97
330
4A
100
AcDbEntity
  8
1
  6
Continuous
 62
     7
100
AcDbLine
 10
166.8835826275101
 20
811.4841336101118
 30
0.0
 11
167.9213623285534
 21
812.0832959998686
 31
0.0
  0
LINE
  5
98
330
4A
100
AcDbEntity
  8
1
  6
Continuous
 62
     7
100
AcDbLine
 10
181.8592134632315
 20
792.3893660961855
 30
0.0
 11
181.8592134632315
 21
791.191041316672
 31
0.0
  0
LINE
  5
99
330
4A
100
AcDbEntity
  8
1
  6
Continuous
 62
     7
100
AcDbLine
 10
155.8592134632315
 20
791.191041316672
 30
0.0
 11
155.8592134632315
 21
792.3893660961855
 31
0.0
  0
LINE
  5
9A
330
4A
100
AcDbEntity
  8
1
  6
Continuous
 62
     7
100
AcDbLine
 10
157.8348442989529
 20
788.9674731117165
 30
0.0
 11
156.7970645979099
 21
789.5666355014732
 31
0.0
  0
LINE
  5
9B
330
4A
100
AcDbEntity
  8
1
  6
Continuous
 62
     7
100
AcDbLine
 10
155.859213463232
 20
373.1137913450993
 30
0.0
 11
155.859213463232
 21
380.1845055593708
 31
0.0
  0
LINE
  5
9C
330
4A
100
AcDbEntity
  8
1
  6
Continuous
 62
     7
100
AcDbLine
 10
181.859213463232
 20
380.1845055593708
 30
0.0
 11
181.859213463232
 21
373.1137913450993
 31
0.0
  0
LINE
  5
9D
330
4A
100
AcDbEntity
  8
1
  6
Continuous
 62
     7
100
AcDbLine
 10
168.859213463232
 20
373.1137913450993
 30
0.0
 11
155.859213463232
 21
373.1137913450993
 31
0.0
  0
LINE
  5
9E
330
4A
100
AcDbEntity
  8
1
  6
Continuous
 62
     7
100
AcDbLine
 10
168.859213463232
 20
373.1137913450993
 30
0.0
 11
181.859213463232
 21
373.1137913450993
 31
0.0
  0
LINE
  5
9F
330
4A
100
AcDbEntity
  8
1
  6
Continuous
 62
     7
100
AcDbLine
 10
163.859213463232
 20
387.1137913450993
 30
0.0
 11
162.859213463232
 21
387.1137913450993
 31
0.0
  0
LINE
  5
A0
330
4A
100
AcDbEntity
  8
1
  6
Continuous
 62
     7
100
AcDbLine
 10
168.859213463232
 20
387.1137913450993
 30
0.0
 11
174.859213463232
 21
387.1137913450993
 31
0.0
  0
LINE
  5
A1
330
4A
100
AcDbEntity
  8
1
  6
Continuous
 62
     7
100
AcDbLine
 10
168.859213463232
 20
387.1137913450993
 30
0.0
 11
163.859213463232
 21
387.1137913450993
 31
0.0
  0
LINE
  5
A2
330
4A
100
AcDbEntity
  8
1
  6
Continuous
 62
     7
100
AcDbLine
 10
595.946282642798
 20
373.1137913450993
 30
0.0
 11
569.8048542142551
 21
373.1137913450993
 31
0.0
  0
LINE
  5
A3
330
4A
100
AcDbEntity
  8
1
  6
Continuous
 62
     7
100
AcDbLine
 10
588.8755684285265
 20
387.1137913450993
 30
0.0
 11
576.8755684285265
 21
387.1137913450993
 31
0.0
  0
ARC
  5
A4
330
4A
100
AcDbEntity
  8
1
  6
Continuous
 62
     7
100
AcDbCircle
 10
168.8592134632318
 20
797.6136576060046
 30
0.0
 40
14.49999999999999
100
AcDbArc
 50
86.29155527473004
 51
90.00000000000124
  0
ARC
  5
A5
330
4A
100
AcDbEntity
  8
1
  6
Continuous
 62
     7
100
AcDbCircle
 10
168.8592134632318
 20
797.6136576060046
 30
0.0
 40
14.49999999999986
100
AcDbArc
 50
326.2915552747291
 51
333.7084447252699
  0
ARC
  5
A6
330
4A
100
AcDbEntity
  8
1
  6
Continuous
 62
     7
100
AcDbCircle
 10
168.8592134632318
 20
797.6136576060046
 30
0.0
 40
14.5
100
AcDbArc
 50
90.00000000000124
 51
93.7084447252712
  0
ARC
  5
A7
330
4A
100
AcDbEntity
  8
1
  6
Continuous
 62
     7
100
AcDbCircle
 10
168.8592134632318
 20
797.6136576060046
 30
0.0
 40
14.5000000000003
100
AcDbArc
 50
206.291555274729
 51
213.7084447252701
  0
ARC
  5
A8
330
4A
100
AcDbEntity
  8
1
  6
Continuous
 62
     7
100
AcDbCircle
 10
159.359213463232
 20
376.6137913450993
 30
0.0
 40
4.999999999999972
100
AcDbArc
 50
126.8698976458414
 51
134.4270040008051
  0
ARC
  5
A9
330
4A
100
AcDbEntity
  8
1
  6
Continuous
 62
     7
100
AcDbCircle
 10
142.9527582581172
 20
400.5202465502143
 30
0.0
 40
24.00000000000005
100
AcDbArc
 50
303.9591925000977
 51
326.0408074999021
  0
ARC
  5
AA
330
4A
100
AcDbEntity
  8
1
  6
Continuous
 62
     7
100
AcDbCircle
 10
178.359213463232
 20
376.6137913450993
 30
0.0
 40
5.000000000000057
100
AcDbArc
 50
45.57299599919494
 51
53.13010235415676
  0
ARC
  5
AB
330
4A
100
AcDbEntity
  8
1
  6
Continuous
 62
     7
100
AcDbCircle
 10
194.765668668347
 20
400.5202465502143
 30
0.0
 40
24.00000000000011
100
AcDbArc
 50
213.9591925000976
 51
236.0408074999024
  0
ARC
  5
AC
330
4A
100
AcDbEntity
  8
1
  6
Continuous
 62
     7
100
AcDbCircle
 10
608.7820236336415
 20
400.5202465502143
 30
0.0
 40
24.00000000000011
100
AcDbArc
 50
213.9591925000976
 51
236.0408074999022
  0
ARC
  5
AD
330
4A
100
AcDbEntity
  8
1
  6
Continuous
 62
     7
100
AcDbCircle
 10
592.3755684285265
 20
376.6137913450993
 30
0.0
 40
5.000000000000016
100
AcDbArc
 50
315.5729959991945
 51
53.13010235415781
  0
ARC
  5
AE
330
4A
100
AcDbEntity
  8
1
  6
Continuous
 62
     7
100
AcDbCircle
 10
556.9691132234116
 20
400.5202465502143
 30
0.0
 40
24.00000000000003
100
AcDbArc
 50
303.9591925000976
 51
326.0408074999024
  0
ARC
  5
AF
330
4A
100
AcDbEntity
  8
1
  6
Continuous
 62
     7
100
AcDbCircle
 10
573.3755684285265
 20
376.6137913450993
 30
0.0
 40
5.000000000000091
100
AcDbArc
 50
126.8698976458433
 51
224.4270040008055
  0
SPLINE
  5
B0
330
4A
100
AcDbEntity
  8
1
  6
Continuous
 62
     7
100
AcDbSpline
210
0.0
220
0.0
230
1.0
 70
     8
 71
     3
 72
    29
 73
    25
 74
    23
 42
0.000000001
 43
0.0000000001
 44
0.00000001
 40
0.0
 40
0.0
 40
0.0
 40
0.0
 40
0.6069077071334325
 40
1.212222618922024
 40
1.84266669998103
 40
2.47463189198771
 40
3.102420163134969
 40
3.729333881624555
 40
4.271042929453314
 40
4.812985317241447
 40
5.340107969104043
 40
5.86624891494873
 40
6.263874824440332
 40
6.661485222726748
 40
7.280966483141035
 40
7.902596723210277
 40
8.549168899022842
 40
9.195896755584764
 40
9.72241595671195
 40
10.24911839923914
 40
11.07897535377092
 40
11.90732205839651
 40
12.67331707894434
 40
13.44191268485661
 40
13.44191268485661
 40
13.44191268485661
 40
13.44191268485661
 10
582.8755684285265
 20
380.1137913450993
 30
0.0
 10
582.6735086009809
 20
380.1039159717353
 30
0.0
 10
582.2699192413037
 20
380.0841911305227
 30
0.0
 10
581.6582136932199
 20
380.0204007823012
 30
0.0
 10
581.0487966320777
 20
379.8862174845607
 30
0.0
 10
580.4503904570997
 20
379.6857618650345
 30
0.0
 10
579.8758279256258
 20
379.427200748804
 30
0.0
 10
579.3609301282572
 20
379.1182713596997
 30
0.0
 10
578.9119112545011
 20
378.764454435755
 30
0.0
 10
578.5379696522032
 20
378.3764297682384
 30
0.0
 10
578.2310037508965
 20
377.9394993651631
 30
0.0
 10
578.0236950934569
 20
377.4992853987271
 30
0.0
 10
577.9077925052369
 20
377.0725762786743
 30
0.0
 10
577.8570893003591
 20
376.6016608368723
 30
0.0
 10
577.9175456236003
 20
376.0526862446314
 30
0.0
 10
578.1304928552297
 20
375.4549401793096
 30
0.0
 10
578.4777297923819
 20
374.9133379341691
 30
0.0
 10
578.8990875179621
 20
374.472729966779
 30
0.0
 10
579.3465010079424
 20
374.1228560438096
 30
0.0
 10
579.8823373934877
 20
373.7939456614681
 30
0.0
 10
580.5472284428735
 20
373.4902070410663
 30
0.0
 10
581.3268895035101
 20
373.2654371753497
 30
0.0
 10
582.1092951196143
 20
373.161050375959
 30
0.0
 10
582.619855585788
 20
373.129627885453
 30
0.0
 10
582.8755684285265
 20
373.1138900211863
 30
0.0
 11
582.8755684285265
 21
380.1137913450993
 31
0.0
 11
582.2696824067684
 21
380.078590479337
 31
0.0
 11
581.668239587287
 21
380.0102334872528
 31
0.0
 11
581.0523483755458
 21
379.8755570014284
 31
0.0
 11
580.4528869139972
 21
379.6754921094834
 31
0.0
 11
579.8811881406771
 21
379.4161108712331
 31
0.0
 11
579.344622923664
 21
379.091890916455
 31
0.0
 11
578.9201903848848
 21
378.7552817764739
 31
0.0
 11
578.5454414096043
 21
378.3637913450993
 31
0.0
 11
578.2438855236444
 21
377.9314461838808
 31
0.0
 11
578.0218652098106
 21
377.4544437982646
 31
0.0
 11
577.9181044926676
 21
377.0705947681349
 31
0.0
 11
577.8763463948468
 21
376.6751832223206
 31
0.0
 11
577.9409400064682
 21
376.0590787681108
 31
0.0
 11
578.1485581766195
 21
375.4731445978339
 31
0.0
 11
578.4939307774746
 21
374.9265429639199
 31
0.0
 11
578.9382049040773
 21
374.4565669838396
 31
0.0
 11
579.3520753228521
 21
374.1310923362685
 31
0.0
 11
579.8001141700763
 21
373.8541868380888
 31
0.0
 11
580.5548748767139
 21
373.5092247499114
 31
0.0
 11
581.3510311871019
 21
373.280547260165
 31
0.0
 11
582.1090403177013
 21
373.1702271311504
 31
0.0
 11
582.8755684285265
 21
373.1138900211863
 31
0.0
  0
SPLINE
  5
B1
330
4A
100
AcDbEntity
  8
1
  6
Continuous
 62
     7
100
AcDbSpline
210
0.0
220
0.0
230
1.0
 70
    11
 71
     3
 72
    79
 73
    75
 74
    73
 42
0.000000001
 43
0.0000000001
 44
0.00000001
 40
0.0
 40
0.0
 40
0.0
 40
0.0
 40
0.2803981055169563
 40
0.5607977780792508
 40
0.8427454767813627
 40
1.124697465942805
 40
1.409536444711862
 40
1.694381494092027
 40
1.983071303433671
 40
2.271767836809072
 40
2.564776135645346
 40
2.85779084803168
 40
3.15505569206333
 40
3.452325972452601
 40
3.753284820909488
 40
4.05424773638824
 40
4.357919800455075
 40
4.661594361771299
 40
4.966700742337918
 40
5.271807963175652
 40
5.576915184002754
 40
5.882021564538358
 40
6.18569612580256
 40
6.489368189795933
 40
6.790331105179693
 40
7.091289953518705
 40
7.388560233767449
 40
7.685825077633671
 40
7.978839789830407
 40
8.27184808844907
 40
8.560544621579782
 40
8.849234430642504
 40
9.13407947970726
 40
9.418918458106162
 40
9.700870446812745
 40
9.982818144856061
 40
10.26321781600879
 40
10.54361593035219
 40
10.82401404469571
 40
11.10441371584855
 40
11.38636141389185
 40
11.66831340259846
 40
11.95315238099746
 40
12.23799743006212
 40
12.52668723912484
 40
12.81538377225555
 40
13.10839207087417
 40
13.40140678307094
 40
13.6986716269371
 40
13.9959419071859
 40
14.29690075552491
 40
14.59786367090867
 40
14.90153573490207
 40
15.20521029616624
 40
15.51031667670184
 40
15.81542389752894
 40
16.12053111836662
 40
16.42563749893329
 40
16.72931206024946
 40
17.03298412431635
 40
17.33394703979515
 40
17.63490588825199
 40
17.93217616864131
 40
18.22944101267291
 40
18.52245572505925
 40
18.81546402389552
 40
19.10416055727092
 40
19.39285036661256
 40
19.6776954159929
 40
19.96253439476177
 40
20.24448638392321
 40
20.52643408262533
 40
20.80683375518773
 40
21.0872318607048
 40
21.0872318607048
 40
21.0872318607048
 40
21.0872318607048
 10
571.6172381793288
 20
380.1137913450993
 30
0.0
 10
571.5237376392865
 20
380.1112099592931
 30
0.0
 10
571.3367360364847
 20
380.1060471785886
 30
0.0
 10
571.0582516252915
 20
380.0645748300254
 30
0.0
 10
570.7843094281391
 20
379.9986746701836
 30
0.0
 10
570.51638126237
 20
379.9064425612263
 30
0.0
 10
570.2573354744997
 20
379.7893603720973
 30
0.0
 10
570.0081761800826
 20
379.6478840906983
 30
0.0
 10
569.7718661596684
 20
379.4836017448621
 30
0.0
 10
569.5490911655307
 20
379.2971415967834
 30
0.0
 10
569.3426351330246
 20
379.0907171219703
 30
0.0
 10
569.1530223891848
 20
378.8649994276469
 30
0.0
 10
568.9826232130664
 20
378.6227086294017
 30
0.0
 10
568.8319104052705
 20
378.364651136658
 30
0.0
 10
568.7026872685614
 20
378.0938239332653
 30
0.0
 10
568.5954075951961
 20
377.8113070798522
 30
0.0
 10
568.5112530914631
 20
377.5201191093373
 30
0.0
 10
568.4506098174552
 20
377.2217403364957
 30
0.0
 10
568.4140760550088
 20
376.918979364685
 30
0.0
 10
568.4018570240969
 20
376.6137913545022
 30
0.0
 10
568.4140760546586
 20
376.3086033443176
 30
0.0
 10
568.4506098167544
 20
376.005842372491
 30
0.0
 10
568.5112530904084
 20
375.7074635996482
 30
0.0
 10
568.5954075937858
 20
375.4162756290442
 30
0.0
 10
568.7026872667898
 20
375.133758775828
 30
0.0
 10
568.8319104031339
 20
374.862931571532
 30
0.0
 10
568.982623210557
 20
374.6048740819053
 30
0.0
 10
569.1530223862964
 20
374.3625832718491
 30
0.0
 10
569.342635129747
 20
374.136865620687
 30
0.0
 10
569.549091161854
 20
373.9304409856932
 30
0.0
 10
569.7718661555778
 20
373.7439814265451
 30
0.0
 10
570.0081761755597
 20
373.5796968988594
 30
0.0
 10
570.2573354695141
 20
373.4382286558114
 30
0.0
 10
570.5163812568744
 20
373.3211166522275
 30
0.0
 10
570.7843094220083
 20
373.2289947337686
 30
0.0
 10
571.0582516182081
 20
373.1626849682109
 30
0.0
 10
571.3367360312446
 20
373.1227333031212
 30
0.0
 10
571.6172381793286
 20
373.1093203935001
 30
0.0
 10
571.8977403274131
 20
373.1227333031212
 30
0.0
 10
572.1762247404495
 20
373.1626849682108
 30
0.0
 10
572.4501669366496
 20
373.2289947337686
 30
0.0
 10
572.7180951017831
 20
373.3211166522275
 30
0.0
 10
572.977140889144
 20
373.4382286558114
 30
0.0
 10
573.226300183098
 20
373.5796968988594
 30
0.0
 10
573.4626102030797
 20
373.7439814265451
 30
0.0
 10
573.685385196804
 20
373.9304409856931
 30
0.0
 10
573.8918412289104
 20
374.1368656206871
 30
0.0
 10
574.0814539723615
 20
374.362583271849
 30
0.0
 10
574.2518531481007
 20
374.6048740819055
 30
0.0
 10
574.4025659555239
 20
374.8629315715318
 30
0.0
 10
574.5317890918677
 20
375.1337587758282
 30
0.0
 10
574.639068764872
 20
375.4162756290441
 30
0.0
 10
574.7232232682492
 20
375.7074635996482
 30
0.0
 10
574.7838665419033
 20
376.005842372491
 30
0.0
 10
574.8204003039992
 20
376.3086033443175
 30
0.0
 10
574.8326193345606
 20
376.6137913545022
 30
0.0
 10
574.8204003036492
 20
376.9189793646849
 30
0.0
 10
574.7838665412023
 20
377.2217403364958
 30
0.0
 10
574.7232232671947
 20
377.5201191093371
 30
0.0
 10
574.6390687634618
 20
377.8113070798522
 30
0.0
 10
574.5317890900963
 20
378.0938239332654
 30
0.0
 10
574.4025659533872
 20
378.364651136658
 30
0.0
 10
574.2518531455913
 20
378.6227086294018
 30
0.0
 10
574.0814539694729
 20
378.8649994276468
 30
0.0
 10
573.891841225633
 20
379.0907171219704
 30
0.0
 10
573.6853851931269
 20
379.2971415967834
 30
0.0
 10
573.4626101989892
 20
379.483601744862
 30
0.0
 10
573.2263001785751
 20
379.6478840906985
 30
0.0
 10
572.9771408841578
 20
379.789360372097
 30
0.0
 10
572.7180950962876
 20
379.9064425612264
 30
0.0
 10
572.4501669305188
 20
379.9986746701835
 30
0.0
 10
572.1762247333662
 20
380.0645748300254
 30
0.0
 10
571.8977403221729
 20
380.1060471785886
 30
0.0
 10
571.7107387193709
 20
380.1112099592931
 30
0.0
 10
571.6172381793288
 20
380.1137913450993
 30
0.0
 11
571.6172381793288
 21
380.1137913450993
 31
0.0
 11
571.3371581804593
 21
380.1004385598012
 31
0.0
 11
571.0596003720807
 21
380.0606184806421
 31
0.0
 11
570.7855489677017
 21
379.9943588979181
 31
0.0
 11
570.5189061074273
 21
379.90271551785
 31
0.0
 11
570.2593176828912
 21
379.7854675175649
 31
0.0
 11
570.0115841069958
 21
379.6448802583449
 31
0.0
 11
569.7744836223867
 21
379.4801830629929
 31
0.0
 11
569.5530490930519
 21
379.2949468960158
 31
0.0
 11
569.3457657037421
 21
379.0878540191006
 31
0.0
 11
569.1572334199645
 21
378.8635479790022
 31
0.0
 11
568.986144873391
 21
378.6204531483014
 31
0.0
 11
568.836163746668
 21
378.3637913450993
 31
0.0
 11
568.7064869667936
 21
378.0922031251282
 31
0.0
 11
568.5995956127163
 21
377.8108618467392
 31
0.0
 11
568.515229551386
 21
377.5191443631938
 31
0.0
 11
568.4547170211504
 21
377.2215599669336
 31
0.0
 11
568.4181380725873
 21
376.9186542323994
 31
0.0
 11
568.4059300346626
 21
376.6137913450993
 31
0.0
 11
568.4181380725873
 21
376.3089284577994
 31
0.0
 11
568.4547170211504
 21
376.0060227232651
 31
0.0
 11
568.515229551386
 21
375.7084383270049
 31
0.0
 11
568.5995956127163
 21
375.4167208434595
 31
0.0
 11
568.7064869667936
 21
375.1353795650705
 31
0.0
 11
568.836163746668
 21
374.8637913450993
 31
0.0
 11
568.9861448733909
 21
374.6071295418972
 31
0.0
 11
569.1572334199645
 21
374.3640347111964
 31
0.0
 11
569.345765703742
 21
374.1397286710981
 31
0.0
 11
569.5530490930519
 21
373.9326357941829
 31
0.0
 11
569.7744836223868
 21
373.7473996272059
 31
0.0
 11
570.0115841069958
 21
373.5827024318539
 31
0.0
 11
570.2593176828913
 21
373.4421151726339
 31
0.0
 11
570.5189061074273
 21
373.3248671723488
 31
0.0
 11
570.7855489677017
 21
373.2332237922807
 31
0.0
 11
571.0596003720807
 21
373.1669642095566
 31
0.0
 11
571.3371581804593
 21
373.1271441303975
 31
0.0
 11
571.6172381793288
 21
373.1137913450993
 31
0.0
 11
571.8973181781984
 21
373.1271441303975
 31
0.0
 11
572.174875986577
 21
373.1669642095566
 31
0.0
 11
572.448927390956
 21
373.2332237922806
 31
0.0
 11
572.7155702512305
 21
373.3248671723488
 31
0.0
 11
572.9751586757666
 21
373.4421151726339
 31
0.0
 11
573.222892251662
 21
373.5827024318539
 31
0.0
 11
573.4599927362709
 21
373.7473996272059
 31
0.0
 11
573.6814272656059
 21
373.9326357941829
 31
0.0
 11
573.8887106549156
 21
374.1397286710981
 31
0.0
 11
574.0772429386932
 21
374.3640347111964
 31
0.0
 11
574.2483314852667
 21
374.6071295418972
 31
0.0
 11
574.3983126119897
 21
374.8637913450993
 31
0.0
 11
574.5279893918641
 21
375.1353795650705
 31
0.0
 11
574.6348807459415
 21
375.4167208434595
 31
0.0
 11
574.7192468072716
 21
375.708438327005
 31
0.0
 11
574.7797593375074
 21
376.0060227232651
 31
0.0
 11
574.8163382860704
 21
376.3089284577994
 31
0.0
 11
574.8285463239952
 21
376.6137913450993
 31
0.0
 11
574.8163382860704
 21
376.9186542323993
 31
0.0
 11
574.7797593375074
 21
377.2215599669336
 31
0.0
 11
574.7192468072717
 21
377.5191443631938
 31
0.0
 11
574.6348807459415
 21
377.8108618467392
 31
0.0
 11
574.5279893918641
 21
378.0922031251282
 31
0.0
 11
574.3983126119897
 21
378.3637913450993
 31
0.0
 11
574.2483314852667
 21
378.6204531483015
 31
0.0
 11
574.0772429386932
 21
378.8635479790022
 31
0.0
 11
573.8887106549156
 21
379.0878540191006
 31
0.0
 11
573.6814272656059
 21
379.2949468960158
 31
0.0
 11
573.459992736271
 21
379.4801830629929
 31
0.0
 11
573.222892251662
 21
379.6448802583449
 31
0.0
 11
572.9751586757664
 21
379.7854675175648
 31
0.0
 11
572.7155702512305
 21
379.90271551785
 31
0.0
 11
572.448927390956
 21
379.9943588979181
 31
0.0
 11
572.174875986577
 21
380.0606184806421
 31
0.0
 11
571.8973181781984
 21
380.1004385598012
 31
0.0
 11
571.6172381793288
 21
380.1137913450993
 31
0.0
  0
SPLINE
  5
B2
330
4A
100
AcDbEntity
  8
1
  6
Continuous
 62
     7
100
AcDbSpline
210
0.0
220
0.0
230
1.0
 70
     8
 71
     3
 72
    29
 73
    25
 74
    23
 42
0.000000001
 43
0.0000000001
 44
0.00000001
 40
0.0
 40
0.0
 40
0.0
 40
0.0
 40
0.6069077071334391
 40
1.212222618922018
 40
1.842666699980999
 40
2.474631891987823
 40
3.102420163134979
 40
3.729333881624564
 40
4.271042929453324
 40
4.812985317241457
 40
5.340107969104053
 40
5.86624891494874
 40
6.263874824440341
 40
6.661485222726758
 40
7.280966483141056
 40
7.902596723210298
 40
8.549168899022801
 40
9.195896755584723
 40
9.722415956711819
 40
10.24911839923901
 40
11.07897535377069
 40
11.90732205839649
 40
12.67331707894432
 40
13.44191268485659
 40
13.44191268485659
 40
13.44191268485659
 40
13.44191268485659
 10
582.8755684285265
 20
380.1137913450993
 30
0.0
 10
583.0776282560722
 20
380.1039159717353
 30
0.0
 10
583.4812176157493
 20
380.0841911305225
 30
0.0
 10
584.0929231638336
 20
380.0204007823014
 30
0.0
 10
584.7023402249754
 20
379.8862174845609
 30
0.0
 10
585.3007463999537
 20
379.6857618650345
 30
0.0
 10
585.8753089314274
 20
379.427200748804
 30
0.0
 10
586.390206728796
 20
379.1182713596996
 30
0.0
 10
586.839225602552
 20
378.7644544357552
 30
0.0
 10
587.21316720485
 20
378.3764297682383
 30
0.0
 10
587.5201331061567
 20
377.9394993651631
 30
0.0
 10
587.7274417635961
 20
377.499285398727
 30
0.0
 10
587.8433443518165
 20
377.0725762786744
 30
0.0
 10
587.8940475566937
 20
376.6016608368722
 30
0.0
 10
587.8335912334529
 20
376.0526862446315
 30
0.0
 10
587.6206440018235
 20
375.4549401793096
 30
0.0
 10
587.273407064671
 20
374.9133379341691
 30
0.0
 10
586.8520493390912
 20
374.4727299667791
 30
0.0
 10
586.4046358491107
 20
374.1228560438096
 30
0.0
 10
585.8687994635657
 20
373.793945661468
 30
0.0
 10
585.2039084141798
 20
373.4902070410662
 30
0.0
 10
584.4242473535431
 20
373.2654371753497
 30
0.0
 10
583.6418417374389
 20
373.1610503759591
 30
0.0
 10
583.131281271265
 20
373.1296278854529
 30
0.0
 10
582.8755684285265
 20
373.1138900211863
 30
0.0
 11
582.8755684285265
 21
380.1137913450993
 31
0.0
 11
583.4814544502847
 21
380.0785904793369
 31
0.0
 11
584.0828972697661
 21
380.0102334872528
 31
0.0
 11
584.6987884815073
 21
379.8755570014285
 31
0.0
 11
585.298249943056
 21
379.6754921094834
 31
0.0
 11
585.869948716376
 21
379.4161108712331
 31
0.0
 11
586.4065139333891
 21
379.091890916455
 31
0.0
 11
586.8309464721683
 21
378.7552817764739
 31
0.0
 11
587.2056954474488
 21
378.3637913450993
 31
0.0
 11
587.5072513334087
 21
377.9314461838808
 31
0.0
 11
587.7292716472425
 21
377.4544437982646
 31
0.0
 11
587.8330323643855
 21
377.0705947681349
 31
0.0
 11
587.8747904622063
 21
376.6751832223206
 31
0.0
 11
587.8101968505848
 21
376.0590787681108
 31
0.0
 11
587.6025786804335
 21
375.4731445978339
 31
0.0
 11
587.2572060795785
 21
374.9265429639199
 31
0.0
 11
586.8129319529758
 21
374.4565669838396
 31
0.0
 11
586.3990615342011
 21
374.1310923362685
 31
0.0
 11
585.9510226869769
 21
373.8541868380888
 31
0.0
 11
585.1962619803394
 21
373.5092247499114
 31
0.0
 11
584.4001056699512
 21
373.280547260165
 31
0.0
 11
583.6420965393518
 21
373.1702271311504
 31
0.0
 11
582.8755684285265
 21
373.1138900211863
 31
0.0
  0
SPLINE
  5
B3
330
4A
100
AcDbEntity
  8
1
  6
Continuous
 62
     7
100
AcDbSpline
210
0.0
220
0.0
230
1.0
 70
    11
 71
     3
 72
    79
 73
    75
 74
    73
 42
0.000000001
 43
0.0000000001
 44
0.00000001
 40
0.0
 40
0.0
 40
0.0
 40
0.0
 40
0.2803981055170699
 40
0.5607977780793645
 40
0.8427454767814764
 40
1.124697465942811
 40
1.409536444711868
 40
1.694381494092132
 40
1.983071303433683
 40
2.271767836809084
 40
2.564776135645358
 40
2.857790848031692
 40
3.155055692063473
 40
3.452325972452744
 40
3.753284820909482
 40
4.054247736388287
 40
4.357919800455154
 40
4.661594361771401
 40
4.966700742338006
 40
5.271807963175735
 40
5.576915184002832
 40
5.882021564538423
 40
6.18569612580267
 40
6.489368189796043
 40
6.790331105179762
 40
7.091289953518725
 40
7.388560233767576
 40
7.685825077633816
 40
7.978839789830553
 40
8.271848088449216
 40
8.56054462157984
 40
8.849234430642563
 40
9.134079479707419
 40
9.41891845810632
 40
9.700870446812795
 40
9.982818144856111
 40
10.26321781600896
 40
10.54361593035236
 40
10.82401404469587
 40
11.10441371584871
 40
11.38636141389202
 40
11.66831340259862
 40
11.95315238099762
 40
12.23799743006228
 40
12.526687239125
 40
12.81538377225571
 40
13.10839207087434
 40
13.40140678307103
 40
13.69867162693732
 40
13.99594190718606
 40
14.29690075552497
 40
14.59786367090879
 40
14.90153573490216
 40
15.20521029616638
 40
15.51031667670199
 40
15.81542389752908
 40
16.12053111836676
 40
16.42563749893343
 40
16.72931206024962
 40
17.03298412431651
 40
17.33394703979527
 40
17.63490588825211
 40
17.93217616864138
 40
18.22944101267309
 40
18.52245572505943
 40
18.81546402389562
 40
19.10416055727102
 40
19.39285036661267
 40
19.677695415993
 40
19.96253439476187
 40
20.24448638392332
 40
20.52643408262543
 40
20.80683375518784
 40
21.0872318607049
 40
21.0872318607049
 40
21.0872318607049
 40
21.0872318607049
 10
594.1338986777243
 20
380.1137913450993
 30
0.0
 10
594.2273992177663
 20
380.1112099592933
 30
0.0
 10
594.4144008205685
 20
380.1060471785886
 30
0.0
 10
594.6928852317617
 20
380.0645748300254
 30
0.0
 10
594.9668274289141
 20
379.9986746701835
 30
0.0
 10
595.2347555946831
 20
379.9064425612263
 30
0.0
 10
595.4938013825533
 20
379.7893603720972
 30
0.0
 10
595.7429606769707
 20
379.6478840906985
 30
0.0
 10
595.9792706973844
 20
379.4836017448619
 30
0.0
 10
596.2020456915221
 20
379.2971415967833
 30
0.0
 10
596.4085017240286
 20
379.0907171219704
 30
0.0
 10
596.5981144678683
 20
378.8649994276468
 30
0.0
 10
596.768513643987
 20
378.6227086294018
 30
0.0
 10
596.9192264517827
 20
378.364651136658
 30
0.0
 10
597.0484495884917
 20
378.0938239332653
 30
0.0
 10
597.155729261857
 20
377.8113070798523
 30
0.0
 10
597.2398837655901
 20
377.5201191093371
 30
0.0
 10
597.300527039598
 20
377.2217403364958
 30
0.0
 10
597.3370608020446
 20
376.9189793646848
 30
0.0
 10
597.349279832956
 20
376.6137913545023
 30
0.0
 10
597.3370608023948
 20
376.3086033443176
 30
0.0
 10
597.300527040299
 20
376.005842372491
 30
0.0
 10
597.2398837666447
 20
375.7074635996482
 30
0.0
 10
597.1557292632674
 20
375.4162756290442
 30
0.0
 10
597.0484495902632
 20
375.1337587758281
 30
0.0
 10
596.9192264539197
 20
374.8629315715319
 30
0.0
 10
596.7685136464962
 20
374.6048740819052
 30
0.0
 10
596.5981144707569
 20
374.3625832718491
 30
0.0
 10
596.4085017273059
 20
374.1368656206869
 30
0.0
 10
596.2020456951991
 20
373.9304409856932
 30
0.0
 10
595.9792707014755
 20
373.7439814265451
 30
0.0
 10
595.7429606814935
 20
373.5796968988594
 30
0.0
 10
595.4938013875392
 20
373.4382286558114
 30
0.0
 10
595.2347556001785
 20
373.3211166522274
 30
0.0
 10
594.966827435045
 20
373.2289947337687
 30
0.0
 10
594.6928852388451
 20
373.1626849682109
 30
0.0
 10
594.4144008258085
 20
373.1227333031211
 30
0.0
 10
594.1338986777243
 20
373.1093203935001
 30
0.0
 10
593.8533965296401
 20
373.1227333031211
 30
0.0
 10
593.5749121166034
 20
373.1626849682108
 30
0.0
 10
593.3009699204038
 20
373.2289947337686
 30
0.0
 10
593.0330417552697
 20
373.3211166522275
 30
0.0
 10
592.7739959679095
 20
373.4382286558114
 30
0.0
 10
592.524836673955
 20
373.5796968988594
 30
0.0
 10
592.2885266539731
 20
373.7439814265451
 30
0.0
 10
592.0657516602494
 20
373.9304409856931
 30
0.0
 10
591.8592956281427
 20
374.1368656206872
 30
0.0
 10
591.6696828846918
 20
374.3625832718492
 30
0.0
 10
591.4992837089521
 20
374.6048740819051
 30
0.0
 10
591.3485709015291
 20
374.8629315715319
 30
0.0
 10
591.2193477651856
 20
375.1337587758281
 30
0.0
 10
591.1120680921811
 20
375.4162756290442
 30
0.0
 10
591.027913588804
 20
375.7074635996481
 30
0.0
 10
590.9672703151497
 20
376.0058423724911
 30
0.0
 10
590.9307365530535
 20
376.3086033443174
 30
0.0
 10
590.9185175224926
 20
376.6137913545023
 30
0.0
 10
590.9307365534042
 20
376.9189793646848
 30
0.0
 10
590.9672703158504
 20
377.2217403364958
 30
0.0
 10
591.0279135898587
 20
377.5201191093371
 30
0.0
 10
591.1120680935916
 20
377.8113070798522
 30
0.0
 10
591.2193477669566
 20
378.0938239332654
 30
0.0
 10
591.3485709036659
 20
378.3646511366579
 30
0.0
 10
591.4992837114618
 20
378.6227086294018
 30
0.0
 10
591.6696828875802
 20
378.8649994276468
 30
0.0
 10
591.8592956314201
 20
379.0907171219702
 30
0.0
 10
592.0657516639262
 20
379.2971415967835
 30
0.0
 10
592.2885266580638
 20
379.483601744862
 30
0.0
 10
592.5248366784781
 20
379.6478840906985
 30
0.0
 10
592.7739959728949
 20
379.789360372097
 30
0.0
 10
593.0330417607655
 20
379.9064425612264
 30
0.0
 10
593.3009699265344
 20
379.9986746701835
 30
0.0
 10
593.5749121236869
 20
380.0645748300254
 30
0.0
 10
593.8533965348802
 20
380.1060471785886
 30
0.0
 10
594.0403981376821
 20
380.1112099592931
 30
0.0
 10
594.1338986777243
 20
380.1137913450993
 30
0.0
 11
594.1338986777243
 21
380.1137913450993
 31
0.0
 11
594.413978676594
 21
380.1004385598012
 31
0.0
 11
594.6915364849725
 21
380.0606184806421
 31
0.0
 11
594.9655878893515
 21
379.9943588979181
 31
0.0
 11
595.2322307496258
 21
379.90271551785
 31
0.0
 11
595.491819174162
 21
379.7854675175649
 31
0.0
 11
595.7395527500574
 21
379.6448802583449
 31
0.0
 11
595.9766532346664
 21
379.4801830629929
 31
0.0
 11
596.1980877640012
 21
379.2949468960158
 31
0.0
 11
596.405371153311
 21
379.0878540191006
 31
0.0
 11
596.5939034370886
 21
378.8635479790022
 31
0.0
 11
596.7649919836623
 21
378.6204531483014
 31
0.0
 11
596.9149731103853
 21
378.3637913450993
 31
0.0
 11
597.0446498902595
 21
378.0922031251282
 31
0.0
 11
597.1515412443368
 21
377.8108618467392
 31
0.0
 11
597.2359073056672
 21
377.5191443631938
 31
0.0
 11
597.296419835903
 21
377.2215599669336
 31
0.0
 11
597.3329987844659
 21
376.9186542323994
 31
0.0
 11
597.3452068223905
 21
376.6137913450993
 31
0.0
 11
597.3329987844659
 21
376.3089284577994
 31
0.0
 11
597.296419835903
 21
376.0060227232651
 31
0.0
 11
597.2359073056671
 21
375.7084383270049
 31
0.0
 11
597.1515412443368
 21
375.4167208434595
 31
0.0
 11
597.0446498902596
 21
375.1353795650705
 31
0.0
 11
596.9149731103853
 21
374.8637913450993
 31
0.0
 11
596.7649919836623
 21
374.6071295418971
 31
0.0
 11
596.5939034370886
 21
374.3640347111964
 31
0.0
 11
596.4053711533111
 21
374.1397286710981
 31
0.0
 11
596.1980877640012
 21
373.9326357941829
 31
0.0
 11
595.9766532346664
 21
373.7473996272059
 31
0.0
 11
595.7395527500574
 21
373.5827024318539
 31
0.0
 11
595.4918191741618
 21
373.4421151726339
 31
0.0
 11
595.2322307496258
 21
373.3248671723488
 31
0.0
 11
594.9655878893515
 21
373.2332237922807
 31
0.0
 11
594.6915364849725
 21
373.1669642095566
 31
0.0
 11
594.4139786765938
 21
373.1271441303975
 31
0.0
 11
594.1338986777243
 21
373.1137913450993
 31
0.0
 11
593.8538186788547
 21
373.1271441303975
 31
0.0
 11
593.5762608704761
 21
373.1669642095566
 31
0.0
 11
593.3022094660971
 21
373.2332237922806
 31
0.0
 11
593.0355666058226
 21
373.3248671723488
 31
0.0
 11
592.7759781812865
 21
373.4421151726339
 31
0.0
 11
592.5282446053911
 21
373.5827024318539
 31
0.0
 11
592.2911441207822
 21
373.7473996272059
 31
0.0
 11
592.0697095914472
 21
373.9326357941829
 31
0.0
 11
591.8624262021375
 21
374.1397286710981
 31
0.0
 11
591.67389391836
 21
374.3640347111964
 31
0.0
 11
591.5028053717863
 21
374.6071295418972
 31
0.0
 11
591.3528242450634
 21
374.8637913450993
 31
0.0
 11
591.2231474651891
 21
375.1353795650704
 31
0.0
 11
591.1162561111117
 21
375.4167208434595
 31
0.0
 11
591.0318900497815
 21
375.7084383270049
 31
0.0
 11
590.9713775195457
 21
376.0060227232651
 31
0.0
 11
590.9347985709827
 21
376.3089284577994
 31
0.0
 11
590.922590533058
 21
376.6137913450993
 31
0.0
 11
590.9347985709828
 21
376.9186542323993
 31
0.0
 11
590.9713775195457
 21
377.2215599669336
 31
0.0
 11
591.0318900497815
 21
377.5191443631938
 31
0.0
 11
591.1162561111117
 21
377.8108618467392
 31
0.0
 11
591.223147465189
 21
378.0922031251282
 31
0.0
 11
591.3528242450634
 21
378.3637913450993
 31
0.0
 11
591.5028053717864
 21
378.6204531483014
 31
0.0
 11
591.67389391836
 21
378.8635479790022
 31
0.0
 11
591.8624262021376
 21
379.0878540191006
 31
0.0
 11
592.0697095914472
 21
379.2949468960158
 31
0.0
 11
592.2911441207821
 21
379.4801830629929
 31
0.0
 11
592.5282446053911
 21
379.6448802583449
 31
0.0
 11
592.7759781812867
 21
379.7854675175648
 31
0.0
 11
593.0355666058226
 21
379.90271551785
 31
0.0
 11
593.3022094660971
 21
379.9943588979181
 31
0.0
 11
593.5762608704761
 21
380.0606184806421
 31
0.0
 11
593.8538186788547
 21
380.1004385598012
 31
0.0
 11
594.1338986777243
 21
380.1137913450993
 31
0.0
  0
SPLINE
  5
B4
330
4A
100
AcDbEntity
  8
1
  6
Continuous
 62
     7
100
AcDbSpline
210
0.0
220
0.0
230
1.0
 70
    11
 71
     3
 72
    79
 73
    75
 74
    73
 42
0.000000001
 43
0.0000000001
 44
0.00000001
 40
0.0
 40
0.0
 40
0.0
 40
0.0
 40
0.3102615582252457
 40
0.6205595420822276
 40
0.9422162975289019
 40
1.263944872753869
 40
1.606039020845001
 40
1.948193468907038
 40
2.316051885190492
 40
2.683951048239907
 40
3.079084664080368
 40
3.474244780173769
 40
3.894897959207572
 40
4.315568207494254
 40
4.757452126736498
 40
5.199346674241673
 40
5.656354161987128
 40
6.11336747865819
 40
6.578223037733449
 40
7.043080455843129
 40
7.507937873950473
 40
7.972793433018733
 40
8.429806749677551
 40
8.886814237403497
 40
9.328708784880371
 40
9.770592704081423
 40
10.19126295231275
 40
10.61191613126941
 40
11.00707624726333
 40
11.40220986296888
 40
11.77010902585003
 40
12.13796744191
 40
12.4801218896964
 40
12.8222160374192
 40
13.14394461216149
 40
13.46560136682481
 40
13.77589934864154
 40
14.08616091447264
 40
14.39642248030369
 40
14.70672046212031
 40
15.02837721678363
 40
15.35010579152582
 40
15.69219993924877
 40
16.0343543870352
 40
16.4022128030951
 40
16.77011196597628
 40
17.16524558168184
 40
17.56040569767575
 40
17.98105887663238
 40
18.40172912486373
 40
18.8436130440648
 40
19.2855075915416
 40
19.74251507926757
 40
20.1995283959264
 40
20.66438395499463
 40
21.129241373102
 40
21.59409879121167
 40
22.05895435028693
 40
22.51596766695804
 40
22.97297515470349
 40
23.41486970220862
 40
23.85675362145085
 40
24.27742386973751
 40
24.69807704877134
 40
25.09323716486473
 40
25.4883707807052
 40
25.85626994375458
 40
26.22412836003803
 40
26.5662828081001
 40
26.90837695619139
 40
27.23010553141623
 40
27.55176228686292
 40
27.86206027071974
 40
28.17232182894498
 40
28.17232182894498
 40
28.17232182894498
 40
28.17232182894498
 10
169.7970645979104
 20
376.649148452235
 30
0.0
 10
169.8010977896264
 20
376.7526386341571
 30
0.0
 10
169.8091646382973
 20
376.959631148502
 30
0.0
 10
169.8731486161067
 20
377.2684800165244
 30
0.0
 10
169.974569412404
 20
377.5704469302586
 30
0.0
 10
170.1169919125016
 20
377.8673565863734
 30
0.0
 10
170.2960944852617
 20
378.1516746947336
 30
0.0
 10
170.5140647531225
 20
378.4271757410299
 30
0.0
 10
170.7643469071573
 20
378.6857817616984
 30
0.0
 10
171.0508090689289
 20
378.9315396513115
 30
0.0
 10
171.3646398212161
 20
379.157184911506
 30
0.0
 10
171.7105539862473
 20
379.3659565793939
 30
0.0
 10
172.078672778398
 20
379.5521773476652
 30
0.0
 10
172.4733667133146
 20
379.7178618780117
 30
0.0
 10
172.8849199132868
 20
379.8591696508616
 30
0.0
 10
173.3163456128812
 20
379.9769491394359
 30
0.0
 10
173.7591196415918
 20
380.0690674410745
 30
0.0
 10
174.2141776401857
 20
380.1355533684676
 30
0.0
 10
174.6749447422669
 20
380.1756109253777
 30
0.0
 10
175.1398669176978
 20
380.1889528826729
 30
0.0
 10
175.6047890931247
 20
380.1756109254563
 30
0.0
 10
176.0655561952174
 20
380.1355533686286
 30
0.0
 10
176.5206141937696
 20
380.0690674413272
 30
0.0
 10
176.9633882226344
 20
379.976949139792
 30
0.0
 10
177.3948139216762
 20
379.8591696513395
 30
0.0
 10
177.806367123675
 20
379.7178618786314
 30
0.0
 10
178.2010610513973
 20
379.5521773484543
 30
0.0
 10
178.5691798696194
 20
379.3659565803804
 30
0.0
 10
178.9150939430426
 20
379.157184912728
 30
0.0
 10
179.2289250249806
 20
378.9315396528051
 30
0.0
 10
179.5153860374535
 20
378.6857817635139
 30
0.0
 10
179.7656723165265
 20
378.4271757432149
 30
0.0
 10
179.9836282145335
 20
378.1516746973585
 30
0.0
 10
180.1627825282727
 20
377.8673565895193
 30
0.0
 10
180.3050228796602
 20
377.5704469341067
 30
0.0
 10
180.4071065317005
 20
377.2684800215976
 30
0.0
 10
180.4686997716282
 20
376.9596311524512
 30
0.0
 10
180.4896535750898
 20
376.649148452235
 30
0.0
 10
180.4686997716282
 20
376.3386657520191
 30
0.0
 10
180.4071065317004
 20
376.0298168828726
 30
0.0
 10
180.3050228796603
 20
375.7278499703635
 30
0.0
 10
180.1627825282726
 20
375.430940314951
 30
0.0
 10
179.9836282145335
 20
375.1466222071116
 30
0.0
 10
179.7656723165265
 20
374.8711211612552
 30
0.0
 10
179.5153860374536
 20
374.6125151409563
 30
0.0
 10
179.2289250249806
 20
374.366757251665
 30
0.0
 10
178.9150939430425
 20
374.1411119917424
 30
0.0
 10
178.5691798696195
 20
373.9323403240896
 30
0.0
 10
178.2010610513972
 20
373.746119556016
 30
0.0
 10
177.806367123675
 20
373.5804350258387
 30
0.0
 10
177.3948139216762
 20
373.4391272531309
 30
0.0
 10
176.9633882226344
 20
373.3213477646784
 30
0.0
 10
176.5206141937696
 20
373.229229463143
 30
0.0
 10
176.0655561952173
 20
373.1627435358415
 30
0.0
 10
175.6047890931247
 20
373.1226859790138
 30
0.0
 10
175.1398669176979
 20
373.1093440217973
 30
0.0
 10
174.6749447422668
 20
373.1226859790925
 30
0.0
 10
174.2141776401856
 20
373.1627435360024
 30
0.0
 10
173.7591196415917
 20
373.2292294633957
 30
0.0
 10
173.3163456128812
 20
373.3213477650345
 30
0.0
 10
172.8849199132867
 20
373.4391272536088
 30
0.0
 10
172.4733667133147
 20
373.5804350264584
 30
0.0
 10
172.0786727783979
 20
373.7461195568049
 30
0.0
 10
171.7105539862474
 20
373.9323403250763
 30
0.0
 10
171.3646398212161
 20
374.141111992964
 30
0.0
 10
171.0508090689289
 20
374.3667572531587
 30
0.0
 10
170.7643469071573
 20
374.6125151427715
 30
0.0
 10
170.5140647531224
 20
374.8711211634402
 30
0.0
 10
170.2960944852618
 20
375.1466222097364
 30
0.0
 10
170.1169919125016
 20
375.4309403180967
 30
0.0
 10
169.9745694124041
 20
375.7278499742116
 30
0.0
 10
169.8731486161068
 20
376.0298168879455
 30
0.0
 10
169.8091646382971
 20
376.3386657559682
 30
0.0
 10
169.8010977896264
 20
376.5456582703128
 30
0.0
 10
169.7970645979104
 20
376.649148452235
 30
0.0
 11
169.7970645979104
 21
376.649148452235
 31
0.0
 11
169.8176816911112
 21
376.9587242503717
 31
0.0
 11
169.8782337705093
 21
377.263056771291
 31
0.0
 11
169.9807006591411
 21
377.5679561065544
 31
0.0
 11
170.1192750040699
 21
377.8583117967251
 31
0.0
 11
170.3010670484273
 21
378.1481049274165
 31
0.0
 11
170.5128643826836
 21
378.4168270058029
 31
0.0
 11
170.7682208929574
 21
378.6816153495718
 31
0.0
 11
171.0470428922465
 21
378.9216321965191
 31
0.0
 11
171.3675348198715
 21
379.1527501288444
 31
0.0
 11
171.7055797890534
 21
379.3573891185976
 31
0.0
 11
172.0807435128976
 21
379.5476554511887
 31
0.0
 11
172.4684657627304
 21
379.7108575184644
 31
0.0
 11
172.8863020871918
 21
379.8546427890464
 31
0.0
 11
173.3125209090063
 21
379.9712974376535
 31
0.0
 11
173.7599108750963
 21
380.0645608393529
 31
0.0
 11
174.2120990393739
 21
380.1307955410091
 31
0.0
 11
174.6752022525864
 21
380.1711205297758
 31
0.0
 11
175.1398669275507
 21
380.1845055593708
 31
0.0
 11
175.6045316025149
 21
380.1711205297759
 31
0.0
 11
176.0676348157272
 21
380.1307955410091
 31
0.0
 11
176.5198229800048
 21
380.0645608393529
 31
0.0
 11
176.9672129460948
 21
379.9712974376535
 31
0.0
 11
177.3934317679093
 21
379.8546427890464
 31
0.0
 11
177.8112680923705
 21
379.7108575184644
 31
0.0
 11
178.1989903422034
 21
379.5476554511887
 31
0.0
 11
178.5741540660476
 21
379.3573891185976
 31
0.0
 11
178.9121990352296
 21
379.1527501288444
 31
0.0
 11
179.2326909628546
 21
378.9216321965191
 31
0.0
 11
179.5115129621438
 21
378.6816153495719
 31
0.0
 11
179.7668694724176
 21
378.4168270058029
 31
0.0
 11
179.9786668066737
 21
378.1481049274165
 31
0.0
 11
180.1604588510309
 21
377.8583117967251
 31
0.0
 11
180.2990331959598
 21
377.5679561065544
 31
0.0
 11
180.4015000845917
 21
377.263056771291
 31
0.0
 11
180.4620521639897
 21
376.9587242503717
 31
0.0
 11
180.4826692571905
 21
376.649148452235
 31
0.0
 11
180.4620521639897
 21
376.3395726540984
 31
0.0
 11
180.4015000845917
 21
376.0352401331792
 31
0.0
 11
180.2990331959598
 21
375.7303407979158
 31
0.0
 11
180.1604588510309
 21
375.4399851077452
 31
0.0
 11
179.9786668066737
 21
375.1501919770537
 31
0.0
 11
179.7668694724176
 21
374.8814698986672
 31
0.0
 11
179.5115129621439
 21
374.6166815548983
 31
0.0
 11
179.2326909628546
 21
374.376664707951
 31
0.0
 11
178.9121990352295
 21
374.1455467756258
 31
0.0
 11
178.5741540660476
 21
373.9409077858725
 31
0.0
 11
178.1989903422034
 21
373.7506414532814
 31
0.0
 11
177.8112680923705
 21
373.5874393860057
 31
0.0
 11
177.3934317679092
 21
373.4436541154238
 31
0.0
 11
176.9672129460948
 21
373.3269994668168
 31
0.0
 11
176.5198229800048
 21
373.2337360651173
 31
0.0
 11
176.0676348157272
 21
373.167501363461
 31
0.0
 11
175.6045316025149
 21
373.1271763746943
 31
0.0
 11
175.1398669275507
 21
373.1137913450994
 31
0.0
 11
174.6752022525864
 21
373.1271763746943
 31
0.0
 11
174.2120990393739
 21
373.167501363461
 31
0.0
 11
173.7599108750962
 21
373.2337360651173
 31
0.0
 11
173.3125209090063
 21
373.3269994668168
 31
0.0
 11
172.8863020871918
 21
373.4436541154238
 31
0.0
 11
172.4684657627304
 21
373.5874393860057
 31
0.0
 11
172.0807435128976
 21
373.7506414532814
 31
0.0
 11
171.7055797890534
 21
373.9409077858725
 31
0.0
 11
171.3675348198715
 21
374.1455467756257
 31
0.0
 11
171.0470428922465
 21
374.376664707951
 31
0.0
 11
170.7682208929574
 21
374.6166815548983
 31
0.0
 11
170.5128643826836
 21
374.8814698986672
 31
0.0
 11
170.3010670484273
 21
375.1501919770537
 31
0.0
 11
170.1192750040699
 21
375.4399851077452
 31
0.0
 11
169.9807006591411
 21
375.7303407979158
 31
0.0
 11
169.8782337705093
 21
376.0352401331792
 31
0.0
 11
169.8176816911112
 21
376.3395726540983
 31
0.0
 11
169.7970645979104
 21
376.649148452235
 31
0.0
  0
SPLINE
  5
B5
330
4A
100
AcDbEntity
  8
1
  6
Continuous
 62
     7
100
AcDbSpline
210
0.0
220
0.0
230
1.0
 70
    11
 71
     3
 72
    79
 73
    75
 74
    73
 42
0.000000001
 43
0.0000000001
 44
0.00000001
 40
0.0
 40
0.0
 40
0.0
 40
0.0
 40
0.3102615582252457
 40
0.6205595420822276
 40
0.94221629752892
 40
1.263944872753911
 40
1.606039020845013
 40
1.948193468906962
 40
2.316051885190495
 40
2.683951048239953
 40
3.079084664080368
 40
3.47424478017377
 40
3.894897959207599
 40
4.315568207494228
 40
4.757452126736545
 40
5.199346674241733
 40
5.656354161987104
 40
6.113367478658166
 40
6.578223037733311
 40
7.043080455842906
 40
7.507937873950364
 40
7.972793433018737
 40
8.429806749677526
 40
8.886814237403472
 40
9.328708784880359
 40
9.770592704081484
 40
10.19126295231268
 40
10.61191613126928
 40
11.00707624726319
 40
11.40220986296876
 40
11.77010902584995
 40
12.13796744190996
 40
12.48012188969637
 40
12.82221603741921
 40
13.14394461216151
 40
13.46560136682483
 40
13.77589934864156
 40
14.08616091447266
 40
14.39642248030376
 40
14.70672046212033
 40
15.02837721678365
 40
15.35010579152584
 40
15.69219993924882
 40
16.03435438703528
 40
16.40221280309525
 40
16.77011196597644
 40
17.16524558168198
 40
17.56040569767591
 40
17.98105887663251
 40
18.40172912486371
 40
18.84361304406487
 40
19.28550759154168
 40
19.74251507926759
 40
20.19952839592645
 40
20.66438395499479
 40
21.12924137310228
 40
21.5940987912119
 40
22.05895435028702
 40
22.5159676669581
 40
22.97297515470349
 40
23.41486970220868
 40
23.85675362145094
 40
24.2774238697376
 40
24.6980770487714
 40
25.09323716486477
 40
25.48837078070521
 40
25.85626994375468
 40
26.22412836003817
 40
26.56628280810023
 40
26.90837695619141
 40
27.23010553141628
 40
27.55176228686299
 40
27.8620602707198
 40
28.17232182894505
 40
28.17232182894505
 40
28.17232182894505
 40
28.17232182894505
 10
167.9213623285539
 20
376.649148452235
 30
0.0
 10
167.9173291368378
 20
376.7526386341571
 30
0.0
 10
167.909262288167
 20
376.9596311485019
 30
0.0
 10
167.8452783103575
 20
377.2684800165246
 30
0.0
 10
167.7438575140603
 20
377.5704469302586
 30
0.0
 10
167.6014350139626
 20
377.8673565863735
 30
0.0
 10
167.4223324412025
 20
378.1516746947336
 30
0.0
 10
167.2043621733419
 20
378.4271757410301
 30
0.0
 10
166.954080019307
 20
378.6857817616985
 30
0.0
 10
166.6676178575354
 20
378.9315396513115
 30
0.0
 10
166.3537871052481
 20
379.1571849115061
 30
0.0
 10
166.007872940217
 20
379.365956579394
 30
0.0
 10
165.6397541480663
 20
379.5521773476651
 30
0.0
 10
165.2450602131496
 20
379.7178618780119
 30
0.0
 10
164.8335070131775
 20
379.8591696508615
 30
0.0
 10
164.4020813135831
 20
379.9769491394359
 30
0.0
 10
163.9593072848725
 20
380.0690674410745
 30
0.0
 10
163.5042492862787
 20
380.1355533684676
 30
0.0
 10
163.0434821841976
 20
380.1756109253776
 30
0.0
 10
162.5785600087666
 20
380.188952882673
 30
0.0
 10
162.1136378333396
 20
380.1756109254563
 30
0.0
 10
161.652870731247
 20
380.1355533686286
 30
0.0
 10
161.1978127326947
 20
380.0690674413272
 30
0.0
 10
160.7550387038298
 20
379.9769491397919
 30
0.0
 10
160.3236130047881
 20
379.8591696513395
 30
0.0
 10
159.9120598027893
 20
379.7178618786314
 30
0.0
 10
159.5173658750671
 20
379.5521773484542
 30
0.0
 10
159.149247056845
 20
379.3659565803804
 30
0.0
 10
158.8033329834219
 20
379.1571849127279
 30
0.0
 10
158.4895019014838
 20
378.9315396528051
 30
0.0
 10
158.2030408890108
 20
378.6857817635139
 30
0.0
 10
157.9527546099379
 20
378.4271757432149
 30
0.0
 10
157.7347987119308
 20
378.1516746973584
 30
0.0
 10
157.5556443981916
 20
377.8673565895193
 30
0.0
 10
157.4134040468039
 20
377.5704469341069
 30
0.0
 10
157.3113203947637
 20
377.2684800215974
 30
0.0
 10
157.2497271548361
 20
376.9596311524512
 30
0.0
 10
157.2287733513745
 20
376.6491484522349
 30
0.0
 10
157.249727154836
 20
376.3386657520191
 30
0.0
 10
157.3113203947638
 20
376.0298168828725
 30
0.0
 10
157.4134040468039
 20
375.7278499703635
 30
0.0
 10
157.5556443981916
 20
375.430940314951
 30
0.0
 10
157.7347987119308
 20
375.1466222071116
 30
0.0
 10
157.9527546099378
 20
374.8711211612552
 30
0.0
 10
158.2030408890109
 20
374.6125151409563
 30
0.0
 10
158.4895019014838
 20
374.366757251665
 30
0.0
 10
158.803332983422
 20
374.1411119917423
 30
0.0
 10
159.1492470568449
 20
373.9323403240896
 30
0.0
 10
159.517365875067
 20
373.7461195560159
 30
0.0
 10
159.9120598027893
 20
373.5804350258387
 30
0.0
 10
160.3236130047881
 20
373.4391272531308
 30
0.0
 10
160.7550387038299
 20
373.3213477646783
 30
0.0
 10
161.1978127326947
 20
373.229229463143
 30
0.0
 10
161.6528707312469
 20
373.1627435358414
 30
0.0
 10
162.1136378333397
 20
373.1226859790139
 30
0.0
 10
162.5785600087666
 20
373.1093440217973
 30
0.0
 10
163.0434821841976
 20
373.1226859790922
 30
0.0
 10
163.5042492862787
 20
373.1627435360026
 30
0.0
 10
163.9593072848726
 20
373.2292294633957
 30
0.0
 10
164.4020813135831
 20
373.3213477650345
 30
0.0
 10
164.8335070131775
 20
373.4391272536088
 30
0.0
 10
165.2450602131496
 20
373.5804350264583
 30
0.0
 10
165.6397541480665
 20
373.7461195568051
 30
0.0
 10
166.0078729402169
 20
373.9323403250761
 30
0.0
 10
166.3537871052482
 20
374.1411119929642
 30
0.0
 10
166.6676178575353
 20
374.3667572531587
 30
0.0
 10
166.9540800193071
 20
374.6125151427715
 30
0.0
 10
167.2043621733419
 20
374.8711211634401
 30
0.0
 10
167.4223324412025
 20
375.1466222097366
 30
0.0
 10
167.6014350139626
 20
375.4309403180969
 30
0.0
 10
167.7438575140602
 20
375.7278499742115
 30
0.0
 10
167.8452783103576
 20
376.0298168879456
 30
0.0
 10
167.909262288167
 20
376.3386657559682
 30
0.0
 10
167.9173291368379
 20
376.5456582703128
 30
0.0
 10
167.9213623285539
 20
376.649148452235
 30
0.0
 11
167.9213623285539
 21
376.649148452235
 31
0.0
 11
167.9007452353531
 21
376.9587242503717
 31
0.0
 11
167.840193155955
 21
377.263056771291
 31
0.0
 11
167.7377262673232
 21
377.5679561065544
 31
0.0
 11
167.5991519223943
 21
377.8583117967251
 31
0.0
 11
167.417359878037
 21
378.1481049274165
 31
0.0
 11
167.2055625437808
 21
378.4168270058029
 31
0.0
 11
166.9502060335069
 21
378.6816153495718
 31
0.0
 11
166.6713840342177
 21
378.9216321965191
 31
0.0
 11
166.3508921065928
 21
379.1527501288444
 31
0.0
 11
166.0128471374109
 21
379.3573891185976
 31
0.0
 11
165.6376834135667
 21
379.5476554511887
 31
0.0
 11
165.2499611637339
 21
379.7108575184644
 31
0.0
 11
164.8321248392725
 21
379.8546427890465
 31
0.0
 11
164.4059060174579
 21
379.9712974376535
 31
0.0
 11
163.958516051368
 21
380.0645608393529
 31
0.0
 11
163.5063278870904
 21
380.1307955410091
 31
0.0
 11
163.0432246738781
 21
380.1711205297758
 31
0.0
 11
162.5785599989138
 21
380.1845055593708
 31
0.0
 11
162.1138953239495
 21
380.1711205297759
 31
0.0
 11
161.6507921107371
 21
380.1307955410091
 31
0.0
 11
161.1986039464595
 21
380.0645608393529
 31
0.0
 11
160.7512139803695
 21
379.9712974376535
 31
0.0
 11
160.324995158555
 21
379.8546427890465
 31
0.0
 11
159.9071588340937
 21
379.7108575184644
 31
0.0
 11
159.519436584261
 21
379.5476554511887
 31
0.0
 11
159.1442728604168
 21
379.3573891185976
 31
0.0
 11
158.8062278912348
 21
379.1527501288444
 31
0.0
 11
158.4857359636098
 21
378.9216321965191
 31
0.0
 11
158.2069139643206
 21
378.6816153495719
 31
0.0
 11
157.9515574540467
 21
378.4168270058029
 31
0.0
 11
157.7397601197906
 21
378.1481049274165
 31
0.0
 11
157.5579680754333
 21
377.8583117967251
 31
0.0
 11
157.4193937305044
 21
377.5679561065544
 31
0.0
 11
157.3169268418725
 21
377.263056771291
 31
0.0
 11
157.2563747624745
 21
376.9587242503717
 31
0.0
 11
157.2357576692737
 21
376.649148452235
 31
0.0
 11
157.2563747624745
 21
376.3395726540983
 31
0.0
 11
157.3169268418725
 21
376.0352401331792
 31
0.0
 11
157.4193937305044
 21
375.7303407979158
 31
0.0
 11
157.5579680754333
 21
375.4399851077452
 31
0.0
 11
157.7397601197905
 21
375.1501919770537
 31
0.0
 11
157.9515574540467
 21
374.8814698986672
 31
0.0
 11
158.2069139643206
 21
374.6166815548983
 31
0.0
 11
158.4857359636098
 21
374.376664707951
 31
0.0
 11
158.8062278912348
 21
374.1455467756258
 31
0.0
 11
159.1442728604168
 21
373.9409077858725
 31
0.0
 11
159.5194365842609
 21
373.7506414532813
 31
0.0
 11
159.9071588340937
 21
373.5874393860057
 31
0.0
 11
160.324995158555
 21
373.4436541154237
 31
0.0
 11
160.7512139803695
 21
373.3269994668168
 31
0.0
 11
161.1986039464594
 21
373.2337360651173
 31
0.0
 11
161.6507921107371
 21
373.167501363461
 31
0.0
 11
162.1138953239495
 21
373.1271763746943
 31
0.0
 11
162.5785599989138
 21
373.1137913450994
 31
0.0
 11
163.0432246738781
 21
373.1271763746942
 31
0.0
 11
163.5063278870904
 21
373.167501363461
 31
0.0
 11
163.958516051368
 21
373.2337360651173
 31
0.0
 11
164.4059060174579
 21
373.3269994668168
 31
0.0
 11
164.8321248392725
 21
373.4436541154238
 31
0.0
 11
165.2499611637339
 21
373.5874393860057
 31
0.0
 11
165.6376834135667
 21
373.7506414532814
 31
0.0
 11
166.0128471374109
 21
373.9409077858725
 31
0.0
 11
166.3508921065928
 21
374.1455467756257
 31
0.0
 11
166.6713840342177
 21
374.376664707951
 31
0.0
 11
166.950206033507
 21
374.6166815548983
 31
0.0
 11
167.2055625437808
 21
374.8814698986672
 31
0.0
 11
167.417359878037
 21
375.1501919770537
 31
0.0
 11
167.5991519223943
 21
375.4399851077452
 31
0.0
 11
167.7377262673231
 21
375.7303407979158
 31
0.0
 11
167.840193155955
 21
376.0352401331792
 31
0.0
 11
167.9007452353531
 21
376.3395726540983
 31
0.0
 11
167.9213623285539
 21
376.649148452235
 31
0.0
  0
ENDBLK
  5
4C
330
4A
100
AcDbEntity
  8
0
100
AcDbBlockEnd
  0
BLOCK
  5
4E
330
4D
100
AcDbEntity
  8
0
100
AcDbBlockBegin
  2
60-1-16-300
 70
     0
 10
349.7093344231129
 20
222.7476935151055
 30
0.0
  3
60-1-16-300
  1

  0
LINE
  5
B6
330
4D
100
AcDbEntity
  8
1
  6
Continuous
 62
     7
100
AcDbLine
 10
160.859213463232
 20
258.1137913450993
 30
0.0
 11
160.859213463232
 21
318.6137913450993
 31
0.0
  0
LINE
  5
B7
330
4D
100
AcDbEntity
  8
1
  6
Continuous
 62
     7
100
AcDbLine
 10
176.859213463232
 20
258.1137913450993
 30
0.0
 11
176.859213463232
 21
318.6137913450993
 31
0.0
  0
LINE
  5
B8
330
4D
100
AcDbEntity
  8
1
  6
Continuous
 62
     7
100
AcDbLine
 10
161.472806457246
 20
253.1137913450993
 30
0.0
 11
176.245620469218
 21
253.1137913450993
 31
0.0
  0
LINE
  5
B9
330
4D
100
AcDbEntity
  8
1
  6
Continuous
 62
     7
100
AcDbLine
 10
176.859213463232
 20
258.1137913450993
 30
0.0
 11
160.859213463232
 21
258.1137913450993
 31
0.0
  0
LINE
  5
BA
330
4D
100
AcDbEntity
  8
1
  6
PHANTOM
 62
     4
100
AcDbLine
 10
180.2334356570941
 20
462.6118582015939
 30
0.0
 11
157.8812622510111
 21
462.6118582015939
 31
0.0
  0
LINE
  5
BB
330
4D
100
AcDbEntity
  8
1
  6
Continuous
 62
     7
100
AcDbLine
 10
160.8592134632321
 20
751.159495746937
 30
0.0
 11
160.859213463232
 21
462.6118582015939
 31
0.0
  0
LINE
  5
BC
330
4D
100
AcDbEntity
  8
1
  6
Continuous
 62
     7
100
AcDbLine
 10
176.8592134632321
 20
751.159495746937
 30
0.0
 11
176.859213463232
 21
462.6118582015939
 31
0.0
  0
LINE
  5
BD
330
4D
100
AcDbEntity
  8
1
  6
Continuous
 62
     7
100
AcDbLine
 10
240.4873620181298
 20
253.1137913450993
 30
0.0
 11
255.260176030102
 21
253.1137913450993
 31
0.0
  0
LINE
  5
BE
330
4D
100
AcDbEntity
  8
1
  6
Continuous
 62
     7
100
AcDbLine
 10
255.873769024116
 20
258.1137913450993
 30
0.0
 11
239.873769024116
 21
258.1137913450993
 31
0.0
  0
LINE
  5
BF
330
4D
100
AcDbEntity
  8
1
  6
Continuous
 62
     7
100
AcDbLine
 10
522.875568428525
 20
294.1137913450993
 30
0.0
 11
272.8737690241159
 21
294.1137913450993
 31
0.0
  0
LINE
  5
C0
330
4D
100
AcDbEntity
  8
1
  6
Continuous
 62
     7
100
AcDbLine
 10
539.8755684285265
 20
311.1137913450993
 30
0.0
 11
539.8755684285265
 21
318.6137913450993
 31
0.0
  0
LINE
  5
C1
330
4D
100
AcDbEntity
  8
1
  6
Continuous
 62
     7
100
AcDbLine
 10
555.8755684285265
 20
318.6137913450993
 30
0.0
 11
555.8755684285265
 21
311.1137913450993
 31
0.0
  0
LINE
  5
C2
330
4D
100
AcDbEntity
  8
1
  6
Continuous
 62
     7
100
AcDbLine
 10
239.873769024116
 20
258.1137913450993
 30
0.0
 11
239.8737690241159
 21
261.1137913450993
 31
0.0
  0
LINE
  5
C3
330
4D
100
AcDbEntity
  8
1
  6
Continuous
 62
     7
100
AcDbLine
 10
255.873769024116
 20
258.1137913450993
 30
0.0
 11
255.8737690241159
 21
261.1137913450993
 31
0.0
  0
LINE
  5
C4
330
4D
100
AcDbEntity
  8
1
  6
Continuous
 62
     7
100
AcDbLine
 10
522.875568428525
 20
278.1137913450993
 30
0.0
 11
272.8737690241159
 21
278.1137913450993
 31
0.0
  0
ARC
  5
C5
330
4D
100
AcDbEntity
  8
1
  6
Continuous
 62
     7
100
AcDbCircle
 10
168.859213463232
 20
286.1137913450993
 30
0.0
 40
8.0
100
AcDbArc
 50
0.0
 51
180.0
  0
ARC
  5
C6
330
4D
100
AcDbEntity
  8
1
  6
Continuous
 62
     7
100
AcDbCircle
 10
173.6491871685137
 20
255.970071637877
 30
0.0
 40
3.860026294718296
100
AcDbArc
 50
312.2716554964181
 51
0.0
  0
ARC
  5
C7
330
4D
100
AcDbEntity
  8
1
  6
Continuous
 62
     7
100
AcDbCircle
 10
164.0692397579501
 20
255.970071637877
 30
0.0
 40
3.860026294718052
100
AcDbArc
 50
146.2642089999709
 51
180.0
  0
ARC
  5
C8
330
4D
100
AcDbEntity
  8
1
  6
Continuous
 62
     7
100
AcDbCircle
 10
164.0692397579501
 20
255.970071637877
 30
0.0
 40
3.86002629471821
100
AcDbArc
 50
180.0
 51
227.7283445035844
  0
ARC
  5
C9
330
4D
100
AcDbEntity
  8
1
  6
Continuous
 62
     7
100
AcDbCircle
 10
173.6491871685137
 20
255.970071637877
 30
0.0
 40
3.860026294718296
100
AcDbArc
 50
0.0
 51
33.73579100002727
  0
ARC
  5
CA
330
4D
100
AcDbEntity
  8
1
  6
Continuous
 62
     7
100
AcDbCircle
 10
168.859213463232
 20
462.6118582015939
 30
0.0
 40
8.650000000000071
100
AcDbArc
 50
157.6465744006676
 51
270.0
  0
ARC
  5
CB
330
4D
100
AcDbEntity
  8
1
  6
Continuous
 62
     7
100
AcDbCircle
 10
168.859213463232
 20
462.6118582015939
 30
0.0
 40
8.650000000000091
100
AcDbArc
 50
270.0
 51
22.35342559933236
  0
ARC
  5
CC
330
4D
100
AcDbEntity
  8
1
  6
Continuous
 62
     7
100
AcDbCircle
 10
168.859213463232
 20
462.6118582015939
 30
0.0
 40
8.0
100
AcDbArc
 50
180.0
 51
0.0
  0
ARC
  5
CD
330
4D
100
AcDbEntity
  8
1
  6
Continuous
 62
     7
100
AcDbCircle
 10
252.6637427293977
 20
255.970071637877
 30
0.0
 40
3.860026294718276
100
AcDbArc
 50
312.2716554964178
 51
0.0
  0
ARC
  5
CE
330
4D
100
AcDbEntity
  8
1
  6
Continuous
 62
     7
100
AcDbCircle
 10
243.0837953188341
 20
255.970071637877
 30
0.0
 40
3.860026294718052
100
AcDbArc
 50
146.2642089999709
 51
180.0
  0
ARC
  5
CF
330
4D
100
AcDbEntity
  8
1
  6
Continuous
 62
     7
100
AcDbCircle
 10
243.0837953188341
 20
255.970071637877
 30
0.0
 40
3.860026294718182
100
AcDbArc
 50
180.0
 51
227.7283445035822
  0
ARC
  5
D0
330
4D
100
AcDbEntity
  8
1
  6
Continuous
 62
     7
100
AcDbCircle
 10
252.6637427293977
 20
255.970071637877
 30
0.0
 40
3.860026294718068
100
AcDbArc
 50
0.0
 51
33.7357910000275
  0
ARC
  5
D1
330
4D
100
AcDbEntity
  8
1
  6
Continuous
 62
     7
100
AcDbCircle
 10
522.875568428525
 20
311.1137913450993
 30
0.0
 40
33.0
100
AcDbArc
 50
270.0
 51
0.0
  0
ARC
  5
D2
330
4D
100
AcDbEntity
  8
1
  6
Continuous
 62
     7
100
AcDbCircle
 10
522.875568428525
 20
311.1137913450993
 30
0.0
 40
17.0
100
AcDbArc
 50
270.0
 51
0.0
  0
ARC
  5
D3
330
4D
100
AcDbEntity
  8
1
  6
Continuous
 62
     7
100
AcDbCircle
 10
272.8737690241159
 20
261.1137913450993
 30
0.0
 40
33.0
100
AcDbArc
 50
90.0
 51
180.0
  0
ARC
  5
D4
330
4D
100
AcDbEntity
  8
1
  6
Continuous
 62
     7
100
AcDbCircle
 10
272.8737690241159
 20
261.1137913450993
 30
0.0
 40
17.0
100
AcDbArc
 50
90.0
 51
180.0
  0
ENDBLK
  5
4F
330
4D
100
AcDbEntity
  8
0
100
AcDbBlockEnd
  0
BLOCK
  5
51
330
50
100
AcDbEntity
  8
0
100
AcDbBlockBegin
  2
32-1-16
 70
     0
 10
191.3298285928578
 20
528.0996234752084
 30
0.0
  3
32-1-16
  1

  0
LINE
  5
D5
330
50
100
AcDbEntity
  8
1
  6
Continuous
 62
     7
100
AcDbLine
 10
177.6095098123743
 20
773.7274791906478
 30
0.0
 11
181.6200727741335
 21
771.4119795850743
 31
0.0
  0
LINE
  5
D6
330
50
100
AcDbEntity
  8
1
  6
Continuous
 62
     7
100
AcDbLine
 10
160.1089171140899
 20
773.7274791906478
 30
0.0
 11
156.0983541523307
 21
771.4119795850743
 31
0.0
  0
LINE
  5
D7
330
50
100
AcDbEntity
  8
1
  6
Continuous
 62
     7
100
AcDbLine
 10
182.859213463232
 20
320.9006140953864
 30
0.0
 11
182.859213463232
 21
328.0420425239292
 31
0.0
  0
LINE
  5
D8
330
50
100
AcDbEntity
  8
1
  6
Continuous
 62
     7
100
AcDbLine
 10
182.1592134632321
 20
328.6137913450993
 30
0.0
 11
168.8592134632319
 21
328.6137913450993
 31
0.0
  0
LINE
  5
D9
330
50
100
AcDbEntity
  8
1
  6
Continuous
 62
     7
100
AcDbLine
 10
180.4172345249626
 20
319.6137913450993
 30
0.0
 11
180.359213463232
 21
319.6137913450993
 31
0.0
  0
LINE
  5
DA
330
50
100
AcDbEntity
  8
1
  6
Continuous
 62
     7
100
AcDbLine
 10
168.8592134632319
 20
318.6137913450993
 30
0.0
 11
178.6271626556631
 21
318.6137913450993
 31
0.0
  0
LINE
  5
DB
330
50
100
AcDbEntity
  8
1
  6
Continuous
 62
     7
100
AcDbLine
 10
154.859213463232
 20
328.0420425239292
 30
0.0
 11
154.859213463232
 21
320.9006140953864
 31
0.0
  0
LINE
  5
DC
330
50
100
AcDbEntity
  8
1
  6
Continuous
 62
     7
100
AcDbLine
 10
168.8592134632319
 20
328.6137913450993
 30
0.0
 11
155.5592134632319
 21
328.6137913450993
 31
0.0
  0
LINE
  5
DD
330
50
100
AcDbEntity
  8
1
  6
Continuous
 62
     7
100
AcDbLine
 10
157.3592134632319
 20
319.6137913450993
 30
0.0
 11
157.3011924015013
 21
319.6137913450993
 31
0.0
  0
LINE
  5
DE
330
50
100
AcDbEntity
  8
1
  6
Continuous
 62
     7
100
AcDbLine
 10
159.0912642708007
 20
318.6137913450993
 30
0.0
 11
168.8592134632319
 21
318.6137913450993
 31
0.0
  0
LINE
  5
DF
330
50
100
AcDbEntity
  8
1
  6
Continuous
 62
     7
100
AcDbLine
 10
561.1755684285266
 20
328.6137913450993
 30
0.0
 11
547.8755684285265
 21
328.6137913450993
 31
0.0
  0
LINE
  5
E0
330
50
100
AcDbEntity
  8
1
  6
Continuous
 62
     7
100
AcDbLine
 10
561.0625684285264
 20
328.6137913450993
 30
0.0
 11
561.1755684285266
 21
328.6137913450993
 31
0.0
  0
LINE
  5
E1
330
50
100
AcDbEntity
  8
1
  6
Continuous
 62
     7
100
AcDbLine
 10
559.4335894902572
 20
319.6137913450993
 30
0.0
 11
559.3755684285265
 21
319.6137913450993
 31
0.0
  0
LINE
  5
E2
330
50
100
AcDbEntity
  8
1
  6
Continuous
 62
     7
100
AcDbLine
 10
547.8755684285265
 20
318.6137913450993
 30
0.0
 11
557.6435176209577
 21
318.6137913450993
 31
0.0
  0
LINE
  5
E3
330
50
100
AcDbEntity
  8
1
  6
Continuous
 62
     7
100
AcDbLine
 10
170.0983541523307
 20
747.1632682791098
 30
0.0
 11
181.6200727741335
 21
753.8153356269348
 31
0.0
  0
LINE
  5
E4
330
50
100
AcDbEntity
  8
1
  6
Continuous
 62
     7
100
AcDbLine
 10
156.0983541523307
 20
753.8153356269348
 30
0.0
 11
167.6200727741335
 21
747.1632682791098
 31
0.0
  0
LINE
  5
E5
330
50
100
AcDbEntity
  8
1
  6
Continuous
 62
     7
100
AcDbLine
 10
154.8592134632321
 20
769.2657249538296
 30
0.0
 11
154.8592134632321
 21
755.9615902581795
 31
0.0
  0
LINE
  5
E6
330
50
100
AcDbEntity
  8
1
  6
Continuous
 62
     7
100
AcDbLine
 10
182.8592134632321
 20
769.2657249538296
 30
0.0
 11
182.8592134632321
 21
755.9615902581795
 31
0.0
  0
LINE
  5
E7
330
50
100
AcDbEntity
  8
1
  6
Continuous
 62
     7
100
AcDbLine
 10
547.8755684285265
 20
328.6137913450993
 30
0.0
 11
534.5755684285266
 21
328.6137913450993
 31
0.0
  0
LINE
  5
E8
330
50
100
AcDbEntity
  8
1
  6
Continuous
 62
     7
100
AcDbLine
 10
534.5755684285266
 20
328.6137913450993
 30
0.0
 11
534.6885684285265
 21
328.6137913450993
 31
0.0
  0
LINE
  5
E9
330
50
100
AcDbEntity
  8
1
  6
Continuous
 62
     7
100
AcDbLine
 10
536.3755684285265
 20
319.6137913450993
 30
0.0
 11
536.317547366796
 21
319.6137913450993
 31
0.0
  0
LINE
  5
EA
330
50
100
AcDbEntity
  8
1
  6
Continuous
 62
     7
100
AcDbLine
 10
538.1076192360954
 20
318.6137913450993
 30
0.0
 11
547.8755684285265
 21
318.6137913450993
 31
0.0
  0
ARC
  5
EB
330
50
100
AcDbEntity
  8
1
  6
Continuous
 62
     7
100
AcDbCircle
 10
179.359213463232
 20
324.4713283096577
 30
0.0
 40
5.000000000000057
100
AcDbArc
 50
45.57299599919494
 51
55.94420225743126
  0
ARC
  5
EC
330
50
100
AcDbEntity
  8
1
  6
Continuous
 62
     7
100
AcDbCircle
 10
179.359213463232
 20
324.4713283096577
 30
0.0
 40
4.999999999999876
100
AcDbArc
 50
285.3375576695544
 51
314.4270040008069
  0
ARC
  5
ED
330
50
100
AcDbEntity
  8
1
  6
Continuous
 62
     7
100
AcDbCircle
 10
158.359213463232
 20
324.4713283096577
 30
0.0
 40
5.000000000000064
100
AcDbArc
 50
124.0557977425687
 51
134.4270040008051
  0
ARC
  5
EE
330
50
100
AcDbEntity
  8
1
  6
Continuous
 62
     7
100
AcDbCircle
 10
158.359213463232
 20
324.4713283096577
 30
0.0
 40
4.999999999999894
100
AcDbArc
 50
225.5729959991931
 51
254.662442330443
  0
ARC
  5
EF
330
50
100
AcDbEntity
  8
1
  6
Continuous
 62
     7
100
AcDbCircle
 10
558.3755684285265
 20
324.4713283096577
 30
0.0
 40
4.99999999999989
100
AcDbArc
 50
285.3375576695551
 51
55.94420225743153
  0
ARC
  5
F0
330
50
100
AcDbEntity
  8
1
  6
Continuous
 62
     7
100
AcDbCircle
 10
168.8592134632321
 20
762.6136576060046
 30
0.0
 40
15.5
100
AcDbArc
 50
270.0
 51
274.5853790848392
  0
ARC
  5
F1
330
50
100
AcDbEntity
  8
1
  6
Continuous
 62
     7
100
AcDbCircle
 10
168.8592134632321
 20
762.6136576060046
 30
0.0
 40
15.50000000000004
100
AcDbArc
 50
325.4146209151604
 51
334.5853790848388
  0
ARC
  5
F2
330
50
100
AcDbEntity
  8
1
  6
Continuous
 62
     7
100
AcDbCircle
 10
168.8592134632321
 20
762.6136576060046
 30
0.0
 40
15.50000000000011
100
AcDbArc
 50
265.4146209151608
 51
270.0
  0
ARC
  5
F3
330
50
100
AcDbEntity
  8
1
  6
Continuous
 62
     7
100
AcDbCircle
 10
168.8592134632321
 20
762.6136576060046
 30
0.0
 40
15.50000000000002
100
AcDbArc
 50
205.4146209151612
 51
214.5853790848396
  0
ARC
  5
F4
330
50
100
AcDbEntity
  8
1
  6
Continuous
 62
     7
100
AcDbCircle
 10
168.8592134632321
 20
762.6136576060046
 30
0.0
 40
15.49999999999998
100
AcDbArc
 50
145.4146209151607
 51
154.5853790848392
  0
ARC
  5
F5
330
50
100
AcDbEntity
  8
1
  6
Continuous
 62
     7
100
AcDbCircle
 10
168.8592134632321
 20
762.6136576060046
 30
0.0
 40
15.49999999999998
100
AcDbArc
 50
25.4146209151608
 51
34.5853790848393
  0
ARC
  5
F6
330
50
100
AcDbEntity
  8
1
  6
Continuous
 62
     7
100
AcDbCircle
 10
537.3755684285265
 20
324.4713283096577
 30
0.0
 40
4.999999999999985
100
AcDbArc
 50
124.0557977425674
 51
254.6624423304449
  0
SPLINE
  5
F7
330
50
100
AcDbEntity
  8
1
  6
Continuous
 62
     7
100
AcDbSpline
210
0.0
220
0.0
230
1.0
 70
    11
 71
     3
 72
    79
 73
    75
 74
    73
 42
0.000000001
 43
0.0000000001
 44
0.00000001
 40
0.0
 40
0.0
 40
0.0
 40
0.0
 40
0.2903672471832122
 40
0.5807357518972879
 40
0.8724070977358944
 40
1.164081911024
 40
1.458189924522192
 40
1.752302920472861
 40
2.049663201046611
 40
2.347029106415534
 40
2.648045786116111
 40
2.949067936325284
 40
3.253697746552325
 40
3.558332275330052
 40
3.866104857780162
 40
4.173881019540112
 40
4.48396606110841
 40
4.794053321447569
 40
5.105362217358538
 40
5.41667186343469
 40
5.727981509499983
 40
6.039290405378639
 40
6.349377665663564
 40
6.659462707155372
 40
6.967238868816642
 40
7.275011451144631
 40
7.579645979777285
 40
7.884275789834207
 40
8.185297939849432
 40
8.486314619328283
 40
8.783680524448735
 40
9.081040804740894
 40
9.375153800374138
 40
9.669261813502295
 40
9.960936626337185
 40
10.2526079715239
 40
10.54297647485875
 40
10.83334373090424
 40
11.12371098694972
 40
11.41407949028446
 40
11.70575083547118
 40
11.99742564830618
 40
12.29153366143415
 40
12.58564665706737
 40
12.88300693735953
 40
13.18037284248006
 40
13.48138952195887
 40
13.78241167197407
 40
14.08704148203106
 40
14.39167601066371
 40
14.69944859299165
 40
15.00722475465301
 40
15.31730979614471
 40
15.62739705642975
 40
15.93870595230833
 40
16.25001559837368
 40
16.56132524444983
 40
16.8726341403608
 40
17.18272140069996
 40
17.49280644226825
 40
17.80058260402825
 40
18.10835518647836
 40
18.41298971525608
 40
18.71761952548319
 40
19.0186416756924
 40
19.31965835539286
 40
19.61702426076199
 40
19.91438454133562
 40
20.20849753728619
 40
20.50260555078427
 40
20.79428036407238
 40
21.0859517099111
 40
21.37632021462516
 40
21.66668746180827
 40
21.66668746180827
 40
21.66668746180827
 40
21.66668746180827
 10
535.7512127755444
 20
320.9006140953864
 30
0.0
 10
535.6543889688348
 20
320.903245692707
 30
0.0
 10
535.4607409359189
 20
320.9085088935254
 30
0.0
 10
535.1723800596121
 20
320.9508039657072
 30
0.0
 10
534.888667915633
 20
321.0180148582008
 30
0.0
 10
534.6112428528472
 20
321.1120700234699
 30
0.0
 10
534.3429219414663
 20
321.2315014811535
 30
0.0
 10
534.0849221780954
 20
321.37577697664
 30
0.0
 10
533.8401201748388
 20
321.5433810518427
 30
0.0
 10
533.6094239497768
 20
321.7335436060029
 30
0.0
 10
533.3955282425002
 20
321.9441663263146
 30
0.0
 10
533.1991546999203
 20
322.1743879421458
 30
0.0
 10
533.0226053547574
 20
322.4216243655442
 30
0.0
 10
532.866502558087
 20
322.684858539791
 30
0.0
 10
532.7326135434774
 20
322.9612220943727
 30
0.0
 10
532.6214855264743
 20
323.2494355382341
 30
0.0
 10
532.5342947664925
 20
323.5465739813871
 30
0.0
 10
532.471469159852
 20
323.8509971354186
 30
0.0
 10
532.4336206098969
 20
324.159933747711
 30
0.0
 10
532.4209583477585
 20
324.4713283002854
 30
0.0
 10
532.4336206095352
 20
324.7827228528622
 30
0.0
 10
532.4714691591283
 20
325.0916594651708
 30
0.0
 10
532.5342947654041
 20
325.3960826192053
 30
0.0
 10
532.6214855250197
 20
325.6932210624485
 30
0.0
 10
532.732613541652
 20
325.9814345061146
 30
0.0
 10
532.8665025558871
 20
326.2577980616031
 30
0.0
 10
533.0226053521772
 20
326.5210322327246
 30
0.0
 10
533.1991546969541
 20
326.7682686679887
 30
0.0
 10
533.3955282391394
 20
326.9984902403652
 30
0.0
 10
533.6094239460119
 20
327.2091131221819
 30
0.0
 10
533.8401201706574
 20
327.399275081059
 30
0.0
 10
534.0849221734795
 20
327.5668813646524
 30
0.0
 10
534.3429219363876
 20
327.7111487051139
 30
0.0
 10
534.6112428472602
 20
327.8306104444525
 30
0.0
 10
534.8886679094153
 20
327.9245534915065
 30
0.0
 10
535.1723800524558
 20
327.9921814639437
 30
0.0
 10
535.4607409306375
 20
328.032926588786
 30
0.0
 10
535.7512127755444
 20
328.0466004667112
 30
0.0
 10
536.0416846204513
 20
328.0329265887862
 30
0.0
 10
536.3300454986331
 20
327.9921814639437
 30
0.0
 10
536.6137576416735
 20
327.9245534915065
 30
0.0
 10
536.8911827038287
 20
327.8306104444526
 30
0.0
 10
537.1595036147012
 20
327.7111487051139
 30
0.0
 10
537.4175033776089
 20
327.5668813646523
 30
0.0
 10
537.6623053804315
 20
327.399275081059
 30
0.0
 10
537.8930016050766
 20
327.209113122182
 30
0.0
 10
538.1068973119498
 20
326.9984902403652
 30
0.0
 10
538.3032708541342
 20
326.7682686679887
 30
0.0
 10
538.4798201989117
 20
326.5210322327247
 30
0.0
 10
538.6359229952016
 20
326.257798061603
 30
0.0
 10
538.7698120094367
 20
325.9814345061148
 30
0.0
 10
538.8809400260693
 20
325.6932210624485
 30
0.0
 10
538.9681307856847
 20
325.3960826192053
 30
0.0
 10
539.0309563919607
 20
325.0916594651709
 30
0.0
 10
539.0688049415535
 20
324.7827228528623
 30
0.0
 10
539.0814672033302
 20
324.4713283002854
 30
0.0
 10
539.068804941192
 20
324.1599337477109
 30
0.0
 10
539.0309563912369
 20
323.8509971354187
 30
0.0
 10
538.9681307845965
 20
323.546573981387
 30
0.0
 10
538.8809400246146
 20
323.2494355382341
 30
0.0
 10
538.7698120076112
 20
322.9612220943726
 30
0.0
 10
538.6359229930019
 20
322.6848585397909
 30
0.0
 10
538.4798201963314
 20
322.4216243655441
 30
0.0
 10
538.3032708511682
 20
322.174387942146
 30
0.0
 10
538.1068973085887
 20
321.9441663263145
 30
0.0
 10
537.893001601312
 20
321.7335436060027
 30
0.0
 10
537.6623053762497
 20
321.5433810518428
 30
0.0
 10
537.4175033729932
 20
321.3757769766399
 30
0.0
 10
537.1595036096228
 20
321.2315014811536
 30
0.0
 10
536.8911826982413
 20
321.1120700234699
 30
0.0
 10
536.6137576354558
 20
321.0180148582008
 30
0.0
 10
536.3300454914765
 20
320.9508039657071
 30
0.0
 10
536.0416846151699
 20
320.9085088935257
 30
0.0
 10
535.8480365822542
 20
320.903245692707
 30
0.0
 10
535.7512127755444
 20
320.9006140953864
 30
0.0
 11
535.7512127755444
 21
320.9006140953864
 31
0.0
 11
535.4611650137464
 21
320.9142317082388
 31
0.0
 11
535.1736530892106
 21
320.9548612676523
 31
0.0
 11
534.8899157793421
 21
321.0224283654908
 31
0.0
 11
534.6136422616869
 21
321.1159545115715
 31
0.0
 11
534.3449251995881
 21
321.2354980770092
 31
0.0
 11
534.0881959385881
 21
321.3789990904445
 31
0.0
 11
533.8427786488058
 21
321.5469082631514
 31
0.0
 11
533.6132795405532
 21
321.7360025278493
 31
0.0
 11
533.3987249815164
 21
321.9471360936789
 31
0.0
 11
533.2033231620171
 21
322.1761174549924
 31
0.0
 11
533.0262197568769
 21
322.4239756909899
 31
0.0
 11
532.8707831200937
 21
322.6859712025221
 31
0.0
 11
532.7365298914706
 21
322.9629189107891
 31
0.0
 11
532.6257634756835
 21
323.2500721223177
 31
0.0
 11
532.5384057202104
 21
323.547597508765
 31
0.0
 11
532.4757090266958
 21
323.8512802933801
 31
0.0
 11
532.4378266067266
 21
324.1602756832525
 31
0.0
 11
532.4251791016319
 21
324.4713283096577
 31
0.0
 11
532.4378266067265
 21
324.7823809360629
 31
0.0
 11
532.4757090266958
 21
325.0913763259354
 31
0.0
 11
532.5384057202104
 21
325.3950591105506
 31
0.0
 11
532.6257634756835
 21
325.6925844969979
 31
0.0
 11
532.7365298914706
 21
325.9797377085265
 31
0.0
 11
532.8707831200937
 21
326.2566854167935
 31
0.0
 11
533.0262197568769
 21
326.5186809283256
 31
0.0
 11
533.2033231620171
 21
326.766539164323
 31
0.0
 11
533.3987249815164
 21
326.9955205256367
 31
0.0
 11
533.6132795405532
 21
327.2066540914663
 31
0.0
 11
533.842778648806
 21
327.3957483561642
 31
0.0
 11
534.0881959385881
 21
327.563657528871
 31
0.0
 11
534.344925199588
 21
327.7071585423062
 31
0.0
 11
534.6136422616869
 21
327.826702107744
 31
0.0
 11
534.889915779342
 21
327.9202282538247
 31
0.0
 11
535.1736530892106
 21
327.9877953516632
 31
0.0
 11
535.4611650137464
 21
328.0284249110767
 31
0.0
 11
535.7512127755444
 21
328.0420425239292
 31
0.0
 11
536.0412605373425
 21
328.0284249110767
 31
0.0
 11
536.3287724618782
 21
327.9877953516632
 31
0.0
 11
536.6125097717468
 21
327.9202282538247
 31
0.0
 11
536.888783289402
 21
327.826702107744
 31
0.0
 11
537.1575003515006
 21
327.7071585423062
 31
0.0
 11
537.4142296125005
 21
327.563657528871
 31
0.0
 11
537.6596469022827
 21
327.3957483561642
 31
0.0
 11
537.8891460105356
 21
327.2066540914663
 31
0.0
 11
538.1037005695724
 21
326.9955205256367
 31
0.0
 11
538.2991023890715
 21
326.766539164323
 31
0.0
 11
538.4762057942119
 21
326.5186809283256
 31
0.0
 11
538.631642430995
 21
326.2566854167935
 31
0.0
 11
538.7658956596182
 21
325.9797377085266
 31
0.0
 11
538.8766620754054
 21
325.6925844969979
 31
0.0
 11
538.9640198308784
 21
325.3950591105507
 31
0.0
 11
539.0267165243931
 21
325.0913763259354
 31
0.0
 11
539.0645989443623
 21
324.7823809360629
 31
0.0
 11
539.0772464494569
 21
324.4713283096577
 31
0.0
 11
539.0645989443623
 21
324.1602756832525
 31
0.0
 11
539.0267165243931
 21
323.8512802933801
 31
0.0
 11
538.9640198308784
 21
323.547597508765
 31
0.0
 11
538.8766620754054
 21
323.2500721223177
 31
0.0
 11
538.7658956596182
 21
322.9629189107891
 31
0.0
 11
538.631642430995
 21
322.6859712025221
 31
0.0
 11
538.4762057942119
 21
322.4239756909899
 31
0.0
 11
538.2991023890715
 21
322.1761174549924
 31
0.0
 11
538.1037005695723
 21
321.9471360936789
 31
0.0
 11
537.8891460105356
 21
321.7360025278493
 31
0.0
 11
537.6596469022827
 21
321.5469082631513
 31
0.0
 11
537.4142296125005
 21
321.3789990904445
 31
0.0
 11
537.1575003515006
 21
321.2354980770092
 31
0.0
 11
536.888783289402
 21
321.1159545115715
 31
0.0
 11
536.6125097717468
 21
321.0224283654908
 31
0.0
 11
536.3287724618782
 21
320.9548612676523
 31
0.0
 11
536.0412605373424
 21
320.9142317082389
 31
0.0
 11
535.7512127755444
 21
320.9006140953864
 31
0.0
  0
SPLINE
  5
F8
330
50
100
AcDbEntity
  8
1
  6
Continuous
 62
     7
100
AcDbSpline
210
0.0
220
0.0
230
1.0
 70
    11
 71
     3
 72
    79
 73
    75
 74
    73
 42
0.000000001
 43
0.0000000001
 44
0.00000001
 40
0.0
 40
0.0
 40
0.0
 40
0.0
 40
0.2903672471832122
 40
0.5807357518972879
 40
0.8724070977361156
 40
1.164081911024113
 40
1.458189924522305
 40
1.752302920472875
 40
2.049663201046625
 40
2.347029106415548
 40
2.648045786116045
 40
2.949067936325305
 40
3.253697746552346
 40
3.558332275330014
 40
3.866104857780174
 40
4.173881019540207
 40
4.483966061108472
 40
4.794053321447654
 40
5.10536221735861
 40
5.416671863434762
 40
5.72798150950006
 40
6.039290405378688
 40
6.349377665663724
 40
6.659462707155424
 40
6.967238868816775
 40
7.275011451144814
 40
7.579645979777468
 40
7.884275789834323
 40
8.185297939849548
 40
8.486314619328398
 40
8.783680524448851
 40
9.08104080474101
 40
9.375153800374253
 40
9.669261813502306
 40
9.960936626337302
 40
10.25260797152402
 40
10.54297647485887
 40
10.83334373090435
 40
11.12371098694972
 40
11.41407949028447
 40
11.70575083547117
 40
11.99742564830619
 40
12.29153366143435
 40
12.58564665706759
 40
12.88300693735975
 40
13.1803728424802
 40
13.48138952195901
 40
13.78241167197428
 40
14.0870414820312
 40
14.39167601066385
 40
14.69944859299179
 40
15.00722475465316
 40
15.31730979614486
 40
15.62739705642989
 40
15.93870595230848
 40
16.25001559837383
 40
16.56132524444998
 40
16.87263414036094
 40
17.1827214007001
 40
17.4928064422684
 40
17.80058260402839
 40
18.1083551864785
 40
18.41298971525623
 40
18.71761952548327
 40
19.01864167569249
 40
19.31965835539302
 40
19.61702426076207
 40
19.9143845413357
 40
20.20849753728637
 40
20.50260555078456
 40
20.79428036407254
 40
21.08595170991138
 40
21.37632021462533
 40
21.66668746180844
 40
21.66668746180844
 40
21.66668746180844
 40
21.66668746180844
 10
559.9999240815087
 20
320.9006140953864
 30
0.0
 10
560.0967478882184
 20
320.903245692707
 30
0.0
 10
560.2903959211342
 20
320.9085088935254
 30
0.0
 10
560.578756797441
 20
320.9508039657073
 30
0.0
 10
560.8624689414203
 20
321.0180148582006
 30
0.0
 10
561.1398940042058
 20
321.11207002347
 30
0.0
 10
561.4082149155872
 20
321.2315014811535
 30
0.0
 10
561.6662146789577
 20
321.3757769766399
 30
0.0
 10
561.9110166822143
 20
321.5433810518429
 30
0.0
 10
562.1417129072764
 20
321.7335436060029
 30
0.0
 10
562.3556086145531
 20
321.9441663263143
 30
0.0
 10
562.5519821571327
 20
322.174387942146
 30
0.0
 10
562.7285315022959
 20
322.4216243655442
 30
0.0
 10
562.884634298966
 20
322.684858539791
 30
0.0
 10
563.0185233135755
 20
322.9612220943726
 30
0.0
 10
563.1296513305791
 20
323.2494355382342
 30
0.0
 10
563.2168420905607
 20
323.546573981387
 30
0.0
 10
563.2796676972015
 20
323.8509971354187
 30
0.0
 10
563.317516247156
 20
324.1599337477109
 30
0.0
 10
563.3301785092947
 20
324.4713283002854
 30
0.0
 10
563.3175162475178
 20
324.7827228528623
 30
0.0
 10
563.2796676979252
 20
325.091659465171
 30
0.0
 10
563.2168420916491
 20
325.3960826192052
 30
0.0
 10
563.1296513320339
 20
325.6932210624487
 30
0.0
 10
563.0185233154008
 20
325.9814345061146
 30
0.0
 10
562.884634301166
 20
326.257798061603
 30
0.0
 10
562.7285315048758
 20
326.5210322327246
 30
0.0
 10
562.5519821600988
 20
326.7682686679888
 30
0.0
 10
562.355608617914
 20
326.9984902403651
 30
0.0
 10
562.1417129110409
 20
327.2091131221819
 30
0.0
 10
561.9110166863959
 20
327.399275081059
 30
0.0
 10
561.6662146835736
 20
327.5668813646525
 30
0.0
 10
561.4082149206654
 20
327.7111487051139
 30
0.0
 10
561.1398940097929
 20
327.8306104444525
 30
0.0
 10
560.8624689476378
 20
327.9245534915065
 30
0.0
 10
560.5787568045973
 20
327.9921814639438
 30
0.0
 10
560.2903959264157
 20
328.0329265887862
 30
0.0
 10
559.9999240815085
 20
328.0466004667111
 30
0.0
 10
559.7094522366019
 20
328.0329265887862
 30
0.0
 10
559.4210913584202
 20
327.9921814639437
 30
0.0
 10
559.1373792153797
 20
327.9245534915067
 30
0.0
 10
558.8599541532245
 20
327.8306104444524
 30
0.0
 10
558.591633242352
 20
327.7111487051141
 30
0.0
 10
558.3336334794437
 20
327.5668813646524
 30
0.0
 10
558.0888314766217
 20
327.399275081059
 30
0.0
 10
557.8581352519764
 20
327.209113122182
 30
0.0
 10
557.6442395451035
 20
326.9984902403651
 30
0.0
 10
557.4478660029188
 20
326.7682686679888
 30
0.0
 10
557.2713166581415
 20
326.5210322327246
 30
0.0
 10
557.1152138618514
 20
326.257798061603
 30
0.0
 10
556.9813248476164
 20
325.9814345061147
 30
0.0
 10
556.8701968309838
 20
325.6932210624485
 30
0.0
 10
556.7830060713682
 20
325.3960826192053
 30
0.0
 10
556.7201804650924
 20
325.0916594651708
 30
0.0
 10
556.6823319154996
 20
324.7827228528624
 30
0.0
 10
556.6696696537226
 20
324.4713283002853
 30
0.0
 10
556.6823319158613
 20
324.159933747711
 30
0.0
 10
556.7201804658163
 20
323.8509971354186
 30
0.0
 10
556.7830060724565
 20
323.546573981387
 30
0.0
 10
556.8701968324388
 20
323.2494355382341
 30
0.0
 10
556.9813248494419
 20
322.9612220943726
 30
0.0
 10
557.115213864051
 20
322.6848585397909
 30
0.0
 10
557.2713166607217
 20
322.4216243655441
 30
0.0
 10
557.4478660058849
 20
322.174387942146
 30
0.0
 10
557.6442395484643
 20
321.9441663263144
 30
0.0
 10
557.8581352557411
 20
321.7335436060029
 30
0.0
 10
558.0888314808033
 20
321.5433810518427
 30
0.0
 10
558.3336334840596
 20
321.3757769766399
 30
0.0
 10
558.5916332474304
 20
321.2315014811535
 30
0.0
 10
558.8599541588118
 20
321.11207002347
 30
0.0
 10
559.1373792215973
 20
321.0180148582007
 30
0.0
 10
559.4210913655768
 20
320.9508039657073
 30
0.0
 10
559.7094522418831
 20
320.9085088935255
 30
0.0
 10
559.903100274799
 20
320.903245692707
 30
0.0
 10
559.9999240815087
 20
320.9006140953864
 30
0.0
 11
559.9999240815087
 21
320.9006140953864
 31
0.0
 11
560.2899718433067
 21
320.9142317082388
 31
0.0
 11
560.5774837678425
 21
320.9548612676523
 31
0.0
 11
560.8612210777112
 21
321.0224283654908
 31
0.0
 11
561.1374945953663
 21
321.1159545115715
 31
0.0
 11
561.4062116574651
 21
321.2354980770092
 31
0.0
 11
561.662940918465
 21
321.3789990904445
 31
0.0
 11
561.9083582082473
 21
321.5469082631514
 31
0.0
 11
562.1378573164999
 21
321.7360025278493
 31
0.0
 11
562.3524118755367
 21
321.9471360936788
 31
0.0
 11
562.547813695036
 21
322.1761174549924
 31
0.0
 11
562.7249171001762
 21
322.4239756909899
 31
0.0
 11
562.8803537369593
 21
322.6859712025221
 31
0.0
 11
563.0146069655825
 21
322.9629189107891
 31
0.0
 11
563.1253733813699
 21
323.2500721223177
 31
0.0
 11
563.2127311368428
 21
323.547597508765
 31
0.0
 11
563.2754278303576
 21
323.8512802933801
 31
0.0
 11
563.3133102503266
 21
324.1602756832525
 31
0.0
 11
563.3259577554213
 21
324.4713283096577
 31
0.0
 11
563.3133102503266
 21
324.7823809360629
 31
0.0
 11
563.2754278303576
 21
325.0913763259354
 31
0.0
 11
563.2127311368429
 21
325.3950591105507
 31
0.0
 11
563.1253733813699
 21
325.6925844969979
 31
0.0
 11
563.0146069655825
 21
325.9797377085265
 31
0.0
 11
562.8803537369593
 21
326.2566854167935
 31
0.0
 11
562.7249171001761
 21
326.5186809283256
 31
0.0
 11
562.547813695036
 21
326.766539164323
 31
0.0
 11
562.3524118755367
 21
326.9955205256367
 31
0.0
 11
562.1378573164999
 21
327.2066540914663
 31
0.0
 11
561.9083582082471
 21
327.3957483561642
 31
0.0
 11
561.662940918465
 21
327.563657528871
 31
0.0
 11
561.4062116574651
 21
327.7071585423062
 31
0.0
 11
561.1374945953663
 21
327.826702107744
 31
0.0
 11
560.8612210777111
 21
327.9202282538247
 31
0.0
 11
560.5774837678425
 21
327.9877953516632
 31
0.0
 11
560.2899718433067
 21
328.0284249110767
 31
0.0
 11
559.9999240815087
 21
328.0420425239292
 31
0.0
 11
559.7098763197107
 21
328.0284249110767
 31
0.0
 11
559.422364395175
 21
327.9877953516632
 31
0.0
 11
559.1386270853064
 21
327.9202282538247
 31
0.0
 11
558.8623535676512
 21
327.826702107744
 31
0.0
 11
558.5936365055524
 21
327.7071585423062
 31
0.0
 11
558.3369072445524
 21
327.563657528871
 31
0.0
 11
558.0914899547703
 21
327.3957483561642
 31
0.0
 11
557.8619908465175
 21
327.2066540914663
 31
0.0
 11
557.6474362874807
 21
326.9955205256367
 31
0.0
 11
557.4520344679814
 21
326.766539164323
 31
0.0
 11
557.2749310628412
 21
326.5186809283256
 31
0.0
 11
557.119494426058
 21
326.2566854167935
 31
0.0
 11
556.9852411974349
 21
325.9797377085266
 31
0.0
 11
556.8744747816477
 21
325.6925844969979
 31
0.0
 11
556.7871170261747
 21
325.3950591105507
 31
0.0
 11
556.72442033266
 21
325.0913763259354
 31
0.0
 11
556.6865379126908
 21
324.7823809360629
 31
0.0
 11
556.6738904075962
 21
324.4713283096577
 31
0.0
 11
556.6865379126908
 21
324.1602756832525
 31
0.0
 11
556.72442033266
 21
323.8512802933801
 31
0.0
 11
556.7871170261747
 21
323.547597508765
 31
0.0
 11
556.8744747816477
 21
323.2500721223177
 31
0.0
 11
556.9852411974349
 21
322.9629189107891
 31
0.0
 11
557.119494426058
 21
322.6859712025221
 31
0.0
 11
557.2749310628412
 21
322.4239756909899
 31
0.0
 11
557.4520344679814
 21
322.1761174549924
 31
0.0
 11
557.6474362874807
 21
321.9471360936789
 31
0.0
 11
557.8619908465175
 21
321.7360025278493
 31
0.0
 11
558.0914899547703
 21
321.5469082631513
 31
0.0
 11
558.3369072445524
 21
321.3789990904445
 31
0.0
 11
558.5936365055525
 21
321.2354980770092
 31
0.0
 11
558.8623535676512
 21
321.1159545115715
 31
0.0
 11
559.1386270853063
 21
321.0224283654908
 31
0.0
 11
559.422364395175
 21
320.9548612676523
 31
0.0
 11
559.7098763197107
 21
320.9142317082389
 31
0.0
 11
559.9999240815087
 21
320.9006140953864
 31
0.0
  0
SPLINE
  5
F9
330
50
100
AcDbEntity
  8
1
  6
Continuous
 62
     7
100
AcDbSpline
210
0.0
220
0.0
230
1.0
 70
     8
 71
     3
 72
    25
 73
    21
 74
    19
 42
0.000000001
 43
0.0000000001
 44
0.00000001
 40
0.0
 40
0.0
 40
0.0
 40
0.0
 40
1.525997363576661
 40
3.041991995961721
 40
4.036425729137952
 40
5.033630621467688
 40
5.779988201878472
 40
6.525153423607491
 40
7.113139654875821
 40
7.696814693755289
 40
7.949097143679854
 40
8.201245171958647
 40
8.846896618341383
 40
9.499909905031982
 40
10.24994289999129
 40
11.00216045375451
 40
12.12686675713043
 40
13.24812597618473
 40
14.81779813343728
 40
16.39782994900056
 40
16.39782994900056
 40
16.39782994900056
 40
16.39782994900056
 10
547.8755684285265
 20
328.0420258747937
 30
0.0
 10
548.3831172542086
 20
328.00870800627
 30
0.0
 10
549.3948879824959
 20
327.9422906530086
 30
0.0
 10
550.7285504021504
 20
327.7283703839387
 30
0.0
 10
551.8436127448575
 20
327.3655309488352
 30
0.0
 10
552.6688082087666
 20
326.9688872728447
 30
0.0
 10
553.3663505328635
 20
326.5156780475455
 30
0.0
 10
553.8795583369375
 20
326.042575457669
 30
0.0
 10
554.2563657455945
 20
325.522014677022
 30
0.0
 10
554.4455841134065
 20
325.0802965602114
 30
0.0
 10
554.5170035169216
 20
324.7237551986219
 30
0.0
 10
554.5423977139146
 20
324.3400645175137
 30
0.0
 10
554.4436408741387
 20
323.8223109703559
 30
0.0
 10
554.1335484433084
 20
323.2062329643433
 30
0.0
 10
553.652973102588
 20
322.6620939999589
 30
0.0
 10
552.9504477210809
 20
322.1341234996681
 30
0.0
 10
552.0653373772994
 20
321.6596559440133
 30
0.0
 10
550.8584532040201
 20
321.2429780094657
 30
0.0
 10
549.4484547712227
 20
321.007659572684
 30
0.0
 10
548.4010122538051
 20
320.9363056042826
 30
0.0
 10
547.8755684285265
 20
320.9005112807423
 30
0.0
 11
547.8755684285265
 21
328.0420258747937
 31
0.0
 11
549.3965349295464
 21
327.9182160303596
 31
0.0
 11
550.8894242732516
 21
327.6545474202765
 31
0.0
 11
551.8345345343819
 21
327.3452497554289
 31
0.0
 11
552.7323727529847
 21
326.9113095152609
 31
0.0
 11
553.3541777660463
 21
326.4985042773206
 31
0.0
 11
553.8974343428181
 21
325.9884616315216
 31
0.0
 11
554.2384183146755
 21
325.5094441580516
 31
0.0
 11
554.4622156583888
 21
324.9703789478336
 31
0.0
 11
554.5115166620384
 21
324.7229605860193
 31
0.0
 11
554.5276357763515
 21
324.4713283096577
 31
0.0
 11
554.4159647710513
 21
323.8354074199151
 31
0.0
 11
554.1264670282486
 21
323.2500721223177
 31
0.0
 11
553.6368142814174
 21
322.6819262939865
 31
0.0
 11
553.0416855195617
 21
322.2218686823942
 31
0.0
 11
552.0524449619884
 21
321.68673562406
 31
0.0
 11
550.9938214911588
 21
321.3172243451769
 31
0.0
 11
549.449984360278
 21
321.0336091167148
 31
0.0
 11
547.8755684285265
 21
320.9005112807423
 31
0.0
  0
SPLINE
  5
FA
330
50
100
AcDbEntity
  8
1
  6
Continuous
 62
     7
100
AcDbSpline
210
0.0
220
0.0
230
1.0
 70
     8
 71
     3
 72
    25
 73
    21
 74
    19
 42
0.000000001
 43
0.0000000001
 44
0.00000001
 40
0.0
 40
0.0
 40
0.0
 40
0.0
 40
1.525997363576774
 40
3.041991995961834
 40
4.036425729137993
 40
5.03363062146768
 40
5.779988201878559
 40
6.525153423607578
 40
7.113139654875908
 40
7.696814693755376
 40
7.949097143679941
 40
8.201245171958734
 40
8.84689661834149
 40
9.49990990503204
 40
10.24994289999135
 40
11.00216045375465
 40
12.12686675713058
 40
13.24812597618477
 40
14.81779813343721
 40
16.39782994900071
 40
16.39782994900071
 40
16.39782994900071
 40
16.39782994900071
 10
547.8755684285265
 20
328.0420258747937
 30
0.0
 10
547.3680196028447
 20
328.0087080062698
 30
0.0
 10
546.3562488745571
 20
327.9422906530086
 30
0.0
 10
545.0225864549025
 20
327.7283703839387
 30
0.0
 10
543.9075241121955
 20
327.365530948835
 30
0.0
 10
543.0823286482865
 20
326.9688872728447
 30
0.0
 10
542.3847863241895
 20
326.5156780475455
 30
0.0
 10
541.8715785201153
 20
326.042575457669
 30
0.0
 10
541.4947711114585
 20
325.5220146770221
 30
0.0
 10
541.3055527436466
 20
325.0802965602114
 30
0.0
 10
541.2341333401315
 20
324.7237551986219
 30
0.0
 10
541.2087391431382
 20
324.3400645175137
 30
0.0
 10
541.3074959829145
 20
323.8223109703559
 30
0.0
 10
541.6175884137447
 20
323.2062329643433
 30
0.0
 10
542.0981637544648
 20
322.662093999959
 30
0.0
 10
542.8006891359724
 20
322.1341234996682
 30
0.0
 10
543.6857994797535
 20
321.6596559440133
 30
0.0
 10
544.892683653033
 20
321.2429780094657
 30
0.0
 10
546.30268208583
 20
321.007659572684
 30
0.0
 10
547.3501246032481
 20
320.9363056042825
 30
0.0
 10
547.8755684285265
 20
320.9005112807423
 30
0.0
 11
547.8755684285265
 21
328.0420258747937
 31
0.0
 11
546.3546019275066
 21
327.9182160303596
 31
0.0
 11
544.8617125838014
 21
327.6545474202765
 31
0.0
 11
543.9166023226712
 21
327.3452497554288
 31
0.0
 11
543.0187641040684
 21
326.9113095152609
 31
0.0
 11
542.3969590910067
 21
326.4985042773206
 31
0.0
 11
541.8537025142349
 21
325.9884616315216
 31
0.0
 11
541.5127185423775
 21
325.5094441580516
 31
0.0
 11
541.2889211986642
 21
324.9703789478336
 31
0.0
 11
541.2396201950146
 21
324.7229605860193
 31
0.0
 11
541.2235010807015
 21
324.4713283096577
 31
0.0
 11
541.3351720860018
 21
323.8354074199151
 31
0.0
 11
541.6246698288044
 21
323.2500721223177
 31
0.0
 11
542.1143225756356
 21
322.6819262939865
 31
0.0
 11
542.7094513374914
 21
322.2218686823942
 31
0.0
 11
543.6986918950647
 21
321.68673562406
 31
0.0
 11
544.7573153658942
 21
321.3172243451769
 31
0.0
 11
546.3011524967749
 21
321.0336091167148
 31
0.0
 11
547.8755684285265
 21
320.9005112807423
 31
0.0
  0
SPLINE
  5
FB
330
50
100
AcDbEntity
  8
1
  6
Continuous
 62
     7
100
AcDbSpline
210
0.0
220
0.0
230
1.0
 70
    11
 71
     3
 72
    79
 73
    75
 74
    73
 42
0.000000001
 43
0.0000000001
 44
0.00000001
 40
0.0
 40
0.0
 40
0.0
 40
0.0
 40
0.3210813056647962
 40
0.6418951396081924
 40
0.9828988891664903
 40
1.323531051596576
 40
1.692967055112405
 40
2.062075178394347
 40
2.463733854379993
 40
2.865152862487674
 40
3.298564779288508
 40
3.731815223728987
 40
4.193131260568788
 40
4.654344167617068
 40
5.137240966498904
 40
5.620077099452225
 40
6.116559525296408
 40
6.613013903592122
 40
7.114121230352304
 40
7.615228557112276
 40
8.111682935406863
 40
8.608165361247995
 40
9.091001494194686
 40
9.573898293063616
 40
10.03511120009036
 40
10.49642723689452
 40
10.92967768128242
 40
11.36308959800319
 40
11.7645086060018
 40
12.16616728182971
 40
12.53527540490457
 40
12.90471140812294
 40
13.24534357014027
 40
13.58634731899443
 40
13.90716115088649
 40
14.22824246386896
 40
14.5420044489684
 40
14.85576643406657
 40
15.17684774704575
 40
15.49766157893245
 40
15.83866532777944
 40
16.17929748978872
 40
16.5487334929978
 40
16.91784161606304
 40
17.31950029188048
 40
17.72091929986904
 40
18.15433121657952
 40
18.58758166095772
 40
19.04889769775226
 40
19.51011060477008
 40
19.99300740363052
 40
20.47584353656949
 40
20.97232596240344
 40
21.4687803406917
 40
21.96988766744623
 40
22.47099499420196
 40
22.9674493724943
 40
23.46393179833611
 40
23.94676793128817
 40
24.42966473016973
 40
24.89087763721864
 40
25.35219367405969
 40
25.78544411850133
 40
26.21885603530207
 40
26.62027504340736
 40
27.02193371938496
 40
27.3910418426487
 40
27.76047784612178
 40
28.10111000845228
 40
28.44211375771924
 40
28.76292759014592
 40
29.08400890392562
 40
29.39777089116753
 40
29.71153286919173
 40
29.71153286919173
 40
29.71153286919173
 40
29.71153286919173
 10
181.5975817923317
 20
324.158373458092
 30
0.0
 10
181.5783019415824
 20
324.0529123750283
 30
0.0
 10
181.5397583095148
 20
323.8420780598573
 30
0.0
 10
181.4247049973632
 20
323.5337384367979
 30
0.0
 10
181.2723165315159
 20
323.235650342242
 30
0.0
 10
181.0752398870596
 20
322.9449782579239
 30
0.0
 10
180.8420533772323
 20
322.6702126794967
 30
0.0
 10
180.5678849106844
 20
322.4061837342589
 30
0.0
 10
180.2623417106007
 20
322.1617997581836
 30
0.0
 10
179.9197241197081
 20
321.9319281837875
 30
0.0
 10
179.5510279029418
 20
321.724360931553
 30
0.0
 10
179.1504731608048
 20
321.535143971905
 30
0.0
 10
178.7293686636557
 20
321.3701793567018
 30
0.0
 10
178.2830103576961
 20
321.2269953350398
 30
0.0
 10
177.8218144998638
 20
321.1094681080842
 30
0.0
 10
177.3431194035081
 20
321.016384301575
 30
0.0
 10
176.8554520945112
 20
320.9498815030114
 30
0.0
 10
176.3588342887602
 20
320.9094959405547
 30
0.0
 10
175.8592134731888
 20
320.8961524603522
 30
0.0
 10
175.3595926576016
 20
320.9094959405515
 30
0.0
 10
174.8629748518994
 20
320.9498815030087
 30
0.0
 10
174.3753075427315
 20
321.0163843015324
 30
0.0
 10
173.8966124470051
 20
321.1094681081033
 30
0.0
 10
173.435416586884
 20
321.2269953346812
 30
0.0
 10
172.9890582891116
 20
321.3701793574524
 30
0.0
 10
172.5679537623229
 20
321.5351439682863
 30
0.0
 10
172.1673991244003
 20
321.7243609428146
 30
0.0
 10
171.7987025332181
 20
321.9319281409377
 30
0.0
 10
171.4560862417462
 20
322.1617999023094
 30
0.0
 10
171.1505383981123
 20
322.406183209155
 30
0.0
 10
170.8763859324388
 20
322.6702144591545
 30
0.0
 10
170.64314226746
 20
322.9449718032939
 30
0.0
 10
170.4462632339935
 20
323.2356723551172
 30
0.0
 10
170.2931636917781
 20
323.5336580097971
 30
0.0
 10
170.1806162212666
 20
323.8423586291757
 30
0.0
 10
170.1140647109019
 20
324.1549292662763
 30
0.0
 10
170.0905894542099
 20
324.471328309276
 30
0.0
 10
170.1140647108909
 20
324.7877273522756
 30
0.0
 10
170.1806162212448
 20
325.1002979893748
 30
0.0
 10
170.2931636917459
 20
325.408998608752
 30
0.0
 10
170.4462632339513
 20
325.7069842634294
 30
0.0
 10
170.6431422674081
 20
325.9976848152494
 30
0.0
 10
170.8763859323778
 20
326.2724421593849
 30
0.0
 10
171.1505383980427
 20
326.5364734093793
 30
0.0
 10
171.4560862416687
 20
326.7808567162188
 30
0.0
 10
171.798702533133
 20
327.0107284775834
 30
0.0
 10
172.1673991243082
 20
327.2182956756985
 30
0.0
 10
172.5679537622244
 20
327.4075126502172
 30
0.0
 10
172.9890582890073
 20
327.5724772610404
 30
0.0
 10
173.4354165867742
 20
327.7156612837991
 30
0.0
 10
173.8966124468905
 20
327.8331885103628
 30
0.0
 10
174.375307542612
 20
327.9262723169176
 30
0.0
 10
174.8629748517752
 20
327.9927751154223
 30
0.0
 10
175.3595926574737
 20
328.0331606778589
 30
0.0
 10
175.859213473053
 20
328.0465041580334
 30
0.0
 10
176.358834288631
 20
328.0331606778066
 30
0.0
 10
176.8554520943329
 20
327.9927751153124
 30
0.0
 10
177.3431194034833
 20
327.9262723167428
 30
0.0
 10
177.8218144992483
 20
327.8331885101007
 30
0.0
 10
178.2830103591994
 20
327.7156612834603
 30
0.0
 10
178.7293686575424
 20
327.5724772604939
 30
0.0
 10
179.1504731822133
 20
327.4075126498212
 30
0.0
 10
179.5510278275116
 20
327.2182956740504
 30
0.0
 10
179.9197243920962
 20
327.0107284795399
 30
0.0
 10
180.2623407757421
 20
326.7808567046226
 30
0.0
 10
180.5678882897994
 20
326.5364734449428
 30
0.0
 10
180.8420418908892
 20
326.2724420309998
 30
0.0
 10
181.0752814998133
 20
325.9976852707527
 30
0.0
 10
181.2721745564285
 20
325.7069826982238
 30
0.0
 10
181.4252236376036
 20
325.4090043124507
 30
0.0
 10
181.5379489326876
 20
325.1002780746354
 30
0.0
 10
181.6038498778219
 20
324.7878011576374
 30
0.0
 10
181.6297013876503
 20
324.4710597890594
 30
0.0
 10
181.6082883209349
 20
324.2626022343176
 30
0.0
 10
181.5975817923317
 20
324.158373458092
 30
0.0
 11
181.5975817923317
 21
324.158373458092
 31
0.0
 11
181.5305862506289
 21
323.8443594344789
 31
0.0
 11
181.4216314184845
 21
323.542613913609
 31
0.0
 11
181.2662065519071
 21
323.2390901622134
 31
0.0
 11
181.0759708278014
 21
322.9565293030305
 31
0.0
 11
180.8374775312461
 21
322.6743876576847
 31
0.0
 11
180.5721404021411
 21
322.4178004123045
 31
0.0
 11
180.2589790449194
 21
322.1662856885578
 31
0.0
 11
179.9259519257385
 21
321.9421648329645
 31
0.0
 11
179.5486235630202
 21
321.7289297601492
 31
0.0
 11
179.1570558938267
 21
321.5435094051984
 31
0.0
 11
178.7277225420876
 21
321.3747333437514
 31
0.0
 11
178.2886334535872
 21
321.2336017810812
 31
0.0
 11
177.8207875631863
 21
321.1139792865301
 31
0.0
 11
177.3468555356875
 21
321.021679965864
 31
0.0
 11
176.8549588289939
 21
320.9543566480908
 31
0.0
 11
176.3601392770117
 21
320.9141004596837
 31
0.0
 11
175.859213463232
 21
320.9006140953863
 31
0.0
 11
175.3582876494523
 21
320.9141004596836
 31
0.0
 11
174.86346809747
 21
320.9543566480906
 31
0.0
 11
174.3715713907763
 21
321.0216799658639
 31
0.0
 11
173.8976393632776
 21
321.1139792865301
 31
0.0
 11
173.4297934728768
 21
321.2336017810812
 31
0.0
 11
172.9907043843764
 21
321.3747333437515
 31
0.0
 11
172.5613710326372
 21
321.5435094051984
 31
0.0
 11
172.1698033634437
 21
321.7289297601493
 31
0.0
 11
171.7924750007253
 21
321.9421648329644
 31
0.0
 11
171.4594478815445
 21
322.1662856885578
 31
0.0
 11
171.1462865243228
 21
322.4178004123045
 31
0.0
 11
170.8809493952178
 21
322.6743876576849
 31
0.0
 11
170.6424560986625
 21
322.9565293030305
 31
0.0
 11
170.4522203745568
 21
323.2390901622134
 31
0.0
 11
170.2967955079795
 21
323.542613913609
 31
0.0
 11
170.1878406758351
 21
323.8443594344789
 31
0.0
 11
170.1208451341324
 21
324.158373458092
 31
0.0
 11
170.0983541523305
 21
324.4713283096577
 31
0.0
 11
170.1208451341324
 21
324.7842831612234
 31
0.0
 11
170.1878406758352
 21
325.0982971848366
 31
0.0
 11
170.2967955079796
 21
325.4000427057064
 31
0.0
 11
170.4522203745569
 21
325.7035664571021
 31
0.0
 11
170.6424560986626
 21
325.986127316285
 31
0.0
 11
170.8809493952179
 21
326.2682689616308
 31
0.0
 11
171.1462865243228
 21
326.5248562070112
 31
0.0
 11
171.4594478815445
 21
326.7763709307578
 31
0.0
 11
171.7924750007253
 21
327.0004917863511
 31
0.0
 11
172.1698033634436
 21
327.2137268591662
 31
0.0
 11
172.5613710326372
 21
327.3991472141171
 31
0.0
 11
172.9907043843763
 21
327.5679232755641
 31
0.0
 11
173.4297934728768
 21
327.7090548382344
 31
0.0
 11
173.8976393632776
 21
327.8286773327855
 31
0.0
 11
174.3715713907764
 21
327.9209766534517
 31
0.0
 11
174.86346809747
 21
327.9882999712249
 31
0.0
 11
175.3582876494523
 21
328.028556159632
 31
0.0
 11
175.859213463232
 21
328.0420425239292
 31
0.0
 11
176.3601392770117
 21
328.0285561596319
 31
0.0
 11
176.854958828994
 21
327.9882999712248
 31
0.0
 11
177.3468555356876
 21
327.9209766534516
 31
0.0
 11
177.8207875631863
 21
327.8286773327854
 31
0.0
 11
178.2886334535872
 21
327.7090548382344
 31
0.0
 11
178.7277225420877
 21
327.5679232755642
 31
0.0
 11
179.1570558938269
 21
327.3991472141171
 31
0.0
 11
179.5486235630203
 21
327.2137268591662
 31
0.0
 11
179.9259519257385
 21
327.0004917863511
 31
0.0
 11
180.2589790449194
 21
326.7763709307577
 31
0.0
 11
180.5721404021411
 21
326.524856207011
 31
0.0
 11
180.837477531246
 21
326.2682689616307
 31
0.0
 11
181.0759708278013
 21
325.986127316285
 31
0.0
 11
181.2662065519069
 21
325.7035664571022
 31
0.0
 11
181.4216314184842
 21
325.4000427057065
 31
0.0
 11
181.5305862506286
 21
325.0982971848366
 31
0.0
 11
181.5975817923315
 21
324.7842831612234
 31
0.0
 11
181.6200727741335
 21
324.4713283096577
 31
0.0
 11
181.5975817923317
 21
324.158373458092
 31
0.0
  0
SPLINE
  5
FC
330
50
100
AcDbEntity
  8
1
  6
Continuous
 62
     7
100
AcDbSpline
210
0.0
220
0.0
230
1.0
 70
    11
 71
     3
 72
    79
 73
    75
 74
    73
 42
0.000000001
 43
0.0000000001
 44
0.00000001
 40
0.0
 40
0.0
 40
0.0
 40
0.0
 40
0.3210813056647903
 40
0.6418951396081962
 40
0.9828988891665069
 40
1.323531051596577
 40
1.692967055112369
 40
2.06207517839429
 40
2.463733854379893
 40
2.865152862487573
 40
3.298564779288383
 40
3.731815223728964
 40
4.193131260568844
 40
4.654344167617124
 40
5.137240966498933
 40
5.620077099452226
 40
6.116559525296409
 40
6.613013903592123
 40
7.114121230352334
 40
7.615228557112306
 40
8.111682935406863
 40
8.608165361247966
 40
9.091001494194657
 40
9.573898293063642
 40
10.03511120009042
 40
10.4964272368946
 40
10.92967768128253
 40
11.36308959800322
 40
11.76450860600179
 40
12.16616728182966
 40
12.53527540490455
 40
12.90471140812289
 40
13.24534357014019
 40
13.58634731899435
 40
13.90716115088642
 40
14.22824246386889
 40
14.54200444896834
 40
14.85576643406651
 40
15.17684774704569
 40
15.49766157893237
 40
15.83866532777936
 40
16.17929748978861
 40
16.54873349299769
 40
16.91784161606298
 40
17.31950029188045
 40
17.72091929986901
 40
18.15433121657939
 40
18.58758166095759
 40
19.04889769775218
 40
19.51011060477003
 40
19.99300740363049
 40
20.47584353656947
 40
20.97232596240336
 40
21.46878034069159
 40
21.96988766744606
 40
22.47099499420179
 40
22.96744937249419
 40
23.46393179833602
 40
23.94676793128815
 40
24.42966473016968
 40
24.89087763721851
 40
25.35219367405956
 40
25.78544411850125
 40
26.21885603530204
 40
26.62027504340735
 40
27.02193371938495
 40
27.39104184264865
 40
27.76047784612179
 40
28.10111000845228
 40
28.44211375771923
 40
28.7629275901459
 40
29.0840089039256
 40
29.39777089116751
 40
29.7115328691917
 40
29.7115328691917
 40
29.7115328691917
 40
29.7115328691917
 10
156.1208451341323
 20
324.158373458092
 30
0.0
 10
156.1401249848815
 20
324.0529123750281
 30
0.0
 10
156.1786686169491
 20
323.8420780598574
 30
0.0
 10
156.2937219291008
 20
323.5337384367978
 30
0.0
 10
156.4461103949481
 20
323.235650342242
 30
0.0
 10
156.6431870394043
 20
322.944978257924
 30
0.0
 10
156.8763735492317
 20
322.6702126794967
 30
0.0
 10
157.1505420157794
 20
322.406183734259
 30
0.0
 10
157.4560852158631
 20
322.1617997581836
 30
0.0
 10
157.7987028067558
 20
321.9319281837875
 30
0.0
 10
158.167399023522
 20
321.724360931553
 30
0.0
 10
158.5679537656591
 20
321.535143971905
 30
0.0
 10
158.9890582628082
 20
321.3701793567019
 30
0.0
 10
159.4354165687679
 20
321.2269953350397
 30
0.0
 10
159.8966124266001
 20
321.1094681080842
 30
0.0
 10
160.3753075229559
 20
321.016384301575
 30
0.0
 10
160.8629748319527
 20
320.9498815030115
 30
0.0
 10
161.3595926377038
 20
320.9094959405546
 30
0.0
 10
161.8592134532752
 20
320.8961524603523
 30
0.0
 10
162.3588342688623
 20
320.9094959405514
 30
0.0
 10
162.8554520745646
 20
320.9498815030087
 30
0.0
 10
163.3431193837324
 20
321.0163843015324
 30
0.0
 10
163.8218144794588
 20
321.1094681081033
 30
0.0
 10
164.28301033958
 20
321.2269953346812
 30
0.0
 10
164.7293686373524
 20
321.3701793574523
 30
0.0
 10
165.1504731641412
 20
321.5351439682864
 30
0.0
 10
165.5510278020637
 20
321.7243609428144
 30
0.0
 10
165.9197243932459
 20
321.9319281409377
 30
0.0
 10
166.2623406847177
 20
322.1617999023094
 30
0.0
 10
166.5678885283516
 20
322.406183209155
 30
0.0
 10
166.8420409940251
 20
322.6702144591544
 30
0.0
 10
167.0752846590039
 20
322.9449718032938
 30
0.0
 10
167.2721636924703
 20
323.2356723551173
 30
0.0
 10
167.4252632346857
 20
323.533658009797
 30
0.0
 10
167.5378107051972
 20
323.8423586291759
 30
0.0
 10
167.604362215562
 20
324.1549292662761
 30
0.0
 10
167.6278374722541
 20
324.4713283092761
 30
0.0
 10
167.6043622155729
 20
324.7877273522756
 30
0.0
 10
167.537810705219
 20
325.1002979893749
 30
0.0
 10
167.425263234718
 20
325.408998608752
 30
0.0
 10
167.2721636925127
 20
325.7069842634293
 30
0.0
 10
167.0752846590559
 20
325.9976848152494
 30
0.0
 10
166.8420409940863
 20
326.2724421593849
 30
0.0
 10
166.5678885284212
 20
326.5364734093793
 30
0.0
 10
166.2623406847953
 20
326.7808567162187
 30
0.0
 10
165.919724393331
 20
327.0107284775834
 30
0.0
 10
165.5510278021558
 20
327.2182956756985
 30
0.0
 10
165.1504731642395
 20
327.4075126502172
 30
0.0
 10
164.7293686374568
 20
327.5724772610405
 30
0.0
 10
164.2830103396897
 20
327.715661283799
 30
0.0
 10
163.8218144795735
 20
327.8331885103628
 30
0.0
 10
163.3431193838518
 20
327.9262723169177
 30
0.0
 10
162.8554520746888
 20
327.9927751154223
 30
0.0
 10
162.3588342689903
 20
328.033160677859
 30
0.0
 10
161.8592134534111
 20
328.0465041580334
 30
0.0
 10
161.359592637833
 20
328.0331606778065
 30
0.0
 10
160.8629748321311
 20
327.9927751153125
 30
0.0
 10
160.3753075229807
 20
327.9262723167429
 30
0.0
 10
159.8966124272156
 20
327.8331885101006
 30
0.0
 10
159.4354165672646
 20
327.7156612834604
 30
0.0
 10
158.9890582689215
 20
327.5724772604938
 30
0.0
 10
158.5679537442507
 20
327.4075126498213
 30
0.0
 10
158.1673990989524
 20
327.2182956740504
 30
0.0
 10
157.7987025343677
 20
327.0107284795398
 30
0.0
 10
157.4560861507217
 20
326.7808567046226
 30
0.0
 10
157.1505386366645
 20
326.5364734449428
 30
0.0
 10
156.8763850355747
 20
326.2724420309997
 30
0.0
 10
156.6431454266505
 20
325.9976852707526
 30
0.0
 10
156.4462523700354
 20
325.706982698224
 30
0.0
 10
156.2932032888602
 20
325.4090043124506
 30
0.0
 10
156.1804779937764
 20
325.1002780746356
 30
0.0
 10
156.114577048642
 20
324.7878011576372
 30
0.0
 10
156.0887255388137
 20
324.4710597890596
 30
0.0
 10
156.1101386055291
 20
324.2626022343176
 30
0.0
 10
156.1208451341323
 20
324.158373458092
 30
0.0
 11
156.1208451341323
 21
324.158373458092
 31
0.0
 11
156.187840675835
 21
323.8443594344789
 31
0.0
 11
156.2967955079795
 21
323.542613913609
 31
0.0
 11
156.4522203745568
 21
323.2390901622134
 31
0.0
 11
156.6424560986625
 21
322.9565293030305
 31
0.0
 11
156.8809493952178
 21
322.6743876576847
 31
0.0
 11
157.1462865243228
 21
322.4178004123045
 31
0.0
 11
157.4594478815444
 21
322.1662856885578
 31
0.0
 11
157.7924750007253
 21
321.9421648329645
 31
0.0
 11
158.1698033634436
 21
321.7289297601492
 31
0.0
 11
158.5613710326372
 21
321.5435094051984
 31
0.0
 11
158.9907043843764
 21
321.3747333437514
 31
0.0
 11
159.4297934728768
 21
321.2336017810812
 31
0.0
 11
159.8976393632776
 21
321.1139792865301
 31
0.0
 11
160.3715713907764
 21
321.021679965864
 31
0.0
 11
160.86346809747
 21
320.9543566480908
 31
0.0
 11
161.3582876494523
 21
320.9141004596837
 31
0.0
 11
161.8592134632319
 21
320.9006140953863
 31
0.0
 11
162.3601392770116
 21
320.9141004596836
 31
0.0
 11
162.8549588289939
 21
320.9543566480906
 31
0.0
 11
163.3468555356876
 21
321.0216799658639
 31
0.0
 11
163.8207875631863
 21
321.1139792865301
 31
0.0
 11
164.2886334535872
 21
321.2336017810812
 31
0.0
 11
164.7277225420876
 21
321.3747333437515
 31
0.0
 11
165.1570558938269
 21
321.5435094051984
 31
0.0
 11
165.5486235630204
 21
321.7289297601493
 31
0.0
 11
165.9259519257386
 21
321.9421648329644
 31
0.0
 11
166.2589790449194
 21
322.1662856885578
 31
0.0
 11
166.5721404021411
 21
322.4178004123045
 31
0.0
 11
166.8374775312461
 21
322.6743876576849
 31
0.0
 11
167.0759708278013
 21
322.9565293030305
 31
0.0
 11
167.2662065519069
 21
323.2390901622134
 31
0.0
 11
167.4216314184843
 21
323.542613913609
 31
0.0
 11
167.5305862506287
 21
323.8443594344789
 31
0.0
 11
167.5975817923315
 21
324.158373458092
 31
0.0
 11
167.6200727741334
 21
324.4713283096577
 31
0.0
 11
167.5975817923315
 21
324.7842831612234
 31
0.0
 11
167.5305862506287
 21
325.0982971848366
 31
0.0
 11
167.4216314184844
 21
325.4000427057064
 31
0.0
 11
167.2662065519071
 21
325.7035664571021
 31
0.0
 11
167.0759708278014
 21
325.986127316285
 31
0.0
 11
166.8374775312461
 21
326.2682689616308
 31
0.0
 11
166.5721404021411
 21
326.5248562070112
 31
0.0
 11
166.2589790449194
 21
326.7763709307578
 31
0.0
 11
165.9259519257386
 21
327.0004917863511
 31
0.0
 11
165.5486235630204
 21
327.2137268591662
 31
0.0
 11
165.1570558938269
 21
327.3991472141171
 31
0.0
 11
164.7277225420876
 21
327.5679232755641
 31
0.0
 11
164.2886334535872
 21
327.7090548382344
 31
0.0
 11
163.8207875631863
 21
327.8286773327855
 31
0.0
 11
163.3468555356876
 21
327.9209766534517
 31
0.0
 11
162.8549588289939
 21
327.9882999712249
 31
0.0
 11
162.3601392770117
 21
328.028556159632
 31
0.0
 11
161.859213463232
 21
328.0420425239292
 31
0.0
 11
161.3582876494524
 21
328.0285561596319
 31
0.0
 11
160.86346809747
 21
327.9882999712248
 31
0.0
 11
160.3715713907764
 21
327.9209766534516
 31
0.0
 11
159.8976393632776
 21
327.8286773327854
 31
0.0
 11
159.4297934728768
 21
327.7090548382344
 31
0.0
 11
158.9907043843764
 21
327.5679232755642
 31
0.0
 11
158.5613710326372
 21
327.3991472141171
 31
0.0
 11
158.1698033634436
 21
327.2137268591662
 31
0.0
 11
157.7924750007254
 21
327.0004917863511
 31
0.0
 11
157.4594478815445
 21
326.7763709307577
 31
0.0
 11
157.1462865243228
 21
326.524856207011
 31
0.0
 11
156.8809493952179
 21
326.2682689616307
 31
0.0
 11
156.6424560986625
 21
325.986127316285
 31
0.0
 11
156.4522203745569
 21
325.7035664571022
 31
0.0
 11
156.2967955079797
 21
325.4000427057065
 31
0.0
 11
156.1878406758353
 21
325.0982971848366
 31
0.0
 11
156.1208451341325
 21
324.7842831612234
 31
0.0
 11
156.0983541523305
 21
324.4713283096577
 31
0.0
 11
156.1208451341323
 21
324.158373458092
 31
0.0
  0
ARC
  5
FD
330
50
100
AcDbEntity
  8
1
  6
Continuous
 62
     7
100
AcDbCircle
 10
180.4172345249626
 20
320.6137913450993
 30
0.0
 40
1.0
100
AcDbArc
 50
270.0
 51
285.3375576695537
  0
ARC
  5
FE
330
50
100
AcDbEntity
  8
1
  6
Continuous
 62
     7
100
AcDbCircle
 10
178.6271626556631
 20
319.6137913450993
 30
0.0
 40
1.0
100
AcDbArc
 50
270.0
 51
330.0000000000011
  0
ARC
  5
FF
330
50
100
AcDbEntity
  8
1
  6
Continuous
 62
     7
100
AcDbCircle
 10
180.359213463232
 20
318.6137913450993
 30
0.0
 40
1.0
100
AcDbArc
 50
90.0
 51
149.9999999999995
  0
ARC
  5
100
330
50
100
AcDbEntity
  8
1
  6
Continuous
 62
     7
100
AcDbCircle
 10
157.3011924015013
 20
320.6137913450993
 30
0.0
 40
0.9999999999999193
100
AcDbArc
 50
254.6624423304399
 51
270.0
  0
ARC
  5
101
330
50
100
AcDbEntity
  8
1
  6
Continuous
 62
     7
100
AcDbCircle
 10
159.0912642708007
 20
319.6137913450993
 30
0.0
 40
0.9999999999999836
100
AcDbArc
 50
210.0000000000005
 51
270.0
  0
ARC
  5
102
330
50
100
AcDbEntity
  8
1
  6
Continuous
 62
     7
100
AcDbCircle
 10
157.3592134632319
 20
318.6137913450993
 30
0.0
 40
0.9999999999999589
100
AcDbArc
 50
30.00000000000136
 51
90.0
  0
ARC
  5
103
330
50
100
AcDbEntity
  8
1
  6
Continuous
 62
     7
100
AcDbCircle
 10
559.4335894902572
 20
320.6137913450993
 30
0.0
 40
1.0
100
AcDbArc
 50
270.0
 51
285.3375576695537
  0
ARC
  5
104
330
50
100
AcDbEntity
  8
1
  6
Continuous
 62
     7
100
AcDbCircle
 10
557.6435176209577
 20
319.6137913450993
 30
0.0
 40
1.0
100
AcDbArc
 50
270.0
 51
329.9999999999995
  0
ARC
  5
105
330
50
100
AcDbEntity
  8
1
  6
Continuous
 62
     7
100
AcDbCircle
 10
559.3755684285265
 20
318.6137913450993
 30
0.0
 40
1.0
100
AcDbArc
 50
90.0
 51
149.9999999999995
  0
ARC
  5
106
330
50
100
AcDbEntity
  8
1
  6
Continuous
 62
     7
100
AcDbCircle
 10
536.317547366796
 20
320.6137913450993
 30
0.0
 40
0.9999999999999193
100
AcDbArc
 50
254.6624423304399
 51
270.0
  0
ARC
  5
107
330
50
100
AcDbEntity
  8
1
  6
Continuous
 62
     7
100
AcDbCircle
 10
538.1076192360954
 20
319.6137913450993
 30
0.0
 40
1.000000000000082
100
AcDbArc
 50
209.9999999999972
 51
270.0
  0
ARC
  5
108
330
50
100
AcDbEntity
  8
1
  6
Continuous
 62
     7
100
AcDbCircle
 10
536.3755684285265
 20
318.6137913450993
 30
0.0
 40
0.9999999999998851
100
AcDbArc
 50
30.0000000000038
 51
90.0
  0
ENDBLK
  5
52
330
50
100
AcDbEntity
  8
0
100
AcDbBlockEnd
  0
BLOCK
  5
54
330
53
100
AcDbEntity
  8
0
100
AcDbBlockBegin
  2
A10-0A-13
 70
     0
 10
522.8755684285265
 20
347.6137913450993
 30
0.0
  3
A10-0A-13
  1

  0
LINE
  5
109
330
53
100
AcDbEntity
  8
1
  6
Continuous
 62
     7
100
AcDbLine
 10
181.8592134632321
 20
331.9737364004592
 30
0.0
 11
180.8804077460511
 21
335.3995564105921
 31
0.0
  0
LINE
  5
10A
330
53
100
AcDbEntity
  8
1
  6
Continuous
 62
     2
100
AcDbLine
 10
180.859213463232
 20
330.1137913450993
 30
0.0
 11
181.8592134632321
 21
331.8458421526682
 31
0.0
  0
LINE
  5
10B
330
53
100
AcDbEntity
  8
1
  6
Continuous
 62
     7
100
AcDbLine
 10
181.8592134632321
 20
331.8458421526682
 30
0.0
 11
181.8592134632321
 21
328.6137913450995
 31
0.0
  0
LINE
  5
10C
330
53
100
AcDbEntity
  8
1
  6
Continuous
 62
     2
100
AcDbLine
 10
180.859213463232
 20
330.1137913450993
 30
0.0
 11
180.8592134632321
 21
328.6137913450995
 31
0.0
  0
LINE
  5
10D
330
53
100
AcDbEntity
  8
1
  6
Continuous
 62
     7
100
AcDbLine
 10
181.8592134632321
 20
331.9737364004592
 30
0.0
 11
181.8592134632321
 21
331.8458421526682
 31
0.0
  0
LINE
  5
10E
330
53
100
AcDbEntity
  8
1
  6
Continuous
 62
     7
100
AcDbLine
 10
155.8592227934011
 20
347.5982162268219
 30
0.0
 11
156.566636263583
 21
369.8817405375307
 31
0.0
  0
LINE
  5
10F
330
53
100
AcDbEntity
  8
1
  6
Continuous
 62
     7
100
AcDbLine
 10
180.8592134632319
 20
369.8817405375307
 30
0.0
 11
156.8592134632319
 21
369.8817405375307
 31
0.0
  0
LINE
  5
110
330
53
100
AcDbEntity
  8
1
  6
Continuous
 62
     7
100
AcDbLine
 10
180.8592134632319
 20
371.6137913450993
 30
0.0
 11
156.8592134632319
 21
371.6137913450993
 31
0.0
  0
LINE
  5
111
330
53
100
AcDbEntity
  8
1
  6
Continuous
 62
     7
100
AcDbLine
 10
181.859213463232
 20
330.1137913450993
 30
0.0
 11
155.8592134632319
 21
330.1137913450993
 31
0.0
  0
LINE
  5
112
330
53
100
AcDbEntity
  8
1
  6
Continuous
 62
     7
100
AcDbLine
 10
156.8380191804129
 20
335.3995564105921
 30
0.0
 11
155.8592134632319
 21
331.9737364004592
 31
0.0
  0
LINE
  5
113
330
53
100
AcDbEntity
  8
1
  6
Continuous
 62
     7
100
AcDbLine
 10
181.151790662881
 20
369.8817405375307
 30
0.0
 11
181.8592041330629
 21
347.5982162268219
 31
0.0
  0
LINE
  5
114
330
53
100
AcDbEntity
  8
1
  6
Continuous
 62
     2
100
AcDbLine
 10
179.8592134632319
 20
373.1137913450993
 30
0.0
 11
179.8592134632319
 21
371.6137913450993
 31
0.0
  0
LINE
  5
115
330
53
100
AcDbEntity
  8
1
  6
Continuous
 62
     2
100
AcDbLine
 10
155.8592134632319
 20
331.8458421526682
 30
0.0
 11
156.8592134632319
 21
330.1137913450993
 31
0.0
  0
LINE
  5
116
330
53
100
AcDbEntity
  8
1
  6
Continuous
 62
     7
100
AcDbLine
 10
155.8592134632319
 20
328.6137913450993
 30
0.0
 11
155.8592134632319
 21
331.8458421526682
 31
0.0
  0
LINE
  5
117
330
53
100
AcDbEntity
  8
1
  6
Continuous
 62
     2
100
AcDbLine
 10
156.8592134632319
 20
328.6137913450993
 30
0.0
 11
156.8592134632319
 21
330.1137913450993
 31
0.0
  0
LINE
  5
118
330
53
100
AcDbEntity
  8
1
  6
Continuous
 62
     7
100
AcDbLine
 10
156.566636263583
 20
369.8817405375307
 30
0.0
 11
156.8592134632319
 21
369.8817405375307
 31
0.0
  0
LINE
  5
119
330
53
100
AcDbEntity
  8
1
  6
Continuous
 62
     7
100
AcDbLine
 10
180.8592134632319
 20
369.8817405375307
 30
0.0
 11
181.151790662881
 21
369.8817405375307
 31
0.0
  0
LINE
  5
11A
330
53
100
AcDbEntity
  8
1
  6
Continuous
 62
     2
100
AcDbLine
 10
179.8592134632319
 20
371.6137913450993
 30
0.0
 11
180.8592134632319
 21
369.8817405375307
 31
0.0
  0
LINE
  5
11B
330
53
100
AcDbEntity
  8
1
  6
Continuous
 62
     7
100
AcDbLine
 10
180.8592134632319
 20
369.8817405375307
 30
0.0
 11
180.8592134632319
 21
373.1137913450993
 31
0.0
  0
LINE
  5
11C
330
53
100
AcDbEntity
  8
1
  6
Continuous
 62
     2
100
AcDbLine
 10
156.8592134632319
 20
369.8817405375307
 30
0.0
 11
157.8592134632319
 21
371.6137913450993
 31
0.0
  0
LINE
  5
11D
330
53
100
AcDbEntity
  8
1
  6
Continuous
 62
     2
100
AcDbLine
 10
157.8592134632319
 20
371.6137913450993
 30
0.0
 11
157.859213463232
 21
373.1137913450993
 31
0.0
  0
LINE
  5
11E
330
53
100
AcDbEntity
  8
1
  6
Continuous
 62
     7
100
AcDbLine
 10
156.8592134632319
 20
373.1137913450993
 30
0.0
 11
156.8592134632319
 21
369.8817405375307
 31
0.0
  0
LINE
  5
11F
330
53
100
AcDbEntity
  8
1
  6
Continuous
 62
     7
100
AcDbLine
 10
155.8592134632319
 20
331.8458421526682
 30
0.0
 11
155.8592134632319
 21
331.9737364004592
 31
0.0
  0
LINE
  5
120
330
53
100
AcDbEntity
  8
1
  6
PHANTOM
 62
     4
100
AcDbLine
 10
184.8592134632321
 20
762.6136576060046
 30
0.0
 11
152.8592134632321
 21
762.6136576060046
 31
0.0
  0
LINE
  5
121
330
53
100
AcDbEntity
  8
1
  6
Continuous
 62
     7
100
AcDbLine
 10
146.3199839153682
 20
840.077394184967
 30
0.0
 11
191.398443011096
 21
840.077394184967
 31
0.0
  0
LINE
  5
122
330
53
100
AcDbEntity
  8
1
  6
Continuous
 62
     7
100
AcDbLine
 10
179.3592134632321
 20
855.6136576060046
 30
0.0
 11
158.3592134632321
 21
855.6136576060046
 31
0.0
  0
LINE
  5
123
330
53
100
AcDbEntity
  8
1
  6
Continuous
 62
     7
100
AcDbLine
 10
158.3592134632321
 20
844.3457084135733
 30
0.0
 11
179.3592134632321
 21
844.3457084135733
 31
0.0
  0
LINE
  5
124
330
53
100
AcDbEntity
  8
1
  6
Continuous
 62
     7
100
AcDbLine
 10
177.6092134632321
 20
764.6136576060046
 30
0.0
 11
177.6092134632321
 21
773.5941342968297
 31
0.0
  0
LINE
  5
125
330
53
100
AcDbEntity
  8
1
  6
Continuous
 62
     7
100
AcDbLine
 10
160.1092134632321
 20
764.6136576060046
 30
0.0
 11
160.1092134632321
 21
773.5941342968297
 31
0.0
  0
LINE
  5
126
330
53
100
AcDbEntity
  8
1
  6
Continuous
 62
     7
100
AcDbLine
 10
159.3592134632321
 20
856.6136576060046
 30
0.0
 11
178.3592134632321
 21
856.6136576060046
 31
0.0
  0
LINE
  5
127
330
53
100
AcDbEntity
  8
1
  6
Continuous
 62
     7
100
AcDbLine
 10
179.3592134632321
 20
855.6136576060046
 30
0.0
 11
178.3592134632321
 21
856.6136576060046
 31
0.0
  0
LINE
  5
128
330
53
100
AcDbEntity
  8
1
  6
Continuous
 62
     7
100
AcDbLine
 10
179.3592134632321
 20
855.6136576060046
 30
0.0
 11
179.3592134632321
 21
842.6136576060046
 31
0.0
  0
LINE
  5
129
330
53
100
AcDbEntity
  8
1
  6
Continuous
 62
     7
100
AcDbLine
 10
159.3592134632321
 20
856.6136576060046
 30
0.0
 11
158.3592134632321
 21
855.6136576060046
 31
0.0
  0
LINE
  5
12A
330
53
100
AcDbEntity
  8
1
  6
Continuous
 62
     7
100
AcDbLine
 10
158.3592134632321
 20
842.6136576060046
 30
0.0
 11
158.3592134632321
 21
855.6136576060046
 31
0.0
  0
LINE
  5
12B
330
53
100
AcDbEntity
  8
1
  6
Continuous
 62
     7
100
AcDbLine
 10
160.1092134632321
 20
836.077394184967
 30
0.0
 11
160.1092134632321
 21
821.6331809151794
 31
0.0
  0
LINE
  5
12C
330
53
100
AcDbEntity
  8
1
  6
Continuous
 62
     2
100
AcDbLine
 10
159.3592134632321
 20
844.3457084135733
 30
0.0
 11
159.3592134632321
 21
856.6136576060046
 31
0.0
  0
LINE
  5
12D
330
53
100
AcDbEntity
  8
1
  6
Continuous
 62
     2
100
AcDbLine
 10
158.3592134632321
 20
842.6136576060046
 30
0.0
 11
159.3592134632321
 21
844.3457084135733
 31
0.0
  0
LINE
  5
12E
330
53
100
AcDbEntity
  8
1
  6
Continuous
 62
     7
100
AcDbLine
 10
145.8592134632321
 20
842.6136576060046
 30
0.0
 11
145.8592134632321
 21
840.5758528518337
 31
0.0
  0
LINE
  5
12F
330
53
100
AcDbEntity
  8
1
  6
Continuous
 62
     7
100
AcDbLine
 10
177.6092134632321
 20
836.077394184967
 30
0.0
 11
177.6092134632321
 21
821.6331809151794
 31
0.0
  0
LINE
  5
130
330
53
100
AcDbEntity
  8
1
  6
Continuous
 62
     7
100
AcDbLine
 10
191.8592134632321
 20
840.5758528518337
 30
0.0
 11
191.8592134632321
 21
842.6136576060046
 31
0.0
  0
LINE
  5
131
330
53
100
AcDbEntity
  8
1
  6
Continuous
 62
     7
100
AcDbLine
 10
191.8592134632321
 20
842.6136576060046
 30
0.0
 11
145.8592134632321
 21
842.6136576060046
 31
0.0
  0
LINE
  5
132
330
53
100
AcDbEntity
  8
1
  6
Continuous
 62
     2
100
AcDbLine
 10
178.3592134632321
 20
844.3457084135733
 30
0.0
 11
179.3592134632321
 21
842.6136576060046
 31
0.0
  0
LINE
  5
133
330
53
100
AcDbEntity
  8
1
  6
Continuous
 62
     2
100
AcDbLine
 10
178.3592134632321
 20
844.3457084135733
 30
0.0
 11
178.3592134632321
 21
856.6136576060046
 31
0.0
  0
LINE
  5
134
330
53
100
AcDbEntity
  8
1
  6
PHANTOM
 62
     4
100
AcDbLine
 10
185.8592134632321
 20
797.6136576060046
 30
0.0
 11
151.8592134632321
 21
797.6136576060046
 31
0.0
  0
LINE
  5
135
330
53
100
AcDbEntity
  8
0
  6
PHANTOM
 62
     4
100
AcDbLine
 10
142.859213463232
 20
347.6137913450993
 30
0.0
 11
191.859213463232
 21
347.6137913450993
 31
0.0
  0
LINE
  5
136
330
53
100
AcDbEntity
  8
1
  6
Continuous
 62
     7
100
AcDbLine
 10
640.8755684285265
 20
358.1137913450993
 30
0.0
 11
640.8755684285265
 21
337.1137913450993
 31
0.0
  0
LINE
  5
137
330
53
100
AcDbEntity
  8
1
  6
Continuous
 62
     7
100
AcDbLine
 10
625.3755684285265
 20
360.3637913450993
 30
0.0
 11
625.3755684285265
 21
334.8637913450993
 31
0.0
  0
LINE
  5
138
330
53
100
AcDbEntity
  8
1
  6
Continuous
 62
     7
100
AcDbLine
 10
627.8755684285265
 20
337.1137913450993
 30
0.0
 11
627.8755684285265
 21
358.1137913450993
 31
0.0
  0
LINE
  5
139
330
53
100
AcDbEntity
  8
1
  6
Continuous
 62
     7
100
AcDbLine
 10
629.6076192360956
 20
358.1137913450993
 30
0.0
 11
629.6076192360956
 21
337.1137913450993
 31
0.0
  0
LINE
  5
13A
330
53
100
AcDbEntity
  8
1
  6
Continuous
 62
     7
100
AcDbLine
 10
594.8755684285265
 20
369.8817405375307
 30
0.0
 11
570.8755684285264
 21
369.8817405375307
 31
0.0
  0
LINE
  5
13B
330
53
100
AcDbEntity
  8
1
  6
Continuous
 62
     7
100
AcDbLine
 10
594.8755684285265
 20
371.6137913450993
 30
0.0
 11
570.8755684285265
 21
371.6137913450993
 31
0.0
  0
LINE
  5
13C
330
53
100
AcDbEntity
  8
1
  6
Continuous
 62
     7
100
AcDbLine
 10
560.8755684285265
 20
330.1137913450993
 30
0.0
 11
534.8755684285264
 21
330.1137913450993
 31
0.0
  0
LINE
  5
13D
330
53
100
AcDbEntity
  8
1
  6
Continuous
 62
     7
100
AcDbLine
 10
570.4212122012614
 20
364.7857011676111
 30
0.0
 11
570.5829912288787
 21
369.8817405375307
 31
0.0
  0
LINE
  5
13E
330
53
100
AcDbEntity
  8
1
  6
Continuous
 62
     7
100
AcDbLine
 10
535.8543741457074
 20
335.3995564105921
 30
0.0
 11
534.8755684285264
 21
331.9737364004592
 31
0.0
  0
LINE
  5
13F
330
53
100
AcDbEntity
  8
1
  6
Continuous
 62
     7
100
AcDbLine
 10
621.3755684285265
 20
356.3637913450993
 30
0.0
 11
605.0552325377955
 21
356.3637913450995
 31
0.0
  0
LINE
  5
140
330
53
100
AcDbEntity
  8
1
  6
Continuous
 62
     7
100
AcDbLine
 10
595.1681456281756
 20
369.8817405375307
 30
0.0
 11
595.3202436207166
 21
365.0906537724925
 31
0.0
  0
LINE
  5
141
330
53
100
AcDbEntity
  8
1
  6
Continuous
 62
     7
100
AcDbLine
 10
605.0552325377946
 20
338.8637913450992
 30
0.0
 11
621.3755684285265
 21
338.8637913450993
 31
0.0
  0
LINE
  5
142
330
53
100
AcDbEntity
  8
1
  6
Continuous
 62
     7
100
AcDbLine
 10
564.4432598373596
 20
339.1137913450993
 30
0.0
 11
563.6170423185536
 21
339.1137913450993
 31
0.0
  0
LINE
  5
143
330
53
100
AcDbEntity
  8
1
  6
Continuous
 62
     7
100
AcDbLine
 10
559.8567152456476
 20
335.5397225405372
 30
0.0
 11
560.8755684285264
 21
331.9737364004592
 31
0.0
  0
LINE
  5
144
330
53
100
AcDbEntity
  8
1
  6
Continuous
 62
     2
100
AcDbLine
 10
593.8755684285264
 20
373.1137913450993
 30
0.0
 11
593.8755684285264
 21
371.6137913450993
 31
0.0
  0
LINE
  5
145
330
53
100
AcDbEntity
  8
1
  6
Continuous
 62
     7
100
AcDbLine
 10
640.8755684285265
 20
337.1137913450993
 30
0.0
 11
627.8755684285265
 21
337.1137913450993
 31
0.0
  0
LINE
  5
146
330
53
100
AcDbEntity
  8
1
  6
Continuous
 62
     2
100
AcDbLine
 10
629.6076192360956
 20
338.1137913450993
 30
0.0
 11
627.8755684285265
 21
337.1137913450993
 31
0.0
  0
LINE
  5
147
330
53
100
AcDbEntity
  8
1
  6
Continuous
 62
     2
100
AcDbLine
 10
641.8755684285265
 20
338.1137913450993
 30
0.0
 11
629.6076192360956
 21
338.1137913450993
 31
0.0
  0
LINE
  5
148
330
53
100
AcDbEntity
  8
1
  6
Continuous
 62
     7
100
AcDbLine
 10
640.8755684285265
 20
337.1137913450993
 30
0.0
 11
641.8755684285265
 21
338.1137913450993
 31
0.0
  0
LINE
  5
149
330
53
100
AcDbEntity
  8
1
  6
Continuous
 62
     7
100
AcDbLine
 10
625.3755684285265
 20
334.8637913450993
 30
0.0
 11
625.3755684285265
 21
325.1137913450993
 31
0.0
  0
LINE
  5
14A
330
53
100
AcDbEntity
  8
1
  6
Continuous
 62
     7
100
AcDbLine
 10
627.8755684285265
 20
324.6137913450993
 30
0.0
 11
625.8755684285265
 21
324.6137913450993
 31
0.0
  0
LINE
  5
14B
330
53
100
AcDbEntity
  8
1
  6
Continuous
 62
     7
100
AcDbLine
 10
627.8755684285265
 20
337.1137913450993
 30
0.0
 11
627.8755684285265
 21
324.6137913450993
 31
0.0
  0
LINE
  5
14C
330
53
100
AcDbEntity
  8
1
  6
Continuous
 62
     2
100
AcDbLine
 10
629.6076192360956
 20
357.1137913450993
 30
0.0
 11
641.8755684285265
 21
357.1137913450993
 31
0.0
  0
LINE
  5
14D
330
53
100
AcDbEntity
  8
1
  6
Continuous
 62
     7
100
AcDbLine
 10
627.8755684285265
 20
358.1137913450993
 30
0.0
 11
640.8755684285265
 21
358.1137913450993
 31
0.0
  0
LINE
  5
14E
330
53
100
AcDbEntity
  8
1
  6
Continuous
 62
     7
100
AcDbLine
 10
641.8755684285265
 20
357.1137913450993
 30
0.0
 11
640.8755684285265
 21
358.1137913450993
 31
0.0
  0
LINE
  5
14F
330
53
100
AcDbEntity
  8
1
  6
Continuous
 62
     2
100
AcDbLine
 10
627.8755684285265
 20
358.1137913450993
 30
0.0
 11
629.6076192360956
 21
357.1137913450993
 31
0.0
  0
LINE
  5
150
330
53
100
AcDbEntity
  8
1
  6
Continuous
 62
     7
100
AcDbLine
 10
627.8755684285265
 20
370.6137913450993
 30
0.0
 11
627.8755684285265
 21
358.1137913450993
 31
0.0
  0
LINE
  5
151
330
53
100
AcDbEntity
  8
1
  6
Continuous
 62
     7
100
AcDbLine
 10
627.8755684285265
 20
370.6137913450993
 30
0.0
 11
625.8755684285265
 21
370.6137913450993
 31
0.0
  0
LINE
  5
152
330
53
100
AcDbEntity
  8
1
  6
Continuous
 62
     7
100
AcDbLine
 10
625.3755684285265
 20
360.3637913450993
 30
0.0
 11
625.3755684285265
 21
370.1137913450993
 31
0.0
  0
LINE
  5
153
330
53
100
AcDbEntity
  8
1
  6
Continuous
 62
     7
100
AcDbLine
 10
560.8755684285264
 20
331.9737364004592
 30
0.0
 11
560.8755684285264
 21
328.6137913450995
 31
0.0
  0
LINE
  5
154
330
53
100
AcDbEntity
  8
1
  6
Continuous
 62
     2
100
AcDbLine
 10
534.8755684285264
 20
331.8458421526682
 30
0.0
 11
535.8755684285264
 21
330.1137913450993
 31
0.0
  0
LINE
  5
155
330
53
100
AcDbEntity
  8
1
  6
Continuous
 62
     7
100
AcDbLine
 10
534.8755684285264
 20
328.6137913450995
 30
0.0
 11
534.8755684285264
 21
331.8458421526682
 31
0.0
  0
LINE
  5
156
330
53
100
AcDbEntity
  8
1
  6
Continuous
 62
     2
100
AcDbLine
 10
559.8755684285264
 20
330.1137913450993
 30
0.0
 11
560.8755684285264
 21
331.8458421526682
 31
0.0
  0
LINE
  5
157
330
53
100
AcDbEntity
  8
1
  6
Continuous
 62
     2
100
AcDbLine
 10
559.8755684285264
 20
330.1137913450993
 30
0.0
 11
559.8755684285264
 21
328.6137913450995
 31
0.0
  0
LINE
  5
158
330
53
100
AcDbEntity
  8
1
  6
Continuous
 62
     2
100
AcDbLine
 10
535.8755684285264
 20
328.6137913450993
 30
0.0
 11
535.8755684285264
 21
330.1137913450993
 31
0.0
  0
LINE
  5
159
330
53
100
AcDbEntity
  8
1
  6
Continuous
 62
     7
100
AcDbLine
 10
570.5829912288787
 20
369.8817405375307
 30
0.0
 11
570.8755684285264
 21
369.8817405375307
 31
0.0
  0
LINE
  5
15A
330
53
100
AcDbEntity
  8
1
  6
Continuous
 62
     7
100
AcDbLine
 10
594.8755684285265
 20
369.8817405375307
 30
0.0
 11
595.1681456281756
 21
369.8817405375307
 31
0.0
  0
LINE
  5
15B
330
53
100
AcDbEntity
  8
1
  6
Continuous
 62
     2
100
AcDbLine
 10
593.8755684285264
 20
371.6137913450993
 30
0.0
 11
594.8755684285265
 21
369.8817405375307
 31
0.0
  0
LINE
  5
15C
330
53
100
AcDbEntity
  8
1
  6
Continuous
 62
     7
100
AcDbLine
 10
594.8755684285265
 20
369.8817405375307
 30
0.0
 11
594.8755684285265
 21
373.1137913450993
 31
0.0
  0
LINE
  5
15D
330
53
100
AcDbEntity
  8
1
  6
Continuous
 62
     2
100
AcDbLine
 10
570.8755684285264
 20
369.8817405375307
 30
0.0
 11
571.8755684285264
 21
371.6137913450993
 31
0.0
  0
LINE
  5
15E
330
53
100
AcDbEntity
  8
1
  6
Continuous
 62
     2
100
AcDbLine
 10
571.8755684285264
 20
371.6137913450993
 30
0.0
 11
571.8755684285265
 21
373.1137913450993
 31
0.0
  0
LINE
  5
15F
330
53
100
AcDbEntity
  8
1
  6
Continuous
 62
     7
100
AcDbLine
 10
570.8755684285264
 20
373.1137913450993
 30
0.0
 11
570.8755684285264
 21
369.8817405375307
 31
0.0
  0
LINE
  5
160
330
53
100
AcDbEntity
  8
1
  6
Continuous
 62
     7
100
AcDbLine
 10
534.8755684285264
 20
331.8458421526682
 30
0.0
 11
534.8755684285264
 21
331.9737364004592
 31
0.0
  0
LINE
  5
161
330
53
100
AcDbEntity
  8
1
  6
Continuous
 62
     7
100
AcDbLine
 10
641.8755684285265
 20
338.1137913450993
 30
0.0
 11
641.8755684285265
 21
357.1137913450993
 31
0.0
  0
LINE
  5
162
330
53
100
AcDbEntity
  8
0
  6
PHANTOM
 62
     4
100
AcDbLine
 10
191.859213463232
 20
347.6137913450993
 30
0.0
 11
194.859213463232
 21
347.6137913450993
 31
0.0
  0
ARC
  5
163
330
53
100
AcDbEntity
  8
1
  6
Continuous
 62
     7
100
AcDbCircle
 10
141.8592134632321
 20
797.6136576060046
 30
0.0
 40
40.00000000000002
100
AcDbArc
 50
339.9319453791809
 51
348.7845600273513
  0
ARC
  5
164
330
53
100
AcDbEntity
  8
1
  6
Continuous
 62
     7
100
AcDbCircle
 10
168.859213463232
 20
347.6137913450993
 30
0.0
 40
8.35199593590604
100
AcDbArc
 50
0.19057502307832
 51
90.0
  0
ARC
  5
165
330
53
100
AcDbEntity
  8
1
  6
Continuous
 62
     7
100
AcDbCircle
 10
168.859213463232
 20
347.6137913450993
 30
0.0
 40
8.351995935906189
100
AcDbArc
 50
90.0
 51
179.8094249769217
  0
ARC
  5
166
330
53
100
AcDbEntity
  8
1
  6
Continuous
 62
     7
100
AcDbCircle
 10
168.859213463232
 20
347.6137913450993
 30
0.0
 40
13.0
100
AcDbArc
 50
180.0686452889387
 51
214.3100927933887
  0
ARC
  5
167
330
53
100
AcDbEntity
  8
1
  6
Continuous
 62
     7
100
AcDbCircle
 10
157.1547828892398
 20
331.7808929620344
 30
0.0
 40
24.00000000000145
100
AcDbArc
 50
8.67199482596319
 51
27.87011739414523
  0
ARC
  5
168
330
53
100
AcDbEntity
  8
1
  6
Continuous
 62
     7
100
AcDbCircle
 10
168.859213463232
 20
347.6137913450993
 30
0.0
 40
13.0
100
AcDbArc
 50
180.0
 51
180.0686452889387
  0
ARC
  5
169
330
53
100
AcDbEntity
  8
1
  6
Continuous
 62
     7
100
AcDbCircle
 10
168.859213463232
 20
347.6137913450993
 30
0.0
 40
12.99999999999988
100
AcDbArc
 50
325.6899072066111
 51
359.9313547110613
  0
ARC
  5
16A
330
53
100
AcDbEntity
  8
1
  6
Continuous
 62
     7
100
AcDbCircle
 10
180.5636440372242
 20
331.7808929620344
 30
0.0
 40
24.00000000000155
100
AcDbArc
 50
152.1298826058549
 51
171.3280051740368
  0
ARC
  5
16B
330
53
100
AcDbEntity
  8
1
  6
Continuous
 62
     7
100
AcDbCircle
 10
181.6092134632321
 20
836.077394184967
 30
0.0
 40
4.0
100
AcDbArc
 50
90.0
 51
180.0
  0
ARC
  5
16C
330
53
100
AcDbEntity
  8
1
  6
Continuous
 62
     7
100
AcDbCircle
 10
156.1092134632321
 20
836.077394184967
 30
0.0
 40
4.0
100
AcDbArc
 50
0.0
 51
90.0
  0
ARC
  5
16D
330
53
100
AcDbEntity
  8
1
  6
Continuous
 62
     7
100
AcDbCircle
 10
195.8592134632321
 20
797.6136576060046
 30
0.0
 40
40.00000000000013
100
AcDbArc
 50
191.2154399726511
 51
200.0680546208191
  0
ARC
  5
16E
330
53
100
AcDbEntity
  8
1
  6
Continuous
 62
     7
100
AcDbCircle
 10
168.8592134632321
 20
762.6136576060046
 30
0.0
 40
12.9999999999999
100
AcDbArc
 50
132.3049897071832
 51
47.69501029281675
  0
ARC
  5
16F
330
53
100
AcDbEntity
  8
1
  6
Continuous
 62
     7
100
AcDbCircle
 10
582.8755684285264
 20
363.6137913450993
 30
0.0
 40
29.0
100
AcDbArc
 50
242.560759849319
 51
291.6947160223858
  0
ARC
  5
170
330
53
100
AcDbEntity
  8
1
  6
Continuous
 62
     7
100
AcDbCircle
 10
563.8346030529476
 20
335.1197123114755
 30
0.0
 40
3.999999999997904
100
AcDbArc
 50
93.1178665175726
 51
173.9726861048949
  0
ARC
  5
171
330
53
100
AcDbEntity
  8
1
  6
Continuous
 62
     7
100
AcDbCircle
 10
621.3755684285265
 20
334.8637913450993
 30
0.0
 40
4.0
100
AcDbArc
 50
0.0
 51
90.0
  0
ARC
  5
172
330
53
100
AcDbEntity
  8
1
  6
Continuous
 62
     7
100
AcDbCircle
 10
621.3755684285265
 20
360.3637913450993
 30
0.0
 40
4.0
100
AcDbArc
 50
270.0
 51
0.0
  0
ARC
  5
173
330
53
100
AcDbEntity
  8
1
  6
Continuous
 62
     7
100
AcDbCircle
 10
559.5799990025189
 20
331.7808929620344
 30
0.0
 40
24.00000000000223
100
AcDbArc
 50
99.36066212030313
 51
171.3280051740369
  0
ARC
  5
174
330
53
100
AcDbEntity
  8
1
  6
Continuous
 62
     7
100
AcDbCircle
 10
563.6462131901878
 20
307.1137913446399
 30
0.0
 40
49.00000000045987
100
AcDbArc
 50
92.19404509977879
 51
99.36066212030435
  0
ARC
  5
175
330
53
100
AcDbEntity
  8
1
  6
Continuous
 62
     7
100
AcDbCircle
 10
561.4257439235998
 20
365.0712715891253
 30
0.0
 40
9.000000000003725
100
AcDbArc
 50
272.1940450997746
 51
358.1816970355409
  0
ARC
  5
176
330
53
100
AcDbEntity
  8
1
  6
Continuous
 62
     7
100
AcDbCircle
 10
168.859213463232
 20
347.6137913450993
 30
0.0
 40
22.99999999999996
100
AcDbArc
 50
304.4173887104419
 51
0.0
  0
ARC
  5
177
330
53
100
AcDbEntity
  8
1
  6
Continuous
 62
     7
100
AcDbCircle
 10
168.859213463232
 20
347.6137913450993
 30
0.0
 40
23.0
100
AcDbArc
 50
0.0
 51
57.4221988271395
  0
ARC
  5
178
330
53
100
AcDbEntity
  8
1
  6
Continuous
 62
     7
100
AcDbCircle
 10
168.859213463232
 20
347.6137913450993
 30
0.0
 40
23.00000000000003
100
AcDbArc
 50
122.5778011728604
 51
235.5826112895581
  0
ARC
  5
179
330
53
100
AcDbEntity
  8
1
  6
Continuous
 62
     7
100
AcDbCircle
 10
187.2111078819439
 20
347.674832937165
 30
0.0
 40
9.999999999999954
100
AcDbArc
 50
180.1905750230771
 51
207.8701173941452
  0
ARC
  5
17A
330
53
100
AcDbEntity
  8
1
  6
Continuous
 62
     7
100
AcDbCircle
 10
150.5073190445201
 20
347.674832937165
 30
0.0
 40
9.999999999999977
100
AcDbArc
 50
332.1298826058546
 51
359.8094249769229
  0
ARC
  5
17B
330
53
100
AcDbEntity
  8
1
  6
Continuous
 62
     7
100
AcDbCircle
 10
207.6092134632321
 20
821.6331809151794
 30
0.0
 40
30.0
100
AcDbArc
 50
180.0
 51
196.3396281907046
  0
ARC
  5
17C
330
53
100
AcDbEntity
  8
1
  6
Continuous
 62
     7
100
AcDbCircle
 10
179.6092134632321
 20
764.6136576060046
 30
0.0
 40
2.0
100
AcDbArc
 50
180.0
 51
270.0
  0
ARC
  5
17D
330
53
100
AcDbEntity
  8
1
  6
Continuous
 62
     7
100
AcDbCircle
 10
158.1092134632321
 20
764.6136576060046
 30
0.0
 40
2.0
100
AcDbArc
 50
270.0
 51
0.0
  0
ARC
  5
17E
330
53
100
AcDbEntity
  8
1
  6
Continuous
 62
     7
100
AcDbCircle
 10
130.1092134632321
 20
821.6331809151794
 30
0.0
 40
29.99999999999993
100
AcDbArc
 50
343.6603718092953
 51
0.0
  0
ARC
  5
17F
330
53
100
AcDbEntity
  8
1
  6
Continuous
 62
     7
100
AcDbCircle
 10
130.1092134632321
 20
773.5941342968297
 30
0.0
 40
30.0
100
AcDbArc
 50
0.0
 51
20.06805462081924
  0
ARC
  5
180
330
53
100
AcDbEntity
  8
1
  6
Continuous
 62
     7
100
AcDbCircle
 10
207.6092134632321
 20
773.5941342968297
 30
0.0
 40
29.99999999999996
100
AcDbArc
 50
159.9319453791808
 51
180.0
  0
ARC
  5
181
330
53
100
AcDbEntity
  8
1
  6
Continuous
 62
     7
100
AcDbCircle
 10
146.3592134632321
 20
840.5758528518337
 30
0.0
 40
0.5
100
AcDbArc
 50
180.0
 51
265.5000000000039
  0
ARC
  5
182
330
53
100
AcDbEntity
  8
1
  6
Continuous
 62
     7
100
AcDbCircle
 10
191.3592134632321
 20
840.5758528518337
 30
0.0
 40
0.5000000000001016
100
AcDbArc
 50
274.4999999999961
 51
0.0
  0
ARC
  5
183
330
53
100
AcDbEntity
  8
1
  6
Continuous
 62
     7
100
AcDbCircle
 10
605.0552325377955
 20
387.3637913450996
 30
0.0
 40
31.00000000000004
100
AcDbArc
 50
268.0736638597938
 51
270.0
  0
ARC
  5
184
330
53
100
AcDbEntity
  8
1
  6
Continuous
 62
     7
100
AcDbCircle
 10
604.3157118983736
 20
365.3762241940055
 30
0.0
 40
8.999999999998678
100
AcDbArc
 50
181.8183029644523
 51
268.0736638597967
  0
ARC
  5
185
330
53
100
AcDbEntity
  8
1
  6
Continuous
 62
     7
100
AcDbCircle
 10
605.0552325377955
 20
307.8637913450992
 30
0.0
 40
31.0
100
AcDbArc
 50
90.00000000000168
 51
111.6947160223879
  0
ARC
  5
186
330
53
100
AcDbEntity
  8
1
  6
Continuous
 62
     7
100
AcDbCircle
 10
564.4432598373596
 20
328.1137913450993
 30
0.0
 40
11.00000000000003
100
AcDbArc
 50
62.56075984931851
 51
90.0
  0
ARC
  5
187
330
53
100
AcDbEntity
  8
1
  6
Continuous
 62
     7
100
AcDbCircle
 10
625.8755684285265
 20
325.1137913450993
 30
0.0
 40
0.5
100
AcDbArc
 50
180.0
 51
270.0
  0
ARC
  5
188
330
53
100
AcDbEntity
  8
1
  6
Continuous
 62
     7
100
AcDbCircle
 10
625.8755684285265
 20
370.1137913450993
 30
0.0
 40
0.5
100
AcDbArc
 50
90.0
 51
180.0
  0
ENDBLK
  5
55
330
53
100
AcDbEntity
  8
0
100
AcDbBlockEnd
  0
BLOCK
  5
57
330
56
100
AcDbEntity
  8
0
100
AcDbBlockBegin
  2
36-54-M11
 70
     0
 10
277.0617100065783
 20
249.0446653356632
 30
0.0
  3
36-54-M11
  1

  0
LINE
  5
189
330
56
100
AcDbEntity
  8
1
  6
Continuous
 62
     7
100
AcDbLine
 10
173.6092134632321
 20
390.6137913450993
 30
0.0
 11
173.6092134632321
 21
387.1137913450993
 31
0.0
  0
LINE
  5
18A
330
56
100
AcDbEntity
  8
1
  6
Continuous
 62
     7
100
AcDbLine
 10
164.1092134632321
 20
387.1137913450993
 30
0.0
 11
164.1092134632321
 21
390.6137913450993
 31
0.0
  0
LINE
  5
18B
330
56
100
AcDbEntity
  8
1
  6
Continuous
 62
     7
100
AcDbLine
 10
587.6255684285267
 20
390.6137913450993
 30
0.0
 11
587.6255684285267
 21
387.1137913450993
 31
0.0
  0
LINE
  5
18C
330
56
100
AcDbEntity
  8
1
  6
Continuous
 62
     7
100
AcDbLine
 10
578.1255684285268
 20
387.1137913450993
 30
0.0
 11
578.1255684285269
 21
390.6137913450993
 31
0.0
  0
ENDBLK
  5
58
330
56
100
AcDbEntity
  8
0
100
AcDbBlockEnd
  0
BLOCK
  5
5A
330
59
100
AcDbEntity
  8
0
100
AcDbBlockBegin
  2
51-1
 70
     0
 10
547.3588032702797
 20
738.2436533667876
 30
0.0
  3
51-1
  1

  0
LINE
  5
18D
330
59
100
AcDbEntity
  8
1
  6
Continuous
 62
     7
100
AcDbLine
 10
601.3755684285265
 20
393.5887407675092
 30
0.0
 11
601.3755684285265
 21
391.1137913450993
 31
0.0
  0
LINE
  5
18E
330
59
100
AcDbEntity
  8
1
  6
Continuous
 62
     7
100
AcDbLine
 10
552.3755684285265
 20
390.6137913450993
 30
0.0
 11
600.8755684285265
 21
390.6137913450993
 31
0.0
  0
LINE
  5
18F
330
59
100
AcDbEntity
  8
1
  6
Continuous
 62
     7
100
AcDbLine
 10
551.8755684285265
 20
394.0007002504668
 30
0.0
 11
551.8755684285265
 21
391.1137913450993
 31
0.0
  0
LINE
  5
190
330
59
100
AcDbEntity
  8
1
  6
Continuous
 62
     7
100
AcDbLine
 10
174.6547684209664
 20
771.0607433353896
 30
0.0
 11
178.3061776324369
 21
784.6879880318223
 31
0.0
  0
LINE
  5
191
330
59
100
AcDbEntity
  8
1
  6
Continuous
 62
     7
100
AcDbLine
 10
194.7524892449623
 20
805.8710169188853
 30
0.0
 11
184.7766537599998
 21
795.895181433923
 31
0.0
  0
LINE
  5
192
330
59
100
AcDbEntity
  8
1
  6
Continuous
 62
     7
100
AcDbLine
 10
189.7174391898483
 20
816.112989238236
 30
0.0
 11
175.3296895907951
 21
812.2578033522685
 31
0.0
  0
LINE
  5
193
330
59
100
AcDbEntity
  8
1
  6
Continuous
 62
     7
100
AcDbLine
 10
148.7614926392362
 20
815.909212563739
 30
0.0
 11
162.3887373356689
 21
812.2578033522685
 31
0.0
  0
LINE
  5
194
330
59
100
AcDbEntity
  8
1
  6
Continuous
 62
     7
100
AcDbLine
 10
142.9659376815017
 20
805.8710169188853
 30
0.0
 11
152.9417731664642
 21
795.895181433923
 31
0.0
  0
LINE
  5
195
330
59
100
AcDbEntity
  8
1
  6
Continuous
 62
     7
100
AcDbLine
 10
163.0636585054975
 20
771.0607433353896
 30
0.0
 11
159.4122492940272
 21
784.6879880318223
 31
0.0
  0
LINE
  5
196
330
59
100
AcDbEntity
  8
1
  6
Continuous
 62
     7
100
AcDbLine
 10
141.7085783686212
 20
390.6137913450993
 30
0.0
 11
196.009848557843
 21
390.6137913450993
 31
0.0
  0
LINE
  5
197
330
59
100
AcDbEntity
  8
1
  6
Continuous
 62
     7
100
AcDbLine
 10
196.504982592214
 20
391.1833778955795
 30
0.0
 11
196.0530744932215
 21
394.39887110045
 31
0.0
  0
LINE
  5
198
330
59
100
AcDbEntity
  8
1
  6
Continuous
 62
     7
100
AcDbLine
 10
141.6653524332428
 20
394.39887110045
 30
0.0
 11
141.2134443342504
 21
391.1833778955795
 31
0.0
  0
LINE
  5
199
330
59
100
AcDbEntity
  8
1
  6
PHANTOM
 62
     4
100
AcDbLine
 10
160.1989594253877
 20
792.6136576060046
 30
0.0
 11
198.3040771919029
 21
814.6136576060047
 31
0.0
  0
LINE
  5
19A
330
59
100
AcDbEntity
  8
1
  6
PHANTOM
 62
     4
100
AcDbLine
 10
177.5194675010765
 20
792.6136576060046
 30
0.0
 11
139.4143497345611
 21
814.6136576060046
 31
0.0
  0
ARC
  5
19B
330
59
100
AcDbEntity
  8
1
  6
Continuous
 62
     7
100
AcDbCircle
 10
569.8715235699909
 20
323.4404580897181
 30
0.0
 40
80.64072525632022
100
AcDbArc
 50
70.0200832208879
 51
73.19210648524874
  0
ARC
  5
19C
330
59
100
AcDbEntity
  8
1
  6
Continuous
 62
     7
100
AcDbCircle
 10
584.8244502411369
 20
380.5536265801093
 30
0.0
 40
21.76119949013525
100
AcDbArc
 50
67.23245033102437
 51
82.20588758494802
  0
ARC
  5
19D
330
59
100
AcDbEntity
  8
1
  6
Continuous
 62
     7
100
AcDbCircle
 10
582.7755684285266
 20
253.582125267679
 30
0.0
 40
148.6092050572046
100
AcDbArc
 50
91.85094579686897
 51
100.0532276375031
  0
ARC
  5
19E
330
59
100
AcDbEntity
  8
1
  6
Continuous
 62
     7
100
AcDbCircle
 10
168.8592134632321
 20
772.6136576060046
 30
0.0
 40
6.0
100
AcDbArc
 50
270.0
 51
345.0000000000007
  0
ARC
  5
19F
330
59
100
AcDbEntity
  8
1
  6
Continuous
 62
     7
100
AcDbCircle
 10
190.5098485578429
 20
810.1136576060046
 30
0.0
 40
6.000000000000109
100
AcDbArc
 50
315.0000000000006
 51
97.52424107894032
  0
ARC
  5
1A0
330
59
100
AcDbEntity
  8
1
  6
Continuous
 62
     7
100
AcDbCircle
 10
147.208578368621
 20
810.1136576060046
 30
0.0
 40
5.999999999999949
100
AcDbArc
 50
74.99999999999922
 51
225.0000000000002
  0
ARC
  5
1A1
330
59
100
AcDbEntity
  8
1
  6
Continuous
 62
     7
100
AcDbCircle
 10
168.8592134632321
 20
772.6136576060046
 30
0.0
 40
6.000000000000152
100
AcDbArc
 50
194.9999999999986
 51
270.0
  0
ARC
  5
1A2
330
59
100
AcDbEntity
  8
1
  6
Continuous
 62
     7
100
AcDbCircle
 10
163.7663200396256
 20
274.4936388047751
 30
0.0
 40
127.9436752841996
100
AcDbArc
 50
77.6492054103803
 51
85.9245817619352
  0
ARC
  5
1A3
330
59
100
AcDbEntity
  8
1
  6
Continuous
 62
     7
100
AcDbCircle
 10
173.9521068868387
 20
274.4936388047752
 30
0.0
 40
127.9436752841994
100
AcDbArc
 50
94.07541823806491
 51
102.3507945896197
  0
ARC
  5
1A4
330
59
100
AcDbEntity
  8
1
  6
Continuous
 62
     7
100
AcDbCircle
 10
595.3755684285265
 20
393.5887407675092
 30
0.0
 40
6.0
100
AcDbArc
 50
0.0
 51
70.02008322088795
  0
ARC
  5
1A5
330
59
100
AcDbEntity
  8
1
  6
Continuous
 62
     7
100
AcDbCircle
 10
600.8755684285265
 20
391.1137913450993
 30
0.0
 40
0.5
100
AcDbArc
 50
270.0
 51
0.0
  0
ARC
  5
1A6
330
59
100
AcDbEntity
  8
1
  6
Continuous
 62
     7
100
AcDbCircle
 10
557.8755684285265
 20
394.0007002504668
 30
0.0
 40
6.000000000000086
100
AcDbArc
 50
99.99784348756724
 51
180.0
  0
ARC
  5
1A7
330
59
100
AcDbEntity
  8
1
  6
Continuous
 62
     7
100
AcDbCircle
 10
552.3755684285265
 20
391.1137913450993
 30
0.0
 40
0.5
100
AcDbArc
 50
180.0
 51
270.0
  0
ARC
  5
1A8
330
59
100
AcDbEntity
  8
1
  6
Continuous
 62
     7
100
AcDbCircle
 10
202.4543232896635
 20
778.2175119042595
 30
0.0
 40
24.99999999999988
100
AcDbArc
 50
135.0000000000004
 51
165.0000000000003
  0
ARC
  5
1A9
330
59
100
AcDbEntity
  8
1
  6
Continuous
 62
     7
100
AcDbCircle
 10
168.8592134632321
 20
836.4059490094952
 30
0.0
 40
25.00000000000001
100
AcDbArc
 50
254.9999999999996
 51
285.0
  0
ARC
  5
1AA
330
59
100
AcDbEntity
  8
1
  6
Continuous
 62
     7
100
AcDbCircle
 10
135.2641036368004
 20
778.2175119042595
 30
0.0
 40
25.00000000000004
100
AcDbArc
 50
14.99999999999957
 51
44.9999999999995
  0
ARC
  5
1AB
330
59
100
AcDbEntity
  8
1
  6
Continuous
 62
     7
100
AcDbCircle
 10
190.1114660807721
 20
393.5638324946898
 30
0.0
 40
5.999999999999948
100
AcDbArc
 50
7.99999999999811
 51
80.19709820623176
  0
ARC
  5
1AC
330
59
100
AcDbEntity
  8
1
  6
Continuous
 62
     7
100
AcDbCircle
 10
196.009848557843
 20
391.1137913450993
 30
0.0
 40
0.5
100
AcDbArc
 50
270.0
 51
8.0000000000166
  0
ARC
  5
1AD
330
59
100
AcDbEntity
  8
1
  6
Continuous
 62
     7
100
AcDbCircle
 10
141.7085783686212
 20
391.1137913450993
 30
0.0
 40
0.5000000000000461
100
AcDbArc
 50
171.9999999999802
 51
270.0
  0
ARC
  5
1AE
330
59
100
AcDbEntity
  8
1
  6
Continuous
 62
     7
100
AcDbCircle
 10
147.6069608456921
 20
393.5638324946898
 30
0.0
 40
5.999999999999907
100
AcDbArc
 50
99.80290179376799
 51
172.0000000000018
  0
ENDBLK
  5
5B
330
59
100
AcDbEntity
  8
0
100
AcDbBlockEnd
  0
BLOCK
  5
5D
330
5C
100
AcDbEntity
  8
0
100
AcDbBlockBegin
  2
開示A4
 70
     0
 10
0.0
 20
0.0
 30
0.0
  3
開示A4
  1

  0
POINT
  5
1AF
330
5C
100
AcDbEntity
  8
1
 62
     4
100
AcDbPoint
 10
93.75
 20
17.0
 30
0.0
  0
POINT
  5
1B0
330
5C
100
AcDbEntity
  8
1
 62
     4
100
AcDbPoint
 10
85.25
 20
17.0
 30
0.0
  0
POINT
  5
1B1
330
5C
100
AcDbEntity
  8
1
 62
     4
100
AcDbPoint
 10
106.5
 20
19.00000000000001
 30
0.0
  0
POINT
  5
1B2
330
5C
100
AcDbEntity
  8
1
 62
     4
100
AcDbPoint
 10
106.5
 20
12.5
 30
0.0
  0
POINT
  5
1B3
330
5C
100
AcDbEntity
  8
1
 62
     4
100
AcDbPoint
 10
112.25
 20
12.5
 30
0.0
  0
POINT
  5
1B4
330
5C
100
AcDbEntity
  8
1
 62
     4
100
AcDbPoint
 10
100.75
 20
12.5
 30
0.0
  0
POINT
  5
1B5
330
5C
100
AcDbEntity
  8
1
 62
     4
100
AcDbPoint
 10
123.5
 20
19.00000000000001
 30
0.0
  0
POINT
  5
1B6
330
5C
100
AcDbEntity
  8
1
 62
     4
100
AcDbPoint
 10
123.5
 20
12.5
 30
0.0
  0
POINT
  5
1B7
330
5C
100
AcDbEntity
  8
1
 62
     4
100
AcDbPoint
 10
129.25
 20
12.5
 30
0.0
  0
POINT
  5
1B8
330
5C
100
AcDbEntity
  8
1
 62
     4
100
AcDbPoint
 10
117.75
 20
12.5
 30
0.0
  0
POINT
  5
1B9
330
5C
100
AcDbEntity
  8
1
 62
     4
100
AcDbPoint
 10
140.5
 20
19.00000000000001
 30
0.0
  0
POINT
  5
1BA
330
5C
100
AcDbEntity
  8
1
 62
     4
100
AcDbPoint
 10
140.5
 20
12.5
 30
0.0
  0
POINT
  5
1BB
330
5C
100
AcDbEntity
  8
1
 62
     4
100
AcDbPoint
 10
146.25
 20
12.5
 30
0.0
  0
POINT
  5
1BC
330
5C
100
AcDbEntity
  8
1
 62
     4
100
AcDbPoint
 10
134.75
 20
12.5
 30
0.0
  0
POINT
  5
1BD
330
5C
100
AcDbEntity
  8
1
 62
     4
100
AcDbPoint
 10
151.75
 20
12.5
 30
0.0
  0
POINT
  5
1BE
330
5C
100
AcDbEntity
  8
1
 62
     4
100
AcDbPoint
 10
163.25
 20
12.5
 30
0.0
  0
POINT
  5
1BF
330
5C
100
AcDbEntity
  8
1
 62
     4
100
AcDbPoint
 10
157.5
 20
12.5
 30
0.0
  0
POINT
  5
1C0
330
5C
100
AcDbEntity
  8
1
 62
     4
100
AcDbPoint
 10
57.0
 20
14.25
 30
0.0
  0
POINT
  5
1C1
330
5C
100
AcDbEntity
  8
1
 62
     4
100
AcDbPoint
 10
57.0
 20
22.75000000000001
 30
0.0
  0
POINT
  5
1C2
330
5C
100
AcDbEntity
  8
1
 62
     4
100
AcDbPoint
 10
47.5
 20
282.0000000000003
 30
0.0
  0
POINT
  5
1C3
330
5C
100
AcDbEntity
  8
1
 62
     4
100
AcDbPoint
 10
157.5
 20
19.00000000000001
 30
0.0
  0
POINT
  5
1C4
330
5C
100
AcDbEntity
  8
1
 62
     4
100
AcDbPoint
 10
57.0
 20
16.25
 30
0.0
  0
POINT
  5
1C5
330
5C
100
AcDbEntity
  8
1
 62
     4
100
AcDbPoint
 10
57.0
 20
24.75000000000001
 30
0.0
  0
POINT
  5
1C6
330
5C
100
AcDbEntity
  8
1
 62
     4
100
AcDbPoint
 10
57.0
 20
20.75000000000001
 30
0.0
  0
POINT
  5
1C7
330
5C
100
AcDbEntity
  8
1
 62
     4
100
AcDbPoint
 10
57.0
 20
12.25
 30
0.0
  0
POINT
  5
1C8
330
5C
100
AcDbEntity
  8
1
 62
     4
100
AcDbPoint
 10
34.0
 20
34.00000000000001
 30
0.0
  0
LINE
  5
1C9
330
5C
100
AcDbEntity
  8
1
  6
Continuous
 62
     7
100
AcDbLine
 10
105.0
 20
10.0
 30
0.0
 11
200.0
 21
10.0
 31
0.0
  0
LINE
  5
1CA
330
5C
100
AcDbEntity
  8
1
  6
Continuous
 62
     2
100
AcDbLine
 10
105.0
 20
10.0
 30
0.0
 11
105.0
 21
5.0
 31
0.0
  0
LINE
  5
1CB
330
5C
100
AcDbEntity
  8
1
  6
Continuous
 62
     7
100
AcDbLine
 10
200.0
 20
148.5
 30
0.0
 11
200.0
 21
287.0000000000003
 31
0.0
  0
LINE
  5
1CC
330
5C
100
AcDbEntity
  8
1
  6
Continuous
 62
     2
100
AcDbLine
 10
200.0
 20
148.5
 30
0.0
 11
205.0
 21
148.5
 31
0.0
  0
LINE
  5
1CD
330
5C
100
AcDbEntity
  8
1
  6
Continuous
 62
     7
100
AcDbLine
 10
25.0
 20
148.5
 30
0.0
 11
25.0
 21
287.0000000000003
 31
0.0
  0
LINE
  5
1CE
330
5C
100
AcDbEntity
  8
1
  6
Continuous
 62
     2
100
AcDbLine
 10
25.0
 20
148.5
 30
0.0
 11
20.0
 21
148.5
 31
0.0
  0
LINE
  5
1CF
330
5C
100
AcDbEntity
  8
1
  6
Continuous
 62
     7
100
AcDbLine
 10
105.0
 20
287.0000000000003
 30
0.0
 11
25.0
 21
287.0000000000003
 31
0.0
  0
LINE
  5
1D0
330
5C
100
AcDbEntity
  8
1
  6
Continuous
 62
     2
100
AcDbLine
 10
105.0
 20
287.0000000000003
 30
0.0
 11
105.0
 21
292.0000000000003
 31
0.0
  0
LINE
  5
1D1
330
5C
100
AcDbEntity
  8
1
  6
Continuous
 62
     2
100
AcDbLine
 10
166.0
 20
20.00000000000001
 30
0.0
 11
200.0
 21
20.00000000000001
 31
0.0
  0
LINE
  5
1D2
330
5C
100
AcDbEntity
  8
1
  6
Continuous
 62
     2
100
AcDbLine
 10
98.0
 20
27.00000000000001
 30
0.0
 11
98.0
 21
9.99999999999999
 31
0.0
  0
LINE
  5
1D3
330
5C
100
AcDbEntity
  8
1
  6
Continuous
 62
     2
100
AcDbLine
 10
115.0
 20
27.00000000000001
 30
0.0
 11
115.0
 21
9.99999999999999
 31
0.0
  0
LINE
  5
1D4
330
5C
100
AcDbEntity
  8
1
  6
Continuous
 62
     2
100
AcDbLine
 10
149.0
 20
27.00000000000001
 30
0.0
 11
149.0
 21
10.0
 31
0.0
  0
LINE
  5
1D5
330
5C
100
AcDbEntity
  8
1
  6
Continuous
 62
     2
100
AcDbLine
 10
132.0
 20
27.00000000000001
 30
0.0
 11
132.0
 21
9.99999999999999
 31
0.0
  0
LINE
  5
1D6
330
5C
100
AcDbEntity
  8
1
  6
Continuous
 62
     2
100
AcDbLine
 10
166.0
 20
27.00000000000001
 30
0.0
 11
166.0
 21
10.0
 31
0.0
  0
LINE
  5
1D7
330
5C
100
AcDbEntity
  8
1
  6
Continuous
 62
     2
100
AcDbLine
 10
55.0
 20
277.0000000000003
 30
0.0
 11
25.0
 21
277.0000000000003
 31
0.0
  0
LINE
  5
1D8
330
5C
100
AcDbEntity
  8
1
  6
Continuous
 62
     7
100
AcDbLine
 10
25.0
 20
10.0
 30
0.0
 11
25.0
 21
148.5
 31
0.0
  0
LINE
  5
1D9
330
5C
100
AcDbEntity
  8
1
  6
Continuous
 62
     2
100
AcDbLine
 10
40.0
 20
287.0000000000003
 30
0.0
 11
40.0
 21
277.0000000000003
 31
0.0
  0
LINE
  5
1DA
330
5C
100
AcDbEntity
  8
1
  6
Continuous
 62
     2
100
AcDbLine
 10
55.0
 20
287.0000000000003
 30
0.0
 11
55.0
 21
277.0000000000003
 31
0.0
  0
LINE
  5
1DB
330
5C
100
AcDbEntity
  8
1
  6
Continuous
 62
     2
100
AcDbLine
 10
33.0
 20
41.00000000000001
 30
0.0
 11
33.0
 21
27.0
 31
0.0
  0
LINE
  5
1DC
330
5C
100
AcDbEntity
  8
1
  6
Continuous
 62
     7
100
AcDbLine
 10
200.0
 20
27.00000000000001
 30
0.0
 11
25.0
 21
27.00000000000001
 31
0.0
  0
LINE
  5
1DD
330
5C
100
AcDbEntity
  8
1
  6
Continuous
 62
     7
100
AcDbLine
 10
25.0
 20
41.0
 30
0.0
 11
200.0
 21
41.0
 31
0.0
  0
LINE
  5
1DE
330
5C
100
AcDbEntity
  8
1
  6
PHANTOM
 62
     4
100
AcDbLine
 10
0.0
 20
0.0
 30
0.0
 11
210.0
 21
0.0
 31
0.0
  0
LINE
  5
1DF
330
5C
100
AcDbEntity
  8
1
  6
PHANTOM
 62
     4
100
AcDbLine
 10
210.0
 20
0.0
 30
0.0
 11
210.0
 21
297.0
 31
0.0
  0
LINE
  5
1E0
330
5C
100
AcDbEntity
  8
1
  6
PHANTOM
 62
     4
100
AcDbLine
 10
210.0
 20
297.0
 30
0.0
 11
0.0
 21
297.0
 31
0.0
  0
LINE
  5
1E1
330
5C
100
AcDbEntity
  8
1
  6
PHANTOM
 62
     4
100
AcDbLine
 10
0.0
 20
297.0
 30
0.0
 11
0.0
 21
0.0
 31
0.0
  0
LINE
  5
1E2
330
5C
100
AcDbEntity
  8
1
  6
Continuous
 62
     7
100
AcDbLine
 10
25.0
 20
10.0
 30
0.0
 11
105.0
 21
10.0
 31
0.0
  0
LINE
  5
1E3
330
5C
100
AcDbEntity
  8
1
  6
Continuous
 62
     7
100
AcDbLine
 10
200.0
 20
10.0
 30
0.0
 11
200.0
 21
148.5
 31
0.0
  0
LINE
  5
1E4
330
5C
100
AcDbEntity
  8
1
  6
Continuous
 62
     7
100
AcDbLine
 10
200.0
 20
287.0000000000003
 30
0.0
 11
105.0
 21
287.0000000000003
 31
0.0
  0
LINE
  5
1E5
330
5C
100
AcDbEntity
  8
1
  6
Continuous
 62
     2
100
AcDbLine
 10
25.0
 20
18.50000000000001
 30
0.0
 11
81.0
 21
18.50000000000001
 31
0.0
  0
LINE
  5
1E6
330
5C
100
AcDbEntity
  8
1
  6
Continuous
 62
     2
100
AcDbLine
 10
33.0
 20
27.0
 30
0.0
 11
33.0
 21
10.0
 31
0.0
  0
LINE
  5
1E7
330
5C
100
AcDbEntity
  8
1
  6
Continuous
 62
     7
100
AcDbLine
 10
191.0
 20
24.70000000000001
 30
0.0
 11
191.0
 21
22.30000000000001
 31
0.0
  0
LINE
  5
1E8
330
5C
100
AcDbEntity
  8
1
  6
Continuous
 62
     7
100
AcDbLine
 10
191.0
 20
24.70000000000001
 30
0.0
 11
196.0
 21
25.50000000000001
 31
0.0
  0
LINE
  5
1E9
330
5C
100
AcDbEntity
  8
1
  6
Continuous
 62
     7
100
AcDbLine
 10
196.0
 20
25.50000000000001
 30
0.0
 11
196.0
 21
21.50000000000001
 31
0.0
  0
LINE
  5
1EA
330
5C
100
AcDbEntity
  8
1
  6
Continuous
 62
     7
100
AcDbLine
 10
196.0
 20
21.50000000000001
 30
0.0
 11
191.0
 21
22.30000000000001
 31
0.0
  0
LINE
  5
1EB
330
5C
100
AcDbEntity
  8
1
  6
DOT_CENTER
 62
     2
100
AcDbLine
 10
184.0
 20
23.50000000000001
 30
0.0
 11
197.0
 21
23.50000000000001
 31
0.0
  0
LINE
  5
1EC
330
5C
100
AcDbEntity
  8
1
  6
DOT_CENTER
 62
     2
100
AcDbLine
 10
187.0
 20
26.50000000000001
 30
0.0
 11
187.0
 21
20.50000000000001
 31
0.0
  0
LINE
  5
1ED
330
5C
100
AcDbEntity
  8
1
  6
Continuous
 62
     2
100
AcDbLine
 10
81.0
 20
27.00000000000001
 30
0.0
 11
81.0
 21
10.0
 31
0.0
  0
CIRCLE
  5
1EE
330
5C
100
AcDbEntity
  8
1
  6
Continuous
 62
     7
100
AcDbCircle
 10
103.5
 20
12.5
 30
0.0
 40
0.2999999999999972
  0
CIRCLE
  5
1EF
330
5C
100
AcDbEntity
  8
1
  6
Continuous
 62
     7
100
AcDbCircle
 10
109.5
 20
12.5
 30
0.0
 40
0.2999999999999972
  0
CIRCLE
  5
1F0
330
5C
100
AcDbEntity
  8
1
  6
Continuous
 62
     7
100
AcDbCircle
 10
120.5
 20
12.5
 30
0.0
 40
0.2999999999999972
  0
CIRCLE
  5
1F1
330
5C
100
AcDbEntity
  8
1
  6
Continuous
 62
     7
100
AcDbCircle
 10
126.5
 20
12.5
 30
0.0
 40
0.2999999999999972
  0
CIRCLE
  5
1F2
330
5C
100
AcDbEntity
  8
1
  6
Continuous
 62
     7
100
AcDbCircle
 10
137.5
 20
12.5
 30
0.0
 40
0.3000000000000114
  0
CIRCLE
  5
1F3
330
5C
100
AcDbEntity
  8
1
  6
Continuous
 62
     7
100
AcDbCircle
 10
143.5
 20
12.5
 30
0.0
 40
0.3000000000000114
  0
CIRCLE
  5
1F4
330
5C
100
AcDbEntity
  8
1
  6
Continuous
 62
     7
100
AcDbCircle
 10
160.5
 20
12.5
 30
0.0
 40
0.3000000000000114
  0
CIRCLE
  5
1F5
330
5C
100
AcDbEntity
  8
1
  6
Continuous
 62
     7
100
AcDbCircle
 10
154.5
 20
12.5
 30
0.0
 40
0.3000000000000114
  0
CIRCLE
  5
1F6
330
5C
100
AcDbEntity
  8
1
  6
Continuous
 62
     7
100
AcDbCircle
 10
187.0
 20
23.50000000000001
 30
0.0
 40
1.200000000000102
  0
CIRCLE
  5
1F7
330
5C
100
AcDbEntity
  8
1
  6
Continuous
 62
     7
100
AcDbCircle
 10
187.0
 20
23.50000000000001
 30
0.0
 40
2.0
  0
CIRCLE
  5
1F8
330
5C
100
AcDbEntity
  8
1
  6
DOT_CENTER
 62
     7
100
AcDbCircle
 10
89.5
 20
16.0
 30
0.0
 40
0.1000000000000227
  0
CIRCLE
  5
1F9
330
5C
100
AcDbEntity
  8
1
  6
DOT_CENTER
 62
     7
100
AcDbCircle
 10
89.5
 20
18.0
 30
0.0
 40
0.1000000000000227
  0
MTEXT
  5
1FB
330
5C
100
AcDbEntity
  8
1
 62
     7
100
AcDbMText
 10
188.5
 20
15.0
 30
0.0
 40
3.0
 41
0.0
 71
     5
 72
     1
  1
三栄水栓製作所
  7
CONVERTER_11
 73
     1
 44
1.0
  0
MTEXT
  5
1FC
330
5C
100
AcDbEntity
  8
1
 62
     7
100
AcDbMText
 10
171.5
 20
15.0
 30
0.0
 40
2.5
 41
0.0
 71
     5
 72
     1
  1
株式会社
  7
CONVERTER_11
 73
     1
 44
1.0
  0
MTEXT
  5
1FD
330
5C
100
AcDbEntity
  8
1
 62
     2
100
AcDbMText
 10
32.5
 20
282.0000000000003
 30
0.0
 40
5.0
 41
0.0
 71
     5
 72
     1
  1
図番
  7
CONVERTER_11
 73
     1
 44
0.45454545454545
  0
MTEXT
  5
1FE
330
5C
100
AcDbEntity
  8
1
 62
     2
100
AcDbMText
 10
29.0
 20
34.00000000000001
 30
0.0
 40
3.5
 41
0.0
 71
     5
 72
     1
  1
備考
  7
CONVERTER_11
 73
     1
 44
0.45454545454545
  0
MTEXT
  5
1FF
330
5C
100
AcDbEntity
  8
1
 62
     2
100
AcDbMText
 10
29.0
 20
22.75
 30
0.0
 40
3.5
 41
0.0
 71
     5
 72
     1
  1
品名
  7
CONVERTER_11
 73
     1
 44
0.72727272727273
  0
MTEXT
  5
200
330
5C
100
AcDbEntity
  8
1
 62
     2
100
AcDbMText
 10
29.0
 20
14.25
 30
0.0
 40
3.5
 41
0.0
 71
     5
 72
     1
  1
品番
  7
CONVERTER_11
 73
     1
 44
0.72727272727273
  0
MTEXT
  5
201
330
5C
100
AcDbEntity
  8
1
 62
     2
100
AcDbMText
 10
101.5
 20
25.00000000000001
 30
0.0
 40
3.0
 41
0.0
 71
     5
 72
     1
  1
承認
  7
CONVERTER_11
 73
     1
 44
0.59090909090909
  0
MTEXT
  5
202
330
5C
100
AcDbEntity
  8
1
 62
     2
100
AcDbMText
 10
175.0
 20
23.50000000000001
 30
0.0
 40
3.5
 41
0.0
 71
     5
 72
     1
  1
第三角法
  7
CONVERTER_11
 73
     1
 44
0.54545454545455
  0
MTEXT
  5
203
330
5C
100
AcDbEntity
  8
1
 62
     2
100
AcDbMText
 10
118.5
 20
25.00000000000001
 30
0.0
 40
3.0
 41
0.0
 71
     5
 72
     1
  1
検図
  7
CONVERTER_11
 73
     1
 44
0.59090909090909
  0
MTEXT
  5
204
330
5C
100
AcDbEntity
  8
1
 62
     2
100
AcDbMText
 10
152.5
 20
25.00000000000001
 30
0.0
 40
3.0
 41
0.0
 71
     5
 72
     1
  1
設計
  7
CONVERTER_11
 73
     1
 44
0.59090909090909
  0
MTEXT
  5
205
330
5C
100
AcDbEntity
  8
1
 62
     2
100
AcDbMText
 10
135.5
 20
25.00000000000001
 30
0.0
 40
3.0
 41
0.0
 71
     5
 72
     1
  1
製図
  7
CONVERTER_11
 73
     1
 44
0.59090909090909
  0
MTEXT
  5
206
330
5C
100
AcDbEntity
  8
1
 62
     2
100
AcDbMText
 10
89.5
 20
24.00000000000001
 30
0.0
 40
3.5
 41
0.0
 71
     5
 72
     1
  1
尺度
  7
CONVERTER_11
 73
     1
 44
0.54545454545455
  0
MTEXT
  5
207
330
5C
100
AcDbEntity
  8
1
 62
   250
100
AcDbMText
 10
25.0
 20
5.0
 30
0.0
 40
3.5
 41
0.0
 71
     4
 72
     1
  1
備考欄の文字列 原点位置=4
  7
CONVERTER_11
 73
     1
 44
0.54545454545455
  0
ENDBLK
  5
5E
330
5C
100
AcDbEntity
  8
0
100
AcDbBlockEnd
  0
BLOCK
  5
229
330
222
100
AcDbEntity
  8
0
100
AcDbBlockBegin
  2
*D9
 70
     1
 10
0.0
 20
0.0
 30
0.0
  3
*D9
  1

  0
LINE
  5
223
330
222
100
AcDbEntity
  8
1
  6
Continuous
 62
     2
100
AcDbLine
 10
627.8755684285268
 20
218.1137913450993
 30
0.0
 11
641.8755684285268
 21
218.1137913450993
 31
0.0
  0
LINE
  5
224
330
222
100
AcDbEntity
  8
1
  6
Continuous
 62
     2
100
AcDbLine
 10
641.8755684285268
 20
218.1137913450993
 30
0.0
 11
666.6185656654919
 21
218.1137913450993
 31
0.0
  0
LINE
  5
225
330
222
100
AcDbEntity
  8
1
  6
Continuous
 62
     2
100
AcDbLine
 10
641.8755684285265
 20
338.1137913450993
 30
0.0
 11
641.8755684285265
 21
214.6137913450993
 31
0.0
  0
LINE
  5
226
330
222
100
AcDbEntity
  8
1
  6
Continuous
 62
     2
100
AcDbLine
 10
627.8755684285268
 20
321.1344548803724
 30
0.0
 11
627.8755684285268
 21
214.6137913450993
 31
0.0
  0
SOLID
  5
227
330
222
100
AcDbEntity
  8
1
 62
     2
100
AcDbTrace
 10
654.1255684285268
 20
219.7265344405449
 30
0.0
 11
654.1255684285268
 21
216.5010482496537
 31
0.0
 12
641.8755684285268
 22
218.1137913450993
 32
0.0
 13
641.8755684285268
 23
218.1137913450993
 33
0.0
  0
MTEXT
  5
228
330
222
100
AcDbEntity
  8
1
 62
     7
100
AcDbMText
 10
651.9185656654919
 20
221.6137913450993
 30
0.0
 40
12.25
 41
0.0
 71
     7
 72
     1
  1
14
  7
CONVERTER_12
 11
0.9999999999970619
 21
2.424068405545306E-6
 31
0.0
 73
     1
 44
0.60024009603842
  0
ENDBLK
  5
22A
330
222
100
AcDbEntity
  8
0
100
AcDbBlockEnd
  0
BLOCK
  5
22C
330
22B
100
AcDbEntity
  8
0
100
AcDbBlockBegin
  2
_NONE
 70
     0
 10
0.0
 20
0.0
 30
0.0
  3
_NONE
  1

  0
ENDBLK
  5
22D
330
22B
100
AcDbEntity
  8
0
100
AcDbBlockEnd
  0
BLOCK
  5
237
330
230
100
AcDbEntity
  8
0
100
AcDbBlockBegin
  2
*D11
 70
     1
 10
0.0
 20
0.0
 30
0.0
  3
*D11
  1

  0
LINE
  5
231
330
230
100
AcDbEntity
  8
0
  6
Continuous
 62
     2
100
AcDbLine
 10
443.8993907800348
 20
347.6137913450993
 30
0.0
 11
443.8993907800348
 21
406.1137913450993
 31
0.0
  0
LINE
  5
232
330
230
100
AcDbEntity
  8
0
  6
Continuous
 62
     2
100
AcDbLine
 10
533.0803021563373
 20
347.6137913450993
 30
0.0
 11
440.3993907800348
 21
347.6137913450993
 31
0.0
  0
LINE
  5
233
330
230
100
AcDbEntity
  8
0
  6
Continuous
 62
     2
100
AcDbLine
 10
582.8755684285265
 20
406.1137913450993
 30
0.0
 11
440.3993907800348
 21
406.1137913450993
 31
0.0
  0
SOLID
  5
234
330
230
100
AcDbEntity
  8
0
 62
     2
100
AcDbTrace
 10
442.2866476845892
 20
359.8637913450993
 30
0.0
 11
445.5121338754804
 21
359.8637913450993
 31
0.0
 12
443.8993907800348
 22
347.6137913450993
 32
0.0
 13
443.8993907800348
 23
347.6137913450993
 33
0.0
  0
SOLID
  5
235
330
230
100
AcDbEntity
  8
0
 62
     2
100
AcDbTrace
 10
445.5121338754804
 20
393.8637913450993
 30
0.0
 11
442.2866476845892
 21
393.8637913450993
 31
0.0
 12
443.8993907800348
 22
406.1137913450993
 32
0.0
 13
443.8993907800348
 23
406.1137913450993
 33
0.0
  0
MTEXT
  5
236
330
230
100
AcDbEntity
  8
0
 62
     7
100
AcDbMText
 10
440.3993907800348
 20
345.0991759594494
 30
0.0
 40
12.25
 41
0.0
 71
     7
 72
     1
  1
59リフト5
  7
CONVERTER_11
 11
0.0
 21
1.0
 31
0.0
 73
     1
 44
0.45454545454545
  0
ENDBLK
  5
238
330
230
100
AcDbEntity
  8
0
100
AcDbBlockEnd
  0
BLOCK
  5
242
330
23B
100
AcDbEntity
  8
0
100
AcDbBlockBegin
  2
*D12
 70
     1
 10
0.0
 20
0.0
 30
0.0
  3
*D12
  1

  0
LINE
  5
23C
330
23B
100
AcDbEntity
  8
0
  6
Continuous
 62
     2
100
AcDbLine
 10
443.8993907800349
 20
347.6137913450993
 30
0.0
 11
443.8993907800349
 21
253.1137913450993
 31
0.0
  0
LINE
  5
23D
330
23B
100
AcDbEntity
  8
0
  6
Continuous
 62
     2
100
AcDbLine
 10
255.2601760301021
 20
253.1137913450993
 30
0.0
 11
447.3993907800349
 21
253.1137913450993
 31
0.0
  0
LINE
  5
23E
330
23B
100
AcDbEntity
  8
0
  6
Continuous
 62
     2
100
AcDbLine
 10
533.0803021563373
 20
347.6137913450993
 30
0.0
 11
440.3993907800349
 21
347.6137913450993
 31
0.0
  0
SOLID
  5
23F
330
23B
100
AcDbEntity
  8
0
 62
     2
100
AcDbTrace
 10
445.5121338754805
 20
335.3637913450993
 30
0.0
 11
442.2866476845893
 21
335.3637913450993
 31
0.0
 12
443.8993907800349
 22
347.6137913450993
 32
0.0
 13
443.8993907800349
 23
347.6137913450993
 33
0.0
  0
SOLID
  5
240
330
23B
100
AcDbEntity
  8
0
 62
     2
100
AcDbTrace
 10
442.2866476845893
 20
265.3637913450993
 30
0.0
 11
445.5121338754805
 21
265.3637913450993
 31
0.0
 12
443.8993907800349
 22
253.1137913450993
 32
0.0
 13
443.8993907800349
 23
253.1137913450993
 33
0.0
  0
MTEXT
  5
241
330
23B
100
AcDbEntity
  8
0
 62
     7
100
AcDbMText
 10
440.3993907800349
 20
302.9683285503096
 30
0.0
 40
12.25
 41
0.0
 71
     7
 72
     1
  1
95
  7
CONVERTER_12
 11
0.0
 21
1.0
 31
0.0
 73
     1
 44
0.60024009603842
  0
ENDBLK
  5
243
330
23B
100
AcDbEntity
  8
0
100
AcDbBlockEnd
  0
BLOCK
  5
24D
330
246
100
AcDbEntity
  8
0
100
AcDbBlockBegin
  2
*D13
 70
     1
 10
0.0
 20
0.0
 30
0.0
  3
*D13
  1

  0
LINE
  5
247
330
246
100
AcDbEntity
  8
1
  6
Continuous
 62
     2
100
AcDbLine
 10
676.8755684285265
 20
324.6137913450993
 30
0.0
 11
676.8755684285265
 21
370.6137913450993
 31
0.0
  0
LINE
  5
248
330
246
100
AcDbEntity
  8
1
  6
Continuous
 62
     2
100
AcDbLine
 10
627.8755684285265
 20
370.6137913450993
 30
0.0
 11
680.3755684285265
 21
370.6137913450993
 31
0.0
  0
LINE
  5
249
330
246
100
AcDbEntity
  8
1
  6
Continuous
 62
     2
100
AcDbLine
 10
627.8755684285268
 20
324.6137913450993
 30
0.0
 11
680.3755684285265
 21
324.6137913450993
 31
0.0
  0
SOLID
  5
24A
330
246
100
AcDbEntity
  8
1
 62
     2
100
AcDbTrace
 10
675.262825333081
 20
336.8637913450993
 30
0.0
 11
678.4883115239721
 21
336.8637913450993
 31
0.0
 12
676.8755684285265
 22
324.6137913450993
 32
0.0
 13
676.8755684285265
 23
324.6137913450993
 33
0.0
  0
SOLID
  5
24B
330
246
100
AcDbEntity
  8
1
 62
     2
100
AcDbTrace
 10
678.4883115239721
 20
358.3637913450993
 30
0.0
 11
675.262825333081
 21
358.3637913450993
 31
0.0
 12
676.8755684285265
 22
370.6137913450993
 32
0.0
 13
676.8755684285265
 23
370.6137913450993
 33
0.0
  0
MTEXT
  5
24C
330
246
100
AcDbEntity
  8
1
 62
     7
100
AcDbMText
 10
673.3755684285265
 20
335.7312913450993
 30
0.0
 40
12.25
 41
0.0
 71
     7
 72
     1
  1
\C7;{\Fgdt;n}\C7;46
  7
CONVERTER_12
 11
0.0
 21
1.0
 31
0.0
 73
     1
 44
0.60024009603842
  0
ENDBLK
  5
24E
330
246
100
AcDbEntity
  8
0
100
AcDbBlockEnd
  0
BLOCK
  5
258
330
251
100
AcDbEntity
  8
0
100
AcDbBlockBegin
  2
*D14
 70
     1
 10
0.0
 20
0.0
 30
0.0
  3
*D14
  1

  0
LINE
  5
252
330
251
100
AcDbEntity
  8
0
  6
Continuous
 62
     2
100
AcDbLine
 10
247.8737690241161
 20
218.1137913450993
 30
0.0
 11
547.8755684285268
 21
218.1137913450993
 31
0.0
  0
LINE
  5
253
330
251
100
AcDbEntity
  8
0
  6
Continuous
 62
     2
100
AcDbLine
 10
547.8755684285268
 20
311.1137913450993
 30
0.0
 11
547.8755684285268
 21
214.6137913450993
 31
0.0
  0
LINE
  5
254
330
251
100
AcDbEntity
  8
0
  6
Continuous
 62
     2
100
AcDbLine
 10
247.8737690241161
 20
249.9657464254773
 30
0.0
 11
247.8737690241161
 21
214.6137913450993
 31
0.0
  0
SOLID
  5
255
330
251
100
AcDbEntity
  8
0
 62
     2
100
AcDbTrace
 10
260.1237690241161
 20
219.7265344405449
 30
0.0
 11
260.1237690241161
 21
216.5010482496537
 31
0.0
 12
247.8737690241161
 22
218.1137913450993
 32
0.0
 13
247.8737690241161
 23
218.1137913450993
 33
0.0
  0
SOLID
  5
256
330
251
100
AcDbEntity
  8
0
 62
     2
100
AcDbTrace
 10
535.6255684285268
 20
216.5010482496537
 30
0.0
 11
535.6255684285268
 21
219.7265344405449
 31
0.0
 12
547.8755684285268
 22
218.1137913450993
 32
0.0
 13
547.8755684285268
 23
218.1137913450993
 33
0.0
  0
MTEXT
  5
257
330
251
100
AcDbEntity
  8
0
 62
     7
100
AcDbMText
 10
383.1746687263212
 20
221.6137913450993
 30
0.0
 40
12.25
 41
0.0
 71
     7
 72
     1
  1
300
  7
CONVERTER_12
 11
0.9999999999970619
 21
2.424068405545306E-6
 31
0.0
 73
     1
 44
0.60024009603842
  0
ENDBLK
  5
259
330
251
100
AcDbEntity
  8
0
100
AcDbBlockEnd
  0
BLOCK
  5
263
330
25C
100
AcDbEntity
  8
0
100
AcDbBlockBegin
  2
*D15
 70
     1
 10
0.0
 20
0.0
 30
0.0
  3
*D15
  1

  0
LINE
  5
25D
330
25C
100
AcDbEntity
  8
0
  6
Continuous
 62
     2
100
AcDbLine
 10
547.8755684285268
 20
218.1137913450993
 30
0.0
 11
582.8755684285268
 21
218.1137913450993
 31
0.0
  0
LINE
  5
25E
330
25C
100
AcDbEntity
  8
0
  6
Continuous
 62
     2
100
AcDbLine
 10
582.8755684285268
 20
331.9625063951353
 30
0.0
 11
582.8755684285268
 21
214.6137913450993
 31
0.0
  0
LINE
  5
25F
330
25C
100
AcDbEntity
  8
0
  6
Continuous
 62
     2
100
AcDbLine
 10
547.8755684285268
 20
311.1137913450993
 30
0.0
 11
547.8755684285268
 21
214.6137913450993
 31
0.0
  0
SOLID
  5
260
330
25C
100
AcDbEntity
  8
0
 62
     2
100
AcDbTrace
 10
560.1255684285268
 20
219.7265344405449
 30
0.0
 11
560.1255684285268
 21
216.5010482496537
 31
0.0
 12
547.8755684285268
 22
218.1137913450993
 32
0.0
 13
547.8755684285268
 23
218.1137913450993
 33
0.0
  0
SOLID
  5
261
330
25C
100
AcDbEntity
  8
0
 62
     2
100
AcDbTrace
 10
570.6255684285268
 20
216.5010482496537
 30
0.0
 11
570.6255684285268
 21
219.7265344405449
 31
0.0
 12
582.8755684285268
 22
218.1137913450993
 32
0.0
 13
582.8755684285268
 23
218.1137913450993
 33
0.0
  0
MTEXT
  5
262
330
25C
100
AcDbEntity
  8
0
 62
     7
100
AcDbMText
 10
556.1880684285263
 20
221.6137913450993
 30
0.0
 40
12.25
 41
0.0
 71
     7
 72
     1
  1
35
  7
CONVERTER_12
 11
0.9999999999970619
 21
2.424068405545306E-6
 31
0.0
 73
     1
 44
0.60024009603842
  0
ENDBLK
  5
264
330
25C
100
AcDbEntity
  8
0
100
AcDbBlockEnd
  0
BLOCK
  5
26E
330
267
100
AcDbEntity
  8
0
100
AcDbBlockBegin
  2
*D16
 70
     1
 10
0.0
 20
0.0
 30
0.0
  3
*D16
  1

  0
LINE
  5
268
330
267
100
AcDbEntity
  8
0
  6
Continuous
 62
     2
100
AcDbLine
 10
582.8755684285268
 20
218.1137913450993
 30
0.0
 11
627.8755684285268
 21
218.1137913450993
 31
0.0
  0
LINE
  5
269
330
267
100
AcDbEntity
  8
0
  6
Continuous
 62
     2
100
AcDbLine
 10
627.8755684285268
 20
321.1344548803724
 30
0.0
 11
627.8755684285268
 21
214.6137913450993
 31
0.0
  0
LINE
  5
26A
330
267
100
AcDbEntity
  8
0
  6
Continuous
 62
     2
100
AcDbLine
 10
582.8755684285268
 20
331.9625063951353
 30
0.0
 11
582.8755684285268
 21
214.6137913450993
 31
0.0
  0
SOLID
  5
26B
330
267
100
AcDbEntity
  8
0
 62
     2
100
AcDbTrace
 10
595.1255684285268
 20
219.7265344405449
 30
0.0
 11
595.1255684285268
 21
216.5010482496537
 31
0.0
 12
582.8755684285268
 22
218.1137913450993
 32
0.0
 13
582.8755684285268
 23
218.1137913450993
 33
0.0
  0
SOLID
  5
26C
330
267
100
AcDbEntity
  8
0
 62
     2
100
AcDbTrace
 10
615.6255684285268
 20
216.5010482496537
 30
0.0
 11
615.6255684285268
 21
219.7265344405449
 31
0.0
 12
627.8755684285268
 22
218.1137913450993
 32
0.0
 13
627.8755684285268
 23
218.1137913450993
 33
0.0
  0
MTEXT
  5
26D
330
267
100
AcDbEntity
  8
0
 62
     7
100
AcDbMText
 10
596.1880684285265
 20
221.6137913450993
 30
0.0
 40
12.25
 41
0.0
 71
     7
 72
     1
  1
45
  7
CONVERTER_12
 11
0.9999999999970619
 21
2.424068405545306E-6
 31
0.0
 73
     1
 44
0.60024009603842
  0
ENDBLK
  5
26F
330
267
100
AcDbEntity
  8
0
100
AcDbBlockEnd
  0
ENDSEC
  0
SECTION
  2
ENTITIES
  0
INSERT
  5
5F
330
1F
100
AcDbEntity
  8
0
100
AcDbBlockReference
  2
42-1
 10
434.7713083419232
 20
195.3241423355146
 30
0.0
  0
INSERT
  5
60
330
1F
100
AcDbEntity
  8
0
100
AcDbBlockReference
  2
37-1-13
 10
431.0743382117556
 20
231.1180854549548
 30
0.0
  0
INSERT
  5
61
330
1F
100
AcDbEntity
  8
0
100
AcDbBlockReference
  2
60-1-16-300
 10
349.7093344231129
 20
222.7476935151055
 30
0.0
  0
INSERT
  5
62
330
1F
100
AcDbEntity
  8
1
100
AcDbBlockReference
  2
32-1-16
 10
191.3298285928578
 20
528.0996234752084
 30
0.0
  0
INSERT
  5
63
330
1F
100
AcDbEntity
  8
1
100
AcDbBlockReference
  2
A10-0A-13
 10
522.8755684285265
 20
347.6137913450993
 30
0.0
  0
INSERT
  5
64
330
1F
100
AcDbEntity
  8
0
100
AcDbBlockReference
  2
36-54-M11
 10
277.0617100065783
 20
249.0446653356632
 30
0.0
  0
INSERT
  5
65
330
1F
100
AcDbEntity
  8
1
100
AcDbBlockReference
  2
51-1
 10
547.3588032702797
 20
738.2436533667876
 30
0.0
  0
INSERT
  5
66
330
1F
100
AcDbEntity
  8
1
100
AcDbBlockReference
  2
開示A4
 10
0.0
 20
0.0
 30
0.0
 41
3.5
 42
3.5
 43
3.5
  0
LINE
  5
208
330
1F
100
AcDbEntity
  8
1
  6
DASH_CENTER
 62
     2
100
AcDbLine
 10
144.3592134632321
 20
762.6136576060046
 30
0.0
 11
193.3592134632321
 21
762.6136576060046
 31
0.0
  0
LINE
  5
209
330
1F
100
AcDbEntity
  8
1
  6
DASH_CENTER
 62
     2
100
AcDbLine
 10
186.1592134632322
 20
462.6118582015939
 30
0.0
 11
151.5592134632318
 21
462.6118582015939
 31
0.0
  0
LINE
  5
20A
330
1F
100
AcDbEntity
  8
1
  6
DASH_CENTER
 62
     2
100
AcDbLine
 10
168.8592134632322
 20
862.3354758001484
 30
0.0
 11
168.8592134632321
 21
450.6356609360395
 31
0.0
  0
LINE
  5
20B
330
1F
100
AcDbEntity
  8
0
  6
Continuous
 62
     2
100
AcDbLine
 10
627.8755684285268
 20
324.6137913450993
 30
0.0
 11
627.8755684285268
 21
321.1344548803724
 31
0.0
  0
LINE
  5
20C
330
1F
100
AcDbEntity
  8
1
  6
DASH_CENTER
 62
     2
100
AcDbLine
 10
547.8755684285268
 20
311.1137913450993
 30
0.0
 11
547.8755684285268
 21
356.2395300733872
 31
0.0
  0
LINE
  5
20D
330
1F
100
AcDbEntity
  8
1
  6
DASH_CENTER
 62
     2
100
AcDbLine
 10
272.8737690241161
 20
286.1137913450993
 30
0.0
 11
522.8755684285268
 21
286.1137913450993
 31
0.0
  0
LINE
  5
20E
330
1F
100
AcDbEntity
  8
1
  6
DASH_CENTER
 62
     2
100
AcDbLine
 10
247.8737690241161
 20
249.9657464254773
 30
0.0
 11
247.8737690241161
 21
261.1137913450993
 31
0.0
  0
LINE
  5
20F
330
1F
100
AcDbEntity
  8
0
  6
DASH_CENTER
 62
     2
100
AcDbLine
 10
168.8592134632321
 20
409.2816044027582
 30
0.0
 11
168.8592134632321
 21
242.6137913450993
 31
0.0
  0
LINE
  5
210
330
1F
100
AcDbEntity
  8
1
  6
DASH_CENTER
 62
     2
100
AcDbLine
 10
582.8755684285268
 20
331.9625063951353
 30
0.0
 11
582.8755684285268
 21
409.2816044027582
 31
0.0
  0
LINE
  5
211
330
1F
100
AcDbEntity
  8
1
  6
DASH_CENTER
 62
     2
100
AcDbLine
 10
644.9133749602797
 20
347.6137913450993
 30
0.0
 11
533.0803021563373
 21
347.6137913450993
 31
0.0
  0
LINE
  5
212
330
1F
100
AcDbEntity
  8
1
  6
DASH_CENTER
 62
     2
100
AcDbLine
 10
160.1989594253877
 20
792.6136576060046
 30
0.0
 11
198.3040771919029
 21
814.6136576060047
 31
0.0
  0
LINE
  5
213
330
1F
100
AcDbEntity
  8
1
  6
DASH_CENTER
 62
     2
100
AcDbLine
 10
177.5194675010765
 20
792.6136576060046
 30
0.0
 11
139.4143497345611
 21
814.6136576060046
 31
0.0
  0
LINE
  5
214
330
1F
100
AcDbEntity
  8
0
  6
DASH_CENTER
 62
     2
100
AcDbLine
 10
142.859213463232
 20
347.6137913450993
 30
0.0
 11
191.859213463232
 21
347.6137913450993
 31
0.0
  0
LINE
  5
215
330
1F
100
AcDbEntity
  8
0
  6
DASH_CENTER
 62
     2
100
AcDbLine
 10
191.859213463232
 20
347.6137913450993
 30
0.0
 11
194.859213463232
 21
347.6137913450993
 31
0.0
  0
LINE
  5
216
330
1F
100
AcDbEntity
  8
1
  6
DASH_CENTER
 62
     2
100
AcDbLine
 10
185.8592134632321
 20
797.6136576060046
 30
0.0
 11
151.8592134632321
 21
797.6136576060046
 31
0.0
  0
ARC
  5
217
330
1F
100
AcDbEntity
  8
1
  6
DASH_CENTER
 62
     2
100
AcDbCircle
 10
272.8737690241161
 20
261.1137913450993
 30
0.0
 40
25.0
100
AcDbArc
 50
90.0
 51
180.0
  0
ARC
  5
218
330
1F
100
AcDbEntity
  8
1
  6
DASH_CENTER
 62
     2
100
AcDbCircle
 10
522.8755684285268
 20
311.1137913450993
 30
0.0
 40
25.0
100
AcDbArc
 50
270.0
 51
0.0
  0
SOLID
  5
219
330
1F
100
AcDbEntity
  8
1
 62
     2
100
AcDbTrace
 10
184.0875369727985
 20
861.0208840021605
 30
0.0
 11
186.8808899536662
 21
859.408140906715
 31
0.0
 12
179.3592134632322
 22
849.6057012580784
 32
0.0
 13
179.3592134632322
 23
849.6057012580784
 33
0.0
  0
LEADER
  5
21A
330
1F
100
AcDbEntity
  8
1
  6
Continuous
 62
     2
100
AcDbLeader
  3
Standard
 71
     0
 76
     3
 10
179.3592134632322
 20
849.6057012580784
 30
0.0
 10
196.7419033365061
 20
879.7134032908016
 30
0.0
 10
247.0713788514561
 20
879.7134032908016
 30
0.0
  0
MTEXT
  5
21C
330
1F
100
AcDbEntity
  8
1
 62
     7
100
AcDbMText
 10
328.125
 20
59.5
 30
0.0
 40
12.25
 41
0.0
 71
     5
 72
     1
  1
3,5
  7
CONVERTER_12
 73
     1
 44
0.7202881152461
  0
MTEXT
  5
21D
330
1F
100
AcDbEntity
  8
1
 62
     7
100
AcDbMText
 10
298.375
 20
59.5
 30
0.0
 40
12.25
 41
0.0
 71
     5
 72
     1
  1
1
  7
CONVERTER_12
 73
     1
 44
0.7202881152461
  0
MTEXT
  5
21E
330
1F
100
AcDbEntity
  8
0
 62
     7
100
AcDbMText
 10
199.5
 20
79.62500000000003
 30
0.0
 40
12.25
 41
0.0
 71
     5
 72
     1
  1
自在水栓
  7
CONVERTER_11
 73
     1
 44
1.0
  0
MTEXT
  5
21F
330
1F
100
AcDbEntity
  8
1
 62
     7
100
AcDbMText
 10
221.9066410939811
 20
890.2134032908014
 30
0.0
 40
12.25
 41
0.0
 71
     5
 72
     1
  1
PJ1/2
  7
CONVERTER_12
 73
     1
 44
1.32052821128451
  0
MTEXT
  5
220
330
1F
100
AcDbEntity
  8
0
 62
     7
100
AcDbMText
 10
199.5
 20
49.875
 30
0.0
 40
12.25
 41
0.0
 71
     5
 72
     1
  1
A10JK-L3-13X300
  7
CONVERTER_12
 73
     1
 44
0.90036014405762
  0
MTEXT
  5
221
330
1F
100
AcDbEntity
  8
0
 62
     7
100
AcDbMText
 10
119.0
 20
119.0
 30
0.0
 40
12.25
 41
0.0
 71
     4
 72
     1
  1
JIS
  7
CONVERTER_12
 73
     1
 44
1.32052821128451
  0
DIMENSION
  5
22F
330
1F
100
AcDbEntity
  8
1
100
AcDbDimension
  2
*D9
 10
627.8755684285268
 20
218.1137913450993
 30
0.0
 11
659.2685656654919
 21
227.7387913450993
 31
0.0
 70
    32
  1
<>
 71
     5
 42
-1.0
 53
0.00013888888889
  3
ME10_DIM_10
100
AcDbAlignedDimension
 13
641.8755684285265
 23
338.1137913450992
 33
0.0
 14
627.8755684285268
 24
321.1344548803724
 34
0.0
100
AcDbRotatedDimension
  0
DIMENSION
  5
23A
330
1F
100
AcDbEntity
  8
0
100
AcDbDimension
  2
*D11
 10
443.8993907800348
 20
347.6137913450993
 30
0.0
 11
434.2743907800348
 21
378.1741759594494
 31
0.0
 70
    32
  1
59リフト5
 71
     5
 42
-1.0
 53
90.0
  3
ME10_DIM_11
100
AcDbAlignedDimension
 13
582.8755684285264
 23
406.1137913450992
 33
0.0
 14
533.0803021563373
 24
347.6137913450993
 34
0.0
 50
90.0
100
AcDbRotatedDimension
  0
DIMENSION
  5
245
330
1F
100
AcDbEntity
  8
0
100
AcDbDimension
  2
*D12
 10
443.8993907800349
 20
347.6137913450993
 30
0.0
 11
434.2743907800349
 21
312.1558285503096
 31
0.0
 70
    32
  1
95
 71
     5
 42
-1.0
 53
90.0
  3
ME10_DIM_12
100
AcDbAlignedDimension
 13
255.260176030102
 23
253.1137913450993
 33
0.0
 14
533.0803021563373
 24
347.6137913450993
 34
0.0
 50
90.0
100
AcDbRotatedDimension
  0
DIMENSION
  5
250
330
1F
100
AcDbEntity
  8
1
100
AcDbDimension
  2
*D13
 10
676.8755684285265
 20
324.6137913450993
 30
0.0
 11
667.2505684285265
 21
347.6137913450993
 31
0.0
 70
    32
  1
<>
 71
     5
 42
-1.0
 53
90.0
  3
ME10_DIM_13
100
AcDbAlignedDimension
 13
627.8755684285265
 23
370.6137913450993
 33
0.0
 14
627.8755684285268
 24
324.6137913450993
 34
0.0
 50
90.0
100
AcDbRotatedDimension
  0
DIMENSION
  5
25B
330
1F
100
AcDbEntity
  8
0
100
AcDbDimension
  2
*D14
 10
247.8737690241161
 20
218.1137913450993
 30
0.0
 11
397.8746687263212
 21
227.7387913450993
 31
0.0
 70
    32
  1
<>
 71
     5
 42
-1.0
 53
0.00013888888889
  3
ME10_DIM_14
100
AcDbAlignedDimension
 13
547.8755684285268
 23
311.1137913450993
 33
0.0
 14
247.8737690241161
 24
249.9657464254773
 34
0.0
100
AcDbRotatedDimension
  0
DIMENSION
  5
266
330
1F
100
AcDbEntity
  8
0
100
AcDbDimension
  2
*D15
 10
547.8755684285268
 20
218.1137913450993
 30
0.0
 11
565.3755684285263
 21
227.7387913450993
 31
0.0
 70
    32
  1
<>
 71
     5
 42
-1.0
 53
0.00013888888889
  3
ME10_DIM_15
100
AcDbAlignedDimension
 13
582.8755684285268
 23
331.9625063951353
 33
0.0
 14
547.8755684285268
 24
311.1137913450993
 34
0.0
100
AcDbRotatedDimension
  0
DIMENSION
  5
271
330
1F
100
AcDbEntity
  8
0
100
AcDbDimension
  2
*D16
 10
582.8755684285268
 20
218.1137913450993
 30
0.0
 11
605.3755684285265
 21
227.7387913450993
 31
0.0
 70
    32
  1
<>
 71
     5
 42
-1.0
 53
0.00013888888889
  3
ME10_DIM_16
100
AcDbAlignedDimension
 13
627.8755684285268
 23
321.1344548803724
 33
0.0
 14
582.8755684285268
 24
331.9625063951353
 34
0.0
100
AcDbRotatedDimension
  0
ENDSEC
  0
SECTION
  2
OBJECTS
  0
DICTIONARY
  5
C
330
0
100
AcDbDictionary
281
     1
  3
ACAD_GROUP
350
D
  3
ACAD_LAYOUT
350
1A
  3
ACAD_MATERIAL
350
3B
  3
ACAD_MLEADERSTYLE
350
274
  3
ACAD_MLINESTYLE
350
17
  3
ACAD_PLOTSETTINGS
350
19
  3
ACAD_PLOTSTYLENAME
350
E
  3
ACAD_VISUALSTYLE
350
2A
  3
AcDbVariableDictionary
350
272
  0
DICTIONARY
  5
D
102
{ACAD_REACTORS
330
C
102
}
330
C
100
AcDbDictionary
281
     1
  0
DICTIONARY
  5
1A
102
{ACAD_REACTORS
330
C
102
}
330
C
100
AcDbDictionary
281
     1
  3
Layout1
350
1E
  3
Layout2
350
26
  3
Model
350
22
  0
DICTIONARY
  5
3B
102
{ACAD_REACTORS
330
C
102
}
330
C
100
AcDbDictionary
281
     1
  3
ByBlock
350
3D
  3
ByLayer
350
3C
  3
Global
350
3E
  0
DICTIONARY
  5
274
102
{ACAD_REACTORS
330
C
102
}
330
C
100
AcDbDictionary
281
     1
  0
DICTIONARY
  5
17
102
{ACAD_REACTORS
330
C
102
}
330
C
100
AcDbDictionary
281
     1
  3
Standard
350
18
  0
DICTIONARY
  5
19
102
{ACAD_REACTORS
330
C
102
}
330
C
100
AcDbDictionary
281
     1
  0
ACDBDICTIONARYWDFLT
  5
E
102
{ACAD_REACTORS
330
C
102
}
330
C
100
AcDbDictionary
281
     1
  3
Normal
350
F
100
AcDbDictionaryWithDefault
340
F
  0
DICTIONARY
  5
2A
102
{ACAD_REACTORS
330
C
102
}
330
C
100
AcDbDictionary
281
     1
  3
2dWireframe
350
2F
  3
3D Hidden
350
31
  3
3dWireframe
350
30
  3
Basic
350
32
  3
Brighten
350
36
  3
ColorChange
350
3A
  3
Conceptual
350
34
  3
Dim
350
35
  3
Facepattern
350
39
  3
Flat
350
2B
  3
FlatWithEdges
350
2C
  3
Gouraud
350
2D
  3
GouraudWithEdges
350
2E
  3
Linepattern
350
38
  3
Realistic
350
33
  3
Thicken
350
37
  0
DICTIONARY
  5
272
102
{ACAD_REACTORS
330
C
102
}
330
C
100
AcDbDictionary
281
     1
  3
DIMASSOC
350
275
  3
HIDETEXT
350
276
  0
LAYOUT
  5
1E
102
{ACAD_REACTORS
330
1A
102
}
330
1A
100
AcDbPlotSettings
  1

  2
none_device
  4

  6

 40
0.0
 41
0.0
 42
0.0
 43
0.0
 44
0.0
 45
0.0
 46
0.0
 47
0.0
 48
0.0
 49
0.0
140
0.0
141
0.0
142
1.0
143
1.0
 70
   688
 72
     0
 73
     0
 74
     5
  7

 75
    16
147
1.0
148
0.0
149
0.0
100
AcDbLayout
  1
Layout1
 70
     1
 71
     1
 10
0.0
 20
0.0
 11
12.0
 21
9.0
 12
0.0
 22
0.0
 32
0.0
 14
1.00000000000000E+20
 24
1.00000000000000E+20
 34
1.00000000000000E+20
 15
-1.00000000000000E+20
 25
-1.00000000000000E+20
 35
-1.00000000000000E+20
146
0.0
 13
0.0
 23
0.0
 33
0.0
 16
1.0
 26
0.0
 36
0.0
 17
0.0
 27
1.0
 37
0.0
 76
     0
330
1B
  0
LAYOUT
  5
26
102
{ACAD_REACTORS
330
1A
102
}
330
1A
100
AcDbPlotSettings
  1

  2
none_device
  4

  6

 40
0.0
 41
0.0
 42
0.0
 43
0.0
 44
0.0
 45
0.0
 46
0.0
 47
0.0
 48
0.0
 49
0.0
140
0.0
141
0.0
142
1.0
143
1.0
 70
   688
 72
     0
 73
     0
 74
     5
  7

 75
    16
147
1.0
148
0.0
149
0.0
100
AcDbLayout
  1
Layout2
 70
     1
 71
     2
 10
0.0
 20
0.0
 11
0.0
 21
0.0
 12
0.0
 22
0.0
 32
0.0
 14
0.0
 24
0.0
 34
0.0
 15
0.0
 25
0.0
 35
0.0
146
0.0
 13
0.0
 23
0.0
 33
0.0
 16
1.0
 26
0.0
 36
0.0
 17
0.0
 27
1.0
 37
0.0
 76
     0
330
23
  0
LAYOUT
  5
22
102
{ACAD_REACTORS
330
1A
102
}
330
1A
100
AcDbPlotSettings
  1

  2
none_device
  4

  6

 40
0.0
 41
0.0
 42
0.0
 43
0.0
 44
0.0
 45
0.0
 46
0.0
 47
0.0
 48
0.0
 49
0.0
140
0.0
141
0.0
142
1.0
143
1.0
 70
  1712
 72
     0
 73
     0
 74
     0
  7

 75
     0
147
1.0
148
0.0
149
0.0
100
AcDbLayout
  1
Model
 70
     1
 71
     0
 10
0.0
 20
0.0
 11
12.0
 21
9.0
 12
0.0
 22
0.0
 32
0.0
 14
0.0
 24
0.0
 34
0.0
 15
735.0
 25
1039.5
 35
0.0
146
0.0
 13
0.0
 23
0.0
 33
0.0
 16
1.0
 26
0.0
 36
0.0
 17
0.0
 27
1.0
 37
0.0
 76
     0
330
1F
331
29
  0
MATERIAL
  5
3D
102
{ACAD_REACTORS
330
3B
102
}
102
{ACAD_XDICTIONARY
360
299
102
}
330
3B
100
AcDbMaterial
  1
ByBlock
  0
MATERIAL
  5
3C
102
{ACAD_REACTORS
330
3B
102
}
102
{ACAD_XDICTIONARY
360
297
102
}
330
3B
100
AcDbMaterial
  1
ByLayer
  0
MATERIAL
  5
3E
102
{ACAD_REACTORS
330
3B
102
}
102
{ACAD_XDICTIONARY
360
29B
102
}
330
3B
100
AcDbMaterial
  1
Global
  0
MLINESTYLE
  5
18
102
{ACAD_REACTORS
330
17
102
}
330
17
100
AcDbMlineStyle
  2
Standard
 70
     0
  3

 62
   256
 51
90.0
 52
90.0
 71
     2
 49
0.5
 62
   256
  6
BYLAYER
 49
-0.5
 62
   256
  6
BYLAYER
  0
ACDBPLACEHOLDER
  5
F
102
{ACAD_REACTORS
330
E
102
}
330
E
  0
VISUALSTYLE
  5
2F
102
{ACAD_REACTORS
330
2A
102
}
102
{ACAD_XDICTIONARY
360
27F
102
}
330
2A
100
AcDbVisualStyle
  2
2dWireframe
 70
     4
 71
     0
 72
     2
 73
     0
 90
        0
 40
-0.6
 41
-30.0
 62
     5
 63
     7
 74
     1
 91
        4
 64
     7
 65
   257
 75
     1
175
     1
 42
1.0
 92
        0
 66
   257
 43
1.0
 76
     1
 77
     6
 78
     2
 67
     7
 79
     5
170
     0
171
     0
290
     0
174
     0
 93
        1
 44
0.0
173
     0
291
     0
 45
0.0
1001
ACAD
1000
AcDbSavedByObjectVersion
1070
     0
  0
VISUALSTYLE
  5
31
102
{ACAD_REACTORS
330
2A
102
}
102
{ACAD_XDICTIONARY
360
283
102
}
330
2A
100
AcDbVisualStyle
  2
3D Hidden
 70
     6
 71
     1
 72
     2
 73
     2
 90
        0
 40
-0.6
 41
-30.0
 62
     5
 63
     7
 74
     2
 91
        2
 64
     7
 65
   257
 75
     2
175
     1
 42
40.0
 92
        0
 66
   257
 43
1.0
 76
     1
 77
     6
 78
     2
 67
     7
 79
     3
170
     0
171
     0
290
     0
174
     0
 93
        1
 44
0.0
173
     0
291
     0
 45
0.0
1001
ACAD
1000
AcDbSavedByObjectVersion
1070
     0
  0
VISUALSTYLE
  5
30
102
{ACAD_REACTORS
330
2A
102
}
102
{ACAD_XDICTIONARY
360
281
102
}
330
2A
100
AcDbVisualStyle
  2
3dWireframe
 70
     5
 71
     0
 72
     2
 73
     0
 90
        0
 40
-0.6
 41
-30.0
 62
     5
 63
     7
 74
     1
 91
        4
 64
     7
 65
   257
 75
     1
175
     1
 42
1.0
 92
        0
 66
   257
 43
1.0
 76
     1
 77
     6
 78
     2
 67
     7
 79
     5
170
     0
171
     0
290
     0
174
     0
 93
        1
 44
0.0
173
     0
291
     0
 45
0.0
1001
ACAD
1000
AcDbSavedByObjectVersion
1070
     0
  0
VISUALSTYLE
  5
32
102
{ACAD_REACTORS
330
2A
102
}
102
{ACAD_XDICTIONARY
360
285
102
}
330
2A
100
AcDbVisualStyle
  2
Basic
 70
     7
 71
     1
 72
     0
 73
     1
 90
        0
 40
-0.6
 41
-30.0
 62
     5
 63
     7
 74
     0
 91
        4
 64
     7
 65
   257
 75
     1
175
     1
 42
1.0
 92
        8
 66
     7
 43
1.0
 76
     1
 77
     6
 78
     2
 67
     7
 79
     5
170
     0
171
     0
290
     0
174
     0
 93
        1
 44
0.0
173
     0
291
     1
 45
0.0
1001
ACAD
1000
AcDbSavedByObjectVersion
1070
     0
  0
VISUALSTYLE
  5
36
102
{ACAD_REACTORS
330
2A
102
}
102
{ACAD_XDICTIONARY
360
28D
102
}
330
2A
100
AcDbVisualStyle
  2
Brighten
 70
    12
 71
     2
 72
     2
 73
     0
 90
        0
 40
-0.6
 41
-30.0
 62
     5
 63
     7
 74
     1
 91
        4
 64
     7
 65
   257
 75
     1
175
     1
 42
1.0
 92
        8
 66
     7
 43
1.0
 76
     1
 77
     6
 78
     2
 67
     7
 79
     5
170
     0
171
     0
290
     0
174
     0
 93
        1
 44
50.0
173
     0
291
     1
 45
0.0
1001
ACAD
1000
AcDbSavedByObjectVersion
1070
     0
  0
VISUALSTYLE
  5
3A
102
{ACAD_REACTORS
330
2A
102
}
102
{ACAD_XDICTIONARY
360
295
102
}
330
2A
100
AcDbVisualStyle
  2
ColorChange
 70
    16
 71
     2
 72
     2
 73
     3
 90
        0
 40
-0.6
 41
-30.0
 62
     5
 63
     8
 74
     1
 91
        4
 64
     7
 65
   257
 75
     1
175
     1
 42
1.0
 92
        8
 66
     8
 43
1.0
 76
     1
 77
     6
 78
     2
 67
     7
 79
     5
170
     0
171
     0
290
     0
174
     0
 93
        1
 44
0.0
173
     0
291
     1
 45
0.0
1001
ACAD
1000
AcDbSavedByObjectVersion
1070
     0
  0
VISUALSTYLE
  5
34
102
{ACAD_REACTORS
330
2A
102
}
102
{ACAD_XDICTIONARY
360
289
102
}
330
2A
100
AcDbVisualStyle
  2
Conceptual
 70
     9
 71
     3
 72
     2
 73
     0
 90
        0
 40
-0.6
 41
-30.0
 62
     5
 63
     7
 74
     2
 91
        2
 64
     7
 65
   257
 75
     1
175
     1
 42
40.0
 92
        8
 66
     7
 43
1.0
 76
     1
 77
     6
 78
     2
 67
     7
 79
     3
170
     0
171
     0
290
     0
174
     0
 93
        1
 44
0.0
173
     0
291
     0
 45
0.0
1001
ACAD
1000
AcDbSavedByObjectVersion
1070
     0
  0
VISUALSTYLE
  5
35
102
{ACAD_REACTORS
330
2A
102
}
102
{ACAD_XDICTIONARY
360
28B
102
}
330
2A
100
AcDbVisualStyle
  2
Dim
 70
    11
 71
     2
 72
     2
 73
     0
 90
        0
 40
-0.6
 41
-30.0
 62
     5
 63
     7
 74
     1
 91
        4
 64
     7
 65
   257
 75
     1
175
     1
 42
1.0
 92
        8
 66
     7
 43
1.0
 76
     1
 77
     6
 78
     2
 67
     7
 79
     5
170
     0
171
     0
290
     0
174
     0
 93
        1
 44
-50.0
173
     0
291
     1
 45
0.0
1001
ACAD
1000
AcDbSavedByObjectVersion
1070
     0
  0
VISUALSTYLE
  5
39
102
{ACAD_REACTORS
330
2A
102
}
102
{ACAD_XDICTIONARY
360
293
102
}
330
2A
100
AcDbVisualStyle
  2
Facepattern
 70
    15
 71
     2
 72
     2
 73
     0
 90
        0
 40
-0.6
 41
-30.0
 62
     5
 63
     7
 74
     1
 91
        4
 64
     7
 65
   257
 75
     1
175
     1
 42
1.0
 92
        8
 66
     7
 43
1.0
 76
     1
 77
     6
 78
     2
 67
     7
 79
     5
170
     0
171
     0
290
     0
174
     0
 93
        1
 44
0.0
173
     0
291
     1
 45
0.0
1001
ACAD
1000
AcDbSavedByObjectVersion
1070
     0
  0
VISUALSTYLE
  5
2B
102
{ACAD_REACTORS
330
2A
102
}
102
{ACAD_XDICTIONARY
360
277
102
}
330
2A
100
AcDbVisualStyle
  2
Flat
 70
     0
 71
     2
 72
     1
 73
     1
 90
        2
 40
-0.6
 41
30.0
 62
     5
 63
     7
 74
     0
 91
        4
 64
     7
 65
   257
 75
     1
175
     1
 42
1.0
 92
        8
 66
     7
 43
1.0
 76
     1
 77
     6
 78
     2
 67
     7
 79
     5
170
     0
171
     0
290
     0
174
     0
 93
       13
 44
0.0
173
     0
291
     1
 45
0.0
1001
ACAD
1000
AcDbSavedByObjectVersion
1070
     0
  0
VISUALSTYLE
  5
2C
102
{ACAD_REACTORS
330
2A
102
}
102
{ACAD_XDICTIONARY
360
279
102
}
330
2A
100
AcDbVisualStyle
  2
FlatWithEdges
 70
     1
 71
     2
 72
     1
 73
     1
 90
        2
 40
-0.6
 41
30.0
 62
     5
 63
     7
 74
     1
 91
        4
 64
     7
 65
   257
 75
     1
175
     1
 42
1.0
 92
        0
 66
   257
 43
1.0
 76
     1
 77
     6
 78
     2
 67
     7
 79
     5
170
     0
171
     0
290
     0
174
     0
 93
       13
 44
0.0
173
     0
291
     1
 45
0.0
1001
ACAD
1000
AcDbSavedByObjectVersion
1070
     0
  0
VISUALSTYLE
  5
2D
102
{ACAD_REACTORS
330
2A
102
}
102
{ACAD_XDICTIONARY
360
27B
102
}
330
2A
100
AcDbVisualStyle
  2
Gouraud
 70
     2
 71
     2
 72
     2
 73
     1
 90
        2
 40
-0.6
 41
30.0
 62
     5
 63
     7
 74
     0
 91
        4
 64
     7
 65
   257
 75
     1
175
     1
 42
1.0
 92
        0
 66
     7
 43
1.0
 76
     1
 77
     6
 78
     2
 67
     7
 79
     5
170
     0
171
     0
290
     0
174
     0
 93
       13
 44
0.0
173
     0
291
     1
 45
0.0
1001
ACAD
1000
AcDbSavedByObjectVersion
1070
     0
  0
VISUALSTYLE
  5
2E
102
{ACAD_REACTORS
330
2A
102
}
102
{ACAD_XDICTIONARY
360
27D
102
}
330
2A
100
AcDbVisualStyle
  2
GouraudWithEdges
 70
     3
 71
     2
 72
     2
 73
     1
 90
        2
 40
-0.6
 41
30.0
 62
     5
 63
     7
 74
     1
 91
        4
 64
     7
 65
   257
 75
     1
175
     1
 42
1.0
 92
        0
 66
   257
 43
1.0
 76
     1
 77
     6
 78
     2
 67
     7
 79
     5
170
     0
171
     0
290
     0
174
     0
 93
       13
 44
0.0
173
     0
291
     1
 45
0.0
1001
ACAD
1000
AcDbSavedByObjectVersion
1070
     0
  0
VISUALSTYLE
  5
38
102
{ACAD_REACTORS
330
2A
102
}
102
{ACAD_XDICTIONARY
360
291
102
}
330
2A
100
AcDbVisualStyle
  2
Linepattern
 70
    14
 71
     2
 72
     2
 73
     0
 90
        0
 40
-0.6
 41
-30.0
 62
     5
 63
     7
 74
     1
 91
        4
 64
     7
 65
   257
 75
     7
175
     7
 42
1.0
 92
        8
 66
     7
 43
1.0
 76
     1
 77
     6
 78
     2
 67
     7
 79
     5
170
     0
171
     0
290
     0
174
     0
 93
        1
 44
0.0
173
     0
291
     1
 45
0.0
1001
ACAD
1000
AcDbSavedByObjectVersion
1070
     0
  0
VISUALSTYLE
  5
33
102
{ACAD_REACTORS
330
2A
102
}
102
{ACAD_XDICTIONARY
360
287
102
}
330
2A
100
AcDbVisualStyle
  2
Realistic
 70
     8
 71
     2
 72
     2
 73
     0
 90
        0
 40
-0.6
 41
-30.0
 62
     5
 63
     7
 74
     1
 91
        0
 64
     7
 65
   257
 75
     1
175
     1
 42
1.0
 92
        8
 66
     8
 43
1.0
 76
     1
 77
     6
 78
     2
 67
     7
 79
     5
170
     0
171
     0
290
     0
174
     0
 93
       13
 44
0.0
173
     0
291
     0
 45
0.0
1001
ACAD
1000
AcDbSavedByObjectVersion
1070
     0
  0
VISUALSTYLE
  5
37
102
{ACAD_REACTORS
330
2A
102
}
102
{ACAD_XDICTIONARY
360
28F
102
}
330
2A
100
AcDbVisualStyle
  2
Thicken
 70
    13
 71
     2
 72
     2
 73
     0
 90
        0
 40
-0.6
 41
-30.0
 62
     5
 63
     7
 74
     1
 91
        4
 64
     7
 65
   257
 75
     1
175
     1
 42
1.0
 92
       12
 66
     7
 43
1.0
 76
     1
 77
     6
 78
     2
 67
     7
 79
     5
170
     0
171
     0
290
     0
174
     0
 93
        1
 44
0.0
173
     0
291
     1
 45
0.0
1001
ACAD
1000
AcDbSavedByObjectVersion
1070
     0
  0
DICTIONARYVAR
  5
275
102
{ACAD_REACTORS
330
272
102
}
330
272
100
DictionaryVariables
280
     0
  1
2
  0
DICTIONARYVAR
  5
276
102
{ACAD_REACTORS
330
272
102
}
330
272
100
DictionaryVariables
280
     0
  1
1
  0
DICTIONARY
  5
299
330
3D
100
AcDbDictionary
280
     1
281
     1
  3
ACAD_XREC_ROUNDTRIP
360
29A
  0
DICTIONARY
  5
297
330
3C
100
AcDbDictionary
280
     1
281
     1
  3
ACAD_XREC_ROUNDTRIP
360
298
  0
DICTIONARY
  5
29B
330
3E
100
AcDbDictionary
280
     1
281
     1
  3
ACAD_XREC_ROUNDTRIP
360
29C
  0
DICTIONARY
  5
27F
330
2F
100
AcDbDictionary
280
     1
281
     1
  3
ACAD_XREC_ROUNDTRIP
360
280
  0
DICTIONARY
  5
283
330
31
100
AcDbDictionary
280
     1
281
     1
  3
ACAD_XREC_ROUNDTRIP
360
284
  0
DICTIONARY
  5
281
330
30
100
AcDbDictionary
280
     1
281
     1
  3
ACAD_XREC_ROUNDTRIP
360
282
  0
DICTIONARY
  5
285
330
32
100
AcDbDictionary
280
     1
281
     1
  3
ACAD_XREC_ROUNDTRIP
360
286
  0
DICTIONARY
  5
28D
330
36
100
AcDbDictionary
280
     1
281
     1
  3
ACAD_XREC_ROUNDTRIP
360
28E
  0
DICTIONARY
  5
295
330
3A
100
AcDbDictionary
280
     1
281
     1
  3
ACAD_XREC_ROUNDTRIP
360
296
  0
DICTIONARY
  5
289
330
34
100
AcDbDictionary
280
     1
281
     1
  3
ACAD_XREC_ROUNDTRIP
360
28A
  0
DICTIONARY
  5
28B
330
35
100
AcDbDictionary
280
     1
281
     1
  3
ACAD_XREC_ROUNDTRIP
360
28C
  0
DICTIONARY
  5
293
330
39
100
AcDbDictionary
280
     1
281
     1
  3
ACAD_XREC_ROUNDTRIP
360
294
  0
DICTIONARY
  5
277
330
2B
100
AcDbDictionary
280
     1
281
     1
  3
ACAD_XREC_ROUNDTRIP
360
278
  0
DICTIONARY
  5
279
330
2C
100
AcDbDictionary
280
     1
281
     1
  3
ACAD_XREC_ROUNDTRIP
360
27A
  0
DICTIONARY
  5
27B
330
2D
100
AcDbDictionary
280
     1
281
     1
  3
ACAD_XREC_ROUNDTRIP
360
27C
  0
DICTIONARY
  5
27D
330
2E
100
AcDbDictionary
280
     1
281
     1
  3
ACAD_XREC_ROUNDTRIP
360
27E
  0
DICTIONARY
  5
291
330
38
100
AcDbDictionary
280
     1
281
     1
  3
ACAD_XREC_ROUNDTRIP
360
292
  0
DICTIONARY
  5
287
330
33
100
AcDbDictionary
280
     1
281
     1
  3
ACAD_XREC_ROUNDTRIP
360
288
  0
DICTIONARY
  5
28F
330
37
100
AcDbDictionary
280
     1
281
     1
  3
ACAD_XREC_ROUNDTRIP
360
290
  0
XRECORD
  5
29A
102
{ACAD_REACTORS
330
299
102
}
330
299
100
AcDbXrecord
280
     1
102
MATERIAL
148
0.0
149
0.0
149
0.0
 93
        0
 94
      127
282
     0
 72
     1
 77
     1
171
     1
175
     1
179
     1
273
     0
  0
XRECORD
  5
298
102
{ACAD_REACTORS
330
297
102
}
330
297
100
AcDbXrecord
280
     1
102
MATERIAL
148
0.0
149
0.0
149
0.0
 93
        0
 94
      127
282
     0
 72
     1
 77
     1
171
     1
175
     1
179
     1
273
     0
  0
XRECORD
  5
29C
102
{ACAD_REACTORS
330
29B
102
}
330
29B
100
AcDbXrecord
280
     1
102
MATERIAL
148
0.0
149
0.0
149
0.0
 93
        0
 94
      127
282
     0
 72
     1
 77
     1
171
     1
175
     1
179
     1
273
     0
  0
XRECORD
  5
280
102
{ACAD_REACTORS
330
27F
102
}
330
27F
100
AcDbXrecord
280
     1
102
RTVSPropertyOp0
 70
     1
102
RTVSPropertyOp1
 70
     1
102
RTVSPropertyOp2
 70
     1
102
RTVSPropertyOp3
 70
     1
102
RTVSPropertyOp4
 70
     1
102
RTVSPropertyOp5
 70
     1
102
RTVSPropertyOp6
 70
     1
102
RTVSPropertyOp7
 70
     1
102
RTVSPropertyOp8
 70
     1
102
RTVSPropertyOp9
 70
     1
102
RTVSPropertyOp10
 70
     1
102
RTVSPropertyOp11
 70
     1
102
RTVSPropertyOp12
 70
     1
102
RTVSPropertyOp13
 70
     1
102
RTVSPropertyOp14
 70
     1
102
RTVSPropertyOp15
 70
     1
102
RTVSPropertyOp16
 70
     1
102
RTVSPropertyOp17
 70
     1
102
RTVSPropertyOp18
 70
     1
102
RTVSPropertyOp19
 70
     1
102
RTVSPropertyOp20
 70
     1
102
RTVSPropertyOp21
 70
     1
102
RTVSPropertyOp22
 70
     1
102
RTVSPropertyOp23
 70
     1
102
RTVSPropertyOp24
 70
     1
102
RTVSPropertyOp25
 70
     1
102
RTVSPropertyOp26
 70
     1
102
RTVSPropertyOp27
 70
     1
102
RTVSPropertyOp28
 70
     1
102
RTVSPropertyOp29
 70
     1
102
RTVSPropertyOp30
 70
     1
102
RTVSPropertyOp31
 70
     1
102
RTVSPropertyOp32
 70
     1
  0
XRECORD
  5
284
102
{ACAD_REACTORS
330
283
102
}
330
283
100
AcDbXrecord
280
     1
102
RTVSPropertyOp0
 70
     1
102
RTVSPropertyOp1
 70
     1
102
RTVSPropertyOp2
 70
     1
102
RTVSPropertyOp3
 70
     1
102
RTVSPropertyOp4
 70
     1
102
RTVSPropertyOp5
 70
     1
102
RTVSPropertyOp6
 70
     1
102
RTVSPropertyOp7
 70
     1
102
RTVSPropertyOp8
 70
     1
102
RTVSPropertyOp9
 70
     1
102
RTVSPropertyOp10
 70
     1
102
RTVSPropertyOp11
 70
     1
102
RTVSPropertyOp12
 70
     1
102
RTVSPropertyOp13
 70
     1
102
RTVSPropertyOp14
 70
     1
102
RTVSPropertyOp15
 70
     1
102
RTVSPropertyOp16
 70
     1
102
RTVSPropertyOp17
 70
     1
102
RTVSPropertyOp18
 70
     1
102
RTVSPropertyOp19
 70
     1
102
RTVSPropertyOp20
 70
     1
102
RTVSPropertyOp21
 70
     1
102
RTVSPropertyOp22
 70
     1
102
RTVSPropertyOp23
 70
     1
102
RTVSPropertyOp24
 70
     1
102
RTVSPropertyOp25
 70
     1
102
RTVSPropertyOp26
 70
     1
102
RTVSPropertyOp27
 70
     1
102
RTVSPropertyOp28
 70
     1
102
RTVSPropertyOp29
 70
     1
102
RTVSPropertyOp30
 70
     1
102
RTVSPropertyOp31
 70
     1
102
RTVSPropertyOp32
 70
     1
  0
XRECORD
  5
282
102
{ACAD_REACTORS
330
281
102
}
330
281
100
AcDbXrecord
280
     1
102
RTVSPropertyOp0
 70
     1
102
RTVSPropertyOp1
 70
     1
102
RTVSPropertyOp2
 70
     1
102
RTVSPropertyOp3
 70
     1
102
RTVSPropertyOp4
 70
     1
102
RTVSPropertyOp5
 70
     1
102
RTVSPropertyOp6
 70
     1
102
RTVSPropertyOp7
 70
     1
102
RTVSPropertyOp8
 70
     1
102
RTVSPropertyOp9
 70
     1
102
RTVSPropertyOp10
 70
     1
102
RTVSPropertyOp11
 70
     1
102
RTVSPropertyOp12
 70
     1
102
RTVSPropertyOp13
 70
     1
102
RTVSPropertyOp14
 70
     1
102
RTVSPropertyOp15
 70
     1
102
RTVSPropertyOp16
 70
     1
102
RTVSPropertyOp17
 70
     1
102
RTVSPropertyOp18
 70
     1
102
RTVSPropertyOp19
 70
     1
102
RTVSPropertyOp20
 70
     1
102
RTVSPropertyOp21
 70
     1
102
RTVSPropertyOp22
 70
     1
102
RTVSPropertyOp23
 70
     1
102
RTVSPropertyOp24
 70
     1
102
RTVSPropertyOp25
 70
     1
102
RTVSPropertyOp26
 70
     1
102
RTVSPropertyOp27
 70
     1
102
RTVSPropertyOp28
 70
     1
102
RTVSPropertyOp29
 70
     1
102
RTVSPropertyOp30
 70
     1
102
RTVSPropertyOp31
 70
     1
102
RTVSPropertyOp32
 70
     1
  0
XRECORD
  5
286
102
{ACAD_REACTORS
330
285
102
}
330
285
100
AcDbXrecord
280
     1
102
RTVSPropertyOp0
 70
     1
102
RTVSPropertyOp1
 70
     1
102
RTVSPropertyOp2
 70
     1
102
RTVSPropertyOp3
 70
     1
102
RTVSPropertyOp4
 70
     1
102
RTVSPropertyOp5
 70
     1
102
RTVSPropertyOp6
 70
     1
102
RTVSPropertyOp7
 70
     1
102
RTVSPropertyOp8
 70
     1
102
RTVSPropertyOp9
 70
     1
102
RTVSPropertyOp10
 70
     1
102
RTVSPropertyOp11
 70
     1
102
RTVSPropertyOp12
 70
     1
102
RTVSPropertyOp13
 70
     1
102
RTVSPropertyOp14
 70
     1
102
RTVSPropertyOp15
 70
     1
102
RTVSPropertyOp16
 70
     1
102
RTVSPropertyOp17
 70
     1
102
RTVSPropertyOp18
 70
     1
102
RTVSPropertyOp19
 70
     1
102
RTVSPropertyOp20
 70
     1
102
RTVSPropertyOp21
 70
     1
102
RTVSPropertyOp22
 70
     1
102
RTVSPropertyOp23
 70
     1
102
RTVSPropertyOp24
 70
     1
102
RTVSPropertyOp25
 70
     1
102
RTVSPropertyOp26
 70
     1
102
RTVSPropertyOp27
 70
     1
102
RTVSPropertyOp28
 70
     1
102
RTVSPropertyOp29
 70
     1
102
RTVSPropertyOp30
 70
     1
102
RTVSPropertyOp31
 70
     1
102
RTVSPropertyOp32
 70
     1
  0
XRECORD
  5
28E
102
{ACAD_REACTORS
330
28D
102
}
330
28D
100
AcDbXrecord
280
     1
102
RTVSPropertyOp0
 70
     1
102
RTVSPropertyOp1
 70
     1
102
RTVSPropertyOp2
 70
     1
102
RTVSPropertyOp3
 70
     1
102
RTVSPropertyOp4
 70
     1
102
RTVSPropertyOp5
 70
     1
102
RTVSPropertyOp6
 70
     1
102
RTVSPropertyOp7
 70
     1
102
RTVSPropertyOp8
 70
     1
102
RTVSPropertyOp9
 70
     1
102
RTVSPropertyOp10
 70
     1
102
RTVSPropertyOp11
 70
     1
102
RTVSPropertyOp12
 70
     1
102
RTVSPropertyOp13
 70
     1
102
RTVSPropertyOp14
 70
     1
102
RTVSPropertyOp15
 70
     1
102
RTVSPropertyOp16
 70
     1
102
RTVSPropertyOp17
 70
     1
102
RTVSPropertyOp18
 70
     1
102
RTVSPropertyOp19
 70
     1
102
RTVSPropertyOp20
 70
     1
102
RTVSPropertyOp21
 70
     1
102
RTVSPropertyOp22
 70
     1
102
RTVSPropertyOp23
 70
     1
102
RTVSPropertyOp24
 70
     1
102
RTVSPropertyOp25
 70
     1
102
RTVSPropertyOp26
 70
     1
102
RTVSPropertyOp27
 70
     1
102
RTVSPropertyOp28
 70
     1
102
RTVSPropertyOp29
 70
     1
102
RTVSPropertyOp30
 70
     1
102
RTVSPropertyOp31
 70
     1
102
RTVSPropertyOp32
 70
     1
  0
XRECORD
  5
296
102
{ACAD_REACTORS
330
295
102
}
330
295
100
AcDbXrecord
280
     1
102
RTVSPropertyOp0
 70
     1
102
RTVSPropertyOp1
 70
     1
102
RTVSPropertyOp2
 70
     1
102
RTVSPropertyOp3
 70
     1
102
RTVSPropertyOp4
 70
     1
102
RTVSPropertyOp5
 70
     1
102
RTVSPropertyOp6
 70
     1
102
RTVSPropertyOp7
 70
     1
102
RTVSPropertyOp8
 70
     1
102
RTVSPropertyOp9
 70
     1
102
RTVSPropertyOp10
 70
     1
102
RTVSPropertyOp11
 70
     1
102
RTVSPropertyOp12
 70
     1
102
RTVSPropertyOp13
 70
     1
102
RTVSPropertyOp14
 70
     1
102
RTVSPropertyOp15
 70
     1
102
RTVSPropertyOp16
 70
     1
102
RTVSPropertyOp17
 70
     1
102
RTVSPropertyOp18
 70
     1
102
RTVSPropertyOp19
 70
     1
102
RTVSPropertyOp20
 70
     1
102
RTVSPropertyOp21
 70
     1
102
RTVSPropertyOp22
 70
     1
102
RTVSPropertyOp23
 70
     1
102
RTVSPropertyOp24
 70
     1
102
RTVSPropertyOp25
 70
     1
102
RTVSPropertyOp26
 70
     1
102
RTVSPropertyOp27
 70
     1
102
RTVSPropertyOp28
 70
     1
102
RTVSPropertyOp29
 70
     1
102
RTVSPropertyOp30
 70
     1
102
RTVSPropertyOp31
 70
     1
102
RTVSPropertyOp32
 70
     1
  0
XRECORD
  5
28A
102
{ACAD_REACTORS
330
289
102
}
330
289
100
AcDbXrecord
280
     1
102
RTVSPropertyOp0
 70
     1
102
RTVSPropertyOp1
 70
     1
102
RTVSPropertyOp2
 70
     1
102
RTVSPropertyOp3
 70
     1
102
RTVSPropertyOp4
 70
     1
102
RTVSPropertyOp5
 70
     1
102
RTVSPropertyOp6
 70
     1
102
RTVSPropertyOp7
 70
     1
102
RTVSPropertyOp8
 70
     1
102
RTVSPropertyOp9
 70
     1
102
RTVSPropertyOp10
 70
     1
102
RTVSPropertyOp11
 70
     1
102
RTVSPropertyOp12
 70
     1
102
RTVSPropertyOp13
 70
     1
102
RTVSPropertyOp14
 70
     1
102
RTVSPropertyOp15
 70
     1
102
RTVSPropertyOp16
 70
     1
102
RTVSPropertyOp17
 70
     1
102
RTVSPropertyOp18
 70
     1
102
RTVSPropertyOp19
 70
     1
102
RTVSPropertyOp20
 70
     1
102
RTVSPropertyOp21
 70
     1
102
RTVSPropertyOp22
 70
     1
102
RTVSPropertyOp23
 70
     1
102
RTVSPropertyOp24
 70
     1
102
RTVSPropertyOp25
 70
     1
102
RTVSPropertyOp26
 70
     1
102
RTVSPropertyOp27
 70
     1
102
RTVSPropertyOp28
 70
     1
102
RTVSPropertyOp29
 70
     1
102
RTVSPropertyOp30
 70
     1
102
RTVSPropertyOp31
 70
     1
102
RTVSPropertyOp32
 70
     1
  0
XRECORD
  5
28C
102
{ACAD_REACTORS
330
28B
102
}
330
28B
100
AcDbXrecord
280
     1
102
RTVSPropertyOp0
 70
     1
102
RTVSPropertyOp1
 70
     1
102
RTVSPropertyOp2
 70
     1
102
RTVSPropertyOp3
 70
     1
102
RTVSPropertyOp4
 70
     1
102
RTVSPropertyOp5
 70
     1
102
RTVSPropertyOp6
 70
     1
102
RTVSPropertyOp7
 70
     1
102
RTVSPropertyOp8
 70
     1
102
RTVSPropertyOp9
 70
     1
102
RTVSPropertyOp10
 70
     1
102
RTVSPropertyOp11
 70
     1
102
RTVSPropertyOp12
 70
     1
102
RTVSPropertyOp13
 70
     1
102
RTVSPropertyOp14
 70
     1
102
RTVSPropertyOp15
 70
     1
102
RTVSPropertyOp16
 70
     1
102
RTVSPropertyOp17
 70
     1
102
RTVSPropertyOp18
 70
     1
102
RTVSPropertyOp19
 70
     1
102
RTVSPropertyOp20
 70
     1
102
RTVSPropertyOp21
 70
     1
102
RTVSPropertyOp22
 70
     1
102
RTVSPropertyOp23
 70
     1
102
RTVSPropertyOp24
 70
     1
102
RTVSPropertyOp25
 70
     1
102
RTVSPropertyOp26
 70
     1
102
RTVSPropertyOp27
 70
     1
102
RTVSPropertyOp28
 70
     1
102
RTVSPropertyOp29
 70
     1
102
RTVSPropertyOp30
 70
     1
102
RTVSPropertyOp31
 70
     1
102
RTVSPropertyOp32
 70
     1
  0
XRECORD
  5
294
102
{ACAD_REACTORS
330
293
102
}
330
293
100
AcDbXrecord
280
     1
102
RTVSPropertyOp0
 70
     1
102
RTVSPropertyOp1
 70
     1
102
RTVSPropertyOp2
 70
     1
102
RTVSPropertyOp3
 70
     1
102
RTVSPropertyOp4
 70
     1
102
RTVSPropertyOp5
 70
     1
102
RTVSPropertyOp6
 70
     1
102
RTVSPropertyOp7
 70
     1
102
RTVSPropertyOp8
 70
     1
102
RTVSPropertyOp9
 70
     1
102
RTVSPropertyOp10
 70
     1
102
RTVSPropertyOp11
 70
     1
102
RTVSPropertyOp12
 70
     1
102
RTVSPropertyOp13
 70
     1
102
RTVSPropertyOp14
 70
     1
102
RTVSPropertyOp15
 70
     1
102
RTVSPropertyOp16
 70
     1
102
RTVSPropertyOp17
 70
     1
102
RTVSPropertyOp18
 70
     1
102
RTVSPropertyOp19
 70
     1
102
RTVSPropertyOp20
 70
     1
102
RTVSPropertyOp21
 70
     1
102
RTVSPropertyOp22
 70
     1
102
RTVSPropertyOp23
 70
     1
102
RTVSPropertyOp24
 70
     1
102
RTVSPropertyOp25
 70
     1
102
RTVSPropertyOp26
 70
     1
102
RTVSPropertyOp27
 70
     1
102
RTVSPropertyOp28
 70
     1
102
RTVSPropertyOp29
 70
     1
102
RTVSPropertyOp30
 70
     1
102
RTVSPropertyOp31
 70
     1
102
RTVSPropertyOp32
 70
     1
  0
XRECORD
  5
278
102
{ACAD_REACTORS
330
277
102
}
330
277
100
AcDbXrecord
280
     1
102
RTVSPropertyOp0
 70
     1
102
RTVSPropertyOp1
 70
     1
102
RTVSPropertyOp2
 70
     1
102
RTVSPropertyOp3
 70
     1
102
RTVSPropertyOp4
 70
     1
102
RTVSPropertyOp5
 70
     1
102
RTVSPropertyOp6
 70
     1
102
RTVSPropertyOp7
 70
     1
102
RTVSPropertyOp8
 70
     1
102
RTVSPropertyOp9
 70
     1
102
RTVSPropertyOp10
 70
     1
102
RTVSPropertyOp11
 70
     1
102
RTVSPropertyOp12
 70
     1
102
RTVSPropertyOp13
 70
     1
102
RTVSPropertyOp14
 70
     1
102
RTVSPropertyOp15
 70
     1
102
RTVSPropertyOp16
 70
     1
102
RTVSPropertyOp17
 70
     1
102
RTVSPropertyOp18
 70
     1
102
RTVSPropertyOp19
 70
     1
102
RTVSPropertyOp20
 70
     1
102
RTVSPropertyOp21
 70
     1
102
RTVSPropertyOp22
 70
     1
102
RTVSPropertyOp23
 70
     1
102
RTVSPropertyOp24
 70
     1
102
RTVSPropertyOp25
 70
     1
102
RTVSPropertyOp26
 70
     1
102
RTVSPropertyOp27
 70
     1
102
RTVSPropertyOp28
 70
     1
102
RTVSPropertyOp29
 70
     1
102
RTVSPropertyOp30
 70
     1
102
RTVSPropertyOp31
 70
     1
102
RTVSPropertyOp32
 70
     1
  0
XRECORD
  5
27A
102
{ACAD_REACTORS
330
279
102
}
330
279
100
AcDbXrecord
280
     1
102
RTVSPropertyOp0
 70
     1
102
RTVSPropertyOp1
 70
     1
102
RTVSPropertyOp2
 70
     1
102
RTVSPropertyOp3
 70
     1
102
RTVSPropertyOp4
 70
     1
102
RTVSPropertyOp5
 70
     1
102
RTVSPropertyOp6
 70
     1
102
RTVSPropertyOp7
 70
     1
102
RTVSPropertyOp8
 70
     1
102
RTVSPropertyOp9
 70
     1
102
RTVSPropertyOp10
 70
     1
102
RTVSPropertyOp11
 70
     1
102
RTVSPropertyOp12
 70
     1
102
RTVSPropertyOp13
 70
     1
102
RTVSPropertyOp14
 70
     1
102
RTVSPropertyOp15
 70
     1
102
RTVSPropertyOp16
 70
     1
102
RTVSPropertyOp17
 70
     1
102
RTVSPropertyOp18
 70
     1
102
RTVSPropertyOp19
 70
     1
102
RTVSPropertyOp20
 70
     1
102
RTVSPropertyOp21
 70
     1
102
RTVSPropertyOp22
 70
     1
102
RTVSPropertyOp23
 70
     1
102
RTVSPropertyOp24
 70
     1
102
RTVSPropertyOp25
 70
     1
102
RTVSPropertyOp26
 70
     1
102
RTVSPropertyOp27
 70
     1
102
RTVSPropertyOp28
 70
     1
102
RTVSPropertyOp29
 70
     1
102
RTVSPropertyOp30
 70
     1
102
RTVSPropertyOp31
 70
     1
102
RTVSPropertyOp32
 70
     1
  0
XRECORD
  5
27C
102
{ACAD_REACTORS
330
27B
102
}
330
27B
100
AcDbXrecord
280
     1
102
RTVSPropertyOp0
 70
     1
102
RTVSPropertyOp1
 70
     1
102
RTVSPropertyOp2
 70
     1
102
RTVSPropertyOp3
 70
     1
102
RTVSPropertyOp4
 70
     1
102
RTVSPropertyOp5
 70
     1
102
RTVSPropertyOp6
 70
     1
102
RTVSPropertyOp7
 70
     1
102
RTVSPropertyOp8
 70
     1
102
RTVSPropertyOp9
 70
     1
102
RTVSPropertyOp10
 70
     1
102
RTVSPropertyOp11
 70
     1
102
RTVSPropertyOp12
 70
     1
102
RTVSPropertyOp13
 70
     1
102
RTVSPropertyOp14
 70
     1
102
RTVSPropertyOp15
 70
     1
102
RTVSPropertyOp16
 70
     1
102
RTVSPropertyOp17
 70
     1
102
RTVSPropertyOp18
 70
     1
102
RTVSPropertyOp19
 70
     1
102
RTVSPropertyOp20
 70
     1
102
RTVSPropertyOp21
 70
     1
102
RTVSPropertyOp22
 70
     1
102
RTVSPropertyOp23
 70
     1
102
RTVSPropertyOp24
 70
     1
102
RTVSPropertyOp25
 70
     1
102
RTVSPropertyOp26
 70
     1
102
RTVSPropertyOp27
 70
     1
102
RTVSPropertyOp28
 70
     1
102
RTVSPropertyOp29
 70
     1
102
RTVSPropertyOp30
 70
     1
102
RTVSPropertyOp31
 70
     1
102
RTVSPropertyOp32
 70
     1
  0
XRECORD
  5
27E
102
{ACAD_REACTORS
330
27D
102
}
330
27D
100
AcDbXrecord
280
     1
102
RTVSPropertyOp0
 70
     1
102
RTVSPropertyOp1
 70
     1
102
RTVSPropertyOp2
 70
     1
102
RTVSPropertyOp3
 70
     1
102
RTVSPropertyOp4
 70
     1
102
RTVSPropertyOp5
 70
     1
102
RTVSPropertyOp6
 70
     1
102
RTVSPropertyOp7
 70
     1
102
RTVSPropertyOp8
 70
     1
102
RTVSPropertyOp9
 70
     1
102
RTVSPropertyOp10
 70
     1
102
RTVSPropertyOp11
 70
     1
102
RTVSPropertyOp12
 70
     1
102
RTVSPropertyOp13
 70
     1
102
RTVSPropertyOp14
 70
     1
102
RTVSPropertyOp15
 70
     1
102
RTVSPropertyOp16
 70
     1
102
RTVSPropertyOp17
 70
     1
102
RTVSPropertyOp18
 70
     1
102
RTVSPropertyOp19
 70
     1
102
RTVSPropertyOp20
 70
     1
102
RTVSPropertyOp21
 70
     1
102
RTVSPropertyOp22
 70
     1
102
RTVSPropertyOp23
 70
     1
102
RTVSPropertyOp24
 70
     1
102
RTVSPropertyOp25
 70
     1
102
RTVSPropertyOp26
 70
     1
102
RTVSPropertyOp27
 70
     1
102
RTVSPropertyOp28
 70
     1
102
RTVSPropertyOp29
 70
     1
102
RTVSPropertyOp30
 70
     1
102
RTVSPropertyOp31
 70
     1
102
RTVSPropertyOp32
 70
     1
  0
XRECORD
  5
292
102
{ACAD_REACTORS
330
291
102
}
330
291
100
AcDbXrecord
280
     1
102
RTVSPropertyOp0
 70
     1
102
RTVSPropertyOp1
 70
     1
102
RTVSPropertyOp2
 70
     1
102
RTVSPropertyOp3
 70
     1
102
RTVSPropertyOp4
 70
     1
102
RTVSPropertyOp5
 70
     1
102
RTVSPropertyOp6
 70
     1
102
RTVSPropertyOp7
 70
     1
102
RTVSPropertyOp8
 70
     1
102
RTVSPropertyOp9
 70
     1
102
RTVSPropertyOp10
 70
     1
102
RTVSPropertyOp11
 70
     1
102
RTVSPropertyOp12
 70
     1
102
RTVSPropertyOp13
 70
     1
102
RTVSPropertyOp14
 70
     1
102
RTVSPropertyOp15
 70
     1
102
RTVSPropertyOp16
 70
     1
102
RTVSPropertyOp17
 70
     1
102
RTVSPropertyOp18
 70
     1
102
RTVSPropertyOp19
 70
     1
102
RTVSPropertyOp20
 70
     1
102
RTVSPropertyOp21
 70
     1
102
RTVSPropertyOp22
 70
     1
102
RTVSPropertyOp23
 70
     1
102
RTVSPropertyOp24
 70
     1
102
RTVSPropertyOp25
 70
     1
102
RTVSPropertyOp26
 70
     1
102
RTVSPropertyOp27
 70
     1
102
RTVSPropertyOp28
 70
     1
102
RTVSPropertyOp29
 70
     1
102
RTVSPropertyOp30
 70
     1
102
RTVSPropertyOp31
 70
     1
102
RTVSPropertyOp32
 70
     1
  0
XRECORD
  5
288
102
{ACAD_REACTORS
330
287
102
}
330
287
100
AcDbXrecord
280
     1
102
RTVSPropertyOp0
 70
     1
102
RTVSPropertyOp1
 70
     1
102
RTVSPropertyOp2
 70
     1
102
RTVSPropertyOp3
 70
     1
102
RTVSPropertyOp4
 70
     1
102
RTVSPropertyOp5
 70
     1
102
RTVSPropertyOp6
 70
     1
102
RTVSPropertyOp7
 70
     1
102
RTVSPropertyOp8
 70
     1
102
RTVSPropertyOp9
 70
     1
102
RTVSPropertyOp10
 70
     1
102
RTVSPropertyOp11
 70
     1
102
RTVSPropertyOp12
 70
     1
102
RTVSPropertyOp13
 70
     1
102
RTVSPropertyOp14
 70
     1
102
RTVSPropertyOp15
 70
     1
102
RTVSPropertyOp16
 70
     1
102
RTVSPropertyOp17
 70
     1
102
RTVSPropertyOp18
 70
     1
102
RTVSPropertyOp19
 70
     1
102
RTVSPropertyOp20
 70
     1
102
RTVSPropertyOp21
 70
     1
102
RTVSPropertyOp22
 70
     1
102
RTVSPropertyOp23
 70
     1
102
RTVSPropertyOp24
 70
     1
102
RTVSPropertyOp25
 70
     1
102
RTVSPropertyOp26
 70
     1
102
RTVSPropertyOp27
 70
     1
102
RTVSPropertyOp28
 70
     1
102
RTVSPropertyOp29
 70
     1
102
RTVSPropertyOp30
 70
     1
102
RTVSPropertyOp31
 70
     1
102
RTVSPropertyOp32
 70
     1
  0
XRECORD
  5
290
102
{ACAD_REACTORS
330
28F
102
}
330
28F
100
AcDbXrecord
280
     1
102
RTVSPropertyOp0
 70
     1
102
RTVSPropertyOp1
 70
     1
102
RTVSPropertyOp2
 70
     1
102
RTVSPropertyOp3
 70
     1
102
RTVSPropertyOp4
 70
     1
102
RTVSPropertyOp5
 70
     1
102
RTVSPropertyOp6
 70
     1
102
RTVSPropertyOp7
 70
     1
102
RTVSPropertyOp8
 70
     1
102
RTVSPropertyOp9
 70
     1
102
RTVSPropertyOp10
 70
     1
102
RTVSPropertyOp11
 70
     1
102
RTVSPropertyOp12
 70
     1
102
RTVSPropertyOp13
 70
     1
102
RTVSPropertyOp14
 70
     1
102
RTVSPropertyOp15
 70
     1
102
RTVSPropertyOp16
 70
     1
102
RTVSPropertyOp17
 70
     1
102
RTVSPropertyOp18
 70
     1
102
RTVSPropertyOp19
 70
     1
102
RTVSPropertyOp20
 70
     1
102
RTVSPropertyOp21
 70
     1
102
RTVSPropertyOp22
 70
     1
102
RTVSPropertyOp23
 70
     1
102
RTVSPropertyOp24
 70
     1
102
RTVSPropertyOp25
 70
     1
102
RTVSPropertyOp26
 70
     1
102
RTVSPropertyOp27
 70
     1
102
RTVSPropertyOp28
 70
     1
102
RTVSPropertyOp29
 70
     1
102
RTVSPropertyOp30
 70
     1
102
RTVSPropertyOp31
 70
     1
102
RTVSPropertyOp32
 70
     1
  0
ENDSEC
  0
EOF
