  0
SECTION
  2
HEADER
  9
$ACADVER
  1
AC1015
  9
$ACADMAINTVER
 70
     6
  9
$DWGCODEPAGE
  3
DOS932
  9
$INSBASE
 10
0.0
 20
0.0
 30
0.0
  9
$EXTMIN
 10
0.0
 20
0.0
 30
0.0
  9
$EXTMAX
 10
629.9999999999999
 20
891.0
 30
0.0
  9
$LIMMIN
 10
0.0
 20
0.0
  9
$LIMMAX
 10
12.0
 20
9.0
  9
$ORTHOMODE
 70
     0
  9
$REGENMODE
 70
     1
  9
$FILLMODE
 70
     1
  9
$QTEXTMODE
 70
     0
  9
$MIRRTEXT
 70
     1
  9
$LTSCALE
 40
1.0
  9
$ATTMODE
 70
     1
  9
$TEXTSIZE
 40
0.2
  9
$TRACEWID
 40
0.05
  9
$TEXTSTYLE
  7
Standard
  9
$CLAYER
  8
0
  9
$CELTYPE
  6
ByLayer
  9
$CECOLOR
 62
   256
  9
$CELTSCALE
 40
1.0
  9
$DISPSILH
 70
     0
  9
$DIMSCALE
 40
1.0
  9
$DIMASZ
 40
0.18
  9
$DIMEXO
 40
0.0625
  9
$DIMDLI
 40
0.38
  9
$DIMRND
 40
0.0
  9
$DIMDLE
 40
0.0
  9
$DIMEXE
 40
0.18
  9
$DIMTP
 40
0.0
  9
$DIMTM
 40
0.0
  9
$DIMTXT
 40
0.18
  9
$DIMCEN
 40
0.09
  9
$DIMTSZ
 40
0.0
  9
$DIMTOL
 70
     0
  9
$DIMLIM
 70
     0
  9
$DIMTIH
 70
     1
  9
$DIMTOH
 70
     1
  9
$DIMSE1
 70
     0
  9
$DIMSE2
 70
     0
  9
$DIMTAD
 70
     0
  9
$DIMZIN
 70
     0
  9
$DIMBLK
  1

  9
$DIMASO
 70
     1
  9
$DIMSHO
 70
     1
  9
$DIMPOST
  1

  9
$DIMAPOST
  1

  9
$DIMALT
 70
     0
  9
$DIMALTD
 70
     2
  9
$DIMALTF
 40
25.4
  9
$DIMLFAC
 40
1.0
  9
$DIMTOFL
 70
     0
  9
$DIMTVP
 40
0.0
  9
$DIMTIX
 70
     0
  9
$DIMSOXD
 70
     0
  9
$DIMSAH
 70
     0
  9
$DIMBLK1
  1

  9
$DIMBLK2
  1

  9
$DIMSTYLE
  2
Standard
  9
$DIMCLRD
 70
     0
  9
$DIMCLRE
 70
     0
  9
$DIMCLRT
 70
     0
  9
$DIMTFAC
 40
1.0
  9
$DIMGAP
 40
0.09
  9
$DIMJUST
 70
     0
  9
$DIMSD1
 70
     0
  9
$DIMSD2
 70
     0
  9
$DIMTOLJ
 70
     1
  9
$DIMTZIN
 70
     0
  9
$DIMALTZ
 70
     0
  9
$DIMALTTZ
 70
     0
  9
$DIMUPT
 70
     0
  9
$DIMDEC
 70
     4
  9
$DIMTDEC
 70
     4
  9
$DIMALTU
 70
     2
  9
$DIMALTTD
 70
     2
  9
$DIMTXSTY
  7
Standard
  9
$DIMAUNIT
 70
     0
  9
$DIMADEC
 70
     0
  9
$DIMALTRND
 40
0.0
  9
$DIMAZIN
 70
     0
  9
$DIMDSEP
 70
    46
  9
$DIMATFIT
 70
     3
  9
$DIMFRAC
 70
     0
  9
$DIMLDRBLK
  1

  9
$DIMLUNIT
 70
     2
  9
$DIMLWD
 70
    -2
  9
$DIMLWE
 70
    -2
  9
$DIMTMOVE
 70
     0
  9
$LUNITS
 70
     2
  9
$LUPREC
 70
     4
  9
$SKETCHINC
 40
0.1
  9
$FILLETRAD
 40
0.5
  9
$AUNITS
 70
     0
  9
$AUPREC
 70
     0
  9
$MENU
  1
.
  9
$ELEVATION
 40
0.0
  9
$PELEVATION
 40
0.0
  9
$THICKNESS
 40
0.0
  9
$LIMCHECK
 70
     0
  9
$CHAMFERA
 40
0.5
  9
$CHAMFERB
 40
0.5
  9
$CHAMFERC
 40
1.0
  9
$CHAMFERD
 40
0.0
  9
$SKPOLY
 70
     0
  9
$TDCREATE
 40
2456141.489466146
  9
$TDUCREATE
 40
2456141.114466146
  9
$TDUPDATE
 40
2456141.489466157
  9
$TDUUPDATE
 40
2456141.114466157
  9
$TDINDWG
 40
0.0000000116
  9
$TDUSRTIMER
 40
0.0000000116
  9
$USRTIMER
 70
     1
  9
$ANGBASE
 50
0.0
  9
$ANGDIR
 70
     0
  9
$PDMODE
 70
     0
  9
$PDSIZE
 40
0.0
  9
$PLINEWID
 40
0.0
  9
$SPLFRAME
 70
     0
  9
$SPLINETYPE
 70
     6
  9
$SPLINESEGS
 70
     8
  9
$HANDSEED
  5
30B
  9
$SURFTAB1
 70
     6
  9
$SURFTAB2
 70
     6
  9
$SURFTYPE
 70
     6
  9
$SURFU
 70
     6
  9
$SURFV
 70
     6
  9
$UCSBASE
  2

  9
$UCSNAME
  2

  9
$UCSORG
 10
0.0
 20
0.0
 30
0.0
  9
$UCSXDIR
 10
1.0
 20
0.0
 30
0.0
  9
$UCSYDIR
 10
0.0
 20
1.0
 30
0.0
  9
$UCSORTHOREF
  2

  9
$UCSORTHOVIEW
 70
     0
  9
$UCSORGTOP
 10
0.0
 20
0.0
 30
0.0
  9
$UCSORGBOTTOM
 10
0.0
 20
0.0
 30
0.0
  9
$UCSORGLEFT
 10
0.0
 20
0.0
 30
0.0
  9
$UCSORGRIGHT
 10
0.0
 20
0.0
 30
0.0
  9
$UCSORGFRONT
 10
0.0
 20
0.0
 30
0.0
  9
$UCSORGBACK
 10
0.0
 20
0.0
 30
0.0
  9
$PUCSBASE
  2

  9
$PUCSNAME
  2

  9
$PUCSORG
 10
0.0
 20
0.0
 30
0.0
  9
$PUCSXDIR
 10
1.0
 20
0.0
 30
0.0
  9
$PUCSYDIR
 10
0.0
 20
1.0
 30
0.0
  9
$PUCSORTHOREF
  2

  9
$PUCSORTHOVIEW
 70
     0
  9
$PUCSORGTOP
 10
0.0
 20
0.0
 30
0.0
  9
$PUCSORGBOTTOM
 10
0.0
 20
0.0
 30
0.0
  9
$PUCSORGLEFT
 10
0.0
 20
0.0
 30
0.0
  9
$PUCSORGRIGHT
 10
0.0
 20
0.0
 30
0.0
  9
$PUCSORGFRONT
 10
0.0
 20
0.0
 30
0.0
  9
$PUCSORGBACK
 10
0.0
 20
0.0
 30
0.0
  9
$USERI1
 70
     0
  9
$USERI2
 70
     0
  9
$USERI3
 70
     0
  9
$USERI4
 70
     0
  9
$USERI5
 70
     0
  9
$USERR1
 40
13.2
  9
$USERR2
 40
0.0
  9
$USERR3
 40
0.0
  9
$USERR4
 40
0.0
  9
$USERR5
 40
0.0
  9
$WORLDVIEW
 70
     1
  9
$SHADEDGE
 70
     3
  9
$SHADEDIF
 70
    70
  9
$TILEMODE
 70
     1
  9
$MAXACTVP
 70
    64
  9
$PINSBASE
 10
0.0
 20
0.0
 30
0.0
  9
$PLIMCHECK
 70
     0
  9
$PEXTMIN
 10
1.00000000000000E+20
 20
1.00000000000000E+20
 30
1.00000000000000E+20
  9
$PEXTMAX
 10
-1.00000000000000E+20
 20
-1.00000000000000E+20
 30
-1.00000000000000E+20
  9
$PLIMMIN
 10
0.0
 20
0.0
  9
$PLIMMAX
 10
12.0
 20
9.0
  9
$UNITMODE
 70
     0
  9
$VISRETAIN
 70
     1
  9
$PLINEGEN
 70
     0
  9
$PSLTSCALE
 70
     1
  9
$TREEDEPTH
 70
  3020
  9
$CMLSTYLE
  2
Standard
  9
$CMLJUST
 70
     0
  9
$CMLSCALE
 40
1.0
  9
$PROXYGRAPHICS
 70
     1
  9
$MEASUREMENT
 70
     1
  9
$CELWEIGHT
370
    -1
  9
$ENDCAPS
280
     0
  9
$JOINSTYLE
280
     0
  9
$LWDISPLAY
290
     0
  9
$INSUNITS
 70
     1
  9
$HYPERLINKBASE
  1

  9
$STYLESHEET
  1

  9
$XEDIT
290
     1
  9
$CEPSNTYPE
380
     0
  9
$PSTYLEMODE
290
     0
  9
$FINGERPRINTGUID
  2
{FAEB1C30-E019-11D5-929B-00C0DF256EC4}
  9
$VERSIONGUID
  2
{FAEB1C32-E019-11D5-929B-00C0DF256EC4}
  9
$EXTNAMES
290
     1
  9
$PSVPSCALE
 40
0.0
  9
$OLESTARTUP
290
     0
  0
ENDSEC
  0
SECTION
  2
CLASSES
  0
CLASS
  1
ACDBDICTIONARYWDFLT
  2
AcDbDictionaryWithDefault
  3
ObjectDBX Classes
 90
        0
280
     0
281
     0
  0
CLASS
  1
TABLESTYLE
  2
AcDbTableStyle
  3
ObjectDBX Classes
 90
     2047
280
     0
281
     0
  0
CLASS
  1
DICTIONARYVAR
  2
AcDbDictionaryVar
  3
ObjectDBX Classes
 90
        0
280
     0
281
     0
  0
CLASS
  1

  2
exOdDbSpline
  3

 90
        0
280
     0
281
     1
  0
CLASS
  1

  2
exOdDbCircle
  3

 90
        0
280
     0
281
     1
  0
CLASS
  1
ACDBPLACEHOLDER
  2
AcDbPlaceHolder
  3
ObjectDBX Classes
 90
        0
280
     0
281
     0
  0
CLASS
  1
LAYOUT
  2
AcDbLayout
  3
ObjectDBX Classes
 90
        0
280
     0
281
     0
  0
ENDSEC
  0
SECTION
  2
TABLES
  0
TABLE
  2
VPORT
  5
8
330
0
100
AcDbSymbolTable
 70
     2
  0
VPORT
  5
29
330
8
100
AcDbSymbolTableRecord
100
AcDbViewportTableRecord
  2
*Active
 70
     0
 10
0.0
 20
0.0
 11
1.0
 21
1.0
 12
314.9999999999999
 22
445.5
 13
0.0
 23
0.0
 14
0.5
 24
0.5
 15
0.5
 25
0.5
 16
0.0
 26
0.0
 36
1.0
 17
0.0
 27
0.0
 37
0.0
 40
980.1
 41
1.60267857142857
 42
50.0
 43
0.0
 44
0.0
 50
0.0
 51
0.0
 71
     0
 72
   100
 73
     1
 74
     3
 75
     0
 76
     0
 77
     0
 78
     0
281
     0
 65
     1
110
0.0
120
0.0
130
0.0
111
1.0
121
0.0
131
0.0
112
0.0
122
1.0
132
0.0
 79
     0
146
0.0
  0
ENDTAB
  0
TABLE
  2
LTYPE
  5
5
330
0
100
AcDbSymbolTable
 70
     8
  0
LTYPE
  5
14
330
5
100
AcDbSymbolTableRecord
100
AcDbLinetypeTableRecord
  2
ByBlock
 70
     0
  3

 72
    65
 73
     0
 40
0.0
  0
LTYPE
  5
15
330
5
100
AcDbSymbolTableRecord
100
AcDbLinetypeTableRecord
  2
ByLayer
 70
     0
  3

 72
    65
 73
     0
 40
0.0
  0
LTYPE
  5
16
330
5
100
AcDbSymbolTableRecord
100
AcDbLinetypeTableRecord
  2
Continuous
 70
     0
  3
Solid line
 72
    65
 73
     0
 40
0.0
  0
LTYPE
  5
2E
330
5
100
AcDbSymbolTableRecord
100
AcDbLinetypeTableRecord
  2
DASHED
 70
     0
  3
Dashed
 72
    65
 73
     2
 40
15.0
 49
7.0
 74
     0
 49
-8.0
 74
     0
  0
LTYPE
  5
2F
330
5
100
AcDbSymbolTableRecord
100
AcDbLinetypeTableRecord
  2
DOTTED
 70
     0
  3
Dotted
 72
    65
 73
     2
 40
1.0
 49
0.0
 74
     0
 49
-1.0
 74
     0
  0
LTYPE
  5
30
330
5
100
AcDbSymbolTableRecord
100
AcDbLinetypeTableRecord
  2
DOT_CENTER
 70
     0
  3
Dot_Center
 72
    65
 73
     4
 40
14.0
 49
12.0
 74
     0
 49
-1.0
 74
     0
 49
0.0
 74
     0
 49
-1.0
 74
     0
  0
LTYPE
  5
31
330
5
100
AcDbSymbolTableRecord
100
AcDbLinetypeTableRecord
  2
LONG_DASHED
 70
     0
  3
Long_Dashed
 72
    65
 73
     2
 40
15.0
 49
10.0
 74
     0
 49
-5.0
 74
     0
  0
LTYPE
  5
32
330
5
100
AcDbSymbolTableRecord
100
AcDbLinetypeTableRecord
  2
DASH_CENTER
 70
     0
  3
Dash_Center
 72
    65
 73
     4
 40
14.0
 49
11.0
 74
     0
 49
-1.0
 74
     0
 49
1.0
 74
     0
 49
-1.0
 74
     0
  0
LTYPE
  5
33
330
5
100
AcDbSymbolTableRecord
100
AcDbLinetypeTableRecord
  2
PHANTOM
 70
     0
  3
Phantom
 72
    65
 73
     6
 40
13.0
 49
10.0
 74
     0
 49
-1.0
 74
     0
 49
0.0
 74
     0
 49
-1.0
 74
     0
 49
0.0
 74
     0
 49
-1.0
 74
     0
  0
LTYPE
  5
34
330
5
100
AcDbSymbolTableRecord
100
AcDbLinetypeTableRecord
  2
CENTER_DASH_DASH
 70
     0
  3
Center_Dash_Dash
 72
    65
 73
     6
 40
14.0
 49
9.0
 74
     0
 49
-1.0
 74
     0
 49
1.0
 74
     0
 49
-1.0
 74
     0
 49
1.0
 74
     0
 49
-1.0
 74
     0
  0
ENDTAB
  0
TABLE
  2
LAYER
  5
2
330
0
100
AcDbSymbolTable
 70
     2
  0
LAYER
  5
10
330
2
100
AcDbSymbolTableRecord
100
AcDbLayerTableRecord
  2
0
 70
     0
 62
     7
  6
Continuous
370
    -3
390
F
  0
LAYER
  5
35
330
2
100
AcDbSymbolTableRecord
100
AcDbLayerTableRecord
  2
1
 70
     0
 62
     7
  6
Continuous
370
    -3
390
F
  0
ENDTAB
  0
TABLE
  2
STYLE
  5
3
330
0
100
AcDbSymbolTable
 70
     3
  0
STYLE
  5
11
330
3
100
AcDbSymbolTableRecord
100
AcDbTextStyleTableRecord
  2
Standard
 70
     0
 40
0.0
 41
1.0
 50
0.0
 71
     0
 42
0.2
  3
txt
  4

  0
STYLE
  5
1A4
330
3
100
AcDbSymbolTableRecord
100
AcDbTextStyleTableRecord
  2
CONVERTER_1
 70
     0
 40
0.0
 41
0.89
 50
0.0
 71
     0
 42
0.2
  3
msmincho.ttc
  4

1001
ACAD
1000
MS Mincho
1071
    32785
  0
STYLE
  5
292
330
3
100
AcDbSymbolTableRecord
100
AcDbTextStyleTableRecord
  2
CONVERTER_2
 70
     0
 40
0.0
 41
0.9
 50
0.0
 71
     0
 42
0.2
  3
txt.shx
  4

  0
ENDTAB
  0
TABLE
  2
VIEW
  5
6
330
0
100
AcDbSymbolTable
 70
     0
  0
ENDTAB
  0
TABLE
  2
UCS
  5
7
330
0
100
AcDbSymbolTable
 70
     0
  0
ENDTAB
  0
TABLE
  2
APPID
  5
9
330
0
100
AcDbSymbolTable
 70
     1
  0
APPID
  5
12
330
9
100
AcDbSymbolTableRecord
100
AcDbRegAppTableRecord
  2
ACAD
 70
     0
  0
ENDTAB
  0
TABLE
  2
DIMSTYLE
  5
A
330
0
100
AcDbSymbolTable
 70
    11
100
AcDbDimStyleTable
  0
DIMSTYLE
105
27
330
A
100
AcDbSymbolTableRecord
100
AcDbDimStyleTableRecord
  2
Standard
 70
     0
340
11
  0
DIMSTYLE
105
2A2
102
{ACAD_REACTORS
330
2A3
102
}
330
A
100
AcDbSymbolTableRecord
100
AcDbDimStyleTableRecord
  2
ME10_DIM_0
 70
     0
 41
10.5
 42
0.0
 44
3.0
 73
     0
 74
     0
 77
     1
 78
     8
140
10.5
147
0.625
172
     1
173
     1
176
     2
177
     2
178
     7
271
     2
340
292
  0
DIMSTYLE
105
2AD
102
{ACAD_REACTORS
330
2AE
102
}
330
A
100
AcDbSymbolTableRecord
100
AcDbDimStyleTableRecord
  2
ME10_DIM_1
 70
     0
 41
10.5
 42
0.0
 44
3.0
 73
     0
 74
     0
 77
     1
 78
     8
140
10.5
147
0.625
172
     1
173
     1
176
     2
177
     2
178
     7
271
     2
340
292
  0
DIMSTYLE
105
2B8
102
{ACAD_REACTORS
330
2B9
102
}
330
A
100
AcDbSymbolTableRecord
100
AcDbDimStyleTableRecord
  2
ME10_DIM_2
 70
     0
 41
10.5
 42
0.0
 44
3.0
 73
     0
 74
     0
 77
     1
 78
     8
140
10.5
147
0.625
172
     1
173
     1
176
     2
177
     2
178
     7
271
     2
340
292
  0
DIMSTYLE
105
2C5
102
{ACAD_REACTORS
330
2C6
102
}
330
A
100
AcDbSymbolTableRecord
100
AcDbDimStyleTableRecord
  2
ME10_DIM_3
 70
     0
 41
10.5
 42
0.0
 44
3.0
 73
     0
 74
     0
 77
     1
 78
     8
140
10.5
147
0.625
172
     1
173
     1
176
     2
177
     2
178
     7
271
     2
340
292
  0
DIMSTYLE
105
2D2
102
{ACAD_REACTORS
330
2D3
102
}
330
A
100
AcDbSymbolTableRecord
100
AcDbDimStyleTableRecord
  2
ME10_DIM_4
 70
     0
 41
10.5
 42
0.0
 44
3.0
 73
     0
 74
     0
 77
     1
 78
     8
140
10.5
147
0.625
172
     1
173
     1
176
     2
177
     2
178
     7
271
     2
340
1A4
  0
DIMSTYLE
105
2DD
102
{ACAD_REACTORS
330
2DE
102
}
330
A
100
AcDbSymbolTableRecord
100
AcDbDimStyleTableRecord
  2
ME10_DIM_5
 70
     0
  3
{\Fgdt;n}<>
 41
10.5
 42
0.0
 44
3.0
 73
     0
 74
     0
 77
     1
 78
     8
140
10.5
147
0.625
172
     1
173
     1
176
     2
177
     2
178
     7
271
     2
340
292
  0
DIMSTYLE
105
2E8
102
{ACAD_REACTORS
330
2E9
102
}
330
A
100
AcDbSymbolTableRecord
100
AcDbDimStyleTableRecord
  2
ME10_DIM_6
 70
     0
 41
10.5
 42
0.0
 44
3.0
 73
     0
 74
     0
 77
     1
 78
     8
140
10.5
147
0.625
172
     1
173
     1
176
     2
177
     2
178
     7
271
     2
340
292
  0
DIMSTYLE
105
2F3
102
{ACAD_REACTORS
330
2F4
102
}
330
A
100
AcDbSymbolTableRecord
100
AcDbDimStyleTableRecord
  2
ME10_DIM_7
 70
     0
 41
10.5
 42
0.0
 44
3.0
 73
     0
 74
     0
 77
     1
 78
     8
140
10.5
147
0.625
172
     1
173
     1
176
     2
177
     2
178
     7
271
     2
340
292
  0
DIMSTYLE
105
2FE
102
{ACAD_REACTORS
330
2FF
102
}
330
A
100
AcDbSymbolTableRecord
100
AcDbDimStyleTableRecord
  2
ME10_DIM_8
 70
     0
 41
10.5
 42
0.0
 44
3.0
 73
     0
 74
     0
 77
     1
 78
     8
140
10.5
147
0.625
172
     1
173
     1
176
     2
177
     2
178
     7
271
     2
340
292
  0
DIMSTYLE
105
309
102
{ACAD_REACTORS
330
30A
102
}
330
A
100
AcDbSymbolTableRecord
100
AcDbDimStyleTableRecord
  2
ME10_DIM_9
 70
     0
 41
10.5
 42
0.0
 44
3.0
 73
     0
 74
     0
 77
     1
 78
     8
140
10.5
147
0.625
172
     1
173
     1
176
     2
177
     2
178
     7
271
     2
340
292
  0
ENDTAB
  0
TABLE
  2
BLOCK_RECORD
  5
1
330
0
100
AcDbSymbolTable
 70
    24
  0
BLOCK_RECORD
  5
1F
330
1
100
AcDbSymbolTableRecord
100
AcDbBlockTableRecord
  2
*Model_Space
340
22
  0
BLOCK_RECORD
  5
1B
330
1
100
AcDbSymbolTableRecord
100
AcDbBlockTableRecord
  2
*Paper_Space
340
1E
  0
BLOCK_RECORD
  5
23
330
1
100
AcDbSymbolTableRecord
100
AcDbBlockTableRecord
  2
*Paper_Space0
340
26
  0
BLOCK_RECORD
  5
36
330
1
100
AcDbSymbolTableRecord
100
AcDbBlockTableRecord
  2
04-30
340
0
102
{BLKREFS
331
64
102
}
  0
BLOCK_RECORD
  5
39
330
1
100
AcDbSymbolTableRecord
100
AcDbBlockTableRecord
  2
60-5-105
340
0
102
{BLKREFS
331
43
102
}
  0
BLOCK_RECORD
  5
3C
330
1
100
AcDbSymbolTableRecord
100
AcDbBlockTableRecord
  2
04-12
340
0
102
{BLKREFS
331
44
102
}
  0
BLOCK_RECORD
  5
3F
330
1
100
AcDbSymbolTableRecord
100
AcDbBlockTableRecord
  2
32-1-16__1
340
0
102
{BLKREFS
331
45
102
}
  0
BLOCK_RECORD
  5
42
330
1
100
AcDbSymbolTableRecord
100
AcDbBlockTableRecord
  2
60-5X
340
0
102
{BLKREFS
331
65
102
}
  0
BLOCK_RECORD
  5
48
330
1
100
AcDbSymbolTableRecord
100
AcDbBlockTableRecord
  2
32-1-16__2
340
0
102
{BLKREFS
331
66
102
}
  0
BLOCK_RECORD
  5
4B
330
1
100
AcDbSymbolTableRecord
100
AcDbBlockTableRecord
  2
_J__A4
340
0
102
{BLKREFS
331
67
102
}
  0
BLOCK_RECORD
  5
4E
330
1
100
AcDbSymbolTableRecord
100
AcDbBlockTableRecord
  2
51-1
340
0
102
{BLKREFS
331
5B
102
}
  0
BLOCK_RECORD
  5
51
330
1
100
AcDbSymbolTableRecord
100
AcDbBlockTableRecord
  2
42-1
340
0
102
{BLKREFS
331
5C
102
}
  0
BLOCK_RECORD
  5
54
330
1
100
AcDbSymbolTableRecord
100
AcDbBlockTableRecord
  2
37-1-13
340
0
102
{BLKREFS
331
5D
102
}
  0
BLOCK_RECORD
  5
57
330
1
100
AcDbSymbolTableRecord
100
AcDbBlockTableRecord
  2
36-1A-13-M11
340
0
102
{BLKREFS
331
5E
102
}
  0
BLOCK_RECORD
  5
5A
330
1
100
AcDbSymbolTableRecord
100
AcDbBlockTableRecord
  2
R10A-13-B
340
0
102
{BLKREFS
331
68
102
}
  0
BLOCK_RECORD
  5
61
330
1
100
AcDbSymbolTableRecord
100
AcDbBlockTableRecord
  2
Y12-0A-13
340
0
102
{BLKREFS
331
69
102
}
  0
BLOCK_RECORD
  5
298
330
1
100
AcDbSymbolTableRecord
100
AcDbBlockTableRecord
  2
*D014
340
0
  0
BLOCK_RECORD
  5
2A4
330
1
100
AcDbSymbolTableRecord
100
AcDbBlockTableRecord
  2
*D115
340
0
  0
BLOCK_RECORD
  5
2AF
330
1
100
AcDbSymbolTableRecord
100
AcDbBlockTableRecord
  2
*D216
340
0
  0
BLOCK_RECORD
  5
2BA
330
1
100
AcDbSymbolTableRecord
100
AcDbBlockTableRecord
  2
*D317
340
0
  0
BLOCK_RECORD
  5
2C7
330
1
100
AcDbSymbolTableRecord
100
AcDbBlockTableRecord
  2
*D418
340
0
  0
BLOCK_RECORD
  5
2D4
330
1
100
AcDbSymbolTableRecord
100
AcDbBlockTableRecord
  2
*D519
340
0
  0
BLOCK_RECORD
  5
2DF
330
1
100
AcDbSymbolTableRecord
100
AcDbBlockTableRecord
  2
*D620
340
0
  0
BLOCK_RECORD
  5
2EA
330
1
100
AcDbSymbolTableRecord
100
AcDbBlockTableRecord
  2
*D721
340
0
  0
BLOCK_RECORD
  5
2F5
330
1
100
AcDbSymbolTableRecord
100
AcDbBlockTableRecord
  2
*D822
340
0
  0
BLOCK_RECORD
  5
300
330
1
100
AcDbSymbolTableRecord
100
AcDbBlockTableRecord
  2
*D923
340
0
  0
ENDTAB
  0
ENDSEC
  0
SECTION
  2
BLOCKS
  0
BLOCK
  5
20
330
1F
100
AcDbEntity
  8
0
100
AcDbBlockBegin
  2
*Model_Space
 70
     0
 71
     0
 10
0.0
 20
0.0
 30
0.0
  3
*Model_Space
  1

  0
ENDBLK
  5
21
330
1F
100
AcDbEntity
  8
0
100
AcDbBlockEnd
  0
BLOCK
  5
1C
330
1B
100
AcDbEntity
 67
     1
  8
0
100
AcDbBlockBegin
  2
*Paper_Space
 70
     0
 71
     0
 10
0.0
 20
0.0
 30
0.0
  3
*Paper_Space
  1

  0
ENDBLK
  5
1D
330
1B
100
AcDbEntity
 67
     1
  8
0
100
AcDbBlockEnd
  0
BLOCK
  5
24
330
23
100
AcDbEntity
  8
0
100
AcDbBlockBegin
  2
*Paper_Space0
 70
     0
 71
     0
 10
0.0
 20
0.0
 30
0.0
  3
*Paper_Space0
  1

  0
ENDBLK
  5
25
330
23
100
AcDbEntity
  8
0
100
AcDbBlockEnd
  0
BLOCK
  5
37
330
36
100
AcDbEntity
  8
0
100
AcDbBlockBegin
  2
04-30
 70
     0
 71
     0
 10
792.6911143699984
 20
235.2389603636583
 30
0.0
  3
04-30
  1

  0
LINE
  5
6A
330
36
100
AcDbEntity
  8
1
  6
Continuous
 62
     7
100
AcDbLine
 10
137.9938320021239
 20
667.1260015919711
 30
0.0
 11
137.993832002124
 21
685.9532979255307
 31
0.0
  0
LINE
  5
6B
330
36
100
AcDbEntity
  8
1
  6
Continuous
 62
     7
100
AcDbLine
 10
157.993832002124
 20
667.1260015919711
 30
0.0
 11
157.993832002124
 21
685.9532979255307
 31
0.0
  0
LINE
  5
6C
330
36
100
AcDbEntity
  8
1
  6
PHANTOM
 62
     4
100
AcDbLine
 10
164.272341311548
 20
667.1260015919711
 30
0.0
 11
131.9938320021239
 21
667.1260015919711
 31
0.0
  0
LINE
  5
6D
330
36
100
AcDbEntity
  8
1
  6
Continuous
 62
     7
100
AcDbLine
 10
157.9938320021241
 20
255.8743136727215
 30
0.0
 11
157.9938320021241
 21
240.0157421012642
 31
0.0
  0
LINE
  5
6E
330
36
100
AcDbEntity
  8
1
  6
Continuous
 62
     7
100
AcDbLine
 10
137.9938320021241
 20
255.8743136727215
 30
0.0
 11
137.9938320021241
 21
240.0157421012642
 31
0.0
  0
LINE
  5
6F
330
36
100
AcDbEntity
  8
1
  6
Continuous
 62
     2
100
AcDbLine
 10
160.1808320021241
 20
226.8743136727215
 30
0.0
 11
160.1808320021241
 21
228.3743136727215
 31
0.0
  0
LINE
  5
70
330
36
100
AcDbEntity
  8
1
  6
Continuous
 62
     2
100
AcDbLine
 10
160.1808320021241
 20
228.3743136727215
 30
0.0
 11
160.9938320021241
 21
229.782470979275
 31
0.0
  0
LINE
  5
71
330
36
100
AcDbEntity
  8
1
  6
Continuous
 62
     7
100
AcDbLine
 10
160.9938320021241
 20
228.3743136727215
 30
0.0
 11
155.9938320021241
 21
228.3743136727215
 31
0.0
  0
LINE
  5
72
330
36
100
AcDbEntity
  8
1
  6
Continuous
 62
     7
100
AcDbLine
 10
160.9938320021241
 20
231.0157421012644
 30
0.0
 11
160.9938320021241
 21
226.8743136727215
 31
0.0
  0
LINE
  5
73
330
36
100
AcDbEntity
  8
1
  6
Continuous
 62
     7
100
AcDbLine
 10
134.9938320021241
 20
226.8743136727215
 30
0.0
 11
134.9938320021241
 21
231.0157421012644
 31
0.0
  0
LINE
  5
74
330
36
100
AcDbEntity
  8
1
  6
Continuous
 62
     7
100
AcDbLine
 10
135.8068320021242
 20
228.3743136727215
 30
0.0
 11
134.9938320021241
 21
228.3743136727215
 31
0.0
  0
LINE
  5
75
330
36
100
AcDbEntity
  8
1
  6
Continuous
 62
     7
100
AcDbLine
 10
137.9938320021241
 20
239.8743136727215
 30
0.0
 11
137.9938320021241
 21
240.0157421012642
 31
0.0
  0
LINE
  5
76
330
36
100
AcDbEntity
  8
1
  6
Continuous
 62
     7
100
AcDbLine
 10
157.9938320021241
 20
240.0157421012642
 30
0.0
 11
157.9938320021241
 21
239.8743136727215
 31
0.0
  0
LINE
  5
77
330
36
100
AcDbEntity
  8
1
  6
Continuous
 62
     2
100
AcDbLine
 10
134.9938320021241
 20
229.782470979275
 30
0.0
 11
135.8068320021242
 21
228.3743136727215
 31
0.0
  0
LINE
  5
78
330
36
100
AcDbEntity
  8
1
  6
Continuous
 62
     2
100
AcDbLine
 10
135.8068320021242
 20
228.3743136727215
 30
0.0
 11
135.8068320021242
 21
226.8743136727215
 31
0.0
  0
LINE
  5
79
330
36
100
AcDbEntity
  8
1
  6
Continuous
 62
     7
100
AcDbLine
 10
139.9938320021241
 20
228.3743136727215
 30
0.0
 11
135.8068320021242
 21
228.3743136727215
 31
0.0
  0
LINE
  5
7A
330
36
100
AcDbEntity
  8
1
  6
Continuous
 62
     7
100
AcDbLine
 10
435.1726371779166
 20
247.9243136727208
 30
0.0
 11
434.8726371779167
 21
247.9243136727208
 31
0.0
  0
LINE
  5
7B
330
36
100
AcDbEntity
  8
1
  6
Continuous
 62
     7
100
AcDbLine
 10
434.8726371779167
 20
265.8743136727207
 30
0.0
 11
434.8726371779167
 21
245.8743136727207
 31
0.0
  0
LINE
  5
7C
330
36
100
AcDbEntity
  8
1
  6
Continuous
 62
     7
100
AcDbLine
 10
434.8726371779167
 20
263.8243136727207
 30
0.0
 11
435.1726371779166
 21
263.8243136727207
 31
0.0
  0
LINE
  5
7D
330
36
100
AcDbEntity
  8
1
  6
Continuous
 62
     7
100
AcDbLine
 10
429.3726371779167
 20
229.7824709792743
 30
0.0
 11
429.3726371779167
 21
231.0157421012635
 31
0.0
  0
LINE
  5
7E
330
36
100
AcDbEntity
  8
1
  6
Continuous
 62
     7
100
AcDbLine
 10
403.3726371779167
 20
229.7824709792743
 30
0.0
 11
403.3726371779167
 21
231.0157421012635
 31
0.0
  0
LINE
  5
7F
330
36
100
AcDbEntity
  8
1
  6
Continuous
 62
     2
100
AcDbLine
 10
404.1856371779168
 20
228.3743136727207
 30
0.0
 11
404.1856371779168
 21
226.8743136727215
 31
0.0
  0
LINE
  5
80
330
36
100
AcDbEntity
  8
1
  6
Continuous
 62
     2
100
AcDbLine
 10
403.3726371779167
 20
229.7824709792743
 30
0.0
 11
404.1856371779168
 21
228.3743136727207
 31
0.0
  0
LINE
  5
81
330
36
100
AcDbEntity
  8
1
  6
Continuous
 62
     7
100
AcDbLine
 10
426.3726371779167
 20
240.0157421012635
 30
0.0
 11
426.3726371779167
 21
239.8743136727207
 31
0.0
  0
LINE
  5
82
330
36
100
AcDbEntity
  8
1
  6
Continuous
 62
     7
100
AcDbLine
 10
406.3726371779167
 20
239.8743136727207
 30
0.0
 11
406.3726371779167
 21
240.0157421012635
 31
0.0
  0
LINE
  5
83
330
36
100
AcDbEntity
  8
1
  6
Continuous
 62
     7
100
AcDbLine
 10
404.1856371779168
 20
228.3743136727207
 30
0.0
 11
403.3726371779167
 21
228.3743136727207
 31
0.0
  0
LINE
  5
84
330
36
100
AcDbEntity
  8
1
  6
Continuous
 62
     7
100
AcDbLine
 10
403.3726371779167
 20
226.8743136727215
 30
0.0
 11
403.3726371779167
 21
229.7824709792743
 31
0.0
  0
LINE
  5
85
330
36
100
AcDbEntity
  8
1
  6
Continuous
 62
     7
100
AcDbLine
 10
429.3726371779167
 20
229.7824709792743
 30
0.0
 11
429.3726371779167
 21
226.8743136727215
 31
0.0
  0
LINE
  5
86
330
36
100
AcDbEntity
  8
1
  6
Continuous
 62
     7
100
AcDbLine
 10
429.3726371779167
 20
228.3743136727207
 30
0.0
 11
428.5596371779168
 21
228.3743136727207
 31
0.0
  0
LINE
  5
87
330
36
100
AcDbEntity
  8
1
  6
Continuous
 62
     2
100
AcDbLine
 10
428.5596371779168
 20
228.3743136727207
 30
0.0
 11
429.3726371779167
 21
229.7824709792743
 31
0.0
  0
LINE
  5
88
330
36
100
AcDbEntity
  8
1
  6
Continuous
 62
     2
100
AcDbLine
 10
428.5596371779168
 20
226.8743136727215
 30
0.0
 11
428.5596371779168
 21
228.3743136727207
 31
0.0
  0
LINE
  5
89
330
36
100
AcDbEntity
  8
1
  6
Continuous
 62
     7
100
AcDbLine
 10
434.8726371779167
 20
265.8743136727207
 30
0.0
 11
432.3726371779167
 21
265.8743136727207
 31
0.0
  0
LINE
  5
8A
330
36
100
AcDbEntity
  8
1
  6
Continuous
 62
     7
100
AcDbLine
 10
434.8726371779167
 20
245.8743136727207
 30
0.0
 11
432.3726371779167
 21
245.8743136727207
 31
0.0
  0
ARC
  5
8B
330
36
100
AcDbEntity
  8
1
  6
Continuous
 62
     7
100
AcDbCircle
 10
147.9938320021241
 20
667.1260015919711
 30
0.0
 40
10.0000000000002
100
AcDbArc
 50
180.0
 51
0.0
  0
ARC
  5
8C
330
36
100
AcDbEntity
  8
1
  6
Continuous
 62
     7
100
AcDbCircle
 10
147.9938320021241
 20
667.1260015919711
 30
0.0
 40
12.99999999999999
100
AcDbArc
 50
140.2848627681738
 51
39.71513723182639
  0
ARC
  5
8D
330
36
100
AcDbEntity
  8
1
  6
Continuous
 62
     7
100
AcDbCircle
 10
147.9938320021241
 20
255.8743136727215
 30
0.0
 40
9.999999999999982
100
AcDbArc
 50
143.1301023541561
 51
180.0
  0
ARC
  5
8E
330
36
100
AcDbEntity
  8
1
  6
Continuous
 62
     7
100
AcDbCircle
 10
127.9938320021241
 20
240.0157421012642
 30
0.0
 40
9.999999999999881
100
AcDbArc
 50
-36.86989764584311
 51
0.0
  0
ARC
  5
8F
330
36
100
AcDbEntity
  8
1
  6
Continuous
 62
     7
100
AcDbCircle
 10
167.9938320021241
 20
240.0157421012642
 30
0.0
 40
10.0
100
AcDbArc
 50
180.0
 51
-143.1301023541569
  0
ARC
  5
90
330
36
100
AcDbEntity
  8
1
  6
Continuous
 62
     7
100
AcDbCircle
 10
147.9938320021241
 20
255.8743136727215
 30
0.0
 40
10.0
100
AcDbArc
 50
0.0
 51
36.86989764584442
  0
ARC
  5
91
330
36
100
AcDbEntity
  8
1
  6
Continuous
 62
     7
100
AcDbCircle
 10
436.3726371779167
 20
240.0157421012635
 30
0.0
 40
10.0
100
AcDbArc
 50
180.0
 51
-143.130102354156
  0
ARC
  5
92
330
36
100
AcDbEntity
  8
1
  6
Continuous
 62
     7
100
AcDbCircle
 10
396.3726371779167
 20
240.0157421012635
 30
0.0
 40
10.0
100
AcDbArc
 50
-36.86989764584402
 51
0.0
  0
ARC
  5
93
330
36
100
AcDbEntity
  8
1
  6
Continuous
 62
     7
100
AcDbCircle
 10
432.3726371779167
 20
239.8743136727207
 30
0.0
 40
26.0
100
AcDbArc
 50
90.0
 51
180.0
  0
ARC
  5
94
330
36
100
AcDbEntity
  8
1
  6
Continuous
 62
     7
100
AcDbCircle
 10
155.9938320021241
 20
231.0157421012644
 30
0.0
 40
5.0
100
AcDbArc
 50
0.0
 51
36.86989764584402
  0
ARC
  5
95
330
36
100
AcDbEntity
  8
1
  6
Continuous
 62
     7
100
AcDbCircle
 10
139.9938320021241
 20
231.0157421012644
 30
0.0
 40
5.0
100
AcDbArc
 50
143.130102354156
 51
180.0
  0
ARC
  5
96
330
36
100
AcDbEntity
  8
1
  6
Continuous
 62
     7
100
AcDbCircle
 10
408.3726371779167
 20
231.0157421012635
 30
0.0
 40
5.0
100
AcDbArc
 50
143.130102354156
 51
180.0
  0
ARC
  5
97
330
36
100
AcDbEntity
  8
1
  6
Continuous
 62
     7
100
AcDbCircle
 10
424.3726371779167
 20
231.0157421012635
 30
0.0
 40
5.0
100
AcDbArc
 50
0.0
 51
36.86989764584402
  0
ARC
  5
98
330
36
100
AcDbEntity
  8
1
  6
Continuous
 62
     7
100
AcDbCircle
 10
432.3726371779167
 20
239.8743136727207
 30
0.0
 40
6.0
100
AcDbArc
 50
90.0
 51
180.0
  0
ENDBLK
  5
38
330
36
100
AcDbEntity
  8
0
100
AcDbBlockEnd
  0
BLOCK
  5
3A
330
39
100
AcDbEntity
  8
0
100
AcDbBlockBegin
  2
60-5-105
 70
     0
 71
     0
 10
795.6744081097043
 20
-84.26601753064227
 30
0.0
  3
60-5-105
  1

  0
LINE
  5
99
330
39
100
AcDbEntity
  8
1
  6
Continuous
 62
     7
100
AcDbLine
 10
352.3726371779167
 20
370.8557887991861
 30
0.0
 11
352.3726371779167
 21
224.3557887991861
 31
0.0
  0
LINE
  5
9A
330
39
100
AcDbEntity
  8
1
  6
Continuous
 62
     7
100
AcDbLine
 10
368.3726371779167
 20
370.8557887991861
 30
0.0
 11
368.3726371779167
 21
224.3557887991861
 31
0.0
  0
LINE
  5
9B
330
39
100
AcDbEntity
  8
1
  6
Continuous
 62
     7
100
AcDbLine
 10
255.3726371779166
 20
373.3557887991861
 30
0.0
 11
248.0253349491831
 21
374.0571221937469
 31
0.0
  0
LINE
  5
9C
330
39
100
AcDbEntity
  8
1
  6
PHANTOM
 62
     4
100
AcDbLine
 10
386.3726371779167
 20
189.3700774301143
 30
0.0
 11
386.3726371779167
 21
190.070369157595
 31
0.0
  0
LINE
  5
9D
330
39
100
AcDbEntity
  8
1
  6
Continuous
 62
     7
100
AcDbLine
 10
262.7339322182587
 20
372.6531197271534
 30
0.0
 11
255.3726371779166
 21
373.3557887991861
 31
0.0
  0
LINE
  5
9E
330
39
100
AcDbEntity
  8
1
  6
Continuous
 62
     7
100
AcDbLine
 10
263.8815134119885
 20
377.566305158661
 30
0.0
 11
247.935390532928
 21
379.088435069844
 31
0.0
  0
ARC
  5
9F
330
39
100
AcDbEntity
  8
1
  6
Continuous
 62
     7
100
AcDbCircle
 10
307.8726371779166
 20
370.8557887991861
 30
0.0
 40
44.50000000000011
100
AcDbArc
 50
0.0
 51
171.326818373098
  0
ARC
  5
A0
330
39
100
AcDbEntity
  8
1
  6
Continuous
 62
     7
100
AcDbCircle
 10
307.8726371779166
 20
370.8557887991861
 30
0.0
 40
60.50000000000011
100
AcDbArc
 50
0.0
 51
172.1791095080492
  0
ARC
  5
A1
330
39
100
AcDbEntity
  8
1
  6
Continuous
 62
     7
100
AcDbCircle
 10
387.3726371779167
 20
224.3557887991861
 30
0.0
 40
35.0
100
AcDbArc
 50
180.0
 51
-91.63724507777776
  0
ARC
  5
A2
330
39
100
AcDbEntity
  8
1
  6
Continuous
 62
     7
100
AcDbCircle
 10
260.2562198806683
 20
375.822457245441
 30
0.0
 40
4.022904265909516
100
AcDbArc
 50
-51.98255372395494
 51
-4.81981659475501
  0
ARC
  5
A3
330
39
100
AcDbEntity
  8
1
  6
Continuous
 62
     7
100
AcDbCircle
 10
250.7669939689764
 20
376.6225950366358
 30
0.0
 40
3.754776303378594
100
AcDbArc
 50
138.9497339427859
 51
175.1801834052457
  0
ARC
  5
A4
330
39
100
AcDbEntity
  8
1
  6
Continuous
 62
     7
100
AcDbCircle
 10
260.2562198806683
 20
375.822457245441
 30
0.0
 40
4.02290426590963
100
AcDbArc
 50
-4.81981659475501
 51
25.68860336787733
  0
ARC
  5
A5
330
39
100
AcDbEntity
  8
1
  6
Continuous
 62
     7
100
AcDbCircle
 10
250.7669939689764
 20
376.6225950366358
 30
0.0
 40
3.754776303378681
100
AcDbArc
 50
175.1801834052457
 51
-136.9014071190606
  0
ARC
  5
A6
330
39
100
AcDbEntity
  8
1
  6
Continuous
 62
     7
100
AcDbCircle
 10
387.3726371779167
 20
224.3557887991861
 30
0.0
 40
19.0
100
AcDbArc
 50
180.0
 51
-93.01696130981634
  0
ENDBLK
  5
3B
330
39
100
AcDbEntity
  8
0
100
AcDbBlockEnd
  0
BLOCK
  5
3D
330
3C
100
AcDbEntity
  8
0
100
AcDbBlockBegin
  2
04-12
 70
     0
 71
     0
 10
784.6744081097045
 20
25.98398246935773
 30
0.0
  3
04-12
  1

  0
LINE
  5
A7
330
3C
100
AcDbEntity
  8
1
  6
Continuous
 62
     7
100
AcDbLine
 10
401.3726371779166
 20
187.374313672722
 30
0.0
 11
390.3726371779166
 21
187.374313672722
 31
0.0
  0
LINE
  5
A8
330
3C
100
AcDbEntity
  8
1
  6
Continuous
 62
     7
100
AcDbLine
 10
401.3726371779166
 20
207.374313672722
 30
0.0
 11
390.3726371779166
 21
207.374313672722
 31
0.0
  0
LINE
  5
A9
330
3C
100
AcDbEntity
  8
1
  6
Continuous
 62
     7
100
AcDbLine
 10
386.3726371779166
 20
187.374313672722
 30
0.0
 11
386.3726371779166
 21
197.3928385462579
 31
0.0
  0
LINE
  5
AA
330
3C
100
AcDbEntity
  8
1
  6
Continuous
 62
     7
100
AcDbLine
 10
406.3726371779169
 20
216.374313672722
 30
0.0
 11
408.4726371779167
 21
216.374313672722
 31
0.0
  0
LINE
  5
AB
330
3C
100
AcDbEntity
  8
1
  6
Continuous
 62
     7
100
AcDbLine
 10
426.3726371779169
 20
212.374313672722
 30
0.0
 11
426.3726371779169
 21
216.374313672722
 31
0.0
  0
LINE
  5
AC
330
3C
100
AcDbEntity
  8
1
  6
Continuous
 62
     7
100
AcDbLine
 10
406.3726371779169
 20
212.374313672722
 30
0.0
 11
406.3726371779169
 21
216.374313672722
 31
0.0
  0
LINE
  5
AD
330
3C
100
AcDbEntity
  8
1
  6
Continuous
 62
     7
100
AcDbLine
 10
408.4726371779167
 20
216.8743136727215
 30
0.0
 11
408.4726371779167
 21
216.374313672722
 31
0.0
  0
LINE
  5
AE
330
3C
100
AcDbEntity
  8
1
  6
Continuous
 62
     7
100
AcDbLine
 10
424.2726371779169
 20
216.8743136727215
 30
0.0
 11
424.2726371779169
 21
216.374313672722
 31
0.0
  0
LINE
  5
AF
330
3C
100
AcDbEntity
  8
1
  6
Continuous
 62
     7
100
AcDbLine
 10
424.2726371779169
 20
216.374313672722
 30
0.0
 11
426.3726371779169
 21
216.374313672722
 31
0.0
  0
LINE
  5
B0
330
3C
100
AcDbEntity
  8
1
  6
Continuous
 62
     7
100
AcDbLine
 10
408.4726371779167
 20
216.374313672722
 30
0.0
 11
424.2726371779169
 21
216.374313672722
 31
0.0
  0
LINE
  5
B1
330
3C
100
AcDbEntity
  8
1
  6
PHANTOM
 62
     4
100
AcDbLine
 10
378.8726371779166
 20
197.3743136727219
 30
0.0
 11
401.3726371779166
 21
197.374313672722
 31
0.0
  0
LINE
  5
B2
330
3C
100
AcDbEntity
  8
1
  6
PHANTOM
 62
     4
100
AcDbLine
 10
416.3726371779167
 20
243.1243136727222
 30
0.0
 11
416.3726371779167
 21
212.374313672722
 31
0.0
  0
LINE
  5
B3
330
3C
100
AcDbEntity
  8
1
  6
Continuous
 62
     7
100
AcDbLine
 10
390.3726371779166
 20
207.374313672722
 30
0.0
 11
390.3726371779166
 21
187.374313672722
 31
0.0
  0
LINE
  5
B4
330
3C
100
AcDbEntity
  8
1
  6
Continuous
 62
     7
100
AcDbLine
 10
386.3726371779166
 20
197.3557887991859
 30
0.0
 11
386.3726371779166
 21
207.374313672722
 31
0.0
  0
ARC
  5
B5
330
3C
100
AcDbEntity
  8
1
  6
Continuous
 62
     7
100
AcDbCircle
 10
388.3726371779166
 20
206.399313672722
 30
0.0
 40
2.224999999999994
100
AcDbArc
 50
90.0
 51
154.0107664161671
  0
ARC
  5
B6
330
3C
100
AcDbEntity
  8
1
  6
Continuous
 62
     7
100
AcDbCircle
 10
388.3726371779166
 20
188.349313672722
 30
0.0
 40
2.224999999999997
100
AcDbArc
 50
-154.0107664161671
 51
-90.0
  0
ARC
  5
B7
330
3C
100
AcDbEntity
  8
1
  6
Continuous
 62
     7
100
AcDbCircle
 10
388.3726371779166
 20
206.399313672722
 30
0.0
 40
2.224999999999997
100
AcDbArc
 50
25.98923358383288
 51
90.0
  0
ARC
  5
B8
330
3C
100
AcDbEntity
  8
1
  6
Continuous
 62
     7
100
AcDbCircle
 10
388.3726371779166
 20
188.349313672722
 30
0.0
 40
2.224999999999994
100
AcDbArc
 50
-90.0
 51
-25.98923358383288
  0
ARC
  5
B9
330
3C
100
AcDbEntity
  8
1
  6
PHANTOM
 62
     4
100
AcDbCircle
 10
401.3726371779166
 20
212.374313672722
 30
0.0
 40
15.0
100
AcDbArc
 50
-90.0
 51
0.0
  0
ARC
  5
BA
330
3C
100
AcDbEntity
  8
1
  6
Continuous
 62
     7
100
AcDbCircle
 10
401.3726371779166
 20
212.374313672722
 30
0.0
 40
5.0
100
AcDbArc
 50
-90.0
 51
0.0
  0
ARC
  5
BB
330
3C
100
AcDbEntity
  8
1
  6
Continuous
 62
     7
100
AcDbCircle
 10
401.3726371779166
 20
212.374313672722
 30
0.0
 40
25.0
100
AcDbArc
 50
-90.0
 51
0.0
  0
ENDBLK
  5
3E
330
3C
100
AcDbEntity
  8
0
100
AcDbBlockEnd
  0
BLOCK
  5
40
330
3F
100
AcDbEntity
  8
0
100
AcDbBlockBegin
  2
32-1-16__1
 70
     0
 71
     0
 10
434.1726371779166
 20
217.8743136727215
 30
0.0
  3
32-1-16__1
  1

  0
LINE
  5
BC
330
3F
100
AcDbEntity
  8
1
  6
Continuous
 62
     7
100
AcDbLine
 10
155.9938320021241
 20
216.8743136727215
 30
0.0
 11
157.7617811945553
 21
216.8743136727215
 31
0.0
  0
LINE
  5
BD
330
3F
100
AcDbEntity
  8
1
  6
Continuous
 62
     7
100
AcDbLine
 10
139.9938320021241
 20
226.8743136727215
 30
0.0
 11
134.6938320021241
 21
226.8743136727215
 31
0.0
  0
LINE
  5
BE
330
3F
100
AcDbEntity
  8
1
  6
Continuous
 62
     7
100
AcDbLine
 10
161.9938320021242
 20
219.1611364230085
 30
0.0
 11
161.9938320021242
 21
226.3025648515514
 31
0.0
  0
LINE
  5
BF
330
3F
100
AcDbEntity
  8
1
  6
Continuous
 62
     7
100
AcDbLine
 10
161.2938320021243
 20
226.8743136727215
 30
0.0
 11
155.9938320021241
 21
226.8743136727215
 31
0.0
  0
LINE
  5
C0
330
3F
100
AcDbEntity
  8
1
  6
Continuous
 62
     7
100
AcDbLine
 10
159.5518530638548
 20
217.8743136727215
 30
0.0
 11
159.4938320021242
 21
217.8743136727215
 31
0.0
  0
LINE
  5
C1
330
3F
100
AcDbEntity
  8
1
  6
Continuous
 62
     7
100
AcDbLine
 10
133.9938320021242
 20
226.3025648515514
 30
0.0
 11
133.9938320021242
 21
219.1611364230085
 31
0.0
  0
LINE
  5
C2
330
3F
100
AcDbEntity
  8
1
  6
Continuous
 62
     7
100
AcDbLine
 10
136.4938320021241
 20
217.8743136727215
 30
0.0
 11
136.4358109403934
 21
217.8743136727215
 31
0.0
  0
LINE
  5
C3
330
3F
100
AcDbEntity
  8
1
  6
Continuous
 62
     7
100
AcDbLine
 10
138.2258828096929
 20
216.8743136727215
 30
0.0
 11
139.9938320021241
 21
216.8743136727215
 31
0.0
  0
LINE
  5
C4
330
3F
100
AcDbEntity
  8
1
  6
Continuous
 62
     7
100
AcDbLine
 10
429.6726371779169
 20
226.8743136727215
 30
0.0
 11
416.3726371779169
 21
226.8743136727215
 31
0.0
  0
LINE
  5
C5
330
3F
100
AcDbEntity
  8
1
  6
Continuous
 62
     7
100
AcDbLine
 10
429.5596371779168
 20
226.8743136727215
 30
0.0
 11
429.6726371779169
 21
226.8743136727215
 31
0.0
  0
LINE
  5
C6
330
3F
100
AcDbEntity
  8
1
  6
Continuous
 62
     7
100
AcDbLine
 10
427.9306582396472
 20
217.8743136727215
 30
0.0
 11
427.8726371779169
 21
217.8743136727215
 31
0.0
  0
LINE
  5
C7
330
3F
100
AcDbEntity
  8
1
  6
Continuous
 62
     7
100
AcDbLine
 10
416.3726371779169
 20
216.8743136727215
 30
0.0
 11
426.1405863703481
 21
216.8743136727215
 31
0.0
  0
LINE
  5
C8
330
3F
100
AcDbEntity
  8
1
  6
Continuous
 62
     7
100
AcDbLine
 10
425.1709591569866
 20
217.8743136727215
 30
0.0
 11
416.3726371779169
 21
217.8743136727215
 31
0.0
  0
LINE
  5
C9
330
3F
100
AcDbEntity
  8
1
  6
Continuous
 62
     7
100
AcDbLine
 10
416.3726371779169
 20
226.8743136727215
 30
0.0
 11
403.0726371779166
 21
226.8743136727215
 31
0.0
  0
LINE
  5
CA
330
3F
100
AcDbEntity
  8
1
  6
Continuous
 62
     7
100
AcDbLine
 10
403.0726371779166
 20
226.8743136727215
 30
0.0
 11
403.1856371779168
 21
226.8743136727215
 31
0.0
  0
LINE
  5
CB
330
3F
100
AcDbEntity
  8
1
  6
Continuous
 62
     7
100
AcDbLine
 10
404.8726371779169
 20
217.8743136727215
 30
0.0
 11
404.8146161161863
 21
217.8743136727215
 31
0.0
  0
LINE
  5
CC
330
3F
100
AcDbEntity
  8
1
  6
Continuous
 62
     7
100
AcDbLine
 10
406.6046879854858
 20
216.8743136727215
 30
0.0
 11
416.3726371779169
 21
216.8743136727215
 31
0.0
  0
LINE
  5
CD
330
3F
100
AcDbEntity
  8
1
  6
Continuous
 62
     7
100
AcDbLine
 10
416.3726371779169
 20
217.8743136727215
 30
0.0
 11
407.5743151988472
 21
217.8743136727215
 31
0.0
  0
LINE
  5
CE
330
3F
100
AcDbEntity
  8
1
  6
Continuous
 62
     7
100
AcDbLine
 10
133.993832002124
 20
660.5385095265583
 30
0.0
 11
133.993832002124
 21
673.8426442222085
 31
0.0
  0
LINE
  5
CF
330
3F
100
AcDbEntity
  8
1
  6
Continuous
 62
     7
100
AcDbLine
 10
146.7546913130254
 20
651.7401875474889
 30
0.0
 11
135.2329726912227
 21
658.392254895314
 31
0.0
  0
LINE
  5
D0
330
3F
100
AcDbEntity
  8
1
  6
Continuous
 62
     7
100
AcDbLine
 10
160.7546913130255
 20
658.392254895314
 30
0.0
 11
149.2329726912225
 21
651.7401875474891
 31
0.0
  0
LINE
  5
D1
330
3F
100
AcDbEntity
  8
1
  6
Continuous
 62
     7
100
AcDbLine
 10
161.9938320021239
 20
660.5385095265583
 30
0.0
 11
161.9938320021239
 21
673.8426442222085
 31
0.0
  0
LINE
  5
D2
330
3F
100
AcDbEntity
  8
1
  6
Continuous
 62
     7
100
AcDbLine
 10
135.2329726912227
 20
675.9888988534533
 30
0.0
 11
138.2415361989843
 21
677.7258938045336
 31
0.0
  0
LINE
  5
D3
330
3F
100
AcDbEntity
  8
1
  6
Continuous
 62
     7
100
AcDbLine
 10
157.7461278052636
 20
677.7258938045336
 30
0.0
 11
160.7546913130255
 21
675.9888988534533
 31
0.0
  0
ARC
  5
D4
330
3F
100
AcDbEntity
  8
1
  6
Continuous
 62
     7
100
AcDbCircle
 10
158.4938320021242
 20
222.7318506372799
 30
0.0
 40
5.000000000000057
100
AcDbArc
 50
45.57299599919494
 51
55.94420225743126
  0
ARC
  5
D5
330
3F
100
AcDbEntity
  8
1
  6
Continuous
 62
     7
100
AcDbCircle
 10
158.4938320021242
 20
222.7318506372799
 30
0.0
 40
4.999999999999902
100
AcDbArc
 50
-74.66244233044564
 51
-45.57299599919425
  0
ARC
  5
D6
330
3F
100
AcDbEntity
  8
1
  6
Continuous
 62
     7
100
AcDbCircle
 10
137.4938320021241
 20
222.7318506372799
 30
0.0
 40
5.000000000000001
100
AcDbArc
 50
124.0557977425677
 51
134.4270040008042
  0
ARC
  5
D7
330
3F
100
AcDbEntity
  8
1
  6
Continuous
 62
     7
100
AcDbCircle
 10
137.4938320021241
 20
222.7318506372799
 30
0.0
 40
4.999999999999917
100
AcDbArc
 50
-134.4270040008048
 51
-105.3375576695566
  0
ARC
  5
D8
330
3F
100
AcDbEntity
  8
1
  6
Continuous
 62
     7
100
AcDbCircle
 10
426.8726371779169
 20
222.7318506372798
 30
0.0
 40
4.99999999999997
100
AcDbArc
 50
-74.66244233044651
 51
55.9442022574328
  0
ARC
  5
D9
330
3F
100
AcDbEntity
  8
1
  6
Continuous
 62
     7
100
AcDbCircle
 10
405.8726371779169
 20
222.7318506372798
 30
0.0
 40
5.00000000000027
100
AcDbArc
 50
124.0557977425699
 51
-105.3375576695554
  0
ARC
  5
DA
330
3F
100
AcDbEntity
  8
1
  6
Continuous
 62
     7
100
AcDbCircle
 10
147.993832002124
 20
667.1905768743834
 30
0.0
 40
15.50000000000004
100
AcDbArc
 50
145.4146209151598
 51
154.5853790848388
  0
ARC
  5
DB
330
3F
100
AcDbEntity
  8
1
  6
Continuous
 62
     7
100
AcDbCircle
 10
147.993832002124
 20
667.1905768743834
 30
0.0
 40
15.50000000000003
100
AcDbArc
 50
-154.5853790848388
 51
-145.4146209151612
  0
ARC
  5
DC
330
3F
100
AcDbEntity
  8
1
  6
Continuous
 62
     7
100
AcDbCircle
 10
147.993832002124
 20
667.1905768743834
 30
0.0
 40
15.49999999999988
100
AcDbArc
 50
-94.58537908483929
 51
-85.41462091516108
  0
ARC
  5
DD
330
3F
100
AcDbEntity
  8
1
  6
Continuous
 62
     7
100
AcDbCircle
 10
147.993832002124
 20
667.1905768743834
 30
0.0
 40
15.49999999999992
100
AcDbArc
 50
-34.58537908483842
 51
-25.41462091516136
  0
ARC
  5
DE
330
3F
100
AcDbEntity
  8
1
  6
Continuous
 62
     7
100
AcDbCircle
 10
147.993832002124
 20
667.1905768743834
 30
0.0
 40
15.49999999999992
100
AcDbArc
 50
25.41462091516136
 51
34.5853790848398
  0
SPLINE
  5
DF
330
3F
100
AcDbEntity
  8
1
  6
Continuous
 62
     7
100
AcDbSpline
210
0.0
220
0.0
230
1.0
 70
    11
 71
     3
 72
    79
 73
    75
 74
    73
 42
0.0000000001
 43
0.0000000001
 44
0.00000001
 40
0.0
 40
0.0
 40
0.0
 40
0.0
 40
0.2910229153819053
 40
0.5820342278738003
 40
0.8749339334365878
 40
1.167812547519507
 40
1.463561188767471
 40
1.759282806464967
 40
2.05848781114087
 40
2.357663885606035
 40
2.660503341347786
 40
2.963315625194843
 40
3.269530826276676
 40
3.575723468843894
 40
3.884662744191525
 40
4.193586027919127
 40
4.504289085610822
 40
4.814983882015477
 40
5.126294430971296
 40
5.437604979927057
 40
5.748299776331657
 40
6.059002834023324
 40
6.367926117750942
 40
6.676865393098552
 40
6.983058035665795
 40
7.289273236747628
 40
7.592085520594653
 40
7.894924976336346
 40
8.194101050801571
 40
8.493306055477492
 40
8.789027673175097
 40
9.084776314422962
 40
9.377654928505962
 40
9.670554634068587
 40
9.961565946560489
 40
10.25258886194238
 40
10.54295309984937
 40
10.83331733775636
 40
11.12434025313825
 40
11.41535156563009
 40
11.7082512711928
 40
12.00112988527566
 40
12.29687852652365
 40
12.59260014422124
 40
12.89180514889719
 40
13.19098122336233
 40
13.49382067910407
 40
13.79663296295107
 40
14.10284816403293
 40
14.4090408066002
 40
14.71798008194778
 40
15.02690336567538
 40
15.33760642336699
 40
15.64830121977163
 40
15.95961176872742
 40
16.27092231768327
 40
16.58161711408796
 40
16.89232017177961
 40
17.20124345550715
 40
17.51018273085478
 40
17.81637537342205
 40
18.12259057450394
 40
18.42540285835105
 40
18.72824231409274
 40
19.02741838855786
 40
19.32662339323382
 40
19.62234501093136
 40
19.91809365217937
 40
20.21097226626225
 40
20.50387197182491
 40
20.79488328431683
 40
21.08590619969873
 40
21.37627043760566
 40
21.66663467551258
 40
21.66663467551258
 40
21.66663467551258
 40
21.66663467551258
 10
428.2069493761485
 20
226.2889198886811
 30
0.0
 10
428.1105743174314
 20
226.2772442208797
 30
0.0
 10
427.9178280424072
 20
226.2538933507782
 30
0.0
 10
427.6338915331421
 20
226.1845373573275
 30
0.0
 10
427.3566272672834
 20
226.0910945997521
 30
0.0
 10
427.0878748834331
 20
225.9711876137748
 30
0.0
 10
426.8302294999134
 20
225.8271421085877
 30
0.0
 10
426.5850025526786
 20
225.6590755077422
 30
0.0
 10
426.3547391966216
 20
225.4692407746683
 30
0.0
 10
426.1405069881054
 20
225.258104646001
 30
0.0
 10
425.9445525593428
 20
225.028325042367
 30
0.0
 10
425.767795215722
 20
224.7805965101427
 30
0.0
 10
425.612024381755
 20
224.5178642703088
 30
0.0
 10
425.4780559643859
 20
224.241113258667
 30
0.0
 10
425.3671329331004
 20
223.9533812809034
 30
0.0
 10
425.2799561407291
 20
223.6560278344805
 30
0.0
 10
425.2172081306363
 20
223.3519818383377
 30
0.0
 10
425.1794077514239
 20
223.0430402425834
 30
0.0
 10
425.1667306779357
 20
222.7318506372808
 30
0.0
 10
425.1794077514238
 20
222.4206610319725
 30
0.0
 10
425.2172081306375
 20
222.1117194362353
 30
0.0
 10
425.2799561407246
 20
221.8076734400305
 30
0.0
 10
425.3671329331177
 20
221.5103199938367
 30
0.0
 10
425.4780559643227
 20
221.2225880152219
 30
0.0
 10
425.6120243819883
 20
220.9458370067298
 30
0.0
 10
425.7677952148556
 20
220.6831047552057
 30
0.0
 10
425.9445525625368
 20
220.4353762661474
 30
0.0
 10
426.14050697624
 20
220.2055965024265
 30
0.0
 10
426.3547392403112
 20
219.9944609643188
 30
0.0
 10
426.5850023903456
 20
219.8046240411911
 30
0.0
 10
426.8302300979406
 20
219.6365655230962
 30
0.0
 10
427.0878726596203
 20
219.4924900213034
 30
0.0
 10
427.3566354775113
 20
219.3726939508237
 30
0.0
 10
427.633860963204
 20
219.2788389539824
 30
0.0
 10
427.9179413167063
 20
219.2110120473926
 30
0.0
 10
428.2063087972194
 20
219.1703170857689
 30
0.0
 10
428.4969928308988
 20
219.1565512922039
 30
0.0
 10
428.7876768645784
 20
219.1703170857689
 30
0.0
 10
429.0760443450914
 20
219.2110120473926
 30
0.0
 10
429.3601246985938
 20
219.2788389539824
 30
0.0
 10
429.6373501842864
 20
219.3726939508236
 30
0.0
 10
429.9061130021775
 20
219.4924900213034
 30
0.0
 10
430.1637555638569
 20
219.6365655230962
 30
0.0
 10
430.4089832714524
 20
219.8046240411911
 30
0.0
 10
430.6392464214866
 20
219.9944609643187
 30
0.0
 10
430.8534786855579
 20
220.2055965024266
 30
0.0
 10
431.0494330992607
 20
220.4353762661474
 30
0.0
 10
431.2261904469422
 20
220.6831047552057
 30
0.0
 10
431.3819612798093
 20
220.9458370067297
 30
0.0
 10
431.515929697475
 20
221.222588015222
 30
0.0
 10
431.62685272868
 20
221.5103199938365
 30
0.0
 10
431.7140295210734
 20
221.8076734400305
 30
0.0
 10
431.7767775311601
 20
222.1117194362351
 30
0.0
 10
431.8145779103743
 20
222.4206610319728
 30
0.0
 10
431.8272549838619
 20
222.7318506372798
 30
0.0
 10
431.8145779103743
 20
223.0430402425868
 30
0.0
 10
431.7767775311602
 20
223.3519818383255
 30
0.0
 10
431.7140295210734
 20
223.6560278345257
 30
0.0
 10
431.6268527286792
 20
223.953381280736
 30
0.0
 10
431.5159296974795
 20
224.2411132592897
 30
0.0
 10
431.3819612797927
 20
224.5178642680077
 30
0.0
 10
431.2261904470043
 20
224.7805965186936
 30
0.0
 10
431.0494330990316
 20
225.0283250108474
 30
0.0
 10
430.8534786864087
 20
225.2581047630877
 30
0.0
 10
430.6392464183533
 20
225.4692403435475
 30
0.0
 10
430.408983283094
 20
225.6590771096158
 30
0.0
 10
430.1637555209695
 20
225.8271362073631
 30
0.0
 10
429.9061131616578
 20
225.9712095579569
 30
0.0
 10
429.6373495954916
 20
226.0910135827138
 30
0.0
 10
429.3601268909094
 20
226.1848390159191
 30
0.0
 10
429.0760362216531
 20
226.2527755805912
 30
0.0
 10
428.7877071605823
 20
226.2930621375078
 30
0.0
 10
428.4968800479163
 20
226.3083488831919
 30
0.0
 10
428.3035929334044
 20
226.2953962201847
 30
0.0
 10
428.2069493761485
 20
226.2889198886811
 30
0.0
 11
428.2069493761485
 21
226.2889198886811
 31
0.0
 11
427.9187898798735
 21
226.2481959155946
 31
0.0
 11
427.6357076734911
 21
226.1807270455292
 31
0.0
 11
427.3582836309471
 21
226.0867795168904
 31
0.0
 11
427.0907218788298
 21
225.9676636430909
 31
0.0
 11
426.8325895101145
 21
225.8233205136338
 31
0.0
 11
426.5885768575034
 21
225.6562603432181
 31
0.0
 11
426.3576973519726
 21
225.4659493116173
 31
0.0
 11
426.1445220570214
 21
225.2560383372619
 31
0.0
 11
425.9479877330131
 21
225.0256343541354
 31
0.0
 11
425.7720141972135
 21
224.7792026314476
 31
0.0
 11
425.6158170567407
 21
224.5158203946098
 31
0.0
 11
425.4823213687765
 21
224.2402612618319
 31
0.0
 11
425.3711714432194
 21
223.9520093409347
 31
0.0
 11
425.2841947891931
 21
223.6555828628943
 31
0.0
 11
425.2213897148715
 21
223.3512936703513
 31
0.0
 11
425.1836143531999
 21
223.0429038544308
 31
0.0
 11
425.1709591569863
 21
222.7318506372798
 31
0.0
 11
425.1836143531999
 21
222.4207974201289
 31
0.0
 11
425.2213897148715
 21
222.1124076042084
 31
0.0
 11
425.2841947891931
 21
221.8081184116655
 31
0.0
 11
425.3711714432195
 21
221.5116919336251
 31
0.0
 11
425.4823213687765
 21
221.2234400127279
 31
0.0
 11
425.6158170567408
 21
220.94788087995
 31
0.0
 11
425.7720141972135
 21
220.6844986431122
 31
0.0
 11
425.9479877330131
 21
220.4380669204244
 31
0.0
 11
426.1445220570213
 21
220.2076629372979
 31
0.0
 11
426.3576973519726
 21
219.9977519629425
 31
0.0
 11
426.5885768575034
 21
219.8074409313417
 31
0.0
 11
426.8325895101146
 21
219.640380760926
 31
0.0
 11
427.0907218788298
 21
219.4960376314688
 31
0.0
 11
427.3582836309473
 21
219.3769217576694
 31
0.0
 11
427.635707673491
 21
219.2829742290306
 31
0.0
 11
427.9187898798735
 21
219.2155053589652
 31
0.0
 11
428.2069493761484
 21
219.1747813858787
 31
0.0
 11
428.4969928308989
 21
219.1611364230085
 31
0.0
 11
428.7870362856493
 21
219.1747813858787
 31
0.0
 11
429.0751957819243
 21
219.2155053589652
 31
0.0
 11
429.3582779883067
 21
219.2829742290305
 31
0.0
 11
429.6357020308506
 21
219.3769217576693
 31
0.0
 11
429.9032637829679
 21
219.4960376314687
 31
0.0
 11
430.1613961516831
 21
219.640380760926
 31
0.0
 11
430.4054088042943
 21
219.8074409313416
 31
0.0
 11
430.6362883098252
 21
219.9977519629424
 31
0.0
 11
430.8494636047764
 21
220.2076629372979
 31
0.0
 11
431.0459979287846
 21
220.4380669204244
 31
0.0
 11
431.2219714645842
 21
220.6844986431121
 31
0.0
 11
431.378168605057
 21
220.94788087995
 31
0.0
 11
431.5116642930212
 21
221.2234400127279
 31
0.0
 11
431.6228142185784
 21
221.5116919336251
 31
0.0
 11
431.7097908726047
 21
221.8081184116655
 31
0.0
 11
431.7725959469261
 21
222.1124076042083
 31
0.0
 11
431.8103713085978
 21
222.4207974201289
 31
0.0
 11
431.8230265048114
 21
222.7318506372798
 31
0.0
 11
431.8103713085978
 21
223.0429038544308
 31
0.0
 11
431.7725959469262
 21
223.3512936703514
 31
0.0
 11
431.7097908726047
 21
223.6555828628943
 31
0.0
 11
431.6228142185785
 21
223.9520093409346
 31
0.0
 11
431.5116642930213
 21
224.2402612618319
 31
0.0
 11
431.3781686050571
 21
224.5158203946097
 31
0.0
 11
431.2219714645842
 21
224.7792026314476
 31
0.0
 11
431.0459979287845
 21
225.0256343541354
 31
0.0
 11
430.8494636047763
 21
225.2560383372619
 31
0.0
 11
430.6362883098252
 21
225.4659493116174
 31
0.0
 11
430.4054088042943
 21
225.6562603432181
 31
0.0
 11
430.1613961516831
 21
225.8233205136338
 31
0.0
 11
429.9032637829678
 21
225.9676636430909
 31
0.0
 11
429.6357020308505
 21
226.0867795168904
 31
0.0
 11
429.3582779883067
 21
226.1807270455292
 31
0.0
 11
429.0751957819242
 21
226.2481959155946
 31
0.0
 11
428.7870362856493
 21
226.2889198886811
 31
0.0
 11
428.4969928308989
 21
226.3025648515513
 31
0.0
 11
428.2069493761485
 21
226.2889198886811
 31
0.0
  0
SPLINE
  5
E0
330
3F
100
AcDbEntity
  8
1
  6
Continuous
 62
     7
100
AcDbSpline
210
0.0
220
0.0
230
1.0
 70
    11
 71
     3
 72
    79
 73
    75
 74
    73
 42
0.0000000001
 43
0.0000000001
 44
0.00000001
 40
0.0
 40
0.0
 40
0.0
 40
0.0
 40
0.2910229153817928
 40
0.5820342278737984
 40
0.8749339334364243
 40
1.167812547519395
 40
1.46356118876736
 40
1.759282806464856
 40
2.058487811140758
 40
2.357663885605923
 40
2.660503341347638
 40
2.963315625194662
 40
3.269530826276524
 40
3.575723468843743
 40
3.884662744191353
 40
4.193586027918987
 40
4.504289085610681
 40
4.814983882015337
 40
5.126294430971155
 40
5.437604979926917
 40
5.748299776331517
 40
6.059002834023183
 40
6.367926117750754
 40
6.676865393098406
 40
6.983058035665624
 40
7.289273236747485
 40
7.592085520594543
 40
7.894924976336272
 40
8.194101050801416
 40
8.493306055477381
 40
8.789027673174893
 40
9.084776314422857
 40
9.377654928505754
 40
9.670554634068488
 40
9.961565946560445
 40
10.25258886194234
 40
10.54295309984932
 40
10.83331733775631
 40
11.1243402531381
 40
11.41535156562998
 40
11.70825127119259
 40
12.00112988527555
 40
12.29687852652349
 40
12.59260014422104
 40
12.89180514889698
 40
13.19098122336221
 40
13.49382067910394
 40
13.79663296295095
 40
14.10284816403278
 40
14.40904080660007
 40
14.71798008194765
 40
15.02690336567525
 40
15.33760642336689
 40
15.64830121977152
 40
15.95961176872731
 40
16.27092231768316
 40
16.58161711408784
 40
16.8923201717795
 40
17.20124345550707
 40
17.5101827308547
 40
17.81637537342192
 40
18.12259057450381
 40
18.42540285835091
 40
18.72824231409264
 40
19.02741838855785
 40
19.32662339323371
 40
19.62234501093125
 40
19.91809365217917
 40
20.2109722662621
 40
20.50387197182465
 40
20.79488328431668
 40
21.08590619969852
 40
21.3762704376055
 40
21.66663467551249
 40
21.66663467551249
 40
21.66663467551249
 40
21.66663467551249
 10
404.5383249796851
 20
226.2889198886811
 30
0.0
 10
404.634700038402
 20
226.2772442208797
 30
0.0
 10
404.8274463134264
 20
226.2538933507781
 30
0.0
 10
405.1113828226915
 20
226.1845373573276
 30
0.0
 10
405.3886470885501
 20
226.091094599752
 30
0.0
 10
405.6573994724004
 20
225.9711876137748
 30
0.0
 10
405.91504485592
 20
225.8271421085877
 30
0.0
 10
406.1602718031548
 20
225.6590755077422
 30
0.0
 10
406.3905351592119
 20
225.4692407746683
 30
0.0
 10
406.604767367728
 20
225.258104646001
 30
0.0
 10
406.8007217964906
 20
225.028325042367
 30
0.0
 10
406.9774791401112
 20
224.7805965101427
 30
0.0
 10
407.1332499740784
 20
224.5178642703088
 30
0.0
 10
407.2672183914474
 20
224.2411132586671
 30
0.0
 10
407.3781414227327
 20
223.9533812809034
 30
0.0
 10
407.4653182151043
 20
223.6560278344807
 30
0.0
 10
407.5280662251974
 20
223.3519818383375
 30
0.0
 10
407.5658666044093
 20
223.0430402425834
 30
0.0
 10
407.5785436778978
 20
222.7318506372808
 30
0.0
 10
407.5658666044099
 20
222.4206610319725
 30
0.0
 10
407.528066225196
 20
222.1117194362353
 30
0.0
 10
407.4653182151089
 20
221.8076734400306
 30
0.0
 10
407.378141422716
 20
221.5103199938366
 30
0.0
 10
407.2672183915106
 20
221.2225880152219
 30
0.0
 10
407.1332499738452
 20
220.9458370067299
 30
0.0
 10
406.977479140978
 20
220.6831047552055
 30
0.0
 10
406.8007217932966
 20
220.4353762661474
 30
0.0
 10
406.6047673795932
 20
220.2055965024265
 30
0.0
 10
406.3905351155225
 20
219.9944609643188
 30
0.0
 10
406.1602719654878
 20
219.804624041191
 30
0.0
 10
405.9150442578929
 20
219.6365655230963
 30
0.0
 10
405.6574016962132
 20
219.4924900213034
 30
0.0
 10
405.3886388783221
 20
219.3726939508238
 30
0.0
 10
405.1114133926295
 20
219.2788389539823
 30
0.0
 10
404.827333039127
 20
219.2110120473926
 30
0.0
 10
404.5389655586141
 20
219.1703170857688
 30
0.0
 10
404.2482815249344
 20
219.1565512922039
 30
0.0
 10
403.957597491255
 20
219.1703170857688
 30
0.0
 10
403.669230010742
 20
219.2110120473926
 30
0.0
 10
403.3851496572397
 20
219.2788389539824
 30
0.0
 10
403.1079241715472
 20
219.3726939508236
 30
0.0
 10
402.8391613536561
 20
219.4924900213034
 30
0.0
 10
402.5815187919765
 20
219.6365655230962
 30
0.0
 10
402.3362910843812
 20
219.8046240411911
 30
0.0
 10
402.1060279343469
 20
219.9944609643187
 30
0.0
 10
401.8917956702758
 20
220.2055965024265
 30
0.0
 10
401.6958412565726
 20
220.4353762661474
 30
0.0
 10
401.5190839088912
 20
220.6831047552055
 30
0.0
 10
401.363313076024
 20
220.9458370067298
 30
0.0
 10
401.2293446583585
 20
221.2225880152219
 30
0.0
 10
401.1184216271532
 20
221.5103199938367
 30
0.0
 10
401.0312448347601
 20
221.8076734400304
 30
0.0
 10
400.9684968246732
 20
222.1117194362351
 30
0.0
 10
400.9306964454593
 20
222.4206610319727
 30
0.0
 10
400.9180193719715
 20
222.7318506372799
 30
0.0
 10
400.9306964454592
 20
223.0430402425866
 30
0.0
 10
400.9684968246734
 20
223.3519818383255
 30
0.0
 10
401.0312448347598
 20
223.6560278345258
 30
0.0
 10
401.1184216271545
 20
223.953381280736
 30
0.0
 10
401.2293446583541
 20
224.2411132592897
 30
0.0
 10
401.3633130760406
 20
224.5178642680077
 30
0.0
 10
401.5190839088292
 20
224.7805965186936
 30
0.0
 10
401.6958412568016
 20
225.0283250108474
 30
0.0
 10
401.891795669425
 20
225.2581047630878
 30
0.0
 10
402.1060279374801
 20
225.4692403435473
 30
0.0
 10
402.3362910727397
 20
225.6590771096159
 30
0.0
 10
402.5815188348637
 20
225.827136207363
 30
0.0
 10
402.8391611941759
 20
225.9712095579569
 30
0.0
 10
403.1079247603415
 20
226.0910135827138
 30
0.0
 10
403.385147464924
 20
226.1848390159191
 30
0.0
 10
403.6692381341802
 20
226.2527755805912
 30
0.0
 10
403.9575671952512
 20
226.2930621375078
 30
0.0
 10
404.2483943079171
 20
226.3083488831918
 30
0.0
 10
404.4416814224289
 20
226.2953962201846
 30
0.0
 10
404.538324979685
 20
226.2889198886811
 30
0.0
 11
404.5383249796851
 21
226.2889198886811
 31
0.0
 11
404.8264844759599
 21
226.2481959155946
 31
0.0
 11
405.1095666823425
 21
226.1807270455292
 31
0.0
 11
405.3869907248862
 21
226.0867795168904
 31
0.0
 11
405.6545524770037
 21
225.9676636430909
 31
0.0
 11
405.9126848457189
 21
225.8233205136338
 31
0.0
 11
406.15669749833
 21
225.6562603432181
 31
0.0
 11
406.3875770038608
 21
225.4659493116173
 31
0.0
 11
406.600752298812
 21
225.2560383372619
 31
0.0
 11
406.7972866228203
 21
225.0256343541354
 31
0.0
 11
406.9732601586198
 21
224.7792026314476
 31
0.0
 11
407.1294572990927
 21
224.5158203946098
 31
0.0
 11
407.2629529870569
 21
224.2402612618319
 31
0.0
 11
407.3741029126139
 21
223.9520093409347
 31
0.0
 11
407.4610795666404
 21
223.6555828628943
 31
0.0
 11
407.5238846409619
 21
223.3512936703513
 31
0.0
 11
407.5616600026335
 21
223.0429038544308
 31
0.0
 11
407.5743151988471
 21
222.7318506372798
 31
0.0
 11
407.5616600026335
 21
222.4207974201289
 31
0.0
 11
407.5238846409619
 21
222.1124076042084
 31
0.0
 11
407.4610795666404
 21
221.8081184116655
 31
0.0
 11
407.3741029126142
 21
221.5116919336251
 31
0.0
 11
407.262952987057
 21
221.2234400127279
 31
0.0
 11
407.1294572990928
 21
220.94788087995
 31
0.0
 11
406.97326015862
 21
220.6844986431122
 31
0.0
 11
406.7972866228203
 21
220.4380669204244
 31
0.0
 11
406.600752298812
 21
220.2076629372979
 31
0.0
 11
406.3875770038609
 21
219.9977519629425
 31
0.0
 11
406.15669749833
 21
219.8074409313417
 31
0.0
 11
405.9126848457189
 21
219.640380760926
 31
0.0
 11
405.6545524770037
 21
219.4960376314688
 31
0.0
 11
405.3869907248863
 21
219.3769217576694
 31
0.0
 11
405.1095666823424
 21
219.2829742290306
 31
0.0
 11
404.8264844759599
 21
219.2155053589652
 31
0.0
 11
404.5383249796849
 21
219.1747813858787
 31
0.0
 11
404.2482815249345
 21
219.1611364230085
 31
0.0
 11
403.9582380701841
 21
219.1747813858787
 31
0.0
 11
403.6700785739092
 21
219.2155053589652
 31
0.0
 11
403.3869963675268
 21
219.2829742290305
 31
0.0
 11
403.109572324983
 21
219.3769217576693
 31
0.0
 11
402.8420105728656
 21
219.4960376314687
 31
0.0
 11
402.5838782041504
 21
219.640380760926
 31
0.0
 11
402.3398655515392
 21
219.8074409313416
 31
0.0
 11
402.1089860460083
 21
219.9977519629424
 31
0.0
 11
401.8958107510571
 21
220.2076629372979
 31
0.0
 11
401.6992764270489
 21
220.4380669204244
 31
0.0
 11
401.5233028912493
 21
220.6844986431121
 31
0.0
 11
401.3671057507765
 21
220.94788087995
 31
0.0
 11
401.2336100628122
 21
221.2234400127279
 31
0.0
 11
401.1224601372551
 21
221.5116919336251
 31
0.0
 11
401.0354834832288
 21
221.8081184116655
 31
0.0
 11
400.9726784089072
 21
222.1124076042083
 31
0.0
 11
400.9349030472356
 21
222.4207974201289
 31
0.0
 11
400.922247851022
 21
222.7318506372798
 31
0.0
 11
400.9349030472357
 21
223.0429038544308
 31
0.0
 11
400.9726784089073
 21
223.3512936703514
 31
0.0
 11
401.0354834832288
 21
223.6555828628943
 31
0.0
 11
401.1224601372551
 21
223.9520093409346
 31
0.0
 11
401.2336100628122
 21
224.2402612618319
 31
0.0
 11
401.3671057507764
 21
224.5158203946097
 31
0.0
 11
401.5233028912493
 21
224.7792026314476
 31
0.0
 11
401.6992764270489
 21
225.0256343541354
 31
0.0
 11
401.8958107510572
 21
225.2560383372619
 31
0.0
 11
402.1089860460084
 21
225.4659493116174
 31
0.0
 11
402.3398655515392
 21
225.6562603432181
 31
0.0
 11
402.5838782041504
 21
225.8233205136338
 31
0.0
 11
402.8420105728656
 21
225.9676636430909
 31
0.0
 11
403.1095723249829
 21
226.0867795168904
 31
0.0
 11
403.3869963675267
 21
226.1807270455292
 31
0.0
 11
403.6700785739092
 21
226.2481959155946
 31
0.0
 11
403.9582380701841
 21
226.2889198886811
 31
0.0
 11
404.2482815249346
 21
226.3025648515513
 31
0.0
 11
404.538324979685
 21
226.2889198886811
 31
0.0
  0
SPLINE
  5
E1
330
3F
100
AcDbEntity
  8
1
  6
Continuous
 62
     7
100
AcDbSpline
210
0.0
220
0.0
230
1.0
 70
    11
 71
     3
 72
    79
 73
    75
 74
    73
 42
0.0000000001
 43
0.0000000001
 44
0.00000001
 40
0.0
 40
0.0
 40
0.0
 40
0.0
 40
0.3261189881639182
 40
0.651724227366312
 40
1.007570734071844
 40
1.36278657815587
 40
1.759886314710476
 40
2.156516714717156
 40
2.599210008268972
 40
3.041603627004257
 40
3.528307206464681
 40
4.014826849025012
 40
4.539616314403949
 40
5.064295509496705
 40
5.618233632288027
 40
6.172109437579023
 40
6.744280968665947
 40
7.316424323670668
 40
7.894787044418169
 40
8.473149765165669
 40
9.045293120170332
 40
9.61746465125726
 40
10.17134045654831
 40
10.72527857933959
 40
11.24995777443228
 40
11.77474723981125
 40
12.26126688237163
 40
12.74797046183202
 40
13.1903640805674
 40
13.6330573741192
 40
14.02968777412584
 40
14.42678751068047
 40
14.78200335476448
 40
15.13784986146998
 40
15.46345510067237
 40
15.78957408883629
 40
16.10448972240922
 40
16.41940535598215
 40
16.74552434414605
 40
17.07112958334844
 40
17.42697609005392
 40
17.78219193413787
 40
18.17929167069246
 40
18.57592207069918
 40
19.01861536425097
 40
19.46100898298626
 40
19.94771256244669
 40
20.43423220500698
 40
20.95902167038607
 40
21.48370086547877
 40
22.03763898827012
 40
22.59151479356105
 40
23.16368632464797
 40
23.73582967965269
 40
24.31419240040014
 40
24.8925551211477
 40
25.46469847615236
 40
26.03687000723934
 40
26.59074581253028
 40
27.14468393532162
 40
27.66936313041425
 40
28.1941525957933
 40
28.68067223835362
 40
29.1673758178141
 40
29.6097694365495
 40
30.05246273010123
 40
30.44909313010783
 40
30.84619286666241
 40
31.20140871074644
 40
31.55725521745197
 40
31.88286045665434
 40
32.20897944481829
 40
32.52389507839116
 40
32.83881071196411
 40
32.83881071196411
 40
32.83881071196411
 40
32.83881071196411
 10
422.9984163348066
 20
223.0456671239181
 30
0.0
 10
422.9758590608118
 20
223.1522568821902
 30
0.0
 10
422.9307800482446
 20
223.3652684834038
 30
0.0
 10
422.7962522766732
 20
223.6750869781191
 30
0.0
 10
422.6195081864896
 20
223.9728708240026
 30
0.0
 10
422.3906267737342
 20
224.2640168675909
 30
0.0
 10
422.1214088639535
 20
224.5374090846779
 30
0.0
 10
421.8041387480305
 20
224.8013688117892
 30
0.0
 10
421.4520863273412
 20
225.0443750128732
 30
0.0
 10
421.0562129595509
 20
225.2740292635008
 30
0.0
 10
420.6315045448934
 20
225.4805802226024
 30
0.0
 10
420.1689871715465
 20
225.66958297778
 30
0.0
 10
419.6837466697635
 20
225.8338967724203
 30
0.0
 10
419.168505181735
 20
225.9769122742586
 30
0.0
 10
418.6368399209774
 20
226.0940647099028
 30
0.0
 10
418.0843908713781
 20
226.1870386009298
 30
0.0
 10
417.5220000314429
 20
226.2533576598945
 30
0.0
 10
416.9489833811944
 20
226.2937039179388
 30
0.0
 10
416.3726371779205
 20
226.3069942497167
 30
0.0
 10
415.7962909746244
 20
226.2937039179409
 30
0.0
 10
415.2232743244422
 20
226.253357659886
 30
0.0
 10
414.6608834842663
 20
226.1870386009616
 30
0.0
 10
414.1084344355366
 20
226.0940647097881
 30
0.0
 10
413.5767691716131
 20
225.9769122746776
 30
0.0
 10
413.0615276948037
 20
225.8338967709478
 30
0.0
 10
412.5762871526329
 20
225.6695829831171
 30
0.0
 10
412.1137699195575
 20
225.4805802042895
 30
0.0
 10
411.6890610053537
 20
225.2740293294121
 30
0.0
 10
411.293189340993
 20
225.0443747915834
 30
0.0
 10
410.9411309062256
 20
224.8013696044829
 30
0.0
 10
410.6238810295383
 20
224.5374064650028
 30
0.0
 10
410.3545919003748
 20
224.2640262556228
 30
0.0
 10
410.1259499082554
 20
223.9728398453154
 30
0.0
 10
409.9483571830075
 20
223.6751990807206
 30
0.0
 10
409.8167441113729
 20
223.3648891627299
 30
0.0
 10
409.7393191352963
 20
223.0507305857038
 30
0.0
 10
409.7113590181834
 20
222.7318506372798
 30
0.0
 10
409.7393191352964
 20
222.4129706888558
 30
0.0
 10
409.8167441113731
 20
222.0988121118298
 30
0.0
 10
409.9483571830074
 20
221.7885021938391
 30
0.0
 10
410.1259499082554
 20
221.4908614292444
 30
0.0
 10
410.3545919003748
 20
221.1996750189369
 30
0.0
 10
410.6238810295383
 20
220.926294809557
 30
0.0
 10
410.9411309062256
 20
220.6623316700768
 30
0.0
 10
411.293189340993
 20
220.4193264829763
 30
0.0
 10
411.6890610053536
 20
220.1896719451477
 30
0.0
 10
412.1137699195574
 20
219.9831210702703
 30
0.0
 10
412.5762871526327
 20
219.7941182914427
 30
0.0
 10
413.0615276948035
 20
219.6298045036119
 30
0.0
 10
413.5767691716132
 20
219.4867889998822
 30
0.0
 10
414.1084344355364
 20
219.3696365647715
 30
0.0
 10
414.6608834842665
 20
219.2766626735981
 30
0.0
 10
415.2232743244419
 20
219.2103436146738
 30
0.0
 10
415.7962909746253
 20
219.1699973566187
 30
0.0
 10
416.3726371779169
 20
219.1567070248436
 30
0.0
 10
416.9489833812073
 20
219.1699973566186
 30
0.0
 10
417.5220000313951
 20
219.2103436146743
 30
0.0
 10
418.0843908715538
 20
219.2766626735959
 30
0.0
 10
418.6368399203451
 20
219.3696365647797
 30
0.0
 10
419.1685051840451
 20
219.4867889998527
 30
0.0
 10
419.6837466616458
 20
219.6298045037158
 30
0.0
 10
420.1689872009681
 20
219.7941182910663
 30
0.0
 10
420.6315044439375
 20
219.983121071562
 30
0.0
 10
421.0562133229053
 20
220.1896719404986
 30
0.0
 10
421.4520851074193
 20
220.4193264985852
 30
0.0
 10
421.8041431179777
 20
220.6623316141634
 30
0.0
 10
422.1213944222588
 20
220.9262949943383
 30
0.0
 10
422.390678527895
 20
221.1996743567433
 30
0.0
 10
422.6193374077779
 20
221.4908636143557
 30
0.0
 10
422.7968702737403
 20
221.7884942865749
 30
0.0
 10
422.9286889365221
 20
222.0988388675764
 30
0.0
 10
423.0053687980804
 20
222.4128718170506
 30
0.0
 10
423.0360206983884
 20
222.7322056046151
 30
0.0
 10
423.0109511226673
 20
222.9411799508171
 30
0.0
 10
422.9984163348066
 20
223.0456671239181
 30
0.0
 11
422.9984163348066
 21
223.0456671239181
 31
0.0
 11
422.9202436722528
 21
223.3622782880774
 31
0.0
 11
422.7945374171762
 21
223.6626392529691
 31
0.0
 11
422.6129810337411
 21
223.9686850272717
 31
0.0
 11
422.3946189738461
 21
224.2488569507165
 31
0.0
 11
422.116871424471
 21
224.5326605792835
 31
0.0
 11
421.8125718722915
 21
224.7870568385974
 31
0.0
 11
421.4489242469725
 21
225.0395202156554
 31
0.0
 11
421.0665912400935
 21
225.2620816358265
 31
0.0
 11
420.6293226793184
 21
225.475802435042
 31
0.0
 11
420.1791272516193
 21
225.6602622937533
 31
0.0
 11
419.6822875300048
 21
225.8292423931696
 31
0.0
 11
419.1768008620853
 21
225.969853510507
 31
0.0
 11
418.6359430550781
 21
226.0895208681321
 31
0.0
 11
418.0897727469613
 21
226.1815882468193
 31
0.0
 11
417.5215727799221
 21
226.2488865264624
 31
0.0
 11
416.9508431018713
 21
226.2890817160772
 31
0.0
 11
416.3726371779168
 21
226.3025482024159
 31
0.0
 11
415.7944312539622
 21
226.2890817160772
 31
0.0
 11
415.2237015759116
 21
226.2488865264624
 31
0.0
 11
414.6555016088723
 21
226.1815882468193
 31
0.0
 11
414.1093313007554
 21
226.0895208681321
 31
0.0
 11
413.5684734937483
 21
225.969853510507
 31
0.0
 11
413.0629868258289
 21
225.8292423931696
 31
0.0
 11
412.5661471042143
 21
225.6602622937534
 31
0.0
 11
412.1159516765151
 21
225.475802435042
 31
0.0
 11
411.6786831157401
 21
225.2620816358266
 31
0.0
 11
411.2963501088611
 21
225.0395202156554
 31
0.0
 11
410.932702483542
 21
224.7870568385973
 31
0.0
 11
410.6284029313626
 21
224.5326605792836
 31
0.0
 11
410.3506553819874
 21
224.2488569507165
 31
0.0
 11
410.1322933220924
 21
223.9686850272717
 31
0.0
 11
409.9507369386574
 21
223.6626392529691
 31
0.0
 11
409.8250306835809
 21
223.3622782880774
 31
0.0
 11
409.746858021027
 21
223.0456671239181
 31
0.0
 11
409.7205698300917
 21
222.7318506372798
 31
0.0
 11
409.746858021027
 21
222.4180341506416
 31
0.0
 11
409.8250306835809
 21
222.1014229864823
 31
0.0
 11
409.9507369386574
 21
221.8010620215906
 31
0.0
 11
410.1322933220925
 21
221.495016247288
 31
0.0
 11
410.3506553819874
 21
221.2148443238432
 31
0.0
 11
410.6284029313626
 21
220.9310406952762
 31
0.0
 11
410.932702483542
 21
220.6766444359624
 31
0.0
 11
411.2963501088611
 21
220.4241810589043
 31
0.0
 11
411.6786831157401
 21
220.2016196387332
 31
0.0
 11
412.1159516765151
 21
219.9878988395178
 31
0.0
 11
412.5661471042142
 21
219.8034389808064
 31
0.0
 11
413.0629868258289
 21
219.6344588813901
 31
0.0
 11
413.5684734937483
 21
219.4938477640527
 31
0.0
 11
414.1093313007555
 21
219.3741804064275
 31
0.0
 11
414.6555016088722
 21
219.2821130277404
 31
0.0
 11
415.2237015759115
 21
219.2148147480973
 31
0.0
 11
415.7944312539622
 21
219.1746195584825
 31
0.0
 11
416.3726371779167
 21
219.1611530721438
 31
0.0
 11
416.9508431018713
 21
219.1746195584825
 31
0.0
 11
417.521572779922
 21
219.2148147480973
 31
0.0
 11
418.0897727469613
 21
219.2821130277405
 31
0.0
 11
418.6359430550781
 21
219.3741804064277
 31
0.0
 11
419.1768008620853
 21
219.4938477640528
 31
0.0
 11
419.6822875300046
 21
219.6344588813902
 31
0.0
 11
420.1791272516192
 21
219.8034389808065
 31
0.0
 11
420.6293226793184
 21
219.9878988395178
 31
0.0
 11
421.0665912400935
 21
220.2016196387332
 31
0.0
 11
421.4489242469726
 21
220.4241810589044
 31
0.0
 11
421.8125718722915
 21
220.6766444359624
 31
0.0
 11
422.1168714244709
 21
220.9310406952762
 31
0.0
 11
422.394618973846
 21
221.2148443238432
 31
0.0
 11
422.6129810337411
 21
221.495016247288
 31
0.0
 11
422.7945374171762
 21
221.8010620215906
 31
0.0
 11
422.9202436722528
 21
222.1014229864823
 31
0.0
 11
422.9984163348066
 21
222.4180341506416
 31
0.0
 11
423.0247045257418
 21
222.7318506372798
 31
0.0
 11
422.9984163348066
 21
223.0456671239181
 31
0.0
  0
SPLINE
  5
E2
330
3F
100
AcDbEntity
  8
1
  6
Continuous
 62
     7
100
AcDbSpline
210
0.0
220
0.0
230
1.0
 70
     8
 71
     3
 72
    25
 73
    21
 74
    19
 42
0.0000000001
 43
0.0000000001
 44
0.00000001
 40
0.0
 40
0.0
 40
0.0
 40
0.0
 40
0.2460288116282205
 40
0.4922494784029204
 40
0.9750856113553867
 40
1.457982410234305
 40
1.919195317276019
 40
2.380511354102342
 40
2.813761798519604
 40
3.247173715280219
 40
3.648592723327651
 40
4.050251399218414
 40
4.419359522365966
 40
4.788795525674006
 40
5.129427687790535
 40
5.470431436760857
 40
5.79124526877665
 40
6.112326581894939
 40
6.426088567133639
 40
6.739850552372355
 40
6.739850552372355
 40
6.739850552372355
 40
6.739850552372355
 10
139.993832002112
 20
226.2483574070229
 30
0.0
 10
139.9123782258308
 20
226.2387814045206
 30
0.0
 10
139.7494071549914
 20
226.219621932076
 30
0.0
 10
139.4280184789045
 20
226.1707587627734
 30
0.0
 10
139.031223442832
 20
226.0937461700988
 30
0.0
 10
138.5700370341577
 20
225.9761746166598
 30
0.0
 10
138.1236763124318
 20
225.8330019594455
 30
0.0
 10
137.702572419147
 20
225.6680343875541
 30
0.0
 10
137.3020176145442
 20
225.4788181589252
 30
0.0
 10
136.9333210910801
 20
225.2712507715468
 30
0.0
 10
136.5907046971478
 20
225.0413790448437
 30
0.0
 10
136.2851571856625
 20
224.7969957730427
 30
0.0
 10
136.0110035838465
 20
224.5329643624058
 30
0.0
 10
135.777763974987
 20
224.2582076016808
 30
0.0
 10
135.5808709182035
 20
223.9675050297155
 30
0.0
 10
135.4278218368303
 20
223.6695266443206
 30
0.0
 10
135.3150965416267
 20
223.3608004071332
 30
0.0
 10
135.2491955956405
 20
223.048323491157
 30
0.0
 10
135.2233440864762
 20
222.7315821215809
 30
0.0
 10
135.244757144175
 20
222.5231245643364
 30
0.0
 10
135.2554636730245
 20
222.4188957857142
 30
0.0
 11
139.993832002112
 21
226.2483574070229
 31
0.0
 11
139.7496518847437
 21
226.2182534798174
 31
0.0
 11
139.5061899296684
 21
226.1814989810738
 31
0.0
 11
139.0322579021697
 21
226.0891996604077
 31
0.0
 11
138.5644120117689
 21
225.9695771658566
 31
0.0
 11
138.1253229232685
 21
225.8284456031863
 31
0.0
 11
137.6959895715293
 21
225.6596695417393
 31
0.0
 11
137.3044219023358
 21
225.4742491867884
 31
0.0
 11
136.9270935396176
 21
225.2610141139733
 31
0.0
 11
136.5940664204367
 21
225.0368932583799
 31
0.0
 11
136.280905063215
 21
224.7853785346332
 31
0.0
 11
136.0155679341101
 21
224.5287912892529
 31
0.0
 11
135.7770746375548
 21
224.2466496439072
 31
0.0
 11
135.5868389134491
 21
223.9640887847243
 31
0.0
 11
135.4314140468719
 21
223.6605650333287
 31
0.0
 11
135.3224592147275
 21
223.3588195124588
 31
0.0
 11
135.2554636730247
 21
223.0448054888456
 31
0.0
 11
135.2329726912227
 21
222.7318506372799
 31
0.0
 11
135.2554636730245
 21
222.4188957857142
 31
0.0
  0
SPLINE
  5
E3
330
3F
100
AcDbEntity
  8
1
  6
Continuous
 62
     7
100
AcDbSpline
210
0.0
220
0.0
230
1.0
 70
     8
 71
     3
 72
    25
 73
    21
 74
    19
 42
0.0000000001
 43
0.0000000001
 44
0.00000001
 40
0.0
 40
0.0
 40
0.0
 40
0.0
 40
0.2460288116410641
 40
0.4922494784287986
 40
0.9750856113813209
 40
1.457982410260315
 40
1.91919531730211
 40
2.380511354128459
 40
2.813761798545721
 40
3.247173715306311
 40
3.648592723353672
 40
4.050251399244436
 40
4.419359522392048
 40
4.788795525700052
 40
5.129427687816548
 40
5.470431436786884
 40
5.791245268802686
 40
6.112326581920993
 40
6.426088567159697
 40
6.739850552398413
 40
6.739850552398413
 40
6.739850552398413
 40
6.739850552398413
 10
155.9938320021104
 20
226.2483574070257
 30
0.0
 10
156.0752857783959
 20
226.2387814045231
 30
0.0
 10
156.2382568492439
 20
226.219621932078
 30
0.0
 10
156.5596455253393
 20
226.1707587627741
 30
0.0
 10
156.9564405614162
 20
226.0937461700987
 30
0.0
 10
157.4176269700906
 20
225.9761746166598
 30
0.0
 10
157.8639876918165
 20
225.8330019594455
 30
0.0
 10
158.2850915851014
 20
225.6680343875541
 30
0.0
 10
158.6856463897041
 20
225.4788181589253
 30
0.0
 10
159.0543429131683
 20
225.2712507715468
 30
0.0
 10
159.3969593071005
 20
225.0413790448438
 30
0.0
 10
159.7025068185857
 20
224.7969957730425
 30
0.0
 10
159.9766604204018
 20
224.5329643624059
 30
0.0
 10
160.2099000292614
 20
224.2582076016807
 30
0.0
 10
160.4067930860446
 20
223.9675050297155
 30
0.0
 10
160.559842167418
 20
223.6695266443206
 30
0.0
 10
160.6725674626215
 20
223.3608004071332
 30
0.0
 10
160.7384684086079
 20
223.0483234911569
 30
0.0
 10
160.7643199177722
 20
222.7315821215809
 30
0.0
 10
160.7429068600733
 20
222.5231245643364
 30
0.0
 10
160.7322003312239
 20
222.4188957857142
 30
0.0
 11
155.9938320021104
 21
226.2483574070257
 31
0.0
 11
156.2380121194915
 21
226.2182534798192
 31
0.0
 11
156.4814740745797
 21
226.1814989810738
 31
0.0
 11
156.9554061020785
 21
226.0891996604076
 31
0.0
 11
157.4232519924794
 21
225.9695771658566
 31
0.0
 11
157.8623410809799
 21
225.8284456031863
 31
0.0
 11
158.2916744327191
 21
225.6596695417393
 31
0.0
 11
158.6832421019126
 21
225.4742491867884
 31
0.0
 11
159.0605704646308
 21
225.2610141139733
 31
0.0
 11
159.3935975838115
 21
225.0368932583799
 31
0.0
 11
159.7067589410332
 21
224.7853785346332
 31
0.0
 11
159.9720960701382
 21
224.5287912892529
 31
0.0
 11
160.2105893666935
 21
224.2466496439072
 31
0.0
 11
160.4008250907991
 21
223.9640887847243
 31
0.0
 11
160.5562499573764
 21
223.6605650333287
 31
0.0
 11
160.6652047895208
 21
223.3588195124588
 31
0.0
 11
160.7322003312237
 21
223.0448054888456
 31
0.0
 11
160.7546913130257
 21
222.7318506372799
 31
0.0
 11
160.7322003312239
 21
222.4188957857142
 31
0.0
  0
SPLINE
  5
E4
330
3F
100
AcDbEntity
  8
1
  6
Continuous
 62
     7
100
AcDbSpline
210
0.0
220
0.0
230
1.0
 70
     8
 71
     3
 72
    23
 73
    19
 74
    17
 42
0.0000000001
 43
0.0000000001
 44
0.00000001
 40
0.0
 40
0.0
 40
0.0
 40
0.0
 40
0.3210813131182055
 40
0.6418951451340438
 40
0.9828988941044436
 40
1.323531056221011
 40
1.692967059529092
 40
2.062075182676624
 40
2.463733858567353
 40
2.865152866614864
 40
3.298564783375556
 40
3.73181522779278
 40
4.193131264619029
 40
4.654344171660779
 40
5.137240970539808
 40
5.620077103492342
 40
5.866297770270796
 40
6.112326581902577
 40
6.112326581902577
 40
6.112326581902577
 40
6.112326581902577
 10
160.7322003312239
 20
222.4188957857142
 30
0.0
 10
160.7129204800273
 20
222.3134347002015
 30
0.0
 10
160.6743768389731
 20
222.1026003849503
 30
0.0
 10
160.5593235268942
 20
221.7942607606836
 30
0.0
 10
160.4069350605681
 20
221.4961726671866
 30
0.0
 10
160.2098584161299
 20
221.2055005835569
 30
0.0
 10
159.9766719063846
 20
220.9307350046809
 30
0.0
 10
159.7025034391646
 20
220.6667060627365
 30
0.0
 10
159.3969602416864
 20
220.4223220745098
 30
0.0
 10
159.0543426405388
 20
220.1924505482886
 30
0.0
 10
158.6856464649169
 20
219.984883103144
 30
0.0
 10
158.2850915634951
 20
219.7956668905938
 30
0.0
 10
157.8639876977487
 20
219.6306993141292
 30
0.0
 10
157.4176269684153
 20
219.4875266581783
 30
0.0
 10
156.9564405618835
 20
219.3699551043835
 30
0.0
 10
156.5596455252835
 20
219.2929425117961
 30
0.0
 10
156.2382568492635
 20
219.2440793424817
 30
0.0
 10
156.0752857784147
 20
219.2249198700381
 30
0.0
 10
155.9938320021288
 20
219.2153438675363
 30
0.0
 11
160.7322003312239
 21
222.4188957857142
 31
0.0
 11
160.6652047895211
 21
222.1048817621011
 31
0.0
 11
160.5562499573767
 21
221.8031362412312
 31
0.0
 11
160.4008250907993
 21
221.4996124898356
 31
0.0
 11
160.2105893666936
 21
221.2170516306527
 31
0.0
 11
159.9720960701383
 21
220.9349099853069
 31
0.0
 11
159.7067589410333
 21
220.6783227399266
 31
0.0
 11
159.3935975838116
 21
220.42680801618
 31
0.0
 11
159.0605704646307
 21
220.2026871605866
 31
0.0
 11
158.6832421019124
 21
219.9894520877714
 31
0.0
 11
158.2916744327189
 21
219.8040317328205
 31
0.0
 11
157.8623410809798
 21
219.6352556713736
 31
0.0
 11
157.4232519924794
 21
219.4941241087033
 31
0.0
 11
156.9554061020785
 21
219.3745016141522
 31
0.0
 11
156.4814740745797
 21
219.2822022934861
 31
0.0
 11
156.2380121195007
 21
219.2454477947421
 31
0.0
 11
155.9938320021288
 21
219.2153438675363
 31
0.0
  0
SPLINE
  5
E5
330
3F
100
AcDbEntity
  8
1
  6
Continuous
 62
     7
100
AcDbSpline
210
0.0
220
0.0
230
1.0
 70
     8
 71
     3
 72
    23
 73
    19
 74
    17
 42
0.0000000001
 43
0.0000000001
 44
0.00000001
 40
0.0
 40
0.0
 40
0.0
 40
0.0
 40
0.3210813131181818
 40
0.64189514513402
 40
0.9828988941044328
 40
1.323531056220953
 40
1.692967059528942
 40
2.062075182676474
 40
2.463733858567203
 40
2.865152866614714
 40
3.298564783375431
 40
3.731815227792707
 40
4.193131264619034
 40
4.654344171660784
 40
5.137240970539758
 40
5.620077103492186
 40
5.866297770268461
 40
6.112326581898293
 40
6.112326581898293
 40
6.112326581898293
 40
6.112326581898293
 10
135.2554636730245
 20
222.4188957857142
 30
0.0
 10
135.2747435242211
 20
222.3134347002015
 30
0.0
 10
135.3132871652752
 20
222.1026003849504
 30
0.0
 10
135.4283404773541
 20
221.7942607606835
 30
0.0
 10
135.5807289436802
 20
221.4961726671866
 30
0.0
 10
135.7778055881183
 20
221.2055005835569
 30
0.0
 10
136.0109920978634
 20
220.9307350046809
 30
0.0
 10
136.2851605650835
 20
220.6667060627365
 30
0.0
 10
136.5907037625617
 20
220.4223220745098
 30
0.0
 10
136.9333213637094
 20
220.1924505482886
 30
0.0
 10
137.3020175393312
 20
219.9848831031439
 30
0.0
 10
137.7025724407532
 20
219.7956668905939
 30
0.0
 10
138.1236763064996
 20
219.6306993141292
 30
0.0
 10
138.5700370358329
 20
219.4875266581783
 30
0.0
 10
139.0312234423647
 20
219.3699551043834
 30
0.0
 10
139.4280184789639
 20
219.2929425117963
 30
0.0
 10
139.7494071549825
 20
219.2440793424819
 30
0.0
 10
139.9123782258299
 20
219.2249198700385
 30
0.0
 10
139.9938320021152
 20
219.2153438675368
 30
0.0
 11
135.2554636730245
 21
222.4188957857142
 31
0.0
 11
135.3224592147272
 21
222.1048817621011
 31
0.0
 11
135.4314140468716
 21
221.8031362412312
 31
0.0
 11
135.586838913449
 21
221.4996124898356
 31
0.0
 11
135.7770746375546
 21
221.2170516306527
 31
0.0
 11
136.0155679341098
 21
220.9349099853069
 31
0.0
 11
136.2809050632148
 21
220.6783227399266
 31
0.0
 11
136.5940664204365
 21
220.42680801618
 31
0.0
 11
136.9270935396174
 21
220.2026871605866
 31
0.0
 11
137.3044219023357
 21
219.9894520877714
 31
0.0
 11
137.6959895715293
 21
219.8040317328205
 31
0.0
 11
138.1253229232684
 21
219.6352556713736
 31
0.0
 11
138.5644120117689
 21
219.4941241087033
 31
0.0
 11
139.0322579021697
 21
219.3745016141522
 31
0.0
 11
139.5061899296684
 21
219.2822022934861
 31
0.0
 11
139.7496518847453
 21
219.2454477947424
 31
0.0
 11
139.9938320021152
 21
219.2153438675368
 31
0.0
  0
ARC
  5
E6
330
3F
100
AcDbEntity
  8
1
  6
Continuous
 62
     7
100
AcDbCircle
 10
159.5518530638548
 20
218.8743136727215
 30
0.0
 40
1.0
100
AcDbArc
 50
-90.0
 51
-74.66244233044665
  0
ARC
  5
E7
330
3F
100
AcDbEntity
  8
1
  6
Continuous
 62
     7
100
AcDbCircle
 10
157.7617811945553
 20
217.8743136727215
 30
0.0
 40
1.0
100
AcDbArc
 50
-90.0
 51
-29.99999999999892
  0
ARC
  5
E8
330
3F
100
AcDbEntity
  8
1
  6
Continuous
 62
     7
100
AcDbCircle
 10
159.4938320021242
 20
216.8743136727215
 30
0.0
 40
1.0
100
AcDbArc
 50
90.0
 51
149.9999999999995
  0
ARC
  5
E9
330
3F
100
AcDbEntity
  8
1
  6
Continuous
 62
     7
100
AcDbCircle
 10
136.4358109403934
 20
218.8743136727215
 30
0.0
 40
0.9999999999999392
100
AcDbArc
 50
-105.3375576695581
 51
-90.0
  0
ARC
  5
EA
330
3F
100
AcDbEntity
  8
1
  6
Continuous
 62
     7
100
AcDbCircle
 10
138.2258828096929
 20
217.8743136727215
 30
0.0
 40
1.000000000000058
100
AcDbArc
 50
-150.0000000000019
 51
-90.0
  0
ARC
  5
EB
330
3F
100
AcDbEntity
  8
1
  6
Continuous
 62
     7
100
AcDbCircle
 10
136.4938320021241
 20
216.8743136727215
 30
0.0
 40
0.9999999999998851
100
AcDbArc
 50
30.0000000000038
 51
90.0
  0
ARC
  5
EC
330
3F
100
AcDbEntity
  8
1
  6
Continuous
 62
     7
100
AcDbCircle
 10
427.9306582396474
 20
218.8743136727215
 30
0.0
 40
1.0
100
AcDbArc
 50
-90.00000000001303
 51
-74.66244233044966
  0
ARC
  5
ED
330
3F
100
AcDbEntity
  8
1
  6
Continuous
 62
     7
100
AcDbCircle
 10
426.1405863703481
 20
217.8743136727215
 30
0.0
 40
1.0
100
AcDbArc
 50
-90.0
 51
-30.0000000000038
  0
ARC
  5
EE
330
3F
100
AcDbEntity
  8
1
  6
Continuous
 62
     7
100
AcDbCircle
 10
427.8726371779169
 20
216.8743136727215
 30
0.0
 40
1.0
100
AcDbArc
 50
90.0
 51
150.0000000000011
  0
ARC
  5
EF
330
3F
100
AcDbEntity
  8
1
  6
Continuous
 62
     7
100
AcDbCircle
 10
404.8146161161863
 20
218.8743136727215
 30
0.0
 40
1.000000000000139
100
AcDbArc
 50
-105.3375576695566
 51
-90.0
  0
ARC
  5
F0
330
3F
100
AcDbEntity
  8
1
  6
Continuous
 62
     7
100
AcDbCircle
 10
406.6046879854858
 20
217.8743136727215
 30
0.0
 40
1.000000000000131
100
AcDbArc
 50
-150.0000000000044
 51
-90.0
  0
ARC
  5
F1
330
3F
100
AcDbEntity
  8
1
  6
Continuous
 62
     7
100
AcDbCircle
 10
404.8726371779169
 20
216.8743136727215
 30
0.0
 40
0.9999999999998851
100
AcDbArc
 50
30.0000000000038
 51
90.0
  0
ENDBLK
  5
41
330
3F
100
AcDbEntity
  8
0
100
AcDbBlockEnd
  0
BLOCK
  5
46
330
42
100
AcDbEntity
  8
0
100
AcDbBlockBegin
  2
60-5X
 70
     0
 71
     0
 10
439.0958348897824
 20
150.0446723018314
 30
0.0
  3
60-5X
  1

  0
INSERT
  5
43
330
42
100
AcDbEntity
  8
0
100
AcDbBlockReference
  2
60-5-105
 10
795.6744081097043
 20
-84.26601753064227
 30
0.0
  0
INSERT
  5
44
330
42
100
AcDbEntity
  8
1
100
AcDbBlockReference
  2
04-12
 10
784.6744081097045
 20
25.98398246935773
 30
0.0
  0
INSERT
  5
45
330
42
100
AcDbEntity
  8
1
100
AcDbBlockReference
  2
32-1-16__1
 10
434.1726371779166
 20
217.8743136727215
 30
0.0
  0
LINE
  5
F2
330
42
100
AcDbEntity
  8
1
  6
DASH_CENTER
 62
     2
100
AcDbLine
 10
255.6101937390029
 20
375.6630014555276
 30
0.0
 11
254.9982389309569
 21
369.2520463236171
 31
0.0
  0
LINE
  5
F3
330
42
100
AcDbEntity
  8
1
  6
Continuous
 62
     7
100
AcDbLine
 10
157.993832002124
 20
638.4226384046783
 30
0.0
 11
155.9795064533516
 21
638.4226384046783
 31
0.0
  0
LINE
  5
F4
330
42
100
AcDbEntity
  8
1
  6
Continuous
 62
     7
100
AcDbLine
 10
157.993832002124
 20
656.7982720289704
 30
0.0
 11
157.993832002124
 21
642.4226384046783
 31
0.0
  0
LINE
  5
F5
330
42
100
AcDbEntity
  8
1
  6
Continuous
 62
     7
100
AcDbLine
 10
137.993832002124
 20
656.7982720289704
 30
0.0
 11
137.993832002124
 21
642.4226384046783
 31
0.0
  0
LINE
  5
F6
330
42
100
AcDbEntity
  8
1
  6
Continuous
 62
     7
100
AcDbLine
 10
139.993832002124
 20
638.4226384046783
 30
0.0
 11
137.993832002124
 21
638.4226384046783
 31
0.0
  0
LINE
  5
F7
330
42
100
AcDbEntity
  8
1
  6
Continuous
 62
     7
100
AcDbLine
 10
139.993832002124
 20
638.4226384046783
 30
0.0
 11
155.9795064533516
 21
638.4226384046783
 31
0.0
  0
LINE
  5
F8
330
42
100
AcDbEntity
  8
1
  6
Continuous
 62
     7
100
AcDbLine
 10
157.993832002124
 20
642.4226384046783
 30
0.0
 11
137.993832002124
 21
642.4226384046783
 31
0.0
  0
LINE
  5
F9
330
42
100
AcDbEntity
  8
0
  6
Continuous
 62
     7
100
AcDbLine
 10
139.9938320021241
 20
423.3743136727213
 30
0.0
 11
139.9938320021241
 21
378.5181277988355
 31
0.0
  0
LINE
  5
FA
330
42
100
AcDbEntity
  8
0
  6
Continuous
 62
     7
100
AcDbLine
 10
155.9938320021241
 20
198.5743136727213
 30
0.0
 11
155.9938320021241
 21
373.5464115518166
 31
0.0
  0
LINE
  5
FB
330
42
100
AcDbEntity
  8
0
  6
Continuous
 62
     7
100
AcDbLine
 10
155.9938320021242
 20
378.5181277988357
 30
0.0
 11
155.9938320021241
 21
423.3743136727213
 31
0.0
  0
LINE
  5
FC
330
42
100
AcDbEntity
  8
0
  6
Continuous
 62
     7
100
AcDbLine
 10
139.9938320021243
 20
373.5464115518166
 30
0.0
 11
139.9938320021241
 21
198.5743136727213
 31
0.0
  0
LINE
  5
FD
330
42
100
AcDbEntity
  8
1
  6
DASH_CENTER
 62
     2
100
AcDbLine
 10
136.6196098082619
 20
373.5464115518166
 30
0.0
 11
158.971783214345
 21
373.5464115518166
 31
0.0
  0
LINE
  5
FE
330
42
100
AcDbEntity
  8
1
  6
PHANTOM
 62
     4
100
AcDbLine
 10
134.0158807899034
 20
198.5743136727213
 30
0.0
 11
162.3680541959864
 21
198.5743136727213
 31
0.0
  0
LINE
  5
FF
330
42
100
AcDbEntity
  8
1
  6
Continuous
 62
     7
100
AcDbLine
 10
157.9938320021242
 20
217.0730628904931
 30
0.0
 11
157.9938320021242
 21
203.7281957047433
 31
0.0
  0
LINE
  5
100
330
42
100
AcDbEntity
  8
1
  6
Continuous
 62
     7
100
AcDbLine
 10
137.9938320021243
 20
203.7281957047433
 30
0.0
 11
137.9938320021243
 21
217.0730628904931
 31
0.0
  0
LINE
  5
101
330
42
100
AcDbEntity
  8
1
  6
DASH_CENTER
 62
     2
100
AcDbLine
 10
136.6196098082619
 20
423.3743136727213
 30
0.0
 11
158.971783214345
 21
423.3743136727213
 31
0.0
  0
LINE
  5
102
330
42
100
AcDbEntity
  8
0
  6
Continuous
 62
     7
100
AcDbLine
 10
139.993832002124
 20
638.4226384046783
 30
0.0
 11
139.993832002124
 21
506.6768303390945
 31
0.0
  0
LINE
  5
103
330
42
100
AcDbEntity
  8
0
  6
Continuous
 62
     7
100
AcDbLine
 10
155.9938320021239
 20
506.6768303390945
 30
0.0
 11
155.9938320021239
 21
638.4226384046783
 31
0.0
  0
LINE
  5
104
330
42
100
AcDbEntity
  8
1
  6
PHANTOM
 62
     4
100
AcDbLine
 10
158.9717832143448
 20
506.1424291167941
 30
0.0
 11
136.6196098082617
 21
506.1424291167941
 31
0.0
  0
LINE
  5
105
330
42
100
AcDbEntity
  8
1
  6
PHANTOM
 62
     4
100
AcDbLine
 10
136.6196098082617
 20
611.1260015919711
 30
0.0
 11
158.9717832143448
 21
611.1260015919711
 31
0.0
  0
LINE
  5
106
330
42
100
AcDbEntity
  8
1
  6
DASH_CENTER
 62
     2
100
AcDbLine
 10
360.3726371779167
 20
370.6743136727223
 30
0.0
 11
360.3726371779167
 21
224.374313672722
 31
0.0
  0
LINE
  5
107
330
42
100
AcDbEntity
  8
1
  6
DASH_CENTER
 62
     2
100
AcDbLine
 10
387.3726371779167
 20
197.3743136727219
 30
0.0
 11
401.3726371779167
 21
197.3743136727219
 31
0.0
  0
LINE
  5
108
330
42
100
AcDbEntity
  8
1
  6
DASH_CENTER
 62
     2
100
AcDbLine
 10
416.3726371779167
 20
231.8743136727215
 30
0.0
 11
416.3726371779167
 21
212.374313672722
 31
0.0
  0
ARC
  5
109
330
42
100
AcDbEntity
  8
1
  6
Continuous
 62
     7
100
AcDbCircle
 10
157.018832002124
 20
640.4226384046783
 30
0.0
 40
2.22500000000001
100
AcDbArc
 50
-64.01076641616648
 51
64.01076641616648
  0
ARC
  5
10A
330
42
100
AcDbEntity
  8
1
  6
Continuous
 62
     7
100
AcDbCircle
 10
138.968832002124
 20
640.4226384046783
 30
0.0
 40
2.224999999999997
100
AcDbArc
 50
115.9892335838329
 51
-115.9892335838329
  0
ARC
  5
10B
330
42
100
AcDbEntity
  8
1
  6
Continuous
 62
     7
100
AcDbCircle
 10
147.9938320021241
 20
423.3743136727213
 30
0.0
 40
8.0
100
AcDbArc
 50
0.0
 51
180.0
  0
ARC
  5
10C
330
42
100
AcDbEntity
  8
1
  6
Continuous
 62
     7
100
AcDbCircle
 10
151.5653776866821
 20
376.0322696752978
 30
0.0
 40
5.078454315442277
100
AcDbArc
 50
-29.30713769303871
 51
29.30713769303759
  0
ARC
  5
10D
330
42
100
AcDbEntity
  8
1
  6
Continuous
 62
     7
100
AcDbCircle
 10
144.4222863175663
 20
376.0322696752978
 30
0.0
 40
5.078454315442221
100
AcDbArc
 50
150.6928623069624
 51
-150.6928623069613
  0
ARC
  5
10E
330
42
100
AcDbEntity
  8
1
  6
Continuous
 62
     7
100
AcDbCircle
 10
147.9938320021241
 20
198.5743136727213
 30
0.0
 40
8.0
100
AcDbArc
 50
180.0
 51
0.0
  0
ARC
  5
10F
330
42
100
AcDbEntity
  8
1
  6
Continuous
 62
     7
100
AcDbCircle
 10
147.9938320021241
 20
198.5743136727213
 30
0.0
 40
11.25000000000011
100
AcDbArc
 50
0.0
 51
44.67460956438356
  0
ARC
  5
110
330
42
100
AcDbEntity
  8
1
  6
Continuous
 62
     7
100
AcDbCircle
 10
147.9938320021241
 20
198.5743136727213
 30
0.0
 40
11.24999999999994
100
AcDbArc
 50
135.3253904356168
 51
0.0
  0
ARC
  5
111
330
42
100
AcDbEntity
  8
1
  6
Continuous
 62
     7
100
AcDbCircle
 10
147.993832002124
 20
611.1260015919711
 30
0.0
 40
7.999999999999886
100
AcDbArc
 50
0.0
 51
180.0
  0
ARC
  5
112
330
42
100
AcDbEntity
  8
1
  6
DASH_CENTER
 62
     2
100
AcDbCircle
 10
307.8726371779167
 20
370.6743136727223
 30
0.0
 40
52.5
100
AcDbArc
 50
90.0
 51
174.5473780121876
  0
ARC
  5
113
330
42
100
AcDbEntity
  8
1
  6
DASH_CENTER
 62
     2
100
AcDbCircle
 10
307.8726371779167
 20
370.6743136727223
 30
0.0
 40
52.5
100
AcDbArc
 50
0.0
 51
90.0
  0
SPLINE
  5
114
330
42
100
AcDbEntity
  8
1
  6
Continuous
 62
     7
100
AcDbSpline
210
0.0
220
0.0
230
1.0
 70
     8
 71
     3
 72
     9
 73
     5
 74
     3
 42
0.0000000001
 43
0.0000000001
 44
0.00000001
 40
0.0
 40
0.0
 40
0.0
 40
0.0
 40
0.0431352226434095
 40
0.0753259315736216
 40
0.0753259315736216
 40
0.0753259315736216
 40
0.0753259315736216
 10
155.9532264435741
 20
378.5792241499372
 30
0.0
 10
155.9649861534433
 20
378.5700326845411
 30
0.0
 10
155.9855218327944
 20
378.5539818645601
 30
0.0
 10
155.9913439198999
 20
378.5288625817334
 30
0.0
 10
155.9938320021242
 20
378.5181277988357
 30
0.0
 11
155.9532264435741
 21
378.5792241499372
 31
0.0
 11
155.9836806124679
 21
378.5486759743864
 31
0.0
 11
155.9938320021242
 21
378.5181277988357
 31
0.0
  0
SPLINE
  5
115
330
42
100
AcDbEntity
  8
1
  6
Continuous
 62
     7
100
AcDbSpline
210
0.0
220
0.0
230
1.0
 70
     8
 71
     3
 72
     9
 73
     5
 74
     3
 42
0.0000000001
 43
0.0000000001
 44
0.00000001
 40
0.0
 40
0.0
 40
0.0
 40
0.0
 40
0.0431352227866262
 40
0.0753259318069839
 40
0.0753259318069839
 40
0.0753259318069839
 40
0.0753259318069839
 10
155.9532264435741
 20
373.6075079029749
 30
0.0
 10
155.964986153488
 20
373.5983164375444
 30
0.0
 10
155.9855218329124
 20
373.5822656175069
 30
0.0
 10
155.9913439199357
 20
373.557146334571
 30
0.0
 10
155.9938320021241
 20
373.5464115516298
 30
0.0
 11
155.9532264435741
 21
373.6075079029749
 31
0.0
 11
155.9836806125487
 21
373.5769597273023
 31
0.0
 11
155.9938320021241
 21
373.5464115516298
 31
0.0
  0
SPLINE
  5
116
330
42
100
AcDbEntity
  8
1
  6
Continuous
 62
     7
100
AcDbSpline
210
0.0
220
0.0
230
1.0
 70
     8
 71
     3
 72
    43
 73
    39
 74
    37
 42
0.0000000001
 43
0.0000000001
 44
0.00000001
 40
0.0
 40
0.0
 40
0.0
 40
0.0
 40
0.032190708946508
 40
0.0753259316154288
 40
0.2300394497605828
 40
0.3679488867086735
 40
0.6069634347751909
 40
0.8504748736753003
 40
1.20307483963448
 40
1.554320736748275
 40
2.002742862098416
 40
2.451432645029945
 40
2.984946455125149
 40
3.518387440268258
 40
4.120639498144902
 40
4.722898361490302
 40
5.37593306800953
 40
6.028962793242052
 40
6.713101057402389
 40
7.397238573125838
 40
8.091854644812756
 40
8.786470716499673
 40
9.470608232223151
 40
10.15474649638346
 40
10.80777622161595
 40
11.46081092813524
 40
12.06306979148069
 40
12.66532184935745
 40
13.19876283450059
 40
13.73227664459576
 40
14.18096642752724
 40
14.62938855287729
 40
14.98063444999106
 40
15.33323441595024
 40
15.57674585485038
 40
15.81576040291703
 40
15.95366983986513
 40
16.10838335801015
 40
16.10838335801015
 40
16.10838335801015
 40
16.10838335801015
 10
139.9938320021243
 20
378.5181277987919
 30
0.0
 10
139.9963222902265
 20
378.5288437574447
 30
0.0
 10
140.002149539064
 20
378.553918991731
 30
0.0
 10
140.0647689867888
 20
378.603746740377
 30
0.0
 10
140.157647966204
 20
378.6638298415233
 30
0.0
 10
140.3276396391204
 20
378.7204950263467
 30
0.0
 10
140.5312390870371
 20
378.7556639468999
 30
0.0
 10
140.8043470404419
 20
378.810048782521
 30
0.0
 10
141.1162031380872
 20
378.8601359726217
 30
0.0
 10
141.4972541879184
 20
378.9087337362914
 30
0.0
 10
141.9112354295381
 20
378.9511226159513
 30
0.0
 10
142.3862191631254
 20
378.993659081284
 30
0.0
 10
142.8900400383718
 20
379.0314129055464
 30
0.0
 10
143.4453487963374
 20
379.066436825553
 30
0.0
 10
144.0238950518789
 20
379.0965277014637
 30
0.0
 10
144.6425155349869
 20
379.1230616636825
 30
0.0
 10
145.2782646187171
 20
379.1446606641168
 30
0.0
 10
145.9414475064255
 20
379.1619169193698
 30
0.0
 10
146.6151113289286
 20
379.1741643780458
 30
0.0
 10
147.3027070808724
 20
379.1816589343932
 30
0.0
 10
147.993832002125
 20
379.1841059710511
 30
0.0
 10
148.6849569233723
 20
379.181658934367
 30
0.0
 10
149.372552675332
 20
379.1741643781489
 30
0.0
 10
150.0462164977781
 20
379.1619169189901
 30
0.0
 10
150.7093993856889
 20
379.1446606654633
 30
0.0
 10
151.3451484686909
 20
379.1230616588142
 30
0.0
 10
151.9637689543153
 20
379.0965277180691
 30
0.0
 10
152.5423152009808
 20
379.066436766413
 30
0.0
 10
153.0976239884793
 20
379.0314130984291
 30
0.0
 10
153.6014447621004
 20
378.9936584069316
 30
0.0
 10
154.0764288179513
 20
378.9511246916865
 30
0.0
 10
154.4904089873403
 20
378.9087266619815
 30
0.0
 10
154.8714632286727
 20
378.860156133478
 30
0.0
 10
155.1833092019504
 20
378.80998254553
 30
0.0
 10
155.4564439785449
 20
378.7558266097206
 30
0.0
 10
155.6599663901262
 20
378.7200002877559
 30
0.0
 10
155.8301394448781
 20
378.6648829527119
 30
0.0
 10
155.9106562000428
 20
378.6088496679313
 30
0.0
 10
155.9532264435741
 20
378.5792241499372
 30
0.0
 11
139.9938320021243
 21
378.5181277987919
 31
0.0
 11
140.0039833917661
 21
378.5486759743646
 31
0.0
 11
140.0344375606742
 21
378.5792241499372
 31
0.0
 11
140.1658240920855
 21
378.6609177975516
 31
0.0
 11
140.2957352552035
 21
378.7072006507123
 31
0.0
 11
140.5296296597333
 21
378.756407984689
 31
0.0
 11
140.7688870374832
 21
378.8017260612966
 31
0.0
 11
141.1169158237783
 21
378.8583184627689
 31
0.0
 11
141.4652609172064
 21
378.903367060126
 31
0.0
 11
141.9112342012336
 21
378.9501669793305
 31
0.0
 11
142.3581391223999
 21
378.9901483843144
 31
0.0
 11
142.8901348385029
 21
379.0303670815871
 31
0.0
 11
143.4225098360853
 21
379.064073855084
 31
0.0
 11
144.023935374283
 21
379.0956153074965
 31
0.0
 11
144.6256386167727
 21
379.1214793067139
 31
0.0
 11
145.278291881899
 21
379.143796193562
 31
0.0
 11
145.9310998200213
 21
379.1608143592019
 31
0.0
 11
146.6151235120612
 21
379.173334471679
 31
0.0
 11
147.2992204219937
 21
379.1807882117463
 31
0.0
 11
147.9938320021241
 21
379.1832861698197
 31
0.0
 11
148.6884435822545
 21
379.1807882117463
 31
0.0
 11
149.3725404921871
 21
379.173334471679
 31
0.0
 11
150.0565641842269
 21
379.1608143592019
 31
0.0
 11
150.7093721223492
 21
379.143796193562
 31
0.0
 11
151.3620253874756
 21
379.1214793067139
 31
0.0
 11
151.9637286299654
 21
379.0956153074965
 31
0.0
 11
152.5651541681631
 21
379.064073855084
 31
0.0
 11
153.0975291657456
 21
379.0303670815871
 31
0.0
 11
153.6295248818486
 21
378.9901483843144
 31
0.0
 11
154.0764298030148
 21
378.9501669793304
 31
0.0
 11
154.5224030870419
 21
378.9033670601261
 31
0.0
 11
154.87074818047
 21
378.8583184627689
 31
0.0
 11
155.2187769667651
 21
378.8017260612966
 31
0.0
 11
155.4580343445151
 21
378.756407984689
 31
0.0
 11
155.691928749045
 21
378.7072006507123
 31
0.0
 11
155.8218399121629
 21
378.6609177975516
 31
0.0
 11
155.9532264435741
 21
378.5792241499372
 31
0.0
  0
SPLINE
  5
117
330
42
100
AcDbEntity
  8
1
  6
Continuous
 62
     7
100
AcDbSpline
210
0.0
220
0.0
230
1.0
 70
     8
 71
     3
 72
    45
 73
    41
 74
    39
 42
0.0000000001
 43
0.0000000001
 44
0.00000001
 40
0.0
 40
0.0
 40
0.0
 40
0.0
 40
0.0321907089500985
 40
0.0753259316248693
 40
0.2300394497700534
 40
0.367948886718144
 40
0.6069634347846542
 40
0.8504748736847357
 40
1.203074839643916
 40
1.554320736757725
 40
2.002742862107888
 40
2.451432645039389
 40
2.984946455134589
 40
3.518387440277677
 40
4.120639498154387
 40
4.722898361499752
 40
5.375933068019005
 40
6.028962793251499
 40
6.713101057411864
 40
7.397238573135313
 40
8.091854644822202
 40
8.786470716509092
 40
9.47060823223257
 40
10.15474649639291
 40
10.8077762216254
 40
11.46081092814468
 40
12.06306979149011
 40
12.6653218493669
 40
13.19876283451004
 40
13.73227664460525
 40
14.1809664275367
 40
14.62938855288674
 40
14.98063445000052
 40
15.3332344159597
 40
15.57674585485983
 40
15.81576040292642
 40
15.83465473217503
 40
15.85375763589689
 40
15.9746468401161
 40
16.10860354264236
 40
16.10860354264236
 40
16.10860354264236
 40
16.10860354264236
 10
139.9938320021243
 20
373.5464115518197
 30
0.0
 10
139.996322290225
 20
373.5571275104742
 30
0.0
 10
140.0021495390592
 20
373.5822027447649
 30
0.0
 10
140.064768986788
 20
373.6320304934139
 30
0.0
 10
140.1576479662038
 20
373.692113594561
 30
0.0
 10
140.3276396391204
 20
373.7487787793843
 30
0.0
 10
140.5312390870371
 20
373.7839476999373
 30
0.0
 10
140.804347040442
 20
373.8383325355587
 30
0.0
 10
141.1162031380871
 20
373.8884197256591
 30
0.0
 10
141.4972541879184
 20
373.937017489329
 30
0.0
 10
141.9112354295381
 20
373.9794063689889
 30
0.0
 10
142.3862191631254
 20
374.0219428343218
 30
0.0
 10
142.8900400383718
 20
374.0596966585838
 30
0.0
 10
143.4453487963374
 20
374.0947205785906
 30
0.0
 10
144.0238950518789
 20
374.1248114545018
 30
0.0
 10
144.6425155349869
 20
374.15134541672
 30
0.0
 10
145.2782646187172
 20
374.1729444171547
 30
0.0
 10
145.9414475064254
 20
374.1902006724063
 30
0.0
 10
146.6151113289292
 20
374.2024481310878
 30
0.0
 10
147.3027070808699
 20
374.2099426874146
 30
0.0
 10
147.9938320021345
 20
374.2123897241501
 30
0.0
 10
148.684956923337
 20
374.2099426871762
 30
0.0
 10
149.3725526754615
 20
374.2024481320249
 30
0.0
 10
150.0462164973038
 20
374.1902006689575
 30
0.0
 10
150.7093993873697
 20
374.1729444293807
 30
0.0
 10
151.3451484626147
 20
374.1513453725207
 30
0.0
 10
151.9637689750402
 20
374.1248116052605
 30
0.0
 10
152.5423151271687
 20
374.0947200416605
 30
0.0
 10
153.0976242292148
 20
374.0596984097631
 30
0.0
 10
153.6014439204461
 20
374.0219367118875
 30
0.0
 10
154.0764314086608
 20
373.9794252145526
 30
0.0
 10
154.4904001579483
 20
373.936953261797
 30
0.0
 10
154.8714883912833
 20
373.8886027657096
 30
0.0
 10
155.1832265320693
 20
373.8377311711161
 30
0.0
 10
155.4566469967651
 20
373.7854245127397
 30
0.0
 10
155.6204655890884
 20
373.7521782546583
 30
0.0
 10
155.7104024425896
 20
373.7311862714409
 30
0.0
 10
155.7613870907566
 20
373.7168451149554
 30
0.0
 10
155.846592700459
 20
373.6816340492404
 30
0.0
 10
155.9164872235558
 20
373.6330470683197
 30
0.0
 10
155.9532264435741
 20
373.6075079029749
 30
0.0
 11
139.9938320021243
 21
373.5464115518197
 31
0.0
 11
140.0039833917628
 21
373.5769597273973
 31
0.0
 11
140.0344375606742
 21
373.6075079029748
 31
0.0
 11
140.1658240920855
 21
373.6892015505893
 31
0.0
 11
140.2957352552035
 21
373.7354844037499
 31
0.0
 11
140.5296296597333
 21
373.7846917377265
 31
0.0
 11
140.7688870374832
 21
373.8300098143341
 31
0.0
 11
141.1169158237783
 21
373.8866022158064
 31
0.0
 11
141.4652609172064
 21
373.9316508131636
 31
0.0
 11
141.9112342012336
 21
373.978450732368
 31
0.0
 11
142.3581391223999
 21
374.018432137352
 31
0.0
 11
142.8901348385029
 21
374.0586508346246
 31
0.0
 11
143.4225098360853
 21
374.0923576081216
 31
0.0
 11
144.023935374283
 21
374.1238990605343
 31
0.0
 11
144.6256386167727
 21
374.1497630597515
 31
0.0
 11
145.278291881899
 21
374.1720799465996
 31
0.0
 11
145.9310998200213
 21
374.1890981122394
 31
0.0
 11
146.6151235120612
 21
374.2016182247166
 31
0.0
 11
147.2992204219938
 21
374.2090719647839
 31
0.0
 11
147.9938320021241
 21
374.2115699228572
 31
0.0
 11
148.6884435822545
 21
374.2090719647839
 31
0.0
 11
149.3725404921871
 21
374.2016182247166
 31
0.0
 11
150.0565641842269
 21
374.1890981122396
 31
0.0
 11
150.7093721223492
 21
374.1720799465996
 31
0.0
 11
151.3620253874756
 21
374.1497630597515
 31
0.0
 11
151.9637286299653
 21
374.1238990605342
 31
0.0
 11
152.5651541681631
 21
374.0923576081216
 31
0.0
 11
153.0975291657456
 21
374.0586508346247
 31
0.0
 11
153.6295248818486
 21
374.018432137352
 31
0.0
 11
154.0764298030148
 21
373.978450732368
 31
0.0
 11
154.5224030870419
 21
373.9316508131636
 31
0.0
 11
154.87074818047
 21
373.8866022158064
 31
0.0
 11
155.2187769667651
 21
373.8300098143341
 31
0.0
 11
155.4580343445151
 21
373.7846917377265
 31
0.0
 11
155.6919287490449
 21
373.7354844037499
 31
0.0
 11
155.7102992050445
 21
373.7310660302794
 31
0.0
 11
155.7286994523147
 21
373.7259326268274
 31
0.0
 11
155.8404200180997
 21
373.679751300759
 31
0.0
 11
155.9532264435741
 21
373.6075079029749
 31
0.0
  0
SPLINE
  5
118
330
42
100
AcDbEntity
  8
1
  6
Continuous
 62
     7
100
AcDbSpline
210
0.0
220
0.0
230
1.0
 70
     8
 71
     3
 72
    45
 73
    41
 74
    39
 42
0.0000000001
 43
0.0000000001
 44
0.00000001
 40
0.0
 40
0.0
 40
0.0
 40
0.0
 40
0.0321907088821878
 40
0.0753259314488425
 40
0.2300394495940024
 40
0.367948886542139
 40
0.6069634346087165
 40
0.8504748735087422
 40
1.203074839467857
 40
1.554320736581659
 40
2.002742861931812
 40
2.451432644863279
 40
2.98494645495848
 40
3.518387440101624
 40
4.120639497978385
 40
4.722898361323811
 40
5.375933067843034
 40
6.028962793075559
 40
6.713101057235924
 40
7.397238572959431
 40
8.091854644646348
 40
8.786470716333238
 40
9.470608232056659
 40
10.15474649621702
 40
10.80777622144954
 40
11.4608109279688
 40
12.06306979131423
 40
12.66532184919096
 40
13.1987628343341
 40
13.73227664442933
 40
14.18096642736086
 40
14.62938855271091
 40
14.98063444982467
 40
15.33323441578381
 40
15.57674585468392
 40
15.81576040275058
 40
15.95366983969874
 40
16.10838335784377
 40
16.15151858052226
 40
16.18370928947469
 40
16.18370928947469
 40
16.18370928947469
 40
16.18370928947469
 10
155.9938320021241
 20
373.5464115516298
 30
0.0
 10
155.9913417139962
 20
373.5356955930079
 30
0.0
 10
155.9855144650998
 20
373.5106203587994
 30
0.0
 10
155.9228950174451
 20
373.4607926102078
 30
0.0
 10
155.8300160380398
 20
373.4007095090697
 30
0.0
 10
155.6600243651301
 20
373.3440443242497
 30
0.0
 10
155.4564249172106
 20
373.3088754036953
 30
0.0
 10
155.1833169638068
 20
373.2544905680746
 30
0.0
 10
154.8714608661612
 20
373.2044033779739
 30
0.0
 10
154.49040981633
 20
373.1558056143042
 30
0.0
 10
154.0764285747103
 20
373.113416734644
 30
0.0
 10
153.6014448411231
 20
373.0708802693114
 30
0.0
 10
153.0976239658766
 20
373.0331264450491
 30
0.0
 10
152.542315207911
 20
372.9981025250423
 30
0.0
 10
151.9637689523695
 20
372.9680116491315
 30
0.0
 10
151.3451484692614
 20
372.9414776869128
 30
0.0
 10
150.7093993855312
 20
372.9198786864789
 30
0.0
 10
150.0462164978227
 20
372.9026224312254
 30
0.0
 10
149.3725526753198
 20
372.8903749725501
 30
0.0
 10
148.6849569233756
 20
372.8828804162
 30
0.0
 10
147.9938320021241
 20
372.8804333795521
 30
0.0
 10
147.3027070808727
 20
372.8828804162
 30
0.0
 10
146.6151113289285
 20
372.8903749725503
 30
0.0
 10
145.9414475064256
 20
372.9026224312255
 30
0.0
 10
145.2782646187171
 20
372.9198786864786
 30
0.0
 10
144.642515534987
 20
372.941477686913
 30
0.0
 10
144.0238950518788
 20
372.9680116491314
 30
0.0
 10
143.4453487963373
 20
372.9981025250426
 30
0.0
 10
142.8900400383717
 20
373.0331264450492
 30
0.0
 10
142.3862191631252
 20
373.0708802693114
 30
0.0
 10
141.911235429538
 20
373.1134167346443
 30
0.0
 10
141.4972541879183
 20
373.155805614304
 30
0.0
 10
141.1162031380871
 20
373.2044033779741
 30
0.0
 10
140.8043470404418
 20
373.2544905680744
 30
0.0
 10
140.531239087037
 20
373.3088754036958
 30
0.0
 10
140.3276396391203
 20
373.3440443242484
 30
0.0
 10
140.1576479662035
 20
373.4007095090725
 30
0.0
 10
140.0647689867871
 20
373.460792610219
 30
0.0
 10
140.002149539056
 20
373.5106203588707
 30
0.0
 10
139.996322290224
 20
373.535695593164
 30
0.0
 10
139.9938320021243
 20
373.5464115518197
 30
0.0
 11
155.9938320021241
 21
373.5464115516298
 31
0.0
 11
155.9836806124245
 21
373.5158633761441
 31
0.0
 11
155.9532264435741
 21
373.4853152006584
 31
0.0
 11
155.8218399121629
 21
373.4036215530438
 31
0.0
 11
155.6919287490449
 21
373.3573386998831
 31
0.0
 11
155.458034344515
 21
373.3081313659066
 31
0.0
 11
155.2187769667652
 21
373.262813289299
 31
0.0
 11
154.8707481804701
 21
373.2062208878267
 31
0.0
 11
154.5224030870421
 21
373.1611722904695
 31
0.0
 11
154.0764298030149
 21
373.114372371265
 31
0.0
 11
153.6295248818486
 21
373.074390966281
 31
0.0
 11
153.0975291657456
 21
373.0341722690084
 31
0.0
 11
152.5651541681631
 21
373.0004654955114
 31
0.0
 11
151.9637286299654
 21
372.9689240430989
 31
0.0
 11
151.3620253874757
 21
372.9430600438815
 31
0.0
 11
150.7093721223493
 21
372.9207431570335
 31
0.0
 11
150.056564184227
 21
372.9037249913935
 31
0.0
 11
149.3725404921871
 21
372.8912048789163
 31
0.0
 11
148.6884435822545
 21
372.8837511388491
 31
0.0
 11
147.9938320021241
 21
372.8812531807758
 31
0.0
 11
147.2992204219937
 21
372.8837511388491
 31
0.0
 11
146.6151235120612
 21
372.8912048789164
 31
0.0
 11
145.9310998200213
 21
372.9037249913936
 31
0.0
 11
145.278291881899
 21
372.9207431570334
 31
0.0
 11
144.6256386167726
 21
372.9430600438815
 31
0.0
 11
144.0239353742829
 21
372.9689240430989
 31
0.0
 11
143.4225098360852
 21
373.0004654955116
 31
0.0
 11
142.8901348385027
 21
373.0341722690084
 31
0.0
 11
142.3581391223997
 21
373.0743909662811
 31
0.0
 11
141.9112342012334
 21
373.1143723712651
 31
0.0
 11
141.4652609172063
 21
373.1611722904694
 31
0.0
 11
141.1169158237782
 21
373.2062208878267
 31
0.0
 11
140.7688870374832
 21
373.262813289299
 31
0.0
 11
140.5296296597332
 21
373.3081313659066
 31
0.0
 11
140.2957352552033
 21
373.3573386998831
 31
0.0
 11
140.1658240920853
 21
373.4036215530438
 31
0.0
 11
140.0344375606741
 21
373.4853152006582
 31
0.0
 11
140.0039833917606
 21
373.5158633762389
 31
0.0
 11
139.9938320021243
 21
373.5464115518197
 31
0.0
  0
SPLINE
  5
119
330
42
100
AcDbEntity
  8
1
  6
Continuous
 62
     7
100
AcDbSpline
210
0.0
220
0.0
230
1.0
 70
     8
 71
     3
 72
    45
 73
    41
 74
    39
 42
0.0000000001
 43
0.0000000001
 44
0.00000001
 40
0.0
 40
0.0
 40
0.0
 40
0.0
 40
0.3474777553744949
 40
0.695624313909935
 40
1.39115560876857
 40
2.086685759298464
 40
2.782428596092211
 40
3.478169285636089
 40
4.174235704659798
 40
4.870299237668386
 40
5.566762131084521
 40
6.263221752327559
 40
6.960106115218727
 40
7.656987216196645
 40
8.354267210359064
 40
9.051544344485548
 40
9.749146492263037
 40
10.4467465223333
 40
11.14455860917661
 40
11.84236957097399
 40
12.54025416439353
 40
13.23813875781318
 40
13.93594971961066
 40
14.63376180645396
 40
15.33136183652423
 40
16.02896398430164
 40
16.7262411184281
 40
17.42352111259045
 40
18.12040221356843
 40
18.81728657645956
 40
19.51374619770266
 40
20.21020909111876
 40
20.90627262412735
 40
21.60233904315096
 40
22.29807973269482
 40
22.99382256948857
 40
23.6893527200184
 40
24.38488401487686
 40
24.73303057342573
 40
25.08050832881374
 40
25.08050832881374
 40
25.08050832881374
 40
25.08050832881374
 10
139.993832002124
 20
506.6768303390699
 30
0.0
 10
139.9953071590693
 20
506.560993758728
 30
0.0
 10
139.9982603122484
 20
506.3290976431356
 30
0.0
 10
140.0298173067805
 20
505.8662635538325
 30
0.0
 10
140.1051878927533
 20
505.2906973392013
 30
0.0
 10
140.2567971384831
 20
504.6108934173213
 30
0.0
 10
140.4667330881665
 20
503.9467305433003
 30
0.0
 10
140.734362428219
 20
503.3034399563802
 30
0.0
 10
141.0568865591638
 20
502.6857270692386
 30
0.0
 10
141.4325421124936
 20
502.0985219410501
 30
0.0
 10
141.8578072982524
 20
501.5460202301744
 30
0.0
 10
142.3300766179936
 20
501.0327462103422
 30
0.0
 10
142.8451522979428
 20
500.5622363240381
 30
0.0
 10
143.3996777964847
 20
500.1384867334332
 30
0.0
 10
143.9889112289892
 20
499.7642561209299
 30
0.0
 10
144.6088376645737
 20
499.4429000336517
 30
0.0
 10
145.2543277024175
 20
499.1763108529718
 30
0.0
 10
145.9208166215976
 20
498.9671038731445
 30
0.0
 10
146.60295677899
 20
498.8162500376501
 30
0.0
 10
147.2957595520844
 20
498.7255401835117
 30
0.0
 10
147.9938320021239
 20
498.6950030789542
 30
0.0
 10
148.6919044521636
 20
498.725540183512
 30
0.0
 10
149.384707225258
 20
498.8162500376499
 30
0.0
 10
150.0668473826505
 20
498.9671038731446
 30
0.0
 10
150.7333363018306
 20
499.1763108529716
 30
0.0
 10
151.3788263396743
 20
499.4429000336518
 30
0.0
 10
151.9987527752586
 20
499.7642561209298
 30
0.0
 10
152.5879862077631
 20
500.1384867334333
 30
0.0
 10
153.1425117063051
 20
500.5622363240381
 30
0.0
 10
153.6575873862543
 20
501.0327462103423
 30
0.0
 10
154.1298567059954
 20
501.5460202301744
 30
0.0
 10
154.5551218917544
 20
502.0985219410503
 30
0.0
 10
154.930777445084
 20
502.6857270692385
 30
0.0
 10
155.2533015760291
 20
503.3034399563801
 30
0.0
 10
155.5209309160813
 20
503.9467305433002
 30
0.0
 10
155.7308668657649
 20
504.6108934173215
 30
0.0
 10
155.8824761114944
 20
505.2906973392012
 30
0.0
 10
155.9578466974679
 20
505.8662635538366
 30
0.0
 10
155.9894036920003
 20
506.3290976431487
 30
0.0
 10
155.9923568451789
 20
506.56099375875
 30
0.0
 10
155.9938320021239
 20
506.6768303390965
 30
0.0
 11
139.993832002124
 21
506.6768303390699
 31
0.0
 11
140.0014579097752
 21
506.3294362746235
 31
0.0
 11
140.0243356327265
 21
505.982042210177
 31
0.0
 11
140.1153827850708
 21
505.2924958388736
 31
0.0
 11
140.2664968121602
 21
504.6135799817065
 31
0.0
 11
140.476338414172
 21
503.9502364831969
 31
0.0
 11
140.7434579694397
 21
503.3078174219288
 31
0.0
 11
141.0657220013667
 21
502.6908454992138
 31
0.0
 11
141.4407212575487
 21
502.1044326754733
 31
0.0
 11
141.8656125928695
 21
501.5525921957377
 31
0.0
 11
142.3370942225587
 21
501.0399899358055
 31
0.0
 11
142.8516931665223
 21
500.5700583002309
 31
0.0
 11
143.405335468009
 21
500.1468284916107
 31
0.0
 11
143.993992912693
 21
499.7730882033391
 31
0.0
 11
144.6129838523148
 21
499.4520810095853
 31
0.0
 11
145.2578003259519
 21
499.1858847062487
 31
0.0
 11
145.9233456331981
 21
498.9768506277914
 31
0.0
 11
146.604718733993
 21
498.8262770376178
 31
0.0
 11
147.2966093580146
 21
498.7355714545726
 31
0.0
 11
147.9938320021239
 21
498.7051824718054
 31
0.0
 11
148.6910546462333
 21
498.7355714545727
 31
0.0
 11
149.382945270255
 21
498.8262770376178
 31
0.0
 11
150.0643183710499
 21
498.9768506277914
 31
0.0
 11
150.7298636782962
 21
499.1858847062487
 31
0.0
 11
151.3746801519332
 21
499.4520810095852
 31
0.0
 11
151.9936710915549
 21
499.7730882033391
 31
0.0
 11
152.5823285362388
 21
500.1468284916107
 31
0.0
 11
153.1359708377256
 21
500.5700583002309
 31
0.0
 11
153.6505697816891
 21
501.0399899358055
 31
0.0
 11
154.1220514113784
 21
501.5525921957377
 31
0.0
 11
154.5469427466992
 21
502.1044326754733
 31
0.0
 11
154.9219420028812
 21
502.6908454992138
 31
0.0
 11
155.2442060348083
 21
503.3078174219287
 31
0.0
 11
155.5113255900758
 21
503.9502364831968
 31
0.0
 11
155.7211671920877
 21
504.6135799817064
 31
0.0
 11
155.8722812191771
 21
505.2924958388734
 31
0.0
 11
155.9633283715213
 21
505.9820422101767
 31
0.0
 11
155.9862060944732
 21
506.3294362746366
 31
0.0
 11
155.9938320021239
 21
506.6768303390965
 31
0.0
  0
SPLINE
  5
11A
330
42
100
AcDbEntity
  8
1
  6
Continuous
 62
     7
100
AcDbSpline
210
0.0
220
0.0
230
1.0
 70
     8
 71
     3
 72
    31
 73
    27
 74
    25
 42
0.0000000001
 43
0.0000000001
 44
0.00000001
 40
0.0
 40
0.0
 40
0.0
 40
0.0
 40
0.3769608727052319
 40
0.7546049225455838
 40
1.508470595357774
 40
2.262344592454859
 40
3.014578575134184
 40
3.76682837875097
 40
4.5165586467457
 40
5.266310601665985
 40
6.012960395472399
 40
6.759635383014177
 40
7.502995045543774
 40
8.246380485984947
 40
8.986637145339781
 40
9.72691697137291
 40
10.46463647286667
 40
11.20237347899962
 40
11.93843459678779
 40
12.67450513838675
 40
13.40999276561789
 40
14.14548039284881
 40
14.8815509344476
 40
15.6176120522357
 40
16.16008217324127
 40
16.70170259573522
 40
16.70170259573522
 40
16.70170259573522
 40
16.70170259573522
 10
147.9938320021033
 20
497.9513056814565
 30
0.0
 10
148.1194964670644
 20
497.952858838724
 30
0.0
 10
148.3710531423452
 20
497.955967968091
 30
0.0
 10
148.8729747554501
 20
497.9891632118882
 30
0.0
 10
149.497171698648
 20
498.0685228508921
 30
0.0
 10
150.2343643260765
 20
498.228031391465
 30
0.0
 10
150.9549094280534
 20
498.4490896156292
 30
0.0
 10
151.652538757263
 20
498.7307128136025
 30
0.0
 10
152.3228864020677
 20
499.0703955056532
 30
0.0
 10
152.9597861239921
 20
499.4657723174023
 30
0.0
 10
153.559558258168
 20
499.913783626114
 30
0.0
 10
154.1163969456458
 20
500.4109774013199
 30
0.0
 10
154.6273242514085
 20
500.9537521702332
 30
0.0
 10
155.0871682567826
 20
501.5377261818236
 30
0.0
 10
155.4936604458716
 20
502.1587936159294
 30
0.0
 10
155.842489324937
 20
502.8118579853799
 30
0.0
 10
156.1321260661414
 20
503.492332376085
 30
0.0
 10
156.3592706055508
 20
504.1946660000564
 30
0.0
 10
156.5231989788878
 20
504.9138229637392
 30
0.0
 10
156.6216820824465
 20
505.644067239527
 30
0.0
 10
156.6549129089298
 20
506.3799899027298
 30
0.0
 10
156.6216407301238
 20
507.1158872101394
 30
0.0
 10
156.523364540252
 20
507.8462076132737
 30
0.0
 10
156.3732036436107
 20
508.5015642254622
 30
0.0
 10
156.1951547613449
 20
509.0822155507397
 30
0.0
 10
156.0609045138974
 20
509.4178596536156
 30
0.0
 10
155.9938320021239
 20
509.585550167934
 30
0.0
 11
147.9938320021033
 21
497.9513056814565
 31
0.0
 11
148.3707073905901
 21
497.9593332030933
 31
0.0
 11
148.7475827790769
 21
497.9834157680052
 31
0.0
 11
149.4953309015227
 21
498.0792604236898
 31
0.0
 11
150.2322057382908
 21
498.2384504938488
 31
0.0
 11
150.9513014983738
 21
498.4592609386383
 31
0.0
 11
151.6488822968902
 21
498.7407938791316
 31
0.0
 11
152.3175760122413
 21
499.0798280806472
 31
0.0
 11
152.9545930006557
 21
499.4752232631903
 31
0.0
 11
153.5526709045157
 21
499.9222005953958
 31
0.0
 11
154.1096668682159
 21
500.4194721846126
 31
0.0
 11
154.6190379026529
 21
500.9608821375621
 31
0.0
 11
155.0789851160007
 21
501.5448945295483
 31
0.0
 11
155.4842077163765
 21
502.1643899418508
 31
0.0
 11
155.8330530429485
 21
502.8173226787851
 31
0.0
 11
156.1217927841001
 21
503.4961889577855
 31
0.0
 11
156.3489070760027
 21
504.1980970633318
 31
0.0
 11
156.512315834533
 21
504.9157902754741
 31
0.0
 11
156.6108269200167
 21
505.6452389770609
 31
0.0
 11
156.6438320021242
 21
506.3799856778804
 31
0.0
 11
156.6108269200167
 21
507.1147323786997
 31
0.0
 11
156.512315834533
 21
507.8441810802863
 31
0.0
 11
156.3489070760028
 21
508.5618742924286
 31
0.0
 11
156.1880097035082
 21
509.0799340068517
 31
0.0
 11
155.9938320021239
 21
509.585550167934
 31
0.0
  0
SPLINE
  5
11B
330
42
100
AcDbEntity
  8
1
  6
Continuous
 62
     7
100
AcDbSpline
210
0.0
220
0.0
230
1.0
 70
     8
 71
     3
 72
    31
 73
    27
 74
    25
 42
0.0000000001
 43
0.0000000001
 44
0.00000001
 40
0.0
 40
0.0
 40
0.0
 40
0.0
 40
0.3769608727052319
 40
0.7546049225455555
 40
1.508470595357745
 40
2.262344592454831
 40
3.014578575134156
 40
3.766828378750915
 40
4.516558646745596
 40
5.266310601665905
 40
6.012960395472364
 40
6.759635383014164
 40
7.502995045543759
 40
8.246380485984879
 40
8.986637145339699
 40
9.726916971372829
 40
10.46463647286661
 40
11.20237347899957
 40
11.93843459678773
 40
12.6745051383867
 40
13.40999276561784
 40
14.14548039284876
 40
14.88155093444756
 40
15.61761205223567
 40
16.16008217324125
 40
16.70170259573517
 40
16.70170259573517
 40
16.70170259573517
 40
16.70170259573517
 10
147.9938320021446
 20
497.9513056814565
 30
0.0
 10
147.8681675371835
 20
497.9528588387241
 30
0.0
 10
147.6166108619026
 20
497.9559679680912
 30
0.0
 10
147.1146892487978
 20
497.9891632118882
 30
0.0
 10
146.4904923056
 20
498.068522850892
 30
0.0
 10
145.7532996781714
 20
498.228031391465
 30
0.0
 10
145.0327545761945
 20
498.4490896156293
 30
0.0
 10
144.3351252469849
 20
498.7307128136026
 30
0.0
 10
143.6647776021803
 20
499.0703955056531
 30
0.0
 10
143.0278778802558
 20
499.4657723174022
 30
0.0
 10
142.4281057460799
 20
499.9137836261141
 30
0.0
 10
141.871267058602
 20
500.4109774013199
 30
0.0
 10
141.3603397528394
 20
500.9537521702333
 30
0.0
 10
140.9004957474654
 20
501.5377261818236
 30
0.0
 10
140.4940035583764
 20
502.1587936159295
 30
0.0
 10
140.145174679311
 20
502.81185798538
 30
0.0
 10
139.8555379381065
 20
503.4923323760847
 30
0.0
 10
139.6283933986971
 20
504.1946660000565
 30
0.0
 10
139.46446502536
 20
504.9138229637391
 30
0.0
 10
139.3659819218014
 20
505.6440672395271
 30
0.0
 10
139.3327510953181
 20
506.3799899027297
 30
0.0
 10
139.366023274124
 20
507.1158872101396
 30
0.0
 10
139.4642994639959
 20
507.8462076132734
 30
0.0
 10
139.6144603606373
 20
508.5015642254625
 30
0.0
 10
139.7925092429031
 20
509.0822155507396
 30
0.0
 10
139.9267594903506
 20
509.4178596536155
 30
0.0
 10
139.993832002124
 20
509.585550167934
 30
0.0
 11
147.9938320021446
 21
497.9513056814565
 31
0.0
 11
147.6169566136578
 21
497.9593332030933
 31
0.0
 11
147.240081225171
 21
497.9834157680052
 31
0.0
 11
146.4923331027252
 21
498.0792604236898
 31
0.0
 11
145.7554582659572
 21
498.2384504938488
 31
0.0
 11
145.0363625058741
 21
498.4592609386383
 31
0.0
 11
144.3387817073578
 21
498.7407938791316
 31
0.0
 11
143.6700879920067
 21
499.0798280806472
 31
0.0
 11
143.0330710035923
 21
499.4752232631903
 31
0.0
 11
142.4349930997322
 21
499.9222005953958
 31
0.0
 11
141.877997136032
 21
500.4194721846126
 31
0.0
 11
141.368626101595
 21
500.9608821375621
 31
0.0
 11
140.9086788882473
 21
501.5448945295483
 31
0.0
 11
140.5034562878715
 21
502.1643899418508
 31
0.0
 11
140.1546109612995
 21
502.8173226787851
 31
0.0
 11
139.8658712201478
 21
503.4961889577855
 31
0.0
 11
139.6387569282452
 21
504.1980970633318
 31
0.0
 11
139.4753481697149
 21
504.9157902754741
 31
0.0
 11
139.3768370842312
 21
505.6452389770609
 31
0.0
 11
139.3438320021237
 21
506.3799856778804
 31
0.0
 11
139.3768370842311
 21
507.1147323786997
 31
0.0
 11
139.4753481697149
 21
507.8441810802863
 31
0.0
 11
139.6387569282452
 21
508.5618742924286
 31
0.0
 11
139.7996543007398
 21
509.0799340068517
 31
0.0
 11
139.993832002124
 21
509.585550167934
 31
0.0
  0
ARC
  5
11C
330
42
100
AcDbEntity
  8
1
  6
DASH_CENTER
 62
     2
100
AcDbCircle
 10
387.3726371779167
 20
224.374313672722
 30
0.0
 40
27.0
100
AcDbArc
 50
180.0
 51
-90.0
  0
ARC
  5
11D
330
42
100
AcDbEntity
  8
1
  6
DASH_CENTER
 62
     2
100
AcDbCircle
 10
401.3726371779167
 20
212.374313672722
 30
0.0
 40
15.00000000000009
100
AcDbArc
 50
-90.0
 51
0.0
  0
ENDBLK
  5
47
330
42
100
AcDbEntity
  8
0
100
AcDbBlockEnd
  0
BLOCK
  5
49
330
48
100
AcDbEntity
  8
0
100
AcDbBlockBegin
  2
32-1-16__2
 70
     0
 71
     0
 10
447.2501073292951
 20
205.8639622416361
 30
0.0
  3
32-1-16__2
  1

  0
LINE
  5
11E
330
48
100
AcDbEntity
  8
1
  6
Continuous
 62
     7
100
AcDbLine
 10
137.9938320021241
 20
245.4820088273081
 30
0.0
 11
135.2329726912228
 21
247.0759916936517
 31
0.0
  0
LINE
  5
11F
330
48
100
AcDbEntity
  8
1
  6
Continuous
 62
     7
100
AcDbLine
 10
135.2329726912228
 20
264.6726356517911
 30
0.0
 11
139.9938320021241
 21
267.421319056514
 31
0.0
  0
LINE
  5
120
330
48
100
AcDbEntity
  8
1
  6
Continuous
 62
     7
100
AcDbLine
 10
155.9938320021241
 20
267.421319056514
 30
0.0
 11
160.7546913130256
 21
264.6726356517911
 31
0.0
  0
LINE
  5
121
330
48
100
AcDbEntity
  8
1
  6
Continuous
 62
     7
100
AcDbLine
 10
133.9938320021241
 20
249.2222463248964
 30
0.0
 11
133.9938320021241
 21
262.5263810205466
 31
0.0
  0
LINE
  5
122
330
48
100
AcDbEntity
  8
1
  6
Continuous
 62
     7
100
AcDbLine
 10
160.7546913130256
 20
247.0759916936517
 30
0.0
 11
157.9938320021241
 21
245.4820088273081
 31
0.0
  0
LINE
  5
123
330
48
100
AcDbEntity
  8
1
  6
Continuous
 62
     7
100
AcDbLine
 10
161.993832002124
 20
249.2222463248964
 30
0.0
 11
161.993832002124
 21
262.5263810205466
 31
0.0
  0
LINE
  5
124
330
48
100
AcDbEntity
  8
1
  6
Continuous
 62
     7
100
AcDbLine
 10
445.1726371779166
 20
242.5743136727214
 30
0.0
 11
445.1726371779166
 21
255.8743136727215
 31
0.0
  0
LINE
  5
125
330
48
100
AcDbEntity
  8
1
  6
Continuous
 62
     7
100
AcDbLine
 10
445.1726371779166
 20
242.6873136727216
 30
0.0
 11
445.1726371779166
 21
242.5743136727214
 31
0.0
  0
LINE
  5
126
330
48
100
AcDbEntity
  8
1
  6
Continuous
 62
     7
100
AcDbLine
 10
436.1726371779166
 20
244.316292610991
 30
0.0
 11
436.1726371779166
 21
244.3743136727215
 31
0.0
  0
LINE
  5
127
330
48
100
AcDbEntity
  8
1
  6
Continuous
 62
     7
100
AcDbLine
 10
435.1726371779166
 20
255.8743136727215
 30
0.0
 11
435.1726371779166
 21
246.1063644802902
 31
0.0
  0
LINE
  5
128
330
48
100
AcDbEntity
  8
1
  6
Continuous
 62
     7
100
AcDbLine
 10
436.1726371779166
 20
247.0759916936517
 30
0.0
 11
436.1726371779166
 21
255.8743136727215
 31
0.0
  0
LINE
  5
129
330
48
100
AcDbEntity
  8
1
  6
Continuous
 62
     7
100
AcDbLine
 10
445.1726371779166
 20
255.8743136727215
 30
0.0
 11
445.1726371779166
 21
269.1743136727216
 31
0.0
  0
LINE
  5
12A
330
48
100
AcDbEntity
  8
1
  6
Continuous
 62
     7
100
AcDbLine
 10
445.1726371779166
 20
269.1743136727216
 30
0.0
 11
445.1726371779166
 21
269.0613136727215
 31
0.0
  0
LINE
  5
12B
330
48
100
AcDbEntity
  8
1
  6
Continuous
 62
     7
100
AcDbLine
 10
436.1726371779166
 20
267.3743136727215
 30
0.0
 11
436.1726371779166
 21
267.432334734452
 31
0.0
  0
LINE
  5
12C
330
48
100
AcDbEntity
  8
1
  6
Continuous
 62
     7
100
AcDbLine
 10
435.1726371779166
 20
265.6422628651527
 30
0.0
 11
435.1726371779166
 21
255.8743136727215
 31
0.0
  0
LINE
  5
12D
330
48
100
AcDbEntity
  8
1
  6
Continuous
 62
     7
100
AcDbLine
 10
436.1726371779166
 20
255.8743136727215
 30
0.0
 11
436.1726371779166
 21
264.6726356517911
 31
0.0
  0
LINE
  5
12E
330
48
100
AcDbEntity
  8
1
  6
Continuous
 62
     7
100
AcDbLine
 10
161.293832002124
 20
695.926001591971
 30
0.0
 11
153.94132735885
 21
695.926001591971
 31
0.0
  0
LINE
  5
12F
330
48
100
AcDbEntity
  8
1
  6
Continuous
 62
     7
100
AcDbLine
 10
161.993832002124
 20
695.3542527708009
 30
0.0
 11
161.993832002124
 21
688.2128243422581
 31
0.0
  0
LINE
  5
130
330
48
100
AcDbEntity
  8
1
  6
Continuous
 62
     7
100
AcDbLine
 10
133.993832002124
 20
688.2128243422581
 30
0.0
 11
133.993832002124
 21
695.3542527708009
 31
0.0
  0
LINE
  5
131
330
48
100
AcDbEntity
  8
1
  6
Continuous
 62
     7
100
AcDbLine
 10
156.193832002124
 20
685.926001591971
 30
0.0
 11
157.7617811945551
 21
685.926001591971
 31
0.0
  0
LINE
  5
132
330
48
100
AcDbEntity
  8
1
  6
Continuous
 62
     7
100
AcDbLine
 10
161.180832002124
 20
695.926001591971
 30
0.0
 11
161.293832002124
 21
695.926001591971
 31
0.0
  0
LINE
  5
133
330
48
100
AcDbEntity
  8
1
  6
Continuous
 62
     7
100
AcDbLine
 10
159.5518530638546
 20
686.926001591971
 30
0.0
 11
159.493832002124
 21
686.926001591971
 31
0.0
  0
LINE
  5
134
330
48
100
AcDbEntity
  8
1
  6
Continuous
 62
     7
100
AcDbLine
 10
147.993832002124
 20
685.926001591971
 30
0.0
 11
156.193832002124
 21
685.926001591971
 31
0.0
  0
LINE
  5
135
330
48
100
AcDbEntity
  8
1
  6
Continuous
 62
     7
100
AcDbLine
 10
156.7921539811936
 20
686.926001591971
 30
0.0
 11
147.993832002124
 21
686.926001591971
 31
0.0
  0
LINE
  5
136
330
48
100
AcDbEntity
  8
1
  6
Continuous
 62
     7
100
AcDbLine
 10
138.2258828096929
 20
685.926001591971
 30
0.0
 11
139.7938320021241
 21
685.926001591971
 31
0.0
  0
LINE
  5
137
330
48
100
AcDbEntity
  8
1
  6
Continuous
 62
     7
100
AcDbLine
 10
142.0441724776107
 20
695.926001591971
 30
0.0
 11
134.693832002124
 21
695.926001591971
 31
0.0
  0
LINE
  5
138
330
48
100
AcDbEntity
  8
1
  6
Continuous
 62
     7
100
AcDbLine
 10
134.693832002124
 20
695.926001591971
 30
0.0
 11
134.806832002124
 21
695.926001591971
 31
0.0
  0
LINE
  5
139
330
48
100
AcDbEntity
  8
1
  6
Continuous
 62
     7
100
AcDbLine
 10
136.493832002124
 20
686.926001591971
 30
0.0
 11
136.4358109403934
 21
686.926001591971
 31
0.0
  0
LINE
  5
13A
330
48
100
AcDbEntity
  8
1
  6
Continuous
 62
     7
100
AcDbLine
 10
139.7938320021241
 20
685.926001591971
 30
0.0
 11
147.993832002124
 21
685.926001591971
 31
0.0
  0
LINE
  5
13B
330
48
100
AcDbEntity
  8
1
  6
Continuous
 62
     7
100
AcDbLine
 10
147.993832002124
 20
686.926001591971
 30
0.0
 11
139.1955100230544
 21
686.926001591971
 31
0.0
  0
ARC
  5
13C
330
48
100
AcDbEntity
  8
1
  6
Continuous
 62
     7
100
AcDbCircle
 10
147.9938320021241
 20
255.8743136727215
 30
0.0
 40
15.49999999999983
100
AcDbArc
 50
145.4146209151607
 51
154.5853790848389
  0
ARC
  5
13D
330
48
100
AcDbEntity
  8
1
  6
Continuous
 62
     7
100
AcDbCircle
 10
147.9938320021241
 20
255.8743136727215
 30
0.0
 40
15.50000000000004
100
AcDbArc
 50
-154.5853790848387
 51
-145.41462091516
  0
ARC
  5
13E
330
48
100
AcDbEntity
  8
1
  6
Continuous
 62
     7
100
AcDbCircle
 10
147.9938320021241
 20
255.8743136727215
 30
0.0
 40
15.50000000000015
100
AcDbArc
 50
-34.58537908483949
 51
-25.41462091516141
  0
ARC
  5
13F
330
48
100
AcDbEntity
  8
1
  6
Continuous
 62
     7
100
AcDbCircle
 10
147.9938320021241
 20
255.8743136727215
 30
0.0
 40
15.49999999999994
100
AcDbArc
 50
25.41462091516122
 51
34.58537908483879
  0
ARC
  5
140
330
48
100
AcDbEntity
  8
1
  6
Continuous
 62
     7
100
AcDbCircle
 10
441.030174142475
 20
245.3743136727215
 30
0.0
 40
4.999999999999883
100
AcDbArc
 50
-164.6624423304452
 51
-34.05579774256901
  0
ARC
  5
141
330
48
100
AcDbEntity
  8
1
  6
Continuous
 62
     7
100
AcDbCircle
 10
441.030174142475
 20
266.3743136727215
 30
0.0
 40
5.00000000000008
100
AcDbArc
 50
34.05579774256901
 51
164.6624423304434
  0
ARC
  5
142
330
48
100
AcDbEntity
  8
1
  6
Continuous
 62
     7
100
AcDbCircle
 10
158.493832002124
 20
691.7835385565295
 30
0.0
 40
5.000000000000016
100
AcDbArc
 50
45.57299599919448
 51
55.94420225743197
  0
ARC
  5
143
330
48
100
AcDbEntity
  8
1
  6
Continuous
 62
     7
100
AcDbCircle
 10
137.493832002124
 20
691.7835385565295
 30
0.0
 40
5.000000000000016
100
AcDbArc
 50
-134.4270040008055
 51
-105.3375576695528
  0
ARC
  5
144
330
48
100
AcDbEntity
  8
1
  6
Continuous
 62
     7
100
AcDbCircle
 10
158.493832002124
 20
691.7835385565295
 30
0.0
 40
5.000000000000124
100
AcDbArc
 50
-74.66244233044498
 51
-45.57299599919448
  0
ARC
  5
145
330
48
100
AcDbEntity
  8
1
  6
Continuous
 62
     7
100
AcDbCircle
 10
137.493832002124
 20
691.7835385565295
 30
0.0
 40
4.99999999999997
100
AcDbArc
 50
124.0557977425683
 51
134.4270040008055
  0
SPLINE
  5
146
330
48
100
AcDbEntity
  8
1
  6
Continuous
 62
     7
100
AcDbSpline
210
0.0
220
0.0
230
1.0
 70
     8
 71
     3
 72
    35
 73
    31
 74
    29
 42
0.0000000001
 43
0.0000000001
 44
0.00000001
 40
0.0
 40
0.0
 40
0.0
 40
0.0
 40
1.157074067488747
 40
2.320572965097291
 40
3.273653279247977
 40
4.223931600837613
 40
5.079449795490611
 40
5.936186961978407
 40
6.669741829860702
 40
7.401496855236575
 40
8.042719121610961
 40
8.680367940978208
 40
9.317992644278093
 40
9.959239511878902
 40
10.6911258054434
 40
11.42456423707936
 40
12.28082073112871
 40
13.13674076976497
 40
14.08845957348504
 40
15.04042257296673
 40
16.02767507169342
 40
17.01468641259242
 40
17.96617455682751
 40
18.91836981381769
 40
19.77573127283215
 40
20.63058859335713
 40
21.01255350683821
 40
21.3942713619036
 40
22.04186784846539
 40
22.69677985761533
 40
22.69677985761533
 40
22.69677985761533
 40
22.69677985761533
 10
153.7523562997306
 20
695.2409502829967
 30
0.0
 10
154.1351038648016
 20
695.2970020117066
 30
0.0
 10
154.9027242591366
 20
695.4094167048935
 30
0.0
 10
155.9973147949351
 20
695.3229930016266
 30
0.0
 10
157.0065532758482
 20
695.1584388438869
 30
0.0
 10
157.8934682500857
 20
694.9047827762202
 30
0.0
 10
158.7107749653914
 20
694.5524201059691
 30
0.0
 10
159.4064973748894
 20
694.1205835108997
 30
0.0
 10
159.9926302170572
 20
693.6095524389527
 30
0.0
 10
160.4215914472329
 20
693.0450823719405
 30
0.0
 10
160.6885153707524
 20
692.4236789393331
 30
0.0
 10
160.7876838728395
 20
691.7835474329293
 30
0.0
 10
160.6885247009286
 20
691.1434027721751
 30
0.0
 10
160.421560595866
 20
690.5219715625345
 30
0.0
 10
159.9926722875433
 20
689.9574429238975
 30
0.0
 10
159.4066451943382
 20
689.4464682008543
 30
0.0
 10
158.7105620288
 20
689.0153565334636
 30
0.0
 10
157.8929653356076
 20
688.6625953647507
 30
0.0
 10
157.0072314889187
 20
688.4056163378084
 30
0.0
 10
156.0545015763994
 20
688.2483072872169
 30
0.0
 10
155.0786170914083
 20
688.1945500562055
 30
0.0
 10
154.1028967501885
 20
688.248324726198
 30
0.0
 10
153.1502318541016
 20
688.4055321895695
 30
0.0
 10
152.2640535270013
 20
688.6627632129356
 30
0.0
 10
151.4462518594872
 20
689.0152765939647
 30
0.0
 10
150.8499124770883
 20
689.3844452339384
 30
0.0
 10
150.4309651552142
 20
689.7259760589692
 30
0.0
 10
150.0967054940873
 20
690.0560748743748
 30
0.0
 10
149.7381463057506
 20
690.50112513618
 30
0.0
 10
149.6081196646904
 20
690.9191756938669
 30
0.0
 10
149.542741197663
 20
691.1293749605607
 30
0.0
 11
153.7523562997306
 21
695.2409502829967
 31
0.0
 11
154.9026612194401
 21
695.3659262380724
 31
0.0
 11
156.0642911751572
 21
695.3000055985348
 31
0.0
 11
157.0038472687747
 21
695.1400167483992
 31
0.0
 11
157.9166748585898
 21
694.8758677757426
 31
0.0
 11
158.7007783548564
 21
694.5336791018726
 31
0.0
 11
159.4267518729556
 21
694.0787494111947
 31
0.0
 11
159.9751686202541
 21
693.5915720148838
 31
0.0
 11
160.4123846439586
 21
693.0047947438696
 31
0.0
 11
160.6629438717437
 21
692.4145523629226
 31
0.0
 11
160.7546913130256
 21
691.7835385565295
 31
0.0
 11
160.6629523144189
 21
691.1525478922619
 31
0.0
 11
160.4123846439586
 21
690.5622823691895
 31
0.0
 11
159.9751380619474
 21
689.9753641694144
 31
0.0
 11
159.4267518729555
 21
689.4883277018645
 31
0.0
 11
158.7009202460099
 21
689.034077073987
 31
0.0
 11
157.9166748585899
 21
688.6912093373164
 31
0.0
 11
157.0032211296325
 21
688.4240558862659
 31
0.0
 11
156.0642911751572
 21
688.2670715145242
 31
0.0
 11
155.0785376418396
 21
688.2126889089046
 31
0.0
 11
154.0930256331511
 21
688.2670715145241
 31
0.0
 11
153.1545571534353
 21
688.4239364283831
 31
0.0
 11
152.2406419497184
 21
688.6912093373163
 31
0.0
 11
151.4550031837592
 21
689.0344882338792
 31
0.0
 11
150.7305649353527
 21
689.4883277018643
 31
0.0
 11
150.4351030365644
 21
689.7304009583281
 31
0.0
 11
150.163069712355
 21
689.9981814493937
 31
0.0
 11
149.7761082416533
 21
690.5174521202384
 31
0.0
 11
149.542741197663
 21
691.1293749605607
 31
0.0
  0
SPLINE
  5
147
330
48
100
AcDbEntity
  8
1
  6
Continuous
 62
     7
100
AcDbSpline
210
0.0
220
0.0
230
1.0
 70
     8
 71
     3
 72
    35
 73
    31
 74
    29
 42
0.0000000001
 43
0.0000000001
 44
0.00000001
 40
0.0
 40
0.0
 40
0.0
 40
0.0
 40
1.157074067488719
 40
2.320572965097234
 40
3.273653279247948
 40
4.223931600837584
 40
5.079449795490607
 40
5.936186961978355
 40
6.669741829860714
 40
7.401496855236535
 40
8.04271912161091
 40
8.680367940978156
 40
9.317992644278041
 40
9.959239511878829
 40
10.69112580544335
 40
11.42456423707931
 40
12.28082073112868
 40
13.13674076976497
 40
14.08845957348501
 40
15.04042257296664
 40
16.0276750716933
 40
17.0146864125923
 40
17.96617455682743
 40
18.91836981381766
 40
19.77573127283209
 40
20.63058859335703
 40
21.01255350683808
 40
21.39427136190349
 40
22.04186784846527
 40
22.69677985761521
 40
22.69677985761521
 40
22.69677985761521
 40
22.69677985761521
 10
142.2353077045175
 20
695.2409502829967
 30
0.0
 10
141.8525601394465
 20
695.2970020117066
 30
0.0
 10
141.0849397451116
 20
695.4094167048936
 30
0.0
 10
139.9903492093131
 20
695.3229930016262
 30
0.0
 10
138.9811107284
 20
695.1584388438871
 30
0.0
 10
138.0941957541624
 20
694.9047827762198
 30
0.0
 10
137.2768890388567
 20
694.5524201059692
 30
0.0
 10
136.5811666293587
 20
694.1205835108997
 30
0.0
 10
135.9950337871908
 20
693.6095524389525
 30
0.0
 10
135.5660725570153
 20
693.0450823719405
 30
0.0
 10
135.2991486334958
 20
692.4236789393332
 30
0.0
 10
135.1999801314086
 20
691.7835474329293
 30
0.0
 10
135.2991393033197
 20
691.1434027721754
 30
0.0
 10
135.5661034083822
 20
690.5219715625342
 30
0.0
 10
135.9949917167049
 20
689.9574429238976
 30
0.0
 10
136.5810188099099
 20
689.4464682008544
 30
0.0
 10
137.2771019754482
 20
689.0153565334636
 30
0.0
 10
138.0946986686407
 20
688.6625953647508
 30
0.0
 10
138.9804325153295
 20
688.4056163378082
 30
0.0
 10
139.9331624278488
 20
688.248307287217
 30
0.0
 10
140.9090469128398
 20
688.1945500562052
 30
0.0
 10
141.8847672540597
 20
688.2483247261981
 30
0.0
 10
142.8374321501465
 20
688.4055321895694
 30
0.0
 10
143.7236104772468
 20
688.6627632129354
 30
0.0
 10
144.541412144761
 20
689.0152765939648
 30
0.0
 10
145.1377515271597
 20
689.3844452339383
 30
0.0
 10
145.5566988490339
 20
689.7259760589694
 30
0.0
 10
145.8909585101609
 20
690.0560748743746
 30
0.0
 10
146.2495176984975
 20
690.5011251361797
 30
0.0
 10
146.3795443395578
 20
690.919175693867
 30
0.0
 10
146.4449228065851
 20
691.1293749605607
 30
0.0
 11
142.2353077045175
 21
695.2409502829967
 31
0.0
 11
141.085002784808
 21
695.3659262380724
 31
0.0
 11
139.923372829091
 21
695.3000055985348
 31
0.0
 11
138.9838167354734
 21
695.1400167483992
 31
0.0
 11
138.0709891456583
 21
694.8758677757426
 31
0.0
 11
137.2868856493917
 21
694.5336791018726
 31
0.0
 11
136.5609121312926
 21
694.0787494111947
 31
0.0
 11
136.012495383994
 21
693.5915720148838
 31
0.0
 11
135.5752793602895
 21
693.0047947438696
 31
0.0
 11
135.3247201325045
 21
692.4145523629226
 31
0.0
 11
135.2329726912226
 21
691.7835385565295
 31
0.0
 11
135.3247116898293
 21
691.1525478922619
 31
0.0
 11
135.5752793602896
 21
690.5622823691895
 31
0.0
 11
136.0125259423007
 21
689.9753641694144
 31
0.0
 11
136.5609121312926
 21
689.4883277018645
 31
0.0
 11
137.2867437582383
 21
689.034077073987
 31
0.0
 11
138.0709891456583
 21
688.6912093373164
 31
0.0
 11
138.9844428746157
 21
688.4240558862659
 31
0.0
 11
139.923372829091
 21
688.2670715145242
 31
0.0
 11
140.9091263624085
 21
688.2126889089046
 31
0.0
 11
141.8946383710971
 21
688.2670715145241
 31
0.0
 11
142.8331068508128
 21
688.4239364283831
 31
0.0
 11
143.7470220545298
 21
688.6912093373163
 31
0.0
 11
144.532660820489
 21
689.0344882338792
 31
0.0
 11
145.2570990688954
 21
689.4883277018643
 31
0.0
 11
145.5525609676837
 21
689.7304009583281
 31
0.0
 11
145.8245942918931
 21
689.9981814493937
 31
0.0
 11
146.2115557625947
 21
690.5174521202384
 31
0.0
 11
146.4449228065851
 21
691.1293749605607
 31
0.0
  0
SPLINE
  5
148
330
48
100
AcDbEntity
  8
1
  6
Continuous
 62
     7
100
AcDbSpline
210
0.0
220
0.0
230
1.0
 70
    11
 71
     3
 72
    79
 73
    75
 74
    73
 42
0.0000000001
 43
0.0000000001
 44
0.00000001
 40
0.0
 40
0.0
 40
0.0
 40
0.0
 40
0.2910229153818371
 40
0.5820342278737873
 40
0.8749339334364581
 40
1.167812547519325
 40
1.463561188767226
 40
1.759282806464738
 40
2.058487811140622
 40
2.357663885605888
 40
2.660503341347574
 40
2.963315625194668
 40
3.269530826276578
 40
3.575723468843847
 40
3.884662744191393
 40
4.193586027919061
 40
4.504289085610671
 40
4.8149838820153
 40
5.126294430971175
 40
5.43760497992705
 40
5.748299776331734
 40
6.05900283402329
 40
6.367926117750958
 40
6.676865393098557
 40
6.983058035665801
 40
7.289273236747643
 40
7.592085520594769
 40
7.894924976336462
 40
8.194101050801606
 40
8.493306055477571
 40
8.789027673175113
 40
9.084776314422971
 40
9.377654928505868
 40
9.670554634068537
 40
9.961565946560432
 40
10.25258886194233
 40
10.54295309984932
 40
10.8333173377563
 40
11.12434025313815
 40
11.41535156563008
 40
11.70825127119268
 40
12.00112988527557
 40
12.29687852652353
 40
12.59260014422106
 40
12.89180514889694
 40
13.19098122336213
 40
13.49382067910386
 40
13.79663296295081
 40
14.10284816403262
 40
14.40904080659992
 40
14.71798008194755
 40
15.02690336567523
 40
15.33760642336694
 40
15.64830121977152
 40
15.95961176872739
 40
16.27092231768326
 40
16.5816171140879
 40
16.89232017177961
 40
17.20124345550713
 40
17.51018273085476
 40
17.816375373422
 40
18.12259057450386
 40
18.42540285835094
 40
18.72824231409264
 40
19.02741838855778
 40
19.32662339323374
 40
19.6223450109313
 40
19.91809365217923
 40
20.21097226626212
 40
20.50387197182479
 40
20.79488328431673
 40
21.08590619969857
 40
21.37627043760545
 40
21.66663467551244
 40
21.66663467551244
 40
21.66663467551244
 40
21.66663467551244
 10
444.5872433938762
 20
267.7086258709531
 30
0.0
 10
444.5755677260749
 20
267.6122508122362
 30
0.0
 10
444.5522168559732
 20
267.4195045372117
 30
0.0
 10
444.4828608625227
 20
267.1355680279467
 30
0.0
 10
444.3894181049474
 20
266.8583037620882
 30
0.0
 10
444.2695111189699
 20
266.5895513782378
 30
0.0
 10
444.1254656137829
 20
266.3319059947182
 30
0.0
 10
443.9573990129376
 20
266.0866790474836
 30
0.0
 10
443.7675642798635
 20
265.8564156914264
 30
0.0
 10
443.5564281511962
 20
265.6421834829105
 30
0.0
 10
443.3266485475623
 20
265.4462290541475
 30
0.0
 10
443.0789200153379
 20
265.2694717105269
 30
0.0
 10
442.816187775504
 20
265.1137008765598
 30
0.0
 10
442.5394367638622
 20
264.9797324591908
 30
0.0
 10
442.2517047860986
 20
264.8688094279052
 30
0.0
 10
441.9543513396756
 20
264.7816326355339
 30
0.0
 10
441.6503053435328
 20
264.718884625441
 30
0.0
 10
441.3413637477786
 20
264.6810842462287
 30
0.0
 10
441.030174142476
 20
264.6684071727405
 30
0.0
 10
440.7189845371674
 20
264.6810842462284
 30
0.0
 10
440.4100429414305
 20
264.7188846254422
 30
0.0
 10
440.1059969452255
 20
264.7816326355293
 30
0.0
 10
439.8086434990317
 20
264.8688094279222
 30
0.0
 10
439.5209115204169
 20
264.9797324591276
 30
0.0
 10
439.2441605119249
 20
265.113700876793
 30
0.0
 10
438.9814282604006
 20
265.2694717096603
 30
0.0
 10
438.7336997713425
 20
265.4462290573418
 30
0.0
 10
438.5039200076215
 20
265.6421834710448
 30
0.0
 10
438.2927844695138
 20
265.8564157351161
 30
0.0
 10
438.102947546386
 20
266.0866788851502
 30
0.0
 10
437.9348890282917
 20
266.3319065927457
 30
0.0
 10
437.7908135264982
 20
266.5895491544248
 30
0.0
 10
437.6710174560189
 20
266.8583119723163
 30
0.0
 10
437.5771624591775
 20
267.1355374580085
 30
0.0
 10
437.5093355525877
 20
267.4196178115111
 30
0.0
 10
437.4686405909639
 20
267.7079852920241
 30
0.0
 10
437.454874797399
 20
267.9986693257036
 30
0.0
 10
437.4686405909638
 20
268.2893533593831
 30
0.0
 10
437.5093355525877
 20
268.5777208398961
 30
0.0
 10
437.5771624591775
 20
268.8618011933986
 30
0.0
 10
437.6710174560185
 20
269.139026679091
 30
0.0
 10
437.7908135264985
 20
269.4077894969821
 30
0.0
 10
437.9348890282913
 20
269.6654320586615
 30
0.0
 10
438.1029475463861
 20
269.9106597662568
 30
0.0
 10
438.2927844695138
 20
270.1409229162911
 30
0.0
 10
438.5039200076215
 20
270.3551551803623
 30
0.0
 10
438.7336997713423
 20
270.5511095940654
 30
0.0
 10
438.9814282604006
 20
270.7278669417467
 30
0.0
 10
439.2441605119248
 20
270.8836377746142
 30
0.0
 10
439.5209115204169
 20
271.0176061922795
 30
0.0
 10
439.8086434990316
 20
271.1285292234848
 30
0.0
 10
440.1059969452256
 20
271.2157060158777
 30
0.0
 10
440.4100429414303
 20
271.2784540259648
 30
0.0
 10
440.7189845371677
 20
271.3162544051785
 30
0.0
 10
441.0301741424752
 20
271.3289314786665
 30
0.0
 10
441.3413637477818
 20
271.3162544051787
 30
0.0
 10
441.6503053435207
 20
271.2784540259647
 30
0.0
 10
441.954351339721
 20
271.2157060158781
 30
0.0
 10
442.2517047859311
 20
271.1285292234835
 30
0.0
 10
442.539436764485
 20
271.0176061922841
 30
0.0
 10
442.8161877732028
 20
270.8836377745973
 30
0.0
 10
443.0789200238887
 20
270.7278669418089
 30
0.0
 10
443.3266485160428
 20
270.5511095938364
 30
0.0
 10
443.5564282682828
 20
270.3551551812132
 30
0.0
 10
443.7675638487424
 20
270.1409229131579
 30
0.0
 10
443.957400614811
 20
269.9106597778985
 30
0.0
 10
444.1254597125583
 20
269.6654320157742
 30
0.0
 10
444.2695330631521
 20
269.4077896564623
 30
0.0
 10
444.3893370879089
 20
269.1390260902963
 30
0.0
 10
444.4831625211144
 20
268.8618033857141
 30
0.0
 10
444.5510990857863
 20
268.5777127164579
 30
0.0
 10
444.5913856427029
 20
268.2893836553868
 30
0.0
 10
444.6066723883871
 20
267.998556542721
 30
0.0
 10
444.5937197253799
 20
267.8052694282092
 30
0.0
 10
444.5872433938762
 20
267.7086258709531
 30
0.0
 11
444.5872433938762
 21
267.7086258709531
 31
0.0
 11
444.5465194207898
 21
267.4204663746783
 31
0.0
 11
444.4790505507244
 21
267.1373841682957
 31
0.0
 11
444.3851030220856
 21
266.8599601257519
 31
0.0
 11
444.2659871482862
 21
266.5923983736346
 31
0.0
 11
444.121644018829
 21
266.3342660049194
 31
0.0
 11
443.9545838484133
 21
266.0902533523083
 31
0.0
 11
443.7642728168126
 21
265.8593738467775
 31
0.0
 11
443.5543618424571
 21
265.6461985518262
 31
0.0
 11
443.3239578593306
 21
265.449664227818
 31
0.0
 11
443.0775261366428
 21
265.2736906920184
 31
0.0
 11
442.8141438998049
 21
265.1174935515455
 31
0.0
 11
442.538584767027
 21
264.9839978635813
 31
0.0
 11
442.2503328461299
 21
264.8728479380241
 31
0.0
 11
441.9539063680894
 21
264.7858712839978
 31
0.0
 11
441.6496171755466
 21
264.7230662096763
 31
0.0
 11
441.341227359626
 21
264.6852908480047
 31
0.0
 11
441.030174142475
 21
264.6726356517911
 31
0.0
 11
440.719120925324
 21
264.6852908480047
 31
0.0
 11
440.4107311094034
 21
264.7230662096763
 31
0.0
 11
440.1064419168606
 21
264.7858712839978
 31
0.0
 11
439.8100154388201
 21
264.8728479380241
 31
0.0
 11
439.5217635179229
 21
264.9839978635813
 31
0.0
 11
439.2462043851451
 21
265.1174935515455
 31
0.0
 11
438.9828221483073
 21
265.2736906920184
 31
0.0
 11
438.7363904256195
 21
265.449664227818
 31
0.0
 11
438.5059864424929
 21
265.6461985518262
 31
0.0
 11
438.2960754681375
 21
265.8593738467774
 31
0.0
 11
438.1057644365367
 21
266.0902533523083
 31
0.0
 11
437.9387042661211
 21
266.3342660049195
 31
0.0
 11
437.7943611366638
 21
266.5923983736345
 31
0.0
 11
437.6752452628645
 21
266.8599601257519
 31
0.0
 11
437.5812977342256
 21
267.1373841682957
 31
0.0
 11
437.5138288641603
 21
267.4204663746782
 31
0.0
 11
437.4731048910738
 21
267.7086258709531
 31
0.0
 11
437.4594599282036
 21
267.9986693257036
 31
0.0
 11
437.4731048910738
 21
268.288712780454
 31
0.0
 11
437.5138288641603
 21
268.5768722767289
 31
0.0
 11
437.5812977342256
 21
268.8599544831114
 31
0.0
 11
437.6752452628643
 21
269.1373785256552
 31
0.0
 11
437.7943611366638
 21
269.4049402777725
 31
0.0
 11
437.9387042661211
 21
269.6630726464877
 31
0.0
 11
438.1057644365367
 21
269.9070852990989
 31
0.0
 11
438.2960754681375
 21
270.1379648046297
 31
0.0
 11
438.5059864424929
 21
270.3511400995809
 31
0.0
 11
438.7363904256195
 21
270.5476744235892
 31
0.0
 11
438.9828221483071
 21
270.7236479593888
 31
0.0
 11
439.2462043851449
 21
270.8798450998616
 31
0.0
 11
439.5217635179228
 21
271.0133407878258
 31
0.0
 11
439.8100154388201
 21
271.1244907133829
 31
0.0
 11
440.1064419168606
 21
271.2114673674092
 31
0.0
 11
440.4107311094035
 21
271.2742724417307
 31
0.0
 11
440.719120925324
 21
271.3120478034023
 31
0.0
 11
441.030174142475
 21
271.3247029996159
 31
0.0
 11
441.341227359626
 21
271.3120478034024
 31
0.0
 11
441.6496171755466
 21
271.2742724417307
 31
0.0
 11
441.9539063680895
 21
271.2114673674092
 31
0.0
 11
442.2503328461298
 21
271.1244907133829
 31
0.0
 11
442.5385847670271
 21
271.0133407878258
 31
0.0
 11
442.814143899805
 21
270.8798450998616
 31
0.0
 11
443.0775261366428
 21
270.7236479593888
 31
0.0
 11
443.3239578593306
 21
270.5476744235891
 31
0.0
 11
443.5543618424571
 21
270.3511400995809
 31
0.0
 11
443.7642728168125
 21
270.1379648046297
 31
0.0
 11
443.9545838484133
 21
269.9070852990989
 31
0.0
 11
444.121644018829
 21
269.6630726464877
 31
0.0
 11
444.2659871482862
 21
269.4049402777725
 31
0.0
 11
444.3851030220856
 21
269.1373785256552
 31
0.0
 11
444.4790505507244
 21
268.8599544831113
 31
0.0
 11
444.5465194207897
 21
268.5768722767288
 31
0.0
 11
444.5872433938762
 21
268.2887127804539
 31
0.0
 11
444.6008883567465
 21
267.9986693257036
 31
0.0
 11
444.5872433938762
 21
267.7086258709531
 31
0.0
  0
SPLINE
  5
149
330
48
100
AcDbEntity
  8
1
  6
Continuous
 62
     7
100
AcDbSpline
210
0.0
220
0.0
230
1.0
 70
    11
 71
     3
 72
    79
 73
    75
 74
    73
 42
0.0000000001
 43
0.0000000001
 44
0.00000001
 40
0.0
 40
0.0
 40
0.0
 40
0.0
 40
0.2910229153818371
 40
0.5820342278737321
 40
0.8749339334363488
 40
1.167812547519268
 40
1.463561188767169
 40
1.759282806464681
 40
2.058487811140587
 40
2.357663885605832
 40
2.660503341347519
 40
2.963315625194629
 40
3.269530826276525
 40
3.575723468843794
 40
3.884662744191329
 40
4.193586027919005
 40
4.504289085610599
 40
4.814983882015223
 40
5.126294430971098
 40
5.437604979926972
 40
5.748299776331653
 40
6.059002834023202
 40
6.367926117750886
 40
6.676865393098464
 40
6.983058035665708
 40
7.289273236747492
 40
7.592085520594619
 40
7.894924976336348
 40
8.194101050801553
 40
8.493306055477495
 40
8.789027673174942
 40
9.084776314422948
 40
9.377654928505793
 40
9.670554634068409
 40
9.961565946560333
 40
10.25258886194215
 40
10.5429530998491
 40
10.83331733775612
 40
11.12434025313802
 40
11.4153515656299
 40
11.70825127119253
 40
12.00112988527544
 40
12.2968785265234
 40
12.5926001442209
 40
12.89180514889683
 40
13.19098122336199
 40
13.49382067910372
 40
13.79663296295069
 40
14.10284816403249
 40
14.40904080659979
 40
14.71798008194743
 40
15.02690336567511
 40
15.33760642336683
 40
15.6483012197714
 40
15.95961176872728
 40
16.27092231768316
 40
16.58161711408778
 40
16.8923201717795
 40
17.201243455507
 40
17.51018273085465
 40
17.81637537342191
 40
18.12259057450377
 40
18.42540285835082
 40
18.72824231409257
 40
19.02741838855771
 40
19.32662339323369
 40
19.62234501093122
 40
19.91809365217918
 40
20.21097226626199
 40
20.50387197182467
 40
20.79488328431655
 40
21.08590619969845
 40
21.37627043760543
 40
21.66663467551242
 40
21.66663467551242
 40
21.66663467551242
 40
21.66663467551242
 10
444.5872433938762
 20
244.0400014744898
 30
0.0
 10
444.575567726075
 20
244.1363765332068
 30
0.0
 10
444.5522168559733
 20
244.3291228082313
 30
0.0
 10
444.4828608625227
 20
244.613059317496
 30
0.0
 10
444.3894181049471
 20
244.8903235833549
 30
0.0
 10
444.2695111189701
 20
245.1590759672049
 30
0.0
 10
444.1254656137828
 20
245.4167213507247
 30
0.0
 10
443.9573990129375
 20
245.6619482979594
 30
0.0
 10
443.7675642798635
 20
245.8922116540165
 30
0.0
 10
443.5564281511962
 20
246.1064438625325
 30
0.0
 10
443.3266485475622
 20
246.3023982912954
 30
0.0
 10
443.078920015338
 20
246.4791556349161
 30
0.0
 10
442.8161877755039
 20
246.634926468883
 30
0.0
 10
442.5394367638623
 20
246.7688948862522
 30
0.0
 10
442.2517047860985
 20
246.8798179175376
 30
0.0
 10
441.9543513396758
 20
246.966994709909
 30
0.0
 10
441.6503053435327
 20
247.0297427200019
 30
0.0
 10
441.3413637477787
 20
247.0675430992141
 30
0.0
 10
441.0301741424759
 20
247.0802201727023
 30
0.0
 10
440.7189845371677
 20
247.0675430992144
 30
0.0
 10
440.4100429414302
 20
247.0297427200005
 30
0.0
 10
440.1059969452257
 20
246.9669947099136
 30
0.0
 10
439.8086434990316
 20
246.8798179175205
 30
0.0
 10
439.520911520417
 20
246.7688948863153
 30
0.0
 10
439.2441605119248
 20
246.6349264686498
 30
0.0
 10
438.9814282604008
 20
246.4791556357826
 30
0.0
 10
438.7336997713422
 20
246.3023982881012
 30
0.0
 10
438.5039200076217
 20
246.1064438743981
 30
0.0
 10
438.2927844695136
 20
245.8922116103268
 30
0.0
 10
438.1029475463862
 20
245.6619484602926
 30
0.0
 10
437.9348890282913
 20
245.4167207526974
 30
0.0
 10
437.7908135264985
 20
245.1590781910179
 30
0.0
 10
437.6710174560189
 20
244.8903153731267
 30
0.0
 10
437.5771624591774
 20
244.6130898874344
 30
0.0
 10
437.5093355525876
 20
244.3290095339319
 30
0.0
 10
437.4686405909638
 20
244.0406420534189
 30
0.0
 10
437.454874797399
 20
243.7499580197394
 30
0.0
 10
437.4686405909638
 20
243.4592739860598
 30
0.0
 10
437.5093355525877
 20
243.1709065055469
 30
0.0
 10
437.5771624591775
 20
242.8868261520444
 30
0.0
 10
437.6710174560187
 20
242.609600666352
 30
0.0
 10
437.7908135264984
 20
242.3408378484608
 30
0.0
 10
437.9348890282914
 20
242.0831952867814
 30
0.0
 10
438.1029475463863
 20
241.8379675791862
 30
0.0
 10
438.2927844695138
 20
241.6077044291517
 30
0.0
 10
438.5039200076215
 20
241.3934721650806
 30
0.0
 10
438.7336997713425
 20
241.1975177513776
 30
0.0
 10
438.9814282604006
 20
241.0207604036961
 30
0.0
 10
439.2441605119246
 20
240.8649895708288
 30
0.0
 10
439.5209115204169
 20
240.7310211531635
 30
0.0
 10
439.8086434990316
 20
240.6200981219581
 30
0.0
 10
440.1059969452257
 20
240.5329213295652
 30
0.0
 10
440.4100429414303
 20
240.470173319478
 30
0.0
 10
440.718984537168
 20
240.4323729402643
 30
0.0
 10
441.030174142475
 20
240.4196958667763
 30
0.0
 10
441.3413637477818
 20
240.4323729402643
 30
0.0
 10
441.6503053435208
 20
240.4701733194782
 30
0.0
 10
441.9543513397209
 20
240.5329213295648
 30
0.0
 10
442.2517047859312
 20
240.6200981219592
 30
0.0
 10
442.5394367644848
 20
240.7310211531589
 30
0.0
 10
442.816187773203
 20
240.8649895708455
 30
0.0
 10
443.0789200238888
 20
241.020760403634
 30
0.0
 10
443.3266485160427
 20
241.1975177516066
 30
0.0
 10
443.5564282682828
 20
241.3934721642297
 30
0.0
 10
443.7675638487426
 20
241.607704432285
 30
0.0
 10
443.957400614811
 20
241.8379675675445
 30
0.0
 10
444.1254597125583
 20
242.0831953296687
 30
0.0
 10
444.2695330631522
 20
242.3408376889806
 30
0.0
 10
444.389337087909
 20
242.6096012551465
 30
0.0
 10
444.4831625211143
 20
242.8868239597288
 30
0.0
 10
444.5510990857864
 20
243.1709146289851
 30
0.0
 10
444.5913856427027
 20
243.459243690056
 30
0.0
 10
444.6066723883871
 20
243.7500708027219
 30
0.0
 10
444.5937197253799
 20
243.9433579172339
 30
0.0
 10
444.5872433938762
 20
244.0400014744898
 30
0.0
 11
444.5872433938762
 21
244.0400014744898
 31
0.0
 11
444.5465194207898
 21
244.3281609707647
 31
0.0
 11
444.4790505507244
 21
244.6112431771472
 31
0.0
 11
444.3851030220856
 21
244.8886672196909
 31
0.0
 11
444.2659871482862
 21
245.1562289718083
 31
0.0
 11
444.121644018829
 21
245.4143613405235
 31
0.0
 11
443.9545838484133
 21
245.6583739931346
 31
0.0
 11
443.7642728168126
 21
245.8892534986655
 31
0.0
 11
443.5543618424571
 21
246.1024287936167
 31
0.0
 11
443.3239578593306
 21
246.298963117625
 31
0.0
 11
443.0775261366428
 21
246.4749366534246
 31
0.0
 11
442.8141438998049
 21
246.6311337938974
 31
0.0
 11
442.538584767027
 21
246.7646294818616
 31
0.0
 11
442.2503328461299
 21
246.8757794074188
 31
0.0
 11
441.9539063680894
 21
246.9627560614451
 31
0.0
 11
441.6496171755466
 21
247.0255611357665
 31
0.0
 11
441.341227359626
 21
247.0633364974381
 31
0.0
 11
441.030174142475
 21
247.0759916936517
 31
0.0
 11
440.719120925324
 21
247.0633364974381
 31
0.0
 11
440.4107311094034
 21
247.0255611357665
 31
0.0
 11
440.1064419168606
 21
246.962756061445
 31
0.0
 11
439.8100154388201
 21
246.8757794074187
 31
0.0
 11
439.5217635179229
 21
246.7646294818616
 31
0.0
 11
439.2462043851451
 21
246.6311337938974
 31
0.0
 11
438.9828221483073
 21
246.4749366534246
 31
0.0
 11
438.7363904256195
 21
246.298963117625
 31
0.0
 11
438.5059864424929
 21
246.1024287936167
 31
0.0
 11
438.2960754681375
 21
245.8892534986655
 31
0.0
 11
438.1057644365367
 21
245.6583739931346
 31
0.0
 11
437.9387042661211
 21
245.4143613405235
 31
0.0
 11
437.7943611366638
 21
245.1562289718083
 31
0.0
 11
437.6752452628645
 21
244.8886672196909
 31
0.0
 11
437.5812977342256
 21
244.6112431771472
 31
0.0
 11
437.5138288641603
 21
244.3281609707647
 31
0.0
 11
437.4731048910738
 21
244.0400014744898
 31
0.0
 11
437.4594599282036
 21
243.7499580197394
 31
0.0
 11
437.4731048910738
 21
243.4599145649889
 31
0.0
 11
437.5138288641603
 21
243.171755068714
 31
0.0
 11
437.5812977342256
 21
242.8886728623315
 31
0.0
 11
437.6752452628643
 21
242.6112488197877
 31
0.0
 11
437.7943611366638
 21
242.3436870676704
 31
0.0
 11
437.9387042661211
 21
242.0855546989552
 31
0.0
 11
438.1057644365367
 21
241.8415420463441
 31
0.0
 11
438.2960754681375
 21
241.6106625408132
 31
0.0
 11
438.5059864424929
 21
241.397487245862
 31
0.0
 11
438.7363904256195
 21
241.2009529218537
 31
0.0
 11
438.9828221483071
 21
241.0249793860541
 31
0.0
 11
439.2462043851449
 21
240.8687822455813
 31
0.0
 11
439.5217635179228
 21
240.7352865576171
 31
0.0
 11
439.8100154388201
 21
240.62413663206
 31
0.0
 11
440.1064419168606
 21
240.5371599780337
 31
0.0
 11
440.4107311094035
 21
240.4743549037121
 31
0.0
 11
440.719120925324
 21
240.4365795420405
 31
0.0
 11
441.030174142475
 21
240.4239243458269
 31
0.0
 11
441.341227359626
 21
240.4365795420405
 31
0.0
 11
441.6496171755466
 21
240.4743549037121
 31
0.0
 11
441.9539063680895
 21
240.5371599780336
 31
0.0
 11
442.2503328461298
 21
240.6241366320599
 31
0.0
 11
442.5385847670271
 21
240.7352865576171
 31
0.0
 11
442.814143899805
 21
240.8687822455813
 31
0.0
 11
443.0775261366428
 21
241.0249793860541
 31
0.0
 11
443.3239578593306
 21
241.2009529218537
 31
0.0
 11
443.5543618424571
 21
241.397487245862
 31
0.0
 11
443.7642728168125
 21
241.6106625408132
 31
0.0
 11
443.9545838484133
 21
241.8415420463441
 31
0.0
 11
444.121644018829
 21
242.0855546989552
 31
0.0
 11
444.2659871482862
 21
242.3436870676704
 31
0.0
 11
444.3851030220856
 21
242.6112488197877
 31
0.0
 11
444.4790505507244
 21
242.8886728623315
 31
0.0
 11
444.5465194207897
 21
243.171755068714
 31
0.0
 11
444.5872433938762
 21
243.4599145649889
 31
0.0
 11
444.6008883567465
 21
243.7499580197394
 31
0.0
 11
444.5872433938762
 21
244.0400014744898
 31
0.0
  0
SPLINE
  5
14A
330
48
100
AcDbEntity
  8
1
  6
Continuous
 62
     7
100
AcDbSpline
210
0.0
220
0.0
230
1.0
 70
    11
 71
     3
 72
    79
 73
    75
 74
    73
 42
0.0000000001
 43
0.0000000001
 44
0.00000001
 40
0.0
 40
0.0
 40
0.0
 40
0.0
 40
0.3261285623002488
 40
0.6517434317457546
 40
1.007597961146826
 40
1.362821877734772
 40
1.759927766176529
 40
2.15656433517533
 40
2.599261974949935
 40
3.041659941790465
 40
3.528366327139167
 40
4.014888773112027
 40
4.539679837310338
 40
5.06436062829285
 40
5.618299489951069
 40
6.172176031948209
 40
6.744347787841657
 40
7.316491366549708
 40
7.894854140806455
 40
8.473216915063288
 40
9.045360493771367
 40
9.617532249664844
 40
10.17140879166186
 40
10.72534765332012
 40
11.25002844430263
 40
11.77481950850092
 40
12.26134195447381
 40
12.74804833982251
 40
13.19044630666301
 40
13.63314394643765
 40
14.02978051543638
 40
14.42688640387825
 40
14.78211032046616
 40
15.13796484986722
 40
15.46357971931277
 40
15.78970828161296
 40
16.10463414862438
 40
16.4195600156358
 40
16.74568857793582
 40
17.07130344738142
 40
17.42715797678261
 40
17.7823818933705
 40
18.17948778181223
 40
18.57612435081102
 40
19.01882199058565
 40
19.46121995742616
 40
19.94792634277483
 40
20.43444878874771
 40
20.95923985294602
 40
21.48392064392854
 40
22.03785950558686
 40
22.5917360475839
 40
23.16390780347734
 40
23.73605138218539
 40
24.31441415644217
 40
24.89277693069894
 40
25.46492050940694
 40
26.03709226530044
 40
26.59096880729751
 40
27.1449076689558
 40
27.66958845993831
 40
28.19437952413664
 40
28.6809019701095
 40
29.1676083554582
 40
29.61000632229868
 40
30.05270396207325
 40
30.44934053107194
 40
30.84644641951382
 40
31.2016703361019
 40
31.557524865503
 40
31.88313973494847
 40
32.20926829724855
 40
32.52419416425997
 40
32.83912003127144
 40
32.83912003127144
 40
32.83912003127144
 40
32.83912003127144
 10
440.7163473795619
 20
262.5000929131155
 30
0.0
 10
440.6097543513272
 20
262.4775357168239
 30
0.0
 10
440.3967361920715
 20
262.4324568546171
 30
0.0
 10
440.0869076797241
 20
262.2979294908498
 30
0.0
 10
439.7891137491769
 20
262.1211855829654
 30
0.0
 10
439.4979580474926
 20
261.8923044513706
 30
0.0
 10
439.2245563140199
 20
261.6230865003132
 30
0.0
 10
438.9605877211894
 20
261.3058165086508
 30
0.0
 10
438.7175730567301
 20
260.9537638893723
 30
0.0
 10
438.4879110673978
 20
260.5578905562297
 30
0.0
 10
438.2813529688194
 20
260.1331819031599
 30
0.0
 10
438.0923438424965
 20
259.6706645184252
 30
0.0
 10
437.9280244109461
 20
259.1854237967386
 30
0.0
 10
437.7850040890139
 20
258.6701822692518
 30
0.0
 10
437.6678476561714
 20
258.1385168249296
 30
0.0
 10
437.5748706322664
 20
257.5860677128515
 30
0.0
 10
437.5085493172275
 20
257.023676726447
 30
0.0
 10
437.4682017014733
 20
256.450659989871
 30
0.0
 10
437.4549109143803
 20
255.8743136727253
 30
0.0
 10
437.4682017014712
 20
255.2979673555572
 30
0.0
 10
437.5085493172361
 20
254.7249506190475
 30
0.0
 10
437.5748706322345
 20
254.1625596324027
 30
0.0
 10
437.6678476562862
 20
253.6101105211938
 30
0.0
 10
437.785004088595
 20
253.078445073706
 30
0.0
 10
437.9280244124185
 20
252.5632035574376
 30
0.0
 10
438.0923438371599
 20
252.0779627953648
 30
0.0
 10
438.2813529871311
 20
251.6154455508968
 30
0.0
 10
438.4879110014913
 20
251.1907363982975
 30
0.0
 10
438.7175732780051
 20
250.7948647685332
 30
0.0
 10
438.9605869285465
 20
250.442806135342
 30
0.0
 10
439.2245589335432
 20
250.1255563824668
 30
0.0
 10
439.4979486599797
 20
249.8562672133544
 30
0.0
 10
439.789144726399
 20
249.6276254995311
 30
0.0
 10
440.0867955821587
 20
249.4500329635854
 30
0.0
 10
440.3971154986331
 20
249.3184202945734
 30
0.0
 10
440.711284179433
 20
249.2409954689027
 30
0.0
 10
441.0301741424751
 20
249.213035577475
 30
0.0
 10
441.3490641055171
 20
249.2409954689027
 30
0.0
 10
441.6632327863169
 20
249.3184202945735
 30
0.0
 10
441.9735527027912
 20
249.4500329635854
 30
0.0
 10
442.2712035585512
 20
249.6276254995311
 30
0.0
 10
442.5623996249703
 20
249.8562672133544
 30
0.0
 10
442.8357893514068
 20
250.1255563824668
 30
0.0
 10
443.0997613564035
 20
250.442806135342
 30
0.0
 10
443.3427750069448
 20
250.7948647685333
 30
0.0
 10
443.572437283459
 20
251.1907363982974
 30
0.0
 10
443.7789952978188
 20
251.6154455508968
 30
0.0
 10
443.9680044477902
 20
252.0779627953648
 30
0.0
 10
444.1323238725315
 20
252.5632035574377
 30
0.0
 10
444.2753441963551
 20
253.078445073706
 30
0.0
 10
444.3925006286639
 20
253.6101105211937
 30
0.0
 10
444.4854776527156
 20
254.1625596324029
 30
0.0
 10
444.5517989677137
 20
254.7249506190473
 30
0.0
 10
444.592146583479
 20
255.2979673555581
 30
0.0
 10
444.6054373705689
 20
255.8743136727218
 30
0.0
 10
444.5921465834791
 20
256.4506599898838
 30
0.0
 10
444.5517989677132
 20
257.0236767263994
 30
0.0
 10
444.485477652718
 20
257.5860677130269
 30
0.0
 10
444.3925006286557
 20
258.1385168242973
 30
0.0
 10
444.2753441963847
 20
258.6701822715619
 30
0.0
 10
444.1323238724276
 20
259.1854237886214
 30
0.0
 10
443.9680044481665
 20
259.6706645478456
 30
0.0
 10
443.7789952965272
 20
260.1331818022075
 30
0.0
 10
443.5724372881077
 20
260.5578909195721
 30
0.0
 10
443.3427749913369
 20
260.9537626694857
 30
0.0
 10
443.0997614123135
 20
261.3058208784792
 30
0.0
 10
442.8357891666361
 20
261.623072058919
 30
0.0
 10
442.5624002871285
 20
261.8923562045897
 30
0.0
 10
442.2712013735397
 20
262.1210148060015
 30
0.0
 10
441.9735606097127
 20
262.2985474830595
 30
0.0
 10
441.6632060315232
 20
262.4303657431823
 30
0.0
 10
441.3491629738828
 20
262.5070454526751
 30
0.0
 10
441.0298191862513
 20
262.5376971410974
 30
0.0
 10
440.8208379817916
 20
262.5126276557762
 30
0.0
 10
440.7163473795618
 20
262.5000929131155
 30
0.0
 11
440.7163473795619
 21
262.5000929131155
 31
0.0
 11
440.3997263017819
 21
262.4219204611041
 31
0.0
 11
440.0993549142816
 21
262.2962141654179
 31
0.0
 11
439.7932995068179
 21
262.1146582961723
 31
0.0
 11
439.5131176105003
 21
261.8962959003896
 31
0.0
 11
439.229304850339
 21
261.6185488863557
 31
0.0
 11
438.9748995651886
 21
261.3142488391085
 31
0.0
 11
438.7224279380865
 21
260.9506016505171
 31
0.0
 11
438.4998587253266
 21
260.5682681487205
 31
0.0
 11
438.2861308733046
 21
260.1309999120404
 31
0.0
 11
438.101664638457
 21
259.6808040672833
 31
0.0
 11
437.9326789257262
 21
259.1839645660807
 31
0.0
 11
437.7920629962435
 21
258.678477580292
 31
0.0
 11
437.6723916435104
 21
258.1376199004998
 31
0.0
 11
437.580321137432
 21
257.5914493724729
 31
0.0
 11
437.513020601094
 21
257.0232494463458
 31
0.0
 11
437.4728240544193
 21
256.4525196396139
 31
0.0
 11
437.4593571135596
 21
255.8743136727216
 31
0.0
 11
437.4728240544193
 21
255.2961077058292
 31
0.0
 11
437.513020601094
 21
254.7253778990972
 31
0.0
 11
437.580321137432
 21
254.1571779729701
 31
0.0
 11
437.6723916435103
 21
253.6110074449433
 31
0.0
 11
437.7920629962435
 21
253.0701497651511
 31
0.0
 11
437.9326789257262
 21
252.5646627793624
 31
0.0
 11
438.101664638457
 21
252.0678232781598
 31
0.0
 11
438.2861308733046
 21
251.6176274334027
 31
0.0
 11
438.4998587253266
 21
251.1803591967226
 31
0.0
 11
438.7224279380865
 21
250.798025694926
 31
0.0
 11
438.9748995651886
 21
250.4343785063346
 31
0.0
 11
439.2293048503389
 21
250.1300784590874
 31
0.0
 11
439.5131176105003
 21
249.8523314450534
 31
0.0
 11
439.7932995068179
 21
249.6339690492708
 31
0.0
 11
440.0993549142816
 21
249.4524131800252
 31
0.0
 11
440.3997263017819
 21
249.3267068843391
 31
0.0
 11
440.7163473795619
 21
249.2485344323277
 31
0.0
 11
441.0301741424751
 21
249.2222463248965
 31
0.0
 11
441.3440009053883
 21
249.2485344323277
 31
0.0
 11
441.660621983168
 21
249.326706884339
 31
0.0
 11
441.9609933706685
 21
249.4524131800252
 31
0.0
 11
442.2670487781322
 21
249.6339690492708
 31
0.0
 11
442.5472306744498
 21
249.8523314450534
 31
0.0
 11
442.8310434346111
 21
250.1300784590873
 31
0.0
 11
443.0854487197614
 21
250.4343785063346
 31
0.0
 11
443.3379203468635
 21
250.7980256949261
 31
0.0
 11
443.5604895596234
 21
251.1803591967226
 31
0.0
 11
443.7742174116453
 21
251.6176274334027
 31
0.0
 11
443.958683646493
 21
252.0678232781598
 31
0.0
 11
444.1276693592238
 21
252.5646627793624
 31
0.0
 11
444.2682852887065
 21
253.0701497651511
 31
0.0
 11
444.3879566414398
 21
253.6110074449434
 31
0.0
 11
444.4800271475181
 21
254.1571779729702
 31
0.0
 11
444.5473276838559
 21
254.7253778990973
 31
0.0
 11
444.5875242305306
 21
255.2961077058292
 31
0.0
 11
444.6009911713903
 21
255.8743136727215
 31
0.0
 11
444.5875242305307
 21
256.4525196396139
 31
0.0
 11
444.547327683856
 21
257.0232494463457
 31
0.0
 11
444.4800271475181
 21
257.5914493724729
 31
0.0
 11
444.3879566414398
 21
258.1376199004997
 31
0.0
 11
444.2682852887066
 21
258.678477580292
 31
0.0
 11
444.1276693592239
 21
259.1839645660807
 31
0.0
 11
443.958683646493
 21
259.6808040672833
 31
0.0
 11
443.7742174116454
 21
260.1309999120404
 31
0.0
 11
443.5604895596234
 21
260.5682681487205
 31
0.0
 11
443.3379203468635
 21
260.950601650517
 31
0.0
 11
443.0854487197615
 21
261.3142488391084
 31
0.0
 11
442.8310434346112
 21
261.6185488863557
 31
0.0
 11
442.5472306744498
 21
261.8962959003896
 31
0.0
 11
442.2670487781321
 21
262.1146582961723
 31
0.0
 11
441.9609933706684
 21
262.2962141654178
 31
0.0
 11
441.6606219831681
 21
262.4219204611041
 31
0.0
 11
441.3440009053883
 21
262.5000929131155
 31
0.0
 11
441.0301741424751
 21
262.5263810205466
 31
0.0
 11
440.7163473795618
 21
262.5000929131155
 31
0.0
  0
ARC
  5
14B
330
48
100
AcDbEntity
  8
1
  6
Continuous
 62
     7
100
AcDbCircle
 10
437.1726371779166
 20
244.316292610991
 30
0.0
 40
1.0
100
AcDbArc
 50
180.0
 51
-164.6624423304399
  0
ARC
  5
14C
330
48
100
AcDbEntity
  8
1
  6
Continuous
 62
     7
100
AcDbCircle
 10
436.1726371779166
 20
246.1063644802902
 30
0.0
 40
1.0
100
AcDbArc
 50
180.0
 51
-120.0000000000038
  0
ARC
  5
14D
330
48
100
AcDbEntity
  8
1
  6
Continuous
 62
     7
100
AcDbCircle
 10
435.1726371779166
 20
244.3743136727215
 30
0.0
 40
1.0
100
AcDbArc
 50
0.0
 51
59.99999999999865
  0
ARC
  5
14E
330
48
100
AcDbEntity
  8
1
  6
Continuous
 62
     7
100
AcDbCircle
 10
437.1726371779166
 20
267.432334734452
 30
0.0
 40
1.000000000000074
100
AcDbArc
 50
164.6624423304322
 51
180.0
  0
ARC
  5
14F
330
48
100
AcDbEntity
  8
1
  6
Continuous
 62
     7
100
AcDbCircle
 10
436.1726371779166
 20
265.6422628651527
 30
0.0
 40
1.000000000000033
100
AcDbArc
 50
119.9999999999989
 51
180.0
  0
ARC
  5
150
330
48
100
AcDbEntity
  8
1
  6
Continuous
 62
     7
100
AcDbCircle
 10
435.1726371779166
 20
267.3743136727215
 30
0.0
 40
0.9999999999998851
100
AcDbArc
 50
-59.99999999999621
 51
0.0
  0
ARC
  5
151
330
48
100
AcDbEntity
  8
1
  6
Continuous
 62
     7
100
AcDbCircle
 10
157.7617811945551
 20
686.926001591971
 30
0.0
 40
1.0
100
AcDbArc
 50
-90.0
 51
-42.9414028648766
  0
ARC
  5
152
330
48
100
AcDbEntity
  8
1
  6
Continuous
 62
     7
100
AcDbCircle
 10
159.5518530638546
 20
687.926001591971
 30
0.0
 40
1.0
100
AcDbArc
 50
-90.0
 51
-74.66244233044253
  0
ARC
  5
153
330
48
100
AcDbEntity
  8
1
  6
Continuous
 62
     7
100
AcDbCircle
 10
157.7617811945551
 20
686.926001591971
 30
0.0
 40
0.9999999999999722
100
AcDbArc
 50
-42.9414028648766
 51
-29.99999999999892
  0
ARC
  5
154
330
48
100
AcDbEntity
  8
1
  6
Continuous
 62
     7
100
AcDbCircle
 10
159.493832002124
 20
685.926001591971
 30
0.0
 40
1.0
100
AcDbArc
 50
90.0
 51
149.9999999999995
  0
ARC
  5
155
330
48
100
AcDbEntity
  8
1
  6
Continuous
 62
     7
100
AcDbCircle
 10
138.2258828096929
 20
686.926001591971
 30
0.0
 40
0.9999999999999722
100
AcDbArc
 50
-137.0585971351234
 51
-90.0
  0
ARC
  5
156
330
48
100
AcDbEntity
  8
1
  6
Continuous
 62
     7
100
AcDbCircle
 10
136.4358109403934
 20
687.926001591971
 30
0.0
 40
1.000000000000024
100
AcDbArc
 50
-105.3375576695449
 51
-90.0
  0
ARC
  5
157
330
48
100
AcDbEntity
  8
1
  6
Continuous
 62
     7
100
AcDbCircle
 10
138.2258828096929
 20
686.926001591971
 30
0.0
 40
0.9999999999999589
100
AcDbArc
 50
-149.9999999999987
 51
-137.0585971351234
  0
ARC
  5
158
330
48
100
AcDbEntity
  8
1
  6
Continuous
 62
     7
100
AcDbCircle
 10
136.493832002124
 20
685.926001591971
 30
0.0
 40
1.000000000000058
100
AcDbArc
 50
29.9999999999981
 51
90.0
  0
ENDBLK
  5
4A
330
48
100
AcDbEntity
  8
0
100
AcDbBlockEnd
  0
BLOCK
  5
4C
330
4B
100
AcDbEntity
  8
0
100
AcDbBlockBegin
  2
_J__A4
 70
     0
 71
     0
 10
28.24356919628571
 20
-18.12979451372661
 30
0.0
  3
_J__A4
  1

  0
POINT
  5
159
330
4B
100
AcDbEntity
  8
1
 62
     4
100
AcDbPoint
 10
62.24356919628571
 20
15.8702054862734
 30
0.0
  0
POINT
  5
15A
330
4B
100
AcDbEntity
  8
1
 62
     4
100
AcDbPoint
 10
85.24356919628571
 20
-5.87979451372661
 30
0.0
  0
POINT
  5
15B
330
4B
100
AcDbEntity
  8
1
 62
     4
100
AcDbPoint
 10
85.24356919628571
 20
2.6202054862734
 30
0.0
  0
POINT
  5
15C
330
4B
100
AcDbEntity
  8
1
 62
     4
100
AcDbPoint
 10
85.24356919628571
 20
6.6202054862734
 30
0.0
  0
POINT
  5
15D
330
4B
100
AcDbEntity
  8
1
 62
     4
100
AcDbPoint
 10
85.24356919628571
 20
-1.87979451372661
 30
0.0
  0
POINT
  5
15E
330
4B
100
AcDbEntity
  8
1
 62
     4
100
AcDbPoint
 10
185.7435691962857
 20
0.8702054862734
 30
0.0
  0
POINT
  5
15F
330
4B
100
AcDbEntity
  8
1
 62
     4
100
AcDbPoint
 10
75.74356919628571
 20
263.8702054862737
 30
0.0
  0
POINT
  5
160
330
4B
100
AcDbEntity
  8
1
 62
     4
100
AcDbPoint
 10
85.24356919628571
 20
4.6202054862734
 30
0.0
  0
POINT
  5
161
330
4B
100
AcDbEntity
  8
1
 62
     4
100
AcDbPoint
 10
85.24356919628571
 20
-3.87979451372661
 30
0.0
  0
POINT
  5
162
330
4B
100
AcDbEntity
  8
1
 62
     4
100
AcDbPoint
 10
185.7435691962857
 20
-5.62979451372661
 30
0.0
  0
POINT
  5
163
330
4B
100
AcDbEntity
  8
1
 62
     4
100
AcDbPoint
 10
191.4935691962857
 20
-5.62979451372661
 30
0.0
  0
POINT
  5
164
330
4B
100
AcDbEntity
  8
1
 62
     4
100
AcDbPoint
 10
179.9935691962857
 20
-5.62979451372661
 30
0.0
  0
POINT
  5
165
330
4B
100
AcDbEntity
  8
1
 62
     4
100
AcDbPoint
 10
162.9935691962857
 20
-5.62979451372661
 30
0.0
  0
POINT
  5
166
330
4B
100
AcDbEntity
  8
1
 62
     4
100
AcDbPoint
 10
174.4935691962857
 20
-5.62979451372661
 30
0.0
  0
POINT
  5
167
330
4B
100
AcDbEntity
  8
1
 62
     4
100
AcDbPoint
 10
168.7435691962857
 20
-5.62979451372661
 30
0.0
  0
POINT
  5
168
330
4B
100
AcDbEntity
  8
1
 62
     4
100
AcDbPoint
 10
168.7435691962857
 20
0.8702054862734
 30
0.0
  0
POINT
  5
169
330
4B
100
AcDbEntity
  8
1
 62
     4
100
AcDbPoint
 10
145.9935691962857
 20
-5.62979451372661
 30
0.0
  0
POINT
  5
16A
330
4B
100
AcDbEntity
  8
1
 62
     4
100
AcDbPoint
 10
157.4935691962857
 20
-5.62979451372661
 30
0.0
  0
POINT
  5
16B
330
4B
100
AcDbEntity
  8
1
 62
     4
100
AcDbPoint
 10
151.7435691962857
 20
-5.62979451372661
 30
0.0
  0
POINT
  5
16C
330
4B
100
AcDbEntity
  8
1
 62
     4
100
AcDbPoint
 10
151.7435691962857
 20
0.8702054862734
 30
0.0
  0
POINT
  5
16D
330
4B
100
AcDbEntity
  8
1
 62
     4
100
AcDbPoint
 10
128.9935691962857
 20
-5.62979451372661
 30
0.0
  0
POINT
  5
16E
330
4B
100
AcDbEntity
  8
1
 62
     4
100
AcDbPoint
 10
140.4935691962857
 20
-5.62979451372661
 30
0.0
  0
POINT
  5
16F
330
4B
100
AcDbEntity
  8
1
 62
     4
100
AcDbPoint
 10
134.7435691962857
 20
-5.62979451372661
 30
0.0
  0
POINT
  5
170
330
4B
100
AcDbEntity
  8
1
 62
     4
100
AcDbPoint
 10
134.7435691962857
 20
0.8702054862734
 30
0.0
  0
POINT
  5
171
330
4B
100
AcDbEntity
  8
1
 62
     4
100
AcDbPoint
 10
113.4935691962857
 20
-1.12979451372661
 30
0.0
  0
POINT
  5
172
330
4B
100
AcDbEntity
  8
1
 62
     4
100
AcDbPoint
 10
121.9935691962857
 20
-1.12979451372661
 30
0.0
  0
LINE
  5
173
330
4B
100
AcDbEntity
  8
1
  6
Continuous
 62
     2
100
AcDbLine
 10
109.2435691962857
 20
8.8702054862734
 30
0.0
 11
109.2435691962857
 21
-8.12979451372661
 31
0.0
  0
LINE
  5
174
330
4B
100
AcDbEntity
  8
1
  6
DOT_CENTER
 62
     2
100
AcDbLine
 10
215.2435691962857
 20
8.3702054862734
 30
0.0
 11
215.2435691962857
 21
2.3702054862734
 31
0.0
  0
LINE
  5
175
330
4B
100
AcDbEntity
  8
1
  6
DOT_CENTER
 62
     2
100
AcDbLine
 10
212.2435691962857
 20
5.3702054862734
 30
0.0
 11
225.2435691962857
 21
5.3702054862734
 31
0.0
  0
LINE
  5
176
330
4B
100
AcDbEntity
  8
1
  6
Continuous
 62
     7
100
AcDbLine
 10
224.2435691962857
 20
3.3702054862734
 30
0.0
 11
219.2435691962857
 21
4.1702054862734
 31
0.0
  0
LINE
  5
177
330
4B
100
AcDbEntity
  8
1
  6
Continuous
 62
     7
100
AcDbLine
 10
224.2435691962857
 20
7.3702054862734
 30
0.0
 11
224.2435691962857
 21
3.3702054862734
 31
0.0
  0
LINE
  5
178
330
4B
100
AcDbEntity
  8
1
  6
Continuous
 62
     7
100
AcDbLine
 10
219.2435691962857
 20
6.5702054862734
 30
0.0
 11
224.2435691962857
 21
7.3702054862734
 31
0.0
  0
LINE
  5
179
330
4B
100
AcDbEntity
  8
1
  6
Continuous
 62
     7
100
AcDbLine
 10
219.2435691962857
 20
6.5702054862734
 30
0.0
 11
219.2435691962857
 21
4.1702054862734
 31
0.0
  0
LINE
  5
17A
330
4B
100
AcDbEntity
  8
1
  6
Continuous
 62
     2
100
AcDbLine
 10
61.24356919628571
 20
8.87020548627339
 30
0.0
 11
61.24356919628571
 21
-8.12979451372661
 31
0.0
  0
LINE
  5
17B
330
4B
100
AcDbEntity
  8
1
  6
Continuous
 62
     2
100
AcDbLine
 10
53.24356919628571
 20
0.3702054862734
 30
0.0
 11
109.2435691962857
 21
0.3702054862734
 31
0.0
  0
LINE
  5
17C
330
4B
100
AcDbEntity
  8
1
  6
Continuous
 62
     7
100
AcDbLine
 10
228.2435691962857
 20
268.8702054862737
 30
0.0
 11
133.2435691962857
 21
268.8702054862737
 31
0.0
  0
LINE
  5
17D
330
4B
100
AcDbEntity
  8
1
  6
Continuous
 62
     7
100
AcDbLine
 10
228.2435691962857
 20
-8.12979451372661
 30
0.0
 11
228.2435691962857
 21
130.3702054862734
 31
0.0
  0
LINE
  5
17E
330
4B
100
AcDbEntity
  8
1
  6
Continuous
 62
     7
100
AcDbLine
 10
53.24356919628571
 20
-8.12979451372661
 30
0.0
 11
133.2435691962857
 21
-8.12979451372661
 31
0.0
  0
LINE
  5
17F
330
4B
100
AcDbEntity
  8
1
  6
PHANTOM
 62
     4
100
AcDbLine
 10
28.24356919628571
 20
278.8702054862734
 30
0.0
 11
28.24356919628571
 21
-18.12979451372661
 31
0.0
  0
LINE
  5
180
330
4B
100
AcDbEntity
  8
1
  6
PHANTOM
 62
     4
100
AcDbLine
 10
238.2435691962857
 20
278.8702054862734
 30
0.0
 11
28.24356919628571
 21
278.8702054862734
 31
0.0
  0
LINE
  5
181
330
4B
100
AcDbEntity
  8
1
  6
PHANTOM
 62
     4
100
AcDbLine
 10
238.2435691962857
 20
-18.12979451372661
 30
0.0
 11
238.2435691962857
 21
278.8702054862734
 31
0.0
  0
LINE
  5
182
330
4B
100
AcDbEntity
  8
1
  6
PHANTOM
 62
     4
100
AcDbLine
 10
28.24356919628571
 20
-18.12979451372661
 30
0.0
 11
238.2435691962857
 21
-18.12979451372661
 31
0.0
  0
LINE
  5
183
330
4B
100
AcDbEntity
  8
1
  6
Continuous
 62
     7
100
AcDbLine
 10
53.24356919628571
 20
22.87020548627339
 30
0.0
 11
228.2435691962857
 21
22.87020548627339
 31
0.0
  0
LINE
  5
184
330
4B
100
AcDbEntity
  8
1
  6
Continuous
 62
     7
100
AcDbLine
 10
228.2435691962857
 20
8.8702054862734
 30
0.0
 11
53.24356919628571
 21
8.8702054862734
 31
0.0
  0
LINE
  5
185
330
4B
100
AcDbEntity
  8
1
  6
Continuous
 62
     2
100
AcDbLine
 10
61.24356919628571
 20
22.8702054862734
 30
0.0
 11
61.24356919628571
 21
8.87020548627339
 31
0.0
  0
LINE
  5
186
330
4B
100
AcDbEntity
  8
1
  6
Continuous
 62
     2
100
AcDbLine
 10
83.24356919628571
 20
268.8702054862737
 30
0.0
 11
83.24356919628571
 21
258.8702054862737
 31
0.0
  0
LINE
  5
187
330
4B
100
AcDbEntity
  8
1
  6
Continuous
 62
     2
100
AcDbLine
 10
68.24356919628571
 20
268.8702054862737
 30
0.0
 11
68.24356919628571
 21
258.8702054862737
 31
0.0
  0
LINE
  5
188
330
4B
100
AcDbEntity
  8
1
  6
Continuous
 62
     7
100
AcDbLine
 10
53.24356919628571
 20
-8.12979451372661
 30
0.0
 11
53.24356919628571
 21
130.3702054862734
 31
0.0
  0
LINE
  5
189
330
4B
100
AcDbEntity
  8
1
  6
Continuous
 62
     2
100
AcDbLine
 10
83.24356919628571
 20
258.8702054862737
 30
0.0
 11
53.24356919628571
 21
258.8702054862737
 31
0.0
  0
LINE
  5
18A
330
4B
100
AcDbEntity
  8
1
  6
Continuous
 62
     2
100
AcDbLine
 10
194.2435691962857
 20
8.8702054862734
 30
0.0
 11
194.2435691962857
 21
-8.12979451372661
 31
0.0
  0
LINE
  5
18B
330
4B
100
AcDbEntity
  8
1
  6
Continuous
 62
     2
100
AcDbLine
 10
160.2435691962857
 20
8.8702054862734
 30
0.0
 11
160.2435691962857
 21
-8.12979451372662
 31
0.0
  0
LINE
  5
18C
330
4B
100
AcDbEntity
  8
1
  6
Continuous
 62
     2
100
AcDbLine
 10
177.2435691962857
 20
8.8702054862734
 30
0.0
 11
177.2435691962857
 21
-8.12979451372661
 31
0.0
  0
LINE
  5
18D
330
4B
100
AcDbEntity
  8
1
  6
Continuous
 62
     2
100
AcDbLine
 10
143.2435691962857
 20
8.8702054862734
 30
0.0
 11
143.2435691962857
 21
-8.12979451372662
 31
0.0
  0
LINE
  5
18E
330
4B
100
AcDbEntity
  8
1
  6
Continuous
 62
     2
100
AcDbLine
 10
126.2435691962857
 20
8.8702054862734
 30
0.0
 11
126.2435691962857
 21
-8.12979451372662
 31
0.0
  0
LINE
  5
18F
330
4B
100
AcDbEntity
  8
1
  6
Continuous
 62
     2
100
AcDbLine
 10
194.2435691962857
 20
1.8702054862734
 30
0.0
 11
228.2435691962857
 21
1.8702054862734
 31
0.0
  0
LINE
  5
190
330
4B
100
AcDbEntity
  8
1
  6
Continuous
 62
     2
100
AcDbLine
 10
133.2435691962857
 20
268.8702054862737
 30
0.0
 11
133.2435691962857
 21
273.8702054862737
 31
0.0
  0
LINE
  5
191
330
4B
100
AcDbEntity
  8
1
  6
Continuous
 62
     7
100
AcDbLine
 10
133.2435691962857
 20
268.8702054862737
 30
0.0
 11
53.24356919628571
 21
268.8702054862737
 31
0.0
  0
LINE
  5
192
330
4B
100
AcDbEntity
  8
1
  6
Continuous
 62
     2
100
AcDbLine
 10
53.24356919628571
 20
130.3702054862734
 30
0.0
 11
48.24356919628571
 21
130.3702054862734
 31
0.0
  0
LINE
  5
193
330
4B
100
AcDbEntity
  8
1
  6
Continuous
 62
     7
100
AcDbLine
 10
53.24356919628571
 20
130.3702054862734
 30
0.0
 11
53.24356919628571
 21
268.8702054862737
 31
0.0
  0
LINE
  5
194
330
4B
100
AcDbEntity
  8
1
  6
Continuous
 62
     2
100
AcDbLine
 10
228.2435691962857
 20
130.3702054862734
 30
0.0
 11
233.2435691962857
 21
130.3702054862734
 31
0.0
  0
LINE
  5
195
330
4B
100
AcDbEntity
  8
1
  6
Continuous
 62
     7
100
AcDbLine
 10
228.2435691962857
 20
130.3702054862734
 30
0.0
 11
228.2435691962857
 21
268.8702054862737
 31
0.0
  0
LINE
  5
196
330
4B
100
AcDbEntity
  8
1
  6
Continuous
 62
     2
100
AcDbLine
 10
133.2435691962857
 20
-8.12979451372661
 30
0.0
 11
133.2435691962857
 21
-13.12979451372661
 31
0.0
  0
LINE
  5
197
330
4B
100
AcDbEntity
  8
1
  6
Continuous
 62
     7
100
AcDbLine
 10
133.2435691962857
 20
-8.12979451372661
 30
0.0
 11
228.2435691962857
 21
-8.12979451372661
 31
0.0
  0
CIRCLE
  5
198
330
4B
100
AcDbEntity
  8
1
  6
DOT_CENTER
 62
     7
100
AcDbCircle
 10
117.7435691962857
 20
-0.12979451372661
 30
0.0
 40
0.0999999999999943
  0
CIRCLE
  5
199
330
4B
100
AcDbEntity
  8
1
  6
DOT_CENTER
 62
     7
100
AcDbCircle
 10
117.7435691962857
 20
-2.12979451372661
 30
0.0
 40
0.0999999999999943
  0
CIRCLE
  5
19A
330
4B
100
AcDbEntity
  8
1
  6
Continuous
 62
     7
100
AcDbCircle
 10
215.2435691962857
 20
5.3702054862734
 30
0.0
 40
2.0
  0
CIRCLE
  5
19B
330
4B
100
AcDbEntity
  8
1
  6
Continuous
 62
     7
100
AcDbCircle
 10
215.2435691962857
 20
5.3702054862734
 30
0.0
 40
1.200000000000102
  0
CIRCLE
  5
19C
330
4B
100
AcDbEntity
  8
1
  6
Continuous
 62
     7
100
AcDbCircle
 10
182.7435691962857
 20
-5.62979451372661
 30
0.0
 40
0.299999999999983
  0
CIRCLE
  5
19D
330
4B
100
AcDbEntity
  8
1
  6
Continuous
 62
     7
100
AcDbCircle
 10
188.7435691962857
 20
-5.62979451372661
 30
0.0
 40
0.299999999999983
  0
CIRCLE
  5
19E
330
4B
100
AcDbEntity
  8
1
  6
Continuous
 62
     7
100
AcDbCircle
 10
171.7435691962857
 20
-5.62979451372661
 30
0.0
 40
0.299999999999983
  0
CIRCLE
  5
19F
330
4B
100
AcDbEntity
  8
1
  6
Continuous
 62
     7
100
AcDbCircle
 10
165.7435691962857
 20
-5.62979451372661
 30
0.0
 40
0.299999999999983
  0
CIRCLE
  5
1A0
330
4B
100
AcDbEntity
  8
1
  6
Continuous
 62
     7
100
AcDbCircle
 10
154.7435691962857
 20
-5.62979451372661
 30
0.0
 40
0.299999999999983
  0
CIRCLE
  5
1A1
330
4B
100
AcDbEntity
  8
1
  6
Continuous
 62
     7
100
AcDbCircle
 10
148.7435691962857
 20
-5.62979451372661
 30
0.0
 40
0.299999999999983
  0
CIRCLE
  5
1A2
330
4B
100
AcDbEntity
  8
1
  6
Continuous
 62
     7
100
AcDbCircle
 10
137.7435691962857
 20
-5.62979451372661
 30
0.0
 40
0.299999999999983
  0
CIRCLE
  5
1A3
330
4B
100
AcDbEntity
  8
1
  6
Continuous
 62
     7
100
AcDbCircle
 10
131.7435691962857
 20
-5.62979451372661
 30
0.0
 40
0.299999999999983
  0
MTEXT
  5
1A5
330
4B
100
AcDbEntity
  8
1
 62
   250
100
AcDbMText
 10
53.24356919628571
 20
-13.12979451372661
 30
0.0
 40
3.5
 41
0.0
 71
     4
 72
     1
  1
備考欄の文字列 原点位置=4
  7
CONVERTER_1
 73
     1
 44
0.7202881152461
  0
MTEXT
  5
1A6
330
4B
100
AcDbEntity
  8
1
 62
     2
100
AcDbMText
 10
117.7435691962857
 20
5.8702054862734
 30
0.0
 40
3.5
 41
0.0
 71
     5
 72
     1
  1
尺度
  7
CONVERTER_1
 73
     1
 44
0.7202881152461
  0
MTEXT
  5
1A7
330
4B
100
AcDbEntity
  8
1
 62
     2
100
AcDbMText
 10
163.7435691962857
 20
6.8702054862734
 30
0.0
 40
3.0
 41
0.0
 71
     5
 72
     1
  1
製図
  7
CONVERTER_1
 73
     1
 44
0.78031212484994
  0
MTEXT
  5
1A8
330
4B
100
AcDbEntity
  8
1
 62
     2
100
AcDbMText
 10
180.7435691962857
 20
6.8702054862734
 30
0.0
 40
3.0
 41
0.0
 71
     5
 72
     1
  1
設計
  7
CONVERTER_1
 73
     1
 44
0.78031212484994
  0
MTEXT
  5
1A9
330
4B
100
AcDbEntity
  8
1
 62
     2
100
AcDbMText
 10
146.7435691962857
 20
6.8702054862734
 30
0.0
 40
3.0
 41
0.0
 71
     5
 72
     1
  1
検図
  7
CONVERTER_1
 73
     1
 44
0.78031212484994
  0
MTEXT
  5
1AA
330
4B
100
AcDbEntity
  8
1
 62
     2
100
AcDbMText
 10
203.2435691962857
 20
5.3702054862734
 30
0.0
 40
3.5
 41
0.0
 71
     5
 72
     1
  1
第三角法
  7
CONVERTER_1
 73
     1
 44
0.7202881152461
  0
MTEXT
  5
1AB
330
4B
100
AcDbEntity
  8
1
 62
     2
100
AcDbMText
 10
129.7435691962857
 20
6.8702054862734
 30
0.0
 40
3.0
 41
0.0
 71
     5
 72
     1
  1
承認
  7
CONVERTER_1
 73
     1
 44
0.78031212484994
  0
MTEXT
  5
1AC
330
4B
100
AcDbEntity
  8
1
 62
     2
100
AcDbMText
 10
57.24356919628571
 20
-3.87979451372661
 30
0.0
 40
3.5
 41
0.0
 71
     5
 72
     1
  1
品番
  7
CONVERTER_1
 73
     1
 44
0.96038415366146
  0
MTEXT
  5
1AD
330
4B
100
AcDbEntity
  8
1
 62
     2
100
AcDbMText
 10
57.24356919628571
 20
4.62020548627339
 30
0.0
 40
3.5
 41
0.0
 71
     5
 72
     1
  1
品名
  7
CONVERTER_1
 73
     1
 44
0.96038415366146
  0
MTEXT
  5
1AE
330
4B
100
AcDbEntity
  8
1
 62
     2
100
AcDbMText
 10
57.24356919628571
 20
15.8702054862734
 30
0.0
 40
3.5
 41
0.0
 71
     5
 72
     1
  1
備考
  7
CONVERTER_1
 73
     1
 44
0.60024009603842
  0
MTEXT
  5
1AF
330
4B
100
AcDbEntity
  8
1
 62
     2
100
AcDbMText
 10
60.74356919628571
 20
263.8702054862737
 30
0.0
 40
5.0
 41
0.0
 71
     5
 72
     1
  1
図番
  7
CONVERTER_1
 73
     1
 44
0.60024009603842
  0
MTEXT
  5
1B0
330
4B
100
AcDbEntity
  8
1
 62
     7
100
AcDbMText
 10
199.7435691962857
 20
-3.12979451372661
 30
0.0
 40
2.5
 41
0.0
 71
     5
 72
     1
  1
株式会社
  7
CONVERTER_1
 73
     1
 44
1.32052821128451
  0
MTEXT
  5
1B1
330
4B
100
AcDbEntity
  8
1
 62
     7
100
AcDbMText
 10
216.7435691962857
 20
-3.12979451372661
 30
0.0
 40
3.0
 41
0.0
 71
     5
 72
     1
  1
三栄水栓製作所
  7
CONVERTER_1
 73
     1
 44
1.32052821128451
  0
ENDBLK
  5
4D
330
4B
100
AcDbEntity
  8
0
100
AcDbBlockEnd
  0
BLOCK
  5
4F
330
4E
100
AcDbEntity
  8
0
100
AcDbBlockBegin
  2
51-1
 70
     0
 71
     0
 10
794.0566279406421
 20
85.01990782085557
 30
0.0
  3
51-1
  1

  0
LINE
  5
1B2
330
4E
100
AcDbEntity
  8
1
  6
Continuous
 62
     7
100
AcDbLine
 10
132.0763917053563
 20
720.2075254198892
 30
0.0
 11
122.100556220394
 21
730.1833609048515
 31
0.0
  0
LINE
  5
1B3
330
4E
100
AcDbEntity
  8
1
  6
Continuous
 62
     7
100
AcDbLine
 10
141.5233558745613
 20
736.5701473382346
 30
0.0
 11
127.135606275508
 21
740.4253332242022
 31
0.0
  0
LINE
  5
1B4
330
4E
100
AcDbEntity
  8
1
  6
Continuous
 62
     7
100
AcDbLine
 10
154.4643081296873
 20
736.5701473382346
 30
0.0
 11
168.0915528261201
 21
740.2215565497052
 31
0.0
  0
LINE
  5
1B5
330
4E
100
AcDbEntity
  8
1
  6
Continuous
 62
     7
100
AcDbLine
 10
163.9112722988921
 20
720.2075254198892
 30
0.0
 11
173.8871077838546
 21
730.1833609048515
 31
0.0
  0
LINE
  5
1B6
330
4E
100
AcDbEntity
  8
1
  6
Continuous
 62
     7
100
AcDbLine
 10
157.4407961713292
 20
709.0003320177884
 30
0.0
 11
153.7893869598586
 21
695.3730873213556
 31
0.0
  0
LINE
  5
1B7
330
4E
100
AcDbEntity
  8
1
  6
Continuous
 62
     7
100
AcDbLine
 10
138.5468678329194
 20
709.0003320177884
 30
0.0
 11
142.19827704439
 21
695.3730873213556
 31
0.0
  0
LINE
  5
1B8
330
4E
100
AcDbEntity
  8
1
  6
Continuous
 62
     7
100
AcDbLine
 10
441.1726371779165
 20
298.8743136727215
 30
0.0
 11
440.6726371779165
 21
298.8743136727215
 31
0.0
  0
LINE
  5
1B9
330
4E
100
AcDbEntity
  8
1
  6
Continuous
 62
     7
100
AcDbLine
 10
440.1726371779165
 20
302.2612225780889
 30
0.0
 11
440.1726371779165
 21
299.3743136727215
 31
0.0
  0
LINE
  5
1BA
330
4E
100
AcDbEntity
  8
1
  6
Continuous
 62
     7
100
AcDbLine
 10
441.1726371779165
 20
298.8743136727215
 30
0.0
 11
489.1726371779165
 21
298.8743136727215
 31
0.0
  0
LINE
  5
1BB
330
4E
100
AcDbEntity
  8
1
  6
Continuous
 62
     7
100
AcDbLine
 10
489.6726371779165
 20
301.8492630951313
 30
0.0
 11
489.6726371779165
 21
299.3743136727215
 31
0.0
  0
ARC
  5
1BC
330
4E
100
AcDbEntity
  8
1
  6
Continuous
 62
     7
100
AcDbCircle
 10
126.3431969075133
 20
734.4260015919708
 30
0.0
 40
5.999999999999869
100
AcDbArc
 50
82.47575892105859
 51
-134.9999999999999
  0
ARC
  5
1BD
330
4E
100
AcDbEntity
  8
1
  6
Continuous
 62
     7
100
AcDbCircle
 10
169.6444670967351
 20
734.4260015919708
 30
0.0
 40
6.00000000000017
100
AcDbArc
 50
-44.99999999999885
 51
104.999999999999
  0
ARC
  5
1BE
330
4E
100
AcDbEntity
  8
1
  6
Continuous
 62
     7
100
AcDbCircle
 10
147.9938320021243
 20
696.9260015919708
 30
0.0
 40
6.0
100
AcDbArc
 50
-90.0
 51
-15.00000000000138
  0
ARC
  5
1BF
330
4E
100
AcDbEntity
  8
1
  6
Continuous
 62
     7
100
AcDbCircle
 10
147.9938320021243
 20
696.9260015919708
 30
0.0
 40
5.999999999999909
100
AcDbArc
 50
-164.9999999999986
 51
-90.0
  0
ARC
  5
1C0
330
4E
100
AcDbEntity
  8
1
  6
Continuous
 62
     7
100
AcDbCircle
 10
471.0726371779165
 20
161.8426475953011
 30
0.0
 40
148.6092050572047
100
AcDbArc
 50
92.2518994854823
 51
100.0532276375031
  0
ARC
  5
1C1
330
4E
100
AcDbEntity
  8
1
  6
Continuous
 62
     7
100
AcDbCircle
 10
473.1215189905268
 20
288.8141489077314
 30
0.0
 40
21.76119949013524
100
AcDbArc
 50
68.44320528903191
 51
79.02897132873017
  0
ARC
  5
1C2
330
4E
100
AcDbEntity
  8
1
  6
Continuous
 62
     7
100
AcDbCircle
 10
471.0726371779165
 20
161.8426475953011
 30
0.0
 40
148.6092050572047
100
AcDbArc
 50
91.85094579686883
 51
92.2518994854823
  0
ARC
  5
1C3
330
4E
100
AcDbEntity
  8
1
  6
Continuous
 62
     7
100
AcDbCircle
 10
473.1215189905268
 20
288.8141489077314
 30
0.0
 40
21.76119949013517
100
AcDbArc
 50
79.02897132873017
 51
82.20588758494822
  0
ARC
  5
1C4
330
4E
100
AcDbEntity
  8
1
  6
Continuous
 62
     7
100
AcDbCircle
 10
458.1685923193807
 20
231.70098041734
 30
0.0
 40
80.64072525632051
100
AcDbArc
 50
70.02008322088776
 51
73.1921064852487
  0
ARC
  5
1C5
330
4E
100
AcDbEntity
  8
1
  6
Continuous
 62
     7
100
AcDbCircle
 10
114.3987221756926
 20
702.5298558902255
 30
0.0
 40
25.00000000000007
100
AcDbArc
 50
14.99999999999982
 51
45.00000000000005
  0
ARC
  5
1C6
330
4E
100
AcDbEntity
  8
1
  6
Continuous
 62
     7
100
AcDbCircle
 10
147.9938320021243
 20
760.7182929954613
 30
0.0
 40
24.99999999999996
100
AcDbArc
 50
-105.0
 51
-74.99999999999999
  0
ARC
  5
1C7
330
4E
100
AcDbEntity
  8
1
  6
Continuous
 62
     7
100
AcDbCircle
 10
181.5889418285559
 20
702.5298558902255
 30
0.0
 40
25.0000000000001
100
AcDbArc
 50
135.0000000000001
 51
165.0000000000001
  0
ARC
  5
1C8
330
4E
100
AcDbEntity
  8
1
  6
Continuous
 62
     7
100
AcDbCircle
 10
440.6726371779165
 20
299.3743136727215
 30
0.0
 40
0.5
100
AcDbArc
 50
180.0
 51
-90.0
  0
ARC
  5
1C9
330
4E
100
AcDbEntity
  8
1
  6
Continuous
 62
     7
100
AcDbCircle
 10
446.1726371779165
 20
302.2612225780889
 30
0.0
 40
5.999999999999985
100
AcDbArc
 50
99.99784348756796
 51
180.0
  0
ARC
  5
1CA
330
4E
100
AcDbEntity
  8
1
  6
Continuous
 62
     7
100
AcDbCircle
 10
478.9649285814071
 20
303.4525038096635
 30
0.0
 40
5.999999999999912
100
AcDbArc
 50
65.14402107788091
 51
68.9800012335083
  0
ARC
  5
1CB
330
4E
100
AcDbEntity
  8
1
  6
Continuous
 62
     7
100
AcDbCircle
 10
489.1726371779165
 20
299.3743136727215
 30
0.0
 40
0.5
100
AcDbArc
 50
-90.0
 51
0.0
  0
ARC
  5
1CC
330
4E
100
AcDbEntity
  8
1
  6
Continuous
 62
     7
100
AcDbCircle
 10
483.6726371779165
 20
301.8492630951313
 30
0.0
 40
6.0
100
AcDbArc
 50
0.0
 51
70.02008322088692
  0
ENDBLK
  5
50
330
4E
100
AcDbEntity
  8
0
100
AcDbBlockEnd
  0
BLOCK
  5
52
330
51
100
AcDbEntity
  8
0
100
AcDbBlockBegin
  2
42-1
 70
     0
 71
     0
 10
559.2768972645202
 20
102.5846646631366
 30
0.0
  3
42-1
  1

  0
LINE
  5
1CD
330
51
100
AcDbEntity
  8
1
  6
Continuous
 62
     7
100
AcDbLine
 10
465.4226371779166
 20
313.688297960766
 30
0.0
 11
471.1726371779166
 21
313.688297960766
 31
0.0
  0
LINE
  5
1CE
330
51
100
AcDbEntity
  8
1
  6
Continuous
 62
     2
100
AcDbLine
 10
470.1726371779166
 20
312.6008703427336
 30
0.0
 11
470.1726371779166
 21
311.3356312521231
 31
0.0
  0
LINE
  5
1CF
330
51
100
AcDbEntity
  8
1
  6
Continuous
 62
     2
100
AcDbLine
 10
469.1726371779166
 20
312.8441855524664
 30
0.0
 11
469.1726371779166
 21
311.0760950284082
 31
0.0
  0
LINE
  5
1D0
330
51
100
AcDbEntity
  8
1
  6
Continuous
 62
     2
100
AcDbLine
 10
468.1726371779166
 20
313.0550587342347
 30
0.0
 11
468.1726371779166
 21
310.7192327208001
 31
0.0
  0
LINE
  5
1D1
330
51
100
AcDbEntity
  8
1
  6
Continuous
 62
     2
100
AcDbLine
 10
467.1726371779166
 20
313.16860583211
 30
0.0
 11
467.1726371779166
 21
310.5245805530139
 31
0.0
  0
LINE
  5
1D2
330
51
100
AcDbEntity
  8
1
  6
Continuous
 62
     2
100
AcDbLine
 10
466.1726371779166
 20
313.3585322405624
 30
0.0
 11
466.1726371779166
 21
310.3585322405624
 31
0.0
  0
LINE
  5
1D3
330
51
100
AcDbEntity
  8
1
  6
Continuous
 62
     7
100
AcDbLine
 10
465.1726371779166
 20
313.3585322405624
 30
0.0
 11
466.1726371779166
 21
313.3585322405624
 31
0.0
  0
LINE
  5
1D4
330
51
100
AcDbEntity
  8
1
  6
Continuous
 62
     2
100
AcDbLine
 10
465.1726371779166
 20
313.3585322405624
 30
0.0
 11
465.1726371779166
 21
310.3585322405624
 31
0.0
  0
LINE
  5
1D5
330
51
100
AcDbEntity
  8
1
  6
Continuous
 62
     7
100
AcDbLine
 10
464.1726371779166
 20
313.3585322405624
 30
0.0
 11
465.1726371779166
 21
313.3585322405624
 31
0.0
  0
LINE
  5
1D6
330
51
100
AcDbEntity
  8
1
  6
Continuous
 62
     7
100
AcDbLine
 10
464.1726371779166
 20
313.3585322405624
 30
0.0
 11
465.1726371779166
 21
313.6278544395855
 31
0.0
  0
LINE
  5
1D7
330
51
100
AcDbEntity
  8
1
  6
Continuous
 62
     7
100
AcDbLine
 10
464.1726371779166
 20
310.3585322405624
 30
0.0
 11
464.1726371779166
 21
313.3585322405624
 31
0.0
  0
LINE
  5
1D8
330
51
100
AcDbEntity
  8
1
  6
Continuous
 62
     7
100
AcDbLine
 10
478.1726371779166
 20
313.3585322405624
 30
0.0
 11
478.1726371779166
 21
310.3585322405624
 31
0.0
  0
LINE
  5
1D9
330
51
100
AcDbEntity
  8
1
  6
Continuous
 62
     7
100
AcDbLine
 10
477.1726371779167
 20
313.6278544395855
 30
0.0
 11
478.1726371779166
 21
313.3585322405624
 31
0.0
  0
LINE
  5
1DA
330
51
100
AcDbEntity
  8
1
  6
Continuous
 62
     7
100
AcDbLine
 10
477.1726371779166
 20
313.3585322405624
 30
0.0
 11
478.1726371779166
 21
313.3585322405624
 31
0.0
  0
LINE
  5
1DB
330
51
100
AcDbEntity
  8
1
  6
Continuous
 62
     2
100
AcDbLine
 10
477.1726371779166
 20
310.3585322405624
 30
0.0
 11
477.1726371779166
 21
313.3585322405624
 31
0.0
  0
LINE
  5
1DC
330
51
100
AcDbEntity
  8
1
  6
Continuous
 62
     7
100
AcDbLine
 10
476.1726371779166
 20
313.3585322405624
 30
0.0
 11
477.1726371779166
 21
313.3585322405624
 31
0.0
  0
LINE
  5
1DD
330
51
100
AcDbEntity
  8
1
  6
Continuous
 62
     7
100
AcDbLine
 10
464.1726371779166
 20
310.3585322405624
 30
0.0
 11
478.1726371779166
 21
310.3585322405624
 31
0.0
  0
LINE
  5
1DE
330
51
100
AcDbEntity
  8
1
  6
Continuous
 62
     2
100
AcDbLine
 10
476.1726371779166
 20
310.3585322405624
 30
0.0
 11
476.1726371779166
 21
313.3585322405624
 31
0.0
  0
LINE
  5
1DF
330
51
100
AcDbEntity
  8
1
  6
Continuous
 62
     2
100
AcDbLine
 10
475.1726371779166
 20
310.5245805530139
 30
0.0
 11
475.1726371779166
 21
313.16860583211
 31
0.0
  0
LINE
  5
1E0
330
51
100
AcDbEntity
  8
1
  6
Continuous
 62
     2
100
AcDbLine
 10
474.1726371779166
 20
310.7192327208001
 30
0.0
 11
474.1726371779166
 21
313.0550587342347
 31
0.0
  0
LINE
  5
1E1
330
51
100
AcDbEntity
  8
1
  6
Continuous
 62
     2
100
AcDbLine
 10
473.1726371779166
 20
311.0760950284082
 30
0.0
 11
473.1726371779166
 21
312.8441855524664
 31
0.0
  0
LINE
  5
1E2
330
51
100
AcDbEntity
  8
1
  6
Continuous
 62
     2
100
AcDbLine
 10
472.1726371779166
 20
311.3356312521231
 30
0.0
 11
472.1726371779166
 21
312.6008703427336
 31
0.0
  0
LINE
  5
1E3
330
51
100
AcDbEntity
  8
1
  6
Continuous
 62
     7
100
AcDbLine
 10
471.1726371779166
 20
313.688297960766
 30
0.0
 11
476.9226371779166
 21
313.688297960766
 31
0.0
  0
LINE
  5
1E4
330
51
100
AcDbEntity
  8
1
  6
Continuous
 62
     7
100
AcDbLine
 10
466.1726371779166
 20
313.3585322405624
 30
0.0
 11
476.1726371779166
 21
313.3585322405624
 31
0.0
  0
ARC
  5
1E5
330
51
100
AcDbEntity
  8
1
  6
Continuous
 62
     7
100
AcDbCircle
 10
471.1726371779166
 20
289.3585322405624
 30
0.0
 40
24.99999999999991
100
AcDbArc
 50
103.2970717472091
 51
103.886540362629
  0
ARC
  5
1E6
330
51
100
AcDbEntity
  8
1
  6
Continuous
 62
     7
100
AcDbCircle
 10
471.1726371779166
 20
289.3585322405624
 30
0.0
 40
24.99999999999996
100
AcDbArc
 50
76.11345963737071
 51
76.7029282527909
  0
ARC
  5
1E7
330
51
100
AcDbEntity
  8
1
  6
Continuous
 62
     7
100
AcDbCircle
 10
471.1726371779166
 20
289.3585322405624
 30
0.0
 40
24.99999999999991
100
AcDbArc
 50
76.7029282527909
 51
90.0
  0
ARC
  5
1E8
330
51
100
AcDbEntity
  8
1
  6
Continuous
 62
     7
100
AcDbCircle
 10
471.1726371779166
 20
289.3585322405624
 30
0.0
 40
25.0
100
AcDbArc
 50
90.0
 51
103.2970717472091
  0
CIRCLE
  5
1E9
330
51
100
AcDbEntity
  8
1
  6
Continuous
 62
     7
100
AcDbCircle
 10
147.993832002124
 20
721.926001591971
 30
0.0
 40
5.75
  0
CIRCLE
  5
1EA
330
51
100
AcDbEntity
  8
1
  6
Continuous
 62
     7
100
AcDbCircle
 10
147.993832002124
 20
721.926001591971
 30
0.0
 40
7.0
  0
ENDBLK
  5
53
330
51
100
AcDbEntity
  8
0
100
AcDbBlockEnd
  0
BLOCK
  5
55
330
54
100
AcDbEntity
  8
0
100
AcDbBlockBegin
  2
37-1-13
 70
     0
 71
     0
 10
562.9738673946877
 20
138.378607782577
 30
0.0
  3
37-1-13
  1

  0
LINE
  5
1EB
330
54
100
AcDbEntity
  8
1
  6
Continuous
 62
     7
100
AcDbLine
 10
160.9938320021241
 20
281.3743136727215
 30
0.0
 11
155.9938320021242
 21
281.3743136727215
 31
0.0
  0
LINE
  5
1EC
330
54
100
AcDbEntity
  8
1
  6
Continuous
 62
     7
100
AcDbLine
 10
160.9938320021241
 20
288.4450278869929
 30
0.0
 11
160.9938320021241
 21
281.3743136727215
 31
0.0
  0
LINE
  5
1ED
330
54
100
AcDbEntity
  8
1
  6
Continuous
 62
     7
100
AcDbLine
 10
139.993832002124
 20
281.3743136727215
 30
0.0
 11
134.993832002124
 21
281.3743136727215
 31
0.0
  0
LINE
  5
1EE
330
54
100
AcDbEntity
  8
1
  6
Continuous
 62
     7
100
AcDbLine
 10
134.993832002124
 20
281.3743136727215
 30
0.0
 11
134.993832002124
 21
288.4450278869929
 31
0.0
  0
LINE
  5
1EF
330
54
100
AcDbEntity
  8
1
  6
Continuous
 62
     7
100
AcDbLine
 10
471.1726371779166
 20
288.8743136727215
 30
0.0
 11
483.6726371779164
 21
288.8743136727215
 31
0.0
  0
LINE
  5
1F0
330
54
100
AcDbEntity
  8
1
  6
Continuous
 62
     7
100
AcDbLine
 10
458.6726371779168
 20
288.8743136727215
 30
0.0
 11
471.1726371779166
 21
288.8743136727215
 31
0.0
  0
LINE
  5
1F1
330
54
100
AcDbEntity
  8
1
  6
Continuous
 62
     7
100
AcDbLine
 10
484.2433513921881
 20
281.3743136727215
 30
0.0
 11
458.1019229636452
 21
281.3743136727215
 31
0.0
  0
LINE
  5
1F2
330
54
100
AcDbEntity
  8
1
  6
Continuous
 62
     7
100
AcDbLine
 10
477.1726371779166
 20
295.3743136727215
 30
0.0
 11
465.1726371779166
 21
295.3743136727215
 31
0.0
  0
ARC
  5
1F3
330
54
100
AcDbEntity
  8
1
  6
Continuous
 62
     7
100
AcDbCircle
 10
173.9002872072389
 20
308.7807688778363
 30
0.0
 40
23.99999999999983
100
AcDbArc
 50
-138.2538657301994
 51
-123.9591925000978
  0
ARC
  5
1F4
330
54
100
AcDbEntity
  8
1
  6
Continuous
 62
     7
100
AcDbCircle
 10
157.4938320021242
 20
284.8743136727215
 30
0.0
 40
4.999999999999896
100
AcDbArc
 50
45.57299599919496
 51
53.13010235415884
  0
ARC
  5
1F5
330
54
100
AcDbEntity
  8
1
  6
Continuous
 62
     7
100
AcDbCircle
 10
122.0873767970094
 20
308.7807688778363
 30
0.0
 40
23.99999999999989
100
AcDbArc
 50
-56.04080749990241
 51
-41.74613426980079
  0
ARC
  5
1F6
330
54
100
AcDbEntity
  8
1
  6
Continuous
 62
     7
100
AcDbCircle
 10
138.4938320021241
 20
284.8743136727215
 30
0.0
 40
4.999999999999881
100
AcDbArc
 50
126.8698976458422
 51
134.4270040008067
  0
ARC
  5
1F7
330
54
100
AcDbEntity
  8
1
  6
Continuous
 62
     7
100
AcDbCircle
 10
497.0790923830316
 20
308.7807688778363
 30
0.0
 40
23.99999999999999
100
AcDbArc
 50
-146.0408074999028
 51
-123.9591925000982
  0
ARC
  5
1F8
330
54
100
AcDbEntity
  8
1
  6
Continuous
 62
     7
100
AcDbCircle
 10
480.6726371779166
 20
284.8743136727215
 30
0.0
 40
5.000000000000057
100
AcDbArc
 50
-44.42700400080507
 51
53.13010235415806
  0
ARC
  5
1F9
330
54
100
AcDbEntity
  8
1
  6
Continuous
 62
     7
100
AcDbCircle
 10
445.2661819728016
 20
308.7807688778364
 30
0.0
 40
24.00000000000016
100
AcDbArc
 50
-56.04080749990195
 51
-33.95919250009735
  0
ARC
  5
1FA
330
54
100
AcDbEntity
  8
1
  6
Continuous
 62
     7
100
AcDbCircle
 10
461.6726371779166
 20
284.8743136727215
 30
0.0
 40
4.999999999999898
100
AcDbArc
 50
126.8698976458425
 51
-135.572995999194
  0
SPLINE
  5
1FB
330
54
100
AcDbEntity
  8
1
  6
Continuous
 62
     7
100
AcDbSpline
210
0.0
220
0.0
230
1.0
 70
    11
 71
     3
 72
    79
 73
    75
 74
    73
 42
0.0000000001
 43
0.0000000001
 44
0.00000001
 40
0.0
 40
0.0
 40
0.0
 40
0.0
 40
0.281177542610937
 40
0.5623408931992937
 40
0.8457466631368166
 40
1.129126830422954
 40
1.415908903032503
 40
1.702658539054782
 40
1.993527432940306
 40
2.284362055943435
 40
2.579517800564461
 40
2.874641782101939
 40
3.173769982296756
 40
3.472872122788186
 40
3.775199692337524
 40
4.077508957859799
 40
4.381905225139578
 40
4.686292091405559
 40
4.991400459519183
 40
5.296508827632751
 40
5.600895693898732
 40
5.905291961178523
 40
6.207601226700781
 40
6.509928796249993
 40
6.809030936741426
 40
7.108159136936349
 40
7.403283118473893
 40
7.698438863094839
 40
7.989273486097927
 40
8.280142379983481
 40
8.566892016005774
 40
8.853674088615344
 40
9.137054255901562
 40
9.420460025839086
 40
9.701623376427387
 40
9.982800919038388
 40
10.26319552186853
 40
10.54359012469878
 40
10.82476766730962
 40
11.10593101789797
 40
11.3893367878354
 40
11.67271695512154
 40
11.95949902773122
 40
12.24624866375335
 40
12.53711755763892
 40
12.82795218064209
 40
13.12310792526304
 40
13.4182319068005
 40
13.7173601069955
 40
14.01646224748683
 40
14.31878981703617
 40
14.62109908255841
 40
14.92549534983818
 40
15.22988221610417
 40
15.53499058421774
 40
15.84009895233136
 40
16.14448581859735
 40
16.44888208587714
 40
16.75119135139946
 40
17.05351892094863
 40
17.35262106144004
 40
17.65174926163491
 40
17.94687324317249
 40
18.24202898779343
 40
18.53286361079652
 40
18.82373250468212
 40
19.11048214070432
 40
19.39726421331395
 40
19.68064438060009
 40
19.96405015053767
 40
20.24521350112602
 40
20.52639104373696
 40
20.8067856465671
 40
21.08718024939735
 40
21.08718024939735
 40
21.08718024939735
 40
21.08718024939735
 10
482.1508923325166
 20
288.36093179384
 30
0.0
 10
482.0577962574261
 20
288.3494806717501
 30
0.0
 10
481.8716088061325
 20
288.326579005549
 30
0.0
 10
481.5973713528264
 20
288.2585417145
 30
0.0
 10
481.3296446855194
 20
288.1669195855266
 30
0.0
 10
481.070084197351
 20
288.0493085977417
 30
0.0
 10
480.8213499049838
 20
287.9080902745226
 30
0.0
 10
480.5845358001936
 20
287.7432683037779
 30
0.0
 10
480.3622774361267
 20
287.5571910066131
 30
0.0
 10
480.1554220489913
 20
287.3501661570019
 30
0.0
 10
479.9663082454782
 20
287.1249673592878
 30
0.0
 10
479.7956598613273
 20
286.8821024537584
 30
0.0
 10
479.6453425440776
 20
286.6246338227481
 30
0.0
 10
479.5160192087167
 20
286.3533559254767
 30
0.0
 10
479.4089862812784
 20
286.0714027715693
 30
0.0
 10
479.3248391436162
 20
285.7799656181996
 30
0.0
 10
479.2642946349084
 20
285.482027674742
 30
0.0
 10
479.2278074381694
 20
285.1792620099416
 30
0.0
 10
479.2155803818183
 20
284.8743136727223
 30
0.0
 10
479.2278074381692
 20
284.5693653354975
 30
0.0
 10
479.2642946349097
 20
284.266599670714
 30
0.0
 10
479.3248391436117
 20
283.9686617271946
 30
0.0
 10
479.4089862812956
 20
283.6772245740539
 30
0.0
 10
479.5160192086528
 20
283.3952714192965
 30
0.0
 10
479.6453425443133
 20
283.123993525165
 30
0.0
 10
479.7956598604511
 20
282.8665248825132
 30
0.0
 10
479.9663082486997
 20
282.6236600198762
 30
0.0
 10
480.1554220370354
 20
282.3984610632994
 30
0.0
 10
480.3622774800239
 20
282.1914367982961
 30
0.0
 10
480.5845356372459
 20
282.0053573361116
 30
0.0
 10
480.8213505035791
 20
281.8405433363581
 30
0.0
 10
481.070081973221
 20
281.6992954679441
 30
0.0
 10
481.3296528771077
 20
281.5817935004902
 30
0.0
 10
481.5973408683778
 20
281.4897665531203
 30
0.0
 10
481.8717215792611
 20
281.4232287255002
 30
0.0
 10
482.1502125907244
 20
281.3833259418876
 30
0.0
 10
482.4309674271144
 20
281.3698138205583
 30
0.0
 10
482.7117222635042
 20
281.3833259418875
 30
0.0
 10
482.9902132749677
 20
281.4232287255003
 30
0.0
 10
483.2645939858506
 20
281.4897665531202
 30
0.0
 10
483.5322819771211
 20
281.5817935004903
 30
0.0
 10
483.7918528810075
 20
281.6992954679441
 30
0.0
 10
484.0405843506495
 20
281.8405433363581
 30
0.0
 10
484.2773992169825
 20
282.0053573361118
 30
0.0
 10
484.4996573742048
 20
282.1914367982957
 30
0.0
 10
484.7065128171931
 20
282.3984610632993
 30
0.0
 10
484.8956266055288
 20
282.6236600198763
 30
0.0
 10
485.0662749937775
 20
282.866524882513
 30
0.0
 10
485.2165923099152
 20
283.1239935251651
 30
0.0
 10
485.3459156455757
 20
283.3952714192964
 30
0.0
 10
485.4529485729331
 20
283.6772245740539
 30
0.0
 10
485.537095710617
 20
283.9686617271946
 30
0.0
 10
485.5976402193187
 20
284.266599670714
 30
0.0
 10
485.6341274160596
 20
284.5693653354978
 30
0.0
 10
485.6463544724102
 20
284.8743136727216
 30
0.0
 10
485.6341274160595
 20
285.1792620099448
 30
0.0
 10
485.5976402193186
 20
285.4820276747299
 30
0.0
 10
485.537095710617
 20
285.7799656182448
 30
0.0
 10
485.4529485729316
 20
286.071402771402
 30
0.0
 10
485.3459156455805
 20
286.3533559260985
 30
0.0
 10
485.2165923098983
 20
286.624633820455
 30
0.0
 10
485.0662749938404
 20
286.8821024622723
 30
0.0
 10
484.8956266052978
 20
287.1249673279843
 30
0.0
 10
484.7065128180503
 20
287.3501662731715
 30
0.0
 10
484.499657371058
 20
287.5571905800889
 30
0.0
 10
484.2773992286652
 20
287.7432698870501
 30
0.0
 10
484.040584307733
 20
287.9080844582909
 30
0.0
 10
483.7918530404685
 20
288.0493302084371
 30
0.0
 10
483.5322813898185
 20
288.1668399921957
 30
0.0
 10
483.2645961714591
 20
288.2588379157692
 30
0.0
 10
482.9902051896031
 20
288.3254832486842
 30
0.0
 10
482.7117524127154
 20
288.3649858346309
 30
0.0
 10
482.4308552555049
 20
288.3799876144483
 30
0.0
 10
482.2442133068461
 20
288.3672837340428
 30
0.0
 10
482.1508923325166
 20
288.36093179384
 30
0.0
 11
482.1508923325166
 21
288.36093179384
 31
0.0
 11
481.8725655787829
 21
288.3209939843761
 31
0.0
 11
481.599291544234
 21
288.254856765237
 31
0.0
 11
481.3312868734048
 21
288.1627029435713
 31
0.0
 11
481.0730652353872
 21
288.0459728922965
 31
0.0
 11
480.8236785920367
 21
287.9043739541345
 31
0.0
 11
480.5882322141806
 21
287.7406963536104
 31
0.0
 11
480.3651803653564
 21
287.5540078800339
 31
0.0
 11
480.1595123087611
 21
287.3483736697631
 31
0.0
 11
479.9696609040166
 21
287.1223795156366
 31
0.0
 11
479.7998879726453
 21
286.8809767065144
 31
0.0
 11
479.649026290212
 21
286.622677591291
 31
0.0
 11
479.5202264232804
 21
286.3527281798729
 31
0.0
 11
479.4128941912666
 21
286.0700945808785
 31
0.0
 11
479.3289661697041
 21
285.7796690668181
 31
0.0
 11
479.2683315190085
 21
285.4813730281772
 31
0.0
 11
479.2318731680925
 21
285.1791774739351
 31
0.0
 11
479.219659282448
 21
284.8743136727214
 31
0.0
 11
479.2318731680925
 21
284.5694498715079
 31
0.0
 11
479.2683315190085
 21
284.2672543172657
 31
0.0
 11
479.3289661697041
 21
283.9689582786248
 31
0.0
 11
479.4128941912666
 21
283.6785327645644
 31
0.0
 11
479.5202264232803
 21
283.3958991655701
 31
0.0
 11
479.6490262902118
 21
283.125949754152
 31
0.0
 11
479.7998879726452
 21
282.8676506389285
 31
0.0
 11
479.9696609040167
 21
282.6262478298063
 31
0.0
 11
480.1595123087611
 21
282.4002536756799
 31
0.0
 11
480.3651803653564
 21
282.1946194654091
 31
0.0
 11
480.5882322141804
 21
282.0079309918325
 31
0.0
 11
480.8236785920366
 21
281.8442533913084
 31
0.0
 11
481.0730652353872
 21
281.7026544531465
 31
0.0
 11
481.3312868734049
 21
281.5859244018718
 31
0.0
 11
481.5992915442341
 21
281.493770580206
 31
0.0
 11
481.8725655787829
 21
281.4276333610669
 31
0.0
 11
482.1508923325167
 21
281.387695551603
 31
0.0
 11
482.4309674271144
 21
281.3743136727215
 31
0.0
 11
482.7110425217121
 21
281.387695551603
 31
0.0
 11
482.9893692754457
 21
281.427633361067
 31
0.0
 11
483.2626433099946
 21
281.493770580206
 31
0.0
 11
483.5306479808237
 21
281.5859244018718
 31
0.0
 11
483.7888696188414
 21
281.7026544531465
 31
0.0
 11
484.038256262192
 21
281.8442533913085
 31
0.0
 11
484.273702640048
 21
282.0079309918325
 31
0.0
 11
484.4967544888722
 21
282.194619465409
 31
0.0
 11
484.7024225454675
 21
282.4002536756799
 31
0.0
 11
484.8922739502119
 21
282.6262478298063
 31
0.0
 11
485.0620468815833
 21
282.8676506389285
 31
0.0
 11
485.2129085640168
 21
283.125949754152
 31
0.0
 11
485.3417084309483
 21
283.39589916557
 31
0.0
 11
485.4490406629621
 21
283.6785327645644
 31
0.0
 11
485.5329686845245
 21
283.9689582786248
 31
0.0
 11
485.59360333522
 21
284.2672543172657
 31
0.0
 11
485.6300616861361
 21
284.5694498715079
 31
0.0
 11
485.6422755717805
 21
284.8743136727214
 31
0.0
 11
485.6300616861361
 21
285.1791774739351
 31
0.0
 11
485.59360333522
 21
285.4813730281772
 31
0.0
 11
485.5329686845244
 21
285.7796690668181
 31
0.0
 11
485.4490406629619
 21
286.0700945808786
 31
0.0
 11
485.3417084309483
 21
286.3527281798729
 31
0.0
 11
485.2129085640169
 21
286.622677591291
 31
0.0
 11
485.0620468815835
 21
286.8809767065144
 31
0.0
 11
484.8922739502119
 21
287.1223795156366
 31
0.0
 11
484.7024225454675
 21
287.348373669763
 31
0.0
 11
484.4967544888723
 21
287.5540078800339
 31
0.0
 11
484.2737026400482
 21
287.7406963536105
 31
0.0
 11
484.0382562621921
 21
287.9043739541345
 31
0.0
 11
483.7888696188416
 21
288.0459728922966
 31
0.0
 11
483.5306479808239
 21
288.1627029435713
 31
0.0
 11
483.2626433099946
 21
288.254856765237
 31
0.0
 11
482.9893692754457
 21
288.3209939843761
 31
0.0
 11
482.711042521712
 21
288.36093179384
 31
0.0
 11
482.4309674271144
 21
288.3743136727214
 31
0.0
 11
482.1508923325166
 21
288.36093179384
 31
0.0
  0
SPLINE
  5
1FC
330
54
100
AcDbEntity
  8
1
  6
Continuous
 62
     7
100
AcDbSpline
210
0.0
220
0.0
230
1.0
 70
    11
 71
     3
 72
    79
 73
    75
 74
    73
 42
0.0000000001
 43
0.0000000001
 44
0.00000001
 40
0.0
 40
0.0
 40
0.0
 40
0.0
 40
0.2811775426108807
 40
0.5623408931992926
 40
0.8457466631367617
 40
1.129126830422847
 40
1.415908903032446
 40
1.702658539054677
 40
1.993527432940289
 40
2.284362055943338
 40
2.579517800564363
 40
2.874641782101842
 40
3.173769982296687
 40
3.472872122788118
 40
3.775199692337436
 40
4.077508957859695
 40
4.381905225139474
 40
4.686292091405462
 40
4.991400459519084
 40
5.296508827632649
 40
5.60089569389863
 40
5.905291961178432
 40
6.207601226700691
 40
6.509928796249882
 40
6.809030936741364
 40
7.108159136936259
 40
7.403283118473803
 40
7.698438863094713
 40
7.989273486097721
 40
8.280142379983406
 40
8.566892016005605
 40
8.853674088615225
 40
9.13705425590139
 40
9.420460025838858
 40
9.701623376427104
 40
9.982800919038048
 40
10.26319552186836
 40
10.54359012469861
 40
10.82476766730951
 40
11.10593101789785
 40
11.3893367878354
 40
11.67271695512149
 40
11.95949902773106
 40
12.24624866375329
 40
12.53711755763886
 40
12.82795218064199
 40
13.12310792526293
 40
13.4182319068004
 40
13.71736010699531
 40
14.01646224748671
 40
14.31878981703599
 40
14.62109908255828
 40
14.92549534983806
 40
15.22988221610404
 40
15.53499058421761
 40
15.84009895233124
 40
16.14448581859723
 40
16.44888208587702
 40
16.75119135139932
 40
17.05351892094849
 40
17.35262106143997
 40
17.65174926163479
 40
17.94687324317227
 40
18.24202898779332
 40
18.53286361079645
 40
18.82373250468205
 40
19.11048214070425
 40
19.39726421331388
 40
19.68064438060002
 40
19.96405015053754
 40
20.2452135011259
 40
20.52639104373678
 40
20.80678564656709
 40
21.08718024939729
 40
21.08718024939729
 40
21.08718024939729
 40
21.08718024939729
 10
460.1943820233166
 20
288.36093179384
 30
0.0
 10
460.2874780984072
 20
288.3494806717501
 30
0.0
 10
460.4736655497008
 20
288.3265790055489
 30
0.0
 10
460.7479030030067
 20
288.2585417145001
 30
0.0
 10
461.0156296703138
 20
288.1669195855266
 30
0.0
 10
461.2751901584821
 20
288.0493085977417
 30
0.0
 10
461.5239244508491
 20
287.9080902745227
 30
0.0
 10
461.7607385556397
 20
287.7432683037778
 30
0.0
 10
461.9829969197066
 20
287.5571910066131
 30
0.0
 10
462.1898523068418
 20
287.3501661570019
 30
0.0
 10
462.378966110355
 20
287.1249673592878
 30
0.0
 10
462.5496144945058
 20
286.8821024537583
 30
0.0
 10
462.6999318117556
 20
286.6246338227481
 30
0.0
 10
462.8292551471163
 20
286.3533559254768
 30
0.0
 10
462.9362880745546
 20
286.0714027715692
 30
0.0
 10
463.0204352122168
 20
285.7799656181996
 30
0.0
 10
463.0809797209247
 20
285.4820276747421
 30
0.0
 10
463.1174669176637
 20
285.1792620099416
 30
0.0
 10
463.1296939740146
 20
284.8743136727224
 30
0.0
 10
463.1174669176641
 20
284.5693653354975
 30
0.0
 10
463.0809797209234
 20
284.2665996707141
 30
0.0
 10
463.0204352122213
 20
283.9686617271945
 30
0.0
 10
462.9362880745375
 20
283.677224574054
 30
0.0
 10
462.8292551471805
 20
283.3952714192964
 30
0.0
 10
462.6999318115194
 20
283.1239935251652
 30
0.0
 10
462.5496144953821
 20
282.866524882513
 30
0.0
 10
462.3789661071333
 20
282.6236600198764
 30
0.0
 10
462.1898523187977
 20
282.3984610632993
 30
0.0
 10
461.9829968758096
 20
282.1914367982959
 30
0.0
 10
461.7607387185871
 20
282.0053573361118
 30
0.0
 10
461.523923852254
 20
281.8405433363579
 30
0.0
 10
461.275192382612
 20
281.6992954679442
 30
0.0
 10
461.0156214787256
 20
281.5817935004902
 30
0.0
 10
460.7479334874553
 20
281.4897665531204
 30
0.0
 10
460.4735527765723
 20
281.4232287255002
 30
0.0
 10
460.1950617651089
 20
281.3833259418876
 30
0.0
 10
459.9143069287189
 20
281.3698138205584
 30
0.0
 10
459.6335520923288
 20
281.3833259418875
 30
0.0
 10
459.3550610808654
 20
281.4232287255003
 30
0.0
 10
459.0806803699822
 20
281.4897665531203
 30
0.0
 10
458.8129923787123
 20
281.5817935004903
 30
0.0
 10
458.5534214748254
 20
281.6992954679441
 30
0.0
 10
458.3046900051837
 20
281.8405433363582
 30
0.0
 10
458.0678751388505
 20
282.0053573361117
 30
0.0
 10
457.8456169816282
 20
282.1914367982959
 30
0.0
 10
457.6387615386399
 20
282.3984610632993
 30
0.0
 10
457.4496477503043
 20
282.6236600198762
 30
0.0
 10
457.2789993620555
 20
282.866524882513
 30
0.0
 10
457.1286820459182
 20
283.1239935251652
 30
0.0
 10
456.9993587102571
 20
283.3952714192963
 30
0.0
 10
456.8923257829003
 20
283.677224574054
 30
0.0
 10
456.8081786452162
 20
283.9686617271946
 30
0.0
 10
456.7476341365142
 20
284.266599670714
 30
0.0
 10
456.7111469397736
 20
284.5693653354978
 30
0.0
 10
456.6989198834228
 20
284.8743136727214
 30
0.0
 10
456.7111469397738
 20
285.1792620099449
 30
0.0
 10
456.7476341365143
 20
285.4820276747298
 30
0.0
 10
456.8081786452162
 20
285.7799656182449
 30
0.0
 10
456.8923257829013
 20
286.071402771402
 30
0.0
 10
456.9993587102528
 20
286.3533559260986
 30
0.0
 10
457.1286820459348
 20
286.6246338204549
 30
0.0
 10
457.2789993619927
 20
286.8821024622722
 30
0.0
 10
457.4496477505351
 20
287.1249673279845
 30
0.0
 10
457.6387615377827
 20
287.3501662731713
 30
0.0
 10
457.8456169847754
 20
287.5571905800888
 30
0.0
 10
458.067875127168
 20
287.7432698870501
 30
0.0
 10
458.3046900481003
 20
287.9080844582908
 30
0.0
 10
458.5534213153645
 20
288.0493302084371
 30
0.0
 10
458.8129929660148
 20
288.1668399921956
 30
0.0
 10
459.0806781843741
 20
288.2588379157692
 30
0.0
 10
459.3550691662299
 20
288.3254832486842
 30
0.0
 10
459.6335219431177
 20
288.3649858346309
 30
0.0
 10
459.9144191003284
 20
288.3799876144484
 30
0.0
 10
460.1010610489872
 20
288.3672837340428
 30
0.0
 10
460.1943820233166
 20
288.36093179384
 30
0.0
 11
460.1943820233166
 21
288.36093179384
 31
0.0
 11
460.4727087770503
 21
288.3209939843761
 31
0.0
 11
460.7459828115992
 21
288.254856765237
 31
0.0
 11
461.0139874824284
 21
288.1627029435713
 31
0.0
 11
461.272209120446
 21
288.0459728922965
 31
0.0
 11
461.5215957637965
 21
287.9043739541345
 31
0.0
 11
461.7570421416526
 21
287.7406963536104
 31
0.0
 11
461.9800939904768
 21
287.5540078800339
 31
0.0
 11
462.185762047072
 21
287.3483736697631
 31
0.0
 11
462.3756134518165
 21
287.1223795156366
 31
0.0
 11
462.5453863831879
 21
286.8809767065144
 31
0.0
 11
462.6962480656212
 21
286.622677591291
 31
0.0
 11
462.8250479325528
 21
286.3527281798729
 31
0.0
 11
462.9323801645666
 21
286.0700945808785
 31
0.0
 11
463.016308186129
 21
285.7796690668181
 31
0.0
 11
463.0769428368246
 21
285.4813730281772
 31
0.0
 11
463.1134011877406
 21
285.1791774739351
 31
0.0
 11
463.1256150733851
 21
284.8743136727214
 31
0.0
 11
463.1134011877406
 21
284.5694498715079
 31
0.0
 11
463.0769428368246
 21
284.2672543172657
 31
0.0
 11
463.0163081861289
 21
283.9689582786248
 31
0.0
 11
462.9323801645665
 21
283.6785327645644
 31
0.0
 11
462.8250479325528
 21
283.3958991655701
 31
0.0
 11
462.6962480656212
 21
283.125949754152
 31
0.0
 11
462.5453863831879
 21
282.8676506389285
 31
0.0
 11
462.3756134518164
 21
282.6262478298063
 31
0.0
 11
462.185762047072
 21
282.4002536756799
 31
0.0
 11
461.9800939904769
 21
282.1946194654091
 31
0.0
 11
461.7570421416526
 21
282.0079309918325
 31
0.0
 11
461.5215957637965
 21
281.8442533913084
 31
0.0
 11
461.272209120446
 21
281.7026544531465
 31
0.0
 11
461.0139874824283
 21
281.5859244018718
 31
0.0
 11
460.7459828115991
 21
281.493770580206
 31
0.0
 11
460.4727087770503
 21
281.4276333610669
 31
0.0
 11
460.1943820233166
 21
281.387695551603
 31
0.0
 11
459.9143069287188
 21
281.3743136727215
 31
0.0
 11
459.6342318341211
 21
281.387695551603
 31
0.0
 11
459.3559050803874
 21
281.427633361067
 31
0.0
 11
459.0826310458385
 21
281.493770580206
 31
0.0
 11
458.8146263750093
 21
281.5859244018718
 31
0.0
 11
458.5564047369917
 21
281.7026544531465
 31
0.0
 11
458.3070180936412
 21
281.8442533913085
 31
0.0
 11
458.071571715785
 21
282.0079309918325
 31
0.0
 11
457.8485198669608
 21
282.194619465409
 31
0.0
 11
457.6428518103656
 21
282.4002536756799
 31
0.0
 11
457.4530004056212
 21
282.6262478298063
 31
0.0
 11
457.2832274742498
 21
282.8676506389285
 31
0.0
 11
457.1323657918165
 21
283.125949754152
 31
0.0
 11
457.0035659248848
 21
283.39589916557
 31
0.0
 11
456.8962336928712
 21
283.6785327645644
 31
0.0
 11
456.8123056713087
 21
283.9689582786248
 31
0.0
 11
456.7516710206131
 21
284.2672543172657
 31
0.0
 11
456.7152126696971
 21
284.5694498715079
 31
0.0
 11
456.7029987840525
 21
284.8743136727214
 31
0.0
 11
456.7152126696971
 21
285.1791774739351
 31
0.0
 11
456.7516710206131
 21
285.4813730281772
 31
0.0
 11
456.8123056713088
 21
285.7796690668181
 31
0.0
 11
456.8962336928711
 21
286.0700945808786
 31
0.0
 11
457.0035659248848
 21
286.3527281798729
 31
0.0
 11
457.1323657918164
 21
286.622677591291
 31
0.0
 11
457.2832274742497
 21
286.8809767065144
 31
0.0
 11
457.453000405621
 21
287.1223795156366
 31
0.0
 11
457.6428518103656
 21
287.348373669763
 31
0.0
 11
457.8485198669609
 21
287.5540078800339
 31
0.0
 11
458.071571715785
 21
287.7406963536105
 31
0.0
 11
458.3070180936411
 21
287.9043739541345
 31
0.0
 11
458.5564047369916
 21
288.0459728922966
 31
0.0
 11
458.8146263750093
 21
288.1627029435713
 31
0.0
 11
459.0826310458385
 21
288.254856765237
 31
0.0
 11
459.3559050803874
 21
288.3209939843761
 31
0.0
 11
459.6342318341211
 21
288.36093179384
 31
0.0
 11
459.9143069287189
 21
288.3743136727214
 31
0.0
 11
460.1943820233166
 21
288.36093179384
 31
0.0
  0
SPLINE
  5
1FD
330
54
100
AcDbEntity
  8
1
  6
Continuous
 62
     7
100
AcDbSpline
210
0.0
220
0.0
230
1.0
 70
    11
 71
     3
 72
    79
 73
    75
 74
    73
 42
0.0000000001
 43
0.0000000001
 44
0.00000001
 40
0.0
 40
0.0
 40
0.0
 40
0.0
 40
0.3064252399304747
 40
0.612699729578376
 40
0.9327163807029096
 40
1.252505950546026
 40
1.592278744069428
 40
1.931827979827545
 40
2.294403622084083
 40
2.656798547726865
 40
3.042205862991256
 40
3.427481652445295
 40
3.833206192908623
 40
4.238841967633302
 40
4.660421102442554
 40
5.081946086409905
 40
5.513562423792905
 40
5.945153204326267
 40
6.380194333749759
 40
6.815235463173194
 40
7.24682624370667
 40
7.678442581089725
 40
8.099967565056966
 40
8.521546699866162
 40
8.927182474590822
 40
9.332907015054122
 40
9.718182804508261
 40
10.10359011977265
 40
10.46598504541544
 40
10.82856068767201
 40
11.1681099234302
 40
11.50788271695354
 40
11.8276722867967
 40
12.14768893792121
 40
12.45396342756913
 40
12.76038866749959
 40
13.06189449721472
 40
13.36340032692986
 40
13.66982556686039
 40
13.97610005650827
 40
14.29611670763285
 40
14.61590627747597
 40
14.95567907099929
 40
15.29522830675744
 40
15.65780394901394
 40
16.02019887465676
 40
16.40560618992108
 40
16.79088197937521
 40
17.19660651983849
 40
17.60224229456317
 40
18.02382142937243
 40
18.44534641333976
 40
18.87696275072281
 40
19.30855353125618
 40
19.74359466067967
 40
20.17863579010322
 40
20.61022657063653
 40
21.04184290801951
 40
21.4633678919868
 40
21.88494702679607
 40
22.29058280152082
 40
22.69630734198399
 40
23.08158313143808
 40
23.46699044670257
 40
23.82938537234534
 40
24.19196101460188
 40
24.53151025036003
 40
24.87128304388339
 40
25.19107261372643
 40
25.51108926485101
 40
25.81736375449884
 40
26.12378899442942
 40
26.42529482414455
 40
26.72680065385968
 40
26.72680065385968
 40
26.72680065385968
 40
26.72680065385968
 10
476.1524797636462
 20
285.2365879228884
 30
0.0
 10
476.1358766800767
 20
285.3375140878648
 30
0.0
 10
476.1026786810622
 20
285.5393167657462
 30
0.0
 10
476.0036606383629
 20
285.8352680380775
 30
0.0
 10
475.8718269376365
 20
286.1223378508108
 30
0.0
 10
475.7015957270005
 20
286.4018028690761
 30
0.0
 10
475.4993271993413
 20
286.6671060776564
 30
0.0
 10
475.261925495576
 20
286.9213084490234
 30
0.0
 10
474.9964704975041
 20
287.157514175385
 30
0.0
 10
474.6994044959042
 20
287.3789929350347
 30
0.0
 10
474.3789170016638
 20
287.5796071454008
 30
0.0
 10
474.0313780870853
 20
287.7619762685825
 30
0.0
 10
473.6653481369879
 20
287.9213478767754
 30
0.0
 10
473.2779199067502
 20
288.0593713076648
 30
0.0
 10
472.8771336939757
 20
288.1728634706951
 30
0.0
 10
472.461531527773
 20
288.2625984859824
 30
0.0
 10
472.0378521475674
 20
288.3268007773812
 30
0.0
 10
471.6065962252239
 20
288.3657270150886
 30
0.0
 10
471.1726371779186
 20
288.3786240947028
 30
0.0
 10
470.738678130601
 20
288.3657270150894
 30
0.0
 10
470.3074222082936
 20
288.3268007773777
 30
0.0
 10
469.8837428279572
 20
288.2625984859956
 30
0.0
 10
469.4681406622304
 20
288.172863470647
 30
0.0
 10
469.0673544477118
 20
288.0593713078415
 30
0.0
 10
468.6799262237469
 20
287.9213478761438
 30
0.0
 10
468.3138962508158
 20
287.761976270894
 30
0.0
 10
467.9663574173632
 20
287.5796071372544
 30
0.0
 10
467.6458696295493
 20
287.3789929647334
 30
0.0
 10
467.3488046614259
 20
287.1575140718561
 30
0.0
 10
467.0833459358331
 20
286.9213088260169
 30
0.0
 10
466.8459573059961
 20
286.6671047692624
 30
0.0
 10
466.6436415831129
 20
286.401807644718
 30
0.0
 10
466.4735767099074
 20
286.1223211835435
 30
0.0
 10
466.3411386095272
 20
285.8353292852448
 30
0.0
 10
466.2442848043833
 20
285.539099016484
 30
0.0
 10
466.1867873224267
 20
285.239016982339
 30
0.0
 10
466.1667831593263
 20
284.9357055499427
 30
0.0
 10
466.1867873224267
 20
284.6323941175465
 30
0.0
 10
466.2442848043834
 20
284.3323120834016
 30
0.0
 10
466.3411386095273
 20
284.0360818146408
 30
0.0
 10
466.4735767099073
 20
283.7490899163419
 30
0.0
 10
466.6436415831128
 20
283.4696034551675
 30
0.0
 10
466.8459573059963
 20
283.2043063306231
 30
0.0
 10
467.0833459358331
 20
282.9501022738685
 30
0.0
 10
467.3488046614259
 20
282.7138970280295
 30
0.0
 10
467.6458696295492
 20
282.4924181351522
 30
0.0
 10
467.9663574173632
 20
282.2918039626312
 30
0.0
 10
468.3138962508159
 20
282.1094348289917
 30
0.0
 10
468.6799262237468
 20
281.9500632237418
 30
0.0
 10
469.0673544477118
 20
281.812039792044
 30
0.0
 10
469.4681406622303
 20
281.6985476292384
 30
0.0
 10
469.8837428279575
 20
281.60881261389
 30
0.0
 10
470.3074222082934
 20
281.544610322508
 30
0.0
 10
470.7386781306016
 20
281.505684084796
 30
0.0
 10
471.1726371779168
 20
281.492787005183
 30
0.0
 10
471.6065962252309
 20
281.505684084796
 30
0.0
 10
472.0378521475415
 20
281.5446103225083
 30
0.0
 10
472.4615315278682
 20
281.6088126138889
 30
0.0
 10
472.8771336936293
 20
281.6985476292418
 30
0.0
 10
473.2779199080233
 20
281.8120397920313
 30
0.0
 10
473.6653481324353
 20
281.950063223787
 30
0.0
 10
474.0313781037401
 20
282.1094348288269
 30
0.0
 10
474.3789169429699
 20
282.2918039632114
 30
0.0
 10
474.6994047098779
 20
282.4924181330373
 30
0.0
 10
474.9964697515972
 20
282.7138970354021
 30
0.0
 10
475.2619282117461
 20
282.9501022470221
 30
0.0
 10
475.499317772602
 20
283.2043064237965
 30
0.0
 10
475.7016301346245
 20
283.4696031150851
 30
0.0
 10
475.8717068530328
 20
283.7490911032496
 30
0.0
 10
476.0041019129704
 20
284.0360774531141
 30
0.0
 10
476.1011098375645
 20
284.3323275897384
 30
0.0
 10
476.1580402628957
 20
284.6323365234174
 30
0.0
 10
476.1801289397303
 20
284.9359166748772
 30
0.0
 10
476.1616961556743
 20
285.1363641735514
 30
0.0
 10
476.1524797636462
 20
285.2365879228884
 30
0.0
 11
476.1524797636462
 21
285.2365879228884
 31
0.0
 11
476.0947049003947
 21
285.5375173047086
 31
0.0
 11
476.0001489764604
 21
285.8288302640119
 31
0.0
 11
475.8662838098135
 21
286.1195032317188
 31
0.0
 11
475.7006233636207
 21
286.3930393089511
 31
0.0
 11
475.4949642634729
 21
286.6635016644557
 31
0.0
 11
475.2636399518574
 21
286.9120630177662
 31
0.0
 11
474.9931306131628
 21
287.1534875277827
 31
0.0
 11
474.7028722244776
 21
287.370467134957
 31
0.0
 11
474.376455736346
 21
287.5753843741908
 31
0.0
 11
474.0354565093843
 21
287.7547079954762
 31
0.0
 11
473.663627116958
 21
287.9170511679908
 31
0.0
 11
473.2815929108676
 21
288.053397224455
 31
0.0
 11
472.8760451289863
 21
288.1685491394096
 31
0.0
 11
472.4640413978721
 21
288.2576347030919
 31
0.0
 11
472.037325201377
 21
288.3224880017334
 31
0.0
 11
471.6074838774888
 21
288.3613085905936
 31
0.0
 11
471.1726371779165
 21
288.3743136727215
 31
0.0
 11
470.7377904783443
 21
288.3613085905936
 31
0.0
 11
470.307949154456
 21
288.3224880017334
 31
0.0
 11
469.8812329579608
 21
288.2576347030919
 31
0.0
 11
469.4692292268467
 21
288.1685491394096
 31
0.0
 11
469.0636814449655
 21
288.053397224455
 31
0.0
 11
468.681647238875
 21
287.9170511679909
 31
0.0
 11
468.3098178464488
 21
287.7547079954762
 31
0.0
 11
467.968818619487
 21
287.5753843741908
 31
0.0
 11
467.6424021313554
 21
287.370467134957
 31
0.0
 11
467.3521437426703
 21
287.1534875277827
 31
0.0
 11
467.0816344039756
 21
286.9120630177662
 31
0.0
 11
466.85031009236
 21
286.6635016644557
 31
0.0
 11
466.6446509922123
 21
286.3930393089511
 31
0.0
 11
466.4789905460194
 21
286.1195032317187
 31
0.0
 11
466.3451253793725
 21
285.8288302640119
 31
0.0
 11
466.2505694554381
 21
285.5375173047086
 31
0.0
 11
466.1927945921867
 21
285.2365879228884
 31
0.0
 11
466.1734151442366
 21
284.9357055499428
 31
0.0
 11
466.1927945921867
 21
284.6348231769972
 31
0.0
 11
466.2505694554382
 21
284.3338937951769
 31
0.0
 11
466.3451253793725
 21
284.0425808358737
 31
0.0
 11
466.4789905460195
 21
283.7519078681667
 31
0.0
 11
466.6446509922124
 21
283.4783717909344
 31
0.0
 11
466.8503100923601
 21
283.2079094354299
 31
0.0
 11
467.0816344039756
 21
282.9593480821194
 31
0.0
 11
467.3521437426702
 21
282.7179235721029
 31
0.0
 11
467.6424021313554
 21
282.5009439649285
 31
0.0
 11
467.9688186194869
 21
282.2960267256948
 31
0.0
 11
468.3098178464488
 21
282.1167031044094
 31
0.0
 11
468.6816472388749
 21
281.9543599318947
 31
0.0
 11
469.0636814449654
 21
281.8180138754306
 31
0.0
 11
469.4692292268466
 21
281.7028619604758
 31
0.0
 11
469.8812329579609
 21
281.6137763967937
 31
0.0
 11
470.307949154456
 21
281.5489230981522
 31
0.0
 11
470.7377904783442
 21
281.5101025092919
 31
0.0
 11
471.1726371779165
 21
281.497097427164
 31
0.0
 11
471.6074838774889
 21
281.510102509292
 31
0.0
 11
472.037325201377
 21
281.5489230981522
 31
0.0
 11
472.4640413978721
 21
281.6137763967936
 31
0.0
 11
472.8760451289863
 21
281.7028619604758
 31
0.0
 11
473.2815929108675
 21
281.8180138754306
 31
0.0
 11
473.663627116958
 21
281.9543599318948
 31
0.0
 11
474.0354565093841
 21
282.1167031044093
 31
0.0
 11
474.3764557363459
 21
282.2960267256948
 31
0.0
 11
474.7028722244776
 21
282.5009439649285
 31
0.0
 11
474.9931306131627
 21
282.7179235721029
 31
0.0
 11
475.2636399518574
 21
282.9593480821194
 31
0.0
 11
475.4949642634729
 21
283.2079094354299
 31
0.0
 11
475.7006233636207
 21
283.4783717909345
 31
0.0
 11
475.8662838098135
 21
283.7519078681667
 31
0.0
 11
476.0001489764605
 21
284.0425808358737
 31
0.0
 11
476.0947049003947
 21
284.3338937951768
 31
0.0
 11
476.1524797636462
 21
284.6348231769972
 31
0.0
 11
476.1718592115963
 21
284.9357055499428
 31
0.0
 11
476.1524797636462
 21
285.2365879228884
 31
0.0
  0
SPLINE
  5
1FE
330
54
100
AcDbEntity
  8
1
  6
Continuous
 62
     7
100
AcDbSpline
210
0.0
220
0.0
230
1.0
 70
     8
 71
     3
 72
    23
 73
    19
 74
    17
 42
0.0000000001
 43
0.0000000001
 44
0.00000001
 40
0.0
 40
0.0
 40
0.0
 40
0.0
 40
1.674047303672305
 40
3.348293534026628
 40
3.690385854959282
 40
4.032529333966187
 40
4.35426609429324
 40
4.675918440421835
 40
4.986217181540787
 40
5.296477195364396
 40
5.606736956685799
 40
5.917035921454621
 40
6.238689403054239
 40
6.560425158429227
 40
6.90256498524604
 40
7.244660394106401
 40
8.918972408639899
 40
10.59303951274389
 40
10.59303951274389
 40
10.59303951274389
 40
10.59303951274389
 10
155.9938320021242
 20
288.2569686401263
 30
0.0
 10
156.5312896216574
 20
288.0994322904811
 30
0.0
 10
157.6062687266973
 20
287.7843408711802
 30
0.0
 10
158.6297057912774
 20
287.0291181297264
 30
0.0
 10
159.1180947898449
 20
286.4121871468537
 30
0.0
 10
159.2974186849437
 20
286.1278905801662
 30
0.0
 10
159.439681664931
 20
285.830985978174
 30
0.0
 10
159.5417179796765
 20
285.5289967802531
 30
0.0
 10
159.603310109836
 20
285.220152853708
 30
0.0
 10
159.6242762647602
 20
284.9096708624178
 30
0.0
 10
159.6033098522624
 20
284.5991888065087
 30
0.0
 10
159.5417176807534
 20
284.2903445744154
 30
0.0
 10
159.4396828316463
 20
283.9883547467135
 30
0.0
 10
159.297420071163
 20
283.6914512689574
 30
0.0
 10
159.1180896705019
 20
283.4071584825257
 30
0.0
 10
158.6296909483909
 20
282.790217038574
 30
0.0
 10
157.6064851386361
 20
282.0345904620106
 30
0.0
 10
156.5313568349319
 20
281.7197710914426
 30
0.0
 10
155.9938320021242
 20
281.5623729195721
 30
0.0
 11
155.9938320021242
 21
288.2569686401263
 31
0.0
 11
157.5696059928378
 21
287.6918397122496
 31
0.0
 11
158.9014880113094
 21
286.677349333425
 31
0.0
 11
159.113155278833
 21
286.4086038703932
 31
0.0
 11
159.2950773899228
 21
286.1188341243471
 31
0.0
 11
159.433683009628
 21
285.8284842920209
 31
0.0
 11
159.5361186234836
 21
285.5235790989132
 31
0.0
 11
159.5966647976024
 21
285.219244629062
 31
0.0
 11
159.6172877960825
 21
284.9096707798572
 31
0.0
 11
159.5966646084603
 21
284.6000971963144
 31
0.0
 11
159.5361186234836
 21
284.2957624608013
 31
0.0
 11
159.4336836053604
 21
283.990855869716
 31
0.0
 11
159.2950773899227
 21
283.7005074353673
 31
0.0
 11
159.1131528901514
 21
283.4107435013155
 31
0.0
 11
158.9014880113095
 21
283.1419922262894
 31
0.0
 11
157.5697192524817
 21
282.1272446246555
 31
0.0
 11
155.9938320021242
 21
281.5623729195721
 31
0.0
  0
SPLINE
  5
1FF
330
54
100
AcDbEntity
  8
1
  6
Continuous
 62
     7
100
AcDbSpline
210
0.0
220
0.0
230
1.0
 70
     8
 71
     3
 72
    23
 73
    19
 74
    17
 42
0.0000000001
 43
0.0000000001
 44
0.00000001
 40
0.0
 40
0.0
 40
0.0
 40
0.0
 40
1.674047303672305
 40
3.348293534026628
 40
3.690385854959299
 40
4.03252933396619
 40
4.354266094293219
 40
4.675918440421834
 40
4.98621718154078
 40
5.296477195364391
 40
5.606736956685792
 40
5.91703592145462
 40
6.238689403054238
 40
6.560425158429226
 40
6.902564985246054
 40
7.244660394106379
 40
8.918972408639899
 40
10.59303951274389
 40
10.59303951274389
 40
10.59303951274389
 40
10.59303951274389
 10
139.993832002124
 20
288.2569686401263
 30
0.0
 10
139.4563743825908
 20
288.0994322904812
 30
0.0
 10
138.3813952775508
 20
287.7843408711804
 30
0.0
 10
137.357958212971
 20
287.0291181297263
 30
0.0
 10
136.8695692144032
 20
286.4121871468537
 30
0.0
 10
136.6902453193045
 20
286.1278905801663
 30
0.0
 10
136.5479823393173
 20
285.8309859781741
 30
0.0
 10
136.4459460245716
 20
285.5289967802531
 30
0.0
 10
136.3843538944123
 20
285.220152853708
 30
0.0
 10
136.3633877394881
 20
284.9096708624178
 30
0.0
 10
136.3843541519858
 20
284.5991888065086
 30
0.0
 10
136.4459463234948
 20
284.2903445744155
 30
0.0
 10
136.5479811726019
 20
283.9883547467134
 30
0.0
 10
136.6902439330853
 20
283.6914512689575
 30
0.0
 10
136.8695743337463
 20
283.4071584825257
 30
0.0
 10
137.3579730558572
 20
282.7902170385739
 30
0.0
 10
138.3811788656122
 20
282.0345904620106
 30
0.0
 10
139.4563071693164
 20
281.7197710914426
 30
0.0
 10
139.993832002124
 20
281.5623729195721
 30
0.0
 11
139.993832002124
 21
288.2569686401263
 31
0.0
 11
138.4180580114104
 21
287.6918397122496
 31
0.0
 11
137.0861759929388
 21
286.677349333425
 31
0.0
 11
136.8745087254152
 21
286.4086038703932
 31
0.0
 11
136.6925866143255
 21
286.1188341243471
 31
0.0
 11
136.5539809946203
 21
285.8284842920209
 31
0.0
 11
136.4515453807647
 21
285.5235790989132
 31
0.0
 11
136.3909992066458
 21
285.219244629062
 31
0.0
 11
136.3703762081657
 21
284.9096707798572
 31
0.0
 11
136.3909993957879
 21
284.6000971963144
 31
0.0
 11
136.4515453807646
 21
284.2957624608013
 31
0.0
 11
136.5539803988878
 21
283.990855869716
 31
0.0
 11
136.6925866143255
 21
283.7005074353673
 31
0.0
 11
136.8745111140969
 21
283.4107435013155
 31
0.0
 11
137.0861759929387
 21
283.1419922262894
 31
0.0
 11
138.4179447517665
 21
282.1272446246555
 31
0.0
 11
139.993832002124
 21
281.5623729195721
 31
0.0
  0
ENDBLK
  5
56
330
54
100
AcDbEntity
  8
0
100
AcDbBlockEnd
  0
BLOCK
  5
58
330
57
100
AcDbEntity
  8
0
100
AcDbBlockBegin
  2
36-1A-13-M11
 70
     0
 71
     0
 10
573.5547631873529
 20
157.3051876632852
 30
0.0
  3
36-1A-13-M11
  1

  0
LINE
  5
200
330
57
100
AcDbEntity
  8
1
  6
Continuous
 62
     7
100
AcDbLine
 10
466.4226371779166
 20
295.3743136727215
 30
0.0
 11
466.4226371779166
 21
298.8743136727215
 31
0.0
  0
LINE
  5
201
330
57
100
AcDbEntity
  8
1
  6
Continuous
 62
     7
100
AcDbLine
 10
475.9226371779166
 20
298.8743136727215
 30
0.0
 11
475.9226371779166
 21
295.3743136727215
 31
0.0
  0
ENDBLK
  5
59
330
57
100
AcDbEntity
  8
0
100
AcDbBlockEnd
  0
BLOCK
  5
5F
330
5A
100
AcDbEntity
  8
0
100
AcDbBlockBegin
  2
R10A-13-B
 70
     0
 71
     0
 10
426.1726371779166
 20
255.8743136727215
 30
0.0
  3
R10A-13-B
  1

  0
INSERT
  5
5B
330
5A
100
AcDbEntity
  8
1
100
AcDbBlockReference
  2
51-1
 10
794.0566279406421
 20
85.01990782085557
 30
0.0
  0
INSERT
  5
5C
330
5A
100
AcDbEntity
  8
0
100
AcDbBlockReference
  2
42-1
 10
559.2768972645202
 20
102.5846646631366
 30
0.0
  0
INSERT
  5
5D
330
5A
100
AcDbEntity
  8
0
100
AcDbBlockReference
  2
37-1-13
 10
562.9738673946877
 20
138.378607782577
 30
0.0
  0
INSERT
  5
5E
330
5A
100
AcDbEntity
  8
0
100
AcDbBlockReference
  2
36-1A-13-M11
 10
573.5547631873529
 20
157.3051876632852
 30
0.0
  0
LINE
  5
202
330
5A
100
AcDbEntity
  8
1
  6
PHANTOM
 62
     4
100
AcDbLine
 10
471.1726371779166
 20
309.3743136727215
 30
0.0
 11
471.1726371779166
 21
298.3743136727215
 31
0.0
  0
ENDBLK
  5
60
330
5A
100
AcDbEntity
  8
0
100
AcDbBlockEnd
  0
BLOCK
  5
62
330
61
100
AcDbEntity
  8
0
100
AcDbBlockBegin
  2
Y12-0A-13
 70
     0
 71
     0
 10
498.6231125716361
 20
398.9700510827934
 30
0.0
  3
Y12-0A-13
  1

  0
LINE
  5
203
330
61
100
AcDbEntity
  8
1
  6
Continuous
 62
     7
100
AcDbLine
 10
135.2744070217937
 20
264.6965577736999
 30
0.0
 11
135.7012548024751
 21
278.1422628651528
 31
0.0
  0
LINE
  5
204
330
61
100
AcDbEntity
  8
1
  6
Continuous
 62
     7
100
AcDbLine
 10
139.9938320021241
 20
278.1422628651528
 30
0.0
 11
135.9938320021242
 21
278.1422628651526
 31
0.0
  0
LINE
  5
205
330
61
100
AcDbEntity
  8
1
  6
Continuous
 62
     7
100
AcDbLine
 10
139.9938320021241
 20
279.8743136727215
 30
0.0
 11
135.9938320021242
 21
279.8743136727215
 31
0.0
  0
LINE
  5
206
330
61
100
AcDbEntity
  8
1
  6
Continuous
 62
     7
100
AcDbLine
 10
159.9938320021242
 20
278.1422628651526
 30
0.0
 11
155.9938320021241
 21
278.1422628651528
 31
0.0
  0
LINE
  5
207
330
61
100
AcDbEntity
  8
1
  6
Continuous
 62
     7
100
AcDbLine
 10
159.9938320021242
 20
279.8743136727215
 30
0.0
 11
155.9938320021241
 21
279.8743136727215
 31
0.0
  0
LINE
  5
208
330
61
100
AcDbEntity
  8
1
  6
Continuous
 62
     7
100
AcDbLine
 10
160.2864092017732
 20
278.1422628651528
 30
0.0
 11
160.7132569824547
 21
264.6965577736999
 31
0.0
  0
LINE
  5
209
330
61
100
AcDbEntity
  8
1
  6
Continuous
 62
     2
100
AcDbLine
 10
158.9938320021242
 20
281.3743136727215
 30
0.0
 11
158.9938320021242
 21
279.8743136727215
 31
0.0
  0
LINE
  5
20A
330
61
100
AcDbEntity
  8
1
  6
Continuous
 62
     7
100
AcDbLine
 10
135.7012548024762
 20
278.1422628651528
 30
0.0
 11
135.9938320021242
 21
278.1422628651526
 31
0.0
  0
LINE
  5
20B
330
61
100
AcDbEntity
  8
1
  6
Continuous
 62
     7
100
AcDbLine
 10
159.9938320021242
 20
278.1422628651526
 30
0.0
 11
160.2864092017732
 21
278.1422628651528
 31
0.0
  0
LINE
  5
20C
330
61
100
AcDbEntity
  8
1
  6
Continuous
 62
     2
100
AcDbLine
 10
158.9938320021242
 20
279.8743136727215
 30
0.0
 11
159.9938320021242
 21
278.1422628651526
 31
0.0
  0
LINE
  5
20D
330
61
100
AcDbEntity
  8
1
  6
Continuous
 62
     7
100
AcDbLine
 10
159.9938320021242
 20
278.1422628651526
 30
0.0
 11
159.9938320021242
 21
281.3743136727215
 31
0.0
  0
LINE
  5
20E
330
61
100
AcDbEntity
  8
1
  6
Continuous
 62
     2
100
AcDbLine
 10
135.9938320021242
 20
278.1422628651526
 30
0.0
 11
136.9938320021242
 21
279.8743136727215
 31
0.0
  0
LINE
  5
20F
330
61
100
AcDbEntity
  8
1
  6
Continuous
 62
     2
100
AcDbLine
 10
136.9938320021242
 20
279.8743136727215
 30
0.0
 11
136.9938320021242
 21
281.3743136727215
 31
0.0
  0
LINE
  5
210
330
61
100
AcDbEntity
  8
1
  6
Continuous
 62
     7
100
AcDbLine
 10
135.9938320021242
 20
281.3743136727215
 30
0.0
 11
135.9938320021242
 21
278.1422628651526
 31
0.0
  0
LINE
  5
211
330
61
100
AcDbEntity
  8
0
  6
PHANTOM
 62
     4
100
AcDbLine
 10
121.9938320021242
 20
255.8743136727215
 30
0.0
 11
173.9938320021242
 21
255.8743136727215
 31
0.0
  0
LINE
  5
212
330
61
100
AcDbEntity
  8
1
  6
Continuous
 62
     7
100
AcDbLine
 10
446.6726371779166
 20
268.0613136727215
 30
0.0
 11
446.6726371779166
 21
243.6873136727214
 31
0.0
  0
LINE
  5
213
330
61
100
AcDbEntity
  8
1
  6
Continuous
 62
     7
100
AcDbLine
 10
482.1726371779166
 20
279.8743136727215
 30
0.0
 11
460.1726371779166
 21
279.8743136727215
 31
0.0
  0
LINE
  5
214
330
61
100
AcDbEntity
  8
1
  6
Continuous
 62
     7
100
AcDbLine
 10
529.1726371779167
 20
265.3743136727215
 30
0.0
 11
529.1726371779167
 21
246.3743136727215
 31
0.0
  0
LINE
  5
215
330
61
100
AcDbEntity
  8
1
  6
Continuous
 62
     7
100
AcDbLine
 10
513.6726371779166
 20
243.1243136727215
 30
0.0
 11
513.6726371779166
 21
268.6243136727215
 31
0.0
  0
LINE
  5
216
330
61
100
AcDbEntity
  8
1
  6
Continuous
 62
     7
100
AcDbLine
 10
516.1726371779167
 20
266.3743136727215
 30
0.0
 11
516.1726371779167
 21
245.3743136727215
 31
0.0
  0
LINE
  5
217
330
61
100
AcDbEntity
  8
1
  6
Continuous
 62
     7
100
AcDbLine
 10
517.9046879854856
 20
265.3743136727215
 30
0.0
 11
517.9046879854856
 21
246.3743136727215
 31
0.0
  0
LINE
  5
218
330
61
100
AcDbEntity
  8
1
  6
Continuous
 62
     7
100
AcDbLine
 10
160.743832002124
 20
764.426001591971
 30
0.0
 11
135.2438320021241
 21
764.426001591971
 31
0.0
  0
LINE
  5
219
330
61
100
AcDbEntity
  8
1
  6
Continuous
 62
     7
100
AcDbLine
 10
160.993832002124
 20
697.426001591971
 30
0.0
 11
160.993832002124
 21
695.9260015919713
 31
0.0
  0
LINE
  5
21A
330
61
100
AcDbEntity
  8
1
  6
Continuous
 62
     2
100
AcDbLine
 10
135.806832002124
 20
697.426001591971
 30
0.0
 11
135.806832002124
 21
695.9260015919713
 31
0.0
  0
LINE
  5
21B
330
61
100
AcDbEntity
  8
1
  6
Continuous
 62
     7
100
AcDbLine
 10
160.993832002124
 20
697.426001591971
 30
0.0
 11
154.3394636808001
 21
697.426001591971
 31
0.0
  0
LINE
  5
21C
330
61
100
AcDbEntity
  8
1
  6
Continuous
 62
     7
100
AcDbLine
 10
138.4938320021241
 20
779.926001591971
 30
0.0
 11
157.493832002124
 21
779.926001591971
 31
0.0
  0
LINE
  5
21D
330
61
100
AcDbEntity
  8
1
  6
Continuous
 62
     7
100
AcDbLine
 10
138.4938320021241
 20
768.6580523995399
 30
0.0
 11
157.493832002124
 21
768.6580523995399
 31
0.0
  0
LINE
  5
21E
330
61
100
AcDbEntity
  8
1
  6
Continuous
 62
     7
100
AcDbLine
 10
137.4938320021241
 20
766.926001591971
 30
0.0
 11
158.493832002124
 21
766.926001591971
 31
0.0
  0
LINE
  5
21F
330
61
100
AcDbEntity
  8
1
  6
Continuous
 62
     7
100
AcDbLine
 10
147.993832002124
 20
780.926001591971
 30
0.0
 11
138.4938320021241
 21
780.926001591971
 31
0.0
  0
LINE
  5
220
330
61
100
AcDbEntity
  8
1
  6
Continuous
 62
     7
100
AcDbLine
 10
158.493832002124
 20
768.6580523995399
 30
0.0
 11
158.493832002124
 21
766.926001591971
 31
0.0
  0
LINE
  5
221
330
61
100
AcDbEntity
  8
1
  6
Continuous
 62
     7
100
AcDbLine
 10
147.993832002124
 20
780.926001591971
 30
0.0
 11
157.493832002124
 21
780.926001591971
 31
0.0
  0
LINE
  5
222
330
61
100
AcDbEntity
  8
1
  6
Continuous
 62
     7
100
AcDbLine
 10
158.493832002124
 20
779.926001591971
 30
0.0
 11
157.493832002124
 21
780.926001591971
 31
0.0
  0
LINE
  5
223
330
61
100
AcDbEntity
  8
1
  6
Continuous
 62
     7
100
AcDbLine
 10
158.493832002124
 20
768.6580523995399
 30
0.0
 11
157.493832002124
 21
768.6580523995399
 31
0.0
  0
LINE
  5
224
330
61
100
AcDbEntity
  8
1
  6
Continuous
 62
     7
100
AcDbLine
 10
158.493832002124
 20
779.926001591971
 30
0.0
 11
158.493832002124
 21
768.6580523995399
 31
0.0
  0
LINE
  5
225
330
61
100
AcDbEntity
  8
1
  6
Continuous
 62
     7
100
AcDbLine
 10
157.493832002124
 20
779.926001591971
 30
0.0
 11
158.493832002124
 21
779.926001591971
 31
0.0
  0
LINE
  5
226
330
61
100
AcDbEntity
  8
1
  6
Continuous
 62
     7
100
AcDbLine
 10
137.4938320021241
 20
779.926001591971
 30
0.0
 11
138.4938320021241
 21
779.926001591971
 31
0.0
  0
LINE
  5
227
330
61
100
AcDbEntity
  8
1
  6
Continuous
 62
     7
100
AcDbLine
 10
137.4938320021241
 20
768.6580523995399
 30
0.0
 11
137.4938320021241
 21
779.926001591971
 31
0.0
  0
LINE
  5
228
330
61
100
AcDbEntity
  8
1
  6
Continuous
 62
     7
100
AcDbLine
 10
138.4938320021241
 20
768.6580523995399
 30
0.0
 11
137.4938320021241
 21
768.6580523995399
 31
0.0
  0
LINE
  5
229
330
61
100
AcDbEntity
  8
1
  6
Continuous
 62
     7
100
AcDbLine
 10
138.4938320021241
 20
780.926001591971
 30
0.0
 11
137.4938320021241
 21
779.926001591971
 31
0.0
  0
LINE
  5
22A
330
61
100
AcDbEntity
  8
1
  6
Continuous
 62
     7
100
AcDbLine
 10
137.4938320021241
 20
766.926001591971
 30
0.0
 11
137.4938320021241
 21
768.6580523995399
 31
0.0
  0
LINE
  5
22B
330
61
100
AcDbEntity
  8
1
  6
Continuous
 62
     7
100
AcDbLine
 10
125.4938320021241
 20
764.426001591971
 30
0.0
 11
135.2438320021241
 21
764.426001591971
 31
0.0
  0
LINE
  5
22C
330
61
100
AcDbEntity
  8
1
  6
Continuous
 62
     7
100
AcDbLine
 10
139.2438320021241
 20
760.426001591971
 30
0.0
 11
139.2438320021241
 21
745.9455249011458
 31
0.0
  0
LINE
  5
22D
330
61
100
AcDbEntity
  8
1
  6
Continuous
 62
     2
100
AcDbLine
 10
138.4938320021241
 20
779.926001591971
 30
0.0
 11
138.4938320021241
 21
780.926001591971
 31
0.0
  0
LINE
  5
22E
330
61
100
AcDbEntity
  8
1
  6
Continuous
 62
     2
100
AcDbLine
 10
138.4938320021241
 20
768.6580523995399
 30
0.0
 11
138.4938320021241
 21
779.926001591971
 31
0.0
  0
LINE
  5
22F
330
61
100
AcDbEntity
  8
1
  6
Continuous
 62
     2
100
AcDbLine
 10
137.4938320021241
 20
766.926001591971
 30
0.0
 11
138.4938320021241
 21
768.6580523995399
 31
0.0
  0
LINE
  5
230
330
61
100
AcDbEntity
  8
1
  6
Continuous
 62
     7
100
AcDbLine
 10
124.9938320021241
 20
766.926001591971
 30
0.0
 11
137.4938320021241
 21
766.926001591971
 31
0.0
  0
LINE
  5
231
330
61
100
AcDbEntity
  8
1
  6
Continuous
 62
     7
100
AcDbLine
 10
124.9938320021241
 20
766.926001591971
 30
0.0
 11
124.9938320021241
 21
764.926001591971
 31
0.0
  0
LINE
  5
232
330
61
100
AcDbEntity
  8
1
  6
Continuous
 62
     7
100
AcDbLine
 10
156.743832002124
 20
760.426001591971
 30
0.0
 11
156.743832002124
 21
745.9455249011458
 31
0.0
  0
LINE
  5
233
330
61
100
AcDbEntity
  8
1
  6
Continuous
 62
     7
100
AcDbLine
 10
160.743832002124
 20
764.426001591971
 30
0.0
 11
170.4938320021241
 21
764.426001591971
 31
0.0
  0
LINE
  5
234
330
61
100
AcDbEntity
  8
1
  6
Continuous
 62
     7
100
AcDbLine
 10
170.9938320021241
 20
764.926001591971
 30
0.0
 11
170.9938320021241
 21
766.926001591971
 31
0.0
  0
LINE
  5
235
330
61
100
AcDbEntity
  8
1
  6
Continuous
 62
     7
100
AcDbLine
 10
158.493832002124
 20
766.926001591971
 30
0.0
 11
170.9938320021241
 21
766.926001591971
 31
0.0
  0
LINE
  5
236
330
61
100
AcDbEntity
  8
1
  6
Continuous
 62
     2
100
AcDbLine
 10
157.493832002124
 20
768.6580523995399
 30
0.0
 11
158.493832002124
 21
766.926001591971
 31
0.0
  0
LINE
  5
237
330
61
100
AcDbEntity
  8
1
  6
Continuous
 62
     2
100
AcDbLine
 10
157.493832002124
 20
779.926001591971
 30
0.0
 11
157.493832002124
 21
768.6580523995399
 31
0.0
  0
LINE
  5
238
330
61
100
AcDbEntity
  8
1
  6
Continuous
 62
     2
100
AcDbLine
 10
157.493832002124
 20
780.926001591971
 30
0.0
 11
157.493832002124
 21
779.926001591971
 31
0.0
  0
LINE
  5
239
330
61
100
AcDbEntity
  8
1
  6
Continuous
 62
     7
100
AcDbLine
 10
513.6726371779166
 20
278.3743136727215
 30
0.0
 11
513.6726371779166
 21
268.6243136727215
 31
0.0
  0
LINE
  5
23A
330
61
100
AcDbEntity
  8
1
  6
Continuous
 62
     7
100
AcDbLine
 10
516.1726371779167
 20
278.8743136727215
 30
0.0
 11
514.1726371779166
 21
278.8743136727215
 31
0.0
  0
LINE
  5
23B
330
61
100
AcDbEntity
  8
1
  6
Continuous
 62
     7
100
AcDbLine
 10
516.1726371779167
 20
278.8743136727215
 30
0.0
 11
516.1726371779167
 21
266.3743136727215
 31
0.0
  0
LINE
  5
23C
330
61
100
AcDbEntity
  8
1
  6
Continuous
 62
     2
100
AcDbLine
 10
516.1726371779167
 20
266.3743136727215
 30
0.0
 11
517.9046879854856
 21
265.3743136727215
 31
0.0
  0
LINE
  5
23D
330
61
100
AcDbEntity
  8
1
  6
Continuous
 62
     7
100
AcDbLine
 10
530.1726371779167
 20
265.3743136727215
 30
0.0
 11
529.1726371779167
 21
266.3743136727215
 31
0.0
  0
LINE
  5
23E
330
61
100
AcDbEntity
  8
1
  6
Continuous
 62
     7
100
AcDbLine
 10
517.9046879854856
 20
265.3743136727215
 30
0.0
 11
517.9046879854856
 21
266.3743136727215
 31
0.0
  0
LINE
  5
23F
330
61
100
AcDbEntity
  8
1
  6
Continuous
 62
     7
100
AcDbLine
 10
516.1726371779167
 20
266.3743136727215
 30
0.0
 11
529.1726371779167
 21
266.3743136727215
 31
0.0
  0
LINE
  5
240
330
61
100
AcDbEntity
  8
1
  6
Continuous
 62
     7
100
AcDbLine
 10
529.1726371779167
 20
266.3743136727215
 30
0.0
 11
529.1726371779167
 21
265.3743136727215
 31
0.0
  0
LINE
  5
241
330
61
100
AcDbEntity
  8
1
  6
Continuous
 62
     2
100
AcDbLine
 10
517.9046879854856
 20
265.3743136727215
 30
0.0
 11
530.1726371779167
 21
265.3743136727215
 31
0.0
  0
LINE
  5
242
330
61
100
AcDbEntity
  8
1
  6
Continuous
 62
     7
100
AcDbLine
 10
529.1726371779167
 20
246.3743136727215
 30
0.0
 11
529.1726371779167
 21
245.3743136727215
 31
0.0
  0
LINE
  5
243
330
61
100
AcDbEntity
  8
1
  6
Continuous
 62
     7
100
AcDbLine
 10
517.9046879854856
 20
245.3743136727215
 30
0.0
 11
517.9046879854856
 21
246.3743136727215
 31
0.0
  0
LINE
  5
244
330
61
100
AcDbEntity
  8
1
  6
Continuous
 62
     7
100
AcDbLine
 10
529.1726371779167
 20
245.3743136727215
 30
0.0
 11
530.1726371779167
 21
246.3743136727215
 31
0.0
  0
LINE
  5
245
330
61
100
AcDbEntity
  8
1
  6
Continuous
 62
     2
100
AcDbLine
 10
530.1726371779167
 20
246.3743136727215
 30
0.0
 11
517.9046879854856
 21
246.3743136727215
 31
0.0
  0
LINE
  5
246
330
61
100
AcDbEntity
  8
1
  6
Continuous
 62
     2
100
AcDbLine
 10
517.9046879854856
 20
246.3743136727215
 30
0.0
 11
516.1726371779167
 21
245.3743136727215
 31
0.0
  0
LINE
  5
247
330
61
100
AcDbEntity
  8
1
  6
Continuous
 62
     7
100
AcDbLine
 10
529.1726371779167
 20
245.3743136727215
 30
0.0
 11
516.1726371779167
 21
245.3743136727215
 31
0.0
  0
LINE
  5
248
330
61
100
AcDbEntity
  8
1
  6
Continuous
 62
     7
100
AcDbLine
 10
516.1726371779167
 20
245.3743136727215
 30
0.0
 11
516.1726371779167
 21
232.8743136727215
 31
0.0
  0
LINE
  5
249
330
61
100
AcDbEntity
  8
1
  6
Continuous
 62
     7
100
AcDbLine
 10
514.1726371779166
 20
232.8743136727215
 30
0.0
 11
516.1726371779167
 21
232.8743136727215
 31
0.0
  0
LINE
  5
24A
330
61
100
AcDbEntity
  8
1
  6
Continuous
 62
     7
100
AcDbLine
 10
513.6726371779166
 20
243.1243136727215
 30
0.0
 11
513.6726371779166
 21
233.3743136727215
 31
0.0
  0
LINE
  5
24B
330
61
100
AcDbEntity
  8
1
  6
Continuous
 62
     7
100
AcDbLine
 10
530.1726371779167
 20
265.3743136727215
 30
0.0
 11
530.1726371779167
 21
246.3743136727215
 31
0.0
  0
LINE
  5
24C
330
61
100
AcDbEntity
  8
1
  6
Continuous
 62
     7
100
AcDbLine
 10
509.6726371779166
 20
264.6243136727215
 30
0.0
 11
495.1921604870915
 21
264.6243136727215
 31
0.0
  0
LINE
  5
24D
330
61
100
AcDbEntity
  8
1
  6
Continuous
 62
     2
100
AcDbLine
 10
482.1726371779166
 20
279.8743136727215
 30
0.0
 11
483.1726371779166
 21
278.1422628651526
 31
0.0
  0
LINE
  5
24E
330
61
100
AcDbEntity
  8
1
  6
Continuous
 62
     2
100
AcDbLine
 10
482.1726371779166
 20
281.3743136727215
 30
0.0
 11
482.1726371779166
 21
279.8743136727215
 31
0.0
  0
LINE
  5
24F
330
61
100
AcDbEntity
  8
1
  6
Continuous
 62
     7
100
AcDbLine
 10
482.1726371779166
 20
279.8743136727215
 30
0.0
 11
483.1726371779166
 21
279.8743136727215
 31
0.0
  0
LINE
  5
250
330
61
100
AcDbEntity
  8
1
  6
Continuous
 62
     7
100
AcDbLine
 10
483.1726371779166
 20
271.206334649755
 30
0.0
 11
483.1726371779166
 21
281.3743136727215
 31
0.0
  0
LINE
  5
251
330
61
100
AcDbEntity
  8
1
  6
Continuous
 62
     7
100
AcDbLine
 10
459.1726371779166
 20
279.8743136727215
 30
0.0
 11
460.1726371779166
 21
279.8743136727215
 31
0.0
  0
LINE
  5
252
330
61
100
AcDbEntity
  8
1
  6
Continuous
 62
     2
100
AcDbLine
 10
460.1726371779166
 20
279.8743136727215
 30
0.0
 11
460.1726371779166
 21
281.3743136727215
 31
0.0
  0
LINE
  5
253
330
61
100
AcDbEntity
  8
1
  6
Continuous
 62
     2
100
AcDbLine
 10
459.1726371779166
 20
278.1422628651526
 30
0.0
 11
460.1726371779166
 21
279.8743136727215
 31
0.0
  0
LINE
  5
254
330
61
100
AcDbEntity
  8
1
  6
Continuous
 62
     7
100
AcDbLine
 10
495.1921604870915
 20
247.1243136727215
 30
0.0
 11
509.6726371779166
 21
247.1243136727215
 31
0.0
  0
LINE
  5
255
330
61
100
AcDbEntity
  8
1
  6
Continuous
 62
     7
100
AcDbLine
 10
446.6726371779166
 20
242.8743136727215
 30
0.0
 11
445.1726371779167
 21
242.8743136727215
 31
0.0
  0
LINE
  5
256
330
61
100
AcDbEntity
  8
1
  6
Continuous
 62
     2
100
AcDbLine
 10
445.1726371779166
 20
243.6873136727214
 30
0.0
 11
448.081018711143
 21
243.6873136727214
 31
0.0
  0
LINE
  5
257
330
61
100
AcDbEntity
  8
1
  6
Continuous
 62
     7
100
AcDbLine
 10
446.6726371779166
 20
242.8743136727215
 30
0.0
 11
446.6726371779166
 21
243.6873136727214
 31
0.0
  0
LINE
  5
258
330
61
100
AcDbEntity
  8
1
  6
Continuous
 62
     7
100
AcDbLine
 10
446.6726371779166
 20
268.0613136727215
 30
0.0
 11
446.6726371779166
 21
268.8743136727215
 31
0.0
  0
LINE
  5
259
330
61
100
AcDbEntity
  8
1
  6
Continuous
 62
     2
100
AcDbLine
 10
448.081018711143
 20
268.0613136727215
 30
0.0
 11
445.1726371779166
 21
268.0613136727215
 31
0.0
  0
LINE
  5
25A
330
61
100
AcDbEntity
  8
1
  6
Continuous
 62
     7
100
AcDbLine
 10
445.1726371779167
 20
268.8743136727215
 30
0.0
 11
446.6726371779166
 21
268.8743136727215
 31
0.0
  0
LINE
  5
25B
330
61
100
AcDbEntity
  8
1
  6
Continuous
 62
     7
100
AcDbLine
 10
459.1726371779166
 20
271.4521563899901
 30
0.0
 11
459.1726371779166
 21
281.3743136727215
 31
0.0
  0
LINE
  5
25C
330
61
100
AcDbEntity
  8
1
  6
Continuous
 62
     2
100
AcDbLine
 10
160.180832002124
 20
695.9260015919713
 30
0.0
 11
160.180832002124
 21
697.426001591971
 31
0.0
  0
LINE
  5
25D
330
61
100
AcDbEntity
  8
1
  6
Continuous
 62
     7
100
AcDbLine
 10
134.9938320021241
 20
695.9260015919713
 30
0.0
 11
134.9938320021241
 21
697.426001591971
 31
0.0
  0
LINE
  5
25E
330
61
100
AcDbEntity
  8
1
  6
Continuous
 62
     2
100
AcDbLine
 10
135.806832002124
 20
698.8343831251975
 30
0.0
 11
135.806832002124
 21
697.426001591971
 31
0.0
  0
LINE
  5
25F
330
61
100
AcDbEntity
  8
1
  6
Continuous
 62
     7
100
AcDbLine
 10
141.648200323448
 20
697.426001591971
 30
0.0
 11
134.9938320021241
 21
697.426001591971
 31
0.0
  0
LINE
  5
260
330
61
100
AcDbEntity
  8
1
  6
Continuous
 62
     2
100
AcDbLine
 10
160.180832002124
 20
697.426001591971
 30
0.0
 11
160.180832002124
 21
698.8343831251975
 31
0.0
  0
ARC
  5
261
330
61
100
AcDbEntity
  8
0
  6
Continuous
 62
     7
100
AcDbCircle
 10
147.9938320021242
 20
255.8743136727215
 30
0.0
 40
23.0
100
AcDbArc
 50
0.0
 51
57.42219882713918
  0
ARC
  5
262
330
61
100
AcDbEntity
  8
0
  6
Continuous
 62
     7
100
AcDbCircle
 10
147.9938320021242
 20
255.8743136727215
 30
0.0
 40
23.00000000000002
100
AcDbArc
 50
122.5778011728613
 51
-118.5518428271641
  0
ARC
  5
263
330
61
100
AcDbEntity
  8
0
  6
Continuous
 62
     7
100
AcDbCircle
 10
147.9938320021242
 20
255.8743136727215
 30
0.0
 40
23.00000000000008
100
AcDbArc
 50
-61.44815717283618
 51
0.0
  0
ARC
  5
264
330
61
100
AcDbEntity
  8
1
  6
Continuous
 62
     7
100
AcDbCircle
 10
174.9938320021241
 20
721.926001591971
 30
0.0
 40
40.00000000000004
100
AcDbArc
 50
-171.551598825078
 51
-162.85227084313
  0
ARC
  5
265
330
61
100
AcDbEntity
  8
1
  6
Continuous
 62
     7
100
AcDbCircle
 10
120.993832002124
 20
721.926001591971
 30
0.0
 40
40.00000000000004
100
AcDbArc
 50
-17.14772915686999
 51
-8.44840117492207
  0
ARC
  5
266
330
61
100
AcDbEntity
  8
1
  6
Continuous
 62
     7
100
AcDbCircle
 10
471.1726371779166
 20
282.8743136727215
 30
0.0
 40
40.00000000000004
100
AcDbArc
 50
-107.1477291568701
 51
-69.93194537918096
  0
ARC
  5
267
330
61
100
AcDbEntity
  8
1
  6
Continuous
 62
     7
100
AcDbCircle
 10
454.9226371779166
 20
230.2090075502724
 30
0.0
 40
15.11530612244905
100
AcDbArc
 50
72.8522708431302
 51
123.0796480024576
  0
ARC
  5
268
330
61
100
AcDbEntity
  8
1
  6
Continuous
 62
     7
100
AcDbCircle
 10
454.1726371779166
 20
271.4521563899901
 30
0.0
 40
5.000000000000138
100
AcDbArc
 50
-94.25210119307782
 51
0.0
  0
ARC
  5
269
330
61
100
AcDbEntity
  8
1
  6
Continuous
 62
     7
100
AcDbCircle
 10
454.9226371779166
 20
281.5396197951704
 30
0.0
 40
15.11530612244891
100
AcDbArc
 50
-123.079648002458
 51
-94.25210119307786
  0
ARC
  5
26A
330
61
100
AcDbEntity
  8
1
  6
Continuous
 62
     7
100
AcDbCircle
 10
173.659138124573
 20
705.676001591971
 30
0.0
 40
15.11530612244896
100
AcDbArc
 50
162.8522708431299
 51
-153.0875481918084
  0
ARC
  5
26B
330
61
100
AcDbEntity
  8
1
  6
Continuous
 62
     7
100
AcDbCircle
 10
173.659138124573
 20
705.676001591971
 30
0.0
 40
15.11530612244895
100
AcDbArc
 50
-153.0875481918084
 51
-146.9203519975422
  0
ARC
  5
26C
330
61
100
AcDbEntity
  8
1
  6
Continuous
 62
     7
100
AcDbCircle
 10
122.3285258796751
 20
705.676001591971
 30
0.0
 40
15.11530612244899
100
AcDbArc
 50
-33.07964800245782
 51
-26.91245180819176
  0
ARC
  5
26D
330
61
100
AcDbEntity
  8
1
  6
Continuous
 62
     7
100
AcDbCircle
 10
122.3285258796751
 20
705.676001591971
 30
0.0
 40
15.11530612244886
100
AcDbArc
 50
-26.91245180819176
 51
17.14772915687012
  0
ARC
  5
26E
330
61
100
AcDbEntity
  8
1
  6
Continuous
 62
     7
100
AcDbCircle
 10
514.1726371779166
 20
278.3743136727215
 30
0.0
 40
0.5
100
AcDbArc
 50
90.0
 51
180.0
  0
ARC
  5
26F
330
61
100
AcDbEntity
  8
1
  6
Continuous
 62
     7
100
AcDbCircle
 10
514.1726371779166
 20
233.3743136727215
 30
0.0
 40
0.5
100
AcDbArc
 50
180.0
 51
-90.0
  0
ARC
  5
270
330
61
100
AcDbEntity
  8
1
  6
Continuous
 62
     7
100
AcDbCircle
 10
509.6726371779166
 20
243.1243136727215
 30
0.0
 40
4.0
100
AcDbArc
 50
0.0
 51
90.0
  0
ARC
  5
271
330
61
100
AcDbEntity
  8
1
  6
Continuous
 62
     7
100
AcDbCircle
 10
509.6726371779166
 20
268.6243136727215
 30
0.0
 40
4.0
100
AcDbArc
 50
-90.0
 51
0.0
  0
ARC
  5
272
330
61
100
AcDbEntity
  8
1
  6
Continuous
 62
     7
100
AcDbCircle
 10
125.4938320021241
 20
764.926001591971
 30
0.0
 40
0.5
100
AcDbArc
 50
180.0
 51
-90.0
  0
ARC
  5
273
330
61
100
AcDbEntity
  8
1
  6
Continuous
 62
     7
100
AcDbCircle
 10
170.4938320021241
 20
764.926001591971
 30
0.0
 40
0.5
100
AcDbArc
 50
-90.0
 51
0.0
  0
ARC
  5
274
330
61
100
AcDbEntity
  8
1
  6
Continuous
 62
     7
100
AcDbCircle
 10
160.743832002124
 20
760.426001591971
 30
0.0
 40
4.0
100
AcDbArc
 50
90.0
 51
180.0
  0
ARC
  5
275
330
61
100
AcDbEntity
  8
1
  6
Continuous
 62
     7
100
AcDbCircle
 10
135.2438320021241
 20
760.426001591971
 30
0.0
 40
4.0
100
AcDbArc
 50
0.0
 51
90.0
  0
ARC
  5
276
330
61
100
AcDbEntity
  8
1
  6
Continuous
 62
     7
100
AcDbCircle
 10
109.2438320021241
 20
745.9455249011458
 30
0.0
 40
29.99999999999984
100
AcDbArc
 50
-16.3396281907041
 51
0.0
  0
ARC
  5
277
330
61
100
AcDbEntity
  8
1
  6
Continuous
 62
     7
100
AcDbCircle
 10
489.1726371779166
 20
271.206334649755
 30
0.0
 40
6.0
100
AcDbArc
 50
180.0
 51
-120.0881938159434
  0
ARC
  5
278
330
61
100
AcDbEntity
  8
1
  6
Continuous
 62
     7
100
AcDbCircle
 10
495.1921604870916
 20
294.6243136727215
 30
0.0
 40
29.99999999999992
100
AcDbArc
 50
-107.5127047003519
 51
-90.00000000000021
  0
ARC
  5
279
330
61
100
AcDbEntity
  8
1
  6
Continuous
 62
     7
100
AcDbCircle
 10
495.1921604870916
 20
217.1243136727215
 30
0.0
 40
30.0
100
AcDbArc
 50
90.00000000000021
 51
110.0680546208194
  0
ARC
  5
27A
330
61
100
AcDbEntity
  8
1
  6
Continuous
 62
     7
100
AcDbCircle
 10
186.7438320021241
 20
745.9455249011458
 30
0.0
 40
30.00000000000009
100
AcDbArc
 50
180.0
 51
-163.660371809296
  0
ENDBLK
  5
63
330
61
100
AcDbEntity
  8
0
100
AcDbBlockEnd
  0
BLOCK
  5
2A0
330
298
100
AcDbEntity
  8
0
100
AcDbBlockBegin
  2
*D014
 70
     1
 71
     0
 10
0.0
 20
0.0
 30
0.0
  3
*D014
  1

  0
LINE
  5
299
330
298
100
AcDbEntity
  8
1
  6
Continuous
 62
     2
100
AcDbLine
 10
584.1726371779167
 20
255.8743136727215
 30
0.0
 11
584.1726371779167
 21
197.374313672722
 31
0.0
  0
LINE
  5
29A
330
298
100
AcDbEntity
  8
1
  6
Continuous
 62
     2
100
AcDbLine
 10
401.3726371779167
 20
197.374313672722
 30
0.0
 11
587.1726371779167
 21
197.374313672722
 31
0.0
  0
LINE
  5
29B
330
298
100
AcDbEntity
  8
1
  6
Continuous
 62
     2
100
AcDbLine
 10
563.3729453833821
 20
255.8743136727215
 30
0.0
 11
587.1726371779167
 21
255.8743136727215
 31
0.0
  0
LINE
  5
29C
330
298
100
AcDbEntity
  8
1
  6
Continuous
 62
     2
100
AcDbLine
 10
539.1726371779167
 20
255.8743136727215
 30
0.0
 11
546.4934035598692
 21
255.8743136727215
 31
0.0
  0
SOLID
  5
29D
330
298
100
AcDbEntity
  8
1
 62
     2
100
AcDbTrace
 10
585.5549884025844
 20
245.3743136727215
 30
0.0
 11
582.7902859532491
 21
245.3743136727215
 31
0.0
 12
584.1726371779167
 22
255.8743136727215
 32
0.0
 13
584.1726371779167
 23
255.8743136727215
 33
0.0
  0
SOLID
  5
29E
330
298
100
AcDbEntity
  8
1
 62
     2
100
AcDbTrace
 10
582.7902859532491
 20
207.874313672722
 30
0.0
 11
585.5549884025844
 21
207.874313672722
 31
0.0
 12
584.1726371779167
 22
197.374313672722
 32
0.0
 13
584.1726371779167
 23
197.374313672722
 33
0.0
  0
MTEXT
  5
29F
330
298
100
AcDbEntity
  8
1
 62
     7
100
AcDbMText
 10
581.1726371779167
 20
218.7493136727217
 30
0.0
 40
10.5
 41
0.0
 71
     7
 72
     1
  1
59
  7
CONVERTER_2
 11
0.0
 21
1.0
 31
0.0
 73
     1
 44
0.60024009603842
  0
ENDBLK
  5
2A1
330
298
100
AcDbEntity
  8
0
100
AcDbBlockEnd
  0
BLOCK
  5
2AB
330
2A4
100
AcDbEntity
  8
0
100
AcDbBlockBegin
  2
*D115
 70
     1
 71
     0
 10
0.0
 20
0.0
 30
0.0
  3
*D115
  1

  0
LINE
  5
2A5
330
2A4
100
AcDbEntity
  8
1
  6
Continuous
 62
     2
100
AcDbLine
 10
212.5215762503264
 20
721.926001591971
 30
0.0
 11
212.5215762503264
 21
766.926001591971
 31
0.0
  0
LINE
  5
2A6
330
2A4
100
AcDbEntity
  8
1
  6
Continuous
 62
     2
100
AcDbLine
 10
170.9938320021241
 20
766.926001591971
 30
0.0
 11
215.5215762503264
 21
766.926001591971
 31
0.0
  0
LINE
  5
2A7
330
2A4
100
AcDbEntity
  8
1
  6
Continuous
 62
     2
100
AcDbLine
 10
159.2723413115479
 20
721.926001591971
 30
0.0
 11
215.5215762503264
 21
721.926001591971
 31
0.0
  0
SOLID
  5
2A8
330
2A4
100
AcDbEntity
  8
1
 62
     2
100
AcDbTrace
 10
211.1392250256588
 20
732.426001591971
 30
0.0
 11
213.9039274749941
 21
732.426001591971
 31
0.0
 12
212.5215762503264
 22
721.926001591971
 32
0.0
 13
212.5215762503264
 23
721.926001591971
 33
0.0
  0
SOLID
  5
2A9
330
2A4
100
AcDbEntity
  8
1
 62
     2
100
AcDbTrace
 10
213.9039274749941
 20
756.426001591971
 30
0.0
 11
211.1392250256588
 21
756.426001591971
 31
0.0
 12
212.5215762503264
 22
766.926001591971
 32
0.0
 13
212.5215762503264
 23
766.926001591971
 33
0.0
  0
MTEXT
  5
2AA
330
2A4
100
AcDbEntity
  8
1
 62
     7
100
AcDbMText
 10
209.5215762503264
 20
736.3772991534631
 30
0.0
 40
10.5
 41
0.0
 71
     7
 72
     1
  1
45
  7
CONVERTER_2
 11
0.0
 21
1.0
 31
0.0
 73
     1
 44
0.60024009603842
  0
ENDBLK
  5
2AC
330
2A4
100
AcDbEntity
  8
0
100
AcDbBlockEnd
  0
BLOCK
  5
2B6
330
2AF
100
AcDbEntity
  8
0
100
AcDbBlockBegin
  2
*D216
 70
     1
 71
     0
 10
0.0
 20
0.0
 30
0.0
  3
*D216
  1

  0
LINE
  5
2B0
330
2AF
100
AcDbEntity
  8
1
  6
Continuous
 62
     2
100
AcDbLine
 10
201.3726371779166
 20
255.8743136727215
 30
0.0
 11
201.3726371779166
 21
423.1743136727222
 31
0.0
  0
LINE
  5
2B1
330
2AF
100
AcDbEntity
  8
1
  6
Continuous
 62
     2
100
AcDbLine
 10
307.8726371779167
 20
423.1743136727222
 30
0.0
 11
198.3726371779166
 21
423.1743136727222
 31
0.0
  0
LINE
  5
2B2
330
2AF
100
AcDbEntity
  8
1
  6
Continuous
 62
     2
100
AcDbLine
 10
432.8726371779167
 20
255.8743136727215
 30
0.0
 11
198.3726371779166
 21
255.8743136727215
 31
0.0
  0
SOLID
  5
2B3
330
2AF
100
AcDbEntity
  8
1
 62
     2
100
AcDbTrace
 10
199.990285953249
 20
266.3743136727215
 30
0.0
 11
202.7549884025843
 21
266.3743136727215
 31
0.0
 12
201.3726371779166
 22
255.8743136727215
 32
0.0
 13
201.3726371779166
 23
255.8743136727215
 33
0.0
  0
SOLID
  5
2B4
330
2AF
100
AcDbEntity
  8
1
 62
     2
100
AcDbTrace
 10
202.7549884025843
 20
412.6743136727222
 30
0.0
 11
199.990285953249
 21
412.6743136727222
 31
0.0
 12
201.3726371779166
 22
423.1743136727222
 32
0.0
 13
201.3726371779166
 23
423.1743136727222
 33
0.0
  0
MTEXT
  5
2B5
330
2AF
100
AcDbEntity
  8
1
 62
     7
100
AcDbMText
 10
198.3726371779166
 20
328.4993136727219
 30
0.0
 40
10.5
 41
0.0
 71
     7
 72
     1
  1
168
  7
CONVERTER_2
 11
0.0
 21
1.0
 31
0.0
 73
     1
 44
0.60024009603842
  0
ENDBLK
  5
2B7
330
2AF
100
AcDbEntity
  8
0
100
AcDbBlockEnd
  0
BLOCK
  5
2C3
330
2BA
100
AcDbEntity
  8
0
100
AcDbBlockBegin
  2
*D317
 70
     1
 71
     0
 10
0.0
 20
0.0
 30
0.0
  3
*D317
  1

  0
LINE
  5
2BB
330
2BA
100
AcDbEntity
  8
1
  6
Continuous
 62
     2
100
AcDbLine
 10
495.1726371779167
 20
156.1243136727219
 30
0.0
 11
516.1726371779167
 21
156.1243136727219
 31
0.0
  0
LINE
  5
2BC
330
2BA
100
AcDbEntity
  8
1
  6
Continuous
 62
     2
100
AcDbLine
 10
516.1726371779167
 20
156.1243136727219
 30
0.0
 11
530.1726371779167
 21
156.1243136727219
 31
0.0
  0
LINE
  5
2BD
330
2BA
100
AcDbEntity
  8
1
  6
Continuous
 62
     2
100
AcDbLine
 10
530.1726371779167
 20
156.1243136727219
 30
0.0
 11
551.1726371779167
 21
156.1243136727219
 31
0.0
  0
LINE
  5
2BE
330
2BA
100
AcDbEntity
  8
1
  6
Continuous
 62
     2
100
AcDbLine
 10
530.1726371779167
 20
246.3743136727215
 30
0.0
 11
530.1726371779167
 21
153.1243136727219
 31
0.0
  0
LINE
  5
2BF
330
2BA
100
AcDbEntity
  8
1
  6
Continuous
 62
     2
100
AcDbLine
 10
516.1726371779167
 20
232.8743136727215
 30
0.0
 11
516.1726371779167
 21
153.1243136727219
 31
0.0
  0
SOLID
  5
2C0
330
2BA
100
AcDbEntity
  8
1
 62
     2
100
AcDbTrace
 10
505.6726371779167
 20
154.7419624480543
 30
0.0
 11
505.6726371779167
 21
157.5066648973896
 31
0.0
 12
516.1726371779167
 22
156.1243136727219
 32
0.0
 13
516.1726371779167
 23
156.1243136727219
 33
0.0
  0
SOLID
  5
2C1
330
2BA
100
AcDbEntity
  8
1
 62
     2
100
AcDbTrace
 10
540.6726371779167
 20
157.5066648973896
 30
0.0
 11
540.6726371779167
 21
154.7419624480543
 31
0.0
 12
530.1726371779167
 22
156.1243136727219
 32
0.0
 13
530.1726371779167
 23
156.1243136727219
 33
0.0
  0
MTEXT
  5
2C2
330
2BA
100
AcDbEntity
  8
1
 62
     7
100
AcDbMText
 10
516.4880480443551
 20
159.1243136727219
 30
0.0
 40
10.5
 41
0.0
 71
     7
 72
     1
  1
14
  7
CONVERTER_2
 11
0.9999999999970621
 21
2.424068405545307E-6
 31
0.0
 73
     1
 44
0.60024009603842
  0
ENDBLK
  5
2C4
330
2BA
100
AcDbEntity
  8
0
100
AcDbBlockEnd
  0
BLOCK
  5
2D0
330
2C7
100
AcDbEntity
  8
0
100
AcDbBlockBegin
  2
*D418
 70
     1
 71
     0
 10
0.0
 20
0.0
 30
0.0
  3
*D418
  1

  0
LINE
  5
2C8
330
2C7
100
AcDbEntity
  8
1
  6
Continuous
 62
     2
100
AcDbLine
 10
584.1726371779167
 20
314.3585322405624
 30
0.0
 11
584.1726371779167
 21
388.5580071845831
 31
0.0
  0
LINE
  5
2C9
330
2C7
100
AcDbEntity
  8
1
  6
Continuous
 62
     2
100
AcDbLine
 10
584.1726371779167
 20
255.8743136727215
 30
0.0
 11
584.1726371779167
 21
314.3585322405624
 31
0.0
  0
LINE
  5
2CA
330
2C7
100
AcDbEntity
  8
1
  6
Continuous
 62
     2
100
AcDbLine
 10
564.9550900807171
 20
255.8743136727215
 30
0.0
 11
587.1726371779167
 21
255.8743136727215
 31
0.0
  0
LINE
  5
2CB
330
2C7
100
AcDbEntity
  8
1
  6
Continuous
 62
     2
100
AcDbLine
 10
539.1726371779168
 20
255.8743136727215
 30
0.0
 11
546.5844440280372
 21
255.8743136727215
 31
0.0
  0
LINE
  5
2CC
330
2C7
100
AcDbEntity
  8
1
  6
Continuous
 62
     2
100
AcDbLine
 10
471.1726371779166
 20
314.3585322405624
 30
0.0
 11
587.1726371779167
 21
314.3585322405624
 31
0.0
  0
SOLID
  5
2CD
330
2C7
100
AcDbEntity
  8
1
 62
     2
100
AcDbTrace
 10
582.7902859532491
 20
266.3743136727215
 30
0.0
 11
585.5549884025844
 21
266.3743136727215
 31
0.0
 12
584.1726371779167
 22
255.8743136727215
 32
0.0
 13
584.1726371779167
 23
255.8743136727215
 33
0.0
  0
SOLID
  5
2CE
330
2C7
100
AcDbEntity
  8
1
 62
     2
100
AcDbTrace
 10
585.5549884025844
 20
303.8585322405624
 30
0.0
 11
582.7902859532491
 21
303.8585322405624
 31
0.0
 12
584.1726371779167
 22
314.3585322405624
 32
0.0
 13
584.1726371779167
 23
314.3585322405624
 33
0.0
  0
MTEXT
  5
2CF
330
2C7
100
AcDbEntity
  8
1
 62
     7
100
AcDbMText
 10
581.1726371779167
 20
331.8580071845831
 30
0.0
 40
10.5
 41
0.0
 71
     7
 72
     1
  1
59リフト5
  7
CONVERTER_1
 11
0.0
 21
1.0
 31
0.0
 73
     1
 44
0.60024009603842
  0
ENDBLK
  5
2D1
330
2C7
100
AcDbEntity
  8
0
100
AcDbBlockEnd
  0
BLOCK
  5
2DB
330
2D4
100
AcDbEntity
  8
0
100
AcDbBlockBegin
  2
*D519
 70
     1
 71
     0
 10
0.0
 20
0.0
 30
0.0
  3
*D519
  1

  0
LINE
  5
2D5
330
2D4
100
AcDbEntity
  8
1
  6
Continuous
 62
     2
100
AcDbLine
 10
560.1726371779167
 20
278.8743136727215
 30
0.0
 11
560.1726371779167
 21
232.8743136727215
 31
0.0
  0
LINE
  5
2D6
330
2D4
100
AcDbEntity
  8
1
  6
Continuous
 62
     2
100
AcDbLine
 10
516.1726371779168
 20
232.8743136727215
 30
0.0
 11
563.1726371779167
 21
232.8743136727215
 31
0.0
  0
LINE
  5
2D7
330
2D4
100
AcDbEntity
  8
1
  6
Continuous
 62
     2
100
AcDbLine
 10
516.1726371779168
 20
278.8743136727215
 30
0.0
 11
563.1726371779167
 21
278.8743136727215
 31
0.0
  0
SOLID
  5
2D8
330
2D4
100
AcDbEntity
  8
1
 62
     2
100
AcDbTrace
 10
561.5549884025844
 20
268.3743136727215
 30
0.0
 11
558.7902859532491
 21
268.3743136727215
 31
0.0
 12
560.1726371779167
 22
278.8743136727215
 32
0.0
 13
560.1726371779167
 23
278.8743136727215
 33
0.0
  0
SOLID
  5
2D9
330
2D4
100
AcDbEntity
  8
1
 62
     2
100
AcDbTrace
 10
558.7902859532491
 20
243.3743136727215
 30
0.0
 11
561.5549884025844
 21
243.3743136727215
 31
0.0
 12
560.1726371779167
 22
232.8743136727215
 32
0.0
 13
560.1726371779167
 23
232.8743136727215
 33
0.0
  0
MTEXT
  5
2DA
330
2D4
100
AcDbEntity
  8
1
 62
     7
100
AcDbMText
 10
557.1726371779167
 20
237.0793136727215
 30
0.0
 40
10.5
 41
0.0
 71
     7
 72
     1
  1
\C7;{\Fgdt;n}\C7;46
  7
CONVERTER_2
 11
0.0
 21
1.0
 31
0.0
 73
     1
 44
0.60024009603842
  0
ENDBLK
  5
2DC
330
2D4
100
AcDbEntity
  8
0
100
AcDbBlockEnd
  0
BLOCK
  5
2E6
330
2DF
100
AcDbEntity
  8
0
100
AcDbBlockBegin
  2
*D620
 70
     1
 71
     0
 10
0.0
 20
0.0
 30
0.0
  3
*D620
  1

  0
LINE
  5
2E0
330
2DF
100
AcDbEntity
  8
1
  6
Continuous
 62
     2
100
AcDbLine
 10
416.3726371779167
 20
156.1243136727219
 30
0.0
 11
360.3726371779167
 21
156.1243136727219
 31
0.0
  0
LINE
  5
2E1
330
2DF
100
AcDbEntity
  8
1
  6
Continuous
 62
     2
100
AcDbLine
 10
360.3726371779167
 20
224.374313672722
 30
0.0
 11
360.3726371779167
 21
153.1243136727219
 31
0.0
  0
LINE
  5
2E2
330
2DF
100
AcDbEntity
  8
1
  6
Continuous
 62
     2
100
AcDbLine
 10
416.3726371779167
 20
212.374313672722
 30
0.0
 11
416.3726371779167
 21
153.1243136727219
 31
0.0
  0
SOLID
  5
2E3
330
2DF
100
AcDbEntity
  8
1
 62
     2
100
AcDbTrace
 10
405.8726371779167
 20
154.7419624480543
 30
0.0
 11
405.8726371779167
 21
157.5066648973896
 31
0.0
 12
416.3726371779167
 22
156.1243136727219
 32
0.0
 13
416.3726371779167
 23
156.1243136727219
 33
0.0
  0
SOLID
  5
2E4
330
2DF
100
AcDbEntity
  8
1
 62
     2
100
AcDbTrace
 10
370.8726371779167
 20
157.5066648973896
 30
0.0
 11
370.8726371779167
 21
154.7419624480543
 31
0.0
 12
360.3726371779167
 22
156.1243136727219
 32
0.0
 13
360.3726371779167
 23
156.1243136727219
 33
0.0
  0
MTEXT
  5
2E5
330
2DF
100
AcDbEntity
  8
1
 62
     7
100
AcDbMText
 10
380.4976371779166
 20
159.1243136727219
 30
0.0
 40
10.5
 41
0.0
 71
     7
 72
     1
  1
56
  7
CONVERTER_2
 11
0.9999999999970621
 21
2.424068405545307E-6
 31
0.0
 73
     1
 44
0.60024009603842
  0
ENDBLK
  5
2E7
330
2DF
100
AcDbEntity
  8
0
100
AcDbBlockEnd
  0
BLOCK
  5
2F1
330
2EA
100
AcDbEntity
  8
0
100
AcDbBlockBegin
  2
*D721
 70
     1
 71
     0
 10
0.0
 20
0.0
 30
0.0
  3
*D721
  1

  0
LINE
  5
2EB
330
2EA
100
AcDbEntity
  8
1
  6
Continuous
 62
     2
100
AcDbLine
 10
416.3726371779167
 20
156.1243136727219
 30
0.0
 11
516.1726371779167
 21
156.1243136727219
 31
0.0
  0
LINE
  5
2EC
330
2EA
100
AcDbEntity
  8
1
  6
Continuous
 62
     2
100
AcDbLine
 10
516.1726371779167
 20
232.8743136727215
 30
0.0
 11
516.1726371779167
 21
153.1243136727219
 31
0.0
  0
LINE
  5
2ED
330
2EA
100
AcDbEntity
  8
1
  6
Continuous
 62
     2
100
AcDbLine
 10
416.3726371779167
 20
212.374313672722
 30
0.0
 11
416.3726371779167
 21
153.1243136727219
 31
0.0
  0
SOLID
  5
2EE
330
2EA
100
AcDbEntity
  8
1
 62
     2
100
AcDbTrace
 10
426.8726371779167
 20
157.5066648973896
 30
0.0
 11
426.8726371779167
 21
154.7419624480543
 31
0.0
 12
416.3726371779167
 22
156.1243136727219
 32
0.0
 13
416.3726371779167
 23
156.1243136727219
 33
0.0
  0
SOLID
  5
2EF
330
2EA
100
AcDbEntity
  8
1
 62
     2
100
AcDbTrace
 10
505.6726371779167
 20
154.7419624480543
 30
0.0
 11
505.6726371779167
 21
157.5066648973896
 31
0.0
 12
516.1726371779167
 22
156.1243136727219
 32
0.0
 13
516.1726371779167
 23
156.1243136727219
 33
0.0
  0
MTEXT
  5
2F0
330
2EA
100
AcDbEntity
  8
1
 62
     7
100
AcDbMText
 10
455.2476371779167
 20
159.1243136727219
 30
0.0
 40
10.5
 41
0.0
 71
     7
 72
     1
  1
100
  7
CONVERTER_2
 11
0.9999999999970621
 21
2.424068405545307E-6
 31
0.0
 73
     1
 44
0.60024009603842
  0
ENDBLK
  5
2F2
330
2EA
100
AcDbEntity
  8
0
100
AcDbBlockEnd
  0
BLOCK
  5
2FC
330
2F5
100
AcDbEntity
  8
0
100
AcDbBlockBegin
  2
*D822
 70
     1
 71
     0
 10
0.0
 20
0.0
 30
0.0
  3
*D822
  1

  0
LINE
  5
2F6
330
2F5
100
AcDbEntity
  8
1
  6
Continuous
 62
     2
100
AcDbLine
 10
225.3726371779166
 20
373.3557887991861
 30
0.0
 11
225.3726371779166
 21
255.8743136727215
 31
0.0
  0
LINE
  5
2F7
330
2F5
100
AcDbEntity
  8
1
  6
Continuous
 62
     2
100
AcDbLine
 10
432.8726371779167
 20
255.8743136727215
 30
0.0
 11
222.3726371779166
 21
255.8743136727215
 31
0.0
  0
LINE
  5
2F8
330
2F5
100
AcDbEntity
  8
1
  6
Continuous
 62
     2
100
AcDbLine
 10
255.3726371779166
 20
373.3557887991861
 30
0.0
 11
222.3726371779166
 21
373.3557887991861
 31
0.0
  0
SOLID
  5
2F9
330
2F5
100
AcDbEntity
  8
1
 62
     2
100
AcDbTrace
 10
226.7549884025843
 20
362.8557887991861
 30
0.0
 11
223.990285953249
 21
362.8557887991861
 31
0.0
 12
225.3726371779166
 22
373.3557887991861
 32
0.0
 13
225.3726371779166
 23
373.3557887991861
 33
0.0
  0
SOLID
  5
2FA
330
2F5
100
AcDbEntity
  8
1
 62
     2
100
AcDbTrace
 10
223.990285953249
 20
266.3743136727215
 30
0.0
 11
226.7549884025843
 21
266.3743136727215
 31
0.0
 12
225.3726371779166
 22
255.8743136727215
 32
0.0
 13
225.3726371779166
 23
255.8743136727215
 33
0.0
  0
MTEXT
  5
2FB
330
2F5
100
AcDbEntity
  8
1
 62
     7
100
AcDbMText
 10
222.3726371779166
 20
305.1650512359538
 30
0.0
 40
10.5
 41
0.0
 71
     7
 72
     1
  1
118
  7
CONVERTER_2
 11
0.0
 21
1.0
 31
0.0
 73
     1
 44
0.60024009603842
  0
ENDBLK
  5
2FD
330
2F5
100
AcDbEntity
  8
0
100
AcDbBlockEnd
  0
BLOCK
  5
307
330
300
100
AcDbEntity
  8
0
100
AcDbBlockBegin
  2
*D923
 70
     1
 71
     0
 10
0.0
 20
0.0
 30
0.0
  3
*D923
  1

  0
LINE
  5
301
330
300
100
AcDbEntity
  8
1
  6
Continuous
 62
     2
100
AcDbLine
 10
255.3726371779166
 20
156.1243136727219
 30
0.0
 11
360.3726371779167
 21
156.1243136727219
 31
0.0
  0
LINE
  5
302
330
300
100
AcDbEntity
  8
1
  6
Continuous
 62
     2
100
AcDbLine
 10
360.3726371779167
 20
224.374313672722
 30
0.0
 11
360.3726371779167
 21
153.1243136727219
 31
0.0
  0
LINE
  5
303
330
300
100
AcDbEntity
  8
1
  6
Continuous
 62
     2
100
AcDbLine
 10
255.3726371779166
 20
373.3557887991861
 30
0.0
 11
255.3726371779166
 21
153.1243136727219
 31
0.0
  0
SOLID
  5
304
330
300
100
AcDbEntity
  8
1
 62
     2
100
AcDbTrace
 10
265.8726371779166
 20
157.5066648973896
 30
0.0
 11
265.8726371779166
 21
154.7419624480543
 31
0.0
 12
255.3726371779166
 22
156.1243136727219
 32
0.0
 13
255.3726371779166
 23
156.1243136727219
 33
0.0
  0
SOLID
  5
305
330
300
100
AcDbEntity
  8
1
 62
     2
100
AcDbTrace
 10
349.8726371779167
 20
154.7419624480543
 30
0.0
 11
349.8726371779167
 21
157.5066648973896
 31
0.0
 12
360.3726371779167
 22
156.1243136727219
 32
0.0
 13
360.3726371779167
 23
156.1243136727219
 33
0.0
  0
MTEXT
  5
306
330
300
100
AcDbEntity
  8
1
 62
     7
100
AcDbMText
 10
296.8562202851859
 20
159.1243136727219
 30
0.0
 40
10.5
 41
0.0
 71
     7
 72
     1
  1
105
  7
CONVERTER_2
 11
0.9999999999970621
 21
2.424068405545307E-6
 31
0.0
 73
     1
 44
0.60024009603842
  0
ENDBLK
  5
308
330
300
100
AcDbEntity
  8
0
100
AcDbBlockEnd
  0
ENDSEC
  0
SECTION
  2
ENTITIES
  0
INSERT
  5
64
330
1F
100
AcDbEntity
  8
1
100
AcDbBlockReference
  2
04-30
 10
792.6911143699984
 20
235.2389603636583
 30
0.0
  0
INSERT
  5
65
330
1F
100
AcDbEntity
  8
0
100
AcDbBlockReference
  2
60-5X
 10
439.0958348897824
 20
150.0446723018314
 30
0.0
  0
INSERT
  5
66
330
1F
100
AcDbEntity
  8
0
100
AcDbBlockReference
  2
32-1-16__2
 10
447.2501073292951
 20
205.8639622416361
 30
0.0
  0
INSERT
  5
67
330
1F
100
AcDbEntity
  8
1
100
AcDbBlockReference
  2
_J__A4
 10
0.0
 20
0.0
 30
0.0
 41
3.0
 42
3.0
 43
3.0
  0
INSERT
  5
68
330
1F
100
AcDbEntity
  8
0
100
AcDbBlockReference
  2
R10A-13-B
 10
426.1726371779166
 20
255.8743136727215
 30
0.0
  0
INSERT
  5
69
330
1F
100
AcDbEntity
  8
0
100
AcDbBlockReference
  2
Y12-0A-13
 10
498.6231125716361
 20
398.9700510827934
 30
0.0
  0
LINE
  5
27B
330
1F
100
AcDbEntity
  8
1
  6
DASH_CENTER
 62
     2
100
AcDbLine
 10
255.6101937390029
 20
375.6630014555276
 30
0.0
 11
254.9982389309569
 21
369.2520463236171
 31
0.0
  0
LINE
  5
27C
330
1F
100
AcDbEntity
  8
1
  6
DASH_CENTER
 62
     2
100
AcDbLine
 10
360.3726371779167
 20
224.374313672722
 30
0.0
 11
360.3726371779167
 21
370.6743136727223
 31
0.0
  0
LINE
  5
27D
330
1F
100
AcDbEntity
  8
1
  6
DASH_CENTER
 62
     2
100
AcDbLine
 10
401.3726371779166
 20
197.374313672722
 30
0.0
 11
387.3726371779167
 21
197.3743136727219
 31
0.0
  0
LINE
  5
27E
330
1F
100
AcDbEntity
  8
1
  6
DASH_CENTER
 62
     2
100
AcDbLine
 10
416.3726371779167
 20
239.3743136727215
 30
0.0
 11
416.3726371779167
 21
211.1243136727223
 31
0.0
  0
LINE
  5
27F
330
1F
100
AcDbEntity
  8
1
  6
DASH_CENTER
 62
     2
100
AcDbLine
 10
147.9938320021239
 20
494.7108753843737
 30
0.0
 11
147.9938320021239
 21
786.5326631021724
 31
0.0
  0
LINE
  5
280
330
1F
100
AcDbEntity
  8
1
  6
DASH_CENTER
 62
     2
100
AcDbLine
 10
471.1726371779166
 20
239.3771070464898
 30
0.0
 11
471.1726371779166
 21
317.8743136727215
 31
0.0
  0
LINE
  5
281
330
1F
100
AcDbEntity
  8
0
  6
DASH_CENTER
 62
     2
100
AcDbLine
 10
147.993832002124
 20
437.5421267303803
 30
0.0
 11
147.9938320021241
 21
181.2737276985592
 31
0.0
  0
LINE
  5
282
330
1F
100
AcDbEntity
  8
1
  6
DASH_CENTER
 62
     2
100
AcDbLine
 10
176.5373657095349
 20
738.4056184615679
 30
0.0
 11
133.9362474213173
 21
713.8098513500866
 31
0.0
  0
LINE
  5
283
330
1F
100
AcDbEntity
  8
1
  6
DASH_CENTER
 62
     2
100
AcDbLine
 10
162.5294661930761
 20
713.5338492789829
 30
0.0
 11
119.122967068563
 21
738.5946032330999
 31
0.0
  0
LINE
  5
284
330
1F
100
AcDbEntity
  8
1
  6
DASH_CENTER
 62
     2
100
AcDbLine
 10
159.2723413115479
 20
721.926001591971
 30
0.0
 11
138.2584313034598
 21
721.926001591971
 31
0.0
  0
LINE
  5
285
330
1F
100
AcDbEntity
  8
1
  6
DASH_CENTER
 62
     2
100
AcDbLine
 10
432.8726371779167
 20
255.8743136727215
 30
0.0
 11
539.1726371779167
 21
255.8743136727215
 31
0.0
  0
LINE
  5
286
330
1F
100
AcDbEntity
  8
1
  6
DASH_CENTER
 62
     2
100
AcDbLine
 10
115.9938320021241
 20
255.8743136727215
 30
0.0
 11
179.9938320021241
 21
255.8743136727215
 31
0.0
  0
LINE
  5
287
330
1F
100
AcDbEntity
  8
1
  6
DASH_CENTER
 62
     2
100
AcDbLine
 10
168.2438320021242
 20
198.5743136727213
 30
0.0
 11
127.743832002124
 21
198.5743136727213
 31
0.0
  0
LINE
  5
288
330
1F
100
AcDbEntity
  8
1
  6
DASH_CENTER
 62
     2
100
AcDbLine
 10
165.2869316765348
 20
506.1424291167941
 30
0.0
 11
130.7007323277131
 21
506.1424291167941
 31
0.0
  0
LINE
  5
289
330
1F
100
AcDbEntity
  8
1
  6
DASH_CENTER
 62
     2
100
AcDbLine
 10
163.9938320021242
 20
611.1260015919711
 30
0.0
 11
131.9938320021238
 21
611.1260015919711
 31
0.0
  0
LINE
  5
28A
330
1F
100
AcDbEntity
  8
1
  6
DASH_CENTER
 62
     2
100
AcDbLine
 10
170.9938320021239
 20
667.1260015919711
 30
0.0
 11
124.993832002124
 21
667.1260015919711
 31
0.0
  0
ARC
  5
28B
330
1F
100
AcDbEntity
  8
1
  6
DASH_CENTER
 62
     2
100
AcDbCircle
 10
307.8726371779167
 20
370.6743136727223
 30
0.0
 40
52.5
100
AcDbArc
 50
90.0
 51
174.5473780121876
  0
ARC
  5
28C
330
1F
100
AcDbEntity
  8
1
  6
DASH_CENTER
 62
     2
100
AcDbCircle
 10
307.8726371779167
 20
370.6743136727223
 30
0.0
 40
52.5
100
AcDbArc
 50
0.0
 51
90.0
  0
ARC
  5
28D
330
1F
100
AcDbEntity
  8
1
  6
DASH_CENTER
 62
     2
100
AcDbCircle
 10
401.3726371779166
 20
212.374313672722
 30
0.0
 40
15.0
100
AcDbArc
 50
-90.0
 51
0.0
  0
ARC
  5
28E
330
1F
100
AcDbEntity
  8
1
  6
DASH_CENTER
 62
     2
100
AcDbCircle
 10
432.8726371779167
 20
239.3743136727215
 30
0.0
 40
16.5
100
AcDbArc
 50
90.0
 51
180.0
  0
ARC
  5
28F
330
1F
100
AcDbEntity
  8
1
  6
DASH_CENTER
 62
     2
100
AcDbCircle
 10
387.3726371779167
 20
224.374313672722
 30
0.0
 40
27.0
100
AcDbArc
 50
180.0
 51
-90.0
  0
SOLID
  5
290
330
1F
100
AcDbEntity
  8
1
 62
     2
100
AcDbTrace
 10
162.5466807246094
 20
783.2362280984374
 30
0.0
 11
164.9409832796388
 21
781.8538768737698
 31
0.0
 12
158.493832002124
 22
773.451785746367
 32
0.0
 13
158.493832002124
 23
773.451785746367
 33
0.0
  0
LEADER
  5
291
330
1F
100
AcDbEntity
  8
1
  6
Continuous
 62
     2
100
AcDbLeader
  3
Standard
 71
     0
 76
     3
 10
158.493832002124
 20
773.451785746367
 30
0.0
 10
170.3761005647717
 20
794.0324786060512
 30
0.0
 10
208.0042364633342
 20
794.0324786060512
 30
0.0
  0
MTEXT
  5
293
330
1F
100
AcDbEntity
  8
1
 62
     7
100
AcDbMText
 10
281.2500000000001
 20
50.99999999999997
 30
0.0
 40
10.5
 41
0.0
 71
     5
 72
     1
  1
3
  7
CONVERTER_2
 73
     1
 44
0.7202881152461
  0
MTEXT
  5
294
330
1F
100
AcDbEntity
  8
1
 62
     7
100
AcDbMText
 10
255.7500000000001
 20
50.99999999999997
 30
0.0
 40
10.5
 41
0.0
 71
     5
 72
     1
  1
1
  7
CONVERTER_2
 73
     1
 44
0.7202881152461
  0
MTEXT
  5
295
330
1F
100
AcDbEntity
  8
0
 62
     7
100
AcDbMText
 10
171.0
 20
42.75
 30
0.0
 40
10.5
 41
0.0
 71
     5
 72
     1
  1
A121A-13
  7
CONVERTER_2
 73
     1
 44
0.7202881152461
  0
MTEXT
  5
296
330
1F
100
AcDbEntity
  8
0
 62
     7
100
AcDbMText
 10
171.0
 20
68.25000000000007
 30
0.0
 40
10.5
 41
0.0
 71
     5
 72
     1
  1
折込形自在水栓
  7
CONVERTER_1
 73
     1
 44
1.32052821128451
  0
MTEXT
  5
297
330
1F
100
AcDbEntity
  8
1
 62
     7
100
AcDbMText
 10
190.3255827811153
 20
803.0324786060512
 30
0.0
 40
9.0
 41
0.0
 71
     5
 72
     1
  1
PJ1/2
  7
CONVERTER_2
 73
     1
 44
1.32052821128451
  0
DIMENSION
  5
2A3
330
1F
100
AcDbEntity
  8
1
100
AcDbDimension
  2
*D014
 10
584.1726371779167
 20
255.8743136727215
 30
0.0
 11
575.9226371779167
 21
226.6243136727217
 31
0.0
  1
59
 71
     5
 42
0.0
 53
90.0
  3
ME10_DIM_0
100
AcDbAlignedDimension
 13
401.3726371779165
 23
197.374313672722
 33
0.0
 14
539.1726371779167
 24
255.8743136727215
 34
0.0
 50
90.0
100
AcDbRotatedDimension
  0
DIMENSION
  5
2AE
330
1F
100
AcDbEntity
  8
1
100
AcDbDimension
  2
*D115
 10
212.5215762503264
 20
721.926001591971
 30
0.0
 11
204.2715762503264
 21
744.2522991534631
 31
0.0
  1
<>
 71
     5
 42
0.0
 53
90.0
  3
ME10_DIM_1
100
AcDbAlignedDimension
 13
170.9938320021241
 23
766.926001591971
 33
0.0
 14
159.2723413115479
 24
721.926001591971
 34
0.0
 50
90.0
100
AcDbRotatedDimension
  0
DIMENSION
  5
2B9
330
1F
100
AcDbEntity
  8
1
100
AcDbDimension
  2
*D216
 10
201.3726371779166
 20
255.8743136727215
 30
0.0
 11
193.1226371779166
 21
339.5243136727219
 31
0.0
  1
168
 71
     5
 42
0.0
 53
90.0
  3
ME10_DIM_2
100
AcDbAlignedDimension
 13
307.8726371779167
 23
423.1743136727223
 33
0.0
 14
432.8726371779167
 24
255.8743136727215
 34
0.0
 50
90.0
100
AcDbRotatedDimension
  0
DIMENSION
  5
2C6
330
1F
100
AcDbEntity
  8
1
100
AcDbDimension
  2
*D317
 10
516.1726371779167
 20
156.1243136727219
 30
0.0
 11
522.788048044355
 21
164.3743136727219
 31
0.0
  1
<>
 71
     5
 42
0.0
 53
0.00013888888889
  3
ME10_DIM_3
100
AcDbAlignedDimension
 13
530.1726371779166
 23
246.3743136727215
 33
0.0
 14
516.1726371779167
 24
232.8743136727215
 34
0.0
100
AcDbRotatedDimension
  0
DIMENSION
  5
2D3
330
1F
100
AcDbEntity
  8
1
100
AcDbDimension
  2
*D418
 10
584.1726371779167
 20
255.8743136727215
 30
0.0
 11
575.9226371779167
 21
360.2080071845831
 31
0.0
  1
59リフト5
 71
     5
 42
0.0
 53
90.0
  3
ME10_DIM_4
100
AcDbAlignedDimension
 13
471.1726371779166
 23
314.3585322405623
 33
0.0
 14
539.1726371779167
 24
255.8743136727215
 34
0.0
 50
90.0
100
AcDbRotatedDimension
  0
DIMENSION
  5
2DE
330
1F
100
AcDbEntity
  8
1
100
AcDbDimension
  2
*D519
 10
560.1726371779167
 20
278.8743136727215
 30
0.0
 11
551.9226371779167
 21
255.8743136727215
 31
0.0
  1
<>
 71
     5
 42
0.0
 53
90.0
  3
ME10_DIM_5
100
AcDbAlignedDimension
 13
516.1726371779167
 23
232.8743136727215
 33
0.0
 14
516.1726371779167
 24
278.8743136727214
 34
0.0
 50
90.0
100
AcDbRotatedDimension
  0
DIMENSION
  5
2E9
330
1F
100
AcDbEntity
  8
1
100
AcDbDimension
  2
*D620
 10
416.3726371779167
 20
156.1243136727219
 30
0.0
 11
388.3726371779166
 21
164.3743136727219
 31
0.0
  1
<>
 71
     5
 42
0.0
 53
0.00013888888889
  3
ME10_DIM_6
100
AcDbAlignedDimension
 13
360.3726371779167
 23
224.374313672722
 33
0.0
 14
416.3726371779167
 24
212.374313672722
 34
0.0
100
AcDbRotatedDimension
  0
DIMENSION
  5
2F4
330
1F
100
AcDbEntity
  8
1
100
AcDbDimension
  2
*D721
 10
416.3726371779167
 20
156.1243136727219
 30
0.0
 11
466.2726371779167
 21
164.3743136727219
 31
0.0
  1
100
 71
     5
 42
0.0
 53
0.00013888888889
  3
ME10_DIM_7
100
AcDbAlignedDimension
 13
516.1726371779167
 23
232.8743136727215
 33
0.0
 14
416.3726371779167
 24
212.374313672722
 34
0.0
100
AcDbRotatedDimension
  0
DIMENSION
  5
2FF
330
1F
100
AcDbEntity
  8
1
100
AcDbDimension
  2
*D822
 10
225.3726371779166
 20
373.3557887991861
 30
0.0
 11
217.1226371779166
 21
314.6150512359538
 31
0.0
  1
118
 71
     5
 42
0.0
 53
90.0
  3
ME10_DIM_8
100
AcDbAlignedDimension
 13
432.8726371779167
 23
255.8743136727215
 33
0.0
 14
255.3726371779166
 24
373.355788799186
 34
0.0
 50
90.0
100
AcDbRotatedDimension
  0
DIMENSION
  5
30A
330
1F
100
AcDbEntity
  8
1
100
AcDbDimension
  2
*D923
 10
255.3726371779166
 20
156.1243136727219
 30
0.0
 11
307.8812202851859
 21
164.3743136727219
 31
0.0
  1
<>
 71
     5
 42
0.0
 53
0.00013888888889
  3
ME10_DIM_9
100
AcDbAlignedDimension
 13
360.3726371779167
 23
224.374313672722
 33
0.0
 14
255.3726371779166
 24
373.355788799186
 34
0.0
100
AcDbRotatedDimension
  0
ENDSEC
  0
SECTION
  2
OBJECTS
  0
DICTIONARY
  5
C
330
0
100
AcDbDictionary
281
     1
  3
ACAD_GROUP
350
D
  3
ACAD_LAYOUT
350
1A
  3
ACAD_MLINESTYLE
350
17
  3
ACAD_PLOTSETTINGS
350
19
  3
ACAD_PLOTSTYLENAME
350
E
  3
ACAD_TABLESTYLE
350
2A
  3
AcDbVariableDictionary
350
2C
  0
DICTIONARY
  5
D
102
{ACAD_REACTORS
330
C
102
}
330
C
100
AcDbDictionary
281
     1
  0
DICTIONARY
  5
1A
102
{ACAD_REACTORS
330
C
102
}
330
C
100
AcDbDictionary
281
     1
  3
Layout1
350
1E
  3
Layout2
350
26
  3
Model
350
22
  0
DICTIONARY
  5
17
102
{ACAD_REACTORS
330
C
102
}
330
C
100
AcDbDictionary
281
     1
  3
Standard
350
18
  0
DICTIONARY
  5
19
102
{ACAD_REACTORS
330
C
102
}
330
C
100
AcDbDictionary
281
     1
  0
ACDBDICTIONARYWDFLT
  5
E
102
{ACAD_REACTORS
330
C
102
}
330
C
100
AcDbDictionary
281
     1
  3
Normal
350
F
100
AcDbDictionaryWithDefault
340
F
  0
DICTIONARY
  5
2A
102
{ACAD_REACTORS
330
C
102
}
330
C
100
AcDbDictionary
281
     1
  3
Standard
350
2B
  0
DICTIONARY
  5
2C
102
{ACAD_REACTORS
330
C
102
}
330
C
100
AcDbDictionary
281
     1
  3
CTABLESTYLE
350
2D
  0
LAYOUT
  5
1E
102
{ACAD_REACTORS
330
1A
102
}
330
1A
100
AcDbPlotSettings
  1

  2

  4

  6

 40
0.0
 41
0.0
 42
0.0
 43
0.0
 44
0.0
 45
0.0
 46
0.0
 47
0.0
 48
0.0
 49
0.0
140
0.0
141
0.0
142
1.0
143
1.0
 70
   688
 72
     0
 73
     0
 74
     5
  7

 75
    16
147
1.0
148
0.0
149
0.0
100
AcDbLayout
  1
Layout1
 70
     1
 71
     1
 10
0.0
 20
0.0
 11
12.0
 21
9.0
 12
0.0
 22
0.0
 32
0.0
 14
1.00000000000000E+20
 24
1.00000000000000E+20
 34
1.00000000000000E+20
 15
-1.00000000000000E+20
 25
-1.00000000000000E+20
 35
-1.00000000000000E+20
146
0.0
 13
0.0
 23
0.0
 33
0.0
 16
1.0
 26
0.0
 36
0.0
 17
0.0
 27
1.0
 37
0.0
 76
     0
330
1B
  0
LAYOUT
  5
26
102
{ACAD_REACTORS
330
1A
102
}
330
1A
100
AcDbPlotSettings
  1

  2

  4

  6

 40
0.0
 41
0.0
 42
0.0
 43
0.0
 44
0.0
 45
0.0
 46
0.0
 47
0.0
 48
0.0
 49
0.0
140
0.0
141
0.0
142
1.0
143
1.0
 70
   688
 72
     0
 73
     0
 74
     5
  7

 75
    16
147
1.0
148
0.0
149
0.0
100
AcDbLayout
  1
Layout2
 70
     1
 71
     2
 10
0.0
 20
0.0
 11
0.0
 21
0.0
 12
0.0
 22
0.0
 32
0.0
 14
0.0
 24
0.0
 34
0.0
 15
0.0
 25
0.0
 35
0.0
146
0.0
 13
0.0
 23
0.0
 33
0.0
 16
1.0
 26
0.0
 36
0.0
 17
0.0
 27
1.0
 37
0.0
 76
     0
330
23
  0
LAYOUT
  5
22
102
{ACAD_REACTORS
330
1A
102
}
330
1A
100
AcDbPlotSettings
  1

  2

  4

  6

 40
0.0
 41
0.0
 42
0.0
 43
0.0
 44
0.0
 45
0.0
 46
0.0
 47
0.0
 48
0.0
 49
0.0
140
0.0
141
0.0
142
1.0
143
1.0
 70
  1712
 72
     0
 73
     0
 74
     0
  7

 75
     0
147
1.0
148
0.0
149
0.0
100
AcDbLayout
  1
Model
 70
     1
 71
     0
 10
0.0
 20
0.0
 11
0.0
 21
0.0
 12
0.0
 22
0.0
 32
0.0
 14
0.0
 24
0.0
 34
0.0
 15
629.9999999999999
 25
891.0
 35
0.0
146
0.0
 13
0.0
 23
0.0
 33
0.0
 16
1.0
 26
0.0
 36
0.0
 17
0.0
 27
1.0
 37
0.0
 76
     0
330
1F
  0
MLINESTYLE
  5
18
102
{ACAD_REACTORS
330
17
102
}
330
17
100
AcDbMlineStyle
  2
Standard
 70
     0
  3

 62
   256
 51
90.0
 52
90.0
 71
     2
 49
0.5
 62
   256
  6
BYLAYER
 49
-0.5
 62
   256
  6
BYLAYER
  0
ACDBPLACEHOLDER
  5
F
102
{ACAD_REACTORS
330
E
102
}
330
E
  0
TABLESTYLE
  5
2B
102
{ACAD_REACTORS
330
2A
102
}
330
2A
100
AcDbTableStyle
  3
Standard
 70
     0
 71
     0
 40
0.06
 41
0.06
280
     0
281
     0
  7
Standard
140
0.18
170
     2
 62
     0
 63
     7
283
     0
274
    -2
284
     1
 64
     0
275
    -2
285
     1
 65
     0
276
    -2
286
     1
 66
     0
277
    -2
287
     1
 67
     0
278
    -2
288
     1
 68
     0
279
    -2
289
     1
 69
     0
  7
Standard
140
0.25
170
     5
 62
     0
 63
     7
283
     0
274
    -2
284
     1
 64
     0
275
    -2
285
     1
 65
     0
276
    -2
286
     1
 66
     0
277
    -2
287
     1
 67
     0
278
    -2
288
     1
 68
     0
279
    -2
289
     1
 69
     0
  7
Standard
140
0.18
170
     5
 62
     0
 63
     7
283
     0
274
    -2
284
     1
 64
     0
275
    -2
285
     1
 65
     0
276
    -2
286
     1
 66
     0
277
    -2
287
     1
 67
     0
278
    -2
288
     1
 68
     0
279
    -2
289
     1
 69
     0
  0
DICTIONARYVAR
  5
2D
102
{ACAD_REACTORS
330
2C
102
}
330
2C
100
DictionaryVariables
280
     0
  1
Standard
  0
ENDSEC
  0
EOF
