  0
SECTION
  2
HEADER
  9
$ACADVER
  1
AC1015
  9
$ACADMAINTVER
 70
     6
  9
$DWGCODEPAGE
  3
ANSI_932
  9
$INSBASE
 10
0.0
 20
0.0
 30
0.0
  9
$EXTMIN
 10
0.0
 20
0.0
 30
0.0
  9
$EXTMAX
 10
525.0
 20
742.5
 30
0.0
  9
$LIMMIN
 10
0.0
 20
0.0
  9
$LIMMAX
 10
12.0
 20
9.0
  9
$ORTHOMODE
 70
     0
  9
$REGENMODE
 70
     1
  9
$FILLMODE
 70
     1
  9
$QTEXTMODE
 70
     0
  9
$MIRRTEXT
 70
     1
  9
$LTSCALE
 40
1.0
  9
$ATTMODE
 70
     1
  9
$TEXTSIZE
 40
0.2
  9
$TRACEWID
 40
0.05
  9
$TEXTSTYLE
  7
Standard
  9
$CLAYER
  8
0
  9
$CELTYPE
  6
ByLayer
  9
$CECOLOR
 62
   256
  9
$CELTSCALE
 40
1.0
  9
$DISPSILH
 70
     0
  9
$DIMSCALE
 40
1.0
  9
$DIMASZ
 40
0.18
  9
$DIMEXO
 40
0.0625
  9
$DIMDLI
 40
0.38
  9
$DIMRND
 40
0.0
  9
$DIMDLE
 40
0.0
  9
$DIMEXE
 40
0.18
  9
$DIMTP
 40
0.0
  9
$DIMTM
 40
0.0
  9
$DIMTXT
 40
0.18
  9
$DIMCEN
 40
0.09
  9
$DIMTSZ
 40
0.0
  9
$DIMTOL
 70
     0
  9
$DIMLIM
 70
     0
  9
$DIMTIH
 70
     1
  9
$DIMTOH
 70
     1
  9
$DIMSE1
 70
     0
  9
$DIMSE2
 70
     0
  9
$DIMTAD
 70
     0
  9
$DIMZIN
 70
     0
  9
$DIMBLK
  1

  9
$DIMASO
 70
     1
  9
$DIMSHO
 70
     1
  9
$DIMPOST
  1

  9
$DIMAPOST
  1

  9
$DIMALT
 70
     0
  9
$DIMALTD
 70
     2
  9
$DIMALTF
 40
25.4
  9
$DIMLFAC
 40
1.0
  9
$DIMTOFL
 70
     0
  9
$DIMTVP
 40
0.0
  9
$DIMTIX
 70
     0
  9
$DIMSOXD
 70
     0
  9
$DIMSAH
 70
     0
  9
$DIMBLK1
  1

  9
$DIMBLK2
  1

  9
$DIMSTYLE
  2
Standard
  9
$DIMCLRD
 70
     0
  9
$DIMCLRE
 70
     0
  9
$DIMCLRT
 70
     0
  9
$DIMTFAC
 40
1.0
  9
$DIMGAP
 40
0.09
  9
$DIMJUST
 70
     0
  9
$DIMSD1
 70
     0
  9
$DIMSD2
 70
     0
  9
$DIMTOLJ
 70
     1
  9
$DIMTZIN
 70
     0
  9
$DIMALTZ
 70
     0
  9
$DIMALTTZ
 70
     0
  9
$DIMUPT
 70
     0
  9
$DIMDEC
 70
     4
  9
$DIMTDEC
 70
     4
  9
$DIMALTU
 70
     2
  9
$DIMALTTD
 70
     2
  9
$DIMTXSTY
  7
Standard
  9
$DIMAUNIT
 70
     0
  9
$DIMADEC
 70
     0
  9
$DIMALTRND
 40
0.0
  9
$DIMAZIN
 70
     0
  9
$DIMDSEP
 70
    46
  9
$DIMATFIT
 70
     3
  9
$DIMFRAC
 70
     0
  9
$DIMLDRBLK
  1

  9
$DIMLUNIT
 70
     2
  9
$DIMLWD
 70
    -2
  9
$DIMLWE
 70
    -2
  9
$DIMTMOVE
 70
     0
  9
$LUNITS
 70
     2
  9
$LUPREC
 70
     4
  9
$SKETCHINC
 40
0.1
  9
$FILLETRAD
 40
0.5
  9
$AUNITS
 70
     0
  9
$AUPREC
 70
     0
  9
$MENU
  1
.
  9
$ELEVATION
 40
0.0
  9
$PELEVATION
 40
0.0
  9
$THICKNESS
 40
0.0
  9
$LIMCHECK
 70
     0
  9
$CHAMFERA
 40
0.5
  9
$CHAMFERB
 40
0.5
  9
$CHAMFERC
 40
1.0
  9
$CHAMFERD
 40
0.0
  9
$SKPOLY
 70
     0
  9
$TDCREATE
 40
2457186.56571978
  9
$TDUCREATE
 40
2457186.19071978
  9
$TDUPDATE
 40
2457186.565720868
  9
$TDUUPDATE
 40
2457186.190720868
  9
$TDINDWG
 40
0.0000000116
  9
$TDUSRTIMER
 40
0.0000000116
  9
$USRTIMER
 70
     1
  9
$ANGBASE
 50
0.0
  9
$ANGDIR
 70
     0
  9
$PDMODE
 70
     0
  9
$PDSIZE
 40
0.0
  9
$PLINEWID
 40
0.0
  9
$SPLFRAME
 70
     0
  9
$SPLINETYPE
 70
     6
  9
$SPLINESEGS
 70
     8
  9
$HANDSEED
  5
2FE
  9
$SURFTAB1
 70
     6
  9
$SURFTAB2
 70
     6
  9
$SURFTYPE
 70
     6
  9
$SURFU
 70
     6
  9
$SURFV
 70
     6
  9
$UCSBASE
  2

  9
$UCSNAME
  2

  9
$UCSORG
 10
0.0
 20
0.0
 30
0.0
  9
$UCSXDIR
 10
1.0
 20
0.0
 30
0.0
  9
$UCSYDIR
 10
0.0
 20
1.0
 30
0.0
  9
$UCSORTHOREF
  2

  9
$UCSORTHOVIEW
 70
     0
  9
$UCSORGTOP
 10
0.0
 20
0.0
 30
0.0
  9
$UCSORGBOTTOM
 10
0.0
 20
0.0
 30
0.0
  9
$UCSORGLEFT
 10
0.0
 20
0.0
 30
0.0
  9
$UCSORGRIGHT
 10
0.0
 20
0.0
 30
0.0
  9
$UCSORGFRONT
 10
0.0
 20
0.0
 30
0.0
  9
$UCSORGBACK
 10
0.0
 20
0.0
 30
0.0
  9
$PUCSBASE
  2

  9
$PUCSNAME
  2

  9
$PUCSORG
 10
0.0
 20
0.0
 30
0.0
  9
$PUCSXDIR
 10
1.0
 20
0.0
 30
0.0
  9
$PUCSYDIR
 10
0.0
 20
1.0
 30
0.0
  9
$PUCSORTHOREF
  2

  9
$PUCSORTHOVIEW
 70
     0
  9
$PUCSORGTOP
 10
0.0
 20
0.0
 30
0.0
  9
$PUCSORGBOTTOM
 10
0.0
 20
0.0
 30
0.0
  9
$PUCSORGLEFT
 10
0.0
 20
0.0
 30
0.0
  9
$PUCSORGRIGHT
 10
0.0
 20
0.0
 30
0.0
  9
$PUCSORGFRONT
 10
0.0
 20
0.0
 30
0.0
  9
$PUCSORGBACK
 10
0.0
 20
0.0
 30
0.0
  9
$USERI1
 70
     0
  9
$USERI2
 70
     0
  9
$USERI3
 70
     0
  9
$USERI4
 70
     0
  9
$USERI5
 70
     0
  9
$USERR1
 40
18.1
  9
$USERR2
 40
0.0
  9
$USERR3
 40
0.0
  9
$USERR4
 40
0.0
  9
$USERR5
 40
0.0
  9
$WORLDVIEW
 70
     1
  9
$SHADEDGE
 70
     3
  9
$SHADEDIF
 70
    70
  9
$TILEMODE
 70
     1
  9
$MAXACTVP
 70
    64
  9
$PINSBASE
 10
0.0
 20
0.0
 30
0.0
  9
$PLIMCHECK
 70
     0
  9
$PEXTMIN
 10
1.00000000000000E+20
 20
1.00000000000000E+20
 30
1.00000000000000E+20
  9
$PEXTMAX
 10
-1.00000000000000E+20
 20
-1.00000000000000E+20
 30
-1.00000000000000E+20
  9
$PLIMMIN
 10
0.0
 20
0.0
  9
$PLIMMAX
 10
12.0
 20
9.0
  9
$UNITMODE
 70
     0
  9
$VISRETAIN
 70
     1
  9
$PLINEGEN
 70
     0
  9
$PSLTSCALE
 70
     1
  9
$TREEDEPTH
 70
  3020
  9
$CMLSTYLE
  2
Standard
  9
$CMLJUST
 70
     0
  9
$CMLSCALE
 40
1.0
  9
$PROXYGRAPHICS
 70
     1
  9
$MEASUREMENT
 70
     1
  9
$CELWEIGHT
370
    -1
  9
$ENDCAPS
280
     0
  9
$JOINSTYLE
280
     0
  9
$LWDISPLAY
290
     0
  9
$INSUNITS
 70
     4
  9
$HYPERLINKBASE
  1

  9
$STYLESHEET
  1

  9
$XEDIT
290
     1
  9
$CEPSNTYPE
380
     0
  9
$PSTYLEMODE
290
     1
  9
$FINGERPRINTGUID
  2
{3C971784-1451-4ED8-969B-61B9B4447177}
  9
$VERSIONGUID
  2
{FAEB1C32-E019-11D5-929B-00C0DF256EC4}
  9
$EXTNAMES
290
     1
  9
$PSVPSCALE
 40
0.0
  9
$OLESTARTUP
290
     0
  0
ENDSEC
  0
SECTION
  2
CLASSES
  0
CLASS
  1
ACDBDICTIONARYWDFLT
  2
AcDbDictionaryWithDefault
  3
ObjectDBX Classes
 90
        0
280
     0
281
     0
  0
CLASS
  1
VISUALSTYLE
  2
AcDbVisualStyle
  3
ObjectDBX Classes
 90
     4095
280
     0
281
     0
  0
CLASS
  1
MATERIAL
  2
AcDbMaterial
  3
ObjectDBX Classes
 90
     1153
280
     0
281
     0
  0
CLASS
  1
DICTIONARYVAR
  2
AcDbDictionaryVar
  3
ObjectDBX Classes
 90
        0
280
     0
281
     0
  0
CLASS
  1
ACDBPLACEHOLDER
  2
AcDbPlaceHolder
  3
ObjectDBX Classes
 90
        0
280
     0
281
     0
  0
CLASS
  1
LAYOUT
  2
AcDbLayout
  3
ObjectDBX Classes
 90
        0
280
     0
281
     0
  0
ENDSEC
  0
SECTION
  2
TABLES
  0
TABLE
  2
VPORT
  5
8
330
0
100
AcDbSymbolTable
 70
     1
  0
VPORT
  5
29
330
8
100
AcDbSymbolTableRecord
100
AcDbViewportTableRecord
  2
*Active
 70
     0
 10
0.0
 20
0.0
 11
1.0
 21
1.0
 12
262.5
 22
371.25
 13
0.0
 23
0.0
 14
0.5
 24
0.5
 15
0.5
 25
0.5
 16
0.0
 26
0.0
 36
1.0
 17
0.0
 27
0.0
 37
0.0
 40
816.7500000000001
 41
1.60267857142857
 42
50.0
 43
0.0
 44
0.0
 50
0.0
 51
0.0
 71
     0
 72
   100
 73
     1
 74
     3
 75
     0
 76
     0
 77
     0
 78
     0
281
     0
 65
     1
110
0.0
120
0.0
130
0.0
111
1.0
121
0.0
131
0.0
112
0.0
122
1.0
132
0.0
 79
     0
146
0.0
  0
ENDTAB
  0
TABLE
  2
LTYPE
  5
5
330
0
100
AcDbSymbolTable
 70
     8
  0
LTYPE
  5
14
330
5
100
AcDbSymbolTableRecord
100
AcDbLinetypeTableRecord
  2
ByBlock
 70
     0
  3

 72
    65
 73
     0
 40
0.0
  0
LTYPE
  5
15
330
5
100
AcDbSymbolTableRecord
100
AcDbLinetypeTableRecord
  2
ByLayer
 70
     0
  3

 72
    65
 73
     0
 40
0.0
  0
LTYPE
  5
16
330
5
100
AcDbSymbolTableRecord
100
AcDbLinetypeTableRecord
  2
Continuous
 70
     0
  3
Solid line
 72
    65
 73
     0
 40
0.0
  0
LTYPE
  5
3F
330
5
100
AcDbSymbolTableRecord
100
AcDbLinetypeTableRecord
  2
DASHED
 70
     0
  3
Dashed
 72
    65
 73
     2
 40
15.0
 49
7.0
 74
     0
 49
-8.0
 74
     0
  0
LTYPE
  5
40
330
5
100
AcDbSymbolTableRecord
100
AcDbLinetypeTableRecord
  2
DOTTED
 70
     0
  3
Dotted
 72
    65
 73
     2
 40
1.0
 49
0.0
 74
     0
 49
-1.0
 74
     0
  0
LTYPE
  5
41
330
5
100
AcDbSymbolTableRecord
100
AcDbLinetypeTableRecord
  2
DOT_CENTER
 70
     0
  3
Dot_Center
 72
    65
 73
     4
 40
14.0
 49
12.0
 74
     0
 49
-1.0
 74
     0
 49
0.0
 74
     0
 49
-1.0
 74
     0
  0
LTYPE
  5
42
330
5
100
AcDbSymbolTableRecord
100
AcDbLinetypeTableRecord
  2
LONG_DASHED
 70
     0
  3
Long_Dashed
 72
    65
 73
     2
 40
15.0
 49
10.0
 74
     0
 49
-5.0
 74
     0
  0
LTYPE
  5
43
330
5
100
AcDbSymbolTableRecord
100
AcDbLinetypeTableRecord
  2
DASH_CENTER
 70
     0
  3
Dash_Center
 72
    65
 73
     4
 40
14.0
 49
11.0
 74
     0
 49
-1.0
 74
     0
 49
1.0
 74
     0
 49
-1.0
 74
     0
  0
LTYPE
  5
44
330
5
100
AcDbSymbolTableRecord
100
AcDbLinetypeTableRecord
  2
PHANTOM
 70
     0
  3
Phantom
 72
    65
 73
     6
 40
13.0
 49
10.0
 74
     0
 49
-1.0
 74
     0
 49
0.0
 74
     0
 49
-1.0
 74
     0
 49
0.0
 74
     0
 49
-1.0
 74
     0
  0
LTYPE
  5
45
330
5
100
AcDbSymbolTableRecord
100
AcDbLinetypeTableRecord
  2
CENTER_DASH_DASH
 70
     0
  3
Center_Dash_Dash
 72
    65
 73
     6
 40
14.0
 49
9.0
 74
     0
 49
-1.0
 74
     0
 49
1.0
 74
     0
 49
-1.0
 74
     0
 49
1.0
 74
     0
 49
-1.0
 74
     0
  0
ENDTAB
  0
TABLE
  2
LAYER
  5
2
330
0
100
AcDbSymbolTable
 70
     2
  0
LAYER
  5
10
330
2
100
AcDbSymbolTableRecord
100
AcDbLayerTableRecord
  2
0
 70
     0
 62
     7
  6
Continuous
370
    -3
390
F
  0
LAYER
  5
46
330
2
100
AcDbSymbolTableRecord
100
AcDbLayerTableRecord
  2
1
 70
     0
 62
     7
  6
Continuous
370
    -3
390
F
  0
ENDTAB
  0
TABLE
  2
STYLE
  5
3
330
0
100
AcDbSymbolTable
 70
     3
  0
STYLE
  5
11
330
3
100
AcDbSymbolTableRecord
100
AcDbTextStyleTableRecord
  2
Standard
 70
     0
 40
0.0
 41
1.0
 50
0.0
 71
     0
 42
0.2
  3
txt
  4

  0
STYLE
  5
215
330
3
100
AcDbSymbolTableRecord
100
AcDbTextStyleTableRecord
  2
CONVERTER_11
 70
     0
 40
0.0
 41
0.89
 50
0.0
 71
     0
 42
0.2
  3
MS Mincho.ttf
  4

1001
ACAD
1000
MS Mincho
1071
    32785
  0
STYLE
  5
264
330
3
100
AcDbSymbolTableRecord
100
AcDbTextStyleTableRecord
  2
CONVERTER_12
 70
     0
 40
0.0
 41
0.9
 50
0.0
 71
     0
 42
0.2
  3
txt.shx
  4

  0
ENDTAB
  0
TABLE
  2
VIEW
  5
6
330
0
100
AcDbSymbolTable
 70
     0
  0
ENDTAB
  0
TABLE
  2
UCS
  5
7
330
0
100
AcDbSymbolTable
 70
     0
  0
ENDTAB
  0
TABLE
  2
APPID
  5
9
330
0
100
AcDbSymbolTable
 70
     1
  0
APPID
  5
12
330
9
100
AcDbSymbolTableRecord
100
AcDbRegAppTableRecord
  2
ACAD
 70
     0
  0
ENDTAB
  0
TABLE
  2
DIMSTYLE
  5
A
330
0
100
AcDbSymbolTable
 70
    10
100
AcDbDimStyleTable
  0
DIMSTYLE
105
27
330
A
100
AcDbSymbolTableRecord
100
AcDbDimStyleTableRecord
  2
Standard
 70
     0
178
     0
340
11
  0
DIMSTYLE
105
274
102
{ACAD_REACTORS
330
275
102
}
330
A
100
AcDbSymbolTableRecord
100
AcDbDimStyleTableRecord
  2
ME10_DIM_10
 70
     0
  3
{\Fgdt;n}<>
 41
8.75
 42
0.0
 44
2.5
 73
     0
 74
     0
 77
     1
 78
     8
140
8.75
147
2.5
172
     1
173
     1
174
     1
175
     1
176
     2
177
     2
271
     2
178
     7
271
     2
340
264
  0
DIMSTYLE
105
280
102
{ACAD_REACTORS
330
281
102
}
330
A
100
AcDbSymbolTableRecord
100
AcDbDimStyleTableRecord
  2
ME10_DIM_11
 70
     0
 41
8.75
 42
0.0
 44
2.5
 73
     0
 74
     0
 77
     1
 78
     8
140
8.75
147
2.5
172
     1
173
     1
174
     1
175
     1
176
     2
177
     2
271
     2
178
     7
271
     2
340
215
  0
DIMSTYLE
105
28E
102
{ACAD_REACTORS
330
28F
102
}
330
A
100
AcDbSymbolTableRecord
100
AcDbDimStyleTableRecord
  2
ME10_DIM_12
 70
     0
 41
7.5
 42
0.0
 44
2.5
 73
     0
 74
     0
 77
     1
 78
     8
140
8.75
147
2.5
172
     1
173
     1
174
     1
175
     1
176
     2
177
     2
271
     2
178
     7
271
     2
340
264
343
28B
  0
DIMSTYLE
105
299
102
{ACAD_REACTORS
330
29A
102
}
330
A
100
AcDbSymbolTableRecord
100
AcDbDimStyleTableRecord
  2
ME10_DIM_13
 70
     0
 41
8.75
 42
0.0
 44
2.5
 73
     0
 74
     0
 77
     1
 78
     8
140
8.75
147
2.5
172
     1
173
     1
174
     1
175
     1
176
     2
177
     2
271
     2
178
     7
271
     2
340
264
  0
DIMSTYLE
105
2A4
102
{ACAD_REACTORS
330
2A5
102
}
330
A
100
AcDbSymbolTableRecord
100
AcDbDimStyleTableRecord
  2
ME10_DIM_14
 70
     0
 41
8.75
 42
0.0
 44
2.5
 73
     0
 74
     0
 77
     1
 78
     8
140
8.75
147
2.5
172
     1
173
     1
174
     1
175
     1
176
     2
177
     2
271
     2
178
     7
271
     2
340
264
344
28B
  0
DIMSTYLE
105
2B0
102
{ACAD_REACTORS
330
2B1
102
}
330
A
100
AcDbSymbolTableRecord
100
AcDbDimStyleTableRecord
  2
ME10_DIM_15
 70
     0
 41
8.75
 42
0.0
 44
2.5
 73
     0
 74
     0
 77
     1
 78
     8
140
8.75
147
2.5
172
     1
173
     1
174
     1
175
     1
176
     2
177
     2
271
     2
178
     7
271
     2
340
264
  0
DIMSTYLE
105
2BB
102
{ACAD_REACTORS
330
2BC
102
}
330
A
100
AcDbSymbolTableRecord
100
AcDbDimStyleTableRecord
  2
ME10_DIM_16
 70
     0
 41
8.75
 42
0.0
 44
2.5
 73
     0
 74
     0
 77
     1
 78
     8
140
8.75
147
2.5
172
     1
173
     1
174
     1
175
     1
176
     2
177
     2
271
     2
178
     7
271
     2
340
264
  0
DIMSTYLE
105
2C6
102
{ACAD_REACTORS
330
2C7
102
}
330
A
100
AcDbSymbolTableRecord
100
AcDbDimStyleTableRecord
  2
ME10_DIM_17
 70
     0
 41
8.75
 42
0.0
 44
2.5
 73
     0
 74
     0
 77
     1
 78
     8
140
8.75
147
2.5
172
     1
173
     1
174
     1
175
     1
176
     2
177
     2
271
     2
178
     7
271
     2
340
264
  0
DIMSTYLE
105
2D1
102
{ACAD_REACTORS
330
2D2
102
}
330
A
100
AcDbSymbolTableRecord
100
AcDbDimStyleTableRecord
  2
ME10_DIM_18
 70
     0
 41
8.75
 42
0.0
 44
2.5
 73
     0
 74
     0
 77
     1
 78
     8
140
8.75
147
2.5
172
     1
173
     1
174
     1
175
     1
176
     2
177
     2
271
     2
178
     7
271
     2
340
264
  0
ENDTAB
  0
TABLE
  2
BLOCK_RECORD
  5
1
330
0
100
AcDbSymbolTable
 70
    20
  0
BLOCK_RECORD
  5
1F
330
1
100
AcDbSymbolTableRecord
100
AcDbBlockTableRecord
  2
*Model_Space
340
22
  0
BLOCK_RECORD
  5
1B
330
1
100
AcDbSymbolTableRecord
100
AcDbBlockTableRecord
  2
*Paper_Space
340
1E
  0
BLOCK_RECORD
  5
23
330
1
100
AcDbSymbolTableRecord
100
AcDbBlockTableRecord
  2
*Paper_Space0
340
26
  0
BLOCK_RECORD
  5
47
330
1
100
AcDbSymbolTableRecord
100
AcDbBlockTableRecord
  2
A10-0B-13-NPM1
340
0
102
{BLKREFS
331
62
102
}
  0
BLOCK_RECORD
  5
4A
330
1
100
AcDbSymbolTableRecord
100
AcDbBlockTableRecord
  2
42-15
340
0
102
{BLKREFS
331
63
102
}
  0
BLOCK_RECORD
  5
4D
330
1
100
AcDbSymbolTableRecord
100
AcDbBlockTableRecord
  2
R230F-S-1
340
0
102
{BLKREFS
331
64
102
}
  0
BLOCK_RECORD
  5
50
330
1
100
AcDbSymbolTableRecord
100
AcDbBlockTableRecord
  2
60-1-16-170
340
0
102
{BLKREFS
331
65
102
}
  0
BLOCK_RECORD
  5
53
330
1
100
AcDbSymbolTableRecord
100
AcDbBlockTableRecord
  2
37-1-13
340
0
102
{BLKREFS
331
66
102
}
  0
BLOCK_RECORD
  5
56
330
1
100
AcDbSymbolTableRecord
100
AcDbBlockTableRecord
  2
36-1A-13
340
0
102
{BLKREFS
331
67
102
}
  0
BLOCK_RECORD
  5
59
330
1
100
AcDbSymbolTableRecord
100
AcDbBlockTableRecord
  2
84-421
340
0
102
{BLKREFS
331
68
102
}
  0
BLOCK_RECORD
  5
5C
330
1
100
AcDbSymbolTableRecord
100
AcDbBlockTableRecord
  2
開示A4
340
0
102
{BLKREFS
331
69
102
}
  0
BLOCK_RECORD
  5
5F
330
1
100
AcDbSymbolTableRecord
100
AcDbBlockTableRecord
  2
32-1-16
340
0
102
{BLKREFS
331
6A
102
}
  0
BLOCK_RECORD
  5
26B
330
1
100
AcDbSymbolTableRecord
100
AcDbBlockTableRecord
  2
*D10
340
0
  0
BLOCK_RECORD
  5
276
330
1
100
AcDbSymbolTableRecord
100
AcDbBlockTableRecord
  2
*D11
340
0
  0
BLOCK_RECORD
  5
282
330
1
100
AcDbSymbolTableRecord
100
AcDbBlockTableRecord
  2
*D12
340
0
  0
BLOCK_RECORD
  5
28B
330
1
100
AcDbSymbolTableRecord
100
AcDbBlockTableRecord
  2
_NONE
340
0
  0
BLOCK_RECORD
  5
290
330
1
100
AcDbSymbolTableRecord
100
AcDbBlockTableRecord
  2
*D14
340
0
  0
BLOCK_RECORD
  5
29B
330
1
100
AcDbSymbolTableRecord
100
AcDbBlockTableRecord
  2
*D15
340
0
  0
BLOCK_RECORD
  5
2A6
330
1
100
AcDbSymbolTableRecord
100
AcDbBlockTableRecord
  2
*D16
340
0
  0
BLOCK_RECORD
  5
2B2
330
1
100
AcDbSymbolTableRecord
100
AcDbBlockTableRecord
  2
*D17
340
0
  0
BLOCK_RECORD
  5
2BD
330
1
100
AcDbSymbolTableRecord
100
AcDbBlockTableRecord
  2
*D18
340
0
  0
BLOCK_RECORD
  5
2C8
330
1
100
AcDbSymbolTableRecord
100
AcDbBlockTableRecord
  2
*D19
340
0
  0
ENDTAB
  0
ENDSEC
  0
SECTION
  2
BLOCKS
  0
BLOCK
  5
20
330
1F
100
AcDbEntity
  8
0
100
AcDbBlockBegin
  2
*Model_Space
 70
     0
 10
0.0
 20
0.0
 30
0.0
  3
*Model_Space
  1

  0
ENDBLK
  5
21
330
1F
100
AcDbEntity
  8
0
100
AcDbBlockEnd
  0
BLOCK
  5
1C
330
1B
100
AcDbEntity
 67
     1
  8
0
100
AcDbBlockBegin
  2
*Paper_Space
 70
     0
 10
0.0
 20
0.0
 30
0.0
  3
*Paper_Space
  1

  0
ENDBLK
  5
1D
330
1B
100
AcDbEntity
 67
     1
  8
0
100
AcDbBlockEnd
  0
BLOCK
  5
24
330
23
100
AcDbEntity
  8
0
100
AcDbBlockBegin
  2
*Paper_Space0
 70
     0
 10
0.0
 20
0.0
 30
0.0
  3
*Paper_Space0
  1

  0
ENDBLK
  5
25
330
23
100
AcDbEntity
  8
0
100
AcDbBlockEnd
  0
BLOCK
  5
48
330
47
100
AcDbEntity
  8
0
100
AcDbBlockBegin
  2
A10-0B-13-NPM1
 70
     0
 10
763.3998963615
 20
56.2387398940928
 30
0.0
  3
A10-0B-13-NPM1
  1

  0
LINE
  5
6B
330
47
100
AcDbEntity
  8
1
  6
Continuous
 62
     7
100
AcDbLine
 10
102.1917667438639
 20
251.8727263702958
 30
0.0
 11
102.1917667438639
 21
252.0006206180869
 31
0.0
  0
LINE
  5
6C
330
47
100
AcDbEntity
  8
1
  6
Continuous
 62
     7
100
AcDbLine
 10
103.1917667438639
 20
293.140675562727
 30
0.0
 11
103.1917667438639
 21
289.9086247551583
 31
0.0
  0
LINE
  5
6D
330
47
100
AcDbEntity
  8
1
  6
Continuous
 62
     2
100
AcDbLine
 10
104.1917667438639
 20
291.640675562727
 30
0.0
 11
104.191766743864
 21
293.140675562727
 31
0.0
  0
LINE
  5
6E
330
47
100
AcDbEntity
  8
1
  6
Continuous
 62
     2
100
AcDbLine
 10
103.1917667438639
 20
289.9086247551583
 30
0.0
 11
104.1917667438639
 21
291.640675562727
 31
0.0
  0
LINE
  5
6F
330
47
100
AcDbEntity
  8
1
  6
Continuous
 62
     7
100
AcDbLine
 10
127.1917667438639
 20
289.9086247551583
 30
0.0
 11
127.1917667438639
 21
293.140675562727
 31
0.0
  0
LINE
  5
70
330
47
100
AcDbEntity
  8
1
  6
Continuous
 62
     2
100
AcDbLine
 10
126.1917667438639
 20
291.640675562727
 30
0.0
 11
127.1917667438639
 21
289.9086247551583
 31
0.0
  0
LINE
  5
71
330
47
100
AcDbEntity
  8
1
  6
Continuous
 62
     7
100
AcDbLine
 10
127.1917667438639
 20
289.9086247551583
 30
0.0
 11
127.4843439435131
 21
289.9086247551583
 31
0.0
  0
LINE
  5
72
330
47
100
AcDbEntity
  8
1
  6
Continuous
 62
     7
100
AcDbLine
 10
102.899189544215
 20
289.9086247551583
 30
0.0
 11
103.1917667438639
 21
289.9086247551583
 31
0.0
  0
LINE
  5
73
330
47
100
AcDbEntity
  8
1
  6
Continuous
 62
     2
100
AcDbLine
 10
103.1917667438639
 20
249.6406755627269
 30
0.0
 11
103.1917667438639
 21
250.1406755627269
 31
0.0
  0
LINE
  5
74
330
47
100
AcDbEntity
  8
1
  6
Continuous
 62
     7
100
AcDbLine
 10
102.1917667438639
 20
249.6406755627269
 30
0.0
 11
102.1917667438639
 21
251.8727263702958
 31
0.0
  0
LINE
  5
75
330
47
100
AcDbEntity
  8
1
  6
Continuous
 62
     2
100
AcDbLine
 10
102.1917667438639
 20
251.8727263702958
 30
0.0
 11
103.1917667438639
 21
250.1406755627269
 31
0.0
  0
LINE
  5
76
330
47
100
AcDbEntity
  8
1
  6
Continuous
 62
     2
100
AcDbLine
 10
126.1917667438639
 20
293.140675562727
 30
0.0
 11
126.1917667438639
 21
291.640675562727
 31
0.0
  0
LINE
  5
77
330
47
100
AcDbEntity
  8
1
  6
Continuous
 62
     7
100
AcDbLine
 10
127.4843439435131
 20
289.9086247551583
 30
0.0
 11
128.191757413695
 21
267.6251004444495
 31
0.0
  0
LINE
  5
78
330
47
100
AcDbEntity
  8
1
  6
Continuous
 62
     7
100
AcDbLine
 10
103.1705724610449
 20
255.4264406282197
 30
0.0
 11
102.1917667438639
 21
252.0006206180869
 31
0.0
  0
LINE
  5
79
330
47
100
AcDbEntity
  8
1
  6
Continuous
 62
     7
100
AcDbLine
 10
128.191766743864
 20
250.1406755627269
 30
0.0
 11
102.1917667438639
 21
250.1406755627269
 31
0.0
  0
LINE
  5
7A
330
47
100
AcDbEntity
  8
1
  6
Continuous
 62
     7
100
AcDbLine
 10
127.1917667438639
 20
291.640675562727
 30
0.0
 11
103.191766743864
 21
291.640675562727
 31
0.0
  0
LINE
  5
7B
330
47
100
AcDbEntity
  8
1
  6
Continuous
 62
     7
100
AcDbLine
 10
127.1917667438639
 20
289.9086247551583
 30
0.0
 11
103.1917667438639
 21
289.9086247551583
 31
0.0
  0
LINE
  5
7C
330
47
100
AcDbEntity
  8
1
  6
Continuous
 62
     7
100
AcDbLine
 10
102.1917760740331
 20
267.6251004444495
 30
0.0
 11
102.899189544215
 21
289.9086247551583
 31
0.0
  0
LINE
  5
7D
330
47
100
AcDbEntity
  8
1
  6
Continuous
 62
     7
100
AcDbLine
 10
128.1917667438641
 20
252.0006206180869
 30
0.0
 11
128.1917667438641
 21
251.8727263702958
 31
0.0
  0
LINE
  5
7E
330
47
100
AcDbEntity
  8
1
  6
Continuous
 62
     2
100
AcDbLine
 10
127.1917667438641
 20
250.1406755627269
 30
0.0
 11
127.1917667438641
 21
249.6406755627269
 31
0.0
  0
LINE
  5
7F
330
47
100
AcDbEntity
  8
1
  6
Continuous
 62
     7
100
AcDbLine
 10
128.1917667438641
 20
251.8727263702958
 30
0.0
 11
128.1917667438641
 21
249.6406755627269
 31
0.0
  0
LINE
  5
80
330
47
100
AcDbEntity
  8
1
  6
Continuous
 62
     2
100
AcDbLine
 10
127.1917667438641
 20
250.1406755627269
 30
0.0
 11
128.1917667438641
 21
251.8727263702958
 31
0.0
  0
LINE
  5
81
330
47
100
AcDbEntity
  8
1
  6
Continuous
 62
     7
100
AcDbLine
 10
128.1917667438641
 20
252.0006206180869
 30
0.0
 11
127.2129610266832
 21
255.4264406282197
 31
0.0
  0
LINE
  5
82
330
47
100
AcDbEntity
  8
1
  6
Continuous
 62
     2
100
AcDbLine
 10
322.2081217091585
 20
248.6406755627269
 30
0.0
 11
322.2081217091585
 21
250.1406755627269
 31
0.0
  0
LINE
  5
83
330
47
100
AcDbEntity
  8
1
  6
Continuous
 62
     7
100
AcDbLine
 10
321.2081217091585
 20
248.6406755627269
 30
0.0
 11
321.2081217091585
 21
251.8727263702958
 31
0.0
  0
LINE
  5
84
330
47
100
AcDbEntity
  8
1
  6
Continuous
 62
     7
100
AcDbLine
 10
357.2081217091586
 20
293.140675562727
 30
0.0
 11
357.2081217091586
 21
289.9086247551581
 31
0.0
  0
LINE
  5
85
330
47
100
AcDbEntity
  8
1
  6
Continuous
 62
     2
100
AcDbLine
 10
380.2081217091586
 20
293.140675562727
 30
0.0
 11
380.2081217091586
 21
291.6406755627269
 31
0.0
  0
LINE
  5
86
330
47
100
AcDbEntity
  8
1
  6
Continuous
 62
     7
100
AcDbLine
 10
411.7081217091587
 20
280.6406755627269
 30
0.0
 11
411.7081217091587
 21
254.6406755627269
 31
0.0
  0
LINE
  5
87
330
47
100
AcDbEntity
  8
1
  6
Continuous
 62
     7
100
AcDbLine
 10
414.2081217091586
 20
278.1406755627269
 30
0.0
 11
414.2081217091586
 21
257.1406755627269
 31
0.0
  0
LINE
  5
88
330
47
100
AcDbEntity
  8
1
  6
Continuous
 62
     7
100
AcDbLine
 10
427.2081217091586
 20
278.1406755627269
 30
0.0
 11
427.2081217091586
 21
257.1406755627269
 31
0.0
  0
LINE
  5
89
330
47
100
AcDbEntity
  8
1
  6
Continuous
 62
     7
100
AcDbLine
 10
390.7487809376963
 20
258.6406755627269
 30
0.0
 11
407.7081217091587
 21
258.6406755627269
 31
0.0
  0
LINE
  5
8A
330
47
100
AcDbEntity
  8
1
  6
Continuous
 62
     7
100
AcDbLine
 10
390.6407233646866
 20
276.6406755627269
 30
0.0
 11
407.7081217091587
 21
276.6406755627269
 31
0.0
  0
LINE
  5
8B
330
47
100
AcDbEntity
  8
1
  6
Continuous
 62
     7
100
AcDbLine
 10
428.2081217091586
 20
277.1406755627269
 30
0.0
 11
428.2081217091587
 21
258.1406755627269
 31
0.0
  0
LINE
  5
8C
330
47
100
AcDbEntity
  8
1
  6
Continuous
 62
     7
100
AcDbLine
 10
321.2081217091585
 20
251.8727263702958
 30
0.0
 11
321.2081217091585
 21
252.0006206180868
 31
0.0
  0
LINE
  5
8D
330
47
100
AcDbEntity
  8
1
  6
Continuous
 62
     7
100
AcDbLine
 10
357.2081217091587
 20
291.6406755627269
 30
0.0
 11
381.2081217091586
 21
291.6406755627269
 31
0.0
  0
LINE
  5
8E
330
47
100
AcDbEntity
  8
1
  6
Continuous
 62
     2
100
AcDbLine
 10
358.2081217091586
 20
291.6406755627269
 30
0.0
 11
358.2081217091587
 21
293.140675562727
 31
0.0
  0
LINE
  5
8F
330
47
100
AcDbEntity
  8
1
  6
Continuous
 62
     2
100
AcDbLine
 10
357.2081217091586
 20
289.9086247551581
 30
0.0
 11
358.2081217091586
 21
291.6406755627269
 31
0.0
  0
LINE
  5
90
330
47
100
AcDbEntity
  8
1
  6
Continuous
 62
     7
100
AcDbLine
 10
381.2081217091586
 20
289.9086247551581
 30
0.0
 11
381.2081217091586
 21
293.140675562727
 31
0.0
  0
LINE
  5
91
330
47
100
AcDbEntity
  8
1
  6
Continuous
 62
     2
100
AcDbLine
 10
380.2081217091586
 20
291.6406755627269
 30
0.0
 11
381.2081217091586
 21
289.9086247551581
 31
0.0
  0
LINE
  5
92
330
47
100
AcDbEntity
  8
1
  6
Continuous
 62
     7
100
AcDbLine
 10
381.2081217091586
 20
289.9086247551581
 30
0.0
 11
381.5006989088076
 21
289.9086247551581
 31
0.0
  0
LINE
  5
93
330
47
100
AcDbEntity
  8
1
  6
Continuous
 62
     7
100
AcDbLine
 10
356.9155445095107
 20
289.9086247551581
 30
0.0
 11
357.2081217091586
 21
289.9086247551581
 31
0.0
  0
LINE
  5
94
330
47
100
AcDbEntity
  8
1
  6
Continuous
 62
     2
100
AcDbLine
 10
346.2081217091585
 20
250.1406755627269
 30
0.0
 11
346.2081217091585
 21
248.6406755627269
 31
0.0
  0
LINE
  5
95
330
47
100
AcDbEntity
  8
1
  6
Continuous
 62
     2
100
AcDbLine
 10
346.2081217091585
 20
250.1406755627269
 30
0.0
 11
347.2081217091585
 21
251.8727263702959
 31
0.0
  0
LINE
  5
96
330
47
100
AcDbEntity
  8
1
  6
Continuous
 62
     7
100
AcDbLine
 10
321.2081217091585
 20
250.1406755627269
 30
0.0
 11
347.2081217091587
 21
250.1406755627269
 31
0.0
  0
LINE
  5
97
330
47
100
AcDbEntity
  8
1
  6
Continuous
 62
     2
100
AcDbLine
 10
321.2081217091585
 20
251.8727263702958
 30
0.0
 11
322.2081217091585
 21
250.1406755627269
 31
0.0
  0
LINE
  5
98
330
47
100
AcDbEntity
  8
1
  6
Continuous
 62
     7
100
AcDbLine
 10
347.2081217091585
 20
252.0006206180868
 30
0.0
 11
347.2081217091585
 21
251.8727263702959
 31
0.0
  0
LINE
  5
99
330
47
100
AcDbEntity
  8
1
  6
Continuous
 62
     7
100
AcDbLine
 10
411.7081217091587
 20
280.6406755627269
 30
0.0
 11
411.7081217091586
 21
290.1406755627269
 31
0.0
  0
LINE
  5
9A
330
47
100
AcDbEntity
  8
1
  6
Continuous
 62
     7
100
AcDbLine
 10
414.2081217091587
 20
290.6406755627269
 30
0.0
 11
412.2081217091586
 21
290.6406755627269
 31
0.0
  0
LINE
  5
9B
330
47
100
AcDbEntity
  8
1
  6
Continuous
 62
     7
100
AcDbLine
 10
414.2081217091587
 20
290.6406755627269
 30
0.0
 11
414.2081217091586
 21
278.1406755627269
 31
0.0
  0
LINE
  5
9C
330
47
100
AcDbEntity
  8
1
  6
Continuous
 62
     2
100
AcDbLine
 10
414.2081217091586
 20
278.1406755627269
 30
0.0
 11
415.9401725167277
 21
277.1406755627269
 31
0.0
  0
LINE
  5
9D
330
47
100
AcDbEntity
  8
1
  6
Continuous
 62
     7
100
AcDbLine
 10
428.2081217091586
 20
277.1406755627269
 30
0.0
 11
427.2081217091586
 21
278.1406755627269
 31
0.0
  0
LINE
  5
9E
330
47
100
AcDbEntity
  8
1
  6
Continuous
 62
     7
100
AcDbLine
 10
414.2081217091586
 20
278.1406755627269
 30
0.0
 11
427.2081217091586
 21
278.1406755627269
 31
0.0
  0
LINE
  5
9F
330
47
100
AcDbEntity
  8
1
  6
Continuous
 62
     2
100
AcDbLine
 10
415.9401725167277
 20
277.1406755627269
 30
0.0
 11
428.2081217091586
 21
277.1406755627269
 31
0.0
  0
LINE
  5
A0
330
47
100
AcDbEntity
  8
1
  6
Continuous
 62
     7
100
AcDbLine
 10
414.2081217091586
 20
257.1406755627269
 30
0.0
 11
414.2081217091587
 21
244.6406755627269
 31
0.0
  0
LINE
  5
A1
330
47
100
AcDbEntity
  8
1
  6
Continuous
 62
     7
100
AcDbLine
 10
414.2081217091587
 20
244.6406755627269
 30
0.0
 11
412.2081217091586
 21
244.6406755627269
 31
0.0
  0
LINE
  5
A2
330
47
100
AcDbEntity
  8
1
  6
Continuous
 62
     7
100
AcDbLine
 10
411.7081217091587
 20
254.6406755627269
 30
0.0
 11
411.7081217091587
 21
245.1406755627269
 31
0.0
  0
LINE
  5
A3
330
47
100
AcDbEntity
  8
1
  6
Continuous
 62
     7
100
AcDbLine
 10
415.9401725167277
 20
257.1406755627269
 30
0.0
 11
415.9401725167277
 21
278.1406755627269
 31
0.0
  0
LINE
  5
A4
330
47
100
AcDbEntity
  8
1
  6
Continuous
 62
     7
100
AcDbLine
 10
427.2081217091586
 20
257.1406755627269
 30
0.0
 11
428.2081217091587
 21
258.1406755627269
 31
0.0
  0
LINE
  5
A5
330
47
100
AcDbEntity
  8
1
  6
Continuous
 62
     2
100
AcDbLine
 10
428.2081217091587
 20
258.1406755627269
 30
0.0
 11
415.9401725167277
 21
258.1406755627269
 31
0.0
  0
LINE
  5
A6
330
47
100
AcDbEntity
  8
1
  6
Continuous
 62
     2
100
AcDbLine
 10
415.9401725167277
 20
258.1406755627269
 30
0.0
 11
414.2081217091586
 21
257.1406755627269
 31
0.0
  0
LINE
  5
A7
330
47
100
AcDbEntity
  8
1
  6
Continuous
 62
     7
100
AcDbLine
 10
427.2081217091586
 20
257.1406755627269
 30
0.0
 11
414.2081217091586
 21
257.1406755627269
 31
0.0
  0
LINE
  5
A8
330
47
100
AcDbEntity
  8
1
  6
Continuous
 62
     7
100
AcDbLine
 10
347.2081217091585
 20
251.8727263702959
 30
0.0
 11
347.2081217091585
 21
248.6406755627269
 31
0.0
  0
LINE
  5
A9
330
47
100
AcDbEntity
  8
1
  6
Continuous
 62
     7
100
AcDbLine
 10
346.1892685262797
 20
255.5666067581647
 30
0.0
 11
347.2081217091585
 21
252.0006206180868
 31
0.0
  0
LINE
  5
AA
330
47
100
AcDbEntity
  8
1
  6
Continuous
 62
     7
100
AcDbLine
 10
350.7758131179917
 20
259.1406755627269
 30
0.0
 11
349.9495955991855
 21
259.1406755627269
 31
0.0
  0
LINE
  5
AB
330
47
100
AcDbEntity
  8
1
  6
Continuous
 62
     7
100
AcDbLine
 10
381.5006989088076
 20
289.9086247551581
 30
0.0
 11
381.6452550870282
 21
285.3551051412138
 31
0.0
  0
LINE
  5
AC
330
47
100
AcDbEntity
  8
1
  6
Continuous
 62
     7
100
AcDbLine
 10
322.1869274263395
 20
255.4264406282197
 30
0.0
 11
321.2081217091585
 21
252.0006206180868
 31
0.0
  0
LINE
  5
AD
330
47
100
AcDbEntity
  8
1
  6
Continuous
 62
     7
100
AcDbLine
 10
356.7537654818934
 20
284.8125853852386
 30
0.0
 11
356.9155445095107
 21
289.9086247551581
 31
0.0
  0
LINE
  5
AE
330
47
100
AcDbEntity
  8
1
  6
PHANTOM
 62
     4
100
AcDbLine
 10
325.0755703569809
 20
267.6406755627269
 30
0.0
 11
431.2081217091586
 21
267.6406755627269
 31
0.0
  0
LINE
  5
AF
330
47
100
AcDbEntity
  8
1
  6
Continuous
 62
     7
100
AcDbLine
 10
123.6922865315974
 20
584.1504609302951
 30
0.0
 11
126.8964790226
 21
568.9830116716003
 31
0.0
  0
LINE
  5
B0
330
47
100
AcDbEntity
  8
1
  6
Continuous
 62
     7
100
AcDbLine
 10
124.1917667438642
 20
624.2303635897592
 30
0.0
 11
124.191766743864
 21
641.1897043612221
 31
0.0
  0
LINE
  5
B1
330
47
100
AcDbEntity
  8
1
  6
Continuous
 62
     7
100
AcDbLine
 10
103.487054465128
 20
568.9830116716003
 30
0.0
 11
106.6912469561307
 21
584.1504609302951
 31
0.0
  0
LINE
  5
B2
330
47
100
AcDbEntity
  8
1
  6
Continuous
 62
     7
100
AcDbLine
 10
106.191766743864
 20
641.1897043612221
 30
0.0
 11
106.191766743864
 21
624.2303635897599
 31
0.0
  0
LINE
  5
B3
330
47
100
AcDbEntity
  8
1
  6
Continuous
 62
     7
100
AcDbLine
 10
105.691766743864
 20
661.6897043612221
 30
0.0
 11
124.691766743864
 21
661.6897043612221
 31
0.0
  0
LINE
  5
B4
330
47
100
AcDbEntity
  8
1
  6
Continuous
 62
     7
100
AcDbLine
 10
137.691766743864
 20
645.1897043612221
 30
0.0
 11
92.69176674386404
 21
645.1897043612221
 31
0.0
  0
LINE
  5
B5
330
47
100
AcDbEntity
  8
1
  6
Continuous
 62
     7
100
AcDbLine
 10
92.19176674386404
 20
647.6897043612221
 30
0.0
 11
92.19176674386404
 21
645.6897043612221
 31
0.0
  0
LINE
  5
B6
330
47
100
AcDbEntity
  8
1
  6
Continuous
 62
     7
100
AcDbLine
 10
92.19176674386404
 20
647.6897043612221
 30
0.0
 11
138.191766743864
 21
647.6897043612221
 31
0.0
  0
LINE
  5
B7
330
47
100
AcDbEntity
  8
1
  6
Continuous
 62
     2
100
AcDbLine
 10
104.691766743864
 20
647.6897043612221
 30
0.0
 11
105.691766743864
 21
649.4217551687912
 31
0.0
  0
LINE
  5
B8
330
47
100
AcDbEntity
  8
1
  6
Continuous
 62
     7
100
AcDbLine
 10
105.691766743864
 20
661.6897043612221
 30
0.0
 11
104.691766743864
 21
660.6897043612221
 31
0.0
  0
LINE
  5
B9
330
47
100
AcDbEntity
  8
1
  6
Continuous
 62
     7
100
AcDbLine
 10
104.691766743864
 20
647.6897043612221
 30
0.0
 11
104.691766743864
 21
660.6897043612221
 31
0.0
  0
LINE
  5
BA
330
47
100
AcDbEntity
  8
1
  6
Continuous
 62
     2
100
AcDbLine
 10
105.691766743864
 20
649.4217551687912
 30
0.0
 11
105.691766743864
 21
661.6897043612221
 31
0.0
  0
LINE
  5
BB
330
47
100
AcDbEntity
  8
1
  6
Continuous
 62
     7
100
AcDbLine
 10
138.191766743864
 20
647.6897043612221
 30
0.0
 11
138.191766743864
 21
645.6897043612221
 31
0.0
  0
LINE
  5
BC
330
47
100
AcDbEntity
  8
1
  6
Continuous
 62
     7
100
AcDbLine
 10
125.691766743864
 20
660.6897043612221
 30
0.0
 11
124.691766743864
 21
661.6897043612221
 31
0.0
  0
LINE
  5
BD
330
47
100
AcDbEntity
  8
1
  6
Continuous
 62
     2
100
AcDbLine
 10
124.691766743864
 20
661.6897043612221
 30
0.0
 11
124.691766743864
 21
649.4217551687912
 31
0.0
  0
LINE
  5
BE
330
47
100
AcDbEntity
  8
1
  6
Continuous
 62
     2
100
AcDbLine
 10
124.691766743864
 20
649.4217551687912
 30
0.0
 11
125.691766743864
 21
647.6897043612221
 31
0.0
  0
LINE
  5
BF
330
47
100
AcDbEntity
  8
1
  6
Continuous
 62
     7
100
AcDbLine
 10
125.691766743864
 20
660.6897043612221
 30
0.0
 11
125.691766743864
 21
647.6897043612221
 31
0.0
  0
LINE
  5
C0
330
47
100
AcDbEntity
  8
1
  6
Continuous
 62
     7
100
AcDbLine
 10
104.691766743864
 20
649.4217551687912
 30
0.0
 11
125.691766743864
 21
649.4217551687912
 31
0.0
  0
LINE
  5
C1
330
47
100
AcDbEntity
  8
1
  6
PHANTOM
 62
     4
100
AcDbLine
 10
369.2081217091587
 20
251.6406755627269
 30
0.0
 11
369.2081217091586
 21
300.6406755627269
 31
0.0
  0
LINE
  5
C2
330
47
100
AcDbEntity
  8
1
  6
Continuous
 62
     7
100
AcDbLine
 10
104.691766743864
 20
660.6897043612221
 30
0.0
 11
125.691766743864
 21
660.6897043612221
 31
0.0
  0
LINE
  5
C3
330
47
100
AcDbEntity
  8
1
  6
PHANTOM
 62
     4
100
AcDbLine
 10
334.2081217091568
 20
239.6406755627269
 30
0.0
 11
334.2081217091566
 21
274.9846473304609
 31
0.0
  0
LINE
  5
C4
330
47
100
AcDbEntity
  8
1
  6
PHANTOM
 62
     4
100
AcDbLine
 10
115.191766743864
 20
551.6897043612219
 30
0.0
 11
115.191766743864
 21
664.6897043612221
 31
0.0
  0
LINE
  5
C5
330
47
100
AcDbEntity
  8
1
  6
PHANTOM
 62
     4
100
AcDbLine
 10
131.1917667438642
 20
567.6897043612219
 30
0.0
 11
99.19176674386392
 21
567.6897043612219
 31
0.0
  0
LINE
  5
C6
330
47
100
AcDbEntity
  8
1
  6
PHANTOM
 62
     4
100
AcDbLine
 10
99.19176674386404
 20
602.6897043612221
 30
0.0
 11
131.1917667438639
 21
602.6897043612221
 31
0.0
  0
ARC
  5
C7
330
47
100
AcDbEntity
  8
1
  6
Continuous
 62
     7
100
AcDbCircle
 10
126.8961973178563
 20
251.807777179662
 30
0.0
 40
24.00000000000156
100
AcDbArc
 50
152.1298826058548
 51
171.3280051740369
  0
ARC
  5
C8
330
47
100
AcDbEntity
  8
1
  6
Continuous
 62
     7
100
AcDbCircle
 10
115.191766743864
 20
267.6406755627269
 30
0.0
 40
13.00000000000001
100
AcDbArc
 50
325.6899072066111
 51
359.9313547110613
  0
ARC
  5
C9
330
47
100
AcDbEntity
  8
1
  6
Continuous
 62
     7
100
AcDbCircle
 10
115.191766743864
 20
267.6406755627269
 30
0.0
 40
13.0
100
AcDbArc
 50
180.0
 51
180.0686452889387
  0
ARC
  5
CA
330
47
100
AcDbEntity
  8
1
  6
Continuous
 62
     7
100
AcDbCircle
 10
103.4873361698718
 20
251.807777179662
 30
0.0
 40
24.00000000000156
100
AcDbArc
 50
8.67199482596315
 51
27.87011739414517
  0
ARC
  5
CB
330
47
100
AcDbEntity
  8
1
  6
Continuous
 62
     7
100
AcDbCircle
 10
115.191766743864
 20
267.6406755627269
 30
0.0
 40
12.99999999999999
100
AcDbArc
 50
180.0686452889387
 51
214.3100927933892
  0
ARC
  5
CC
330
47
100
AcDbEntity
  8
0
  6
Continuous
 62
     7
100
AcDbCircle
 10
115.191766743864
 20
267.6406755627269
 30
0.0
 40
22.99999999999991
100
AcDbArc
 50
306.8963750032391
 51
0.0
  0
ARC
  5
CD
330
47
100
AcDbEntity
  8
0
  6
Continuous
 62
     7
100
AcDbCircle
 10
115.191766743864
 20
267.6406755627269
 30
0.0
 40
23.00000000000007
100
AcDbArc
 50
122.5778011728605
 51
233.103624996761
  0
ARC
  5
CE
330
47
100
AcDbEntity
  8
0
  6
Continuous
 62
     7
100
AcDbCircle
 10
115.191766743864
 20
267.6406755627269
 30
0.0
 40
23.00000000000001
100
AcDbArc
 50
0.0
 51
57.42219882713924
  0
ARC
  5
CF
330
47
100
AcDbEntity
  8
1
  6
Continuous
 62
     7
100
AcDbCircle
 10
115.191766743864
 20
267.6406755627269
 30
0.0
 40
8.351995935906189
100
AcDbArc
 50
90.0
 51
179.8094249769217
  0
ARC
  5
D0
330
47
100
AcDbEntity
  8
1
  6
Continuous
 62
     7
100
AcDbCircle
 10
115.191766743864
 20
267.6406755627269
 30
0.0
 40
8.351995935906155
100
AcDbArc
 50
0.19057502307832
 51
90.0
  0
ARC
  5
D1
330
47
100
AcDbEntity
  8
1
  6
Continuous
 62
     7
100
AcDbCircle
 10
115.191766743864
 20
567.6897043612219
 30
0.0
 40
13.00000000000014
100
AcDbArc
 50
142.4250638103302
 51
244.628182337803
  0
ARC
  5
D2
330
47
100
AcDbEntity
  8
1
  6
Continuous
 62
     7
100
AcDbCircle
 10
99.19176674386404
 20
602.6897043612221
 30
0.0
 40
29.0000000000001
100
AcDbArc
 50
332.5607598493188
 51
343.7570076514931
  0
ARC
  5
D3
330
47
100
AcDbEntity
  8
1
  6
Continuous
 62
     7
100
AcDbCircle
 10
131.1917667438639
 20
602.6897043612221
 30
0.0
 40
28.99999999999988
100
AcDbArc
 50
158.960530218683
 51
163.7570076514945
  0
ARC
  5
D4
330
47
100
AcDbEntity
  8
1
  6
Continuous
 62
     7
100
AcDbCircle
 10
347.7582972042319
 20
285.0981558067527
 30
0.0
 40
9.000000000003672
100
AcDbArc
 50
272.1940450997754
 51
358.1816970355417
  0
ARC
  5
D5
330
47
100
AcDbEntity
  8
1
  6
Continuous
 62
     7
100
AcDbCircle
 10
349.9787664708199
 20
227.1406755622676
 30
0.0
 40
49.00000000045961
100
AcDbArc
 50
92.19404509977868
 51
99.3606621203044
  0
ARC
  5
D6
330
47
100
AcDbEntity
  8
1
  6
Continuous
 62
     7
100
AcDbCircle
 10
345.9125522831508
 20
251.807777179662
 30
0.0
 40
24.00000000000212
100
AcDbArc
 50
99.36066212030275
 51
171.3280051740368
  0
ARC
  5
D7
330
47
100
AcDbEntity
  8
1
  6
Continuous
 62
     7
100
AcDbCircle
 10
350.1671563335797
 20
255.1465965291031
 30
0.0
 40
3.999999999997942
100
AcDbArc
 50
93.11786651757501
 51
173.9726861048961
  0
ARC
  5
D8
330
47
100
AcDbEntity
  8
1
  6
Continuous
 62
     7
100
AcDbCircle
 10
369.2081217091586
 20
283.6406755627269
 30
0.0
 40
29.0
100
AcDbArc
 50
242.5607598493187
 51
291.0394697813171
  0
ARC
  5
D9
330
47
100
AcDbEntity
  8
1
  6
Continuous
 62
     7
100
AcDbCircle
 10
99.19176674386404
 20
602.6897043612221
 30
0.0
 40
28.99999999999981
100
AcDbArc
 50
16.551828396512
 51
21.0394697813166
  0
ARC
  5
DA
330
47
100
AcDbEntity
  8
1
  6
Continuous
 62
     7
100
AcDbCircle
 10
131.1917667438639
 20
602.6897043612221
 30
0.0
 40
28.9999999999999
100
AcDbArc
 50
196.5518283965117
 51
207.4392401506815
  0
ARC
  5
DB
330
47
100
AcDbEntity
  8
1
  6
Continuous
 62
     7
100
AcDbCircle
 10
102.191766743864
 20
641.1897043612221
 30
0.0
 40
4.0
100
AcDbArc
 50
0.0
 51
90.0
  0
ARC
  5
DC
330
47
100
AcDbEntity
  8
1
  6
Continuous
 62
     7
100
AcDbCircle
 10
128.191766743864
 20
641.1897043612221
 30
0.0
 40
4.0
100
AcDbArc
 50
90.0
 51
180.0
  0
ARC
  5
DD
330
47
100
AcDbEntity
  8
1
  6
Continuous
 62
     7
100
AcDbCircle
 10
115.191766743864
 20
567.6897043612219
 30
0.0
 40
13.00000000000026
100
AcDbArc
 50
295.3718176621968
 51
37.57493618966955
  0
ARC
  5
DE
330
47
100
AcDbEntity
  8
1
  6
Continuous
 62
     7
100
AcDbCircle
 10
96.8398723251521
 20
267.7017171547926
 30
0.0
 40
10.00000000000006
100
AcDbArc
 50
332.1298826058548
 51
359.8094249769229
  0
ARC
  5
DF
330
47
100
AcDbEntity
  8
1
  6
Continuous
 62
     7
100
AcDbCircle
 10
133.543661162576
 20
267.7017171547926
 30
0.0
 40
9.999999999999968
100
AcDbArc
 50
180.1905750230771
 51
207.8701173941452
  0
ARC
  5
E0
330
47
100
AcDbEntity
  8
0
  6
Continuous
 62
     7
100
AcDbCircle
 10
155.1917667438642
 20
624.2303635897595
 30
0.0
 40
31.0
100
AcDbArc
 50
180.0000000000004
 51
201.0394697813166
  0
ARC
  5
E1
330
47
100
AcDbEntity
  8
0
  6
Continuous
 62
     7
100
AcDbCircle
 10
75.19176674386404
 20
624.2303635897599
 30
0.0
 40
30.99999999999993
100
AcDbArc
 50
338.9605302186828
 51
0.0
  0
ARC
  5
E2
330
47
100
AcDbEntity
  8
0
  6
Continuous
 62
     7
100
AcDbCircle
 10
390.7487809376963
 20
227.640675562727
 30
0.0
 40
30.99999999999991
100
AcDbArc
 50
90.0
 51
111.0394697813169
  0
ARC
  5
E3
330
47
100
AcDbEntity
  8
0
  6
Continuous
 62
     7
100
AcDbCircle
 10
390.6407233646866
 20
285.6406755627269
 30
0.0
 40
9.000000000000101
100
AcDbArc
 50
181.8183029644528
 51
270.0
  0
ARC
  5
E4
330
47
100
AcDbEntity
  8
1
  6
Continuous
 62
     7
100
AcDbCircle
 10
407.7081217091587
 20
254.6406755627269
 30
0.0
 40
4.0
100
AcDbArc
 50
0.0
 51
90.0
  0
ARC
  5
E5
330
47
100
AcDbEntity
  8
1
  6
Continuous
 62
     7
100
AcDbCircle
 10
407.7081217091587
 20
280.6406755627269
 30
0.0
 40
4.0
100
AcDbArc
 50
270.0
 51
0.0
  0
ARC
  5
E6
330
47
100
AcDbEntity
  8
1
  6
Continuous
 62
     7
100
AcDbCircle
 10
412.2081217091586
 20
290.1406755627269
 30
0.0
 40
0.5
100
AcDbArc
 50
90.0
 51
180.0
  0
ARC
  5
E7
330
47
100
AcDbEntity
  8
1
  6
Continuous
 62
     7
100
AcDbCircle
 10
412.2081217091586
 20
245.1406755627269
 30
0.0
 40
0.4999999999998863
100
AcDbArc
 50
180.0
 51
270.0
  0
ARC
  5
E8
330
47
100
AcDbEntity
  8
1
  6
Continuous
 62
     7
100
AcDbCircle
 10
350.7758131179917
 20
248.1406755627269
 30
0.0
 40
11.0000000000001
100
AcDbArc
 50
62.56075984931871
 51
90.0
  0
ARC
  5
E9
330
47
100
AcDbEntity
  8
1
  6
Continuous
 62
     7
100
AcDbCircle
 10
134.691766743864
 20
584.2573957700552
 30
0.0
 40
10.99999999999995
100
AcDbArc
 50
152.5607598493183
 51
180.5570010462634
  0
ARC
  5
EA
330
47
100
AcDbEntity
  8
1
  6
Continuous
 62
     7
100
AcDbCircle
 10
95.69176674386404
 20
584.2573957700552
 30
0.0
 40
11.00000000000001
100
AcDbArc
 50
359.4429989537366
 51
27.43924015068133
  0
ARC
  5
EB
330
47
100
AcDbEntity
  8
1
  6
Continuous
 62
     7
100
AcDbCircle
 10
92.69176674386404
 20
645.6897043612221
 30
0.0
 40
0.5
100
AcDbArc
 50
180.0
 51
270.0
  0
ARC
  5
EC
330
47
100
AcDbEntity
  8
1
  6
Continuous
 62
     7
100
AcDbCircle
 10
137.691766743864
 20
645.6897043612221
 30
0.0
 40
0.5
100
AcDbArc
 50
270.0
 51
0.0
  0
ENDBLK
  5
49
330
47
100
AcDbEntity
  8
0
100
AcDbBlockEnd
  0
BLOCK
  5
4B
330
4A
100
AcDbEntity
  8
0
100
AcDbBlockBegin
  2
42-15
 70
     0
 10
936.0542987718426
 20
114.9521570517792
 30
0.0
  3
42-15
  1

  0
LINE
  5
ED
330
4A
100
AcDbEntity
  8
1
  6
PHANTOM
 62
     4
100
AcDbLine
 10
369.2081217091588
 20
310.640675562727
 30
0.0
 11
369.2081217091588
 21
329.440675562727
 31
0.0
  0
LINE
  5
EE
330
4A
100
AcDbEntity
  8
1
  6
Continuous
 62
     7
100
AcDbLine
 10
376.2081217091588
 20
326.940675562727
 30
0.0
 11
362.2081217091587
 21
326.940675562727
 31
0.0
  0
LINE
  5
EF
330
4A
100
AcDbEntity
  8
1
  6
Continuous
 62
     2
100
AcDbLine
 10
368.2081217091588
 20
326.1830136648982
 30
0.0
 11
368.2081217091588
 21
325.1177745742878
 31
0.0
  0
LINE
  5
F0
330
4A
100
AcDbEntity
  8
1
  6
Continuous
 62
     2
100
AcDbLine
 10
367.2081217091587
 20
326.426328874631
 30
0.0
 11
367.2081217091587
 21
324.8582383505728
 31
0.0
  0
LINE
  5
F1
330
4A
100
AcDbEntity
  8
1
  6
Continuous
 62
     2
100
AcDbLine
 10
366.2081217091587
 20
326.6372020563994
 30
0.0
 11
366.2081217091587
 21
324.5013760429648
 31
0.0
  0
LINE
  5
F2
330
4A
100
AcDbEntity
  8
1
  6
Continuous
 62
     2
100
AcDbLine
 10
365.2081217091587
 20
326.7507491542747
 30
0.0
 11
365.2081217091587
 21
324.3067238751785
 31
0.0
  0
LINE
  5
F3
330
4A
100
AcDbEntity
  8
1
  6
Continuous
 62
     2
100
AcDbLine
 10
364.2081217091587
 20
326.940675562727
 30
0.0
 11
364.2081217091587
 21
324.140675562727
 31
0.0
  0
LINE
  5
F4
330
4A
100
AcDbEntity
  8
1
  6
Continuous
 62
     2
100
AcDbLine
 10
363.2081217091587
 20
326.940675562727
 30
0.0
 11
363.2081217091587
 21
324.140675562727
 31
0.0
  0
LINE
  5
F5
330
4A
100
AcDbEntity
  8
1
  6
Continuous
 62
     7
100
AcDbLine
 10
362.2081217091587
 20
326.940675562727
 30
0.0
 11
363.2081217091586
 21
327.2099977617502
 31
0.0
  0
LINE
  5
F6
330
4A
100
AcDbEntity
  8
1
  6
Continuous
 62
     7
100
AcDbLine
 10
362.2081217091587
 20
324.140675562727
 30
0.0
 11
362.2081217091587
 21
326.940675562727
 31
0.0
  0
LINE
  5
F7
330
4A
100
AcDbEntity
  8
1
  6
Continuous
 62
     2
100
AcDbLine
 10
362.7081217091587
 20
326.940675562727
 30
0.0
 11
362.7081217091587
 21
324.140675562727
 31
0.0
  0
LINE
  5
F8
330
4A
100
AcDbEntity
  8
1
  6
Continuous
 62
     2
100
AcDbLine
 10
363.7081217091587
 20
326.940675562727
 30
0.0
 11
363.7081217091587
 21
324.140675562727
 31
0.0
  0
LINE
  5
F9
330
4A
100
AcDbEntity
  8
1
  6
Continuous
 62
     7
100
AcDbLine
 10
362.2081217091587
 20
324.140675562727
 30
0.0
 11
376.2081217091588
 21
324.140675562727
 31
0.0
  0
LINE
  5
FA
330
4A
100
AcDbEntity
  8
1
  6
Continuous
 62
     2
100
AcDbLine
 10
364.7081217091587
 20
326.7962633277048
 30
0.0
 11
364.7081217091587
 21
324.2462628889144
 31
0.0
  0
LINE
  5
FB
330
4A
100
AcDbEntity
  8
1
  6
Continuous
 62
     2
100
AcDbLine
 10
365.7081217091587
 20
326.6648938799918
 30
0.0
 11
365.7081217091587
 21
324.3951482629891
 31
0.0
  0
LINE
  5
FC
330
4A
100
AcDbEntity
  8
1
  6
Continuous
 62
     2
100
AcDbLine
 10
366.7081217091587
 20
326.4722186900129
 30
0.0
 11
366.7081217091587
 21
324.7542247534043
 31
0.0
  0
LINE
  5
FD
330
4A
100
AcDbEntity
  8
1
  6
Continuous
 62
     2
100
AcDbLine
 10
367.7081217091587
 20
326.2269957209488
 30
0.0
 11
367.7081217091587
 21
325.0782693910962
 31
0.0
  0
LINE
  5
FE
330
4A
100
AcDbEntity
  8
1
  6
Continuous
 62
     7
100
AcDbLine
 10
376.2081217091588
 20
326.940675562727
 30
0.0
 11
376.2081217091588
 21
324.140675562727
 31
0.0
  0
LINE
  5
FF
330
4A
100
AcDbEntity
  8
1
  6
Continuous
 62
     7
100
AcDbLine
 10
376.2081217091588
 20
326.940675562727
 30
0.0
 11
374.9581217091588
 21
327.2704412829307
 31
0.0
  0
LINE
  5
100
330
4A
100
AcDbEntity
  8
1
  6
Continuous
 62
     7
100
AcDbLine
 10
122.191766743864
 20
326.940675562727
 30
0.0
 11
121.1056421951732
 21
327.227208877951
 31
0.0
  0
LINE
  5
101
330
4A
100
AcDbEntity
  8
1
  6
Continuous
 62
     7
100
AcDbLine
 10
122.191766743864
 20
326.940675562727
 30
0.0
 11
122.191766743864
 21
324.140675562727
 31
0.0
  0
LINE
  5
102
330
4A
100
AcDbEntity
  8
1
  6
Continuous
 62
     7
100
AcDbLine
 10
108.1917667438639
 20
324.140675562727
 30
0.0
 11
109.2293425977908
 21
324.1406755627269
 31
0.0
  0
LINE
  5
103
330
4A
100
AcDbEntity
  8
1
  6
Continuous
 62
     2
100
AcDbLine
 10
108.6917667438639
 20
326.940675562727
 30
0.0
 11
108.6917667438639
 21
324.140675562727
 31
0.0
  0
LINE
  5
104
330
4A
100
AcDbEntity
  8
1
  6
Continuous
 62
     7
100
AcDbLine
 10
108.1917667438639
 20
324.140675562727
 30
0.0
 11
108.1917667438639
 21
326.940675562727
 31
0.0
  0
LINE
  5
105
330
4A
100
AcDbEntity
  8
1
  6
Continuous
 62
     7
100
AcDbLine
 10
108.1917667438639
 20
326.940675562727
 30
0.0
 11
109.1917667438638
 21
327.2099977617502
 31
0.0
  0
LINE
  5
106
330
4A
100
AcDbEntity
  8
1
  6
Continuous
 62
     2
100
AcDbLine
 10
109.1917667438639
 20
326.940675562727
 30
0.0
 11
109.1917667438639
 21
324.140675562727
 31
0.0
  0
LINE
  5
107
330
4A
100
AcDbEntity
  8
1
  6
Continuous
 62
     7
100
AcDbLine
 10
122.191766743864
 20
326.940675562727
 30
0.0
 11
121.1106676554617
 21
326.940675562727
 31
0.0
  0
LINE
  5
108
330
4A
100
AcDbEntity
  8
1
  6
PHANTOM
 62
     4
100
AcDbLine
 10
115.191766743864
 20
310.640675562727
 30
0.0
 11
115.191766743864
 21
329.440675562727
 31
0.0
  0
LINE
  5
109
330
4A
100
AcDbEntity
  8
1
  6
Continuous
 62
     7
100
AcDbLine
 10
121.154124076268
 20
324.140675562727
 30
0.0
 11
122.191766743864
 21
324.140675562727
 31
0.0
  0
LINE
  5
10A
330
4A
100
AcDbEntity
  8
1
  6
Continuous
 62
     7
100
AcDbLine
 10
109.2728658323055
 20
326.940675562727
 30
0.0
 11
108.1917667438639
 21
326.940675562727
 31
0.0
  0
ARC
  5
10B
330
4A
100
AcDbEntity
  8
1
  6
Continuous
 62
     7
100
AcDbCircle
 10
369.2081217091588
 20
302.940675562727
 30
0.0
 40
25.0
100
AcDbArc
 50
90.0
 51
103.2970717472092
  0
ARC
  5
10C
330
4A
100
AcDbEntity
  8
1
  6
Continuous
 62
     7
100
AcDbCircle
 10
369.2081217091588
 20
302.940675562727
 30
0.0
 40
24.99999999999998
100
AcDbArc
 50
103.2970717472092
 51
103.8865403626294
  0
ARC
  5
10D
330
4A
100
AcDbEntity
  8
1
  6
Continuous
 62
     7
100
AcDbCircle
 10
369.2081217091588
 20
302.940675562727
 30
0.0
 40
24.99999999999996
100
AcDbArc
 50
76.70292825279094
 51
90.0
  0
ARC
  5
10E
330
4A
100
AcDbEntity
  8
1
  6
Continuous
 62
     7
100
AcDbCircle
 10
115.191766743864
 20
302.940675562727
 30
0.0
 40
24.99999999999997
100
AcDbArc
 50
103.6831406776106
 51
103.8865403626294
  0
CIRCLE
  5
10F
330
4A
100
AcDbEntity
  8
1
  6
Continuous
 62
     7
100
AcDbCircle
 10
115.191766743864
 20
602.689704361222
 30
0.0
 40
7.0
  0
ENDBLK
  5
4C
330
4A
100
AcDbEntity
  8
0
100
AcDbBlockEnd
  0
BLOCK
  5
4E
330
4D
100
AcDbEntity
  8
0
100
AcDbBlockBegin
  2
R230F-S-1
 70
     0
 10
882.7577141610889
 20
71.08737606051159
 30
0.0
  3
R230F-S-1
  1

  0
LINE
  5
110
330
4D
100
AcDbEntity
  8
1
  6
Continuous
 62
     7
100
AcDbLine
 10
109.2293425977908
 20
324.1406755627269
 30
0.0
 11
105.1566900100157
 21
324.140675562727
 31
0.0
  0
LINE
  5
111
330
4D
100
AcDbEntity
  8
1
  6
Continuous
 62
     7
100
AcDbLine
 10
118.9635476144962
 20
318.6761267008889
 30
0.0
 11
118.9635476144962
 21
321.140675562727
 31
0.0
  0
LINE
  5
112
330
4D
100
AcDbEntity
  8
1
  6
Continuous
 62
     7
100
AcDbLine
 10
109.6770377876204
 20
564.8797043612224
 30
0.0
 11
109.7027907108031
 21
565.189704361222
 31
0.0
  0
LINE
  5
113
330
4D
100
AcDbEntity
  8
1
  6
Continuous
 62
     7
100
AcDbLine
 10
120.7064957001076
 20
564.8797043612224
 30
0.0
 11
120.6807427769249
 21
565.189704361222
 31
0.0
  0
LINE
  5
114
330
4D
100
AcDbEntity
  8
1
  6
Continuous
 62
     7
100
AcDbLine
 10
109.191766743864
 20
564.8797043612224
 30
0.0
 11
108.5069070137256
 21
574.428617740182
 31
0.0
  0
LINE
  5
115
330
4D
100
AcDbEntity
  8
1
  6
Continuous
 62
     7
100
AcDbLine
 10
121.191766743864
 20
564.8797043612224
 30
0.0
 11
121.8766264740025
 21
574.428617740182
 31
0.0
  0
LINE
  5
116
330
4D
100
AcDbEntity
  8
1
  6
Continuous
 62
     7
100
AcDbLine
 10
297.2081217091587
 20
321.140675562727
 30
0.0
 11
299.2081217091587
 21
321.140675562727
 31
0.0
  0
LINE
  5
117
330
4D
100
AcDbEntity
  8
1
  6
Continuous
 62
     7
100
AcDbLine
 10
296.7081217091587
 20
320.640675562727
 30
0.0
 11
296.7081217091587
 21
319.7324863327944
 31
0.0
  0
LINE
  5
118
330
4D
100
AcDbEntity
  8
1
  6
Continuous
 62
     7
100
AcDbLine
 10
296.7081217091587
 20
319.7324863327944
 30
0.0
 11
298.7081217091587
 21
318.140675562727
 31
0.0
  0
LINE
  5
119
330
4D
100
AcDbEntity
  8
1
  6
Continuous
 62
     7
100
AcDbLine
 10
369.2081217091587
 20
310.140675562727
 30
0.0
 11
379.6717698715785
 21
310.140675562727
 31
0.0
  0
LINE
  5
11A
330
4D
100
AcDbEntity
  8
1
  6
Continuous
 62
     7
100
AcDbLine
 10
380.2425612973545
 20
323.1763670932394
 30
0.0
 11
380.6711327259262
 21
311.1763670932394
 31
0.0
  0
LINE
  5
11B
330
4D
100
AcDbEntity
  8
1
  6
Continuous
 62
     7
100
AcDbLine
 10
379.243198443007
 20
324.140675562727
 30
0.0
 11
374.2081217091587
 21
324.140675562727
 31
0.0
  0
LINE
  5
11C
330
4D
100
AcDbEntity
  8
1
  6
Continuous
 62
     7
100
AcDbLine
 10
357.7451106923912
 20
311.1763670932394
 30
0.0
 11
357.8458800619426
 21
313.9979094406773
 31
0.0
  0
LINE
  5
11D
330
4D
100
AcDbEntity
  8
1
  6
Continuous
 62
     7
100
AcDbLine
 10
358.7444735467387
 20
310.140675562727
 30
0.0
 11
369.2081217091587
 21
310.140675562727
 31
0.0
  0
LINE
  5
11E
330
4D
100
AcDbEntity
  8
1
  6
Continuous
 62
     7
100
AcDbLine
 10
349.5718746985788
 20
324.140675562727
 30
0.0
 11
364.2081217091587
 21
324.140675562727
 31
0.0
  0
LINE
  5
11F
330
4D
100
AcDbEntity
  8
1
  6
Continuous
 62
     7
100
AcDbLine
 10
353.8484286445524
 20
318.140675562727
 30
0.0
 11
298.7081217091587
 21
318.140675562727
 31
0.0
  0
LINE
  5
120
330
4D
100
AcDbEntity
  8
1
  6
Continuous
 62
     7
100
AcDbLine
 10
120.6807427769249
 20
565.189704361222
 30
0.0
 11
109.7027907108031
 21
565.189704361222
 31
0.0
  0
LINE
  5
121
330
4D
100
AcDbEntity
  8
1
  6
Continuous
 62
     7
100
AcDbLine
 10
115.191766743864
 20
310.140675562727
 30
0.0
 11
125.6554149062839
 21
310.140675562727
 31
0.0
  0
LINE
  5
122
330
4D
100
AcDbEntity
  8
1
  6
Continuous
 62
     7
100
AcDbLine
 10
126.22620633206
 20
323.1763670932394
 30
0.0
 11
126.6547777606315
 21
311.1763670932394
 31
0.0
  0
LINE
  5
123
330
4D
100
AcDbEntity
  8
1
  6
Continuous
 62
     7
100
AcDbLine
 10
125.2268434777125
 20
324.140675562727
 30
0.0
 11
121.154124076268
 21
324.1406755627269
 31
0.0
  0
LINE
  5
124
330
4D
100
AcDbEntity
  8
1
  6
Continuous
 62
     7
100
AcDbLine
 10
111.4199858732319
 20
318.6761267008889
 30
0.0
 11
111.4199858732319
 21
321.140675562727
 31
0.0
  0
LINE
  5
125
330
4D
100
AcDbEntity
  8
1
  6
Continuous
 62
     7
100
AcDbLine
 10
111.4199858732319
 20
321.140675562727
 30
0.0
 11
118.9635476144962
 21
321.140675562727
 31
0.0
  0
LINE
  5
126
330
4D
100
AcDbEntity
  8
1
  6
Continuous
 62
     7
100
AcDbLine
 10
104.7281185814443
 20
310.140675562727
 30
0.0
 11
115.191766743864
 21
310.140675562727
 31
0.0
  0
LINE
  5
127
330
4D
100
AcDbEntity
  8
1
  6
Continuous
 62
     7
100
AcDbLine
 10
103.7287557270966
 20
311.1763670932394
 30
0.0
 11
104.1573271556682
 21
323.1763670932394
 31
0.0
  0
LINE
  5
128
330
4D
100
AcDbEntity
  8
1
  6
Continuous
 62
     7
100
AcDbLine
 10
354.3889017875429
 20
318.140675562727
 30
0.0
 11
369.2081217091587
 21
318.140675562727
 31
0.0
  0
ARC
  5
129
330
4D
100
AcDbEntity
  8
1
  6
Continuous
 62
     7
100
AcDbCircle
 10
251.6817659694933
 20
567.3134395585645
 30
0.0
 40
130.0
100
AcDbArc
 50
165.4694907133512
 51
173.0457331673428
  0
ARC
  5
12A
330
4D
100
AcDbEntity
  8
1
  6
Continuous
 62
     7
100
AcDbCircle
 10
115.191766743864
 20
602.689704361222
 30
0.0
 40
11.50000000000001
100
AcDbArc
 50
329.2073931632638
 51
210.7926068367362
  0
ARC
  5
12B
330
4D
100
AcDbEntity
  8
1
  6
Continuous
 62
     7
100
AcDbCircle
 10
7.15344386508025
 20
562.9919893683935
 30
0.0
 40
102.572893542466
100
AcDbArc
 50
1.22770671281611
 51
11.27875648836906
  0
ARC
  5
12C
330
4D
100
AcDbEntity
  8
1
  6
Continuous
 62
     7
100
AcDbCircle
 10
251.6817659694933
 20
567.3134395585645
 30
0.0
 40
130.0
100
AcDbArc
 50
173.0457331673428
 51
176.8625116036978
  0
ARC
  5
12D
330
4D
100
AcDbEntity
  8
1
  6
Continuous
 62
     7
100
AcDbCircle
 10
223.2300896226478
 20
562.9919893683935
 30
0.0
 40
102.572893542466
100
AcDbArc
 50
168.7212435116309
 51
178.7722932871839
  0
ARC
  5
12E
330
4D
100
AcDbEntity
  8
1
  6
Continuous
 62
     7
100
AcDbCircle
 10
115.191766743864
 20
602.689704361222
 30
0.0
 40
11.0
100
AcDbArc
 50
90.0
 51
194.5305092866489
  0
ARC
  5
12F
330
4D
100
AcDbEntity
  8
1
  6
Continuous
 62
     7
100
AcDbCircle
 10
-21.29823248176513
 20
567.3134395585645
 30
0.0
 40
129.9999999999999
100
AcDbArc
 50
3.13748839630225
 51
14.53050928664879
  0
ARC
  5
130
330
4D
100
AcDbEntity
  8
1
  6
Continuous
 62
     7
100
AcDbCircle
 10
115.191766743864
 20
602.689704361222
 30
0.0
 40
11.00000000000012
100
AcDbArc
 50
345.4694907133513
 51
90.0
  0
ARC
  5
131
330
4D
100
AcDbEntity
  8
1
  6
Continuous
 62
     7
100
AcDbCircle
 10
349.5718746985788
 20
354.1406755627269
 30
0.0
 40
29.99999999999992
100
AcDbArc
 50
232.7134569936883
 51
270.0
  0
SPLINE
  5
132
330
4D
100
AcDbEntity
  8
1
  6
Continuous
 62
     7
100
AcDbSpline
210
0.0
220
0.0
230
1.0
 70
     8
 71
     3
 72
    17
 73
    13
 74
    11
 42
0.000000001
 43
0.0000000001
 44
0.00000001
 40
0.0
 40
0.0
 40
0.0
 40
0.0
 40
0.1204198777828031
 40
0.2457744609842624
 40
0.3658804036706908
 40
0.4837855396514075
 40
0.8235592364584146
 40
1.165760769484362
 40
1.577729414951177
 40
1.988797276844575
 40
2.932548568324968
 40
3.87643077544204
 40
3.87643077544204
 40
3.87643077544204
 40
3.87643077544204
 10
111.4199858732319
 20
318.6761267008889
 30
0.0
 10
111.4383564406738
 20
318.6390115641585
 30
0.0
 10
111.475850373581
 20
318.5632603356796
 30
0.0
 10
111.5934359605628
 20
318.5126368562668
 30
0.0
 10
111.7050995236027
 20
318.4695787844509
 30
0.0
 10
111.8908620441449
 20
318.4161342606168
 30
0.0
 10
112.1506202703806
 20
318.3566965272974
 30
0.0
 10
112.5106521670039
 20
318.2972073851104
 30
0.0
 10
112.8960797191588
 20
318.2487768846867
 30
0.0
 10
113.4825875771137
 20
318.1947343315464
 30
0.0
 10
114.2478792610279
 20
318.1500325227831
 30
0.0
 10
114.8771230360518
 20
318.1437946974288
 30
0.0
 10
115.191766743864
 20
318.140675562727
 30
0.0
 11
111.4199858732319
 21
318.6761267008889
 31
0.0
 11
111.4850582958635
 21
318.5748028310243
 31
0.0
 11
111.5942218074925
 21
318.5131822254248
 31
0.0
 11
111.7066367623413
 21
318.4708937482189
 31
0.0
 11
111.8196278553689
 21
318.4372094204587
 31
0.0
 11
112.1505711576783
 21
318.3602503695725
 31
0.0
 11
112.4879482782464
 21
318.3029915918177
 31
0.0
 11
112.89662333765
 21
318.2510025488068
 31
0.0
 11
113.305876308548
 21
318.2124176703119
 31
0.0
 11
114.2480372144456
 21
318.1576515526885
 31
0.0
 11
115.191766743864
 21
318.140675562727
 31
0.0
  0
SPLINE
  5
133
330
4D
100
AcDbEntity
  8
1
  6
Continuous
 62
     7
100
AcDbSpline
210
0.0
220
0.0
230
1.0
 70
     8
 71
     3
 72
    17
 73
    13
 74
    11
 42
0.000000001
 43
0.0000000001
 44
0.00000001
 40
0.0
 40
0.0
 40
0.0
 40
0.0
 40
0.1204198777828645
 40
0.2457744609843858
 40
0.3658804036708274
 40
0.4837855396515305
 40
0.8235592364585929
 40
1.165760769484499
 40
1.577729414951271
 40
1.988797276844726
 40
2.932548568325119
 40
3.876430775442091
 40
3.876430775442091
 40
3.876430775442091
 40
3.876430775442091
 10
118.9635476144962
 20
318.6761267008889
 30
0.0
 10
118.9451770470542
 20
318.6390115641584
 30
0.0
 10
118.907683114147
 20
318.5632603356795
 30
0.0
 10
118.7900975271652
 20
318.5126368562669
 30
0.0
 10
118.6784339641252
 20
318.4695787844508
 30
0.0
 10
118.492671443583
 20
318.4161342606168
 30
0.0
 10
118.2329132173473
 20
318.3566965272974
 30
0.0
 10
117.8728813207241
 20
318.2972073851104
 30
0.0
 10
117.487453768569
 20
318.2487768846867
 30
0.0
 10
116.9009459106142
 20
318.1947343315463
 30
0.0
 10
116.1356542267
 20
318.1500325227831
 30
0.0
 10
115.5064104516762
 20
318.1437946974287
 30
0.0
 10
115.191766743864
 20
318.140675562727
 30
0.0
 11
118.9635476144962
 21
318.6761267008889
 31
0.0
 11
118.8984751918644
 21
318.5748028310243
 31
0.0
 11
118.7893116802354
 21
318.5131822254248
 31
0.0
 11
118.6768967253866
 21
318.4708937482189
 31
0.0
 11
118.563905632359
 21
318.4372094204587
 31
0.0
 11
118.2329623300495
 21
318.3602503695725
 31
0.0
 11
117.8955852094815
 21
318.3029915918177
 31
0.0
 11
117.4869101500779
 21
318.2510025488068
 31
0.0
 11
117.0776571791799
 21
318.2124176703119
 31
0.0
 11
116.1354962732823
 21
318.1576515526885
 31
0.0
 11
115.191766743864
 21
318.140675562727
 31
0.0
  0
ARC
  5
134
330
4D
100
AcDbEntity
  8
1
  6
Continuous
 62
     7
100
AcDbCircle
 10
379.243198443007
 20
323.140675562727
 30
0.0
 40
0.9999999999999596
100
AcDbArc
 50
2.0454084888863
 51
90.0
  0
ARC
  5
135
330
4D
100
AcDbEntity
  8
1
  6
Continuous
 62
     7
100
AcDbCircle
 10
297.2081217091587
 20
320.640675562727
 30
0.0
 40
0.5
100
AcDbArc
 50
90.0
 51
180.0
  0
ARC
  5
136
330
4D
100
AcDbEntity
  8
1
  6
Continuous
 62
     7
100
AcDbCircle
 10
379.6717698715785
 20
311.140675562727
 30
0.0
 40
1.0
100
AcDbArc
 50
270.0
 51
2.04540848888583
  0
ARC
  5
137
330
4D
100
AcDbEntity
  8
1
  6
Continuous
 62
     7
100
AcDbCircle
 10
353.8484286445524
 20
314.140675562727
 30
0.0
 40
3.999999999999956
100
AcDbArc
 50
357.9545915111121
 51
90.0
  0
ARC
  5
138
330
4D
100
AcDbEntity
  8
1
  6
Continuous
 62
     7
100
AcDbCircle
 10
358.7444735467387
 20
311.140675562727
 30
0.0
 40
0.9999999999999027
100
AcDbArc
 50
177.9545915111136
 51
270.0
  0
ARC
  5
139
330
4D
100
AcDbEntity
  8
1
  6
Continuous
 62
     7
100
AcDbCircle
 10
125.2268434777125
 20
323.140675562727
 30
0.0
 40
0.9999999999999454
100
AcDbArc
 50
2.04540848888633
 51
90.0
  0
ARC
  5
13A
330
4D
100
AcDbEntity
  8
1
  6
Continuous
 62
     7
100
AcDbCircle
 10
125.6554149062839
 20
311.140675562727
 30
0.0
 40
1.0
100
AcDbArc
 50
270.0
 51
2.04540848888609
  0
ARC
  5
13B
330
4D
100
AcDbEntity
  8
1
  6
Continuous
 62
     7
100
AcDbCircle
 10
104.7281185814443
 20
311.140675562727
 30
0.0
 40
1.000000000000158
100
AcDbArc
 50
177.9545915111141
 51
270.0
  0
ARC
  5
13C
330
4D
100
AcDbEntity
  8
1
  6
Continuous
 62
     7
100
AcDbCircle
 10
105.1566900100157
 20
323.140675562727
 30
0.0
 40
1.0
100
AcDbArc
 50
90.0
 51
177.9545915111137
  0
ENDBLK
  5
4F
330
4D
100
AcDbEntity
  8
0
100
AcDbBlockEnd
  0
BLOCK
  5
51
330
50
100
AcDbEntity
  8
0
100
AcDbBlockBegin
  2
60-1-16-170
 70
     0
 10
196.0418877037449
 20
142.7745777327332
 30
0.0
  3
60-1-16-170
  1

  0
LINE
  5
13D
330
50
100
AcDbEntity
  8
1
  6
Continuous
 62
     7
100
AcDbLine
 10
107.191766743864
 20
178.140675562727
 30
0.0
 11
107.191766743864
 21
238.640675562727
 31
0.0
  0
LINE
  5
13E
330
50
100
AcDbEntity
  8
1
  6
Continuous
 62
     7
100
AcDbLine
 10
123.191766743864
 20
178.140675562727
 30
0.0
 11
123.191766743864
 21
238.640675562727
 31
0.0
  0
LINE
  5
13F
330
50
100
AcDbEntity
  8
1
  6
Continuous
 62
     7
100
AcDbLine
 10
107.805359737878
 20
173.140675562727
 30
0.0
 11
122.5781737498501
 21
173.140675562727
 31
0.0
  0
LINE
  5
140
330
50
100
AcDbEntity
  8
1
  6
Continuous
 62
     7
100
AcDbLine
 10
123.191766743864
 20
178.140675562727
 30
0.0
 11
107.191766743864
 21
178.140675562727
 31
0.0
  0
LINE
  5
141
330
50
100
AcDbEntity
  8
1
  6
Continuous
 62
     7
100
AcDbLine
 10
156.8199152987619
 20
173.140675562727
 30
0.0
 11
171.5927293107341
 21
173.140675562727
 31
0.0
  0
LINE
  5
142
330
50
100
AcDbEntity
  8
1
  6
Continuous
 62
     7
100
AcDbLine
 10
172.206322304748
 20
178.140675562727
 30
0.0
 11
156.206322304748
 21
178.140675562727
 31
0.0
  0
LINE
  5
143
330
50
100
AcDbEntity
  8
1
  6
Continuous
 62
     7
100
AcDbLine
 10
307.2081217091587
 20
214.140675562727
 30
0.0
 11
191.206322304748
 21
214.140675562727
 31
0.0
  0
LINE
  5
144
330
50
100
AcDbEntity
  8
1
  6
Continuous
 62
     7
100
AcDbLine
 10
326.2081217091587
 20
233.140675562727
 30
0.0
 11
326.2081217091587
 21
238.640675562727
 31
0.0
  0
LINE
  5
145
330
50
100
AcDbEntity
  8
1
  6
Continuous
 62
     7
100
AcDbLine
 10
342.2081217091587
 20
238.640675562727
 30
0.0
 11
342.2081217091587
 21
233.140675562727
 31
0.0
  0
LINE
  5
146
330
50
100
AcDbEntity
  8
1
  6
Continuous
 62
     7
100
AcDbLine
 10
156.206322304748
 20
178.140675562727
 30
0.0
 11
156.206322304748
 21
179.140675562727
 31
0.0
  0
LINE
  5
147
330
50
100
AcDbEntity
  8
1
  6
Continuous
 62
     7
100
AcDbLine
 10
172.206322304748
 20
178.140675562727
 30
0.0
 11
172.206322304748
 21
179.140675562727
 31
0.0
  0
LINE
  5
148
330
50
100
AcDbEntity
  8
1
  6
Continuous
 62
     7
100
AcDbLine
 10
307.2081217091587
 20
198.140675562727
 30
0.0
 11
191.206322304748
 21
198.140675562727
 31
0.0
  0
LINE
  5
149
330
50
100
AcDbEntity
  8
1
  6
Continuous
 62
     7
100
AcDbLine
 10
122.2919191200028
 20
397.6879049568112
 30
0.0
 11
122.2919191200029
 21
555.6231717095633
 31
0.0
  0
LINE
  5
14A
330
50
100
AcDbEntity
  8
1
  6
Continuous
 62
     7
100
AcDbLine
 10
108.0916143677252
 20
397.6879049568112
 30
0.0
 11
108.0916143677252
 21
555.6231717095636
 31
0.0
  0
ARC
  5
14B
330
50
100
AcDbEntity
  8
1
  6
Continuous
 62
     7
100
AcDbCircle
 10
115.191766743864
 20
206.140675562727
 30
0.0
 40
8.0
100
AcDbArc
 50
0.0
 51
180.0
  0
ARC
  5
14C
330
50
100
AcDbEntity
  8
1
  6
Continuous
 62
     7
100
AcDbCircle
 10
119.9817404491457
 20
175.9969558555048
 30
0.0
 40
3.860026294718407
100
AcDbArc
 50
312.2716554964181
 51
0.0
  0
ARC
  5
14D
330
50
100
AcDbEntity
  8
1
  6
Continuous
 62
     7
100
AcDbCircle
 10
110.4017930385821
 20
175.9969558555048
 30
0.0
 40
3.860026294718016
100
AcDbArc
 50
146.264208999972
 51
180.0
  0
ARC
  5
14E
330
50
100
AcDbEntity
  8
1
  6
Continuous
 62
     7
100
AcDbCircle
 10
110.4017930385821
 20
175.9969558555048
 30
0.0
 40
3.860026294718196
100
AcDbArc
 50
180.0
 51
227.7283445035852
  0
ARC
  5
14F
330
50
100
AcDbEntity
  8
1
  6
Continuous
 62
     7
100
AcDbCircle
 10
119.9817404491457
 20
175.9969558555048
 30
0.0
 40
3.860026294718296
100
AcDbArc
 50
0.0
 51
33.73579100002645
  0
ARC
  5
150
330
50
100
AcDbEntity
  8
1
  6
Continuous
 62
     7
100
AcDbCircle
 10
307.2081217091587
 20
233.140675562727
 30
0.0
 40
35.0
100
AcDbArc
 50
270.0
 51
0.0
  0
ARC
  5
151
330
50
100
AcDbEntity
  8
1
  6
Continuous
 62
     7
100
AcDbCircle
 10
307.2081217091587
 20
233.140675562727
 30
0.0
 40
19.0
100
AcDbArc
 50
270.0
 51
0.0
  0
ARC
  5
152
330
50
100
AcDbEntity
  8
1
  6
Continuous
 62
     7
100
AcDbCircle
 10
191.206322304748
 20
179.140675562727
 30
0.0
 40
35.0
100
AcDbArc
 50
90.0
 51
180.0
  0
ARC
  5
153
330
50
100
AcDbEntity
  8
1
  6
Continuous
 62
     7
100
AcDbCircle
 10
191.206322304748
 20
179.140675562727
 30
0.0
 40
19.0
100
AcDbArc
 50
90.0
 51
180.0
  0
ARC
  5
154
330
50
100
AcDbEntity
  8
1
  6
Continuous
 62
     7
100
AcDbCircle
 10
168.9962960100297
 20
175.9969558555048
 30
0.0
 40
3.860026294718397
100
AcDbArc
 50
312.2716554964179
 51
0.0
  0
ARC
  5
155
330
50
100
AcDbEntity
  8
1
  6
Continuous
 62
     7
100
AcDbCircle
 10
159.4163485994661
 20
175.9969558555048
 30
0.0
 40
3.860026294718005
100
AcDbArc
 50
146.2642089999719
 51
180.0
  0
ARC
  5
156
330
50
100
AcDbEntity
  8
1
  6
Continuous
 62
     7
100
AcDbCircle
 10
159.4163485994661
 20
175.9969558555048
 30
0.0
 40
3.860026294718296
100
AcDbArc
 50
180.0
 51
227.7283445035843
  0
ARC
  5
157
330
50
100
AcDbEntity
  8
1
  6
Continuous
 62
     7
100
AcDbCircle
 10
168.9962960100297
 20
175.9969558555048
 30
0.0
 40
3.860026294718182
100
AcDbArc
 50
0.0
 51
33.73579100002645
  0
ARC
  5
158
330
50
100
AcDbEntity
  8
1
  6
Continuous
 62
     7
100
AcDbCircle
 10
115.191766743864
 20
397.6879049568112
 30
0.0
 40
8.649999999999858
100
AcDbArc
 50
145.1676518966028
 51
34.8323481033971
  0
ARC
  5
159
330
50
100
AcDbEntity
  8
1
  6
Continuous
 62
     7
100
AcDbCircle
 10
115.191766743864
 20
397.6879049568112
 30
0.0
 40
7.100152376138794
100
AcDbArc
 50
180.0
 51
0.0
  0
ENDBLK
  5
52
330
50
100
AcDbEntity
  8
0
100
AcDbBlockEnd
  0
BLOCK
  5
54
330
53
100
AcDbEntity
  8
0
100
AcDbBlockBegin
  2
37-1-13
 70
     0
 10
616.9364788059236
 20
-108.4725105843176
 30
0.0
  3
37-1-13
  1

  0
LINE
  5
15A
330
53
100
AcDbEntity
  8
1
  6
Continuous
 62
     7
100
AcDbLine
 10
106.2466573073085
 20
592.8140238853559
 30
0.0
 11
103.20068300453
 21
594.5371642198747
 31
0.0
  0
LINE
  5
15B
330
53
100
AcDbEntity
  8
1
  6
Continuous
 62
     7
100
AcDbLine
 10
127.3240522332229
 20
594.7488197250689
 30
0.0
 11
124.3087817778547
 21
592.9724987668474
 31
0.0
  0
LINE
  5
15C
330
53
100
AcDbEntity
  8
1
  6
Continuous
 62
     7
100
AcDbLine
 10
103.0594812545052
 20
610.6305889973748
 30
0.0
 11
114.1270017457521
 21
617.1505575690655
 31
0.0
  0
LINE
  5
15D
330
53
100
AcDbEntity
  8
1
  6
Continuous
 62
     7
100
AcDbLine
 10
116.0026318226147
 20
617.1670141190486
 30
0.0
 11
127.1828504831982
 21
610.8422445025693
 31
0.0
  0
LINE
  5
15E
330
53
100
AcDbEntity
  8
1
  6
Continuous
 62
     7
100
AcDbLine
 10
128.1349173119736
 20
609.2261294828955
 30
0.0
 11
128.2476154813102
 21
596.3813912947257
 31
0.0
  0
LINE
  5
15F
330
53
100
AcDbEntity
  8
1
  6
Continuous
 62
     7
100
AcDbLine
 10
102.2486161757545
 20
596.1532792395483
 30
0.0
 11
102.1359180064179
 21
608.9980174277181
 31
0.0
  0
LINE
  5
160
330
53
100
AcDbEntity
  8
1
  6
Continuous
 62
     7
100
AcDbLine
 10
375.2081217091587
 20
307.140675562727
 30
0.0
 11
363.2081217091587
 21
307.140675562727
 31
0.0
  0
LINE
  5
161
330
53
100
AcDbEntity
  8
1
  6
Continuous
 62
     7
100
AcDbLine
 10
382.2788359234299
 20
293.140675562727
 30
0.0
 11
356.1374074948873
 21
293.140675562727
 31
0.0
  0
LINE
  5
162
330
53
100
AcDbEntity
  8
1
  6
Continuous
 62
     7
100
AcDbLine
 10
115.191766743864
 20
307.140675562727
 30
0.0
 11
110.191766743864
 21
307.140675562727
 31
0.0
  0
LINE
  5
163
330
53
100
AcDbEntity
  8
1
  6
Continuous
 62
     7
100
AcDbLine
 10
115.191766743864
 20
307.140675562727
 30
0.0
 11
121.191766743864
 21
307.140675562727
 31
0.0
  0
LINE
  5
164
330
53
100
AcDbEntity
  8
1
  6
Continuous
 62
     7
100
AcDbLine
 10
110.191766743864
 20
307.140675562727
 30
0.0
 11
109.191766743864
 21
307.140675562727
 31
0.0
  0
LINE
  5
165
330
53
100
AcDbEntity
  8
1
  6
Continuous
 62
     7
100
AcDbLine
 10
115.191766743864
 20
293.140675562727
 30
0.0
 11
128.191766743864
 21
293.140675562727
 31
0.0
  0
LINE
  5
166
330
53
100
AcDbEntity
  8
1
  6
Continuous
 62
     7
100
AcDbLine
 10
115.191766743864
 20
293.140675562727
 30
0.0
 11
102.191766743864
 21
293.140675562727
 31
0.0
  0
LINE
  5
167
330
53
100
AcDbEntity
  8
1
  6
Continuous
 62
     7
100
AcDbLine
 10
128.191766743864
 20
300.2113897769985
 30
0.0
 11
128.191766743864
 21
293.140675562727
 31
0.0
  0
LINE
  5
168
330
53
100
AcDbEntity
  8
1
  6
Continuous
 62
     7
100
AcDbLine
 10
102.191766743864
 20
293.140675562727
 30
0.0
 11
102.191766743864
 21
300.2113897769985
 31
0.0
  0
ARC
  5
169
330
53
100
AcDbEntity
  8
1
  6
Continuous
 62
     7
100
AcDbCircle
 10
115.191766743864
 20
602.689704361222
 30
0.0
 40
12.99999999999996
100
AcDbArc
 50
90.50269329611329
 51
225.801046429029
  0
ARC
  5
16A
330
53
100
AcDbEntity
  8
1
  6
Continuous
 62
     7
100
AcDbCircle
 10
115.191766743864
 20
602.689704361222
 30
0.0
 40
12.99999999999997
100
AcDbArc
 50
315.2043401631973
 51
90.50269329611329
  0
ARC
  5
16B
330
53
100
AcDbEntity
  8
1
  6
Continuous
 62
     7
100
AcDbCircle
 10
115.191766743864
 20
602.689704361222
 30
0.0
 40
14.50000000000003
100
AcDbArc
 50
86.7942485708424
 51
94.21113802138345
  0
ARC
  5
16C
330
53
100
AcDbEntity
  8
1
  6
Continuous
 62
     7
100
AcDbCircle
 10
115.191766743864
 20
602.689704361222
 30
0.0
 40
14.50000000000004
100
AcDbArc
 50
326.7942485708425
 51
334.2111380213841
  0
ARC
  5
16D
330
53
100
AcDbEntity
  8
1
  6
Continuous
 62
     7
100
AcDbCircle
 10
115.191766743864
 20
602.689704361222
 30
0.0
 40
14.49999999999982
100
AcDbArc
 50
146.794248570843
 51
154.2111380213843
  0
ARC
  5
16E
330
53
100
AcDbEntity
  8
1
  6
Continuous
 62
     7
100
AcDbCircle
 10
115.191766743864
 20
602.689704361222
 30
0.0
 40
14.50000000000004
100
AcDbArc
 50
26.79424857084245
 51
34.21113802138415
  0
ARC
  5
16F
330
53
100
AcDbEntity
  8
1
  6
Continuous
 62
     7
100
AcDbCircle
 10
115.191766743864
 20
602.689704361222
 30
0.0
 40
14.49999999999999
100
AcDbArc
 50
206.7942485708431
 51
214.2111380213843
  0
ARC
  5
170
330
53
100
AcDbEntity
  8
1
  6
Continuous
 62
     7
100
AcDbCircle
 10
359.7081217091587
 20
296.640675562727
 30
0.0
 40
5.000000000000091
100
AcDbArc
 50
126.8698976458433
 51
224.427004000806
  0
ARC
  5
171
330
53
100
AcDbEntity
  8
1
  6
Continuous
 62
     7
100
AcDbCircle
 10
343.3016665040436
 20
320.547130767842
 30
0.0
 40
24.0000000000001
100
AcDbArc
 50
303.9591925000979
 51
326.0408074999025
  0
ARC
  5
172
330
53
100
AcDbEntity
  8
1
  6
Continuous
 62
     7
100
AcDbCircle
 10
378.7081217091587
 20
296.640675562727
 30
0.0
 40
4.999999999999813
100
AcDbArc
 50
315.5729959991922
 51
53.13010235415989
  0
ARC
  5
173
330
53
100
AcDbEntity
  8
1
  6
Continuous
 62
     7
100
AcDbCircle
 10
395.1145769142736
 20
320.547130767842
 30
0.0
 40
24.00000000000002
100
AcDbArc
 50
213.9591925000978
 51
236.0408074999019
  0
ARC
  5
174
330
53
100
AcDbEntity
  8
1
  6
Continuous
 62
     7
100
AcDbCircle
 10
141.098221948979
 20
320.5471307678419
 30
0.0
 40
24.00000000000006
100
AcDbArc
 50
213.9591925000974
 51
236.0408074999022
  0
ARC
  5
175
330
53
100
AcDbEntity
  8
1
  6
Continuous
 62
     7
100
AcDbCircle
 10
124.691766743864
 20
296.640675562727
 30
0.0
 40
5.000000000000067
100
AcDbArc
 50
45.57299599919482
 51
53.13010235415676
  0
ARC
  5
176
330
53
100
AcDbEntity
  8
1
  6
Continuous
 62
     7
100
AcDbCircle
 10
89.28531153874928
 20
320.5471307678419
 30
0.0
 40
23.99999999999996
100
AcDbArc
 50
303.9591925000979
 51
326.0408074999022
  0
ARC
  5
177
330
53
100
AcDbEntity
  8
1
  6
Continuous
 62
     7
100
AcDbCircle
 10
105.691766743864
 20
296.640675562727
 30
0.0
 40
4.999999999999903
100
AcDbArc
 50
126.8698976458404
 51
134.4270040008051
  0
SPLINE
  5
178
330
53
100
AcDbEntity
  8
1
  6
Continuous
 62
     7
100
AcDbSpline
210
0.0
220
0.0
230
1.0
 70
    11
 71
     3
 72
    79
 73
    75
 74
    73
 42
0.000000001
 43
0.0000000001
 44
0.00000001
 40
0.0
 40
0.0
 40
0.0
 40
0.0
 40
0.316043638799711
 40
0.631896628551818
 40
0.9639391265079388
 40
1.295702693009311
 40
1.65084722260919
 40
2.00572778447721
 40
2.387357017978447
 40
2.768780710151074
 40
3.176769167226822
 40
3.584612389530538
 40
4.015944746705198
 40
4.447181167981009
 40
4.896666768954014
 40
5.346094677409074
 40
5.807047416077271
 40
6.267973147891181
 40
6.732835055932626
 40
7.197696963972295
 40
7.658622695780573
 40
8.119575434438179
 40
8.569003342876446
 40
9.01848894382373
 40
9.44972536506307
 40
9.881057722185073
 40
10.28890094441805
 40
10.6968894013946
 40
11.07831309343924
 40
11.4599423267649
 40
11.8148228884094
 40
12.16996741770044
 40
12.50173098377963
 40
12.83377348103125
 40
13.14962646880609
 40
13.4656701152574
 40
13.77589254991639
 40
14.08611498457417
 40
14.402158631022
 40
14.7180116187914
 40
15.05005411603548
 40
15.38181768210593
 40
15.73696221138682
 40
16.09184277302078
 40
16.47347200633493
 40
16.85489569836822
 40
17.2628841553329
 40
17.67072737755448
 40
18.10205973466502
 40
18.53329615589372
 40
18.98278175683058
 40
19.43220966525883
 40
19.89316240390682
 40
20.35408813570616
 40
20.81895004373758
 40
21.28381195177146
 40
21.7447376835785
 40
22.20569042224041
 40
22.65511833068999
 40
23.10460393165807
 40
23.53584035292944
 40
23.96717271009951
 40
24.37501593239829
 40
24.78300438946746
 40
25.16442808163105
 40
25.54605731511702
 40
25.9009378769593
 40
26.25608240650901
 40
26.58784597290245
 40
26.91988847055997
 40
27.23574145885946
 40
27.55178510609546
 40
27.86200754281972
 40
28.17222997000336
 40
28.17222997000336
 40
28.17222997000336
 40
28.17222997000336
 10
114.2331527190944
 20
296.985559504649
 30
0.0
 10
114.2153608101811
 20
297.0895535290683
 30
0.0
 10
114.1797877331507
 20
297.2974788464225
 30
0.0
 10
114.0736470106015
 20
297.6021245695018
 30
0.0
 10
113.9325936724577
 20
297.8972828605948
 30
0.0
 10
113.750343753785
 20
298.1847943099969
 30
0.0
 10
113.5341285050794
 20
298.4573175354766
 30
0.0
 10
113.280189608566
 20
298.7187056043188
 30
0.0
 10
112.9966007890032
 20
298.961239050469
 30
0.0
 10
112.6790033064443
 20
299.1889117119745
 30
0.0
 10
112.3366986227433
 20
299.394892519012
 30
0.0
 10
111.9652429298676
 20
299.5823346136168
 30
0.0
 10
111.5742993551452
 20
299.7459898745014
 30
0.0
 10
111.1602753458208
 20
299.8878424462665
 30
0.0
 10
110.7321781964389
 20
300.0044025440195
 30
0.0
 10
110.2880938881691
 20
300.0966239171685
 30
0.0
 10
109.8355006385444
 20
300.1625678569009
 30
0.0
 10
109.3747307675555
 20
300.2025751395383
 30
0.0
 10
108.9111132894718
 20
300.2158158324706
 30
0.0
 10
108.4474958113746
 20
300.2025751395984
 30
0.0
 10
107.9867259404268
 20
300.1625678570188
 30
0.0
 10
107.5341326906562
 20
300.0966239173773
 30
0.0
 10
107.0900483829218
 20
300.0044025442403
 30
0.0
 10
106.6619512315832
 20
299.8878424468504
 30
0.0
 10
106.2479272292786
 20
299.745989874264
 30
0.0
 10
105.8569836290484
 20
299.5823346169525
 30
0.0
 10
105.4855280264145
 20
299.3948925104045
 30
0.0
 10
105.1432230170202
 20
299.1889117473266
 30
0.0
 10
104.8256266747421
 20
298.9612389329142
 30
0.0
 10
104.5420337566476
 20
298.7187060375836
 30
0.0
 10
104.2881091403788
 20
298.4573160509849
 30
0.0
 10
104.0718425412126
 20
298.1847997233688
 30
0.0
 10
103.8897723415335
 20
297.897264134677
 30
0.0
 10
103.7480682642927
 20
297.6021932522626
 30
0.0
 10
103.6442444765184
 20
297.2972363163914
 30
0.0
 10
103.5826995688203
 20
296.9883751862012
 30
0.0
 10
103.5611835272865
 20
296.6760326702756
 30
0.0
 10
103.5826995688078
 20
296.3636901543503
 30
0.0
 10
103.6442444764934
 20
296.0548290241609
 30
0.0
 10
103.7480682642554
 20
295.7498720882916
 30
0.0
 10
103.8897723414845
 20
295.4548012058793
 30
0.0
 10
104.0718425411522
 20
295.1672656171908
 30
0.0
 10
104.2881091403076
 20
294.8947492895783
 30
0.0
 10
104.5420337565658
 20
294.6333593029845
 30
0.0
 10
104.8256266746505
 20
294.3908264076592
 30
0.0
 10
105.1432230169192
 20
294.1631535932536
 30
0.0
 10
105.4855280263045
 20
293.9571728301831
 30
0.0
 10
105.8569836289299
 20
293.7697307236438
 30
0.0
 10
106.2479272291521
 20
293.606075466342
 30
0.0
 10
106.6619512314492
 20
293.464222893767
 30
0.0
 10
107.0900483827805
 20
293.3476627963899
 30
0.0
 10
107.5341326905078
 20
293.2554414232673
 30
0.0
 10
107.9867259402709
 20
293.1894974836418
 30
0.0
 10
108.447495811212
 20
293.1494902010804
 30
0.0
 10
108.911113289299
 20
293.1362495082291
 30
0.0
 10
109.3747307673845
 20
293.1494902011823
 30
0.0
 10
109.8355006383275
 20
293.1894974838505
 30
0.0
 10
110.2880938880783
 20
293.255441423589
 30
0.0
 10
110.7321781958399
 20
293.3476627968444
 30
0.0
 10
111.1602753470262
 20
293.464222894347
 30
0.0
 10
111.5742993498133
 20
293.6060754671551
 30
0.0
 10
111.9652429482073
 20
293.7697307244036
 30
0.0
 10
112.336698557231
 20
293.9571728320263
 30
0.0
 10
112.6790035434229
 20
294.1631535922376
 30
0.0
 10
112.9965999667544
 20
294.3908264178293
 30
0.0
 10
113.2801925932767
 20
294.6333592743286
 30
0.0
 10
113.5341182251448
 20
294.8947493977289
 30
0.0
 10
113.7503811718974
 20
295.1672652351847
 30
0.0
 10
113.9324641539663
 20
295.4548025413183
 30
0.0
 10
114.0741219471305
 20
295.7498672074132
 30
0.0
 10
114.1781105270066
 20
296.0548462789783
 30
0.0
 10
114.2390503283195
 20
296.3636261322866
 30
0.0
 10
114.2627857770874
 20
296.6762667587828
 30
0.0
 10
114.2430304021582
 20
296.8824619235243
 30
0.0
 10
114.2331527190944
 20
296.985559504649
 30
0.0
 11
114.2331527190944
 21
296.985559504649
 31
0.0
 11
114.1712703698081
 21
297.295485562606
 31
0.0
 11
114.0702142428787
 21
297.5947359079377
 31
0.0
 11
113.9267605234102
 21
297.8941908301482
 31
0.0
 11
113.7499298100151
 21
298.1749005782004
 31
0.0
 11
113.5296192391786
 21
298.4534519902153
 31
0.0
 11
113.282811693055
 21
298.7084544377924
 31
0.0
 11
112.9932014045294
 21
298.9569836162942
 31
0.0
 11
112.6834990856006
 21
299.1796234746978
 31
0.0
 11
112.3342225034516
 21
299.3904799430148
 31
0.0
 11
111.9702787021917
 21
299.5745478747122
 31
0.0
 11
111.5725822101183
 21
299.7415362052075
 31
0.0
 11
111.1647063769634
 21
299.8815439041146
 31
0.0
 11
110.7310979956027
 21
299.9999545332414
 31
0.0
 11
110.29108523815
 21
300.0914652876627
 31
0.0
 11
109.8349793547874
 21
300.1581349992808
 31
0.0
 11
109.3757830576478
 21
300.1980259875196
 31
0.0
 11
108.9111132795458
 21
300.2113897769983
 31
0.0
 11
108.4464435014438
 21
300.1980259875197
 31
0.0
 11
107.9872472043042
 21
300.1581349992809
 31
0.0
 11
107.5311413209415
 21
300.0914652876627
 31
0.0
 11
107.0911285634889
 21
299.9999545332414
 31
0.0
 11
106.6575201821283
 21
299.8815439041146
 31
0.0
 11
106.2496443489734
 21
299.7415362052075
 31
0.0
 11
105.8519478568999
 21
299.5745478747121
 31
0.0
 11
105.4880040556398
 21
299.390479943015
 31
0.0
 11
105.1387274734909
 21
299.1796234746978
 31
0.0
 11
104.8290251545622
 21
298.9569836162942
 31
0.0
 11
104.5394148660366
 21
298.7084544377924
 31
0.0
 11
104.2926073199129
 21
298.4534519902154
 31
0.0
 11
104.0722967490764
 21
298.1749005782004
 31
0.0
 11
103.8954660356813
 21
297.8941908301481
 31
0.0
 11
103.7520123162128
 21
297.5947359079375
 31
0.0
 11
103.6509561892834
 21
297.2954855626058
 31
0.0
 11
103.5890738399971
 21
296.985559504649
 31
0.0
 11
103.5683109499057
 21
296.6760326698627
 31
0.0
 11
103.5890738399971
 21
296.3665058350763
 31
0.0
 11
103.6509561892834
 21
296.0565797771195
 31
0.0
 11
103.7520123162128
 21
295.7573294317878
 31
0.0
 11
103.8954660356812
 21
295.4578745095772
 31
0.0
 11
104.0722967490764
 21
295.177164761525
 31
0.0
 11
104.2926073199129
 21
294.89861334951
 31
0.0
 11
104.5394148660365
 21
294.643610901933
 31
0.0
 11
104.8290251545621
 21
294.3950817234312
 31
0.0
 11
105.1387274734908
 21
294.1724418650275
 31
0.0
 11
105.4880040556397
 21
293.9615853967104
 31
0.0
 11
105.8519478568997
 21
293.7775174650133
 31
0.0
 11
106.2496443489732
 21
293.6105291345179
 31
0.0
 11
106.6575201821283
 21
293.4705214356109
 31
0.0
 11
107.0911285634891
 21
293.3521108064841
 31
0.0
 11
107.5311413209417
 21
293.2606000520627
 31
0.0
 11
107.9872472043042
 21
293.1939303404444
 31
0.0
 11
108.4464435014438
 21
293.1540393522057
 31
0.0
 11
108.9111132795458
 21
293.140675562727
 31
0.0
 11
109.3757830576478
 21
293.1540393522057
 31
0.0
 11
109.8349793547873
 21
293.1939303404444
 31
0.0
 11
110.2910852381499
 21
293.2606000520626
 31
0.0
 11
110.7310979956026
 21
293.3521108064839
 31
0.0
 11
111.1647063769633
 21
293.4705214356107
 31
0.0
 11
111.5725822101183
 21
293.6105291345179
 31
0.0
 11
111.9702787021917
 21
293.7775174650133
 31
0.0
 11
112.3342225034517
 21
293.9615853967105
 31
0.0
 11
112.6834990856007
 21
294.1724418650275
 31
0.0
 11
112.9932014045295
 21
294.3950817234312
 31
0.0
 11
113.282811693055
 21
294.643610901933
 31
0.0
 11
113.5296192391786
 21
294.89861334951
 31
0.0
 11
113.7499298100151
 21
295.177164761525
 31
0.0
 11
113.9267605234103
 21
295.4578745095772
 31
0.0
 11
114.0702142428787
 21
295.7573294317878
 31
0.0
 11
114.1712703698081
 21
296.0565797771195
 31
0.0
 11
114.2331527190944
 21
296.3665058350763
 31
0.0
 11
114.2539156091857
 21
296.6760326698627
 31
0.0
 11
114.2331527190944
 21
296.985559504649
 31
0.0
  0
SPLINE
  5
179
330
53
100
AcDbEntity
  8
1
  6
Continuous
 62
     7
100
AcDbSpline
210
0.0
220
0.0
230
1.0
 70
    11
 71
     3
 72
    79
 73
    75
 74
    73
 42
0.000000001
 43
0.0000000001
 44
0.00000001
 40
0.0
 40
0.0
 40
0.0
 40
0.0
 40
0.3160436387997221
 40
0.6318966285518428
 40
0.9639391265079882
 40
1.295702693009361
 40
1.650847222609196
 40
2.005727784477255
 40
2.387357017978514
 40
2.768780710151117
 40
3.176769167226829
 40
3.584612389530595
 40
4.015944746705269
 40
4.447181167981094
 40
4.896666768954084
 40
5.346094677409115
 40
5.80704741607727
 40
6.267973147891222
 40
6.732835055932682
 40
7.19769696397235
 40
7.658622695780558
 40
8.119575434438193
 40
8.569003342876474
 40
9.0184889438238
 40
9.449725365063166
 40
9.881057722185103
 40
10.28890094441806
 40
10.69688940139454
 40
11.0783130934392
 40
11.4599423267649
 40
11.81482288840943
 40
12.16996741770046
 40
12.50173098377964
 40
12.83377348103128
 40
13.14962646880613
 40
13.46567011525743
 40
13.77589254991642
 40
14.0861149845742
 40
14.40215863102202
 40
14.71801161879143
 40
15.05005411603553
 40
15.38181768210595
 40
15.73696221138685
 40
16.09184277302085
 40
16.47347200633506
 40
16.85489569836835
 40
17.26288415533305
 40
17.67072737755458
 40
18.10205973466506
 40
18.53329615589372
 40
18.98278175683053
 40
19.43220966525883
 40
19.89316240390685
 40
20.35408813570614
 40
20.81895004373754
 40
21.28381195177137
 40
21.74473768357846
 40
22.20569042224048
 40
22.65511833069009
 40
23.1046039316581
 40
23.53584035292941
 40
23.96717271009948
 40
24.3750159323983
 40
24.78300438946747
 40
25.16442808163103
 40
25.546057315117
 40
25.90093787695931
 40
26.25608240650901
 40
26.58784597290242
 40
26.91988847055995
 40
27.23574145885946
 40
27.55178510609547
 40
27.86200754281973
 40
28.17222997000338
 40
28.17222997000338
 40
28.17222997000338
 40
28.17222997000338
 10
116.1503807686335
 20
296.985559504649
 30
0.0
 10
116.1681726775469
 20
297.0895535290683
 30
0.0
 10
116.2037457545773
 20
297.2974788464224
 30
0.0
 10
116.3098864771266
 20
297.6021245695021
 30
0.0
 10
116.4509398152703
 20
297.8972828605947
 30
0.0
 10
116.633189733943
 20
298.1847943099968
 30
0.0
 10
116.8494049826486
 20
298.4573175354766
 30
0.0
 10
117.1033438791621
 20
298.7187056043188
 30
0.0
 10
117.3869326987248
 20
298.9612390504689
 30
0.0
 10
117.7045301812837
 20
299.1889117119745
 30
0.0
 10
118.0468348649847
 20
299.394892519012
 30
0.0
 10
118.4182905578605
 20
299.5823346136169
 30
0.0
 10
118.8092341325829
 20
299.7459898745013
 30
0.0
 10
119.2232581419073
 20
299.8878424462665
 30
0.0
 10
119.6513552912892
 20
300.0044025440195
 30
0.0
 10
120.095439599559
 20
300.0966239171685
 30
0.0
 10
120.5480328491837
 20
300.1625678569009
 30
0.0
 10
121.0088027201725
 20
300.2025751395382
 30
0.0
 10
121.4724201982563
 20
300.2158158324706
 30
0.0
 10
121.9360376763535
 20
300.2025751395985
 30
0.0
 10
122.3968075473013
 20
300.1625678570188
 30
0.0
 10
122.8494007970718
 20
300.0966239173773
 30
0.0
 10
123.2934851048063
 20
300.0044025442402
 30
0.0
 10
123.7215822561449
 20
299.8878424468504
 30
0.0
 10
124.1356062584495
 20
299.7459898742641
 30
0.0
 10
124.5265498586797
 20
299.5823346169526
 30
0.0
 10
124.8980054613135
 20
299.3948925104045
 30
0.0
 10
125.2403104707077
 20
299.1889117473265
 30
0.0
 10
125.5579068129858
 20
298.9612389329142
 30
0.0
 10
125.8414997310805
 20
298.7187060375836
 30
0.0
 10
126.0954243473493
 20
298.457316050985
 30
0.0
 10
126.3116909465155
 20
298.1847997233687
 30
0.0
 10
126.4937611461946
 20
297.8972641346771
 30
0.0
 10
126.6354652234353
 20
297.6021932522623
 30
0.0
 10
126.7392890112098
 20
297.2972363163915
 30
0.0
 10
126.8008339189077
 20
296.9883751862012
 30
0.0
 10
126.8223499604416
 20
296.6760326702756
 30
0.0
 10
126.8008339189203
 20
296.3636901543504
 30
0.0
 10
126.7392890112346
 20
296.0548290241609
 30
0.0
 10
126.6354652234726
 20
295.7498720882916
 30
0.0
 10
126.4937611462435
 20
295.4548012058793
 30
0.0
 10
126.3116909465759
 20
295.1672656171908
 30
0.0
 10
126.0954243474204
 20
294.8947492895783
 30
0.0
 10
125.8414997311622
 20
294.6333593029844
 30
0.0
 10
125.5579068130774
 20
294.3908264076593
 30
0.0
 10
125.2403104708087
 20
294.1631535932535
 30
0.0
 10
124.8980054614234
 20
293.9571728301833
 30
0.0
 10
124.526549858798
 20
293.7697307236436
 30
0.0
 10
124.1356062585759
 20
293.606075466342
 30
0.0
 10
123.7215822562789
 20
293.464222893767
 30
0.0
 10
123.2934851049475
 20
293.3476627963899
 30
0.0
 10
122.8494007972203
 20
293.2554414232673
 30
0.0
 10
122.3968075474571
 20
293.1894974836418
 30
0.0
 10
121.936037676516
 20
293.1494902010805
 30
0.0
 10
121.4724201984292
 20
293.136249508229
 30
0.0
 10
121.0088027203436
 20
293.1494902011823
 30
0.0
 10
120.5480328494006
 20
293.1894974838506
 30
0.0
 10
120.0954395996498
 20
293.2554414235889
 30
0.0
 10
119.651355291888
 20
293.3476627968443
 30
0.0
 10
119.2232581407018
 20
293.464222894347
 30
0.0
 10
118.8092341379148
 20
293.6060754671551
 30
0.0
 10
118.4182905395207
 20
293.7697307244036
 30
0.0
 10
118.0468349304971
 20
293.9571728320263
 30
0.0
 10
117.7045299443051
 20
294.1631535922374
 30
0.0
 10
117.3869335209737
 20
294.3908264178293
 30
0.0
 10
117.1033408944514
 20
294.6333592743286
 30
0.0
 10
116.8494152625832
 20
294.8947493977289
 30
0.0
 10
116.6331523158307
 20
295.1672652351847
 30
0.0
 10
116.4510693337618
 20
295.4548025413183
 30
0.0
 10
116.3094115405975
 20
295.7498672074131
 30
0.0
 10
116.2054229607214
 20
296.0548462789783
 30
0.0
 10
116.1444831594085
 20
296.3636261322865
 30
0.0
 10
116.1207477106406
 20
296.6762667587827
 30
0.0
 10
116.1405030855696
 20
296.8824619235244
 30
0.0
 10
116.1503807686335
 20
296.985559504649
 30
0.0
 11
116.1503807686335
 21
296.985559504649
 31
0.0
 11
116.2122631179199
 21
297.295485562606
 31
0.0
 11
116.3133192448493
 21
297.5947359079377
 31
0.0
 11
116.4567729643179
 21
297.8941908301482
 31
0.0
 11
116.633603677713
 21
298.1749005782004
 31
0.0
 11
116.8539142485494
 21
298.4534519902153
 31
0.0
 11
117.1007217946731
 21
298.7084544377924
 31
0.0
 11
117.3903320831987
 21
298.9569836162942
 31
0.0
 11
117.7000344021274
 21
299.1796234746978
 31
0.0
 11
118.0493109842764
 21
299.3904799430148
 31
0.0
 11
118.4132547855363
 21
299.5745478747122
 31
0.0
 11
118.8109512776097
 21
299.7415362052075
 31
0.0
 11
119.2188271107647
 21
299.8815439041146
 31
0.0
 11
119.6524354921254
 21
299.9999545332414
 31
0.0
 11
120.092448249578
 21
300.0914652876627
 31
0.0
 11
120.5485541329407
 21
300.1581349992808
 31
0.0
 11
121.0077504300803
 21
300.1980259875196
 31
0.0
 11
121.4724202081823
 21
300.2113897769983
 31
0.0
 11
121.9370899862843
 21
300.1980259875197
 31
0.0
 11
122.3962862834238
 21
300.1581349992809
 31
0.0
 11
122.8523921667865
 21
300.0914652876627
 31
0.0
 11
123.2924049242391
 21
299.9999545332414
 31
0.0
 11
123.7260133055998
 21
299.8815439041146
 31
0.0
 11
124.1338891387547
 21
299.7415362052075
 31
0.0
 11
124.5315856308282
 21
299.5745478747121
 31
0.0
 11
124.8955294320882
 21
299.390479943015
 31
0.0
 11
125.2448060142371
 21
299.1796234746978
 31
0.0
 11
125.5545083331658
 21
298.9569836162942
 31
0.0
 11
125.8441186216914
 21
298.7084544377924
 31
0.0
 11
126.0909261678152
 21
298.4534519902154
 31
0.0
 11
126.3112367386516
 21
298.1749005782004
 31
0.0
 11
126.4880674520467
 21
297.8941908301481
 31
0.0
 11
126.6315211715153
 21
297.5947359079375
 31
0.0
 11
126.7325772984447
 21
297.2954855626058
 31
0.0
 11
126.794459647731
 21
296.985559504649
 31
0.0
 11
126.8152225378223
 21
296.6760326698627
 31
0.0
 11
126.7944596477309
 21
296.3665058350763
 31
0.0
 11
126.7325772984447
 21
296.0565797771195
 31
0.0
 11
126.6315211715153
 21
295.7573294317878
 31
0.0
 11
126.4880674520468
 21
295.4578745095772
 31
0.0
 11
126.3112367386517
 21
295.177164761525
 31
0.0
 11
126.0909261678152
 21
294.89861334951
 31
0.0
 11
125.8441186216915
 21
294.643610901933
 31
0.0
 11
125.5545083331658
 21
294.3950817234312
 31
0.0
 11
125.2448060142371
 21
294.1724418650275
 31
0.0
 11
124.8955294320882
 21
293.9615853967104
 31
0.0
 11
124.5315856308283
 21
293.7775174650133
 31
0.0
 11
124.1338891387548
 21
293.6105291345179
 31
0.0
 11
123.7260133055998
 21
293.4705214356109
 31
0.0
 11
123.292404924239
 21
293.3521108064841
 31
0.0
 11
122.8523921667864
 21
293.2606000520627
 31
0.0
 11
122.3962862834238
 21
293.1939303404444
 31
0.0
 11
121.9370899862843
 21
293.1540393522057
 31
0.0
 11
121.4724202081823
 21
293.140675562727
 31
0.0
 11
121.0077504300803
 21
293.1540393522057
 31
0.0
 11
120.5485541329408
 21
293.1939303404444
 31
0.0
 11
120.092448249578
 21
293.2606000520626
 31
0.0
 11
119.6524354921254
 21
293.3521108064839
 31
0.0
 11
119.2188271107647
 21
293.4705214356107
 31
0.0
 11
118.8109512776098
 21
293.6105291345179
 31
0.0
 11
118.4132547855363
 21
293.7775174650133
 31
0.0
 11
118.0493109842764
 21
293.9615853967105
 31
0.0
 11
117.7000344021274
 21
294.1724418650275
 31
0.0
 11
117.3903320831986
 21
294.3950817234312
 31
0.0
 11
117.1007217946731
 21
294.643610901933
 31
0.0
 11
116.8539142485495
 21
294.89861334951
 31
0.0
 11
116.633603677713
 21
295.177164761525
 31
0.0
 11
116.4567729643178
 21
295.4578745095772
 31
0.0
 11
116.3133192448493
 21
295.7573294317878
 31
0.0
 11
116.2122631179199
 21
296.0565797771195
 31
0.0
 11
116.1503807686336
 21
296.3665058350763
 31
0.0
 11
116.1296178785422
 21
296.6760326698627
 31
0.0
 11
116.1503807686335
 21
296.985559504649
 31
0.0
  0
SPLINE
  5
17A
330
53
100
AcDbEntity
  8
1
  6
Continuous
 62
     7
100
AcDbSpline
210
0.0
220
0.0
230
1.0
 70
    11
 71
     3
 72
    79
 73
    75
 74
    73
 42
0.000000001
 43
0.0000000001
 44
0.00000001
 40
0.0
 40
0.0
 40
0.0
 40
0.0
 40
0.3056555920969951
 40
0.6111585893845652
 40
0.9305029480060105
 40
1.249617896452123
 40
1.588850766651402
 40
1.927858404385135
 40
2.290035977258051
 40
2.652031959141602
 40
3.037173432189043
 40
3.42218302238932
 40
3.827752357294231
 40
4.233232823499451
 40
4.654739090170269
 40
5.076191199672446
 40
5.507785183137669
 40
5.939353622015817
 40
6.374389407745112
 40
6.809425193471784
 40
7.240993632341737
 40
7.672587615792183
 40
8.09403972527186
 40
8.515545991909834
 40
8.921026458070376
 40
9.326595792912833
 40
9.711605383032204
 40
10.09674685596988
 40
10.45874283771493
 40
10.82092041040266
 40
11.15992804790423
 40
11.49916091778869
 40
11.8182758658083
 40
12.1376202237269
 40
12.44312321908731
 40
12.74877881900611
 40
13.04947799889997
 40
13.35017717879252
 40
13.65583277870767
 40
13.96133577406246
 40
14.28068013197347
 40
14.59979507998412
 40
14.93902794985821
 40
15.27803558734866
 40
15.64021316002432
 40
16.00220914175725
 40
16.38735061468228
 40
16.77236020478935
 40
17.17792953961946
 40
17.58341000576811
 40
18.00491627239422
 40
18.42636838186261
 40
18.85796236530216
 40
19.28953080416173
 40
19.72456658987854
 40
20.15960237559839
 40
20.59117081446777
 40
21.02276479792476
 40
21.44421690741909
 40
21.86572317408236
 40
22.27120364028044
 40
22.67677297517765
 40
23.06178256537002
 40
23.44692403840745
 40
23.80892002027834
 40
24.17109759313242
 40
24.51010523083677
 40
24.84933810098213
 40
25.16845304931654
 40
25.48779740763755
 40
25.79330040351638
 40
26.09895600421077
 40
26.39965518611547
 40
26.70035435833319
 40
26.70035435833319
 40
26.70035435833319
 40
26.70035435833319
 10
374.187961007277
 20
297.0021412749346
 30
0.0
 10
374.171354878315
 20
297.1028073575994
 30
0.0
 10
374.1381509185406
 20
297.3040892680057
 30
0.0
 10
374.0391123072254
 20
297.5992584075888
 30
0.0
 10
373.9072682279308
 20
297.885546763588
 30
0.0
 10
373.7370158089764
 20
298.1642626597731
 30
0.0
 10
373.5347439397389
 20
298.4288266330938
 30
0.0
 10
373.2973271017531
 20
298.6823385928691
 30
0.0
 10
373.0318789107087
 20
298.917878987538
 30
0.0
 10
372.7348047814583
 20
299.1387514898367
 30
0.0
 10
372.4143308769173
 20
299.3387997159502
 30
0.0
 10
372.0667895494944
 20
299.5206676223617
 30
0.0
 10
371.7007757245798
 20
299.6795907800363
 30
0.0
 10
371.3133494446485
 20
299.8172340816539
 30
0.0
 10
370.9125790000793
 20
299.9304080077088
 30
0.0
 10
370.4969822915554
 20
300.0198956354154
 30
0.0
 10
370.0733168072597
 20
300.0839182975011
 30
0.0
 10
369.6420694108706
 20
300.1227373915725
 30
0.0
 10
369.2081217190634
 20
300.1355979403834
 30
0.0
 10
368.7741740272439
 20
300.1227373916645
 30
0.0
 10
368.3429266308912
 20
300.0839182976835
 30
0.0
 10
367.9192611464644
 20
300.0198956357173
 30
0.0
 10
367.5036644384176
 20
299.9304080080633
 30
0.0
 10
367.1028939920968
 20
299.8172340823646
 30
0.0
 10
366.7154677184553
 20
299.6795907800837
 30
0.0
 10
366.3494538706292
 20
299.5206676255441
 30
0.0
 10
366.0019126245506
 20
299.3387997088184
 30
0.0
 10
365.6814384256504
 20
299.1387515209952
 30
0.0
 10
365.3843653321552
 20
298.9178788850641
 30
0.0
 10
365.1189134061626
 20
298.6823389735875
 30
0.0
 10
364.8815096618455
 20
298.4288253213787
 30
0.0
 10
364.6791905386829
 20
298.164267457748
 30
0.0
 10
364.5091045823715
 20
297.8855300410515
 30
0.0
 10
364.376655794514
 20
297.5993198660366
 30
0.0
 10
364.2797816759944
 20
297.3038708883539
 30
0.0
 10
364.2222780695569
 20
297.0045847339893
 30
0.0
 10
364.2022651717243
 20
296.702067440379
 30
0.0
 10
364.2222780695434
 20
296.3995501467689
 30
0.0
 10
364.2797816759675
 20
296.1002639924052
 30
0.0
 10
364.3766557944738
 20
295.8048150147243
 30
0.0
 10
364.5091045823183
 20
295.5186048397112
 30
0.0
 10
364.6791905386175
 20
295.2398674230178
 30
0.0
 10
364.8815096617682
 20
294.9753095593907
 30
0.0
 10
365.1189134060738
 20
294.7217959071863
 30
0.0
 10
365.3843653320553
 20
294.4862559957149
 30
0.0
 10
365.6814384255398
 20
294.2653833597898
 30
0.0
 10
366.0019126244298
 20
294.0653351719739
 30
0.0
 10
366.3494538704987
 20
293.8834672552561
 30
0.0
 10
366.7154677183157
 20
293.7245441007258
 30
0.0
 10
367.102893991948
 20
293.5869007984552
 30
0.0
 10
367.50366443826
 20
293.4737268727682
 30
0.0
 10
367.9192611462983
 20
293.3842392451277
 30
0.0
 10
368.3429266307161
 20
293.3202165831762
 30
0.0
 10
368.7741740270605
 20
293.2813974892118
 30
0.0
 10
369.2081217188684
 20
293.2685369405116
 30
0.0
 10
369.6420694106745
 20
293.2813974893414
 30
0.0
 10
370.07331680702
 20
293.3202165834401
 30
0.0
 10
370.4969822914252
 20
293.3842392455317
 30
0.0
 10
370.9125789994921
 20
293.4737268733304
 30
0.0
 10
371.3133494456713
 20
293.5869007991701
 30
0.0
 10
371.7007757197394
 20
293.7245441016875
 30
0.0
 10
372.0667895659078
 20
293.8834672562183
 30
0.0
 10
372.4143308177446
 20
294.065335173925
 30
0.0
 10
372.7348049956413
 20
294.2653833592993
 30
0.0
 10
373.0318781628325
 20
294.4862560050644
 30
0.0
 10
373.2973298228039
 20
294.7217958824911
 30
0.0
 10
373.5347344993764
 20
294.9753096556187
 30
0.0
 10
373.7370502576636
 20
295.2398670846563
 30
0.0
 10
373.9071480669581
 20
295.5186060342713
 30
0.0
 10
374.0395537957646
 20
295.8048106429597
 30
0.0
 10
374.1365820389393
 20
296.1002795474208
 30
0.0
 10
374.1935186464817
 20
296.3994923984554
 30
0.0
 10
374.2156155244243
 20
296.7022791186371
 30
0.0
 10
374.1971791768546
 20
296.9021872236984
 30
0.0
 10
374.1879610072769
 20
297.0021412749345
 30
0.0
 11
374.187961007277
 21
297.0021412749346
 31
0.0
 11
374.1301773814436
 21
297.302285237791
 31
0.0
 11
374.0356212205232
 21
297.5927868947429
 31
0.0
 11
373.9017309184651
 21
297.8827079288789
 31
0.0
 11
373.7360841702573
 21
298.1554633228369
 31
0.0
 11
373.5303910261568
 21
298.4252211226394
 31
0.0
 11
373.2990937214383
 21
298.6730673152215
 31
0.0
 11
373.0285503082454
 21
298.9138553045325
 31
0.0
 11
372.7383252961706
 21
299.1302127245942
 31
0.0
 11
372.4118799731281
 21
299.3345834790736
 31
0.0
 11
372.0709136478412
 21
299.513397207689
 31
0.0
 11
371.6990629751387
 21
299.6753032378674
 31
0.0
 11
371.3170567815926
 21
299.8112652787307
 31
0.0
 11
370.9114960947136
 21
299.9261045668457
 31
0.0
 11
370.4995132281705
 21
300.0149414864015
 31
0.0
 11
370.0727927147317
 21
300.0796173704238
 31
0.0
 11
369.6429641369743
 21
300.1183305617298
 31
0.0
 11
369.2081217091586
 21
300.1312996727605
 31
0.0
 11
368.7732792813429
 21
300.1183305617299
 31
0.0
 11
368.3434507035855
 21
300.0796173704238
 31
0.0
 11
367.9167301901467
 21
300.0149414864017
 31
0.0
 11
367.5047473236037
 21
299.9261045668458
 31
0.0
 11
367.0991866367248
 21
299.8112652787307
 31
0.0
 11
366.7171804431784
 21
299.6753032378674
 31
0.0
 11
366.3453297704762
 21
299.513397207689
 31
0.0
 11
366.0043634451893
 21
299.3345834790736
 31
0.0
 11
365.6779181221468
 21
299.1302127245942
 31
0.0
 11
365.3876931100719
 21
298.9138553045325
 31
0.0
 11
365.117149696879
 21
298.6730673152215
 31
0.0
 11
364.8858523921604
 21
298.4252211226394
 31
0.0
 11
364.6801592480599
 21
298.1554633228369
 31
0.0
 11
364.5145124998522
 21
297.8827079288789
 31
0.0
 11
364.3806221977941
 21
297.5927868947429
 31
0.0
 11
364.2860660368738
 21
297.3022852377909
 31
0.0
 11
364.2282824110404
 21
297.0021412749345
 31
0.0
 11
364.208899675479
 21
296.7020674399482
 31
0.0
 11
364.2282824110404
 21
296.4019936049621
 31
0.0
 11
364.2860660368738
 21
296.1018496421058
 31
0.0
 11
364.380622197794
 21
295.8113479851538
 31
0.0
 11
364.5145124998521
 21
295.5214269510178
 31
0.0
 11
364.6801592480599
 21
295.2486715570598
 31
0.0
 11
364.8858523921605
 21
294.9789137572573
 31
0.0
 11
365.117149696879
 21
294.7310675646751
 31
0.0
 11
365.3876931100719
 21
294.4902795753641
 31
0.0
 11
365.6779181221467
 21
294.2739221553024
 31
0.0
 11
366.0043634451891
 21
294.0695514008231
 31
0.0
 11
366.345329770476
 21
293.8907376722076
 31
0.0
 11
366.7171804431785
 21
293.7288316420292
 31
0.0
 11
367.0991866367248
 21
293.5928696011658
 31
0.0
 11
367.5047473236037
 21
293.4780303130507
 31
0.0
 11
367.9167301901467
 21
293.3891933934949
 31
0.0
 11
368.3434507035855
 21
293.3245175094728
 31
0.0
 11
368.7732792813429
 21
293.2858043181667
 31
0.0
 11
369.2081217091587
 21
293.272835207136
 31
0.0
 11
369.6429641369743
 21
293.2858043181666
 31
0.0
 11
370.0727927147317
 21
293.3245175094727
 31
0.0
 11
370.4995132281705
 21
293.3891933934949
 31
0.0
 11
370.9114960947136
 21
293.4780303130508
 31
0.0
 11
371.3170567815926
 21
293.5928696011658
 31
0.0
 11
371.6990629751388
 21
293.7288316420291
 31
0.0
 11
372.0709136478412
 21
293.8907376722076
 31
0.0
 11
372.4118799731282
 21
294.0695514008231
 31
0.0
 11
372.7383252961706
 21
294.2739221553024
 31
0.0
 11
373.0285503082454
 21
294.4902795753641
 31
0.0
 11
373.2990937214382
 21
294.7310675646751
 31
0.0
 11
373.5303910261568
 21
294.9789137572572
 31
0.0
 11
373.7360841702572
 21
295.2486715570597
 31
0.0
 11
373.9017309184651
 21
295.5214269510177
 31
0.0
 11
374.0356212205232
 21
295.8113479851538
 31
0.0
 11
374.1301773814437
 21
296.1018496421058
 31
0.0
 11
374.187961007277
 21
296.4019936049621
 31
0.0
 11
374.2073437428384
 21
296.7020674399483
 31
0.0
 11
374.1879610072769
 21
297.0021412749345
 31
0.0
  0
SPLINE
  5
17B
330
53
100
AcDbEntity
  8
1
  6
Continuous
 62
     7
100
AcDbSpline
210
0.0
220
0.0
230
1.0
 70
    11
 71
     3
 72
    79
 73
    75
 74
    73
 42
0.000000001
 43
0.0000000001
 44
0.00000001
 40
0.0
 40
0.0
 40
0.0
 40
0.0
 40
0.2811775335844995
 40
0.5623408853748023
 40
0.8457466557586507
 40
1.12912682329827
 40
1.415908896080609
 40
1.702658532230587
 40
1.993527426214059
 40
2.284362049291527
 40
2.579517793968281
 40
2.874641775544727
 40
3.173769975764019
 40
3.47287211626619
 40
3.775199685813587
 40
4.077508951322189
 40
4.381905218576838
 40
4.686292084806919
 40
4.991400452873857
 40
5.296508820930287
 40
5.600895687128687
 40
5.905291954330314
 40
6.207601219764272
 40
6.509928789214237
 40
6.809030929596552
 40
7.108159129671065
 40
7.403283111078641
 40
7.698438855558416
 40
7.989273478411368
 40
8.280142372135922
 40
8.566892007989331
 40
8.853674080420417
 40
9.137054247521663
 40
9.420460017266883
 40
9.701623367658266
 40
9.982800910067875
 40
10.26319551269449
 40
10.54359011531995
 40
10.82476765772623
 40
11.10593100811239
 40
11.38933677785024
 40
11.6727169449422
 40
11.95949901736209
 40
12.24624865320275
 40
12.53711754691292
 40
12.82795216975008
 40
13.12310791421276
 40
13.41823189560226
 40
13.71736009565738
 40
14.01646223601963
 40
14.31878980544863
 40
14.62109907086109
 40
14.9254953380404
 40
15.22988220421611
 40
15.53499057224925
 40
15.84009894029255
 40
16.14448580649855
 40
16.44888207372878
 40
16.75119133921257
 40
17.05351890873466
 40
17.35262104921102
 40
17.65174924940344
 40
17.94687323095236
 40
18.24202897559957
 40
18.53286359864484
 40
18.8237324925908
 40
19.11048212869369
 40
19.39726420140851
 40
19.68064436883121
 40
19.96405013895111
 40
20.24521348980373
 40
20.52639103287068
 40
20.80678563691641
 40
21.0871802307329
 40
21.0871802307329
 40
21.0871802307329
 40
21.0871802307329
 10
358.2298665545586
 20
300.1272936838455
 30
0.0
 10
358.3229626266605
 20
300.1158425621231
 30
0.0
 10
358.5091500760468
 20
300.0929409015498
 30
0.0
 10
358.78338752745
 20
300.0249036121589
 30
0.0
 10
359.0511141955391
 20
299.9332814836433
 30
0.0
 10
359.3106746841559
 20
299.8156704960938
 30
0.0
 10
359.5594089768407
 20
299.6744521730656
 30
0.0
 10
359.7962230819024
 20
299.5096302024734
 30
0.0
 10
360.0184814462079
 20
299.3235529054374
 30
0.0
 10
360.2253368335657
 20
299.1165280559402
 30
0.0
 10
360.4144506372874
 20
298.8913292583271
 30
0.0
 10
360.5850990216389
 20
298.6484643528896
 30
0.0
 10
360.7354163390811
 20
298.390995721963
 30
0.0
 10
360.8647396746301
 20
298.1197178247687
 30
0.0
 10
360.9717726022515
 20
297.8377646709322
 30
0.0
 10
361.0559197400943
 20
297.5463275176289
 30
0.0
 10
361.1164642489804
 20
297.2483895742327
 30
0.0
 10
361.1529514458965
 20
296.9456239094897
 30
0.0
 10
361.1651785024237
 20
296.6406755723242
 30
0.0
 10
361.1529514462491
 20
296.3357272351494
 30
0.0
 10
361.1164642496849
 20
296.0329615704126
 30
0.0
 10
361.0559197411602
 20
295.7350236269368
 30
0.0
 10
360.9717726036552
 20
295.4435864738365
 30
0.0
 10
360.8647396764786
 20
295.1616333191164
 30
0.0
 10
360.7354163410004
 20
294.8903554250194
 30
0.0
 10
360.5850990250475
 20
294.6328867823984
 30
0.0
 10
360.414450636986
 20
294.3900219197893
 30
0.0
 10
360.2253368488396
 20
294.1648229632368
 30
0.0
 10
360.0184814060439
 20
293.9577986982543
 30
0.0
 10
359.7962232490155
 20
293.7717192360875
 30
0.0
 10
359.5594083828793
 20
293.6069052363473
 30
0.0
 10
359.3106769134358
 20
293.4656573679433
 30
0.0
 10
359.0511060097498
 20
293.348155400495
 30
0.0
 10
358.783418018681
 20
293.2561284531271
 30
0.0
 10
358.5090373080009
 20
293.189590625505
 30
0.0
 10
358.2305462967408
 20
293.1496878418862
 30
0.0
 10
357.9497914605547
 20
293.1361757205468
 30
0.0
 10
357.6690366243683
 20
293.1496878418617
 30
0.0
 10
357.3905456131082
 20
293.1895906254562
 30
0.0
 10
357.1161649024275
 20
293.2561284530541
 30
0.0
 10
356.848476911358
 20
293.3481554003978
 30
0.0
 10
356.5889060076717
 20
293.465657367822
 30
0.0
 10
356.340174538227
 20
293.6069052362022
 30
0.0
 10
356.10335967209
 20
293.7717192359185
 30
0.0
 10
355.8811015150603
 20
293.9577986980617
 30
0.0
 10
355.6742460722633
 20
294.1648229630206
 30
0.0
 10
355.4851322841155
 20
294.3900219195498
 30
0.0
 10
355.3144838960527
 20
294.6328867821358
 30
0.0
 10
355.1641665800984
 20
294.8903554247338
 30
0.0
 10
355.0348432446186
 20
295.1616333188076
 30
0.0
 10
354.9278103174402
 20
295.443586473505
 30
0.0
 10
354.8436631799333
 20
295.7350236265821
 30
0.0
 10
354.7831186714064
 20
296.0329615700348
 30
0.0
 10
354.7466314748398
 20
296.3357272347486
 30
0.0
 10
354.7344044186626
 20
296.6406755718991
 30
0.0
 10
354.7466314751861
 20
296.9456239090453
 30
0.0
 10
354.7831186721003
 20
297.248389573749
 30
0.0
 10
354.8436631809755
 20
297.5463275171785
 30
0.0
 10
354.9278103188361
 20
297.8377646702451
 30
0.0
 10
355.0348432463641
 20
298.1197178248461
 30
0.0
 10
355.1641665822259
 20
298.3909957191005
 30
0.0
 10
355.3144838984652
 20
298.64846436081
 30
0.0
 10
355.4851322871943
 20
298.8913292264055
 30
0.0
 10
355.6742460746317
 20
299.1165281714683
 30
0.0
 10
355.8811015218214
 20
299.3235524782502
 30
0.0
 10
356.1033596644164
 20
299.5096317850648
 30
0.0
 10
356.3401745855637
 20
299.6744463561421
 30
0.0
 10
356.5889058530547
 20
299.8156921061075
 30
0.0
 10
356.8484775039587
 20
299.9332018896543
 30
0.0
 10
357.1161627226094
 20
300.0251998129702
 30
0.0
 10
357.3905537048753
 20
300.0918451455594
 30
0.0
 10
357.6690064824583
 20
300.1313477308953
 30
0.0
 10
357.949903637501
 20
300.1463495094517
 30
0.0
 10
358.1365455832291
 20
300.1336456238441
 30
0.0
 10
358.2298665545586
 20
300.1272936838456
 30
0.0
 11
358.2298665545586
 21
300.1272936838455
 31
0.0
 11
358.5081933082922
 21
300.0873558743816
 31
0.0
 11
358.7814673428412
 21
300.0212186552425
 31
0.0
 11
359.0494720136704
 21
299.9290648335767
 31
0.0
 11
359.3076936516881
 21
299.8123347823019
 31
0.0
 11
359.5570802950385
 21
299.67073584414
 31
0.0
 11
359.7925266728946
 21
299.5070582436159
 31
0.0
 11
360.0155785217188
 21
299.3203697700395
 31
0.0
 11
360.2212465783139
 21
299.1147355597686
 31
0.0
 11
360.4110979830584
 21
298.8887414056421
 31
0.0
 11
360.5808709144299
 21
298.6473385965199
 31
0.0
 11
360.7317325968633
 21
298.3890394812965
 31
0.0
 11
360.8605324637948
 21
298.1190900698784
 31
0.0
 11
360.9678646958084
 21
297.836456470884
 31
0.0
 11
361.0517927173709
 21
297.5460309568236
 31
0.0
 11
361.1124273680665
 21
297.2477349181828
 31
0.0
 11
361.1488857189826
 21
296.9455393639406
 31
0.0
 11
361.1610996046271
 21
296.640675562727
 31
0.0
 11
361.1488857189826
 21
296.3358117615134
 31
0.0
 11
361.1124273680665
 21
296.0336162072713
 31
0.0
 11
361.0517927173708
 21
295.7353201686303
 31
0.0
 11
360.9678646958084
 21
295.4448946545699
 31
0.0
 11
360.8605324637948
 21
295.1622610555755
 31
0.0
 11
360.7317325968633
 21
294.8923116441574
 31
0.0
 11
360.5808709144299
 21
294.634012528934
 31
0.0
 11
360.4110979830584
 21
294.3926097198118
 31
0.0
 11
360.2212465783139
 21
294.1666155656853
 31
0.0
 11
360.0155785217187
 21
293.9609813554144
 31
0.0
 11
359.7925266728946
 21
293.7742928818379
 31
0.0
 11
359.5570802950384
 21
293.6106152813139
 31
0.0
 11
359.3076936516879
 21
293.4690163431518
 31
0.0
 11
359.0494720136703
 21
293.3522862918771
 31
0.0
 11
358.7814673428411
 21
293.2601324702113
 31
0.0
 11
358.5081933082923
 21
293.1939952510723
 31
0.0
 11
358.2298665545586
 21
293.1540574416084
 31
0.0
 11
357.9497914599608
 21
293.1406755627268
 31
0.0
 11
357.6697163653631
 21
293.1540574416084
 31
0.0
 11
357.3913896116294
 21
293.1939952510723
 31
0.0
 11
357.1181155770806
 21
293.2601324702114
 31
0.0
 11
356.8501109062514
 21
293.3522862918772
 31
0.0
 11
356.5918892682338
 21
293.4690163431519
 31
0.0
 11
356.3425026248834
 21
293.610615281314
 31
0.0
 11
356.1070562470272
 21
293.7742928818381
 31
0.0
 11
355.884004398203
 21
293.9609813554145
 31
0.0
 11
355.6783363416079
 21
294.1666155656853
 31
0.0
 11
355.4884849368633
 21
294.3926097198117
 31
0.0
 11
355.3187120054919
 21
294.634012528934
 31
0.0
 11
355.1678503230585
 21
294.8923116441574
 31
0.0
 11
355.039050456127
 21
295.1622610555755
 31
0.0
 11
354.9317182241134
 21
295.4448946545699
 31
0.0
 11
354.8477902025509
 21
295.7353201686303
 31
0.0
 11
354.7871555518553
 21
296.0336162072712
 31
0.0
 11
354.7506972009392
 21
296.3358117615134
 31
0.0
 11
354.7384833152947
 21
296.640675562727
 31
0.0
 11
354.7506972009392
 21
296.9455393639406
 31
0.0
 11
354.7871555518553
 21
297.2477349181827
 31
0.0
 11
354.847790202551
 21
297.5460309568236
 31
0.0
 11
354.9317182241134
 21
297.8364564708841
 31
0.0
 11
355.0390504561271
 21
298.1190900698784
 31
0.0
 11
355.1678503230587
 21
298.3890394812965
 31
0.0
 11
355.3187120054919
 21
298.6473385965199
 31
0.0
 11
355.4884849368634
 21
298.8887414056422
 31
0.0
 11
355.6783363416079
 21
299.1147355597686
 31
0.0
 11
355.8840043982031
 21
299.3203697700394
 31
0.0
 11
356.1070562470272
 21
299.5070582436159
 31
0.0
 11
356.3425026248834
 21
299.67073584414
 31
0.0
 11
356.5918892682338
 21
299.812334782302
 31
0.0
 11
356.8501109062514
 21
299.9290648335767
 31
0.0
 11
357.1181155770806
 21
300.0212186552425
 31
0.0
 11
357.3913896116296
 21
300.0873558743816
 31
0.0
 11
357.6697163653632
 21
300.1272936838455
 31
0.0
 11
357.9497914599609
 21
300.140675562727
 31
0.0
 11
358.2298665545586
 21
300.1272936838456
 31
0.0
  0
SPLINE
  5
17C
330
53
100
AcDbEntity
  8
1
  6
Continuous
 62
     7
100
AcDbSpline
210
0.0
220
0.0
230
1.0
 70
    11
 71
     3
 72
    79
 73
    75
 74
    73
 42
0.000000001
 43
0.0000000001
 44
0.00000001
 40
0.0
 40
0.0
 40
0.0
 40
0.0
 40
0.2811775335844995
 40
0.5623408853748023
 40
0.8457466557586507
 40
1.12912682329827
 40
1.415908896080609
 40
1.702658532230587
 40
1.993527426214059
 40
2.284362049291567
 40
2.579517793968285
 40
2.874641775544763
 40
3.173769975764084
 40
3.472872116266206
 40
3.775199685813624
 40
4.07750895132221
 40
4.381905218576859
 40
4.68629208480694
 40
4.991400452873881
 40
5.296508820930315
 40
5.600895687128715
 40
5.905291954330319
 40
6.207601219764292
 40
6.509928789214257
 40
6.809030929596547
 40
7.10815912967106
 40
7.403283111078603
 40
7.698438855558378
 40
7.989273478411331
 40
8.280142372135971
 40
8.56689200798938
 40
8.853674080420467
 40
9.137054247521661
 40
9.420460017266826
 40
9.701623367658376
 40
9.982800910067873
 40
10.26319551269455
 40
10.54359011532001
 40
10.82476765772622
 40
11.10593100811245
 40
11.3893367778503
 40
11.67271694494231
 40
11.95949901736219
 40
12.2462486532028
 40
12.53711754691298
 40
12.82795216975014
 40
13.1231079142127
 40
13.41823189560226
 40
13.71736009565742
 40
14.01646223601969
 40
14.31878980544871
 40
14.62109907086114
 40
14.92549533804044
 40
15.22988220421615
 40
15.53499057224929
 40
15.84009894029259
 40
16.14448580649858
 40
16.44888207372882
 40
16.7511913392126
 40
17.05351890873468
 40
17.35262104921096
 40
17.65174924940353
 40
17.94687323095241
 40
18.24202897559963
 40
18.5328635986449
 40
18.82373249259085
 40
19.1104821286937
 40
19.39726420140857
 40
19.68064436883127
 40
19.96405013895117
 40
20.24521348980379
 40
20.52639103287074
 40
20.80678563691647
 40
21.08718023073301
 40
21.08718023073301
 40
21.08718023073301
 40
21.08718023073301
 10
380.1863768637587
 20
300.1272936838455
 30
0.0
 10
380.0932807916568
 20
300.1158425621231
 30
0.0
 10
379.9070933422706
 20
300.0929409015498
 30
0.0
 10
379.6328558908673
 20
300.0249036121589
 30
0.0
 10
379.365129222778
 20
299.9332814836433
 30
0.0
 10
379.1055687341615
 20
299.8156704960938
 30
0.0
 10
378.8568344414766
 20
299.6744521730656
 30
0.0
 10
378.620020336415
 20
299.5096302024734
 30
0.0
 10
378.3977619721093
 20
299.3235529054374
 30
0.0
 10
378.1909065847516
 20
299.1165280559403
 30
0.0
 10
378.00179278103
 20
298.891329258327
 30
0.0
 10
377.8311443966785
 20
298.6484643528897
 30
0.0
 10
377.6808270792361
 20
298.3909957219631
 30
0.0
 10
377.5515037436873
 20
298.1197178247686
 30
0.0
 10
377.4444708160657
 20
297.8377646709323
 30
0.0
 10
377.360323678223
 20
297.5463275176288
 30
0.0
 10
377.2997791693368
 20
297.2483895742327
 30
0.0
 10
377.2632919724207
 20
296.9456239094897
 30
0.0
 10
377.2510649158936
 20
296.6406755723241
 30
0.0
 10
377.2632919720683
 20
296.3357272351493
 30
0.0
 10
377.2997791686325
 20
296.0329615704127
 30
0.0
 10
377.3603236771572
 20
295.7350236269367
 30
0.0
 10
377.4444708146621
 20
295.4435864738366
 30
0.0
 10
377.5515037418389
 20
295.1616333191164
 30
0.0
 10
377.6808270773167
 20
294.8903554250194
 30
0.0
 10
377.8311443932698
 20
294.6328867823984
 30
0.0
 10
378.0017927813312
 20
294.3900219197894
 30
0.0
 10
378.1909065694776
 20
294.1648229632368
 30
0.0
 10
378.3977620122733
 20
293.9577986982542
 30
0.0
 10
378.6200201693018
 20
293.7717192360875
 30
0.0
 10
378.856835035438
 20
293.6069052363474
 30
0.0
 10
379.1055665048816
 20
293.4656573679432
 30
0.0
 10
379.3651374085674
 20
293.348155400495
 30
0.0
 10
379.6328253996361
 20
293.2561284531271
 30
0.0
 10
379.9072061103164
 20
293.189590625505
 30
0.0
 10
380.1856971215765
 20
293.1496878418862
 30
0.0
 10
380.4664519577627
 20
293.1361757205467
 30
0.0
 10
380.7472067939489
 20
293.1496878418618
 30
0.0
 10
381.0256978052091
 20
293.1895906254562
 30
0.0
 10
381.3000785158898
 20
293.256128453054
 30
0.0
 10
381.5677665069592
 20
293.3481554003979
 30
0.0
 10
381.8273374106459
 20
293.465657367822
 30
0.0
 10
382.0760688800904
 20
293.6069052362022
 30
0.0
 10
382.3128837462273
 20
293.7717192359185
 30
0.0
 10
382.535141903257
 20
293.9577986980615
 30
0.0
 10
382.7419973460542
 20
294.1648229630207
 30
0.0
 10
382.9311111342016
 20
294.39002191955
 30
0.0
 10
383.1017595222646
 20
294.6328867821358
 30
0.0
 10
383.252076838219
 20
294.8903554247338
 30
0.0
 10
383.3814001736986
 20
295.1616333188076
 30
0.0
 10
383.4884331008773
 20
295.443586473505
 30
0.0
 10
383.5725802383841
 20
295.7350236265821
 30
0.0
 10
383.6331247469108
 20
296.0329615700349
 30
0.0
 10
383.6696119434773
 20
296.3357272347487
 30
0.0
 10
383.6818389996549
 20
296.6406755718991
 30
0.0
 10
383.6696119431312
 20
296.9456239090453
 30
0.0
 10
383.6331247462171
 20
297.248389573749
 30
0.0
 10
383.5725802373417
 20
297.5463275171785
 30
0.0
 10
383.4884330994812
 20
297.8377646702452
 30
0.0
 10
383.3814001719532
 20
298.119717824846
 30
0.0
 10
383.2520768360917
 20
298.3909957191008
 30
0.0
 10
383.101759519852
 20
298.6484643608097
 30
0.0
 10
382.931111131123
 20
298.8913292264056
 30
0.0
 10
382.7419973436856
 20
299.1165281714683
 30
0.0
 10
382.5351418964963
 20
299.3235524782501
 30
0.0
 10
382.3128837539007
 20
299.5096317850649
 30
0.0
 10
382.0760688327538
 20
299.6744463561421
 30
0.0
 10
381.8273375652626
 20
299.8156921061073
 30
0.0
 10
381.5677659143587
 20
299.9332018896544
 30
0.0
 10
381.3000806957081
 20
300.0251998129702
 30
0.0
 10
381.0256897134419
 20
300.0918451455594
 30
0.0
 10
380.7472369358591
 20
300.1313477308953
 30
0.0
 10
380.4663397808163
 20
300.1463495094517
 30
0.0
 10
380.2796978350882
 20
300.1336456238441
 30
0.0
 10
380.1863768637587
 20
300.1272936838456
 30
0.0
 11
380.1863768637587
 21
300.1272936838455
 31
0.0
 11
379.9080501100251
 21
300.0873558743816
 31
0.0
 11
379.6347760754761
 21
300.0212186552425
 31
0.0
 11
379.3667714046469
 21
299.9290648335767
 31
0.0
 11
379.1085497666293
 21
299.8123347823019
 31
0.0
 11
378.8591631232788
 21
299.67073584414
 31
0.0
 11
378.6237167454227
 21
299.5070582436159
 31
0.0
 11
378.4006648965985
 21
299.3203697700395
 31
0.0
 11
378.1949968400033
 21
299.1147355597686
 31
0.0
 11
378.0051454352589
 21
298.8887414056421
 31
0.0
 11
377.8353725038874
 21
298.6473385965199
 31
0.0
 11
377.684510821454
 21
298.3890394812965
 31
0.0
 11
377.5557109545225
 21
298.1190900698784
 31
0.0
 11
377.4483787225089
 21
297.836456470884
 31
0.0
 11
377.3644507009465
 21
297.5460309568236
 31
0.0
 11
377.3038160502508
 21
297.2477349181828
 31
0.0
 11
377.2673576993348
 21
296.9455393639406
 31
0.0
 11
377.2551438136902
 21
296.640675562727
 31
0.0
 11
377.2673576993348
 21
296.3358117615134
 31
0.0
 11
377.3038160502509
 21
296.0336162072713
 31
0.0
 11
377.3644507009465
 21
295.7353201686303
 31
0.0
 11
377.4483787225089
 21
295.4448946545699
 31
0.0
 11
377.5557109545225
 21
295.1622610555755
 31
0.0
 11
377.684510821454
 21
294.8923116441574
 31
0.0
 11
377.8353725038874
 21
294.634012528934
 31
0.0
 11
378.0051454352588
 21
294.3926097198118
 31
0.0
 11
378.1949968400033
 21
294.1666155656853
 31
0.0
 11
378.4006648965985
 21
293.9609813554144
 31
0.0
 11
378.6237167454228
 21
293.7742928818379
 31
0.0
 11
378.8591631232789
 21
293.6106152813139
 31
0.0
 11
379.1085497666294
 21
293.4690163431518
 31
0.0
 11
379.366771404647
 21
293.3522862918771
 31
0.0
 11
379.6347760754761
 21
293.2601324702113
 31
0.0
 11
379.908050110025
 21
293.1939952510723
 31
0.0
 11
380.1863768637587
 21
293.1540574416084
 31
0.0
 11
380.4664519583565
 21
293.1406755627268
 31
0.0
 11
380.7465270529542
 21
293.1540574416084
 31
0.0
 11
381.0248538066878
 21
293.1939952510723
 31
0.0
 11
381.2981278412367
 21
293.2601324702114
 31
0.0
 11
381.5661325120659
 21
293.3522862918772
 31
0.0
 11
381.8243541500835
 21
293.4690163431519
 31
0.0
 11
382.073740793434
 21
293.610615281314
 31
0.0
 11
382.3091871712901
 21
293.7742928818381
 31
0.0
 11
382.5322390201143
 21
293.9609813554145
 31
0.0
 11
382.7379070767095
 21
294.1666155656853
 31
0.0
 11
382.9277584814538
 21
294.3926097198117
 31
0.0
 11
383.0975314128254
 21
294.634012528934
 31
0.0
 11
383.2483930952588
 21
294.8923116441574
 31
0.0
 11
383.3771929621903
 21
295.1622610555755
 31
0.0
 11
383.484525194204
 21
295.4448946545699
 31
0.0
 11
383.5684532157664
 21
295.7353201686303
 31
0.0
 11
383.629087866462
 21
296.0336162072712
 31
0.0
 11
383.6655462173781
 21
296.3358117615134
 31
0.0
 11
383.6777601030226
 21
296.640675562727
 31
0.0
 11
383.6655462173781
 21
296.9455393639406
 31
0.0
 11
383.629087866462
 21
297.2477349181827
 31
0.0
 11
383.5684532157663
 21
297.5460309568236
 31
0.0
 11
383.484525194204
 21
297.8364564708841
 31
0.0
 11
383.3771929621903
 21
298.1190900698784
 31
0.0
 11
383.2483930952588
 21
298.3890394812965
 31
0.0
 11
383.0975314128254
 21
298.6473385965199
 31
0.0
 11
382.927758481454
 21
298.8887414056422
 31
0.0
 11
382.7379070767095
 21
299.1147355597686
 31
0.0
 11
382.5322390201142
 21
299.3203697700394
 31
0.0
 11
382.3091871712901
 21
299.5070582436159
 31
0.0
 11
382.073740793434
 21
299.67073584414
 31
0.0
 11
381.8243541500835
 21
299.812334782302
 31
0.0
 11
381.5661325120659
 21
299.9290648335767
 31
0.0
 11
381.2981278412367
 21
300.0212186552425
 31
0.0
 11
381.0248538066878
 21
300.0873558743816
 31
0.0
 11
380.7465270529541
 21
300.1272936838455
 31
0.0
 11
380.4664519583564
 21
300.140675562727
 31
0.0
 11
380.1863768637587
 21
300.1272936838456
 31
0.0
  0
ENDBLK
  5
55
330
53
100
AcDbEntity
  8
0
100
AcDbBlockEnd
  0
BLOCK
  5
57
330
56
100
AcDbEntity
  8
0
100
AcDbBlockBegin
  2
36-1A-13
 70
     0
 10
545.4108488623657
 20
403.6173217486062
 30
0.0
  3
36-1A-13
  1

  0
LINE
  5
17D
330
56
100
AcDbEntity
  8
1
  6
Continuous
 62
     7
100
AcDbLine
 10
373.9581217091587
 20
310.140675562727
 30
0.0
 11
373.9581217091587
 21
307.140675562727
 31
0.0
  0
LINE
  5
17E
330
56
100
AcDbEntity
  8
1
  6
Continuous
 62
     7
100
AcDbLine
 10
364.4581217091587
 20
307.140675562727
 30
0.0
 11
364.4581217091587
 21
310.140675562727
 31
0.0
  0
LINE
  5
17F
330
56
100
AcDbEntity
  8
1
  6
Continuous
 62
     7
100
AcDbLine
 10
119.941766743864
 20
310.140675562727
 30
0.0
 11
119.941766743864
 21
307.140675562727
 31
0.0
  0
LINE
  5
180
330
56
100
AcDbEntity
  8
1
  6
Continuous
 62
     7
100
AcDbLine
 10
110.441766743864
 20
307.140675562727
 30
0.0
 11
110.441766743864
 21
310.140675562727
 31
0.0
  0
ENDBLK
  5
58
330
56
100
AcDbEntity
  8
0
100
AcDbBlockEnd
  0
BLOCK
  5
5A
330
59
100
AcDbEntity
  8
0
100
AcDbBlockBegin
  2
84-421
 70
     0
 10
1861.02893048704
 20
408.6825432248425
 30
0.0
  3
84-421
  1

  0
LINE
  5
181
330
59
100
AcDbEntity
  8
1
  6
Continuous
 62
     7
100
AcDbLine
 10
111.4199858732318
 20
518.5327464703696
 30
0.0
 11
111.4199858732318
 21
547.8797043612232
 31
0.0
  0
LINE
  5
182
330
59
100
AcDbEntity
  8
1
  6
Continuous
 62
     7
100
AcDbLine
 10
118.963547614496
 20
518.5327464703702
 30
0.0
 11
118.963547614496
 21
514.8797043612225
 31
0.0
  0
LINE
  5
183
330
59
100
AcDbEntity
  8
1
  6
Continuous
 62
     7
100
AcDbLine
 10
118.963547614496
 20
518.5327464703702
 30
0.0
 11
121.191766743864
 21
564.8797043612224
 31
0.0
  0
LINE
  5
184
330
59
100
AcDbEntity
  8
1
  6
Continuous
 62
     7
100
AcDbLine
 10
109.191766743864
 20
564.8797043612224
 30
0.0
 11
111.4199858732318
 21
518.5327464703696
 31
0.0
  0
LINE
  5
185
330
59
100
AcDbEntity
  8
1
  6
Continuous
 62
     7
100
AcDbLine
 10
117.463547614496
 20
547.8797043612232
 30
0.0
 11
115.191766743864
 21
547.8797043612232
 31
0.0
  0
LINE
  5
186
330
59
100
AcDbEntity
  8
1
  6
Continuous
 62
     7
100
AcDbLine
 10
121.191766743864
 20
564.8797043612224
 30
0.0
 11
115.191766743864
 21
564.8797043612224
 31
0.0
  0
LINE
  5
187
330
59
100
AcDbEntity
  8
1
  6
Continuous
 62
     7
100
AcDbLine
 10
118.963547614496
 20
547.8797043612232
 30
0.0
 11
121.191766743864
 21
564.8797043612224
 31
0.0
  0
LINE
  5
188
330
59
100
AcDbEntity
  8
1
  6
Continuous
 62
     7
100
AcDbLine
 10
118.963547614496
 20
547.8797043612232
 30
0.0
 11
118.963547614496
 21
518.5327464703702
 31
0.0
  0
LINE
  5
189
330
59
100
AcDbEntity
  8
1
  6
Continuous
 62
     7
100
AcDbLine
 10
111.4199858732318
 20
514.8797043612225
 30
0.0
 11
111.4199858732318
 21
518.5327464703696
 31
0.0
  0
LINE
  5
18A
330
59
100
AcDbEntity
  8
1
  6
Continuous
 62
     7
100
AcDbLine
 10
109.191766743864
 20
564.8797043612224
 30
0.0
 11
111.4199858732318
 21
547.8797043612232
 31
0.0
  0
LINE
  5
18B
330
59
100
AcDbEntity
  8
1
  6
Continuous
 62
     7
100
AcDbLine
 10
115.191766743864
 20
564.8797043612224
 30
0.0
 11
109.191766743864
 21
564.8797043612224
 31
0.0
  0
LINE
  5
18C
330
59
100
AcDbEntity
  8
1
  6
Continuous
 62
     7
100
AcDbLine
 10
115.191766743864
 20
547.8797043612232
 30
0.0
 11
112.9199858732318
 21
547.8797043612232
 31
0.0
  0
LINE
  5
18D
330
59
100
AcDbEntity
  8
1
  6
PHANTOM
 62
     4
100
AcDbLine
 10
115.191766743864
 20
567.3797043612224
 30
0.0
 11
115.191766743864
 21
511.2545092774711
 31
0.0
  0
LINE
  5
18E
330
59
100
AcDbEntity
  8
1
  6
Continuous
 62
     7
100
AcDbLine
 10
116.963547614496
 20
512.8797043612225
 30
0.0
 11
113.4199858732318
 21
512.8797043612225
 31
0.0
  0
LINE
  5
18F
330
59
100
AcDbEntity
  8
1
  6
Continuous
 62
     2
100
AcDbLine
 10
295.8978281501662
 20
329.247671330379
 30
0.0
 11
295.8978281501662
 21
336.1812928705142
 31
0.0
  0
LINE
  5
190
330
59
100
AcDbEntity
  8
1
  6
Continuous
 62
     2
100
AcDbLine
 10
287.3978281501663
 20
341.1812928705142
 30
0.0
 11
290.8978281501662
 21
341.1812928705142
 31
0.0
  0
LINE
  5
191
330
59
100
AcDbEntity
  8
1
  6
Continuous
 62
     7
100
AcDbLine
 10
326.7390773722825
 20
324.7399354126864
 30
0.0
 11
329.7842013520434
 21
328.3560201386525
 31
0.0
  0
LINE
  5
192
330
59
100
AcDbEntity
  8
1
  6
Continuous
 62
     7
100
AcDbLine
 10
287.3978281501663
 20
344.1812928705142
 30
0.0
 11
312.613011259304
 21
344.1812928705142
 31
0.0
  0
LINE
  5
193
330
59
100
AcDbEntity
  8
1
  6
Continuous
 62
     7
100
AcDbLine
 10
329.7842013520434
 20
328.3560201386525
 30
0.0
 11
331.3978281501662
 21
330.2722019614233
 31
0.0
  0
LINE
  5
194
330
59
100
AcDbEntity
  8
1
  6
Continuous
 62
     7
100
AcDbLine
 10
293.3978281501662
 20
321.1812928705142
 30
0.0
 11
319.0899653911121
 21
321.1812928705142
 31
0.0
  0
LINE
  5
195
330
59
100
AcDbEntity
  8
1
  6
Continuous
 62
     2
100
AcDbLine
 10
284.2841302054484
 20
332.2691470259604
 30
0.0
 11
291.0296093833355
 21
326.9003838236467
 31
0.0
  0
LINE
  5
196
330
59
100
AcDbEntity
  8
1
  6
Continuous
 62
     7
100
AcDbLine
 10
282.4159114386177
 20
329.9218595192281
 30
0.0
 11
293.3978281501662
 21
321.1812928705142
 31
0.0
  0
LINE
  5
197
330
59
100
AcDbEntity
  8
1
  6
Continuous
 62
     7
100
AcDbLine
 10
315.7792002105904
 20
343.0510793665308
 30
0.0
 11
331.3978281501662
 21
330.2722019614233
 31
0.0
  0
LINE
  5
198
330
59
100
AcDbEntity
  8
0
  6
Continuous
 62
     7
100
AcDbLine
 10
119.8279533619139
 20
342.3302352006142
 30
0.0
 11
119.817023934514
 21
342.4201152352143
 31
0.0
  0
LINE
  5
199
330
59
100
AcDbEntity
  8
0
  6
Continuous
 62
     7
100
AcDbLine
 10
110.5665095532139
 20
342.4201152352143
 30
0.0
 11
110.555580125814
 21
342.3302352006142
 31
0.0
  0
LINE
  5
19A
330
59
100
AcDbEntity
  8
0
  6
Continuous
 62
     7
100
AcDbLine
 10
121.056128670214
 20
329.9021494800143
 30
0.0
 11
119.827953941514
 21
342.3302293358142
 31
0.0
  0
LINE
  5
19B
330
59
100
AcDbEntity
  8
0
  6
Continuous
 62
     7
100
AcDbLine
 10
110.555579546214
 20
342.3302293358142
 30
0.0
 11
109.327404817514
 21
329.9021494800143
 31
0.0
  0
LINE
  5
19C
330
59
100
AcDbEntity
  8
0
  6
Continuous
 62
     7
100
AcDbLine
 10
121.1434635952139
 20
325.0707713542142
 30
0.0
 11
121.0598503408139
 21
329.8380924760143
 31
0.0
  0
LINE
  5
19D
330
59
100
AcDbEntity
  8
0
  6
Continuous
 62
     7
100
AcDbLine
 10
109.323683147014
 20
329.8380924760143
 30
0.0
 11
109.240069892514
 21
325.0707713542142
 31
0.0
  0
LINE
  5
19E
330
59
100
AcDbEntity
  8
0
  6
Continuous
 62
     7
100
AcDbLine
 10
109.327930944714
 20
329.8961535714143
 30
0.0
 11
109.323683147014
 21
329.8380924760143
 31
0.0
  0
LINE
  5
19F
330
59
100
AcDbEntity
  8
0
  6
Continuous
 62
     7
100
AcDbLine
 10
116.738537096963
 20
344.1812928705142
 30
0.0
 11
113.6449963907649
 21
344.1812928705142
 31
0.0
  0
LINE
  5
1A0
330
59
100
AcDbEntity
  8
0
  6
Continuous
 62
     7
100
AcDbLine
 10
117.998238525199
 20
321.2900782859813
 30
0.0
 11
117.133596973391
 21
329.9218595192322
 31
0.0
  0
LINE
  5
1A1
330
59
100
AcDbEntity
  8
0
  6
Continuous
 62
     7
100
AcDbLine
 10
113.249936514338
 20
329.9218595192342
 30
0.0
 11
112.3852949625139
 21
321.2900782861143
 31
0.0
  0
LINE
  5
1A2
330
59
100
AcDbEntity
  8
0
  6
Continuous
 62
     7
100
AcDbLine
 10
116.738537096963
 20
344.1812928705142
 30
0.0
 11
117.731395144114
 21
344.1812928705142
 31
0.0
  0
LINE
  5
1A3
330
59
100
AcDbEntity
  8
0
  6
Continuous
 62
     7
100
AcDbLine
 10
112.652138343637
 20
344.1812928705413
 30
0.0
 11
113.6449963907649
 21
344.1812928705142
 31
0.0
  0
LINE
  5
1A4
330
59
100
AcDbEntity
  8
0
  6
Continuous
 62
     7
100
AcDbLine
 10
119.620322743614
 20
321.1812928705142
 30
0.0
 11
117.998238525214
 21
321.1812928705142
 31
0.0
  0
LINE
  5
1A5
330
59
100
AcDbEntity
  8
0
  6
Continuous
 62
     7
100
AcDbLine
 10
112.3852949625139
 20
321.1812928705142
 30
0.0
 11
110.7632107441139
 21
321.1812928705142
 31
0.0
  0
LINE
  5
1A6
330
59
100
AcDbEntity
  8
0
  6
Continuous
 62
     7
100
AcDbLine
 10
120.528805054496
 20
321.1812928705413
 30
0.0
 11
119.620322743614
 21
321.1812928705142
 31
0.0
  0
LINE
  5
1A7
330
59
100
AcDbEntity
  8
0
  6
Continuous
 62
     7
100
AcDbLine
 10
110.7632107441139
 20
321.1812928705142
 30
0.0
 11
109.8547284332452
 21
321.1812928705413
 31
0.0
  0
LINE
  5
1A8
330
59
100
AcDbEntity
  8
0
  6
Continuous
 62
     7
100
AcDbLine
 10
119.8179258086139
 20
342.4136199890143
 30
0.0
 11
119.821927303863
 21
342.3729512641382
 31
0.0
  0
LINE
  5
1A9
330
59
100
AcDbEntity
  8
0
  6
Continuous
 62
     7
100
AcDbLine
 10
121.142513499114
 20
325.0872997556141
 30
0.0
 11
121.1434635952139
 21
325.0707713542142
 31
0.0
  0
LINE
  5
1AA
330
59
100
AcDbEntity
  8
0
  6
Continuous
 62
     7
100
AcDbLine
 10
109.240069892514
 20
325.0707713542142
 30
0.0
 11
109.2410199886139
 21
325.0872997556141
 31
0.0
  0
LINE
  5
1AB
330
59
100
AcDbEntity
  8
0
  6
Continuous
 62
     7
100
AcDbLine
 10
121.058900244614
 20
329.8546208775142
 30
0.0
 11
121.0598503408139
 21
329.8380924760143
 31
0.0
  0
LINE
  5
1AC
330
59
100
AcDbEntity
  8
0
  6
Continuous
 62
     7
100
AcDbLine
 10
109.323683147014
 20
329.8380924760143
 30
0.0
 11
109.3246332431139
 21
329.8546208775142
 31
0.0
  0
LINE
  5
1AD
330
59
100
AcDbEntity
  8
0
  6
Continuous
 62
     5
100
AcDbLine
 10
111.5901829416229
 20
341.1812928705142
 30
0.0
 11
111.6083233573139
 21
341.1570336466143
 31
0.0
  0
LINE
  5
1AE
330
59
100
AcDbEntity
  8
0
  6
Continuous
 62
     8
100
AcDbLine
 10
119.827732117814
 20
342.3324322330143
 30
0.0
 11
119.8307474528139
 21
342.2824787507143
 31
0.0
  0
LINE
  5
1AF
330
59
100
AcDbEntity
  8
0
  6
Continuous
 62
     7
100
AcDbLine
 10
117.998238525214
 20
321.1812928705142
 30
0.0
 11
117.998238525199
 21
321.2900782859813
 31
0.0
  0
LINE
  5
1B0
330
59
100
AcDbEntity
  8
0
  6
Continuous
 62
     7
100
AcDbLine
 10
112.3852949625139
 20
321.1812928705142
 30
0.0
 11
112.3852949625139
 21
321.2900782861143
 31
0.0
  0
LINE
  5
1B1
330
59
100
AcDbEntity
  8
0
  6
Continuous
 62
     7
100
AcDbLine
 10
117.998238525214
 20
321.1812928705142
 30
0.0
 11
112.3852949625139
 21
321.1812928705142
 31
0.0
  0
ARC
  5
1B2
330
59
100
AcDbEntity
  8
1
  6
Continuous
 62
     7
100
AcDbCircle
 10
287.3978281501663
 20
336.1812928705142
 30
0.0
 40
8.0
100
AcDbArc
 50
90.0
 51
180.0
  0
ARC
  5
1B3
330
59
100
AcDbEntity
  8
1
  6
Continuous
 62
     2
100
AcDbCircle
 10
287.3978281501663
 20
336.1812928705142
 30
0.0
 40
5.0
100
AcDbArc
 50
90.0
 51
141.4835290603988
  0
ARC
  5
1B4
330
59
100
AcDbEntity
  8
1
  6
Continuous
 62
     7
100
AcDbCircle
 10
287.3978281501663
 20
336.1812928705142
 30
0.0
 40
8.0
100
AcDbArc
 50
180.0
 51
231.4835290603973
  0
ARC
  5
1B5
330
59
100
AcDbEntity
  8
1
  6
Continuous
 62
     2
100
AcDbCircle
 10
287.3978281501663
 20
336.1812928705142
 30
0.0
 40
5.000000000000004
100
AcDbArc
 50
141.4835290603988
 51
231.4835290603969
  0
SPLINE
  5
1B6
330
59
100
AcDbEntity
  8
0
  6
Continuous
 62
     7
100
AcDbSpline
210
0.0
220
0.0
230
1.0
 70
     8
 71
     3
 72
    25
 73
    21
 74
    19
 42
0.000000001
 43
0.0000000001
 44
0.00000001
 40
0.0
 40
0.0
 40
0.0
 40
0.0
 40
0.015734489724968
 40
0.0314424969206954
 40
0.1565754175886637
 40
0.2804018703366736
 40
0.4034215995027707
 40
0.5249200226914182
 40
0.6468363368161623
 40
0.7672605318923124
 40
0.8891495779113676
 40
1.009284473938903
 40
1.131926781374206
 40
1.252829591202602
 40
1.378274894081849
 40
1.502734663909577
 40
1.637044956821915
 40
1.77035236835234
 40
1.898865206376179
 40
2.02694169821619
 40
2.02694169821619
 40
2.02694169821619
 40
2.02694169821619
 10
119.819988393666
 20
342.4137397610782
 30
0.0
 10
119.8195734197899
 20
342.4189681614158
 30
0.0
 10
119.8187441563694
 20
342.4294161610953
 30
0.0
 10
119.8141167483405
 20
342.4814037948623
 30
0.0
 10
119.7985833726303
 20
342.5685567430912
 30
0.0
 10
119.7647554466413
 20
342.6879017513772
 30
0.0
 10
119.7267054224594
 20
342.8046724847064
 30
0.0
 10
119.6827010671159
 20
342.9187041969424
 30
0.0
 10
119.6313046711594
 20
343.0286600043575
 30
0.0
 10
119.5729983737393
 20
343.1352333146306
 30
0.0
 10
119.5089091672142
 20
343.2377303915291
 30
0.0
 10
119.4385489932968
 20
343.3369349987258
 30
0.0
 10
119.3627206608001
 20
343.4316083621054
 30
0.0
 10
119.2803596550603
 20
343.523047335461
 30
0.0
 10
119.1924206506442
 20
343.6100077954267
 30
0.0
 10
119.0962815038551
 20
343.6947193132936
 30
0.0
 10
118.9934226665241
 20
343.7754763550492
 30
0.0
 10
118.8840699382294
 20
343.8497412676732
 30
0.0
 10
118.7709655506836
 20
343.9139438475399
 30
0.0
 10
118.6949441994129
 20
343.9531361951916
 30
0.0
 10
118.656998159955
 20
343.9726990381053
 30
0.0
 11
119.819988393666
 21
342.4137397610782
 31
0.0
 11
119.8187184295035
 21
342.429422918175
 31
0.0
 11
119.8172996417639
 21
342.4450667211934
 31
0.0
 11
119.7964783153296
 21
342.5684552149066
 31
0.0
 11
119.7639143444967
 21
342.687923110424
 31
0.0
 11
119.7255092183062
 21
342.804794408109
 31
0.0
 11
119.681467177827
 21
342.9180294105798
 31
0.0
 11
119.6299396003411
 21
343.028521476498
 31
0.0
 11
119.5722308877345
 21
343.1342176987994
 31
0.0
 11
119.50760938287
 21
343.2375666261161
 31
0.0
 11
119.4381078479963
 21
343.3355560641294
 31
0.0
 11
119.3614498919127
 21
343.4312884689259
 31
0.0
 11
119.2805458878053
 21
343.521132953661
 31
0.0
 11
119.19136410406
 21
343.6093550214729
 31
0.0
 11
119.0980207391399
 21
343.6916790776727
 31
0.0
 11
118.992235481915
 21
343.7744361542189
 31
0.0
 11
118.8817937178787
 21
343.8490919137185
 31
0.0
 11
118.7704406608752
 21
343.9132483330253
 31
0.0
 11
118.656998159955
 21
343.9726990381053
 31
0.0
  0
SPLINE
  5
1B7
330
59
100
AcDbEntity
  8
0
  6
Continuous
 62
     7
100
AcDbSpline
210
0.0
220
0.0
230
1.0
 70
     8
 71
     3
 72
    13
 73
     9
 74
     7
 42
0.000000001
 43
0.0000000001
 44
0.00000001
 40
0.0
 40
0.0
 40
0.0
 40
0.0
 40
0.1062412357366466
 40
0.2146496786267315
 40
0.3749294373826952
 40
0.5474241988954616
 40
0.5661437421104801
 40
0.5849483712774384
 40
0.5849483712774384
 40
0.5849483712774384
 40
0.5849483712774384
 10
121.150506219683
 20
322.9217792908572
 30
0.0
 10
121.1511314086615
 20
322.957187519926
 30
0.0
 10
121.1523945249323
 20
323.0287262681784
 30
0.0
 10
121.1543590188079
 20
323.153687452847
 30
0.0
 10
121.1560194455151
 20
323.3007399067428
 30
0.0
 10
121.1565643581165
 20
323.4179044801857
 30
0.0
 10
121.1566140399963
 20
323.4879107683534
 30
0.0
 10
121.1566182760368
 20
323.5004188254376
 30
0.0
 10
121.1566203916759
 20
323.5066870349742
 30
0.0
 11
121.150506219683
 21
322.9217792908572
 31
0.0
 11
121.1523478696885
 21
323.0280045632008
 31
0.0
 11
121.1540226793838
 21
323.1364000682119
 31
0.0
 11
121.1558026203313
 21
323.2966699433945
 31
0.0
 11
121.1565983375061
 21
323.4691628696862
 31
0.0
 11
121.1566128749632
 21
323.4878824072667
 31
0.0
 11
121.1566203916759
 21
323.5066870349742
 31
0.0
  0
SPLINE
  5
1B8
330
59
100
AcDbEntity
  8
0
  6
Continuous
 62
     7
100
AcDbSpline
210
0.0
220
0.0
230
1.0
 70
     8
 71
     3
 72
    37
 73
    33
 74
    31
 42
0.000000001
 43
0.0000000001
 44
0.00000001
 40
0.0
 40
0.0
 40
0.0
 40
0.0
 40
0.0648293839693359
 40
0.1287752187886366
 40
0.1912675306490094
 40
0.2522496711768149
 40
0.3078879967591041
 40
0.3603597195120076
 40
0.4090804208474252
 40
0.4538276591094201
 40
0.496326088997523
 40
0.5343869167938544
 40
0.5725107972217474
 40
0.606329158748749
 40
0.6429788936166241
 40
0.6757918736854076
 40
0.7152534499209314
 40
0.7517976813861548
 40
0.8032170485327826
 40
0.8538697841022871
 40
0.9374775260909397
 40
1.027145470092853
 40
1.11341585531865
 40
1.206861531059909
 40
1.314447049912398
 40
1.431213193927097
 40
1.551615115064876
 40
1.679594784497256
 40
1.812053870413432
 40
1.955531075015239
 40
2.000080243248352
 40
2.045315708210663
 40
2.045315708210663
 40
2.045315708210663
 40
2.045315708210663
 10
120.528805054496
 20
321.1812928705413
 30
0.0
 10
120.5503550857157
 20
321.1828789443551
 30
0.0
 10
120.5931614452915
 20
321.1860294868875
 30
0.0
 10
120.6563734197406
 20
321.1956210499052
 30
0.0
 10
120.7161050487242
 20
321.2147636544147
 30
0.0
 10
120.7702592250337
 20
321.2401972841692
 30
0.0
 10
120.8185605644903
 20
321.2694264582908
 30
0.0
 10
120.8604626985004
 20
321.3008307108103
 30
0.0
 10
120.8963750487031
 20
321.3337533251098
 30
0.0
 10
120.9269956723158
 20
321.3672341990845
 30
0.0
 10
120.9527062090262
 20
321.4002061629761
 30
0.0
 10
120.9746930730153
 20
321.4331286653108
 30
0.0
 10
120.9930838048775
 20
321.4648818098394
 30
0.0
 10
121.0092530151168
 20
321.4972860671699
 30
0.0
 10
121.0230018216445
 20
321.5288683477903
 30
0.0
 10
121.0357221156692
 20
321.5628878359558
 30
0.0
 10
121.0469073847367
 20
321.5974085083562
 30
0.0
 10
121.0581517664533
 20
321.638378345277
 30
0.0
 10
121.0686109744354
 20
321.6834002667811
 30
0.0
 10
121.0801959368521
 20
321.744210550879
 30
0.0
 10
121.0915342400026
 20
321.8180070866146
 30
0.0
 10
121.1017875066335
 20
321.9039234930096
 30
0.0
 10
121.1104995953125
 20
321.9932989871687
 30
0.0
 10
121.1182128495362
 20
322.0887586706577
 30
0.0
 10
121.1252876907829
 20
322.1944575827615
 30
0.0
 10
121.1315605945164
 20
322.3092066175684
 30
0.0
 10
121.1369707002341
 20
322.4308037211965
 30
0.0
 10
121.1417064164567
 20
322.5576629032536
 30
0.0
 10
121.1460171848552
 20
322.6922334380645
 30
0.0
 10
121.148503163927
 20
322.7990349833347
 30
0.0
 10
121.1498114478476
 20
322.8767779504533
 30
0.0
 10
121.1502734506714
 20
322.906702597963
 30
0.0
 10
121.150506219683
 20
322.9217792908572
 30
0.0
 11
120.528805054496
 21
321.1812928705413
 31
0.0
 11
120.593392437927
 21
321.1868892799501
 31
0.0
 11
120.6564726493783
 21
321.1973753149464
 31
0.0
 11
120.7160690002177
 21
321.2161786189461
 31
0.0
 11
120.771342518012
 21
321.2419402151756
 31
0.0
 11
120.818936238166
 21
321.2707579380091
 31
0.0
 11
120.8608907051964
 21
321.3022714975208
 31
0.0
 11
120.8968228372936
 21
321.3351742125785
 31
0.0
 11
120.927042523087
 21
321.3681755148444
 31
0.0
 11
120.9531700314148
 21
321.401693717004
 31
0.0
 11
120.9743377472014
 21
321.4333252588594
 31
0.0
 11
120.9934342173077
 21
321.4663215481534
 31
0.0
 11
121.0085753531279
 21
321.4965610520698
 31
0.0
 11
121.0231966258116
 21
321.5301679184449
 31
0.0
 11
121.0347372340955
 21
321.5608844617763
 31
0.0
 11
121.0469092582882
 21
321.5984218810144
 31
0.0
 11
121.0566449847096
 21
321.63364540295
 31
0.0
 11
121.0683304761048
 21
321.6837193545612
 31
0.0
 11
121.0779151028972
 21
321.7334570119795
 31
0.0
 11
121.0907784286004
 21
321.8160692955506
 31
0.0
 11
121.1015943416064
 21
321.9050825317364
 31
0.0
 11
121.1100400372457
 21
321.990938513409
 31
0.0
 11
121.1176340716546
 21
322.0840751063525
 31
0.0
 11
121.1248734977012
 21
322.1914167783994
 31
0.0
 11
121.1313001799875
 21
322.3080059293429
 31
0.0
 11
121.1367194411379
 21
322.4282858287239
 31
0.0
 11
121.141539872943
 21
322.5561746835834
 31
0.0
 11
121.1457142084832
 21
322.6885679777767
 31
0.0
 11
121.1490353389831
 21
322.8320067394296
 31
0.0
 11
121.1497973625279
 21
322.8765493899248
 31
0.0
 11
121.150506219683
 21
322.9217792908572
 31
0.0
  0
SPLINE
  5
1B9
330
59
100
AcDbEntity
  8
0
  6
Continuous
 62
     7
100
AcDbSpline
210
0.0
220
0.0
230
1.0
 70
     8
 71
     3
 72
    35
 73
    31
 74
    29
 42
0.000000001
 43
0.0000000001
 44
0.00000001
 40
0.0
 40
0.0
 40
0.0
 40
0.0
 40
0.0249953781326616
 40
0.04972716968926
 40
0.1841178276552794
 40
0.3070211790995582
 40
0.4242925447223864
 40
0.5346063421177504
 40
0.6381416156823706
 40
0.7336257777104132
 40
0.8242309853134687
 40
0.9078125185189256
 40
0.9907646610552655
 40
1.070391680464499
 40
1.120914781540122
 40
1.17523755264601
 40
1.212764414150986
 40
1.255144878785725
 40
1.290627572182579
 40
1.330910227321837
 40
1.371597971629201
 40
1.417389695808344
 40
1.465401601257928
 40
1.517850099900603
 40
1.573541375670384
 40
1.632509059506822
 40
1.694167537456832
 40
1.75716834274382
 40
1.812455112571223
 40
1.868289358658679
 40
1.868289358658679
 40
1.868289358658679
 40
1.868289358658679
 10
109.2367403115736
 20
322.7447427902623
 30
0.0
 10
109.2369123550406
 20
322.7364127730684
 30
0.0
 10
109.2372546256976
 20
322.7198405821076
 30
0.0
 10
109.2385842309278
 20
322.6584823851478
 30
0.0
 10
109.2412854839956
 20
322.5645099804023
 30
0.0
 10
109.246183644465
 20
322.4397499013122
 30
0.0
 10
109.2514061317775
 20
322.3230365729218
 30
0.0
 10
109.2571951776839
 20
322.2128133105747
 30
0.0
 10
109.2637799053699
 20
322.1099098653783
 30
0.0
 10
109.2712529045913
 20
322.0136548217192
 30
0.0
 10
109.2796300915953
 20
321.9241505332706
 30
0.0
 10
109.2893672534047
 20
321.8389860333338
 30
0.0
 10
109.3008641930775
 20
321.7577253518103
 30
0.0
 10
109.3138559583084
 20
321.6878599217059
 30
0.0
 10
109.3278004635262
 20
321.6279508656585
 30
0.0
 10
109.3411732732783
 20
321.5823840820067
 30
0.0
 10
109.3559673545268
 20
321.5401398775117
 30
0.0
 10
109.3708420152304
 20
321.5046398503889
 30
0.0
 10
109.3880878519801
 20
321.4692133264805
 30
0.0
 10
109.4073355264488
 20
321.4354674837957
 30
0.0
 10
109.4307093491846
 20
321.4002258977337
 30
0.0
 10
109.458401862295
 20
321.3649031195897
 30
0.0
 10
109.4916534959933
 20
321.3291691311293
 30
0.0
 10
109.5306170119181
 20
321.2945195479967
 30
0.0
 10
109.5760042584417
 20
321.2620475960204
 30
0.0
 10
109.6272280376459
 20
321.2330051873838
 30
0.0
 10
109.6835899387935
 20
321.2087957031134
 30
0.0
 10
109.7415246284538
 20
321.1923663988516
 30
0.0
 10
109.7991912121701
 20
321.1848318129945
 30
0.0
 10
109.8361553204257
 20
321.1824763824682
 30
0.0
 10
109.8547284332452
 20
321.1812928705413
 30
0.0
 11
109.2367403115736
 21
322.7447427902623
 31
0.0
 11
109.2372606943402
 21
322.7197528395799
 31
0.0
 11
109.2378013903443
 21
322.695026959149
 31
0.0
 11
109.2416411169872
 21
322.5606911654542
 31
0.0
 11
109.2463719909652
 21
322.4378788997327
 31
0.0
 11
109.251665867153
 21
322.3207270834956
 31
0.0
 11
109.2575301353029
 21
322.2105692683472
 31
0.0
 11
109.2641945017985
 21
322.1072487036828
 31
0.0
 11
109.2716366033413
 21
322.0120550047167
 31
0.0
 11
109.2801688897675
 21
321.92185243411
 31
0.0
 11
109.2897618135163
 21
321.8388232312332
 31
0.0
 11
109.3016230306054
 21
321.7567234777433
 31
0.0
 11
109.3163428066579
 21
321.6784688262958
 31
0.0
 11
109.3279596721525
 21
321.6292994027689
 31
0.0
 11
109.3432741209537
 21
321.5771800094566
 31
0.0
 11
109.3557618573009
 21
321.5417918504714
 31
0.0
 11
109.3721247851896
 21
321.5026976258263
 31
0.0
 11
109.3877081021886
 21
321.4708200195606
 31
0.0
 11
109.4076515105131
 21
321.4358206939413
 31
0.0
 11
109.4301800630756
 21
321.4019391815628
 31
0.0
 11
109.4584242603651
 21
321.3658954948218
 31
0.0
 11
109.4911533888367
 21
321.3307679095153
 31
0.0
 11
109.5303695627579
 21
321.2959406679236
 31
0.0
 11
109.575626010469
 21
321.2634849720846
 31
0.0
 11
109.6269195289288
 21
321.2343960947565
 31
0.0
 11
109.6836359556418
 21
321.2102090115316
 31
0.0
 11
109.7443178886374
 21
321.1932737016261
 31
0.0
 11
109.7990501057434
 21
321.1854627157392
 31
0.0
 11
109.8547284332452
 21
321.1812928705413
 31
0.0
  0
SPLINE
  5
1BA
330
59
100
AcDbEntity
  8
0
  6
Continuous
 62
     7
100
AcDbSpline
210
0.0
220
0.0
230
1.0
 70
     8
 71
     3
 72
    33
 73
    29
 74
    27
 42
0.000000001
 43
0.0000000001
 44
0.00000001
 40
0.0
 40
0.0
 40
0.0
 40
0.0
 40
1.042851081719301
 40
2.0857040028596
 40
2.710651040479138
 40
3.335597528920534
 40
4.004919176667983
 40
4.674240141995894
 40
5.367618272725228
 40
6.061000221760358
 40
6.757397341670369
 40
7.453779836379602
 40
8.132012414140757
 40
8.81029751055626
 40
9.44992718752148
 40
10.08937723224109
 40
10.67049909558584
 40
11.25220229374403
 40
11.75873909228069
 40
12.26351342290031
 40
12.67564232507034
 40
13.09266928399061
 40
13.40973100654944
 40
13.71485624927713
 40
13.90180216438184
 40
14.11163946510656
 40
14.20870744070614
 40
14.28443870223512
 40
14.28443870223512
 40
14.28443870223512
 40
14.28443870223512
 10
113.249936514338
 20
329.9218595192342
 30
0.0
 10
113.2744940493652
 20
330.268611171496
 30
0.0
 10
113.3236091764239
 20
330.9621150866925
 30
0.0
 10
113.3761565927889
 20
331.8641543385014
 30
0.0
 10
113.4176827565064
 20
332.627272978683
 30
0.0
 10
113.4502949484661
 20
333.2661811906301
 30
0.0
 10
113.4817708615593
 20
333.9199543596866
 30
0.0
 10
113.5124298878815
 20
334.5966012508197
 30
0.0
 10
113.5416485982099
 20
335.2813392600676
 30
0.0
 10
113.5694439940708
 20
335.9751692219839
 30
0.0
 10
113.595520427526
 20
336.6700680717643
 30
0.0
 10
113.6196084527426
 20
337.359985898074
 30
0.0
 10
113.6416777397599
 20
338.0439307813319
 30
0.0
 10
113.6613638934206
 20
338.7090227305893
 30
0.0
 10
113.6789433601687
 20
339.3612416383455
 30
0.0
 10
113.6935980195539
 20
339.9811371930338
 30
0.0
 10
113.7054661136366
 20
340.5817795300911
 30
0.0
 10
113.714863834346
 20
341.1381545031688
 30
0.0
 10
113.7228287452089
 20
341.6691001594003
 30
0.0
 10
113.7261790180861
 20
342.1435800184796
 30
0.0
 10
113.723504232191
 20
342.5882254458522
 30
0.0
 10
113.7224073662745
 20
342.9702764656714
 30
0.0
 10
113.7270704551904
 20
343.3167458350234
 30
0.0
 10
113.717423106113
 20
343.5862600911698
 30
0.0
 10
113.6881762982764
 20
343.8195080718429
 30
0.0
 10
113.6752603730321
 20
343.9805880441171
 30
0.0
 10
113.7016066706527
 20
344.1154704686606
 30
0.0
 10
113.6622464544711
 20
344.1612357177804
 30
0.0
 10
113.6449963907649
 20
344.1812928705142
 30
0.0
 11
113.249936514338
 21
329.9218595192342
 31
0.0
 11
113.3214384667936
 21
330.9622564828418
 31
0.0
 11
113.383427446506
 21
332.0032654077388
 31
0.0
 11
113.4173329390814
 21
332.6272920236892
 31
0.0
 11
113.4492503985584
 21
333.2514229307889
 31
0.0
 11
113.4814556669725
 21
333.9199693306939
 31
0.0
 11
113.5117785646338
 21
334.588603069372
 31
0.0
 11
113.5413476240945
 21
335.2813504280015
 31
0.0
 11
113.5691120580478
 21
335.9741762816226
 31
0.0
 11
113.5952181247199
 21
336.670083906162
 31
0.0
 11
113.6195088296151
 21
337.3660426266209
 31
0.0
 11
113.6413759664263
 21
338.0439225996646
 31
0.0
 11
113.661437598933
 21
338.7219109497924
 31
0.0
 11
113.6785920961108
 21
339.3613105485331
 31
0.0
 11
113.6936243815625
 21
340.0005838782392
 31
0.0
 11
113.7051847740242
 21
340.5815907434069
 31
0.0
 11
113.7150911984019
 21
341.1632095820709
 31
0.0
 11
113.722166167339
 21
341.6696969689536
 31
0.0
 11
113.7251857910833
 21
342.1744622675938
 31
0.0
 11
113.7237287748146
 21
342.5865885942228
 31
0.0
 11
113.7236014405164
 21
343.0036155336762
 31
0.0
 11
113.7244725732357
 21
343.3206760594559
 31
0.0
 11
113.7103862863913
 21
343.6254759779007
 31
0.0
 11
113.6904966009188
 21
343.8113608230004
 31
0.0
 11
113.6859418644798
 21
344.0211486853449
 31
0.0
 11
113.6869012493667
 21
344.1182119197279
 31
0.0
 11
113.6449963907649
 21
344.1812928705142
 31
0.0
  0
SPLINE
  5
1BB
330
59
100
AcDbEntity
  8
0
  6
Continuous
 62
     7
100
AcDbSpline
210
0.0
220
0.0
230
1.0
 70
     8
 71
     3
 72
    33
 73
    29
 74
    27
 42
0.000000001
 43
0.0000000001
 44
0.00000001
 40
0.0
 40
0.0
 40
0.0
 40
0.0
 40
0.2431818660893253
 40
0.4885783857859253
 40
0.7839279521859778
 40
1.07810605024233
 40
1.477777729481222
 40
1.877979063432875
 40
2.371125908557175
 40
2.864070820342125
 40
3.435273858897519
 40
4.006546185358853
 40
4.638663131868634
 40
5.270758090677591
 40
5.944548526641741
 40
6.618345587721535
 40
7.31337585802439
 40
8.008404261860516
 40
8.703569739442607
 40
9.398735692174833
 40
10.07293441204078
 40
10.74713307711876
 40
11.37990047029451
 40
12.01266753204651
 40
12.58480174726008
 40
13.15693689165456
 40
13.71680995932839
 40
14.27667944970468
 40
14.27667944970468
 40
14.27667944970468
 40
14.27667944970468
 10
116.738537096963
 20
344.1812928705142
 30
0.0
 10
116.7168455078376
 20
344.1027270363712
 30
0.0
 10
116.6732647703491
 20
343.9448798734256
 30
0.0
 10
116.6783803364846
 20
343.6817099440867
 30
0.0
 10
116.6690146341126
 20
343.4040766509856
 30
0.0
 10
116.6592955912099
 20
343.0743213478486
 30
0.0
 10
116.6558400639489
 20
342.7096820566475
 30
0.0
 10
116.6578890855086
 20
342.2786617439254
 30
0.0
 10
116.6608616613707
 20
341.8165791470788
 30
0.0
 10
116.6660659062834
 20
341.2975033869277
 30
0.0
 10
116.6744717808776
 20
340.7524259686691
 30
0.0
 10
116.686156297188
 20
340.1610094109418
 30
0.0
 10
116.7000827888726
 20
339.5493389692812
 30
0.0
 10
116.7167346965488
 20
338.9035518898783
 30
0.0
 10
116.7356981077281
 20
338.2439293111281
 30
0.0
 10
116.7571724017206
 20
337.563394657105
 30
0.0
 10
116.7806520233035
 20
336.8758427631484
 30
0.0
 10
116.8061738286137
 20
336.1812359989377
 30
0.0
 10
116.8334672578512
 20
335.4866513264827
 30
0.0
 10
116.8622770991584
 20
334.7990771326913
 30
0.0
 10
116.8925739208088
 20
334.1185626346781
 30
0.0
 10
116.9237683645192
 20
333.458910658721
 30
0.0
 10
116.9561545273553
 20
332.8131435925731
 30
0.0
 10
116.9887676655598
 20
332.2014551481639
 30
0.0
 10
117.0222640896066
 20
331.610055989914
 30
0.0
 10
117.0566452113717
 20
331.0430493373269
 30
0.0
 10
117.0929538808188
 20
330.4802552353229
 30
0.0
 10
117.1200493094919
 20
330.1079910285061
 30
0.0
 10
117.133596973391
 20
329.9218595192322
 30
0.0
 11
116.738537096963
 21
344.1812928705142
 31
0.0
 11
116.6850488129274
 21
343.9440663478616
 31
0.0
 11
116.6760784515903
 21
343.6988338368027
 31
0.0
 11
116.6692075145188
 21
343.4035642031097
 31
0.0
 11
116.661163598906
 21
343.1094961007914
 31
0.0
 11
116.656788970243
 21
342.7098483636588
 31
0.0
 11
116.6578421297047
 21
342.3096484154688
 31
0.0
 11
116.661157457976
 21
341.8165127146378
 31
0.0
 11
116.6662149651473
 21
341.3235937480098
 31
0.0
 11
116.674883947313
 21
340.7524564965669
 31
0.0
 11
116.6860277008659
 21
340.181292870518
 31
0.0
 11
116.7004005905405
 21
339.5493393484214
 31
0.0
 11
116.7166783369115
 21
338.9174540171235
 31
0.0
 11
116.7360127489753
 21
338.2439410387108
 31
0.0
 11
116.7572355692172
 21
337.5704782918535
 31
0.0
 11
116.78095188307
 21
336.875852771823
 31
0.0
 11
116.8064670868022
 21
336.1812928705182
 31
0.0
 11
116.8337684617761
 21
335.4866637060504
 31
0.0
 11
116.862877014918
 21
334.7921074491827
 31
0.0
 11
116.8928840697063
 21
334.1185768333124
 31
0.0
 11
116.9247513664432
 21
333.4451317239129
 31
0.0
 11
116.9564870059857
 21
332.8131606620481
 31
0.0
 11
116.9902101205169
 21
332.1812928705181
 31
0.0
 11
117.022643243451
 21
331.6100786788581
 31
0.0
 11
117.0572643460194
 21
331.0389919930254
 31
0.0
 11
117.0937202496042
 21
330.4803070915061
 31
0.0
 11
117.133596973391
 21
329.9218595192322
 31
0.0
  0
SPLINE
  5
1BC
330
59
100
AcDbEntity
  8
0
  6
Continuous
 62
     7
100
AcDbSpline
210
0.0
220
0.0
230
1.0
 70
     8
 71
     3
 72
     9
 73
     5
 74
     3
 42
0.000000001
 43
0.0000000001
 44
0.00000001
 40
0.0
 40
0.0
 40
0.0
 40
0.0
 40
0.7770530959472092
 40
1.554091641272044
 40
1.554091641272044
 40
1.554091641272044
 40
1.554091641272044
 10
121.1557087763229
 20
323.5332822456043
 30
0.0
 10
121.1553852037222
 20
323.7923035153706
 30
0.0
 10
121.1547380445805
 20
324.3103412045074
 30
0.0
 10
121.1465883288342
 20
324.8283151885439
 30
0.0
 10
121.142513499114
 20
325.0872997556141
 30
0.0
 11
121.1557087763229
 21
323.5332822456043
 31
0.0
 11
121.1528623742472
 21
324.3103301282933
 31
0.0
 11
121.142513499114
 21
325.0872997556141
 31
0.0
  0
SPLINE
  5
1BD
330
59
100
AcDbEntity
  8
0
  6
Continuous
 62
     7
100
AcDbSpline
210
0.0
220
0.0
230
1.0
 70
     8
 71
     3
 72
     9
 73
     5
 74
     3
 42
0.000000001
 43
0.0000000001
 44
0.00000001
 40
0.0
 40
0.0
 40
0.0
 40
0.0
 40
1.146006869208612
 40
2.291997614174419
 40
2.291997614174419
 40
2.291997614174419
 40
2.291997614174419
 10
109.2410199887907
 20
325.0872997556712
 30
0.0
 10
109.2348673762068
 20
324.7053250644816
 30
0.0
 10
109.2225622576037
 20
323.9413810563314
 30
0.0
 10
109.232233525617
 20
323.1773991658555
 30
0.0
 10
109.237069135604
 20
322.7954109079612
 30
0.0
 11
109.2410199887907
 21
325.0872997556712
 31
0.0
 11
109.2280563349935
 21
323.9413662112746
 31
0.0
 11
109.237069135604
 21
322.7954109079612
 31
0.0
  0
SPLINE
  5
1BE
330
59
100
AcDbEntity
  8
0
  6
Continuous
 62
     7
100
AcDbSpline
210
0.0
220
0.0
230
1.0
 70
    24
 71
     3
 72
     9
 73
     5
 74
     3
 42
0.000000001
 43
0.0000000001
 44
0.00000001
 40
0.0
 40
0.0
 40
0.0
 40
0.0
 40
0.0454507170101987
 40
0.0909014340522297
 40
0.0909014340522297
 40
0.0909014340522297
 40
0.0909014340522297
 10
119.8307474528139
 20
342.2824787507143
 30
0.0
 10
119.8292774279761
 20
342.297557502945
 30
0.0
 10
119.8263373783126
 20
342.3277150074184
 30
0.0
 10
119.8233973286755
 20
342.3578725118942
 30
0.0
 10
119.821927303863
 20
342.3729512641382
 30
0.0
 11
119.8307474528139
 21
342.2824787507143
 31
0.0
 11
119.8263373783137
 21
342.3277150074079
 31
0.0
 11
119.821927303863
 21
342.3729512641382
 31
0.0
  0
SPLINE
  5
1BF
330
59
100
AcDbEntity
  8
0
  6
Continuous
 62
     7
100
AcDbSpline
210
0.0
220
0.0
230
1.0
 70
     8
 71
     3
 72
    26
 73
    22
 74
    20
 42
0.000000001
 43
0.0000000001
 44
0.00000001
 40
0.0
 40
0.0
 40
0.0
 40
0.0
 40
0.0046688771423484
 40
0.0093377527064938
 40
0.0211451866637092
 40
0.0329527803963423
 40
0.0438807831804311
 40
0.0548089983086004
 40
0.0729955030151179
 40
0.0911829481014453
 40
0.1214862815807018
 40
0.1517953194961161
 40
0.2024699890444442
 40
0.253160163217081
 40
0.3387093658702606
 40
0.4244105659639014
 40
0.523750081981169
 40
0.6232525270421707
 40
0.7229309866854813
 40
0.851084224523186
 40
0.9799160502731941
 40
0.9799160502731941
 40
0.9799160502731941
 40
0.9799160502731941
 10
117.731395144114
 20
344.1812928705142
 30
0.0
 10
117.732951435177
 20
344.1812908043285
 30
0.0
 10
117.7360640167547
 20
344.1812866574863
 30
0.0
 10
117.7431123922772
 20
344.1812684977332
 30
0.0
 10
117.7525401965088
 20
344.1812026064532
 30
0.0
 10
117.7640536556751
 20
344.1810556147323
 30
0.0
 10
117.7752731929801
 20
344.1808558230375
 30
0.0
 10
117.7886173550832
 20
344.1805518848251
 30
0.0
 10
117.8043780678804
 20
344.1800859599417
 30
0.0
 10
117.8265879904554
 20
344.1792411370685
 30
0.0
 10
117.8528236453016
 20
344.1779466786662
 30
0.0
 10
117.8898461783745
 20
344.1756027831467
 30
0.0
 10
117.9335958192674
 20
344.1720250617715
 30
0.0
 10
117.995559359696
 20
344.1654606474125
 30
0.0
 10
118.0688471054599
 20
344.1552017078267
 30
0.0
 10
118.1576596603611
 20
344.1393754628963
 30
0.0
 10
118.2504272974001
 20
344.1194830758635
 30
0.0
 10
118.3466319409108
 20
344.0938793472222
 30
0.0
 10
118.4502663668793
 20
344.0594506814595
 30
0.0
 10
118.5597323606997
 20
344.0127744288375
 30
0.0
 10
118.6369215274698
 20
343.9756333364459
 30
0.0
 10
118.675618019548
 20
343.9570137467154
 30
0.0
 11
117.731395144114
 21
344.1812928705142
 31
0.0
 11
117.7360640162375
 21
344.1812856993382
 31
0.0
 11
117.7407328738202
 21
344.181272692472
 31
0.0
 11
117.7525400273978
 21
344.1811912481466
 31
0.0
 11
117.7643466730055
 21
344.1810415820871
 31
0.0
 11
117.7752729398333
 21
344.1808467888877
 31
0.0
 11
117.7861983164705
 21
344.1805977187896
 31
0.0
 11
117.8043768802344
 21
344.1800603333714
 31
0.0
 11
117.8225511826445
 21
344.1793690313644
 31
0.0
 11
117.8528177415481
 21
344.1778765676227
 31
0.0
 11
117.8830662762635
 21
344.1759624261905
 31
0.0
 11
117.9335716875891
 21
344.1718241197822
 31
0.0
 11
117.9839788882174
 21
344.166475484448
 31
0.0
 11
118.0687116536602
 21
344.1546846157992
 31
0.0
 11
118.1530961873241
 21
344.1397197842523
 31
0.0
 11
118.2501879983961
 21
344.1187074154023
 31
0.0
 11
118.3462933683246
 21
344.0929296255006
 31
0.0
 11
118.440828869025
 21
344.0613252830523
 31
0.0
 11
118.5591053544465
 21
344.0119904530317
 31
0.0
 11
118.675618019548
 21
343.9570137467154
 31
0.0
  0
SPLINE
  5
1C0
330
59
100
AcDbEntity
  8
0
  6
Continuous
 62
     7
100
AcDbSpline
210
0.0
220
0.0
230
1.0
 70
    24
 71
     3
 72
     9
 73
     5
 74
     3
 42
0.000000001
 43
0.0000000001
 44
0.00000001
 40
0.0
 40
0.0
 40
0.0
 40
0.0
 40
0.0238046722134517
 40
0.0476093444637503
 40
0.0476093444637503
 40
0.0476093444637503
 40
0.0476093444637503
 10
121.058900244614
 20
329.8546208775142
 30
0.0
 10
121.0584383155335
 20
329.8625423112573
 30
0.0
 10
121.0575144573858
 20
329.8783851787564
 30
0.0
 10
121.0565905992667
 20
329.8942280462574
 30
0.0
 10
121.056128670214
 20
329.9021494800143
 30
0.0
 11
121.058900244614
 21
329.8546208775142
 31
0.0
 11
121.0575144573865
 21
329.8783851787441
 31
0.0
 11
121.056128670214
 21
329.9021494800143
 31
0.0
  0
SPLINE
  5
1C1
330
59
100
AcDbEntity
  8
0
  6
Continuous
 62
     7
100
AcDbSpline
210
0.0
220
0.0
230
1.0
 70
    24
 71
     3
 72
     9
 73
     5
 74
     3
 42
0.000000001
 43
0.0000000001
 44
0.00000001
 40
0.0
 40
0.0
 40
0.0
 40
0.0
 40
0.023804672250427
 40
0.0476093444637561
 40
0.0476093444637561
 40
0.0476093444637561
 40
0.0476093444637561
 10
109.327404817514
 20
329.9021494800143
 30
0.0
 10
109.3269428884611
 20
329.8942280462574
 30
0.0
 10
109.3260190303418
 20
329.8783851787564
 30
0.0
 10
109.3250951721943
 20
329.8625423112572
 30
0.0
 10
109.3246332431139
 20
329.8546208775142
 30
0.0
 11
109.327404817514
 21
329.9021494800143
 31
0.0
 11
109.3260190303411
 21
329.8783851787441
 31
0.0
 11
109.3246332431139
 21
329.8546208775142
 31
0.0
  0
SPLINE
  5
1C2
330
59
100
AcDbEntity
  8
0
  6
Continuous
 62
     8
100
AcDbSpline
210
0.0
220
0.0
230
1.0
 70
     8
 71
     3
 72
    19
 73
    15
 74
    13
 42
0.000000001
 43
0.0000000001
 44
0.00000001
 40
0.0
 40
0.0
 40
0.0
 40
0.0
 40
0.0478251554532658
 40
0.0956877319947371
 40
0.3279043371354676
 40
0.5651026107408788
 40
0.8127440735484902
 40
1.06335835810231
 40
1.129823817368199
 40
1.196713285698449
 40
1.399036690834216
 40
1.604499968164816
 40
1.820707223646248
 40
2.040411196896018
 40
2.040411196896018
 40
2.040411196896018
 40
2.040411196896018
 10
118.675618019548
 20
343.9570137467154
 30
0.0
 10
118.6902777280473
 20
343.9507499976921
 30
0.0
 10
118.7196086100099
 20
343.9382175855143
 30
0.0
 10
118.8191922049249
 20
343.8931206942477
 30
0.0
 10
118.967089022968
 20
343.8024161928412
 30
0.0
 10
119.1513103540922
 20
343.6495410545621
 30
0.0
 10
119.32541112361
 20
343.4764235624465
 30
0.0
 10
119.4431462686667
 20
343.3288032457353
 30
0.0
 10
119.5142398118788
 20
343.2223537798075
 30
0.0
 10
119.5734022719547
 20
343.1273692834394
 30
0.0
 10
119.649372995998
 20
342.9882939902773
 30
0.0
 10
119.7285043096117
 20
342.7952777913358
 30
0.0
 10
119.781752279222
 20
342.5877512094191
 30
0.0
 10
119.8084642093669
 20
342.444933124701
 30
0.0
 10
119.821927303863
 20
342.3729512641382
 30
0.0
 11
118.675618019548
 21
343.9570137467154
 31
0.0
 11
118.7195294990114
 21
343.9380657220801
 31
0.0
 11
118.7630589755929
 21
343.9181656975462
 31
0.0
 11
118.962333230581
 21
343.7989418451479
 31
0.0
 11
119.1462846856959
 21
343.6491924434687
 31
0.0
 11
119.3212313206515
 21
343.4739213140704
 31
0.0
 11
119.4769171893597
 21
343.2775303036666
 31
0.0
 11
119.513866258577
 21
343.2222815615074
 31
0.0
 11
119.5492631550679
 21
343.1655254107822
 31
0.0
 11
119.6455344313232
 21
342.9875742904492
 31
0.0
 11
119.7227575757504
 21
342.7971753825977
 31
0.0
 11
119.7791303136725
 21
342.588446630848
 31
0.0
 11
119.821927303863
 21
342.3729512641382
 31
0.0
  0
SPLINE
  5
1C3
330
59
100
AcDbEntity
  8
0
  6
Continuous
 62
     7
100
AcDbSpline
210
0.0
220
0.0
230
1.0
 70
     8
 71
     3
 72
    31
 73
    27
 74
    25
 42
0.000000001
 43
0.0000000001
 44
0.00000001
 40
0.0
 40
0.0
 40
0.0
 40
0.0
 40
0.0999556614866478
 40
0.1999340839775141
 40
0.3402862087842116
 40
0.4812832929053671
 40
0.6218408889618193
 40
0.763113451660309
 40
0.9030437587317355
 40
1.043930198246753
 40
1.183098656954552
 40
1.323301230912839
 40
1.461901626731849
 40
1.601383743663181
 40
1.72557408901417
 40
1.851162248474486
 40
1.973075647596355
 40
2.09692424138198
 40
2.21769735898946
 40
2.340068786211801
 40
2.460188676966269
 40
2.581843160442143
 40
2.702146176127838
 40
2.823708498384136
 40
2.903321131555312
 40
2.983440766366711
 40
2.983440766366711
 40
2.983440766366711
 40
2.983440766366711
 10
112.652138343637
 20
344.1812928705413
 30
0.0
 10
112.6188319710966
 20
344.1803901303065
 30
0.0
 10
112.5522116422519
 20
344.1785844297016
 30
0.0
 10
112.4389199502549
 20
344.1723024112512
 30
0.0
 10
112.312639523917
 20
344.156666549685
 30
0.0
 10
112.1745314260997
 20
344.1296360971709
 30
0.0
 10
112.0380485665701
 20
344.0941033216634
 30
0.0
 10
111.9044612346915
 20
344.0499634970146
 30
0.0
 10
111.7740252522672
 20
343.9969431284798
 30
0.0
 10
111.6480230193882
 20
343.9356984548019
 30
0.0
 10
111.5262523949671
 20
343.8662431809862
 30
0.0
 10
111.409982249765
 20
343.7892907937929
 30
0.0
 10
111.299024230658
 20
343.7046951344238
 30
0.0
 10
111.1978370676348
 20
343.6165631715237
 30
0.0
 10
111.1053459279209
 20
343.5254587339848
 30
0.0
 10
111.0223308689798
 20
343.4333862359565
 30
0.0
 10
110.9448751484227
 20
343.3367452338958
 30
0.0
 10
110.8740944703664
 20
343.2370699756605
 30
0.0
 10
110.8092224003077
 20
343.1332731869351
 30
0.0
 10
110.7514283941762
 20
343.0267720488285
 30
0.0
 10
110.7004575429901
 20
342.9165264611733
 30
0.0
 10
110.6561167598853
 20
342.8042169168787
 30
0.0
 10
110.617389968696
 20
342.6893296865312
 30
0.0
 10
110.5911923116691
 20
342.5852340212485
 30
0.0
 10
110.5762527236919
 20
342.4926201013243
 30
0.0
 10
110.5695256298784
 20
342.4398030427795
 30
0.0
 10
110.566151413954
 20
342.4133106899992
 30
0.0
 11
112.652138343637
 21
344.1812928705413
 31
0.0
 11
112.552233261248
 21
344.178113432699
 31
0.0
 11
112.4524352357285
 21
344.1721101743865
 31
0.0
 11
112.3131203730877
 21
344.1550782024892
 31
0.0
 11
112.1747092770338
 21
344.1281979814715
 31
0.0
 11
112.0387033774672
 21
344.0927179427212
 31
0.0
 11
111.9045834970959
 21
344.048335573323
 31
0.0
 11
111.7749488693974
 21
343.9956539429289
 31
0.0
 11
111.6482350217212
 21
343.9340699378517
 31
0.0
 11
111.5273544985143
 21
343.8651079263062
 31
0.0
 11
111.4104466515414
 21
343.7877172480415
 31
0.0
 11
111.3002066142481
 21
343.703710082201
 31
0.0
 11
111.1950185320134
 21
343.6121091634698
 31
0.0
 11
111.1065587941214
 21
343.5249419869419
 31
0.0
 11
111.0224510566636
 21
343.4316774475169
 31
0.0
 11
110.9462144317659
 21
343.3365414714787
 31
0.0
 11
110.8745252008007
 21
343.2355507372881
 31
0.0
 11
110.8105649529268
 21
343.1331044943375
 31
0.0
 11
110.7522510669423
 21
343.0255207735088
 31
0.0
 11
110.701717410064
 21
342.9165476677227
 31
0.0
 11
110.6569256013086
 21
342.8034392793646
 31
0.0
 11
110.6190225609127
 21
342.6892632058279
 31
0.0
 11
110.5898585206463
 21
342.5712510981634
 31
0.0
 11
110.5767159345451
 21
342.4927307572976
 31
0.0
 11
110.566151413954
 21
342.4133106899992
 31
0.0
  0
ARC
  5
1C4
330
59
100
AcDbEntity
  8
1
  6
Continuous
 62
     7
100
AcDbCircle
 10
113.4199858732318
 20
514.8797043612225
 30
0.0
 40
2.0
100
AcDbArc
 50
180.0
 51
270.0
  0
ARC
  5
1C5
330
59
100
AcDbEntity
  8
1
  6
Continuous
 62
     7
100
AcDbCircle
 10
116.963547614496
 20
514.8797043612225
 30
0.0
 40
2.0
100
AcDbArc
 50
270.0
 51
0.0
  0
ARC
  5
1C6
330
59
100
AcDbEntity
  8
1
  6
Continuous
 62
     2
100
AcDbCircle
 10
290.8978281501662
 20
336.1812928705142
 30
0.0
 40
5.0
100
AcDbArc
 50
0.0
 51
90.0
  0
ARC
  5
1C7
330
59
100
AcDbEntity
  8
1
  6
Continuous
 62
     2
100
AcDbCircle
 10
292.8978281501662
 20
329.247671330379
 30
0.0
 40
2.999999999999989
100
AcDbArc
 50
231.483529060398
 51
0.0
  0
ARC
  5
1C8
330
59
100
AcDbEntity
  8
1
  6
Continuous
 62
     7
100
AcDbCircle
 10
319.0899653911121
 20
331.1812928705142
 30
0.0
 40
10.0
100
AcDbArc
 50
270.0
 51
319.8990924537874
  0
ARC
  5
1C9
330
59
100
AcDbEntity
  8
1
  6
Continuous
 62
     7
100
AcDbCircle
 10
312.613011259304
 20
339.1812928705142
 30
0.0
 40
5.000000000000036
100
AcDbArc
 50
50.71059313749932
 51
90.0
  0
ENDBLK
  5
5B
330
59
100
AcDbEntity
  8
0
100
AcDbBlockEnd
  0
BLOCK
  5
5D
330
5C
100
AcDbEntity
  8
0
100
AcDbBlockBegin
  2
開示A4
 70
     0
 10
0.0
 20
0.0
 30
0.0
  3
開示A4
  1

  0
POINT
  5
1CA
330
5C
100
AcDbEntity
  8
1
 62
     4
100
AcDbPoint
 10
93.75
 20
17.0
 30
0.0
  0
POINT
  5
1CB
330
5C
100
AcDbEntity
  8
1
 62
     4
100
AcDbPoint
 10
85.25
 20
17.0
 30
0.0
  0
POINT
  5
1CC
330
5C
100
AcDbEntity
  8
1
 62
     4
100
AcDbPoint
 10
106.5
 20
19.00000000000001
 30
0.0
  0
POINT
  5
1CD
330
5C
100
AcDbEntity
  8
1
 62
     4
100
AcDbPoint
 10
106.5
 20
12.5
 30
0.0
  0
POINT
  5
1CE
330
5C
100
AcDbEntity
  8
1
 62
     4
100
AcDbPoint
 10
112.25
 20
12.5
 30
0.0
  0
POINT
  5
1CF
330
5C
100
AcDbEntity
  8
1
 62
     4
100
AcDbPoint
 10
100.75
 20
12.5
 30
0.0
  0
POINT
  5
1D0
330
5C
100
AcDbEntity
  8
1
 62
     4
100
AcDbPoint
 10
123.5
 20
19.00000000000001
 30
0.0
  0
POINT
  5
1D1
330
5C
100
AcDbEntity
  8
1
 62
     4
100
AcDbPoint
 10
123.5
 20
12.5
 30
0.0
  0
POINT
  5
1D2
330
5C
100
AcDbEntity
  8
1
 62
     4
100
AcDbPoint
 10
129.25
 20
12.5
 30
0.0
  0
POINT
  5
1D3
330
5C
100
AcDbEntity
  8
1
 62
     4
100
AcDbPoint
 10
117.75
 20
12.5
 30
0.0
  0
POINT
  5
1D4
330
5C
100
AcDbEntity
  8
1
 62
     4
100
AcDbPoint
 10
140.5
 20
19.00000000000001
 30
0.0
  0
POINT
  5
1D5
330
5C
100
AcDbEntity
  8
1
 62
     4
100
AcDbPoint
 10
140.5
 20
12.5
 30
0.0
  0
POINT
  5
1D6
330
5C
100
AcDbEntity
  8
1
 62
     4
100
AcDbPoint
 10
146.25
 20
12.5
 30
0.0
  0
POINT
  5
1D7
330
5C
100
AcDbEntity
  8
1
 62
     4
100
AcDbPoint
 10
134.75
 20
12.5
 30
0.0
  0
POINT
  5
1D8
330
5C
100
AcDbEntity
  8
1
 62
     4
100
AcDbPoint
 10
151.75
 20
12.5
 30
0.0
  0
POINT
  5
1D9
330
5C
100
AcDbEntity
  8
1
 62
     4
100
AcDbPoint
 10
163.25
 20
12.5
 30
0.0
  0
POINT
  5
1DA
330
5C
100
AcDbEntity
  8
1
 62
     4
100
AcDbPoint
 10
157.5
 20
12.5
 30
0.0
  0
POINT
  5
1DB
330
5C
100
AcDbEntity
  8
1
 62
     4
100
AcDbPoint
 10
57.0
 20
14.25
 30
0.0
  0
POINT
  5
1DC
330
5C
100
AcDbEntity
  8
1
 62
     4
100
AcDbPoint
 10
57.0
 20
22.75000000000001
 30
0.0
  0
POINT
  5
1DD
330
5C
100
AcDbEntity
  8
1
 62
     4
100
AcDbPoint
 10
47.5
 20
282.0000000000003
 30
0.0
  0
POINT
  5
1DE
330
5C
100
AcDbEntity
  8
1
 62
     4
100
AcDbPoint
 10
157.5
 20
19.00000000000001
 30
0.0
  0
POINT
  5
1DF
330
5C
100
AcDbEntity
  8
1
 62
     4
100
AcDbPoint
 10
57.0
 20
16.25
 30
0.0
  0
POINT
  5
1E0
330
5C
100
AcDbEntity
  8
1
 62
     4
100
AcDbPoint
 10
57.0
 20
24.75000000000001
 30
0.0
  0
POINT
  5
1E1
330
5C
100
AcDbEntity
  8
1
 62
     4
100
AcDbPoint
 10
57.0
 20
20.75000000000001
 30
0.0
  0
POINT
  5
1E2
330
5C
100
AcDbEntity
  8
1
 62
     4
100
AcDbPoint
 10
57.0
 20
12.25
 30
0.0
  0
POINT
  5
1E3
330
5C
100
AcDbEntity
  8
1
 62
     4
100
AcDbPoint
 10
34.0
 20
34.00000000000001
 30
0.0
  0
LINE
  5
1E4
330
5C
100
AcDbEntity
  8
1
  6
Continuous
 62
     7
100
AcDbLine
 10
105.0
 20
10.0
 30
0.0
 11
200.0
 21
10.0
 31
0.0
  0
LINE
  5
1E5
330
5C
100
AcDbEntity
  8
1
  6
Continuous
 62
     2
100
AcDbLine
 10
105.0
 20
10.0
 30
0.0
 11
105.0
 21
5.0
 31
0.0
  0
LINE
  5
1E6
330
5C
100
AcDbEntity
  8
1
  6
Continuous
 62
     7
100
AcDbLine
 10
200.0
 20
148.5
 30
0.0
 11
200.0
 21
287.0000000000003
 31
0.0
  0
LINE
  5
1E7
330
5C
100
AcDbEntity
  8
1
  6
Continuous
 62
     2
100
AcDbLine
 10
200.0
 20
148.5
 30
0.0
 11
205.0
 21
148.5
 31
0.0
  0
LINE
  5
1E8
330
5C
100
AcDbEntity
  8
1
  6
Continuous
 62
     7
100
AcDbLine
 10
25.0
 20
148.5
 30
0.0
 11
25.0
 21
287.0000000000003
 31
0.0
  0
LINE
  5
1E9
330
5C
100
AcDbEntity
  8
1
  6
Continuous
 62
     2
100
AcDbLine
 10
25.0
 20
148.5
 30
0.0
 11
20.0
 21
148.5
 31
0.0
  0
LINE
  5
1EA
330
5C
100
AcDbEntity
  8
1
  6
Continuous
 62
     7
100
AcDbLine
 10
105.0
 20
287.0000000000003
 30
0.0
 11
25.0
 21
287.0000000000003
 31
0.0
  0
LINE
  5
1EB
330
5C
100
AcDbEntity
  8
1
  6
Continuous
 62
     2
100
AcDbLine
 10
105.0
 20
287.0000000000003
 30
0.0
 11
105.0
 21
292.0000000000003
 31
0.0
  0
LINE
  5
1EC
330
5C
100
AcDbEntity
  8
1
  6
Continuous
 62
     2
100
AcDbLine
 10
166.0
 20
20.00000000000001
 30
0.0
 11
200.0
 21
20.00000000000001
 31
0.0
  0
LINE
  5
1ED
330
5C
100
AcDbEntity
  8
1
  6
Continuous
 62
     2
100
AcDbLine
 10
98.0
 20
27.00000000000001
 30
0.0
 11
98.0
 21
9.99999999999999
 31
0.0
  0
LINE
  5
1EE
330
5C
100
AcDbEntity
  8
1
  6
Continuous
 62
     2
100
AcDbLine
 10
115.0
 20
27.00000000000001
 30
0.0
 11
115.0
 21
9.99999999999999
 31
0.0
  0
LINE
  5
1EF
330
5C
100
AcDbEntity
  8
1
  6
Continuous
 62
     2
100
AcDbLine
 10
149.0
 20
27.00000000000001
 30
0.0
 11
149.0
 21
10.0
 31
0.0
  0
LINE
  5
1F0
330
5C
100
AcDbEntity
  8
1
  6
Continuous
 62
     2
100
AcDbLine
 10
132.0
 20
27.00000000000001
 30
0.0
 11
132.0
 21
9.99999999999999
 31
0.0
  0
LINE
  5
1F1
330
5C
100
AcDbEntity
  8
1
  6
Continuous
 62
     2
100
AcDbLine
 10
166.0
 20
27.00000000000001
 30
0.0
 11
166.0
 21
10.0
 31
0.0
  0
LINE
  5
1F2
330
5C
100
AcDbEntity
  8
1
  6
Continuous
 62
     2
100
AcDbLine
 10
55.0
 20
277.0000000000003
 30
0.0
 11
25.0
 21
277.0000000000003
 31
0.0
  0
LINE
  5
1F3
330
5C
100
AcDbEntity
  8
1
  6
Continuous
 62
     7
100
AcDbLine
 10
25.0
 20
10.0
 30
0.0
 11
25.0
 21
148.5
 31
0.0
  0
LINE
  5
1F4
330
5C
100
AcDbEntity
  8
1
  6
Continuous
 62
     2
100
AcDbLine
 10
40.0
 20
287.0000000000003
 30
0.0
 11
40.0
 21
277.0000000000003
 31
0.0
  0
LINE
  5
1F5
330
5C
100
AcDbEntity
  8
1
  6
Continuous
 62
     2
100
AcDbLine
 10
55.0
 20
287.0000000000003
 30
0.0
 11
55.0
 21
277.0000000000003
 31
0.0
  0
LINE
  5
1F6
330
5C
100
AcDbEntity
  8
1
  6
Continuous
 62
     2
100
AcDbLine
 10
33.0
 20
41.00000000000001
 30
0.0
 11
33.0
 21
27.0
 31
0.0
  0
LINE
  5
1F7
330
5C
100
AcDbEntity
  8
1
  6
Continuous
 62
     7
100
AcDbLine
 10
200.0
 20
27.00000000000001
 30
0.0
 11
25.0
 21
27.00000000000001
 31
0.0
  0
LINE
  5
1F8
330
5C
100
AcDbEntity
  8
1
  6
Continuous
 62
     7
100
AcDbLine
 10
25.0
 20
41.0
 30
0.0
 11
200.0
 21
41.0
 31
0.0
  0
LINE
  5
1F9
330
5C
100
AcDbEntity
  8
1
  6
PHANTOM
 62
     4
100
AcDbLine
 10
0.0
 20
0.0
 30
0.0
 11
210.0
 21
0.0
 31
0.0
  0
LINE
  5
1FA
330
5C
100
AcDbEntity
  8
1
  6
PHANTOM
 62
     4
100
AcDbLine
 10
210.0
 20
0.0
 30
0.0
 11
210.0
 21
297.0
 31
0.0
  0
LINE
  5
1FB
330
5C
100
AcDbEntity
  8
1
  6
PHANTOM
 62
     4
100
AcDbLine
 10
210.0
 20
297.0
 30
0.0
 11
0.0
 21
297.0
 31
0.0
  0
LINE
  5
1FC
330
5C
100
AcDbEntity
  8
1
  6
PHANTOM
 62
     4
100
AcDbLine
 10
0.0
 20
297.0
 30
0.0
 11
0.0
 21
0.0
 31
0.0
  0
LINE
  5
1FD
330
5C
100
AcDbEntity
  8
1
  6
Continuous
 62
     7
100
AcDbLine
 10
25.0
 20
10.0
 30
0.0
 11
105.0
 21
10.0
 31
0.0
  0
LINE
  5
1FE
330
5C
100
AcDbEntity
  8
1
  6
Continuous
 62
     7
100
AcDbLine
 10
200.0
 20
10.0
 30
0.0
 11
200.0
 21
148.5
 31
0.0
  0
LINE
  5
1FF
330
5C
100
AcDbEntity
  8
1
  6
Continuous
 62
     7
100
AcDbLine
 10
200.0
 20
287.0000000000003
 30
0.0
 11
105.0
 21
287.0000000000003
 31
0.0
  0
LINE
  5
200
330
5C
100
AcDbEntity
  8
1
  6
Continuous
 62
     2
100
AcDbLine
 10
25.0
 20
18.50000000000001
 30
0.0
 11
81.0
 21
18.50000000000001
 31
0.0
  0
LINE
  5
201
330
5C
100
AcDbEntity
  8
1
  6
Continuous
 62
     2
100
AcDbLine
 10
33.0
 20
27.0
 30
0.0
 11
33.0
 21
10.0
 31
0.0
  0
LINE
  5
202
330
5C
100
AcDbEntity
  8
1
  6
Continuous
 62
     7
100
AcDbLine
 10
191.0
 20
24.70000000000001
 30
0.0
 11
191.0
 21
22.30000000000001
 31
0.0
  0
LINE
  5
203
330
5C
100
AcDbEntity
  8
1
  6
Continuous
 62
     7
100
AcDbLine
 10
191.0
 20
24.70000000000001
 30
0.0
 11
196.0
 21
25.50000000000001
 31
0.0
  0
LINE
  5
204
330
5C
100
AcDbEntity
  8
1
  6
Continuous
 62
     7
100
AcDbLine
 10
196.0
 20
25.50000000000001
 30
0.0
 11
196.0
 21
21.50000000000001
 31
0.0
  0
LINE
  5
205
330
5C
100
AcDbEntity
  8
1
  6
Continuous
 62
     7
100
AcDbLine
 10
196.0
 20
21.50000000000001
 30
0.0
 11
191.0
 21
22.30000000000001
 31
0.0
  0
LINE
  5
206
330
5C
100
AcDbEntity
  8
1
  6
DOT_CENTER
 62
     2
100
AcDbLine
 10
184.0
 20
23.50000000000001
 30
0.0
 11
197.0
 21
23.50000000000001
 31
0.0
  0
LINE
  5
207
330
5C
100
AcDbEntity
  8
1
  6
DOT_CENTER
 62
     2
100
AcDbLine
 10
187.0
 20
26.50000000000001
 30
0.0
 11
187.0
 21
20.50000000000001
 31
0.0
  0
LINE
  5
208
330
5C
100
AcDbEntity
  8
1
  6
Continuous
 62
     2
100
AcDbLine
 10
81.0
 20
27.00000000000001
 30
0.0
 11
81.0
 21
10.0
 31
0.0
  0
CIRCLE
  5
209
330
5C
100
AcDbEntity
  8
1
  6
Continuous
 62
     7
100
AcDbCircle
 10
103.5
 20
12.5
 30
0.0
 40
0.2999999999999972
  0
CIRCLE
  5
20A
330
5C
100
AcDbEntity
  8
1
  6
Continuous
 62
     7
100
AcDbCircle
 10
109.5
 20
12.5
 30
0.0
 40
0.2999999999999972
  0
CIRCLE
  5
20B
330
5C
100
AcDbEntity
  8
1
  6
Continuous
 62
     7
100
AcDbCircle
 10
120.5
 20
12.5
 30
0.0
 40
0.2999999999999972
  0
CIRCLE
  5
20C
330
5C
100
AcDbEntity
  8
1
  6
Continuous
 62
     7
100
AcDbCircle
 10
126.5
 20
12.5
 30
0.0
 40
0.2999999999999972
  0
CIRCLE
  5
20D
330
5C
100
AcDbEntity
  8
1
  6
Continuous
 62
     7
100
AcDbCircle
 10
137.5
 20
12.5
 30
0.0
 40
0.3000000000000114
  0
CIRCLE
  5
20E
330
5C
100
AcDbEntity
  8
1
  6
Continuous
 62
     7
100
AcDbCircle
 10
143.5
 20
12.5
 30
0.0
 40
0.3000000000000114
  0
CIRCLE
  5
20F
330
5C
100
AcDbEntity
  8
1
  6
Continuous
 62
     7
100
AcDbCircle
 10
160.5
 20
12.5
 30
0.0
 40
0.3000000000000114
  0
CIRCLE
  5
210
330
5C
100
AcDbEntity
  8
1
  6
Continuous
 62
     7
100
AcDbCircle
 10
154.5
 20
12.5
 30
0.0
 40
0.3000000000000114
  0
CIRCLE
  5
211
330
5C
100
AcDbEntity
  8
1
  6
Continuous
 62
     7
100
AcDbCircle
 10
187.0
 20
23.50000000000001
 30
0.0
 40
1.200000000000102
  0
CIRCLE
  5
212
330
5C
100
AcDbEntity
  8
1
  6
Continuous
 62
     7
100
AcDbCircle
 10
187.0
 20
23.50000000000001
 30
0.0
 40
2.0
  0
CIRCLE
  5
213
330
5C
100
AcDbEntity
  8
1
  6
DOT_CENTER
 62
     7
100
AcDbCircle
 10
89.5
 20
16.0
 30
0.0
 40
0.1000000000000227
  0
CIRCLE
  5
214
330
5C
100
AcDbEntity
  8
1
  6
DOT_CENTER
 62
     7
100
AcDbCircle
 10
89.5
 20
18.0
 30
0.0
 40
0.1000000000000227
  0
MTEXT
  5
216
330
5C
100
AcDbEntity
  8
1
 62
     7
100
AcDbMText
 10
188.5
 20
15.0
 30
0.0
 40
3.0
 41
0.0
 71
     5
 72
     1
  1
三栄水栓製作所
  7
CONVERTER_11
 73
     1
 44
1.0
  0
MTEXT
  5
217
330
5C
100
AcDbEntity
  8
1
 62
     7
100
AcDbMText
 10
171.5
 20
15.0
 30
0.0
 40
2.5
 41
0.0
 71
     5
 72
     1
  1
株式会社
  7
CONVERTER_11
 73
     1
 44
1.0
  0
MTEXT
  5
218
330
5C
100
AcDbEntity
  8
1
 62
     2
100
AcDbMText
 10
32.5
 20
282.0000000000003
 30
0.0
 40
5.0
 41
0.0
 71
     5
 72
     1
  1
図番
  7
CONVERTER_11
 73
     1
 44
0.45454545454545
  0
MTEXT
  5
219
330
5C
100
AcDbEntity
  8
1
 62
     2
100
AcDbMText
 10
29.0
 20
34.00000000000001
 30
0.0
 40
3.5
 41
0.0
 71
     5
 72
     1
  1
備考
  7
CONVERTER_11
 73
     1
 44
0.45454545454545
  0
MTEXT
  5
21A
330
5C
100
AcDbEntity
  8
1
 62
     2
100
AcDbMText
 10
29.0
 20
22.75
 30
0.0
 40
3.5
 41
0.0
 71
     5
 72
     1
  1
品名
  7
CONVERTER_11
 73
     1
 44
0.72727272727273
  0
MTEXT
  5
21B
330
5C
100
AcDbEntity
  8
1
 62
     2
100
AcDbMText
 10
29.0
 20
14.25
 30
0.0
 40
3.5
 41
0.0
 71
     5
 72
     1
  1
品番
  7
CONVERTER_11
 73
     1
 44
0.72727272727273
  0
MTEXT
  5
21C
330
5C
100
AcDbEntity
  8
1
 62
     2
100
AcDbMText
 10
101.5
 20
25.00000000000001
 30
0.0
 40
3.0
 41
0.0
 71
     5
 72
     1
  1
承認
  7
CONVERTER_11
 73
     1
 44
0.59090909090909
  0
MTEXT
  5
21D
330
5C
100
AcDbEntity
  8
1
 62
     2
100
AcDbMText
 10
175.0
 20
23.50000000000001
 30
0.0
 40
3.5
 41
0.0
 71
     5
 72
     1
  1
第三角法
  7
CONVERTER_11
 73
     1
 44
0.54545454545455
  0
MTEXT
  5
21E
330
5C
100
AcDbEntity
  8
1
 62
     2
100
AcDbMText
 10
118.5
 20
25.00000000000001
 30
0.0
 40
3.0
 41
0.0
 71
     5
 72
     1
  1
検図
  7
CONVERTER_11
 73
     1
 44
0.59090909090909
  0
MTEXT
  5
21F
330
5C
100
AcDbEntity
  8
1
 62
     2
100
AcDbMText
 10
152.5
 20
25.00000000000001
 30
0.0
 40
3.0
 41
0.0
 71
     5
 72
     1
  1
設計
  7
CONVERTER_11
 73
     1
 44
0.59090909090909
  0
MTEXT
  5
220
330
5C
100
AcDbEntity
  8
1
 62
     2
100
AcDbMText
 10
135.5
 20
25.00000000000001
 30
0.0
 40
3.0
 41
0.0
 71
     5
 72
     1
  1
製図
  7
CONVERTER_11
 73
     1
 44
0.59090909090909
  0
MTEXT
  5
221
330
5C
100
AcDbEntity
  8
1
 62
     2
100
AcDbMText
 10
89.5
 20
24.00000000000001
 30
0.0
 40
3.5
 41
0.0
 71
     5
 72
     1
  1
尺度
  7
CONVERTER_11
 73
     1
 44
0.54545454545455
  0
MTEXT
  5
222
330
5C
100
AcDbEntity
  8
1
 62
   250
100
AcDbMText
 10
25.0
 20
5.0
 30
0.0
 40
3.5
 41
0.0
 71
     4
 72
     1
  1
備考欄の文字列 原点位置=4
  7
CONVERTER_11
 73
     1
 44
0.54545454545455
  0
ENDBLK
  5
5E
330
5C
100
AcDbEntity
  8
0
100
AcDbBlockEnd
  0
BLOCK
  5
60
330
5F
100
AcDbEntity
  8
0
100
AcDbBlockBegin
  2
32-1-16
 70
     0
 10
37.66238187348984
 20
448.1265076928361
 30
0.0
  3
32-1-16
  1

  0
LINE
  5
223
330
5F
100
AcDbEntity
  8
1
  6
Continuous
 62
     7
100
AcDbLine
 10
129.191766743864
 20
240.927498313014
 30
0.0
 11
129.191766743864
 21
248.0689267415568
 31
0.0
  0
LINE
  5
224
330
5F
100
AcDbEntity
  8
1
  6
Continuous
 62
     7
100
AcDbLine
 10
128.4917667438641
 20
248.6406755627269
 30
0.0
 11
115.1917667438639
 21
248.6406755627269
 31
0.0
  0
LINE
  5
225
330
5F
100
AcDbEntity
  8
1
  6
Continuous
 62
     7
100
AcDbLine
 10
126.7497878055947
 20
239.640675562727
 30
0.0
 11
126.691766743864
 21
239.640675562727
 31
0.0
  0
LINE
  5
226
330
5F
100
AcDbEntity
  8
1
  6
Continuous
 62
     7
100
AcDbLine
 10
115.1917667438639
 20
238.640675562727
 30
0.0
 11
124.9597159362952
 21
238.640675562727
 31
0.0
  0
LINE
  5
227
330
5F
100
AcDbEntity
  8
1
  6
Continuous
 62
     7
100
AcDbLine
 10
101.191766743864
 20
248.0689267415568
 30
0.0
 11
101.191766743864
 21
240.927498313014
 31
0.0
  0
LINE
  5
228
330
5F
100
AcDbEntity
  8
1
  6
Continuous
 62
     7
100
AcDbLine
 10
115.1917667438639
 20
248.6406755627269
 30
0.0
 11
101.891766743864
 21
248.6406755627269
 31
0.0
  0
LINE
  5
229
330
5F
100
AcDbEntity
  8
1
  6
Continuous
 62
     7
100
AcDbLine
 10
103.6917667438639
 20
239.640675562727
 30
0.0
 11
103.6337456821334
 21
239.640675562727
 31
0.0
  0
LINE
  5
22A
330
5F
100
AcDbEntity
  8
1
  6
Continuous
 62
     7
100
AcDbLine
 10
105.4238175514328
 20
238.640675562727
 30
0.0
 11
115.1917667438639
 21
238.640675562727
 31
0.0
  0
LINE
  5
22B
330
5F
100
AcDbEntity
  8
1
  6
Continuous
 62
     7
100
AcDbLine
 10
347.5081217091586
 20
248.6406755627269
 30
0.0
 11
334.2081217091587
 21
248.6406755627269
 31
0.0
  0
LINE
  5
22C
330
5F
100
AcDbEntity
  8
1
  6
Continuous
 62
     7
100
AcDbLine
 10
347.3951217091586
 20
248.6406755627269
 30
0.0
 11
347.5081217091586
 21
248.6406755627269
 31
0.0
  0
LINE
  5
22D
330
5F
100
AcDbEntity
  8
1
  6
Continuous
 62
     7
100
AcDbLine
 10
345.7661427708891
 20
239.640675562727
 30
0.0
 11
345.7081217091587
 21
239.640675562727
 31
0.0
  0
LINE
  5
22E
330
5F
100
AcDbEntity
  8
1
  6
Continuous
 62
     7
100
AcDbLine
 10
334.2081217091587
 20
238.640675562727
 30
0.0
 11
343.9760709015898
 21
238.640675562727
 31
0.0
  0
LINE
  5
22F
330
5F
100
AcDbEntity
  8
1
  6
Continuous
 62
     7
100
AcDbLine
 10
334.2081217091587
 20
248.6406755627269
 30
0.0
 11
320.9081217091585
 21
248.6406755627269
 31
0.0
  0
LINE
  5
230
330
5F
100
AcDbEntity
  8
1
  6
Continuous
 62
     7
100
AcDbLine
 10
320.9081217091585
 20
248.6406755627269
 30
0.0
 11
321.0211217091586
 21
248.6406755627269
 31
0.0
  0
LINE
  5
231
330
5F
100
AcDbEntity
  8
1
  6
Continuous
 62
     7
100
AcDbLine
 10
322.7081217091587
 20
239.640675562727
 30
0.0
 11
322.6501006474281
 21
239.640675562727
 31
0.0
  0
LINE
  5
232
330
5F
100
AcDbEntity
  8
1
  6
Continuous
 62
     7
100
AcDbLine
 10
324.4401725167274
 20
238.640675562727
 30
0.0
 11
334.2081217091587
 21
238.640675562727
 31
0.0
  0
LINE
  5
233
330
5F
100
AcDbEntity
  8
1
  6
Continuous
 62
     7
100
AcDbLine
 10
101.1883285737811
 20
561.0387928013963
 30
0.0
 11
101.1894267788732
 21
574.34292745172
 31
0.0
  0
LINE
  5
234
330
5F
100
AcDbEntity
  8
1
  6
Continuous
 62
     7
100
AcDbLine
 10
102.4287446288059
 20
576.4890797893598
 30
0.0
 11
105.4374515085627
 21
578.2258263891894
 31
0.0
  0
LINE
  5
235
330
5F
100
AcDbEntity
  8
1
  6
Continuous
 62
     7
100
AcDbLine
 10
127.9504631636581
 20
576.4869730697579
 30
0.0
 11
124.942043048391
 21
578.2242163602536
 31
0.0
  0
LINE
  5
236
330
5F
100
AcDbEntity
  8
1
  6
Continuous
 62
     7
100
AcDbLine
 10
129.1883284783869
 20
561.0364815092091
 30
0.0
 11
129.189426683479
 21
574.3406161595328
 31
0.0
  0
LINE
  5
237
330
5F
100
AcDbEntity
  8
1
  6
Continuous
 62
     7
100
AcDbLine
 10
102.4272920936023
 20
558.8924358911711
 30
0.0
 11
109.5810391156194
 21
554.7614307324051
 31
0.0
  0
LINE
  5
238
330
5F
100
AcDbEntity
  8
1
  6
Continuous
 62
     7
100
AcDbLine
 10
127.9490106284544
 20
558.8903291715692
 30
0.0
 11
120.7945817067894
 21
554.760505097638
 31
0.0
  0
ARC
  5
239
330
5F
100
AcDbEntity
  8
1
  6
Continuous
 62
     7
100
AcDbCircle
 10
125.691766743864
 20
244.4982125272854
 30
0.0
 40
4.999999999999986
100
AcDbArc
 50
45.57299599919391
 51
55.9442022574304
  0
ARC
  5
23A
330
5F
100
AcDbEntity
  8
1
  6
Continuous
 62
     7
100
AcDbCircle
 10
125.691766743864
 20
244.4982125272854
 30
0.0
 40
5.000000000000014
100
AcDbArc
 50
285.3375576695554
 51
314.4270040008061
  0
ARC
  5
23B
330
5F
100
AcDbEntity
  8
1
  6
Continuous
 62
     7
100
AcDbCircle
 10
104.6917667438639
 20
244.4982125272854
 30
0.0
 40
4.999999999999859
100
AcDbArc
 50
124.0557977425676
 51
134.4270040008051
  0
ARC
  5
23C
330
5F
100
AcDbEntity
  8
1
  6
Continuous
 62
     7
100
AcDbCircle
 10
104.6917667438639
 20
244.4982125272854
 30
0.0
 40
4.999999999999906
100
AcDbArc
 50
225.5729959991948
 51
254.6624423304459
  0
ARC
  5
23D
330
5F
100
AcDbEntity
  8
1
  6
Continuous
 62
     7
100
AcDbCircle
 10
344.7081217091587
 20
244.4982125272854
 30
0.0
 40
4.999999999999955
100
AcDbArc
 50
285.3375576695528
 51
55.94420225743242
  0
ARC
  5
23E
330
5F
100
AcDbEntity
  8
1
  6
Continuous
 62
     7
100
AcDbCircle
 10
323.7081217091587
 20
244.4982125272854
 30
0.0
 40
5.00000000000005
100
AcDbArc
 50
124.0557977425708
 51
254.6624423304446
  0
ARC
  5
23F
330
5F
100
AcDbEntity
  8
1
  6
Continuous
 62
     7
100
AcDbCircle
 10
115.18887762863
 20
567.6897044804646
 30
0.0
 40
15.49999999999985
100
AcDbArc
 50
145.4098913691715
 51
154.5806495388498
  0
ARC
  5
240
330
5F
100
AcDbEntity
  8
1
  6
Continuous
 62
     7
100
AcDbCircle
 10
115.18887762863
 20
567.6897044804646
 30
0.0
 40
15.50000000000001
100
AcDbArc
 50
25.40989136917162
 51
34.58064953884934
  0
ARC
  5
241
330
5F
100
AcDbEntity
  8
1
  6
Continuous
 62
     7
100
AcDbCircle
 10
115.18887762863
 20
567.6897044804646
 30
0.0
 40
15.50000000000018
100
AcDbArc
 50
325.4098913691718
 51
334.58064953885
  0
ARC
  5
242
330
5F
100
AcDbEntity
  8
1
  6
Continuous
 62
     7
100
AcDbCircle
 10
115.18887762863
 20
567.6897044804646
 30
0.0
 40
15.49999999999989
100
AcDbArc
 50
205.4098913691718
 51
214.5806495388505
  0
SPLINE
  5
243
330
5F
100
AcDbEntity
  8
1
  6
Continuous
 62
     7
100
AcDbSpline
210
0.0
220
0.0
230
1.0
 70
    11
 71
     3
 72
    79
 73
    75
 74
    73
 42
0.000000001
 43
0.0000000001
 44
0.00000001
 40
0.0
 40
0.0
 40
0.0
 40
0.0
 40
0.3210813056649044
 40
0.6418951396081477
 40
0.9828988891663697
 40
1.323531051596549
 40
1.692967055112456
 40
2.062075178394406
 40
2.463733854380042
 40
2.865152862487605
 40
3.298564779288389
 40
3.731815223728907
 40
4.193131260568774
 40
4.654344167617068
 40
5.13724096649891
 40
5.620077099452262
 40
6.116559525296476
 40
6.613013903592248
 40
7.114121230352454
 40
7.615228557112341
 40
8.111682935406906
 40
8.608165361248025
 40
9.09100149419473
 40
9.573898293063715
 40
10.03511120009039
 40
10.49642723689454
 40
10.92967768128243
 40
11.36308959800322
 40
11.76450860600185
 40
12.16616728182977
 40
12.53527540490458
 40
12.90471140812299
 40
13.24534357014032
 40
13.58634731899444
 40
13.90716115088646
 40
14.22824246386903
 40
14.54200444896834
 40
14.85576643406654
 40
15.17684774704574
 40
15.49766157893251
 40
15.83866532777955
 40
16.17929748978875
 40
16.54873349299769
 40
16.91784161606284
 40
17.31950029188039
 40
17.72091929986905
 40
18.15433121657957
 40
18.58758166095772
 40
19.04889769775222
 40
19.51011060477006
 40
19.99300740363056
 40
20.47584353656948
 40
20.9723259624034
 40
21.4687803406916
 40
21.96988766744605
 40
22.47099499420178
 40
22.9674493724942
 40
23.46393179833603
 40
23.94676793128813
 40
24.4296647301697
 40
24.8908776372187
 40
25.35219367405961
 40
25.78544411850125
 40
26.2188560353021
 40
26.62027504340743
 40
27.02193371938505
 40
27.39104184264869
 40
27.76047784612175
 40
28.10111000845229
 40
28.44211375771928
 40
28.76292759014596
 40
29.08400890392561
 40
29.39777089116754
 40
29.71153286919171
 40
29.71153286919171
 40
29.71153286919171
 40
29.71153286919171
 10
113.9301350729635
 20
244.8111673788511
 30
0.0
 10
113.9108552222143
 20
244.916628461915
 30
0.0
 10
113.8723115901468
 20
245.1274627770859
 30
0.0
 10
113.7572582779951
 20
245.4358024001451
 30
0.0
 10
113.6048698121478
 20
245.7338904947011
 30
0.0
 10
113.4077931676916
 20
246.0245625790191
 30
0.0
 10
113.1746066578643
 20
246.2993281574466
 30
0.0
 10
112.9004381913166
 20
246.5633571026843
 30
0.0
 10
112.5948949912328
 20
246.8077410787598
 30
0.0
 10
112.2522774003402
 20
247.0376126531557
 30
0.0
 10
111.883581183574
 20
247.2451799053902
 30
0.0
 10
111.4830264414369
 20
247.4343968650382
 30
0.0
 10
111.0619219442879
 20
247.5993614802413
 30
0.0
 10
110.6155636383282
 20
247.7425455019037
 30
0.0
 10
110.1543677804959
 20
247.8600727288588
 30
0.0
 10
109.6756726841401
 20
247.9531565353683
 30
0.0
 10
109.1880053751432
 20
248.0196593339318
 30
0.0
 10
108.6913875693922
 20
248.0600448963888
 30
0.0
 10
108.1917667538207
 20
248.0733883765909
 30
0.0
 10
107.6921459382337
 20
248.0600448963917
 30
0.0
 10
107.1955281325314
 20
248.0196593339344
 30
0.0
 10
106.7078608233636
 20
247.9531565354108
 30
0.0
 10
106.2291657276372
 20
247.8600727288399
 30
0.0
 10
105.767969867516
 20
247.742545502262
 30
0.0
 10
105.3216115697436
 20
247.5993614794911
 30
0.0
 10
104.9005070429549
 20
247.4343968686569
 30
0.0
 10
104.4999524050323
 20
247.2451798941289
 30
0.0
 10
104.1312558138502
 20
247.0376126960054
 30
0.0
 10
103.7886395223783
 20
246.8077409346336
 30
0.0
 10
103.4830916787445
 20
246.5633576277882
 30
0.0
 10
103.2089392130708
 20
246.2993263777888
 30
0.0
 10
102.9756955480921
 20
246.0245690336494
 30
0.0
 10
102.7788165146256
 20
245.7338684818259
 30
0.0
 10
102.6257169724103
 20
245.435882827146
 30
0.0
 10
102.5131695018988
 20
245.1271822077672
 30
0.0
 10
102.446617991534
 20
244.814611570667
 30
0.0
 10
102.4231427348419
 20
244.4982125276671
 30
0.0
 10
102.4466179915229
 20
244.1818134846675
 30
0.0
 10
102.5131695018768
 20
243.8692428475682
 30
0.0
 10
102.6257169723779
 20
243.560542228191
 30
0.0
 10
102.7788165145833
 20
243.2625565735138
 30
0.0
 10
102.9756955480401
 20
242.9718560216937
 30
0.0
 10
103.2089392130097
 20
242.6970986775584
 30
0.0
 10
103.4830916786747
 20
242.433067427564
 30
0.0
 10
103.7886395223007
 20
242.1886841207247
 30
0.0
 10
104.131255813765
 20
241.9588123593598
 30
0.0
 10
104.4999524049402
 20
241.7512451612446
 30
0.0
 10
104.9005070428565
 20
241.562028186726
 30
0.0
 10
105.3216115696393
 20
241.3970635759028
 30
0.0
 10
105.7679698674062
 20
241.2538795531441
 30
0.0
 10
106.2291657275225
 20
241.1363523265805
 30
0.0
 10
106.7078608232441
 20
241.0432685200257
 30
0.0
 10
107.1955281324072
 20
240.9767657215211
 30
0.0
 10
107.6921459381057
 20
240.9363801590845
 30
0.0
 10
108.1917667536849
 20
240.9230366789097
 30
0.0
 10
108.6913875692629
 20
240.9363801591367
 30
0.0
 10
109.1880053749649
 20
240.9767657216307
 30
0.0
 10
109.6756726841152
 20
241.0432685202003
 30
0.0
 10
110.1543677798803
 20
241.1363523268425
 30
0.0
 10
110.6155636398314
 20
241.2538795534828
 30
0.0
 10
111.0619219381744
 20
241.3970635764495
 30
0.0
 10
111.4830264628455
 20
241.5620281871219
 30
0.0
 10
111.8835811081437
 20
241.7512451628927
 30
0.0
 10
112.2522776727283
 20
241.9588123574034
 30
0.0
 10
112.5948940563742
 20
242.1886841323206
 30
0.0
 10
112.9004415704315
 20
242.4330673920003
 30
0.0
 10
113.1745951715212
 20
242.6970988059435
 30
0.0
 10
113.4078347804454
 20
242.9718555661905
 30
0.0
 10
113.6047278370606
 20
243.2625581387192
 30
0.0
 10
113.7577769182357
 20
243.5605365244924
 30
0.0
 10
113.8705022133198
 20
243.8692627623077
 30
0.0
 10
113.936403158454
 20
244.1817396793058
 30
0.0
 10
113.9622546682822
 20
244.4984810478836
 30
0.0
 10
113.9408416015668
 20
244.7069386026256
 30
0.0
 10
113.9301350729635
 20
244.8111673788511
 30
0.0
 11
113.9301350729635
 21
244.8111673788511
 31
0.0
 11
113.8631395312608
 21
245.1251814024643
 31
0.0
 11
113.7541846991164
 21
245.4269269233341
 31
0.0
 11
113.5987598325391
 21
245.7304506747296
 31
0.0
 11
113.4085241084334
 21
246.0130115339126
 31
0.0
 11
113.1700308118781
 21
246.2951531792585
 31
0.0
 11
112.9046936827732
 21
246.5517404246388
 31
0.0
 11
112.5915323255515
 21
246.8032551483855
 31
0.0
 11
112.2585052063706
 21
247.0273760039788
 31
0.0
 11
111.8811768436524
 21
247.240611076794
 31
0.0
 11
111.4896091744589
 21
247.4260314317448
 31
0.0
 11
111.0602758227197
 21
247.5948074931918
 31
0.0
 11
110.6211867342192
 21
247.735939055862
 31
0.0
 11
110.1533408438184
 21
247.8555615504131
 31
0.0
 11
109.6794088163196
 21
247.9478608710793
 31
0.0
 11
109.1875121096259
 21
248.0151841888525
 31
0.0
 11
108.6926925576436
 21
248.0554403772596
 31
0.0
 11
108.191766743864
 21
248.0689267415569
 31
0.0
 11
107.6908409300844
 21
248.0554403772596
 31
0.0
 11
107.196021378102
 21
248.0151841888525
 31
0.0
 11
106.7041246714084
 21
247.9478608710792
 31
0.0
 11
106.2301926439096
 21
247.8555615504131
 31
0.0
 11
105.7623467535088
 21
247.735939055862
 31
0.0
 11
105.3232576650084
 21
247.5948074931918
 31
0.0
 11
104.8939243132692
 21
247.4260314317449
 31
0.0
 11
104.5023566440757
 21
247.240611076794
 31
0.0
 11
104.1250282813575
 21
247.0273760039787
 31
0.0
 11
103.7920011621766
 21
246.8032551483854
 31
0.0
 11
103.4788398049549
 21
246.5517404246386
 31
0.0
 11
103.2135026758499
 21
246.2951531792584
 31
0.0
 11
102.9750093792946
 21
246.0130115339127
 31
0.0
 11
102.784773655189
 21
245.7304506747298
 31
0.0
 11
102.6293487886117
 21
245.4269269233341
 31
0.0
 11
102.5203939564673
 21
245.1251814024642
 31
0.0
 11
102.4533984147645
 21
244.8111673788511
 31
0.0
 11
102.4309074329625
 21
244.4982125272854
 31
0.0
 11
102.4533984147644
 21
244.1852576757198
 31
0.0
 11
102.5203939564671
 21
243.8712436521066
 31
0.0
 11
102.6293487886116
 21
243.5694981312366
 31
0.0
 11
102.7847736551889
 21
243.265974379841
 31
0.0
 11
102.9750093792946
 21
242.9834135206581
 31
0.0
 11
103.2135026758498
 21
242.7012718753124
 31
0.0
 11
103.4788398049548
 21
242.4446846299322
 31
0.0
 11
103.7920011621765
 21
242.1931699061855
 31
0.0
 11
104.1250282813574
 21
241.9690490505921
 31
0.0
 11
104.5023566440757
 21
241.7558139777769
 31
0.0
 11
104.8939243132692
 21
241.5703936228261
 31
0.0
 11
105.3232576650084
 21
241.4016175613791
 31
0.0
 11
105.7623467535088
 21
241.2604859987089
 31
0.0
 11
106.2301926439097
 21
241.1408635041577
 31
0.0
 11
106.7041246714084
 21
241.0485641834916
 31
0.0
 11
107.196021378102
 21
240.9812408657185
 31
0.0
 11
107.6908409300843
 21
240.9409846773113
 31
0.0
 11
108.1917667438639
 21
240.927498313014
 31
0.0
 11
108.6926925576436
 21
240.9409846773113
 31
0.0
 11
109.1875121096259
 21
240.9812408657183
 31
0.0
 11
109.6794088163196
 21
241.0485641834916
 31
0.0
 11
110.1533408438184
 21
241.1408635041577
 31
0.0
 11
110.6211867342192
 21
241.2604859987089
 31
0.0
 11
111.0602758227197
 21
241.4016175613792
 31
0.0
 11
111.4896091744589
 21
241.570393622826
 31
0.0
 11
111.8811768436524
 21
241.7558139777769
 31
0.0
 11
112.2585052063706
 21
241.9690490505921
 31
0.0
 11
112.5915323255515
 21
242.1931699061855
 31
0.0
 11
112.9046936827732
 21
242.4446846299322
 31
0.0
 11
113.1700308118781
 21
242.7012718753125
 31
0.0
 11
113.4085241084334
 21
242.9834135206581
 31
0.0
 11
113.598759832539
 21
243.265974379841
 31
0.0
 11
113.7541846991164
 21
243.5694981312367
 31
0.0
 11
113.8631395312608
 21
243.8712436521066
 31
0.0
 11
113.9301350729635
 21
244.1852576757197
 31
0.0
 11
113.9526260547654
 21
244.4982125272854
 31
0.0
 11
113.9301350729635
 21
244.8111673788511
 31
0.0
  0
SPLINE
  5
244
330
5F
100
AcDbEntity
  8
1
  6
Continuous
 62
     7
100
AcDbSpline
210
0.0
220
0.0
230
1.0
 70
    11
 71
     3
 72
    79
 73
    75
 74
    73
 42
0.000000001
 43
0.0000000001
 44
0.00000001
 40
0.0
 40
0.0
 40
0.0
 40
0.0
 40
0.3210813056649133
 40
0.6418951396081614
 40
0.9828988891663508
 40
1.323531051596538
 40
1.692967055112427
 40
2.062075178394408
 40
2.463733854380044
 40
2.865152862487641
 40
3.298564779288438
 40
3.731815223728943
 40
4.193131260568797
 40
4.654344167617063
 40
5.137240966498893
 40
5.620077099452202
 40
6.116559525296389
 40
6.613013903592175
 40
7.114121230352367
 40
7.615228557112283
 40
8.111682935406861
 40
8.608165361248023
 40
9.091001494194757
 40
9.573898293063756
 40
10.03511120009045
 40
10.49642723689458
 40
10.92967768128247
 40
11.36308959800327
 40
11.7645086060019
 40
12.16616728182977
 40
12.53527540490457
 40
12.90471140812299
 40
13.24534357014032
 40
13.58634731899446
 40
13.90716115088648
 40
14.22824246386904
 40
14.54200444896835
 40
14.85576643406654
 40
15.17684774704574
 40
15.49766157893251
 40
15.83866532777956
 40
16.17929748978876
 40
16.54873349299773
 40
16.91784161606286
 40
17.31950029188038
 40
17.72091929986904
 40
18.15433121657954
 40
18.58758166095768
 40
19.04889769775221
 40
19.5101106047701
 40
19.99300740363062
 40
20.47584353656955
 40
20.97232596240345
 40
21.46878034069166
 40
21.96988766744613
 40
22.47099499420186
 40
22.96744937249428
 40
23.46393179833609
 40
23.94676793128816
 40
24.42966473016972
 40
24.89087763721866
 40
25.35219367405959
 40
25.78544411850121
 40
26.21885603530207
 40
26.6202750434074
 40
27.02193371938506
 40
27.3910418426487
 40
27.76047784612176
 40
28.10111000845228
 40
28.44211375771927
 40
28.76292759014595
 40
29.08400890392561
 40
29.39777089116754
 40
29.71153286919171
 40
29.71153286919171
 40
29.71153286919171
 40
29.71153286919171
 10
116.4533984147645
 20
244.8111673788511
 30
0.0
 10
116.4726782655138
 20
244.916628461915
 30
0.0
 10
116.5112218975813
 20
245.1274627770858
 30
0.0
 10
116.626275209733
 20
245.4358024001451
 30
0.0
 10
116.7786636755803
 20
245.7338904947012
 30
0.0
 10
116.9757403200363
 20
246.0245625790191
 30
0.0
 10
117.2089268298637
 20
246.2993281574465
 30
0.0
 10
117.4830952964115
 20
246.5633571026843
 30
0.0
 10
117.7886384964953
 20
246.8077410787598
 30
0.0
 10
118.1312560873879
 20
247.0376126531557
 30
0.0
 10
118.4999523041541
 20
247.2451799053902
 30
0.0
 10
118.9005070462912
 20
247.4343968650382
 30
0.0
 10
119.3216115434402
 20
247.5993614802413
 30
0.0
 10
119.7679698493999
 20
247.7425455019035
 30
0.0
 10
120.2291657072322
 20
247.8600727288589
 30
0.0
 10
120.7078608035879
 20
247.9531565353684
 30
0.0
 10
121.1955281125847
 20
248.0196593339318
 30
0.0
 10
121.6921459183358
 20
248.0600448963887
 30
0.0
 10
122.1917667339072
 20
248.0733883765909
 30
0.0
 10
122.6913875494944
 20
248.0600448963918
 30
0.0
 10
123.1880053551966
 20
248.0196593339344
 30
0.0
 10
123.6756726643645
 20
247.9531565354109
 30
0.0
 10
124.1543677600908
 20
247.8600727288398
 30
0.0
 10
124.6155636202121
 20
247.742545502262
 30
0.0
 10
125.0619219179845
 20
247.599361479491
 30
0.0
 10
125.4830264447731
 20
247.4343968686569
 30
0.0
 10
125.8835810826958
 20
247.2451798941288
 30
0.0
 10
126.2522776738779
 20
247.0376126960055
 30
0.0
 10
126.5948939653498
 20
246.8077409346337
 30
0.0
 10
126.9004418089836
 20
246.5633576277881
 30
0.0
 10
127.1745942746573
 20
246.2993263777888
 30
0.0
 10
127.4078379396359
 20
246.0245690336493
 30
0.0
 10
127.6047169731024
 20
245.7338684818259
 30
0.0
 10
127.7578165153178
 20
245.435882827146
 30
0.0
 10
127.8703639858292
 20
245.1271822077672
 30
0.0
 10
127.936915496194
 20
244.814611570667
 30
0.0
 10
127.9603907528861
 20
244.4982125276671
 30
0.0
 10
127.9369154962052
 20
244.1818134846675
 30
0.0
 10
127.8703639858512
 20
243.8692428475681
 30
0.0
 10
127.7578165153502
 20
243.5605422281912
 30
0.0
 10
127.6047169731447
 20
243.2625565735137
 30
0.0
 10
127.407837939688
 20
242.9718560216937
 30
0.0
 10
127.1745942747183
 20
242.6970986775584
 30
0.0
 10
126.9004418090533
 20
242.4330674275641
 30
0.0
 10
126.5948939654274
 20
242.1886841207245
 30
0.0
 10
126.2522776739631
 20
241.9588123593599
 30
0.0
 10
125.8835810827878
 20
241.7512451612446
 30
0.0
 10
125.4830264448716
 20
241.562028186726
 30
0.0
 10
125.0619219180888
 20
241.3970635759028
 30
0.0
 10
124.6155636203218
 20
241.2538795531441
 30
0.0
 10
124.1543677602055
 20
241.1363523265804
 30
0.0
 10
123.6756726644838
 20
241.0432685200258
 30
0.0
 10
123.1880053553208
 20
240.9767657215211
 30
0.0
 10
122.6913875496223
 20
240.9363801590845
 30
0.0
 10
122.1917667340431
 20
240.9230366789098
 30
0.0
 10
121.692145918465
 20
240.9363801591366
 30
0.0
 10
121.1955281127632
 20
240.9767657216306
 30
0.0
 10
120.7078608036128
 20
241.0432685202004
 30
0.0
 10
120.2291657078477
 20
241.1363523268425
 30
0.0
 10
119.7679698478966
 20
241.2538795534828
 30
0.0
 10
119.3216115495537
 20
241.3970635764495
 30
0.0
 10
118.9005070248827
 20
241.5620281871219
 30
0.0
 10
118.4999523795844
 20
241.7512451628926
 30
0.0
 10
118.1312558149999
 20
241.9588123574034
 30
0.0
 10
117.7886394313538
 20
242.1886841323206
 30
0.0
 10
117.4830919172965
 20
242.4330673920003
 30
0.0
 10
117.2089383162068
 20
242.6970988059435
 30
0.0
 10
116.9756987072827
 20
242.9718555661904
 30
0.0
 10
116.7788056506675
 20
243.2625581387193
 30
0.0
 10
116.6257565694923
 20
243.5605365244925
 30
0.0
 10
116.5130312744084
 20
243.8692627623076
 30
0.0
 10
116.447130329274
 20
244.1817396793058
 30
0.0
 10
116.4212788194458
 20
244.4984810478836
 30
0.0
 10
116.4426918861613
 20
244.7069386026256
 30
0.0
 10
116.4533984147645
 20
244.8111673788511
 30
0.0
 11
116.4533984147645
 21
244.8111673788511
 31
0.0
 11
116.5203939564673
 21
245.1251814024643
 31
0.0
 11
116.6293487886117
 21
245.4269269233341
 31
0.0
 11
116.7847736551889
 21
245.7304506747296
 31
0.0
 11
116.9750093792946
 21
246.0130115339126
 31
0.0
 11
117.2135026758499
 21
246.2951531792585
 31
0.0
 11
117.4788398049549
 21
246.5517404246388
 31
0.0
 11
117.7920011621766
 21
246.8032551483855
 31
0.0
 11
118.1250282813575
 21
247.0273760039788
 31
0.0
 11
118.5023566440757
 21
247.240611076794
 31
0.0
 11
118.8939243132692
 21
247.4260314317448
 31
0.0
 11
119.3232576650084
 21
247.5948074931918
 31
0.0
 11
119.7623467535088
 21
247.735939055862
 31
0.0
 11
120.2301926439097
 21
247.8555615504131
 31
0.0
 11
120.7041246714084
 21
247.9478608710793
 31
0.0
 11
121.196021378102
 21
248.0151841888525
 31
0.0
 11
121.6908409300844
 21
248.0554403772596
 31
0.0
 11
122.191766743864
 21
248.0689267415569
 31
0.0
 11
122.6926925576436
 21
248.0554403772596
 31
0.0
 11
123.187512109626
 21
248.0151841888525
 31
0.0
 11
123.6794088163197
 21
247.9478608710792
 31
0.0
 11
124.1533408438185
 21
247.8555615504131
 31
0.0
 11
124.6211867342193
 21
247.735939055862
 31
0.0
 11
125.0602758227197
 21
247.5948074931918
 31
0.0
 11
125.4896091744589
 21
247.4260314317449
 31
0.0
 11
125.8811768436524
 21
247.240611076794
 31
0.0
 11
126.2585052063707
 21
247.0273760039787
 31
0.0
 11
126.5915323255515
 21
246.8032551483854
 31
0.0
 11
126.9046936827732
 21
246.5517404246386
 31
0.0
 11
127.1700308118781
 21
246.2951531792584
 31
0.0
 11
127.4085241084334
 21
246.0130115339127
 31
0.0
 11
127.5987598325391
 21
245.7304506747298
 31
0.0
 11
127.7541846991164
 21
245.4269269233341
 31
0.0
 11
127.8631395312607
 21
245.1251814024642
 31
0.0
 11
127.9301350729635
 21
244.8111673788511
 31
0.0
 11
127.9526260547655
 21
244.4982125272854
 31
0.0
 11
127.9301350729637
 21
244.1852576757198
 31
0.0
 11
127.8631395312609
 21
243.8712436521066
 31
0.0
 11
127.7541846991165
 21
243.5694981312366
 31
0.0
 11
127.5987598325391
 21
243.265974379841
 31
0.0
 11
127.4085241084335
 21
242.9834135206581
 31
0.0
 11
127.1700308118782
 21
242.7012718753124
 31
0.0
 11
126.9046936827733
 21
242.4446846299322
 31
0.0
 11
126.5915323255516
 21
242.1931699061855
 31
0.0
 11
126.2585052063707
 21
241.9690490505921
 31
0.0
 11
125.8811768436524
 21
241.7558139777769
 31
0.0
 11
125.4896091744589
 21
241.5703936228261
 31
0.0
 11
125.0602758227197
 21
241.4016175613791
 31
0.0
 11
124.6211867342192
 21
241.2604859987089
 31
0.0
 11
124.1533408438183
 21
241.1408635041577
 31
0.0
 11
123.6794088163196
 21
241.0485641834916
 31
0.0
 11
123.187512109626
 21
240.9812408657185
 31
0.0
 11
122.6926925576437
 21
240.9409846773113
 31
0.0
 11
122.1917667438641
 21
240.927498313014
 31
0.0
 11
121.6908409300844
 21
240.9409846773113
 31
0.0
 11
121.196021378102
 21
240.9812408657183
 31
0.0
 11
120.7041246714084
 21
241.0485641834916
 31
0.0
 11
120.2301926439097
 21
241.1408635041577
 31
0.0
 11
119.7623467535088
 21
241.2604859987089
 31
0.0
 11
119.3232576650084
 21
241.4016175613792
 31
0.0
 11
118.8939243132692
 21
241.570393622826
 31
0.0
 11
118.5023566440757
 21
241.7558139777769
 31
0.0
 11
118.1250282813575
 21
241.9690490505921
 31
0.0
 11
117.7920011621766
 21
242.1931699061855
 31
0.0
 11
117.4788398049549
 21
242.4446846299322
 31
0.0
 11
117.21350267585
 21
242.7012718753125
 31
0.0
 11
116.9750093792947
 21
242.9834135206581
 31
0.0
 11
116.7847736551891
 21
243.265974379841
 31
0.0
 11
116.6293487886117
 21
243.5694981312367
 31
0.0
 11
116.5203939564673
 21
243.8712436521066
 31
0.0
 11
116.4533984147645
 21
244.1852576757197
 31
0.0
 11
116.4309074329626
 21
244.4982125272854
 31
0.0
 11
116.4533984147645
 21
244.8111673788511
 31
0.0
  0
SPLINE
  5
245
330
5F
100
AcDbEntity
  8
1
  6
Continuous
 62
     7
100
AcDbSpline
210
0.0
220
0.0
230
1.0
 70
    11
 71
     3
 72
    79
 73
    75
 74
    73
 42
0.000000001
 43
0.0000000001
 44
0.00000001
 40
0.0
 40
0.0
 40
0.0
 40
0.0
 40
0.3261189815589997
 40
0.6517242227864635
 40
1.00757073008557
 40
1.362786574479123
 40
1.759886311236911
 40
2.156516711364759
 40
2.599210004995366
 40
3.041603623772152
 40
3.52830720325305
 40
4.014826845817823
 40
4.539616311192538
 40
5.06429550627671
 40
5.618233629058119
 40
6.172109434340707
 40
6.744280965421709
 40
7.316424320423807
 40
7.894787041172099
 40
8.473149761923302
 40
9.045293116933786
 40
9.617464648027314
 40
10.17134045332463
 40
10.72527857612084
 40
11.24995777121498
 40
11.77474723659075
 40
12.2612668791416
 40
12.74797045858429
 40
13.19036407729349
 40
13.6330573708065
 40
14.02968777076447
 40
14.42678750725395
 40
14.78200335126247
 40
15.13784985787364
 40
15.46345509697313
 40
15.78957408501963
 40
16.10448971847109
 40
16.4194053519215
 40
16.74552433996502
 40
17.0711295790599
 40
17.42697608566494
 40
17.78219192966673
 40
18.17929166614854
 40
18.57592206609921
 40
19.01861535960447
 40
19.46100897830643
 40
19.94771255774195
 40
20.43423220028644
 40
20.95902166565607
 40
21.48370086074491
 40
22.03763898353634
 40
22.5915147888299
 40
23.16368631992094
 40
23.73582967492996
 40
24.31419239568116
 40
24.89255511643114
 40
25.46469847143696
 40
26.03687000252386
 40
26.5907458078146
 40
27.14468393060674
 40
27.66936312570353
 40
28.1941525910933
 40
28.680672233674
 40
29.16737581317161
 40
29.60976943196301
 40
30.05246272560412
 40
30.44909312573247
 40
30.84619286246803
 40
31.20140870678652
 40
31.55725521382503
 40
31.88286045347693
 40
32.20897944233172
 40
32.5238950779802
 40
32.83881070538162
 40
32.83881070538162
 40
32.83881070538162
 40
32.83881070538162
 10
340.8339008660482
 20
244.8120290139236
 30
0.0
 10
340.8113435925101
 20
244.9186187700368
 30
0.0
 10
340.7662645901372
 20
245.1316303720813
 30
0.0
 10
340.6317368174856
 20
245.4414488656416
 30
0.0
 10
340.4549927278939
 20
245.7392327127
 30
0.0
 10
340.2261113149432
 20
246.0303787567412
 30
0.0
 10
339.9568934052256
 20
246.3037709741409
 30
0.0
 10
339.6396232892848
 20
246.5677307014617
 30
0.0
 10
339.2875708685984
 20
246.8107369026879
 30
0.0
 10
338.8916975008023
 20
247.0403911534033
 30
0.0
 10
338.4669890861425
 20
247.2469421125517
 30
0.0
 10
338.004471712792
 20
247.4359448677409
 30
0.0
 10
337.5192312110071
 20
247.600258662368
 30
0.0
 10
337.0039897229768
 20
247.7432741641715
 30
0.0
 10
336.4723244622176
 20
247.8604265997683
 30
0.0
 10
335.9198754126165
 20
247.9534004907371
 30
0.0
 10
335.3574845726797
 20
248.0197195496397
 30
0.0
 10
334.7844679224291
 20
248.0600658076199
 30
0.0
 10
334.2081217191534
 20
248.0733561393364
 30
0.0
 10
333.6317755158552
 20
248.0600658075039
 30
0.0
 10
333.0587588656713
 20
248.0197195493994
 30
0.0
 10
332.4963680254941
 20
247.953400490435
 30
0.0
 10
331.9439189767634
 20
247.8604265992322
 30
0.0
 10
331.4122537128396
 20
247.7432741641042
 30
0.0
 10
330.8970122360306
 20
247.6002586603699
 30
0.0
 10
330.4117716938611
 20
247.4359448725476
 30
0.0
 10
329.9492544607878
 20
247.2469420937427
 30
0.0
 10
329.5245455465868
 20
247.040391218901
 30
0.0
 10
329.1286738822291
 20
246.8107366811225
 30
0.0
 10
328.776615447465
 20
246.5677314940845
 30
0.0
 10
328.4593655707809
 20
246.3037683546806
 30
0.0
 10
328.1900764416196
 20
246.0303881453873
 30
0.0
 10
327.9614344495017
 20
245.7392017351787
 30
0.0
 10
327.7838417242533
 20
245.44156097069
 30
0.0
 10
327.6522286526169
 20
245.131251052814
 30
0.0
 10
327.5748036765372
 20
244.8170924759057
 30
0.0
 10
327.5468435594204
 20
244.4982125276024
 30
0.0
 10
327.5748036765291
 20
244.1793325792995
 30
0.0
 10
327.6522286526011
 20
243.8651740023923
 30
0.0
 10
327.78384172423
 20
243.5548640845179
 30
0.0
 10
327.9614344494714
 20
243.2572233200319
 30
0.0
 10
328.190076441583
 20
242.9660369098269
 30
0.0
 10
328.4593655707384
 20
242.6926567005378
 30
0.0
 10
328.7766154474172
 20
242.4286935611393
 30
0.0
 10
329.1286738821765
 20
242.1856883741075
 30
0.0
 10
329.52454554653
 20
241.9560338363365
 30
0.0
 10
329.9492544607276
 20
241.7494829615035
 30
0.0
 10
330.4117716937982
 20
241.5604801827091
 30
0.0
 10
330.8970122359657
 20
241.396166394899
 30
0.0
 10
331.4122537127729
 20
241.2531508911792
 30
0.0
 10
331.9439189766958
 20
241.1359984560681
 30
0.0
 10
332.4963680254264
 20
241.0430245648852
 30
0.0
 10
333.0587588656035
 20
240.9767055059442
 30
0.0
 10
333.6317755157891
 20
240.9363592478669
 30
0.0
 10
334.2081217190839
 20
240.9230689160668
 30
0.0
 10
334.784467922377
 20
240.9363592478159
 30
0.0
 10
335.357484572568
 20
240.9767055058489
 30
0.0
 10
335.9198754127288
 20
241.0430245647538
 30
0.0
 10
336.4723244615216
 20
241.1359984559309
 30
0.0
 10
337.003989725222
 20
241.2531508910117
 30
0.0
 10
337.5192312028211
 20
241.3961663949013
 30
0.0
 10
338.0044717421391
 20
241.5604801823026
 30
0.0
 10
338.4669889851012
 20
241.749482962878
 30
0.0
 10
338.8916978640565
 20
241.9560338319294
 30
0.0
 10
339.2875696485511
 20
242.1856883901727
 30
0.0
 10
339.6396276590795
 20
242.4286935059536
 30
0.0
 10
339.9568789633173
 20
242.6926568863893
 30
0.0
 10
340.2261630688846
 20
242.9660362491117
 30
0.0
 10
340.4548219486859
 20
243.2572255071255
 30
0.0
 10
340.6323548144575
 20
243.5548561798101
 30
0.0
 10
340.764173477243
 20
243.8652007614791
 30
0.0
 10
340.8408533377734
 20
244.1792337119925
 30
0.0
 10
340.8715052399024
 20
244.4985674990312
 30
0.0
 10
340.8464356536633
 20
244.7075418428703
 30
0.0
 10
340.8339008660482
 20
244.8120290139236
 30
0.0
 11
340.8339008660482
 21
244.8120290139236
 31
0.0
 11
340.7557282034945
 21
245.1286401780829
 31
0.0
 11
340.6300219484179
 21
245.4290011429746
 31
0.0
 11
340.4484655649829
 21
245.7350469172772
 31
0.0
 11
340.230103505088
 21
246.015218840722
 31
0.0
 11
339.9523559557127
 21
246.2990224692891
 31
0.0
 11
339.6480564035332
 21
246.5534187286028
 31
0.0
 11
339.2844087782142
 21
246.8058821056609
 31
0.0
 11
338.9020757713353
 21
247.028443525832
 31
0.0
 11
338.4648072105601
 21
247.2421643250475
 31
0.0
 11
338.014611782861
 21
247.4266241837589
 31
0.0
 11
337.5177720612465
 21
247.5956042831751
 31
0.0
 11
337.012285393327
 21
247.7362154005125
 31
0.0
 11
336.47142758632
 21
247.8558827581376
 31
0.0
 11
335.9252572782031
 21
247.9479501368248
 31
0.0
 11
335.3570573111638
 21
248.0152484164679
 31
0.0
 11
334.7863276331131
 21
248.0554436060827
 31
0.0
 11
334.2081217091585
 21
248.0689100924214
 31
0.0
 11
333.6299157852039
 21
248.0554436060827
 31
0.0
 11
333.0591861071532
 21
248.0152484164678
 31
0.0
 11
332.490986140114
 21
247.9479501368248
 31
0.0
 11
331.9448158319973
 21
247.8558827581376
 31
0.0
 11
331.4039580249901
 21
247.7362154005125
 31
0.0
 11
330.8984713570707
 21
247.5956042831751
 31
0.0
 11
330.4016316354561
 21
247.4266241837588
 31
0.0
 11
329.951436207757
 21
247.2421643250475
 31
0.0
 11
329.5141676469819
 21
247.028443525832
 31
0.0
 11
329.1318346401029
 21
246.8058821056609
 31
0.0
 11
328.7681870147838
 21
246.5534187286029
 31
0.0
 11
328.4638874626045
 21
246.2990224692891
 31
0.0
 11
328.1861399132292
 21
246.0152188407221
 31
0.0
 11
327.9677778533343
 21
245.7350469172772
 31
0.0
 11
327.7862214698992
 21
245.4290011429746
 31
0.0
 11
327.6605152148226
 21
245.1286401780829
 31
0.0
 11
327.5823425522689
 21
244.8120290139236
 31
0.0
 11
327.5560543613336
 21
244.4982125272854
 31
0.0
 11
327.5823425522689
 21
244.1843960406471
 31
0.0
 11
327.6605152148227
 21
243.8677848764878
 31
0.0
 11
327.7862214698993
 21
243.5674239115961
 31
0.0
 11
327.9677778533343
 21
243.2613781372935
 31
0.0
 11
328.1861399132293
 21
242.9812062138487
 31
0.0
 11
328.4638874626045
 21
242.6974025852817
 31
0.0
 11
328.768187014784
 21
242.443006325968
 31
0.0
 11
329.131834640103
 21
242.19054294891
 31
0.0
 11
329.5141676469819
 21
241.9679815287388
 31
0.0
 11
329.951436207757
 21
241.7542607295233
 31
0.0
 11
330.4016316354562
 21
241.5698008708119
 31
0.0
 11
330.8984713570707
 21
241.4008207713957
 31
0.0
 11
331.4039580249901
 21
241.2602096540583
 31
0.0
 11
331.9448158319972
 21
241.1405422964332
 31
0.0
 11
332.4909861401139
 21
241.048474917746
 31
0.0
 11
333.0591861071532
 21
240.9811766381029
 31
0.0
 11
333.629915785204
 21
240.9409814484881
 31
0.0
 11
334.2081217091586
 21
240.9275149621495
 31
0.0
 11
334.7863276331132
 21
240.9409814484881
 31
0.0
 11
335.3570573111639
 21
240.9811766381029
 31
0.0
 11
335.9252572782032
 21
241.048474917746
 31
0.0
 11
336.47142758632
 21
241.1405422964332
 31
0.0
 11
337.0122853933271
 21
241.2602096540583
 31
0.0
 11
337.5177720612465
 21
241.4008207713957
 31
0.0
 11
338.014611782861
 21
241.5698008708119
 31
0.0
 11
338.4648072105602
 21
241.7542607295233
 31
0.0
 11
338.9020757713354
 21
241.9679815287388
 31
0.0
 11
339.2844087782144
 21
242.1905429489099
 31
0.0
 11
339.6480564035334
 21
242.4430063259679
 31
0.0
 11
339.9523559557127
 21
242.6974025852817
 31
0.0
 11
340.230103505088
 21
242.9812062138488
 31
0.0
 11
340.4484655649829
 21
243.2613781372935
 31
0.0
 11
340.6300219484179
 21
243.5674239115962
 31
0.0
 11
340.7557282034945
 21
243.8677848764878
 31
0.0
 11
340.8339008660482
 21
244.184396040647
 31
0.0
 11
340.8601890569835
 21
244.4982125272853
 31
0.0
 11
340.8339008660482
 21
244.8120290139236
 31
0.0
  0
SPLINE
  5
246
330
5F
100
AcDbEntity
  8
1
  6
Continuous
 62
     7
100
AcDbSpline
210
0.0
220
0.0
230
1.0
 70
    11
 71
     3
 72
    79
 73
    75
 74
    73
 42
0.000000001
 43
0.0000000001
 44
0.00000001
 40
0.0
 40
0.0
 40
0.0
 40
0.0
 40
0.2910229063172713
 40
0.5820342199790798
 40
0.8749339259796192
 40
1.167812540311821
 40
1.463561181730126
 40
1.759282799553851
 40
2.058487804326665
 40
2.357663878865631
 40
2.660503334662507
 40
2.963315618548049
 40
3.269530819653597
 40
3.575723462230675
 40
3.884662737575185
 40
4.193586021287271
 40
4.504289078951594
 40
4.814983875317499
 40
5.126294424223338
 40
5.437604973118097
 40
5.748299769450896
 40
6.05900282705972
 40
6.367926110694007
 40
6.676865385937163
 40
6.983058028389912
 40
7.289273229346009
 40
7.592085513057593
 40
7.894924968652792
 40
8.194101042962567
 40
8.493306047472801
 40
8.789027664996926
 40
9.084776306062201
 40
9.377654919956184
 40
9.670554625323035
 40
9.96156593761473
 40
10.25258885279203
 40
10.54295309049231
 40
10.83331732819159
 40
11.12434024336584
 40
11.41535155565225
 40
11.7082512610118
 40
12.00112987489675
 40
12.29687851595113
 40
12.59260013346249
 40
12.89180513795833
 40
13.19098121225241
 40
13.49382066783043
 40
13.79663295152375
 40
14.10284815246041
 40
14.40904079489281
 40
14.71798007011472
 40
15.02690335372707
 40
15.33760641131319
 40
15.64830120762276
 40
15.95961175649378
 40
16.27092230537534
 40
16.58161710171656
 40
16.89232015935569
 40
17.20124344304224
 40
17.51018271836067
 40
17.81637536091121
 40
18.12259056198933
 40
18.42540284584657
 40
18.72824230161338
 40
19.02741837611955
 40
19.32662338085453
 40
19.62234499863081
 40
19.91809363998157
 40
20.21097225419777
 40
20.5038719599383
 40
20.79488327268826
 40
21.08590618851585
 40
21.3762704276038
 40
21.66663465645606
 40
21.66663465645606
 40
21.66663465645606
 40
21.66663465645606
 10
322.3738095109269
 20
248.0552817786865
 30
0.0
 10
322.470184566642
 20
248.0436061112489
 30
0.0
 10
322.6629308397099
 20
248.0202552466629
 30
0.0
 10
322.9468673470391
 20
247.9508992548972
 30
0.0
 10
323.2241316136645
 20
247.8574564977823
 30
0.0
 10
323.4928839979572
 20
247.7375495120476
 30
0.0
 10
323.7505293817917
 20
247.5935040070553
 30
0.0
 10
323.9957563292959
 20
247.4254374063667
 30
0.0
 10
324.2260196855915
 20
247.2356026734259
 30
0.0
 10
324.4402518943308
 20
247.0244665448771
 30
0.0
 10
324.6362063233039
 20
246.7946869413486
 30
0.0
 10
324.8129636671276
 20
246.5469584092208
 30
0.0
 10
324.9687345012908
 20
246.284226169475
 30
0.0
 10
325.1027029188522
 20
246.0074751579149
 30
0.0
 10
325.2136259503259
 20
245.7197431802268
 30
0.0
 10
325.3008027428834
 20
245.4223897338744
 30
0.0
 10
325.3635507531603
 20
245.118343737797
 30
0.0
 10
325.4013511325558
 20
244.8094021421041
 30
0.0
 10
325.4140282062266
 20
244.4982125368589
 30
0.0
 10
325.4013511329213
 20
244.1870229316041
 30
0.0
 10
325.3635507538906
 20
243.8780813359168
 30
0.0
 10
325.3008027439876
 20
243.5740353397585
 30
0.0
 10
325.2136259517799
 20
243.2766818936077
 30
0.0
 10
325.1027029207613
 20
242.9889499150325
 30
0.0
 10
324.9687345032847
 20
242.7121989065766
 30
0.0
 10
324.8129636706077
 20
242.4494666550851
 30
0.0
 10
324.6362063231193
 20
242.2017381660563
 30
0.0
 10
324.4402519096107
 20
241.9719584023609
 30
0.0
 10
324.2260196457368
 20
241.760822864275
 30
0.0
 10
323.9957564959011
 20
241.5709859411655
 30
0.0
 10
323.7505287885069
 20
241.4029274230848
 30
0.0
 10
323.4928862270298
 20
241.2588519213023
 30
0.0
 10
323.2241234093425
 20
241.1390558508285
 30
0.0
 10
322.9468979238554
 20
241.0452008539895
 30
0.0
 10
322.6628175705589
 20
240.9773739473974
 30
0.0
 10
322.3744500902525
 20
240.9366789857675
 30
0.0
 10
322.0837660567798
 20
240.9229131921919
 30
0.0
 10
321.7930820233072
 20
240.9366789857422
 30
0.0
 10
321.5047145430003
 20
240.9773739473471
 30
0.0
 10
321.2206341897033
 20
241.0452008539141
 30
0.0
 10
320.9434087042151
 20
241.1390558507283
 30
0.0
 10
320.6746458865269
 20
241.2588519211769
 30
0.0
 10
320.4170033250483
 20
241.4029274229349
 30
0.0
 10
320.1717756176528
 20
241.5709859409911
 30
0.0
 10
319.9415124678155
 20
241.7608228640761
 30
0.0
 10
319.7272802039395
 20
241.9719584021377
 30
0.0
 10
319.531325790429
 20
242.2017381658088
 30
0.0
 10
319.3545684429382
 20
242.4494666548137
 30
0.0
 10
319.1987976102589
 20
242.7121989062813
 30
0.0
 10
319.0648291927796
 20
242.9889499147133
 30
0.0
 10
318.9539061617581
 20
243.2766818932649
 30
0.0
 10
318.8667293695476
 20
243.5740353393918
 30
0.0
 10
318.8039813596411
 20
243.8780813355263
 30
0.0
 10
318.7661809806065
 20
244.1870229311901
 30
0.0
 10
318.7535039072972
 20
244.4982125364197
 30
0.0
 10
318.7661809809625
 20
244.8094021416452
 30
0.0
 10
318.8039813603546
 20
245.1183437372983
 30
0.0
 10
318.8667293706187
 20
245.4223897334087
 30
0.0
 10
318.9539061631923
 20
245.7197431795239
 30
0.0
 10
319.0648291945714
 20
246.0074751579776
 30
0.0
 10
319.1987976124399
 20
246.2842261665892
 30
0.0
 10
319.3545684454118
 20
246.5469584171627
 30
0.0
 10
319.5313257935715
 20
246.7946869091962
 30
0.0
 10
319.7272802063844
 20
247.0244666613084
 30
0.0
 10
319.9415124746354
 20
247.2356022416292
 30
0.0
 10
320.1717756100959
 20
247.4254390075482
 30
0.0
 10
320.4170033724317
 20
247.5934981051298
 30
0.0
 10
320.6746457319667
 20
247.7375714555404
 30
0.0
 10
320.9434092983813
 20
247.8573754800843
 30
0.0
 10
321.220632003249
 20
247.9512009130309
 30
0.0
 10
321.5047226729063
 20
248.019137477374
 30
0.0
 10
321.793051734656
 20
248.0594240336848
 30
0.0
 10
322.0838788451175
 20
248.0747107780787
 30
0.0
 10
322.2771659566847
 20
248.0617581099881
 30
0.0
 10
322.3738095109269
 20
248.0552817786865
 30
0.0
 11
322.3738095109269
 21
248.0552817786865
 31
0.0
 11
322.6619690072018
 21
248.0145578056
 31
0.0
 11
322.9450512135843
 21
247.9470889355347
 31
0.0
 11
323.2224752561281
 21
247.8531414068959
 31
0.0
 11
323.4900370082454
 21
247.7340255330965
 31
0.0
 11
323.7481693769607
 21
247.5896824036393
 31
0.0
 11
323.9921820295718
 21
247.4226222332236
 31
0.0
 11
324.2230615351027
 21
247.2323112016229
 31
0.0
 11
324.4362368300539
 21
247.0224002272674
 31
0.0
 11
324.6327711540621
 21
246.791996244141
 31
0.0
 11
324.8087446898617
 21
246.5455645214532
 31
0.0
 11
324.9649418303345
 21
246.2821822846153
 31
0.0
 11
325.0984375182987
 21
246.0066231518374
 31
0.0
 11
325.2095874438559
 21
245.7183712309401
 31
0.0
 11
325.2965640978822
 21
245.4219447528998
 31
0.0
 11
325.3593691722037
 21
245.1176555603569
 31
0.0
 11
325.3971445338753
 21
244.8092657444363
 31
0.0
 11
325.4097997300889
 21
244.4982125272854
 31
0.0
 11
325.3971445338753
 21
244.1871593101344
 31
0.0
 11
325.3593691722037
 21
243.8787694942139
 31
0.0
 11
325.2965640978822
 21
243.574480301671
 31
0.0
 11
325.2095874438559
 21
243.2780538236306
 31
0.0
 11
325.0984375182988
 21
242.9898019027334
 31
0.0
 11
324.9649418303346
 21
242.7142427699555
 31
0.0
 11
324.8087446898617
 21
242.4508605331176
 31
0.0
 11
324.6327711540621
 21
242.2044288104299
 31
0.0
 11
324.4362368300539
 21
241.9740248273034
 31
0.0
 11
324.2230615351027
 21
241.764113852948
 31
0.0
 11
323.9921820295718
 21
241.5738028213472
 31
0.0
 11
323.7481693769606
 21
241.4067426509314
 31
0.0
 11
323.4900370082454
 21
241.2623995214743
 31
0.0
 11
323.2224752561281
 21
241.1432836476749
 31
0.0
 11
322.9450512135842
 21
241.0493361190361
 31
0.0
 11
322.6619690072017
 21
240.9818672489708
 31
0.0
 11
322.3738095109269
 21
240.9411432758843
 31
0.0
 11
322.0837660561765
 21
240.927498313014
 31
0.0
 11
321.7937226014261
 21
240.9411432758843
 31
0.0
 11
321.5055631051511
 21
240.9818672489708
 31
0.0
 11
321.2224808987687
 21
241.0493361190361
 31
0.0
 11
320.9450568562249
 21
241.1432836476748
 31
0.0
 11
320.6774951041074
 21
241.2623995214742
 31
0.0
 11
320.4193627353922
 21
241.4067426509314
 31
0.0
 11
320.1753500827811
 21
241.5738028213472
 31
0.0
 11
319.9444705772502
 21
241.764113852948
 31
0.0
 11
319.7312952822991
 21
241.9740248273035
 31
0.0
 11
319.5347609582908
 21
242.2044288104299
 31
0.0
 11
319.3587874224912
 21
242.4508605331176
 31
0.0
 11
319.2025902820184
 21
242.7142427699555
 31
0.0
 11
319.0690945940541
 21
242.9898019027334
 31
0.0
 11
318.9579446684971
 21
243.2780538236306
 31
0.0
 11
318.8709680144708
 21
243.574480301671
 31
0.0
 11
318.8081629401494
 21
243.8787694942139
 31
0.0
 11
318.7703875784777
 21
244.1871593101345
 31
0.0
 11
318.7577323822641
 21
244.4982125272854
 31
0.0
 11
318.7703875784777
 21
244.8092657444364
 31
0.0
 11
318.8081629401494
 21
245.117655560357
 31
0.0
 11
318.8709680144708
 21
245.4219447528998
 31
0.0
 11
318.9579446684971
 21
245.7183712309402
 31
0.0
 11
319.0690945940542
 21
246.0066231518374
 31
0.0
 11
319.2025902820184
 21
246.2821822846153
 31
0.0
 11
319.3587874224912
 21
246.5455645214531
 31
0.0
 11
319.5347609582909
 21
246.7919962441409
 31
0.0
 11
319.7312952822991
 21
247.0224002272674
 31
0.0
 11
319.9444705772502
 21
247.2323112016229
 31
0.0
 11
320.1753500827812
 21
247.4226222332237
 31
0.0
 11
320.4193627353923
 21
247.5896824036393
 31
0.0
 11
320.6774951041074
 21
247.7340255330965
 31
0.0
 11
320.9450568562248
 21
247.8531414068959
 31
0.0
 11
321.2224808987686
 21
247.9470889355347
 31
0.0
 11
321.5055631051511
 21
248.0145578056001
 31
0.0
 11
321.7937226014261
 21
248.0552817786865
 31
0.0
 11
322.0837660561765
 21
248.0689267415568
 31
0.0
 11
322.3738095109269
 21
248.0552817786865
 31
0.0
  0
SPLINE
  5
247
330
5F
100
AcDbEntity
  8
1
  6
Continuous
 62
     7
100
AcDbSpline
210
0.0
220
0.0
230
1.0
 70
    11
 71
     3
 72
    79
 73
    75
 74
    73
 42
0.000000001
 43
0.0000000001
 44
0.00000001
 40
0.0
 40
0.0
 40
0.0
 40
0.0
 40
0.291022906317215
 40
0.5820342199789681
 40
0.8749339259795613
 40
1.167812540311816
 40
1.46356118173007
 40
1.759282799553749
 40
2.058487804326519
 40
2.357663878865525
 40
2.660503334662438
 40
2.963315618547981
 40
3.2695308196535
 40
3.575723462230577
 40
3.884662737575108
 40
4.193586021287194
 40
4.504289078951516
 40
4.814983875317422
 40
5.126294424223262
 40
5.437604973118024
 40
5.748299769450823
 40
6.059002827059635
 40
6.367926110693955
 40
6.676865385937131
 40
6.98305802838988
 40
7.28927322934592
 40
7.592085513057536
 40
7.894924968652735
 40
8.19410104296255
 40
8.493306047472698
 40
8.789027664996729
 40
9.084776306062004
 40
9.377654919955987
 40
9.670554625322838
 40
9.961565937614589
 40
10.25258885279195
 40
10.54295309049223
 40
10.83331732819151
 40
11.1243402433657
 40
11.41535155565222
 40
11.70825126101182
 40
12.00112987489667
 40
12.296878515951
 40
12.59260013346236
 40
12.8918051379582
 40
13.19098121225232
 40
13.4938206678303
 40
13.79663295152369
 40
14.10284815246032
 40
14.40904079489269
 40
14.7179800701146
 40
15.02690335372697
 40
15.33760641131311
 40
15.64830120762266
 40
15.95961175649369
 40
16.27092230537525
 40
16.58161710171647
 40
16.89232015935559
 40
17.20124344304213
 40
17.51018271836055
 40
17.81637536091112
 40
18.12259056198928
 40
18.42540284584651
 40
18.72824230161333
 40
19.02741837611957
 40
19.32662338085442
 40
19.6223449986307
 40
19.91809363998151
 40
20.21097225419777
 40
20.50387195993829
 40
20.79488327268831
 40
21.0859061885159
 40
21.37627042760374
 40
21.66663465645594
 40
21.66663465645594
 40
21.66663465645594
 40
21.66663465645594
 10
346.0424339073904
 20
248.0552817786865
 30
0.0
 10
345.9460588516753
 20
248.0436061112489
 30
0.0
 10
345.7533125786076
 20
248.0202552466628
 30
0.0
 10
345.4693760712782
 20
247.9508992548973
 30
0.0
 10
345.1921118046529
 20
247.8574564977822
 30
0.0
 10
344.9233594203603
 20
247.7375495120476
 30
0.0
 10
344.6657140365256
 20
247.5935040070553
 30
0.0
 10
344.4204870890217
 20
247.4254374063667
 30
0.0
 10
344.190223732726
 20
247.2356026734259
 30
0.0
 10
343.9759915239866
 20
247.0244665448771
 30
0.0
 10
343.7800370950135
 20
246.7946869413486
 30
0.0
 10
343.6032797511897
 20
246.5469584092209
 30
0.0
 10
343.4475089170266
 20
246.2842261694749
 30
0.0
 10
343.3135404994652
 20
246.0074751579149
 30
0.0
 10
343.2026174679916
 20
245.7197431802268
 30
0.0
 10
343.115440675434
 20
245.4223897338744
 30
0.0
 10
343.052692665157
 20
245.1183437377969
 30
0.0
 10
343.0148922857617
 20
244.8094021421042
 30
0.0
 10
343.0022152120906
 20
244.4982125368588
 30
0.0
 10
343.0148922853961
 20
244.187022931604
 30
0.0
 10
343.0526926644268
 20
243.8780813359169
 30
0.0
 10
343.1154406743298
 20
243.5740353397583
 30
0.0
 10
343.2026174665375
 20
243.2766818936078
 30
0.0
 10
343.3135404975561
 20
242.9889499150324
 30
0.0
 10
343.4475089150329
 20
242.7121989065768
 30
0.0
 10
343.6032797477095
 20
242.4494666550849
 30
0.0
 10
343.7800370951984
 20
242.2017381660563
 30
0.0
 10
343.9759915087067
 20
241.9719584023609
 30
0.0
 10
344.1902237725808
 20
241.7608228642751
 30
0.0
 10
344.4204869224162
 20
241.5709859411655
 30
0.0
 10
344.6657146298105
 20
241.4029274230849
 30
0.0
 10
344.9233571912876
 20
241.2588519213022
 30
0.0
 10
345.1921200089745
 20
241.1390558508285
 30
0.0
 10
345.469345494462
 20
241.0452008539895
 30
0.0
 10
345.7534258477583
 20
240.9773739473974
 30
0.0
 10
346.0417933280649
 20
240.9366789857675
 30
0.0
 10
346.3324773615374
 20
240.9229131921919
 30
0.0
 10
346.6231613950104
 20
240.9366789857422
 30
0.0
 10
346.911528875317
 20
240.9773739473471
 30
0.0
 10
347.1956092286141
 20
241.045200853914
 30
0.0
 10
347.4728347141022
 20
241.1390558507282
 30
0.0
 10
347.7415975317905
 20
241.2588519211769
 30
0.0
 10
347.999240093269
 20
241.4029274229349
 30
0.0
 10
348.2444678006646
 20
241.5709859409911
 30
0.0
 10
348.4747309505019
 20
241.7608228640761
 30
0.0
 10
348.6889632143778
 20
241.9719584021378
 30
0.0
 10
348.8849176278883
 20
242.2017381658089
 30
0.0
 10
349.0616749753792
 20
242.4494666548137
 30
0.0
 10
349.2174458080586
 20
242.7121989062813
 30
0.0
 10
349.3514142255377
 20
242.9889499147134
 30
0.0
 10
349.4623372565592
 20
243.2766818932649
 30
0.0
 10
349.5495140487699
 20
243.5740353393918
 30
0.0
 10
349.6122620586764
 20
243.8780813355263
 30
0.0
 10
349.6500624377109
 20
244.18702293119
 30
0.0
 10
349.6627395110205
 20
244.4982125364197
 30
0.0
 10
349.6500624373547
 20
244.8094021416452
 30
0.0
 10
349.612262057963
 20
245.1183437372984
 30
0.0
 10
349.5495140476987
 20
245.4223897334086
 30
0.0
 10
349.4623372551252
 20
245.7197431795239
 30
0.0
 10
349.3514142237462
 20
246.0074751579777
 30
0.0
 10
349.2174458058774
 20
246.2842261665892
 30
0.0
 10
349.0616749729056
 20
246.5469584171627
 30
0.0
 10
348.8849176247459
 20
246.7946869091962
 30
0.0
 10
348.6889632119331
 20
247.0244666613085
 30
0.0
 10
348.4747309436819
 20
247.2356022416292
 30
0.0
 10
348.2444678082215
 20
247.4254390075482
 30
0.0
 10
347.9992400458857
 20
247.5934981051298
 30
0.0
 10
347.7415976863506
 20
247.7375714555405
 30
0.0
 10
347.472834119936
 20
247.8573754800842
 30
0.0
 10
347.1956114150683
 20
247.951200913031
 30
0.0
 10
346.9115207454111
 20
248.019137477374
 30
0.0
 10
346.6231916836614
 20
248.0594240336848
 30
0.0
 10
346.3323645731997
 20
248.0747107780787
 30
0.0
 10
346.1390774616327
 20
248.0617581099881
 30
0.0
 10
346.0424339073905
 20
248.0552817786865
 30
0.0
 11
346.0424339073904
 21
248.0552817786865
 31
0.0
 11
345.7542744111155
 21
248.0145578056
 31
0.0
 11
345.4711922047331
 21
247.9470889355347
 31
0.0
 11
345.1937681621893
 21
247.8531414068959
 31
0.0
 11
344.9262064100719
 21
247.7340255330965
 31
0.0
 11
344.6680740413567
 21
247.5896824036393
 31
0.0
 11
344.4240613887456
 21
247.4226222332236
 31
0.0
 11
344.1931818832148
 21
247.2323112016229
 31
0.0
 11
343.9800065882636
 21
247.0224002272674
 31
0.0
 11
343.7834722642553
 21
246.791996244141
 31
0.0
 11
343.6074987284557
 21
246.5455645214532
 31
0.0
 11
343.4513015879829
 21
246.2821822846153
 31
0.0
 11
343.3178059000187
 21
246.0066231518374
 31
0.0
 11
343.2066559744615
 21
245.7183712309401
 31
0.0
 11
343.1196793204352
 21
245.4219447528998
 31
0.0
 11
343.0568742461137
 21
245.1176555603569
 31
0.0
 11
343.0190988844421
 21
244.8092657444363
 31
0.0
 11
343.0064436882284
 21
244.4982125272854
 31
0.0
 11
343.0190988844421
 21
244.1871593101344
 31
0.0
 11
343.0568742461137
 21
243.8787694942139
 31
0.0
 11
343.1196793204351
 21
243.574480301671
 31
0.0
 11
343.2066559744615
 21
243.2780538236306
 31
0.0
 11
343.3178059000187
 21
242.9898019027334
 31
0.0
 11
343.4513015879829
 21
242.7142427699555
 31
0.0
 11
343.6074987284557
 21
242.4508605331176
 31
0.0
 11
343.7834722642554
 21
242.2044288104299
 31
0.0
 11
343.9800065882636
 21
241.9740248273034
 31
0.0
 11
344.1931818832148
 21
241.764113852948
 31
0.0
 11
344.4240613887456
 21
241.5738028213472
 31
0.0
 11
344.6680740413567
 21
241.4067426509314
 31
0.0
 11
344.9262064100719
 21
241.2623995214743
 31
0.0
 11
345.1937681621892
 21
241.1432836476749
 31
0.0
 11
345.4711922047331
 21
241.0493361190361
 31
0.0
 11
345.7542744111156
 21
240.9818672489708
 31
0.0
 11
346.0424339073905
 21
240.9411432758843
 31
0.0
 11
346.3324773621409
 21
240.927498313014
 31
0.0
 11
346.6225208168913
 21
240.9411432758843
 31
0.0
 11
346.9106803131662
 21
240.9818672489708
 31
0.0
 11
347.1937625195487
 21
241.0493361190361
 31
0.0
 11
347.4711865620926
 21
241.1432836476748
 31
0.0
 11
347.7387483142099
 21
241.2623995214742
 31
0.0
 11
347.9968806829252
 21
241.4067426509314
 31
0.0
 11
348.2408933355363
 21
241.5738028213472
 31
0.0
 11
348.4717728410671
 21
241.764113852948
 31
0.0
 11
348.6849481360183
 21
241.9740248273035
 31
0.0
 11
348.8814824600265
 21
242.2044288104299
 31
0.0
 11
349.0574559958262
 21
242.4508605331176
 31
0.0
 11
349.213653136299
 21
242.7142427699555
 31
0.0
 11
349.3471488242632
 21
242.9898019027334
 31
0.0
 11
349.4582987498202
 21
243.2780538236306
 31
0.0
 11
349.5452754038466
 21
243.574480301671
 31
0.0
 11
349.6080804781681
 21
243.8787694942139
 31
0.0
 11
349.6458558398397
 21
244.1871593101345
 31
0.0
 11
349.6585110360534
 21
244.4982125272854
 31
0.0
 11
349.6458558398397
 21
244.8092657444364
 31
0.0
 11
349.6080804781681
 21
245.117655560357
 31
0.0
 11
349.5452754038466
 21
245.4219447528998
 31
0.0
 11
349.4582987498204
 21
245.7183712309402
 31
0.0
 11
349.3471488242633
 21
246.0066231518374
 31
0.0
 11
349.213653136299
 21
246.2821822846153
 31
0.0
 11
349.0574559958262
 21
246.5455645214531
 31
0.0
 11
348.8814824600265
 21
246.7919962441409
 31
0.0
 11
348.6849481360183
 21
247.0224002272674
 31
0.0
 11
348.471772841067
 21
247.2323112016229
 31
0.0
 11
348.2408933355363
 21
247.4226222332237
 31
0.0
 11
347.9968806829251
 21
247.5896824036393
 31
0.0
 11
347.7387483142099
 21
247.7340255330965
 31
0.0
 11
347.4711865620926
 21
247.8531414068959
 31
0.0
 11
347.1937625195487
 21
247.9470889355347
 31
0.0
 11
346.9106803131662
 21
248.0145578056001
 31
0.0
 11
346.6225208168912
 21
248.0552817786865
 31
0.0
 11
346.3324773621409
 21
248.0689267415568
 31
0.0
 11
346.0424339073905
 21
248.0552817786865
 31
0.0
  0
ARC
  5
248
330
5F
100
AcDbEntity
  8
1
  6
Continuous
 62
     7
100
AcDbCircle
 10
126.7497878055947
 20
240.640675562727
 30
0.0
 40
1.0
100
AcDbArc
 50
270.0
 51
285.3375576695513
  0
ARC
  5
249
330
5F
100
AcDbEntity
  8
1
  6
Continuous
 62
     7
100
AcDbCircle
 10
124.9597159362952
 20
239.640675562727
 30
0.0
 40
1.0
100
AcDbArc
 50
270.0
 51
329.9999999999991
  0
ARC
  5
24A
330
5F
100
AcDbEntity
  8
1
  6
Continuous
 62
     7
100
AcDbCircle
 10
126.691766743864
 20
238.640675562727
 30
0.0
 40
1.0
100
AcDbArc
 50
90.0
 51
149.9999999999987
  0
ARC
  5
24B
330
5F
100
AcDbEntity
  8
1
  6
Continuous
 62
     7
100
AcDbCircle
 10
103.6337456821334
 20
240.640675562727
 30
0.0
 40
1.000000000000021
100
AcDbArc
 50
254.6624423304432
 51
270.0
  0
ARC
  5
24C
330
5F
100
AcDbEntity
  8
1
  6
Continuous
 62
     7
100
AcDbCircle
 10
105.4238175514328
 20
239.640675562727
 30
0.0
 40
1.000000000000058
100
AcDbArc
 50
209.9999999999981
 51
270.0
  0
ARC
  5
24D
330
5F
100
AcDbEntity
  8
1
  6
Continuous
 62
     7
100
AcDbCircle
 10
103.6917667438639
 20
238.640675562727
 30
0.0
 40
0.9999999999999712
100
AcDbArc
 50
30.00000000000095
 51
90.0
  0
ARC
  5
24E
330
5F
100
AcDbEntity
  8
1
  6
Continuous
 62
     7
100
AcDbCircle
 10
345.7661427708891
 20
240.640675562727
 30
0.0
 40
1.0
100
AcDbArc
 50
270.0
 51
285.3375576695583
  0
ARC
  5
24F
330
5F
100
AcDbEntity
  8
1
  6
Continuous
 62
     7
100
AcDbCircle
 10
343.9760709015898
 20
239.640675562727
 30
0.0
 40
1.0
100
AcDbArc
 50
270.0
 51
329.9999999999978
  0
ARC
  5
250
330
5F
100
AcDbEntity
  8
1
  6
Continuous
 62
     7
100
AcDbCircle
 10
345.7081217091587
 20
238.640675562727
 30
0.0
 40
1.0
100
AcDbArc
 50
90.0
 51
150.0000000000027
  0
ARC
  5
251
330
5F
100
AcDbEntity
  8
1
  6
Continuous
 62
     7
100
AcDbCircle
 10
322.6501006474281
 20
240.640675562727
 30
0.0
 40
1.000000000000014
100
AcDbArc
 50
254.6624423304448
 51
270.0
  0
ARC
  5
252
330
5F
100
AcDbEntity
  8
1
  6
Continuous
 62
     7
100
AcDbCircle
 10
324.4401725167274
 20
239.640675562727
 30
0.0
 40
0.9999999999999344
100
AcDbArc
 50
210.0000000000022
 51
270.0
  0
ARC
  5
253
330
5F
100
AcDbEntity
  8
1
  6
Continuous
 62
     7
100
AcDbCircle
 10
322.7081217091587
 20
238.640675562727
 30
0.0
 40
0.9999999999998851
100
AcDbArc
 50
30.0000000000038
 51
90.0
  0
ENDBLK
  5
61
330
5F
100
AcDbEntity
  8
0
100
AcDbBlockEnd
  0
BLOCK
  5
272
330
26B
100
AcDbEntity
  8
0
100
AcDbBlockBegin
  2
*D10
 70
     1
 10
0.0
 20
0.0
 30
0.0
  3
*D10
  1

  0
LINE
  5
26C
330
26B
100
AcDbEntity
  8
1
  6
Continuous
 62
     2
100
AcDbLine
 10
453.2081217091587
 20
290.6406755627269
 30
0.0
 11
453.2081217091587
 21
244.6406755627269
 31
0.0
  0
LINE
  5
26D
330
26B
100
AcDbEntity
  8
1
  6
Continuous
 62
     2
100
AcDbLine
 10
414.2081217091587
 20
244.6406755627269
 30
0.0
 11
455.7081217091587
 21
244.6406755627269
 31
0.0
  0
LINE
  5
26E
330
26B
100
AcDbEntity
  8
1
  6
Continuous
 62
     2
100
AcDbLine
 10
414.2081217091587
 20
290.6406755627269
 30
0.0
 11
455.7081217091587
 21
290.6406755627269
 31
0.0
  0
SOLID
  5
26F
330
26B
100
AcDbEntity
  8
1
 62
     2
100
AcDbTrace
 10
454.3600810630484
 20
281.8906755627269
 30
0.0
 11
452.056162355269
 21
281.8906755627269
 31
0.0
 12
453.2081217091587
 22
290.6406755627269
 32
0.0
 13
453.2081217091587
 23
290.6406755627269
 33
0.0
  0
SOLID
  5
270
330
26B
100
AcDbEntity
  8
1
 62
     2
100
AcDbTrace
 10
452.056162355269
 20
253.3906755627269
 30
0.0
 11
454.3600810630484
 21
253.3906755627269
 31
0.0
 12
453.2081217091587
 22
244.6406755627269
 32
0.0
 13
453.2081217091587
 23
244.6406755627269
 33
0.0
  0
MTEXT
  5
271
330
26B
100
AcDbEntity
  8
1
 62
     7
100
AcDbMText
 10
450.7081217091587
 20
259.1531755627269
 30
0.0
 40
8.75
 41
0.0
 71
     7
 72
     1
  1
\C7;{\Fgdt;n}\C7;46
  7
CONVERTER_12
 11
0.0
 21
1.0
 31
0.0
 73
     1
 44
0.60024009603842
  0
ENDBLK
  5
273
330
26B
100
AcDbEntity
  8
0
100
AcDbBlockEnd
  0
BLOCK
  5
27E
330
276
100
AcDbEntity
  8
0
100
AcDbBlockBegin
  2
*D11
 70
     1
 10
0.0
 20
0.0
 30
0.0
  3
*D11
  1

  0
LINE
  5
277
330
276
100
AcDbEntity
  8
1
  6
Continuous
 62
     2
100
AcDbLine
 10
473.2081217091587
 20
267.6406755627269
 30
0.0
 11
473.2081217091587
 21
327.940675562727
 31
0.0
  0
LINE
  5
278
330
276
100
AcDbEntity
  8
1
  6
Continuous
 62
     2
100
AcDbLine
 10
369.2081217091588
 20
327.940675562727
 30
0.0
 11
475.7081217091587
 21
327.940675562727
 31
0.0
  0
LINE
  5
279
330
276
100
AcDbEntity
  8
1
  6
Continuous
 62
     2
100
AcDbLine
 10
435.7081217091587
 20
267.6406755627269
 30
0.0
 11
439.0000000000001
 21
267.6406755627269
 31
0.0
  0
LINE
  5
27A
330
276
100
AcDbEntity
  8
1
  6
Continuous
 62
     2
100
AcDbLine
 10
458.0000000000001
 20
267.6406755627269
 30
0.0
 11
475.7081217091587
 21
267.6406755627269
 31
0.0
  0
SOLID
  5
27B
330
276
100
AcDbEntity
  8
1
 62
     2
100
AcDbTrace
 10
472.056162355269
 20
276.3906755627269
 30
0.0
 11
474.3600810630484
 21
276.3906755627269
 31
0.0
 12
473.2081217091587
 22
267.6406755627269
 32
0.0
 13
473.2081217091587
 23
267.6406755627269
 33
0.0
  0
SOLID
  5
27C
330
276
100
AcDbEntity
  8
1
 62
     2
100
AcDbTrace
 10
474.3600810630484
 20
319.190675562727
 30
0.0
 11
472.056162355269
 21
319.190675562727
 31
0.0
 12
473.2081217091587
 22
327.940675562727
 32
0.0
 13
473.2081217091587
 23
327.940675562727
 33
0.0
  0
MTEXT
  5
27D
330
276
100
AcDbEntity
  8
1
 62
     7
100
AcDbMText
 10
470.7081217091587
 20
273.765675562727
 30
0.0
 40
8.75
 41
0.0
 71
     7
 72
     1
  1
60リフト5
  7
CONVERTER_11
 11
0.0
 21
1.0
 31
0.0
 73
     1
 44
0.45454545454545
  0
ENDBLK
  5
27F
330
276
100
AcDbEntity
  8
0
100
AcDbBlockEnd
  0
BLOCK
  5
289
330
282
100
AcDbEntity
  8
0
100
AcDbBlockBegin
  2
*D12
 70
     1
 10
0.0
 20
0.0
 30
0.0
  3
*D12
  1

  0
LINE
  5
283
330
282
100
AcDbEntity
  8
0
  6
Continuous
 62
     2
100
AcDbLine
 10
473.2081217091587
 20
344.1812928705142
 30
0.0
 11
473.2081217091587
 21
327.940675562727
 31
0.0
  0
LINE
  5
284
330
282
100
AcDbEntity
  8
0
  6
Continuous
 62
     2
100
AcDbLine
 10
473.2081217091587
 20
363.2101470071401
 30
0.0
 11
473.2081217091587
 21
344.1812928705142
 31
0.0
  0
LINE
  5
285
330
282
100
AcDbEntity
  8
0
  6
Continuous
 62
     2
100
AcDbLine
 10
369.2081217091589
 20
327.940675562727
 30
0.0
 11
475.7081217091587
 21
327.940675562727
 31
0.0
  0
LINE
  5
286
330
282
100
AcDbEntity
  8
0
  6
Continuous
 62
     2
100
AcDbLine
 10
312.613011259304
 20
344.1812928705142
 30
0.0
 11
475.7081217091587
 21
344.1812928705142
 31
0.0
  0
SOLID
  5
287
330
282
100
AcDbEntity
  8
0
 62
     2
100
AcDbTrace
 10
472.2207279772533
 20
351.6812928705142
 30
0.0
 11
474.1955154410642
 21
351.6812928705142
 31
0.0
 12
473.2081217091587
 22
344.1812928705142
 32
0.0
 13
473.2081217091587
 23
344.1812928705142
 33
0.0
  0
MTEXT
  5
288
330
282
100
AcDbEntity
  8
0
 62
     7
100
AcDbMText
 10
470.7081217091587
 20
352.7101470071401
 30
0.0
 40
8.75
 41
0.0
 71
     7
 72
     1
  1
16
  7
CONVERTER_12
 11
0.0
 21
1.0
 31
0.0
 73
     1
 44
0.60024009603842
  0
ENDBLK
  5
28A
330
282
100
AcDbEntity
  8
0
100
AcDbBlockEnd
  0
BLOCK
  5
28C
330
28B
100
AcDbEntity
  8
0
100
AcDbBlockBegin
  2
_NONE
 70
     0
 10
0.0
 20
0.0
 30
0.0
  3
_NONE
  1

  0
ENDBLK
  5
28D
330
28B
100
AcDbEntity
  8
0
100
AcDbBlockEnd
  0
BLOCK
  5
297
330
290
100
AcDbEntity
  8
0
100
AcDbBlockBegin
  2
*D14
 70
     1
 10
0.0
 20
0.0
 30
0.0
  3
*D14
  1

  0
LINE
  5
291
330
290
100
AcDbEntity
  8
1
  6
Continuous
 62
     2
100
AcDbLine
 10
369.2081217091589
 20
369.1812928705142
 30
0.0
 11
279.3978281501663
 21
369.1812928705142
 31
0.0
  0
LINE
  5
292
330
290
100
AcDbEntity
  8
1
  6
Continuous
 62
     2
100
AcDbLine
 10
279.3978281501663
 20
336.1812928705142
 30
0.0
 11
279.3978281501663
 21
371.6812928705142
 31
0.0
  0
LINE
  5
293
330
290
100
AcDbEntity
  8
1
  6
Continuous
 62
     2
100
AcDbLine
 10
369.2081217091589
 20
335.440675562727
 30
0.0
 11
369.2081217091589
 21
371.6812928705142
 31
0.0
  0
SOLID
  5
294
330
290
100
AcDbEntity
  8
1
 62
     2
100
AcDbTrace
 10
360.4581217091589
 20
368.0293335166245
 30
0.0
 11
360.4581217091589
 21
370.3332522244039
 31
0.0
 12
369.2081217091589
 22
369.1812928705142
 32
0.0
 13
369.2081217091589
 23
369.1812928705142
 33
0.0
  0
SOLID
  5
295
330
290
100
AcDbEntity
  8
1
 62
     2
100
AcDbTrace
 10
288.1478281501663
 20
370.3332522244039
 30
0.0
 11
288.1478281501663
 21
368.0293335166245
 31
0.0
 12
279.3978281501663
 22
369.1812928705142
 32
0.0
 13
279.3978281501663
 23
369.1812928705142
 33
0.0
  0
MTEXT
  5
296
330
290
100
AcDbEntity
  8
1
 62
     7
100
AcDbMText
 10
317.7404749296626
 20
371.6812928705142
 30
0.0
 40
8.75
 41
0.0
 71
     7
 72
     1
  1
90
  7
CONVERTER_12
 11
0.9999999999970619
 21
2.424068405545306E-6
 31
0.0
 73
     1
 44
0.60024009603842
  0
ENDBLK
  5
298
330
290
100
AcDbEntity
  8
0
100
AcDbBlockEnd
  0
BLOCK
  5
2A2
330
29B
100
AcDbEntity
  8
0
100
AcDbBlockBegin
  2
*D15
 70
     1
 10
0.0
 20
0.0
 30
0.0
  3
*D15
  1

  0
LINE
  5
29C
330
29B
100
AcDbEntity
  8
1
  6
Continuous
 62
     2
100
AcDbLine
 10
428.2081217091587
 20
148.140675562727
 30
0.0
 11
445.7081217091587
 21
148.140675562727
 31
0.0
  0
LINE
  5
29D
330
29B
100
AcDbEntity
  8
1
  6
Continuous
 62
     2
100
AcDbLine
 10
414.2081217091587
 20
148.140675562727
 30
0.0
 11
428.2081217091587
 21
148.140675562727
 31
0.0
  0
LINE
  5
29E
330
29B
100
AcDbEntity
  8
1
  6
Continuous
 62
     2
100
AcDbLine
 10
428.2081217091587
 20
258.1406755627269
 30
0.0
 11
428.2081217091587
 21
145.640675562727
 31
0.0
  0
LINE
  5
29F
330
29B
100
AcDbEntity
  8
1
  6
Continuous
 62
     2
100
AcDbLine
 10
414.2081217091587
 20
244.6406755627269
 30
0.0
 11
414.2081217091587
 21
145.640675562727
 31
0.0
  0
SOLID
  5
2A0
330
29B
100
AcDbEntity
  8
1
 62
     2
100
AcDbTrace
 10
436.9581217091587
 20
149.2926349166167
 30
0.0
 11
436.9581217091587
 21
146.9887162088373
 31
0.0
 12
428.2081217091587
 22
148.140675562727
 32
0.0
 13
428.2081217091587
 23
148.140675562727
 33
0.0
  0
MTEXT
  5
2A1
330
29B
100
AcDbEntity
  8
1
 62
     7
100
AcDbMText
 10
415.9581217091588
 20
150.640675562727
 30
0.0
 40
8.75
 41
0.0
 71
     7
 72
     1
  1
14
  7
CONVERTER_12
 11
0.9999999999970619
 21
2.424068405545306E-6
 31
0.0
 73
     1
 44
0.60024009603842
  0
ENDBLK
  5
2A3
330
29B
100
AcDbEntity
  8
0
100
AcDbBlockEnd
  0
BLOCK
  5
2AE
330
2A6
100
AcDbEntity
  8
0
100
AcDbBlockBegin
  2
*D16
 70
     1
 10
0.0
 20
0.0
 30
0.0
  3
*D16
  1

  0
LINE
  5
2A7
330
2A6
100
AcDbEntity
  8
1
  6
Continuous
 62
     2
100
AcDbLine
 10
473.2081217091587
 20
173.140675562727
 30
0.0
 11
473.2081217091587
 21
267.6406755627269
 31
0.0
  0
LINE
  5
2A8
330
2A6
100
AcDbEntity
  8
1
  6
Continuous
 62
     2
100
AcDbLine
 10
435.7081217091587
 20
267.6406755627269
 30
0.0
 11
439.0000000000001
 21
267.6406755627269
 31
0.0
  0
LINE
  5
2A9
330
2A6
100
AcDbEntity
  8
1
  6
Continuous
 62
     2
100
AcDbLine
 10
458.0000000000001
 20
267.6406755627269
 30
0.0
 11
475.7081217091587
 21
267.6406755627269
 31
0.0
  0
LINE
  5
2AA
330
2A6
100
AcDbEntity
  8
1
  6
Continuous
 62
     2
100
AcDbLine
 10
171.592729310734
 20
173.140675562727
 30
0.0
 11
475.7081217091587
 21
173.140675562727
 31
0.0
  0
SOLID
  5
2AB
330
2A6
100
AcDbEntity
  8
1
 62
     2
100
AcDbTrace
 10
472.056162355269
 20
181.890675562727
 30
0.0
 11
474.3600810630484
 21
181.890675562727
 31
0.0
 12
473.2081217091587
 22
173.140675562727
 32
0.0
 13
473.2081217091587
 23
173.140675562727
 33
0.0
  0
SOLID
  5
2AC
330
2A6
100
AcDbEntity
  8
1
 62
     2
100
AcDbTrace
 10
474.3600810630484
 20
258.8906755627269
 30
0.0
 11
472.056162355269
 21
258.8906755627269
 31
0.0
 12
473.2081217091587
 22
267.6406755627269
 32
0.0
 13
473.2081217091587
 23
267.6406755627269
 33
0.0
  0
MTEXT
  5
2AD
330
2A6
100
AcDbEntity
  8
1
 62
     7
100
AcDbMText
 10
470.7081217091587
 20
213.828175562727
 30
0.0
 40
8.75
 41
0.0
 71
     7
 72
     1
  1
95
  7
CONVERTER_12
 11
0.0
 21
1.0
 31
0.0
 73
     1
 44
0.60024009603842
  0
ENDBLK
  5
2AF
330
2A6
100
AcDbEntity
  8
0
100
AcDbBlockEnd
  0
BLOCK
  5
2B9
330
2B2
100
AcDbEntity
  8
0
100
AcDbBlockBegin
  2
*D17
 70
     1
 10
0.0
 20
0.0
 30
0.0
  3
*D17
  1

  0
LINE
  5
2B3
330
2B2
100
AcDbEntity
  8
0
  6
Continuous
 62
     2
100
AcDbLine
 10
164.206322304748
 20
148.140675562727
 30
0.0
 11
334.2081217091587
 21
148.140675562727
 31
0.0
  0
LINE
  5
2B4
330
2B2
100
AcDbEntity
  8
0
  6
Continuous
 62
     2
100
AcDbLine
 10
334.2081217091587
 20
233.140675562727
 30
0.0
 11
334.2081217091587
 21
145.640675562727
 31
0.0
  0
LINE
  5
2B5
330
2B2
100
AcDbEntity
  8
0
  6
Continuous
 62
     2
100
AcDbLine
 10
164.206322304748
 20
170.140675562727
 30
0.0
 11
164.206322304748
 21
145.640675562727
 31
0.0
  0
SOLID
  5
2B6
330
2B2
100
AcDbEntity
  8
0
 62
     2
100
AcDbTrace
 10
172.956322304748
 20
149.2926349166167
 30
0.0
 11
172.956322304748
 21
146.9887162088373
 31
0.0
 12
164.206322304748
 22
148.140675562727
 32
0.0
 13
164.206322304748
 23
148.140675562727
 33
0.0
  0
SOLID
  5
2B7
330
2B2
100
AcDbEntity
  8
0
 62
     2
100
AcDbTrace
 10
325.4581217091587
 20
146.9887162088373
 30
0.0
 11
325.4581217091587
 21
149.2926349166167
 31
0.0
 12
334.2081217091587
 22
148.140675562727
 32
0.0
 13
334.2081217091587
 23
148.140675562727
 33
0.0
  0
MTEXT
  5
2B8
330
2B2
100
AcDbEntity
  8
0
 62
     7
100
AcDbMText
 10
240.0197220069534
 20
150.640675562727
 30
0.0
 40
8.75
 41
0.0
 71
     7
 72
     1
  1
170
  7
CONVERTER_12
 11
0.9999999999970619
 21
2.424068405545306E-6
 31
0.0
 73
     1
 44
0.60024009603842
  0
ENDBLK
  5
2BA
330
2B2
100
AcDbEntity
  8
0
100
AcDbBlockEnd
  0
BLOCK
  5
2C4
330
2BD
100
AcDbEntity
  8
0
100
AcDbBlockBegin
  2
*D18
 70
     1
 10
0.0
 20
0.0
 30
0.0
  3
*D18
  1

  0
LINE
  5
2BE
330
2BD
100
AcDbEntity
  8
0
  6
Continuous
 62
     2
100
AcDbLine
 10
334.2081217091587
 20
148.140675562727
 30
0.0
 11
369.2081217091587
 21
148.140675562727
 31
0.0
  0
LINE
  5
2BF
330
2BD
100
AcDbEntity
  8
0
  6
Continuous
 62
     2
100
AcDbLine
 10
369.2081217091587
 20
251.989390612763
 30
0.0
 11
369.2081217091587
 21
145.640675562727
 31
0.0
  0
LINE
  5
2C0
330
2BD
100
AcDbEntity
  8
0
  6
Continuous
 62
     2
100
AcDbLine
 10
334.2081217091587
 20
233.140675562727
 30
0.0
 11
334.2081217091587
 21
145.640675562727
 31
0.0
  0
SOLID
  5
2C1
330
2BD
100
AcDbEntity
  8
0
 62
     2
100
AcDbTrace
 10
342.9581217091587
 20
149.2926349166167
 30
0.0
 11
342.9581217091587
 21
146.9887162088373
 31
0.0
 12
334.2081217091587
 22
148.140675562727
 32
0.0
 13
334.2081217091587
 23
148.140675562727
 33
0.0
  0
SOLID
  5
2C2
330
2BD
100
AcDbEntity
  8
0
 62
     2
100
AcDbTrace
 10
360.4581217091587
 20
146.9887162088373
 30
0.0
 11
360.4581217091587
 21
149.2926349166167
 31
0.0
 12
369.2081217091587
 22
148.140675562727
 32
0.0
 13
369.2081217091587
 23
148.140675562727
 33
0.0
  0
MTEXT
  5
2C3
330
2BD
100
AcDbEntity
  8
0
 62
     7
100
AcDbMText
 10
345.1456217091587
 20
150.640675562727
 30
0.0
 40
8.75
 41
0.0
 71
     7
 72
     1
  1
35
  7
CONVERTER_12
 11
0.9999999999970619
 21
2.424068405545306E-6
 31
0.0
 73
     1
 44
0.60024009603842
  0
ENDBLK
  5
2C5
330
2BD
100
AcDbEntity
  8
0
100
AcDbBlockEnd
  0
BLOCK
  5
2CF
330
2C8
100
AcDbEntity
  8
0
100
AcDbBlockBegin
  2
*D19
 70
     1
 10
0.0
 20
0.0
 30
0.0
  3
*D19
  1

  0
LINE
  5
2C9
330
2C8
100
AcDbEntity
  8
0
  6
Continuous
 62
     2
100
AcDbLine
 10
369.2081217091587
 20
148.140675562727
 30
0.0
 11
414.2081217091587
 21
148.140675562727
 31
0.0
  0
LINE
  5
2CA
330
2C8
100
AcDbEntity
  8
0
  6
Continuous
 62
     2
100
AcDbLine
 10
414.2081217091587
 20
244.6406755627269
 30
0.0
 11
414.2081217091587
 21
145.640675562727
 31
0.0
  0
LINE
  5
2CB
330
2C8
100
AcDbEntity
  8
0
  6
Continuous
 62
     2
100
AcDbLine
 10
369.2081217091587
 20
251.989390612763
 30
0.0
 11
369.2081217091587
 21
145.640675562727
 31
0.0
  0
SOLID
  5
2CC
330
2C8
100
AcDbEntity
  8
0
 62
     2
100
AcDbTrace
 10
377.9581217091587
 20
149.2926349166167
 30
0.0
 11
377.9581217091587
 21
146.9887162088373
 31
0.0
 12
369.2081217091587
 22
148.140675562727
 32
0.0
 13
369.2081217091587
 23
148.140675562727
 33
0.0
  0
SOLID
  5
2CD
330
2C8
100
AcDbEntity
  8
0
 62
     2
100
AcDbTrace
 10
405.4581217091587
 20
146.9887162088373
 30
0.0
 11
405.4581217091587
 21
149.2926349166167
 31
0.0
 12
414.2081217091587
 22
148.140675562727
 32
0.0
 13
414.2081217091587
 23
148.140675562727
 33
0.0
  0
MTEXT
  5
2CE
330
2C8
100
AcDbEntity
  8
0
 62
     7
100
AcDbMText
 10
385.1456217091587
 20
150.640675562727
 30
0.0
 40
8.75
 41
0.0
 71
     7
 72
     1
  1
45
  7
CONVERTER_12
 11
0.9999999999970619
 21
2.424068405545306E-6
 31
0.0
 73
     1
 44
0.60024009603842
  0
ENDBLK
  5
2D0
330
2C8
100
AcDbEntity
  8
0
100
AcDbBlockEnd
  0
ENDSEC
  0
SECTION
  2
ENTITIES
  0
INSERT
  5
62
330
1F
100
AcDbEntity
  8
1
100
AcDbBlockReference
  2
A10-0B-13-NPM1
 10
763.3998963614999
 20
56.2387398940928
 30
0.0
 41
1.0
 42
1.0
 43
1.0
  0
INSERT
  5
63
330
1F
100
AcDbEntity
  8
1
100
AcDbBlockReference
  2
42-15
 10
936.0542987718425
 20
114.9521570517792
 30
0.0
 41
1.0
 42
1.0
 43
1.0
  0
INSERT
  5
64
330
1F
100
AcDbEntity
  8
1
100
AcDbBlockReference
  2
R230F-S-1
 10
882.7577141610888
 20
71.08737606051157
 30
0.0
 41
1.0
 42
1.0
 43
1.0
  0
INSERT
  5
65
330
1F
100
AcDbEntity
  8
0
100
AcDbBlockReference
  2
60-1-16-170
 10
196.0418877037449
 20
142.7745777327332
 30
0.0
 41
1.0
 42
1.0
 43
1.0
  0
INSERT
  5
66
330
1F
100
AcDbEntity
  8
0
100
AcDbBlockReference
  2
37-1-13
 10
616.9364788059235
 20
-108.4725105843176
 30
0.0
 41
1.0
 42
1.0
 43
1.0
  0
INSERT
  5
67
330
1F
100
AcDbEntity
  8
1
100
AcDbBlockReference
  2
36-1A-13
 10
545.4108488623656
 20
403.6173217486061
 30
0.0
 41
1.0
 42
1.0
 43
1.0
  0
INSERT
  5
68
330
1F
100
AcDbEntity
  8
1
100
AcDbBlockReference
  2
84-421
 10
1861.02893048704
 20
408.6825432248424
 30
0.0
 41
1.0
 42
1.0
 43
1.0
  0
INSERT
  5
69
330
1F
100
AcDbEntity
  8
1
100
AcDbBlockReference
  2
開示A4
 10
0.0
 20
0.0
 30
0.0
 41
2.5
 42
2.5
 43
2.5
  0
INSERT
  5
6A
330
1F
100
AcDbEntity
  8
1
100
AcDbBlockReference
  2
32-1-16
 10
37.66238187348984
 20
448.1265076928361
 30
0.0
 41
1.0
 42
1.0
 43
1.0
  0
LINE
  5
254
330
1F
100
AcDbEntity
  8
1
  6
DASH_CENTER
 62
     2
100
AcDbLine
 10
115.191766743864
 20
351.6812928705142
 30
0.0
 11
115.191766743864
 21
165.640675562727
 31
0.0
  0
LINE
  5
255
330
1F
100
AcDbEntity
  8
1
  6
DASH_CENTER
 62
     2
100
AcDbLine
 10
145.6917667438641
 20
267.6406755627269
 30
0.0
 11
84.69176674386416
 21
267.6406755627269
 31
0.0
  0
LINE
  5
256
330
1F
100
AcDbEntity
  8
1
  6
DASH_CENTER
 62
     2
100
AcDbLine
 10
369.2081217091589
 20
327.940675562727
 30
0.0
 11
369.2081217091589
 21
335.440675562727
 31
0.0
  0
LINE
  5
257
330
1F
100
AcDbEntity
  8
1
  6
DASH_CENTER
 62
     2
100
AcDbLine
 10
101.191766743864
 20
602.6897043612221
 30
0.0
 11
129.191766743864
 21
602.6897043612221
 31
0.0
  0
LINE
  5
258
330
1F
100
AcDbEntity
  8
1
  6
DASH_CENTER
 62
     2
100
AcDbLine
 10
369.2081217091587
 20
251.989390612763
 30
0.0
 11
369.2081217091589
 21
327.940675562727
 31
0.0
  0
LINE
  5
259
330
1F
100
AcDbEntity
  8
1
  6
DASH_CENTER
 62
     2
100
AcDbLine
 10
435.7081217091587
 20
267.6406755627269
 30
0.0
 11
319.4128554369693
 21
267.6406755627269
 31
0.0
  0
LINE
  5
25A
330
1F
100
AcDbEntity
  8
1
  6
DASH_CENTER
 62
     2
100
AcDbLine
 10
115.191766743864
 20
669.1897043612221
 30
0.0
 11
115.191766743864
 21
381.5379049568114
 31
0.0
  0
LINE
  5
25B
330
1F
100
AcDbEntity
  8
1
  6
DASH_CENTER
 62
     2
100
AcDbLine
 10
99.49497611133279
 20
397.6897043612219
 30
0.0
 11
130.6087170747004
 21
397.6897043612219
 31
0.0
  0
LINE
  5
25C
330
1F
100
AcDbEntity
  8
1
  6
DASH_CENTER
 62
     2
100
AcDbLine
 10
191.206322304748
 20
206.140675562727
 30
0.0
 11
307.2081217091587
 21
206.140675562727
 31
0.0
  0
LINE
  5
25D
330
1F
100
AcDbEntity
  8
1
  6
DASH_CENTER
 62
     2
100
AcDbLine
 10
334.2081217091587
 20
233.140675562727
 30
0.0
 11
334.2081217091587
 21
275.2664142910148
 31
0.0
  0
LINE
  5
25E
330
1F
100
AcDbEntity
  8
1
  6
DASH_CENTER
 62
     2
100
AcDbLine
 10
164.206322304748
 20
170.140675562727
 30
0.0
 11
164.206322304748
 21
179.140675562727
 31
0.0
  0
LINE
  5
25F
330
1F
100
AcDbEntity
  8
1
  6
DASH_CENTER
 62
     2
100
AcDbLine
 10
131.191766743864
 20
567.6897043612219
 30
0.0
 11
99.1917667438641
 21
567.6897043612219
 31
0.0
  0
ARC
  5
260
330
1F
100
AcDbEntity
  8
1
  6
DASH_CENTER
 62
     2
100
AcDbCircle
 10
307.2081217091587
 20
233.140675562727
 30
0.0
 40
27.0
100
AcDbArc
 50
270.0
 51
0.0
  0
ARC
  5
261
330
1F
100
AcDbEntity
  8
1
  6
DASH_CENTER
 62
     2
100
AcDbCircle
 10
191.206322304748
 20
179.140675562727
 30
0.0
 40
27.0
100
AcDbArc
 50
90.0
 51
180.0
  0
SOLID
  5
262
330
1F
100
AcDbEntity
  8
1
 62
     2
100
AcDbTrace
 10
129.0691406792685
 20
662.3434063212807
 30
0.0
 11
131.0643928084597
 21
661.1914469673909
 31
0.0
 12
125.691766743864
 22
654.189704361222
 32
0.0
 13
125.691766743864
 23
654.189704361222
 33
0.0
  0
LEADER
  5
263
330
1F
100
AcDbEntity
  8
1
  6
Continuous
 62
     2
100
AcDbLeader
  3
Standard
 71
     0
 76
     3
 10
125.691766743864
 20
654.189704361222
 30
0.0
 10
139.3699670064617
 20
677.8810421721431
 30
0.0
 10
177.749310023494
 20
677.8810421721431
 30
0.0
  0
MTEXT
  5
265
330
1F
100
AcDbEntity
  8
0
 62
     7
100
AcDbMText
 10
85.0
 20
85.00000000000003
 30
0.0
 40
8.75
 41
0.0
 71
     4
 72
     1
  1
JIS
  7
CONVERTER_12
 73
     1
 44
1.32052821128451
  0
MTEXT
  5
266
330
1F
100
AcDbEntity
  8
0
 62
     7
100
AcDbMText
 10
142.5
 20
35.625
 30
0.0
 40
8.75
 41
0.0
 71
     5
 72
     1
  1
A130-13
  7
CONVERTER_12
 73
     1
 44
1.32052821128451
  0
MTEXT
  5
267
330
1F
100
AcDbEntity
  8
0
 62
     7
100
AcDbMText
 10
142.5
 20
56.87500000000004
 30
0.0
 40
8.75
 41
0.0
 71
     5
 72
     1
  1
節水レバー自在水栓
  7
CONVERTER_11
 73
     1
 44
1.0
  0
MTEXT
  5
268
330
1F
100
AcDbEntity
  8
1
 62
     7
100
AcDbMText
 10
158.5596385149779
 20
685.381042172143
 30
0.0
 40
8.75
 41
0.0
 71
     5
 72
     1
  1
PJ1/2
  7
CONVERTER_12
 73
     1
 44
1.32052821128451
  0
MTEXT
  5
269
330
1F
100
AcDbEntity
  8
1
 62
     7
100
AcDbMText
 10
213.125
 20
42.5
 30
0.0
 40
8.75
 41
0.0
 71
     5
 72
     1
  1
1
  7
CONVERTER_12
 73
     1
 44
0.7202881152461
  0
MTEXT
  5
26A
330
1F
100
AcDbEntity
  8
1
 62
     7
100
AcDbMText
 10
234.375
 20
42.5
 30
0.0
 40
8.75
 41
0.0
 71
     5
 72
     1
  1
2,5
  7
CONVERTER_12
 73
     1
 44
0.7202881152461
  0
DIMENSION
  5
275
330
1F
100
AcDbEntity
  8
1
100
AcDbDimension
  2
*D10
 10
453.2081217091587
 20
290.6406755627269
 30
0.0
 11
446.3331217091587
 21
267.6406755627269
 31
0.0
 70
    32
  1
<>
 71
     5
 42
-1.0
 53
90.0
  3
ME10_DIM_10
100
AcDbAlignedDimension
 13
414.2081217091586
 23
244.6406755627268
 33
0.0
 14
414.2081217091586
 24
290.6406755627269
 34
0.0
 50
90.0
100
AcDbRotatedDimension
  0
DIMENSION
  5
281
330
1F
100
AcDbEntity
  8
1
100
AcDbDimension
  2
*D11
 10
473.2081217091587
 20
267.6406755627269
 30
0.0
 11
466.3331217091587
 21
297.390675562727
 31
0.0
 70
    32
  1
60リフト5
 71
     5
 42
-1.0
 53
90.0
  3
ME10_DIM_11
100
AcDbAlignedDimension
 13
369.2081217091587
 23
327.9406755627269
 33
0.0
 14
435.7081217091587
 24
267.6406755627269
 34
0.0
 50
90.0
100
AcDbRotatedDimension
  0
DIMENSION
  5
28F
330
1F
100
AcDbEntity
  8
0
100
AcDbDimension
  2
*D12
 10
473.2081217091587
 20
344.1812928705142
 30
0.0
 11
466.3331217091587
 21
357.9601470071401
 31
0.0
 70
    32
  1
16
 71
     5
 42
-1.0
 53
90.0
  3
ME10_DIM_12
100
AcDbAlignedDimension
 13
369.2081217091589
 23
327.940675562727
 33
0.0
 14
312.6130112593039
 24
344.1812928705141
 34
0.0
 50
90.0
100
AcDbRotatedDimension
  0
DIMENSION
  5
29A
330
1F
100
AcDbEntity
  8
1
100
AcDbDimension
  2
*D14
 10
369.2081217091589
 20
369.1812928705142
 30
0.0
 11
324.3029749296626
 21
376.0562928705142
 31
0.0
 70
    32
  1
90
 71
     5
 42
-1.0
 53
0.00013888888889
  3
ME10_DIM_13
100
AcDbAlignedDimension
 13
279.3978281501662
 23
336.1812928705141
 33
0.0
 14
369.2081217091589
 24
335.440675562727
 34
0.0
100
AcDbRotatedDimension
  0
DIMENSION
  5
2A5
330
1F
100
AcDbEntity
  8
1
100
AcDbDimension
  2
*D15
 10
414.2081217091587
 20
148.140675562727
 30
0.0
 11
421.2081217091588
 21
155.015675562727
 31
0.0
 70
    32
  1
<>
 71
     5
 42
-1.0
 53
0.00013888888889
  3
ME10_DIM_14
100
AcDbAlignedDimension
 13
428.2081217091585
 23
258.1406755627269
 33
0.0
 14
414.2081217091586
 24
244.6406755627268
 34
0.0
100
AcDbRotatedDimension
  0
DIMENSION
  5
2B1
330
1F
100
AcDbEntity
  8
1
100
AcDbDimension
  2
*D16
 10
473.2081217091587
 20
173.140675562727
 30
0.0
 11
466.3331217091587
 21
220.390675562727
 31
0.0
 70
    32
  1
95
 71
     5
 42
-1.0
 53
90.0
  3
ME10_DIM_15
100
AcDbAlignedDimension
 13
435.7081217091587
 23
267.6406755627269
 33
0.0
 14
171.592729310734
 24
173.140675562727
 34
0.0
 50
90.0
100
AcDbRotatedDimension
  0
DIMENSION
  5
2BC
330
1F
100
AcDbEntity
  8
0
100
AcDbDimension
  2
*D17
 10
164.206322304748
 20
148.140675562727
 30
0.0
 11
249.2072220069534
 21
155.015675562727
 31
0.0
 70
    32
  1
<>
 71
     5
 42
-1.0
 53
0.00013888888889
  3
ME10_DIM_16
100
AcDbAlignedDimension
 13
334.2081217091587
 23
233.140675562727
 33
0.0
 14
164.206322304748
 24
170.140675562727
 34
0.0
100
AcDbRotatedDimension
  0
DIMENSION
  5
2C7
330
1F
100
AcDbEntity
  8
0
100
AcDbDimension
  2
*D18
 10
334.2081217091587
 20
148.140675562727
 30
0.0
 11
351.7081217091587
 21
155.015675562727
 31
0.0
 70
    32
  1
<>
 71
     5
 42
-1.0
 53
0.00013888888889
  3
ME10_DIM_17
100
AcDbAlignedDimension
 13
369.2081217091587
 23
251.989390612763
 33
0.0
 14
334.2081217091587
 24
233.140675562727
 34
0.0
100
AcDbRotatedDimension
  0
DIMENSION
  5
2D2
330
1F
100
AcDbEntity
  8
0
100
AcDbDimension
  2
*D19
 10
369.2081217091587
 20
148.140675562727
 30
0.0
 11
391.7081217091587
 21
155.015675562727
 31
0.0
 70
    32
  1
<>
 71
     5
 42
-1.0
 53
0.00013888888889
  3
ME10_DIM_18
100
AcDbAlignedDimension
 13
414.2081217091586
 23
244.6406755627268
 33
0.0
 14
369.2081217091587
 24
251.989390612763
 34
0.0
100
AcDbRotatedDimension
  0
ENDSEC
  0
SECTION
  2
OBJECTS
  0
DICTIONARY
  5
C
330
0
100
AcDbDictionary
281
     1
  3
ACAD_GROUP
350
D
  3
ACAD_LAYOUT
350
1A
  3
ACAD_MATERIAL
350
3B
  3
ACAD_MLEADERSTYLE
350
2D5
  3
ACAD_MLINESTYLE
350
17
  3
ACAD_PLOTSETTINGS
350
19
  3
ACAD_PLOTSTYLENAME
350
E
  3
ACAD_VISUALSTYLE
350
2A
  3
AcDbVariableDictionary
350
2D3
  0
DICTIONARY
  5
D
102
{ACAD_REACTORS
330
C
102
}
330
C
100
AcDbDictionary
281
     1
  0
DICTIONARY
  5
1A
102
{ACAD_REACTORS
330
C
102
}
330
C
100
AcDbDictionary
281
     1
  3
Layout1
350
1E
  3
Layout2
350
26
  3
Model
350
22
  0
DICTIONARY
  5
3B
102
{ACAD_REACTORS
330
C
102
}
330
C
100
AcDbDictionary
281
     1
  3
ByBlock
350
3D
  3
ByLayer
350
3C
  3
Global
350
3E
  0
DICTIONARY
  5
2D5
102
{ACAD_REACTORS
330
C
102
}
330
C
100
AcDbDictionary
281
     1
  0
DICTIONARY
  5
17
102
{ACAD_REACTORS
330
C
102
}
330
C
100
AcDbDictionary
281
     1
  3
Standard
350
18
  0
DICTIONARY
  5
19
102
{ACAD_REACTORS
330
C
102
}
330
C
100
AcDbDictionary
281
     1
  0
ACDBDICTIONARYWDFLT
  5
E
102
{ACAD_REACTORS
330
C
102
}
330
C
100
AcDbDictionary
281
     1
  3
Normal
350
F
100
AcDbDictionaryWithDefault
340
F
  0
DICTIONARY
  5
2A
102
{ACAD_REACTORS
330
C
102
}
330
C
100
AcDbDictionary
281
     1
  3
2dWireframe
350
2F
  3
3D Hidden
350
31
  3
3dWireframe
350
30
  3
Basic
350
32
  3
Brighten
350
36
  3
ColorChange
350
3A
  3
Conceptual
350
34
  3
Dim
350
35
  3
Facepattern
350
39
  3
Flat
350
2B
  3
FlatWithEdges
350
2C
  3
Gouraud
350
2D
  3
GouraudWithEdges
350
2E
  3
Linepattern
350
38
  3
Realistic
350
33
  3
Thicken
350
37
  0
DICTIONARY
  5
2D3
102
{ACAD_REACTORS
330
C
102
}
330
C
100
AcDbDictionary
281
     1
  3
DIMASSOC
350
2D6
  3
HIDETEXT
350
2D7
  0
LAYOUT
  5
1E
102
{ACAD_REACTORS
330
1A
102
}
330
1A
100
AcDbPlotSettings
  1

  2
none_device
  4

  6

 40
0.0
 41
0.0
 42
0.0
 43
0.0
 44
0.0
 45
0.0
 46
0.0
 47
0.0
 48
0.0
 49
0.0
140
0.0
141
0.0
142
1.0
143
1.0
 70
   688
 72
     0
 73
     0
 74
     5
  7

 75
    16
147
1.0
148
0.0
149
0.0
100
AcDbLayout
  1
Layout1
 70
     1
 71
     1
 10
0.0
 20
0.0
 11
12.0
 21
9.0
 12
0.0
 22
0.0
 32
0.0
 14
1.00000000000000E+20
 24
1.00000000000000E+20
 34
1.00000000000000E+20
 15
-1.00000000000000E+20
 25
-1.00000000000000E+20
 35
-1.00000000000000E+20
146
0.0
 13
0.0
 23
0.0
 33
0.0
 16
1.0
 26
0.0
 36
0.0
 17
0.0
 27
1.0
 37
0.0
 76
     0
330
1B
  0
LAYOUT
  5
26
102
{ACAD_REACTORS
330
1A
102
}
330
1A
100
AcDbPlotSettings
  1

  2
none_device
  4

  6

 40
0.0
 41
0.0
 42
0.0
 43
0.0
 44
0.0
 45
0.0
 46
0.0
 47
0.0
 48
0.0
 49
0.0
140
0.0
141
0.0
142
1.0
143
1.0
 70
   688
 72
     0
 73
     0
 74
     5
  7

 75
    16
147
1.0
148
0.0
149
0.0
100
AcDbLayout
  1
Layout2
 70
     1
 71
     2
 10
0.0
 20
0.0
 11
0.0
 21
0.0
 12
0.0
 22
0.0
 32
0.0
 14
0.0
 24
0.0
 34
0.0
 15
0.0
 25
0.0
 35
0.0
146
0.0
 13
0.0
 23
0.0
 33
0.0
 16
1.0
 26
0.0
 36
0.0
 17
0.0
 27
1.0
 37
0.0
 76
     0
330
23
  0
LAYOUT
  5
22
102
{ACAD_REACTORS
330
1A
102
}
330
1A
100
AcDbPlotSettings
  1

  2
none_device
  4

  6

 40
0.0
 41
0.0
 42
0.0
 43
0.0
 44
0.0
 45
0.0
 46
0.0
 47
0.0
 48
0.0
 49
0.0
140
0.0
141
0.0
142
1.0
143
1.0
 70
  1712
 72
     0
 73
     0
 74
     0
  7

 75
     0
147
1.0
148
0.0
149
0.0
100
AcDbLayout
  1
Model
 70
     1
 71
     0
 10
0.0
 20
0.0
 11
12.0
 21
9.0
 12
0.0
 22
0.0
 32
0.0
 14
0.0
 24
0.0
 34
0.0
 15
525.0
 25
742.5
 35
0.0
146
0.0
 13
0.0
 23
0.0
 33
0.0
 16
1.0
 26
0.0
 36
0.0
 17
0.0
 27
1.0
 37
0.0
 76
     0
330
1F
331
29
  0
MATERIAL
  5
3D
102
{ACAD_REACTORS
330
3B
102
}
102
{ACAD_XDICTIONARY
360
2FA
102
}
330
3B
100
AcDbMaterial
  1
ByBlock
  0
MATERIAL
  5
3C
102
{ACAD_REACTORS
330
3B
102
}
102
{ACAD_XDICTIONARY
360
2F8
102
}
330
3B
100
AcDbMaterial
  1
ByLayer
  0
MATERIAL
  5
3E
102
{ACAD_REACTORS
330
3B
102
}
102
{ACAD_XDICTIONARY
360
2FC
102
}
330
3B
100
AcDbMaterial
  1
Global
  0
MLINESTYLE
  5
18
102
{ACAD_REACTORS
330
17
102
}
330
17
100
AcDbMlineStyle
  2
Standard
 70
     0
  3

 62
   256
 51
90.0
 52
90.0
 71
     2
 49
0.5
 62
   256
  6
BYLAYER
 49
-0.5
 62
   256
  6
BYLAYER
  0
ACDBPLACEHOLDER
  5
F
102
{ACAD_REACTORS
330
E
102
}
330
E
  0
VISUALSTYLE
  5
2F
102
{ACAD_REACTORS
330
2A
102
}
102
{ACAD_XDICTIONARY
360
2E0
102
}
330
2A
100
AcDbVisualStyle
  2
2dWireframe
 70
     4
 71
     0
 72
     2
 73
     0
 90
        0
 40
-0.6
 41
-30.0
 62
     5
 63
     7
 74
     1
 91
        4
 64
     7
 65
   257
 75
     1
175
     1
 42
1.0
 92
        0
 66
   257
 43
1.0
 76
     1
 77
     6
 78
     2
 67
     7
 79
     5
170
     0
171
     0
290
     0
174
     0
 93
        1
 44
0.0
173
     0
291
     0
 45
0.0
1001
ACAD
1000
AcDbSavedByObjectVersion
1070
     0
  0
VISUALSTYLE
  5
31
102
{ACAD_REACTORS
330
2A
102
}
102
{ACAD_XDICTIONARY
360
2E4
102
}
330
2A
100
AcDbVisualStyle
  2
3D Hidden
 70
     6
 71
     1
 72
     2
 73
     2
 90
        0
 40
-0.6
 41
-30.0
 62
     5
 63
     7
 74
     2
 91
        2
 64
     7
 65
   257
 75
     2
175
     1
 42
40.0
 92
        0
 66
   257
 43
1.0
 76
     1
 77
     6
 78
     2
 67
     7
 79
     3
170
     0
171
     0
290
     0
174
     0
 93
        1
 44
0.0
173
     0
291
     0
 45
0.0
1001
ACAD
1000
AcDbSavedByObjectVersion
1070
     0
  0
VISUALSTYLE
  5
30
102
{ACAD_REACTORS
330
2A
102
}
102
{ACAD_XDICTIONARY
360
2E2
102
}
330
2A
100
AcDbVisualStyle
  2
3dWireframe
 70
     5
 71
     0
 72
     2
 73
     0
 90
        0
 40
-0.6
 41
-30.0
 62
     5
 63
     7
 74
     1
 91
        4
 64
     7
 65
   257
 75
     1
175
     1
 42
1.0
 92
        0
 66
   257
 43
1.0
 76
     1
 77
     6
 78
     2
 67
     7
 79
     5
170
     0
171
     0
290
     0
174
     0
 93
        1
 44
0.0
173
     0
291
     0
 45
0.0
1001
ACAD
1000
AcDbSavedByObjectVersion
1070
     0
  0
VISUALSTYLE
  5
32
102
{ACAD_REACTORS
330
2A
102
}
102
{ACAD_XDICTIONARY
360
2E6
102
}
330
2A
100
AcDbVisualStyle
  2
Basic
 70
     7
 71
     1
 72
     0
 73
     1
 90
        0
 40
-0.6
 41
-30.0
 62
     5
 63
     7
 74
     0
 91
        4
 64
     7
 65
   257
 75
     1
175
     1
 42
1.0
 92
        8
 66
     7
 43
1.0
 76
     1
 77
     6
 78
     2
 67
     7
 79
     5
170
     0
171
     0
290
     0
174
     0
 93
        1
 44
0.0
173
     0
291
     1
 45
0.0
1001
ACAD
1000
AcDbSavedByObjectVersion
1070
     0
  0
VISUALSTYLE
  5
36
102
{ACAD_REACTORS
330
2A
102
}
102
{ACAD_XDICTIONARY
360
2EE
102
}
330
2A
100
AcDbVisualStyle
  2
Brighten
 70
    12
 71
     2
 72
     2
 73
     0
 90
        0
 40
-0.6
 41
-30.0
 62
     5
 63
     7
 74
     1
 91
        4
 64
     7
 65
   257
 75
     1
175
     1
 42
1.0
 92
        8
 66
     7
 43
1.0
 76
     1
 77
     6
 78
     2
 67
     7
 79
     5
170
     0
171
     0
290
     0
174
     0
 93
        1
 44
50.0
173
     0
291
     1
 45
0.0
1001
ACAD
1000
AcDbSavedByObjectVersion
1070
     0
  0
VISUALSTYLE
  5
3A
102
{ACAD_REACTORS
330
2A
102
}
102
{ACAD_XDICTIONARY
360
2F6
102
}
330
2A
100
AcDbVisualStyle
  2
ColorChange
 70
    16
 71
     2
 72
     2
 73
     3
 90
        0
 40
-0.6
 41
-30.0
 62
     5
 63
     8
 74
     1
 91
        4
 64
     7
 65
   257
 75
     1
175
     1
 42
1.0
 92
        8
 66
     8
 43
1.0
 76
     1
 77
     6
 78
     2
 67
     7
 79
     5
170
     0
171
     0
290
     0
174
     0
 93
        1
 44
0.0
173
     0
291
     1
 45
0.0
1001
ACAD
1000
AcDbSavedByObjectVersion
1070
     0
  0
VISUALSTYLE
  5
34
102
{ACAD_REACTORS
330
2A
102
}
102
{ACAD_XDICTIONARY
360
2EA
102
}
330
2A
100
AcDbVisualStyle
  2
Conceptual
 70
     9
 71
     3
 72
     2
 73
     0
 90
        0
 40
-0.6
 41
-30.0
 62
     5
 63
     7
 74
     2
 91
        2
 64
     7
 65
   257
 75
     1
175
     1
 42
40.0
 92
        8
 66
     7
 43
1.0
 76
     1
 77
     6
 78
     2
 67
     7
 79
     3
170
     0
171
     0
290
     0
174
     0
 93
        1
 44
0.0
173
     0
291
     0
 45
0.0
1001
ACAD
1000
AcDbSavedByObjectVersion
1070
     0
  0
VISUALSTYLE
  5
35
102
{ACAD_REACTORS
330
2A
102
}
102
{ACAD_XDICTIONARY
360
2EC
102
}
330
2A
100
AcDbVisualStyle
  2
Dim
 70
    11
 71
     2
 72
     2
 73
     0
 90
        0
 40
-0.6
 41
-30.0
 62
     5
 63
     7
 74
     1
 91
        4
 64
     7
 65
   257
 75
     1
175
     1
 42
1.0
 92
        8
 66
     7
 43
1.0
 76
     1
 77
     6
 78
     2
 67
     7
 79
     5
170
     0
171
     0
290
     0
174
     0
 93
        1
 44
-50.0
173
     0
291
     1
 45
0.0
1001
ACAD
1000
AcDbSavedByObjectVersion
1070
     0
  0
VISUALSTYLE
  5
39
102
{ACAD_REACTORS
330
2A
102
}
102
{ACAD_XDICTIONARY
360
2F4
102
}
330
2A
100
AcDbVisualStyle
  2
Facepattern
 70
    15
 71
     2
 72
     2
 73
     0
 90
        0
 40
-0.6
 41
-30.0
 62
     5
 63
     7
 74
     1
 91
        4
 64
     7
 65
   257
 75
     1
175
     1
 42
1.0
 92
        8
 66
     7
 43
1.0
 76
     1
 77
     6
 78
     2
 67
     7
 79
     5
170
     0
171
     0
290
     0
174
     0
 93
        1
 44
0.0
173
     0
291
     1
 45
0.0
1001
ACAD
1000
AcDbSavedByObjectVersion
1070
     0
  0
VISUALSTYLE
  5
2B
102
{ACAD_REACTORS
330
2A
102
}
102
{ACAD_XDICTIONARY
360
2D8
102
}
330
2A
100
AcDbVisualStyle
  2
Flat
 70
     0
 71
     2
 72
     1
 73
     1
 90
        2
 40
-0.6
 41
30.0
 62
     5
 63
     7
 74
     0
 91
        4
 64
     7
 65
   257
 75
     1
175
     1
 42
1.0
 92
        8
 66
     7
 43
1.0
 76
     1
 77
     6
 78
     2
 67
     7
 79
     5
170
     0
171
     0
290
     0
174
     0
 93
       13
 44
0.0
173
     0
291
     1
 45
0.0
1001
ACAD
1000
AcDbSavedByObjectVersion
1070
     0
  0
VISUALSTYLE
  5
2C
102
{ACAD_REACTORS
330
2A
102
}
102
{ACAD_XDICTIONARY
360
2DA
102
}
330
2A
100
AcDbVisualStyle
  2
FlatWithEdges
 70
     1
 71
     2
 72
     1
 73
     1
 90
        2
 40
-0.6
 41
30.0
 62
     5
 63
     7
 74
     1
 91
        4
 64
     7
 65
   257
 75
     1
175
     1
 42
1.0
 92
        0
 66
   257
 43
1.0
 76
     1
 77
     6
 78
     2
 67
     7
 79
     5
170
     0
171
     0
290
     0
174
     0
 93
       13
 44
0.0
173
     0
291
     1
 45
0.0
1001
ACAD
1000
AcDbSavedByObjectVersion
1070
     0
  0
VISUALSTYLE
  5
2D
102
{ACAD_REACTORS
330
2A
102
}
102
{ACAD_XDICTIONARY
360
2DC
102
}
330
2A
100
AcDbVisualStyle
  2
Gouraud
 70
     2
 71
     2
 72
     2
 73
     1
 90
        2
 40
-0.6
 41
30.0
 62
     5
 63
     7
 74
     0
 91
        4
 64
     7
 65
   257
 75
     1
175
     1
 42
1.0
 92
        0
 66
     7
 43
1.0
 76
     1
 77
     6
 78
     2
 67
     7
 79
     5
170
     0
171
     0
290
     0
174
     0
 93
       13
 44
0.0
173
     0
291
     1
 45
0.0
1001
ACAD
1000
AcDbSavedByObjectVersion
1070
     0
  0
VISUALSTYLE
  5
2E
102
{ACAD_REACTORS
330
2A
102
}
102
{ACAD_XDICTIONARY
360
2DE
102
}
330
2A
100
AcDbVisualStyle
  2
GouraudWithEdges
 70
     3
 71
     2
 72
     2
 73
     1
 90
        2
 40
-0.6
 41
30.0
 62
     5
 63
     7
 74
     1
 91
        4
 64
     7
 65
   257
 75
     1
175
     1
 42
1.0
 92
        0
 66
   257
 43
1.0
 76
     1
 77
     6
 78
     2
 67
     7
 79
     5
170
     0
171
     0
290
     0
174
     0
 93
       13
 44
0.0
173
     0
291
     1
 45
0.0
1001
ACAD
1000
AcDbSavedByObjectVersion
1070
     0
  0
VISUALSTYLE
  5
38
102
{ACAD_REACTORS
330
2A
102
}
102
{ACAD_XDICTIONARY
360
2F2
102
}
330
2A
100
AcDbVisualStyle
  2
Linepattern
 70
    14
 71
     2
 72
     2
 73
     0
 90
        0
 40
-0.6
 41
-30.0
 62
     5
 63
     7
 74
     1
 91
        4
 64
     7
 65
   257
 75
     7
175
     7
 42
1.0
 92
        8
 66
     7
 43
1.0
 76
     1
 77
     6
 78
     2
 67
     7
 79
     5
170
     0
171
     0
290
     0
174
     0
 93
        1
 44
0.0
173
     0
291
     1
 45
0.0
1001
ACAD
1000
AcDbSavedByObjectVersion
1070
     0
  0
VISUALSTYLE
  5
33
102
{ACAD_REACTORS
330
2A
102
}
102
{ACAD_XDICTIONARY
360
2E8
102
}
330
2A
100
AcDbVisualStyle
  2
Realistic
 70
     8
 71
     2
 72
     2
 73
     0
 90
        0
 40
-0.6
 41
-30.0
 62
     5
 63
     7
 74
     1
 91
        0
 64
     7
 65
   257
 75
     1
175
     1
 42
1.0
 92
        8
 66
     8
 43
1.0
 76
     1
 77
     6
 78
     2
 67
     7
 79
     5
170
     0
171
     0
290
     0
174
     0
 93
       13
 44
0.0
173
     0
291
     0
 45
0.0
1001
ACAD
1000
AcDbSavedByObjectVersion
1070
     0
  0
VISUALSTYLE
  5
37
102
{ACAD_REACTORS
330
2A
102
}
102
{ACAD_XDICTIONARY
360
2F0
102
}
330
2A
100
AcDbVisualStyle
  2
Thicken
 70
    13
 71
     2
 72
     2
 73
     0
 90
        0
 40
-0.6
 41
-30.0
 62
     5
 63
     7
 74
     1
 91
        4
 64
     7
 65
   257
 75
     1
175
     1
 42
1.0
 92
       12
 66
     7
 43
1.0
 76
     1
 77
     6
 78
     2
 67
     7
 79
     5
170
     0
171
     0
290
     0
174
     0
 93
        1
 44
0.0
173
     0
291
     1
 45
0.0
1001
ACAD
1000
AcDbSavedByObjectVersion
1070
     0
  0
DICTIONARYVAR
  5
2D6
102
{ACAD_REACTORS
330
2D3
102
}
330
2D3
100
DictionaryVariables
280
     0
  1
2
  0
DICTIONARYVAR
  5
2D7
102
{ACAD_REACTORS
330
2D3
102
}
330
2D3
100
DictionaryVariables
280
     0
  1
1
  0
DICTIONARY
  5
2FA
330
3D
100
AcDbDictionary
280
     1
281
     1
  3
ACAD_XREC_ROUNDTRIP
360
2FB
  0
DICTIONARY
  5
2F8
330
3C
100
AcDbDictionary
280
     1
281
     1
  3
ACAD_XREC_ROUNDTRIP
360
2F9
  0
DICTIONARY
  5
2FC
330
3E
100
AcDbDictionary
280
     1
281
     1
  3
ACAD_XREC_ROUNDTRIP
360
2FD
  0
DICTIONARY
  5
2E0
330
2F
100
AcDbDictionary
280
     1
281
     1
  3
ACAD_XREC_ROUNDTRIP
360
2E1
  0
DICTIONARY
  5
2E4
330
31
100
AcDbDictionary
280
     1
281
     1
  3
ACAD_XREC_ROUNDTRIP
360
2E5
  0
DICTIONARY
  5
2E2
330
30
100
AcDbDictionary
280
     1
281
     1
  3
ACAD_XREC_ROUNDTRIP
360
2E3
  0
DICTIONARY
  5
2E6
330
32
100
AcDbDictionary
280
     1
281
     1
  3
ACAD_XREC_ROUNDTRIP
360
2E7
  0
DICTIONARY
  5
2EE
330
36
100
AcDbDictionary
280
     1
281
     1
  3
ACAD_XREC_ROUNDTRIP
360
2EF
  0
DICTIONARY
  5
2F6
330
3A
100
AcDbDictionary
280
     1
281
     1
  3
ACAD_XREC_ROUNDTRIP
360
2F7
  0
DICTIONARY
  5
2EA
330
34
100
AcDbDictionary
280
     1
281
     1
  3
ACAD_XREC_ROUNDTRIP
360
2EB
  0
DICTIONARY
  5
2EC
330
35
100
AcDbDictionary
280
     1
281
     1
  3
ACAD_XREC_ROUNDTRIP
360
2ED
  0
DICTIONARY
  5
2F4
330
39
100
AcDbDictionary
280
     1
281
     1
  3
ACAD_XREC_ROUNDTRIP
360
2F5
  0
DICTIONARY
  5
2D8
330
2B
100
AcDbDictionary
280
     1
281
     1
  3
ACAD_XREC_ROUNDTRIP
360
2D9
  0
DICTIONARY
  5
2DA
330
2C
100
AcDbDictionary
280
     1
281
     1
  3
ACAD_XREC_ROUNDTRIP
360
2DB
  0
DICTIONARY
  5
2DC
330
2D
100
AcDbDictionary
280
     1
281
     1
  3
ACAD_XREC_ROUNDTRIP
360
2DD
  0
DICTIONARY
  5
2DE
330
2E
100
AcDbDictionary
280
     1
281
     1
  3
ACAD_XREC_ROUNDTRIP
360
2DF
  0
DICTIONARY
  5
2F2
330
38
100
AcDbDictionary
280
     1
281
     1
  3
ACAD_XREC_ROUNDTRIP
360
2F3
  0
DICTIONARY
  5
2E8
330
33
100
AcDbDictionary
280
     1
281
     1
  3
ACAD_XREC_ROUNDTRIP
360
2E9
  0
DICTIONARY
  5
2F0
330
37
100
AcDbDictionary
280
     1
281
     1
  3
ACAD_XREC_ROUNDTRIP
360
2F1
  0
XRECORD
  5
2FB
102
{ACAD_REACTORS
330
2FA
102
}
330
2FA
100
AcDbXrecord
280
     1
102
MATERIAL
148
0.0
149
0.0
149
0.0
 93
        0
 94
      127
282
     0
 72
     1
 77
     1
171
     1
175
     1
179
     1
273
     0
  0
XRECORD
  5
2F9
102
{ACAD_REACTORS
330
2F8
102
}
330
2F8
100
AcDbXrecord
280
     1
102
MATERIAL
148
0.0
149
0.0
149
0.0
 93
        0
 94
      127
282
     0
 72
     1
 77
     1
171
     1
175
     1
179
     1
273
     0
  0
XRECORD
  5
2FD
102
{ACAD_REACTORS
330
2FC
102
}
330
2FC
100
AcDbXrecord
280
     1
102
MATERIAL
148
0.0
149
0.0
149
0.0
 93
        0
 94
      127
282
     0
 72
     1
 77
     1
171
     1
175
     1
179
     1
273
     0
  0
XRECORD
  5
2E1
102
{ACAD_REACTORS
330
2E0
102
}
330
2E0
100
AcDbXrecord
280
     1
102
RTVSPropertyOp0
 70
     1
102
RTVSPropertyOp1
 70
     1
102
RTVSPropertyOp2
 70
     1
102
RTVSPropertyOp3
 70
     1
102
RTVSPropertyOp4
 70
     1
102
RTVSPropertyOp5
 70
     1
102
RTVSPropertyOp6
 70
     1
102
RTVSPropertyOp7
 70
     1
102
RTVSPropertyOp8
 70
     1
102
RTVSPropertyOp9
 70
     1
102
RTVSPropertyOp10
 70
     1
102
RTVSPropertyOp11
 70
     1
102
RTVSPropertyOp12
 70
     1
102
RTVSPropertyOp13
 70
     1
102
RTVSPropertyOp14
 70
     1
102
RTVSPropertyOp15
 70
     1
102
RTVSPropertyOp16
 70
     1
102
RTVSPropertyOp17
 70
     1
102
RTVSPropertyOp18
 70
     1
102
RTVSPropertyOp19
 70
     1
102
RTVSPropertyOp20
 70
     1
102
RTVSPropertyOp21
 70
     1
102
RTVSPropertyOp22
 70
     1
102
RTVSPropertyOp23
 70
     1
102
RTVSPropertyOp24
 70
     1
102
RTVSPropertyOp25
 70
     1
102
RTVSPropertyOp26
 70
     1
102
RTVSPropertyOp27
 70
     1
102
RTVSPropertyOp28
 70
     1
102
RTVSPropertyOp29
 70
     1
102
RTVSPropertyOp30
 70
     1
102
RTVSPropertyOp31
 70
     1
102
RTVSPropertyOp32
 70
     1
  0
XRECORD
  5
2E5
102
{ACAD_REACTORS
330
2E4
102
}
330
2E4
100
AcDbXrecord
280
     1
102
RTVSPropertyOp0
 70
     1
102
RTVSPropertyOp1
 70
     1
102
RTVSPropertyOp2
 70
     1
102
RTVSPropertyOp3
 70
     1
102
RTVSPropertyOp4
 70
     1
102
RTVSPropertyOp5
 70
     1
102
RTVSPropertyOp6
 70
     1
102
RTVSPropertyOp7
 70
     1
102
RTVSPropertyOp8
 70
     1
102
RTVSPropertyOp9
 70
     1
102
RTVSPropertyOp10
 70
     1
102
RTVSPropertyOp11
 70
     1
102
RTVSPropertyOp12
 70
     1
102
RTVSPropertyOp13
 70
     1
102
RTVSPropertyOp14
 70
     1
102
RTVSPropertyOp15
 70
     1
102
RTVSPropertyOp16
 70
     1
102
RTVSPropertyOp17
 70
     1
102
RTVSPropertyOp18
 70
     1
102
RTVSPropertyOp19
 70
     1
102
RTVSPropertyOp20
 70
     1
102
RTVSPropertyOp21
 70
     1
102
RTVSPropertyOp22
 70
     1
102
RTVSPropertyOp23
 70
     1
102
RTVSPropertyOp24
 70
     1
102
RTVSPropertyOp25
 70
     1
102
RTVSPropertyOp26
 70
     1
102
RTVSPropertyOp27
 70
     1
102
RTVSPropertyOp28
 70
     1
102
RTVSPropertyOp29
 70
     1
102
RTVSPropertyOp30
 70
     1
102
RTVSPropertyOp31
 70
     1
102
RTVSPropertyOp32
 70
     1
  0
XRECORD
  5
2E3
102
{ACAD_REACTORS
330
2E2
102
}
330
2E2
100
AcDbXrecord
280
     1
102
RTVSPropertyOp0
 70
     1
102
RTVSPropertyOp1
 70
     1
102
RTVSPropertyOp2
 70
     1
102
RTVSPropertyOp3
 70
     1
102
RTVSPropertyOp4
 70
     1
102
RTVSPropertyOp5
 70
     1
102
RTVSPropertyOp6
 70
     1
102
RTVSPropertyOp7
 70
     1
102
RTVSPropertyOp8
 70
     1
102
RTVSPropertyOp9
 70
     1
102
RTVSPropertyOp10
 70
     1
102
RTVSPropertyOp11
 70
     1
102
RTVSPropertyOp12
 70
     1
102
RTVSPropertyOp13
 70
     1
102
RTVSPropertyOp14
 70
     1
102
RTVSPropertyOp15
 70
     1
102
RTVSPropertyOp16
 70
     1
102
RTVSPropertyOp17
 70
     1
102
RTVSPropertyOp18
 70
     1
102
RTVSPropertyOp19
 70
     1
102
RTVSPropertyOp20
 70
     1
102
RTVSPropertyOp21
 70
     1
102
RTVSPropertyOp22
 70
     1
102
RTVSPropertyOp23
 70
     1
102
RTVSPropertyOp24
 70
     1
102
RTVSPropertyOp25
 70
     1
102
RTVSPropertyOp26
 70
     1
102
RTVSPropertyOp27
 70
     1
102
RTVSPropertyOp28
 70
     1
102
RTVSPropertyOp29
 70
     1
102
RTVSPropertyOp30
 70
     1
102
RTVSPropertyOp31
 70
     1
102
RTVSPropertyOp32
 70
     1
  0
XRECORD
  5
2E7
102
{ACAD_REACTORS
330
2E6
102
}
330
2E6
100
AcDbXrecord
280
     1
102
RTVSPropertyOp0
 70
     1
102
RTVSPropertyOp1
 70
     1
102
RTVSPropertyOp2
 70
     1
102
RTVSPropertyOp3
 70
     1
102
RTVSPropertyOp4
 70
     1
102
RTVSPropertyOp5
 70
     1
102
RTVSPropertyOp6
 70
     1
102
RTVSPropertyOp7
 70
     1
102
RTVSPropertyOp8
 70
     1
102
RTVSPropertyOp9
 70
     1
102
RTVSPropertyOp10
 70
     1
102
RTVSPropertyOp11
 70
     1
102
RTVSPropertyOp12
 70
     1
102
RTVSPropertyOp13
 70
     1
102
RTVSPropertyOp14
 70
     1
102
RTVSPropertyOp15
 70
     1
102
RTVSPropertyOp16
 70
     1
102
RTVSPropertyOp17
 70
     1
102
RTVSPropertyOp18
 70
     1
102
RTVSPropertyOp19
 70
     1
102
RTVSPropertyOp20
 70
     1
102
RTVSPropertyOp21
 70
     1
102
RTVSPropertyOp22
 70
     1
102
RTVSPropertyOp23
 70
     1
102
RTVSPropertyOp24
 70
     1
102
RTVSPropertyOp25
 70
     1
102
RTVSPropertyOp26
 70
     1
102
RTVSPropertyOp27
 70
     1
102
RTVSPropertyOp28
 70
     1
102
RTVSPropertyOp29
 70
     1
102
RTVSPropertyOp30
 70
     1
102
RTVSPropertyOp31
 70
     1
102
RTVSPropertyOp32
 70
     1
  0
XRECORD
  5
2EF
102
{ACAD_REACTORS
330
2EE
102
}
330
2EE
100
AcDbXrecord
280
     1
102
RTVSPropertyOp0
 70
     1
102
RTVSPropertyOp1
 70
     1
102
RTVSPropertyOp2
 70
     1
102
RTVSPropertyOp3
 70
     1
102
RTVSPropertyOp4
 70
     1
102
RTVSPropertyOp5
 70
     1
102
RTVSPropertyOp6
 70
     1
102
RTVSPropertyOp7
 70
     1
102
RTVSPropertyOp8
 70
     1
102
RTVSPropertyOp9
 70
     1
102
RTVSPropertyOp10
 70
     1
102
RTVSPropertyOp11
 70
     1
102
RTVSPropertyOp12
 70
     1
102
RTVSPropertyOp13
 70
     1
102
RTVSPropertyOp14
 70
     1
102
RTVSPropertyOp15
 70
     1
102
RTVSPropertyOp16
 70
     1
102
RTVSPropertyOp17
 70
     1
102
RTVSPropertyOp18
 70
     1
102
RTVSPropertyOp19
 70
     1
102
RTVSPropertyOp20
 70
     1
102
RTVSPropertyOp21
 70
     1
102
RTVSPropertyOp22
 70
     1
102
RTVSPropertyOp23
 70
     1
102
RTVSPropertyOp24
 70
     1
102
RTVSPropertyOp25
 70
     1
102
RTVSPropertyOp26
 70
     1
102
RTVSPropertyOp27
 70
     1
102
RTVSPropertyOp28
 70
     1
102
RTVSPropertyOp29
 70
     1
102
RTVSPropertyOp30
 70
     1
102
RTVSPropertyOp31
 70
     1
102
RTVSPropertyOp32
 70
     1
  0
XRECORD
  5
2F7
102
{ACAD_REACTORS
330
2F6
102
}
330
2F6
100
AcDbXrecord
280
     1
102
RTVSPropertyOp0
 70
     1
102
RTVSPropertyOp1
 70
     1
102
RTVSPropertyOp2
 70
     1
102
RTVSPropertyOp3
 70
     1
102
RTVSPropertyOp4
 70
     1
102
RTVSPropertyOp5
 70
     1
102
RTVSPropertyOp6
 70
     1
102
RTVSPropertyOp7
 70
     1
102
RTVSPropertyOp8
 70
     1
102
RTVSPropertyOp9
 70
     1
102
RTVSPropertyOp10
 70
     1
102
RTVSPropertyOp11
 70
     1
102
RTVSPropertyOp12
 70
     1
102
RTVSPropertyOp13
 70
     1
102
RTVSPropertyOp14
 70
     1
102
RTVSPropertyOp15
 70
     1
102
RTVSPropertyOp16
 70
     1
102
RTVSPropertyOp17
 70
     1
102
RTVSPropertyOp18
 70
     1
102
RTVSPropertyOp19
 70
     1
102
RTVSPropertyOp20
 70
     1
102
RTVSPropertyOp21
 70
     1
102
RTVSPropertyOp22
 70
     1
102
RTVSPropertyOp23
 70
     1
102
RTVSPropertyOp24
 70
     1
102
RTVSPropertyOp25
 70
     1
102
RTVSPropertyOp26
 70
     1
102
RTVSPropertyOp27
 70
     1
102
RTVSPropertyOp28
 70
     1
102
RTVSPropertyOp29
 70
     1
102
RTVSPropertyOp30
 70
     1
102
RTVSPropertyOp31
 70
     1
102
RTVSPropertyOp32
 70
     1
  0
XRECORD
  5
2EB
102
{ACAD_REACTORS
330
2EA
102
}
330
2EA
100
AcDbXrecord
280
     1
102
RTVSPropertyOp0
 70
     1
102
RTVSPropertyOp1
 70
     1
102
RTVSPropertyOp2
 70
     1
102
RTVSPropertyOp3
 70
     1
102
RTVSPropertyOp4
 70
     1
102
RTVSPropertyOp5
 70
     1
102
RTVSPropertyOp6
 70
     1
102
RTVSPropertyOp7
 70
     1
102
RTVSPropertyOp8
 70
     1
102
RTVSPropertyOp9
 70
     1
102
RTVSPropertyOp10
 70
     1
102
RTVSPropertyOp11
 70
     1
102
RTVSPropertyOp12
 70
     1
102
RTVSPropertyOp13
 70
     1
102
RTVSPropertyOp14
 70
     1
102
RTVSPropertyOp15
 70
     1
102
RTVSPropertyOp16
 70
     1
102
RTVSPropertyOp17
 70
     1
102
RTVSPropertyOp18
 70
     1
102
RTVSPropertyOp19
 70
     1
102
RTVSPropertyOp20
 70
     1
102
RTVSPropertyOp21
 70
     1
102
RTVSPropertyOp22
 70
     1
102
RTVSPropertyOp23
 70
     1
102
RTVSPropertyOp24
 70
     1
102
RTVSPropertyOp25
 70
     1
102
RTVSPropertyOp26
 70
     1
102
RTVSPropertyOp27
 70
     1
102
RTVSPropertyOp28
 70
     1
102
RTVSPropertyOp29
 70
     1
102
RTVSPropertyOp30
 70
     1
102
RTVSPropertyOp31
 70
     1
102
RTVSPropertyOp32
 70
     1
  0
XRECORD
  5
2ED
102
{ACAD_REACTORS
330
2EC
102
}
330
2EC
100
AcDbXrecord
280
     1
102
RTVSPropertyOp0
 70
     1
102
RTVSPropertyOp1
 70
     1
102
RTVSPropertyOp2
 70
     1
102
RTVSPropertyOp3
 70
     1
102
RTVSPropertyOp4
 70
     1
102
RTVSPropertyOp5
 70
     1
102
RTVSPropertyOp6
 70
     1
102
RTVSPropertyOp7
 70
     1
102
RTVSPropertyOp8
 70
     1
102
RTVSPropertyOp9
 70
     1
102
RTVSPropertyOp10
 70
     1
102
RTVSPropertyOp11
 70
     1
102
RTVSPropertyOp12
 70
     1
102
RTVSPropertyOp13
 70
     1
102
RTVSPropertyOp14
 70
     1
102
RTVSPropertyOp15
 70
     1
102
RTVSPropertyOp16
 70
     1
102
RTVSPropertyOp17
 70
     1
102
RTVSPropertyOp18
 70
     1
102
RTVSPropertyOp19
 70
     1
102
RTVSPropertyOp20
 70
     1
102
RTVSPropertyOp21
 70
     1
102
RTVSPropertyOp22
 70
     1
102
RTVSPropertyOp23
 70
     1
102
RTVSPropertyOp24
 70
     1
102
RTVSPropertyOp25
 70
     1
102
RTVSPropertyOp26
 70
     1
102
RTVSPropertyOp27
 70
     1
102
RTVSPropertyOp28
 70
     1
102
RTVSPropertyOp29
 70
     1
102
RTVSPropertyOp30
 70
     1
102
RTVSPropertyOp31
 70
     1
102
RTVSPropertyOp32
 70
     1
  0
XRECORD
  5
2F5
102
{ACAD_REACTORS
330
2F4
102
}
330
2F4
100
AcDbXrecord
280
     1
102
RTVSPropertyOp0
 70
     1
102
RTVSPropertyOp1
 70
     1
102
RTVSPropertyOp2
 70
     1
102
RTVSPropertyOp3
 70
     1
102
RTVSPropertyOp4
 70
     1
102
RTVSPropertyOp5
 70
     1
102
RTVSPropertyOp6
 70
     1
102
RTVSPropertyOp7
 70
     1
102
RTVSPropertyOp8
 70
     1
102
RTVSPropertyOp9
 70
     1
102
RTVSPropertyOp10
 70
     1
102
RTVSPropertyOp11
 70
     1
102
RTVSPropertyOp12
 70
     1
102
RTVSPropertyOp13
 70
     1
102
RTVSPropertyOp14
 70
     1
102
RTVSPropertyOp15
 70
     1
102
RTVSPropertyOp16
 70
     1
102
RTVSPropertyOp17
 70
     1
102
RTVSPropertyOp18
 70
     1
102
RTVSPropertyOp19
 70
     1
102
RTVSPropertyOp20
 70
     1
102
RTVSPropertyOp21
 70
     1
102
RTVSPropertyOp22
 70
     1
102
RTVSPropertyOp23
 70
     1
102
RTVSPropertyOp24
 70
     1
102
RTVSPropertyOp25
 70
     1
102
RTVSPropertyOp26
 70
     1
102
RTVSPropertyOp27
 70
     1
102
RTVSPropertyOp28
 70
     1
102
RTVSPropertyOp29
 70
     1
102
RTVSPropertyOp30
 70
     1
102
RTVSPropertyOp31
 70
     1
102
RTVSPropertyOp32
 70
     1
  0
XRECORD
  5
2D9
102
{ACAD_REACTORS
330
2D8
102
}
330
2D8
100
AcDbXrecord
280
     1
102
RTVSPropertyOp0
 70
     1
102
RTVSPropertyOp1
 70
     1
102
RTVSPropertyOp2
 70
     1
102
RTVSPropertyOp3
 70
     1
102
RTVSPropertyOp4
 70
     1
102
RTVSPropertyOp5
 70
     1
102
RTVSPropertyOp6
 70
     1
102
RTVSPropertyOp7
 70
     1
102
RTVSPropertyOp8
 70
     1
102
RTVSPropertyOp9
 70
     1
102
RTVSPropertyOp10
 70
     1
102
RTVSPropertyOp11
 70
     1
102
RTVSPropertyOp12
 70
     1
102
RTVSPropertyOp13
 70
     1
102
RTVSPropertyOp14
 70
     1
102
RTVSPropertyOp15
 70
     1
102
RTVSPropertyOp16
 70
     1
102
RTVSPropertyOp17
 70
     1
102
RTVSPropertyOp18
 70
     1
102
RTVSPropertyOp19
 70
     1
102
RTVSPropertyOp20
 70
     1
102
RTVSPropertyOp21
 70
     1
102
RTVSPropertyOp22
 70
     1
102
RTVSPropertyOp23
 70
     1
102
RTVSPropertyOp24
 70
     1
102
RTVSPropertyOp25
 70
     1
102
RTVSPropertyOp26
 70
     1
102
RTVSPropertyOp27
 70
     1
102
RTVSPropertyOp28
 70
     1
102
RTVSPropertyOp29
 70
     1
102
RTVSPropertyOp30
 70
     1
102
RTVSPropertyOp31
 70
     1
102
RTVSPropertyOp32
 70
     1
  0
XRECORD
  5
2DB
102
{ACAD_REACTORS
330
2DA
102
}
330
2DA
100
AcDbXrecord
280
     1
102
RTVSPropertyOp0
 70
     1
102
RTVSPropertyOp1
 70
     1
102
RTVSPropertyOp2
 70
     1
102
RTVSPropertyOp3
 70
     1
102
RTVSPropertyOp4
 70
     1
102
RTVSPropertyOp5
 70
     1
102
RTVSPropertyOp6
 70
     1
102
RTVSPropertyOp7
 70
     1
102
RTVSPropertyOp8
 70
     1
102
RTVSPropertyOp9
 70
     1
102
RTVSPropertyOp10
 70
     1
102
RTVSPropertyOp11
 70
     1
102
RTVSPropertyOp12
 70
     1
102
RTVSPropertyOp13
 70
     1
102
RTVSPropertyOp14
 70
     1
102
RTVSPropertyOp15
 70
     1
102
RTVSPropertyOp16
 70
     1
102
RTVSPropertyOp17
 70
     1
102
RTVSPropertyOp18
 70
     1
102
RTVSPropertyOp19
 70
     1
102
RTVSPropertyOp20
 70
     1
102
RTVSPropertyOp21
 70
     1
102
RTVSPropertyOp22
 70
     1
102
RTVSPropertyOp23
 70
     1
102
RTVSPropertyOp24
 70
     1
102
RTVSPropertyOp25
 70
     1
102
RTVSPropertyOp26
 70
     1
102
RTVSPropertyOp27
 70
     1
102
RTVSPropertyOp28
 70
     1
102
RTVSPropertyOp29
 70
     1
102
RTVSPropertyOp30
 70
     1
102
RTVSPropertyOp31
 70
     1
102
RTVSPropertyOp32
 70
     1
  0
XRECORD
  5
2DD
102
{ACAD_REACTORS
330
2DC
102
}
330
2DC
100
AcDbXrecord
280
     1
102
RTVSPropertyOp0
 70
     1
102
RTVSPropertyOp1
 70
     1
102
RTVSPropertyOp2
 70
     1
102
RTVSPropertyOp3
 70
     1
102
RTVSPropertyOp4
 70
     1
102
RTVSPropertyOp5
 70
     1
102
RTVSPropertyOp6
 70
     1
102
RTVSPropertyOp7
 70
     1
102
RTVSPropertyOp8
 70
     1
102
RTVSPropertyOp9
 70
     1
102
RTVSPropertyOp10
 70
     1
102
RTVSPropertyOp11
 70
     1
102
RTVSPropertyOp12
 70
     1
102
RTVSPropertyOp13
 70
     1
102
RTVSPropertyOp14
 70
     1
102
RTVSPropertyOp15
 70
     1
102
RTVSPropertyOp16
 70
     1
102
RTVSPropertyOp17
 70
     1
102
RTVSPropertyOp18
 70
     1
102
RTVSPropertyOp19
 70
     1
102
RTVSPropertyOp20
 70
     1
102
RTVSPropertyOp21
 70
     1
102
RTVSPropertyOp22
 70
     1
102
RTVSPropertyOp23
 70
     1
102
RTVSPropertyOp24
 70
     1
102
RTVSPropertyOp25
 70
     1
102
RTVSPropertyOp26
 70
     1
102
RTVSPropertyOp27
 70
     1
102
RTVSPropertyOp28
 70
     1
102
RTVSPropertyOp29
 70
     1
102
RTVSPropertyOp30
 70
     1
102
RTVSPropertyOp31
 70
     1
102
RTVSPropertyOp32
 70
     1
  0
XRECORD
  5
2DF
102
{ACAD_REACTORS
330
2DE
102
}
330
2DE
100
AcDbXrecord
280
     1
102
RTVSPropertyOp0
 70
     1
102
RTVSPropertyOp1
 70
     1
102
RTVSPropertyOp2
 70
     1
102
RTVSPropertyOp3
 70
     1
102
RTVSPropertyOp4
 70
     1
102
RTVSPropertyOp5
 70
     1
102
RTVSPropertyOp6
 70
     1
102
RTVSPropertyOp7
 70
     1
102
RTVSPropertyOp8
 70
     1
102
RTVSPropertyOp9
 70
     1
102
RTVSPropertyOp10
 70
     1
102
RTVSPropertyOp11
 70
     1
102
RTVSPropertyOp12
 70
     1
102
RTVSPropertyOp13
 70
     1
102
RTVSPropertyOp14
 70
     1
102
RTVSPropertyOp15
 70
     1
102
RTVSPropertyOp16
 70
     1
102
RTVSPropertyOp17
 70
     1
102
RTVSPropertyOp18
 70
     1
102
RTVSPropertyOp19
 70
     1
102
RTVSPropertyOp20
 70
     1
102
RTVSPropertyOp21
 70
     1
102
RTVSPropertyOp22
 70
     1
102
RTVSPropertyOp23
 70
     1
102
RTVSPropertyOp24
 70
     1
102
RTVSPropertyOp25
 70
     1
102
RTVSPropertyOp26
 70
     1
102
RTVSPropertyOp27
 70
     1
102
RTVSPropertyOp28
 70
     1
102
RTVSPropertyOp29
 70
     1
102
RTVSPropertyOp30
 70
     1
102
RTVSPropertyOp31
 70
     1
102
RTVSPropertyOp32
 70
     1
  0
XRECORD
  5
2F3
102
{ACAD_REACTORS
330
2F2
102
}
330
2F2
100
AcDbXrecord
280
     1
102
RTVSPropertyOp0
 70
     1
102
RTVSPropertyOp1
 70
     1
102
RTVSPropertyOp2
 70
     1
102
RTVSPropertyOp3
 70
     1
102
RTVSPropertyOp4
 70
     1
102
RTVSPropertyOp5
 70
     1
102
RTVSPropertyOp6
 70
     1
102
RTVSPropertyOp7
 70
     1
102
RTVSPropertyOp8
 70
     1
102
RTVSPropertyOp9
 70
     1
102
RTVSPropertyOp10
 70
     1
102
RTVSPropertyOp11
 70
     1
102
RTVSPropertyOp12
 70
     1
102
RTVSPropertyOp13
 70
     1
102
RTVSPropertyOp14
 70
     1
102
RTVSPropertyOp15
 70
     1
102
RTVSPropertyOp16
 70
     1
102
RTVSPropertyOp17
 70
     1
102
RTVSPropertyOp18
 70
     1
102
RTVSPropertyOp19
 70
     1
102
RTVSPropertyOp20
 70
     1
102
RTVSPropertyOp21
 70
     1
102
RTVSPropertyOp22
 70
     1
102
RTVSPropertyOp23
 70
     1
102
RTVSPropertyOp24
 70
     1
102
RTVSPropertyOp25
 70
     1
102
RTVSPropertyOp26
 70
     1
102
RTVSPropertyOp27
 70
     1
102
RTVSPropertyOp28
 70
     1
102
RTVSPropertyOp29
 70
     1
102
RTVSPropertyOp30
 70
     1
102
RTVSPropertyOp31
 70
     1
102
RTVSPropertyOp32
 70
     1
  0
XRECORD
  5
2E9
102
{ACAD_REACTORS
330
2E8
102
}
330
2E8
100
AcDbXrecord
280
     1
102
RTVSPropertyOp0
 70
     1
102
RTVSPropertyOp1
 70
     1
102
RTVSPropertyOp2
 70
     1
102
RTVSPropertyOp3
 70
     1
102
RTVSPropertyOp4
 70
     1
102
RTVSPropertyOp5
 70
     1
102
RTVSPropertyOp6
 70
     1
102
RTVSPropertyOp7
 70
     1
102
RTVSPropertyOp8
 70
     1
102
RTVSPropertyOp9
 70
     1
102
RTVSPropertyOp10
 70
     1
102
RTVSPropertyOp11
 70
     1
102
RTVSPropertyOp12
 70
     1
102
RTVSPropertyOp13
 70
     1
102
RTVSPropertyOp14
 70
     1
102
RTVSPropertyOp15
 70
     1
102
RTVSPropertyOp16
 70
     1
102
RTVSPropertyOp17
 70
     1
102
RTVSPropertyOp18
 70
     1
102
RTVSPropertyOp19
 70
     1
102
RTVSPropertyOp20
 70
     1
102
RTVSPropertyOp21
 70
     1
102
RTVSPropertyOp22
 70
     1
102
RTVSPropertyOp23
 70
     1
102
RTVSPropertyOp24
 70
     1
102
RTVSPropertyOp25
 70
     1
102
RTVSPropertyOp26
 70
     1
102
RTVSPropertyOp27
 70
     1
102
RTVSPropertyOp28
 70
     1
102
RTVSPropertyOp29
 70
     1
102
RTVSPropertyOp30
 70
     1
102
RTVSPropertyOp31
 70
     1
102
RTVSPropertyOp32
 70
     1
  0
XRECORD
  5
2F1
102
{ACAD_REACTORS
330
2F0
102
}
330
2F0
100
AcDbXrecord
280
     1
102
RTVSPropertyOp0
 70
     1
102
RTVSPropertyOp1
 70
     1
102
RTVSPropertyOp2
 70
     1
102
RTVSPropertyOp3
 70
     1
102
RTVSPropertyOp4
 70
     1
102
RTVSPropertyOp5
 70
     1
102
RTVSPropertyOp6
 70
     1
102
RTVSPropertyOp7
 70
     1
102
RTVSPropertyOp8
 70
     1
102
RTVSPropertyOp9
 70
     1
102
RTVSPropertyOp10
 70
     1
102
RTVSPropertyOp11
 70
     1
102
RTVSPropertyOp12
 70
     1
102
RTVSPropertyOp13
 70
     1
102
RTVSPropertyOp14
 70
     1
102
RTVSPropertyOp15
 70
     1
102
RTVSPropertyOp16
 70
     1
102
RTVSPropertyOp17
 70
     1
102
RTVSPropertyOp18
 70
     1
102
RTVSPropertyOp19
 70
     1
102
RTVSPropertyOp20
 70
     1
102
RTVSPropertyOp21
 70
     1
102
RTVSPropertyOp22
 70
     1
102
RTVSPropertyOp23
 70
     1
102
RTVSPropertyOp24
 70
     1
102
RTVSPropertyOp25
 70
     1
102
RTVSPropertyOp26
 70
     1
102
RTVSPropertyOp27
 70
     1
102
RTVSPropertyOp28
 70
     1
102
RTVSPropertyOp29
 70
     1
102
RTVSPropertyOp30
 70
     1
102
RTVSPropertyOp31
 70
     1
102
RTVSPropertyOp32
 70
     1
  0
ENDSEC
  0
EOF
