  0
SECTION
  2
HEADER
  9
$ACADVER
  1
AC1015
  9
$ACADMAINTVER
 70
     6
  9
$DWGCODEPAGE
  3
ANSI_932
  9
$INSBASE
 10
0.0
 20
0.0
 30
0.0
  9
$EXTMIN
 10
0.0
 20
0.0
 30
0.0
  9
$EXTMAX
 10
525.0
 20
742.5
 30
0.0
  9
$LIMMIN
 10
0.0
 20
0.0
  9
$LIMMAX
 10
12.0
 20
9.0
  9
$ORTHOMODE
 70
     0
  9
$REGENMODE
 70
     1
  9
$FILLMODE
 70
     1
  9
$QTEXTMODE
 70
     0
  9
$MIRRTEXT
 70
     1
  9
$LTSCALE
 40
1.0
  9
$ATTMODE
 70
     1
  9
$TEXTSIZE
 40
0.2
  9
$TRACEWID
 40
0.05
  9
$TEXTSTYLE
  7
Standard
  9
$CLAYER
  8
0
  9
$CELTYPE
  6
ByLayer
  9
$CECOLOR
 62
   256
  9
$CELTSCALE
 40
1.0
  9
$DISPSILH
 70
     0
  9
$DIMSCALE
 40
1.0
  9
$DIMASZ
 40
0.18
  9
$DIMEXO
 40
0.0625
  9
$DIMDLI
 40
0.38
  9
$DIMRND
 40
0.0
  9
$DIMDLE
 40
0.0
  9
$DIMEXE
 40
0.18
  9
$DIMTP
 40
0.0
  9
$DIMTM
 40
0.0
  9
$DIMTXT
 40
0.18
  9
$DIMCEN
 40
0.09
  9
$DIMTSZ
 40
0.0
  9
$DIMTOL
 70
     0
  9
$DIMLIM
 70
     0
  9
$DIMTIH
 70
     1
  9
$DIMTOH
 70
     1
  9
$DIMSE1
 70
     0
  9
$DIMSE2
 70
     0
  9
$DIMTAD
 70
     0
  9
$DIMZIN
 70
     0
  9
$DIMBLK
  1

  9
$DIMASO
 70
     1
  9
$DIMSHO
 70
     1
  9
$DIMPOST
  1

  9
$DIMAPOST
  1

  9
$DIMALT
 70
     0
  9
$DIMALTD
 70
     2
  9
$DIMALTF
 40
25.4
  9
$DIMLFAC
 40
1.0
  9
$DIMTOFL
 70
     0
  9
$DIMTVP
 40
0.0
  9
$DIMTIX
 70
     0
  9
$DIMSOXD
 70
     0
  9
$DIMSAH
 70
     0
  9
$DIMBLK1
  1

  9
$DIMBLK2
  1

  9
$DIMSTYLE
  2
Standard
  9
$DIMCLRD
 70
     0
  9
$DIMCLRE
 70
     0
  9
$DIMCLRT
 70
     0
  9
$DIMTFAC
 40
1.0
  9
$DIMGAP
 40
0.09
  9
$DIMJUST
 70
     0
  9
$DIMSD1
 70
     0
  9
$DIMSD2
 70
     0
  9
$DIMTOLJ
 70
     1
  9
$DIMTZIN
 70
     0
  9
$DIMALTZ
 70
     0
  9
$DIMALTTZ
 70
     0
  9
$DIMUPT
 70
     0
  9
$DIMDEC
 70
     4
  9
$DIMTDEC
 70
     4
  9
$DIMALTU
 70
     2
  9
$DIMALTTD
 70
     2
  9
$DIMTXSTY
  7
Standard
  9
$DIMAUNIT
 70
     0
  9
$DIMADEC
 70
     0
  9
$DIMALTRND
 40
0.0
  9
$DIMAZIN
 70
     0
  9
$DIMDSEP
 70
    46
  9
$DIMATFIT
 70
     3
  9
$DIMFRAC
 70
     0
  9
$DIMLDRBLK
  1

  9
$DIMLUNIT
 70
     2
  9
$DIMLWD
 70
    -2
  9
$DIMLWE
 70
    -2
  9
$DIMTMOVE
 70
     0
  9
$LUNITS
 70
     2
  9
$LUPREC
 70
     4
  9
$SKETCHINC
 40
0.1
  9
$FILLETRAD
 40
0.5
  9
$AUNITS
 70
     0
  9
$AUPREC
 70
     0
  9
$MENU
  1
.
  9
$ELEVATION
 40
0.0
  9
$PELEVATION
 40
0.0
  9
$THICKNESS
 40
0.0
  9
$LIMCHECK
 70
     0
  9
$CHAMFERA
 40
0.5
  9
$CHAMFERB
 40
0.5
  9
$CHAMFERC
 40
1.0
  9
$CHAMFERD
 40
0.0
  9
$SKPOLY
 70
     0
  9
$TDCREATE
 40
2456548.598618877
  9
$TDUCREATE
 40
2456548.223618877
  9
$TDUPDATE
 40
2456548.598619595
  9
$TDUUPDATE
 40
2456548.223619595
  9
$TDINDWG
 40
0.0000000116
  9
$TDUSRTIMER
 40
0.0000000116
  9
$USRTIMER
 70
     1
  9
$ANGBASE
 50
0.0
  9
$ANGDIR
 70
     0
  9
$PDMODE
 70
     0
  9
$PDSIZE
 40
0.0
  9
$PLINEWID
 40
0.0
  9
$SPLFRAME
 70
     0
  9
$SPLINETYPE
 70
     6
  9
$SPLINESEGS
 70
     8
  9
$HANDSEED
  5
2E9
  9
$SURFTAB1
 70
     6
  9
$SURFTAB2
 70
     6
  9
$SURFTYPE
 70
     6
  9
$SURFU
 70
     6
  9
$SURFV
 70
     6
  9
$UCSBASE
  2

  9
$UCSNAME
  2

  9
$UCSORG
 10
0.0
 20
0.0
 30
0.0
  9
$UCSXDIR
 10
1.0
 20
0.0
 30
0.0
  9
$UCSYDIR
 10
0.0
 20
1.0
 30
0.0
  9
$UCSORTHOREF
  2

  9
$UCSORTHOVIEW
 70
     0
  9
$UCSORGTOP
 10
0.0
 20
0.0
 30
0.0
  9
$UCSORGBOTTOM
 10
0.0
 20
0.0
 30
0.0
  9
$UCSORGLEFT
 10
0.0
 20
0.0
 30
0.0
  9
$UCSORGRIGHT
 10
0.0
 20
0.0
 30
0.0
  9
$UCSORGFRONT
 10
0.0
 20
0.0
 30
0.0
  9
$UCSORGBACK
 10
0.0
 20
0.0
 30
0.0
  9
$PUCSBASE
  2

  9
$PUCSNAME
  2

  9
$PUCSORG
 10
0.0
 20
0.0
 30
0.0
  9
$PUCSXDIR
 10
1.0
 20
0.0
 30
0.0
  9
$PUCSYDIR
 10
0.0
 20
1.0
 30
0.0
  9
$PUCSORTHOREF
  2

  9
$PUCSORTHOVIEW
 70
     0
  9
$PUCSORGTOP
 10
0.0
 20
0.0
 30
0.0
  9
$PUCSORGBOTTOM
 10
0.0
 20
0.0
 30
0.0
  9
$PUCSORGLEFT
 10
0.0
 20
0.0
 30
0.0
  9
$PUCSORGRIGHT
 10
0.0
 20
0.0
 30
0.0
  9
$PUCSORGFRONT
 10
0.0
 20
0.0
 30
0.0
  9
$PUCSORGBACK
 10
0.0
 20
0.0
 30
0.0
  9
$USERI1
 70
     0
  9
$USERI2
 70
     0
  9
$USERI3
 70
     0
  9
$USERI4
 70
     0
  9
$USERI5
 70
     0
  9
$USERR1
 40
18.1
  9
$USERR2
 40
0.0
  9
$USERR3
 40
0.0
  9
$USERR4
 40
0.0
  9
$USERR5
 40
0.0
  9
$WORLDVIEW
 70
     1
  9
$SHADEDGE
 70
     3
  9
$SHADEDIF
 70
    70
  9
$TILEMODE
 70
     1
  9
$MAXACTVP
 70
    64
  9
$PINSBASE
 10
0.0
 20
0.0
 30
0.0
  9
$PLIMCHECK
 70
     0
  9
$PEXTMIN
 10
1.00000000000000E+20
 20
1.00000000000000E+20
 30
1.00000000000000E+20
  9
$PEXTMAX
 10
-1.00000000000000E+20
 20
-1.00000000000000E+20
 30
-1.00000000000000E+20
  9
$PLIMMIN
 10
0.0
 20
0.0
  9
$PLIMMAX
 10
12.0
 20
9.0
  9
$UNITMODE
 70
     0
  9
$VISRETAIN
 70
     1
  9
$PLINEGEN
 70
     0
  9
$PSLTSCALE
 70
     1
  9
$TREEDEPTH
 70
  3020
  9
$CMLSTYLE
  2
Standard
  9
$CMLJUST
 70
     0
  9
$CMLSCALE
 40
1.0
  9
$PROXYGRAPHICS
 70
     1
  9
$MEASUREMENT
 70
     1
  9
$CELWEIGHT
370
    -1
  9
$ENDCAPS
280
     0
  9
$JOINSTYLE
280
     0
  9
$LWDISPLAY
290
     0
  9
$INSUNITS
 70
     4
  9
$HYPERLINKBASE
  1

  9
$STYLESHEET
  1

  9
$XEDIT
290
     1
  9
$CEPSNTYPE
380
     0
  9
$PSTYLEMODE
290
     1
  9
$FINGERPRINTGUID
  2
{B2B8DE11-D547-46A6-AA0C-60EFB3990010}
  9
$VERSIONGUID
  2
{FAEB1C32-E019-11D5-929B-00C0DF256EC4}
  9
$EXTNAMES
290
     1
  9
$PSVPSCALE
 40
0.0
  9
$OLESTARTUP
290
     0
  0
ENDSEC
  0
SECTION
  2
CLASSES
  0
CLASS
  1
ACDBDICTIONARYWDFLT
  2
AcDbDictionaryWithDefault
  3
ObjectDBX Classes
 90
        0
280
     0
281
     0
  0
CLASS
  1
VISUALSTYLE
  2
AcDbVisualStyle
  3
ObjectDBX Classes
 90
     4095
280
     0
281
     0
  0
CLASS
  1
MATERIAL
  2
AcDbMaterial
  3
ObjectDBX Classes
 90
     1153
280
     0
281
     0
  0
CLASS
  1
DICTIONARYVAR
  2
AcDbDictionaryVar
  3
ObjectDBX Classes
 90
        0
280
     0
281
     0
  0
CLASS
  1
ACDBPLACEHOLDER
  2
AcDbPlaceHolder
  3
ObjectDBX Classes
 90
        0
280
     0
281
     0
  0
CLASS
  1
LAYOUT
  2
AcDbLayout
  3
ObjectDBX Classes
 90
        0
280
     0
281
     0
  0
ENDSEC
  0
SECTION
  2
TABLES
  0
TABLE
  2
VPORT
  5
8
330
0
100
AcDbSymbolTable
 70
     1
  0
VPORT
  5
29
330
8
100
AcDbSymbolTableRecord
100
AcDbViewportTableRecord
  2
*Active
 70
     0
 10
0.0
 20
0.0
 11
1.0
 21
1.0
 12
262.5
 22
371.25
 13
0.0
 23
0.0
 14
0.5
 24
0.5
 15
0.5
 25
0.5
 16
0.0
 26
0.0
 36
1.0
 17
0.0
 27
0.0
 37
0.0
 40
816.7500000000001
 41
1.60267857142857
 42
50.0
 43
0.0
 44
0.0
 50
0.0
 51
0.0
 71
     0
 72
   100
 73
     1
 74
     3
 75
     0
 76
     0
 77
     0
 78
     0
281
     0
 65
     1
110
0.0
120
0.0
130
0.0
111
1.0
121
0.0
131
0.0
112
0.0
122
1.0
132
0.0
 79
     0
146
0.0
  0
ENDTAB
  0
TABLE
  2
LTYPE
  5
5
330
0
100
AcDbSymbolTable
 70
     8
  0
LTYPE
  5
14
330
5
100
AcDbSymbolTableRecord
100
AcDbLinetypeTableRecord
  2
ByBlock
 70
     0
  3

 72
    65
 73
     0
 40
0.0
  0
LTYPE
  5
15
330
5
100
AcDbSymbolTableRecord
100
AcDbLinetypeTableRecord
  2
ByLayer
 70
     0
  3

 72
    65
 73
     0
 40
0.0
  0
LTYPE
  5
16
330
5
100
AcDbSymbolTableRecord
100
AcDbLinetypeTableRecord
  2
Continuous
 70
     0
  3
Solid line
 72
    65
 73
     0
 40
0.0
  0
LTYPE
  5
3F
330
5
100
AcDbSymbolTableRecord
100
AcDbLinetypeTableRecord
  2
DASHED
 70
     0
  3
Dashed
 72
    65
 73
     2
 40
15.0
 49
7.0
 74
     0
 49
-8.0
 74
     0
  0
LTYPE
  5
40
330
5
100
AcDbSymbolTableRecord
100
AcDbLinetypeTableRecord
  2
DOTTED
 70
     0
  3
Dotted
 72
    65
 73
     2
 40
1.0
 49
0.0
 74
     0
 49
-1.0
 74
     0
  0
LTYPE
  5
41
330
5
100
AcDbSymbolTableRecord
100
AcDbLinetypeTableRecord
  2
DOT_CENTER
 70
     0
  3
Dot_Center
 72
    65
 73
     4
 40
14.0
 49
12.0
 74
     0
 49
-1.0
 74
     0
 49
0.0
 74
     0
 49
-1.0
 74
     0
  0
LTYPE
  5
42
330
5
100
AcDbSymbolTableRecord
100
AcDbLinetypeTableRecord
  2
LONG_DASHED
 70
     0
  3
Long_Dashed
 72
    65
 73
     2
 40
15.0
 49
10.0
 74
     0
 49
-5.0
 74
     0
  0
LTYPE
  5
43
330
5
100
AcDbSymbolTableRecord
100
AcDbLinetypeTableRecord
  2
DASH_CENTER
 70
     0
  3
Dash_Center
 72
    65
 73
     4
 40
14.0
 49
11.0
 74
     0
 49
-1.0
 74
     0
 49
1.0
 74
     0
 49
-1.0
 74
     0
  0
LTYPE
  5
44
330
5
100
AcDbSymbolTableRecord
100
AcDbLinetypeTableRecord
  2
PHANTOM
 70
     0
  3
Phantom
 72
    65
 73
     6
 40
13.0
 49
10.0
 74
     0
 49
-1.0
 74
     0
 49
0.0
 74
     0
 49
-1.0
 74
     0
 49
0.0
 74
     0
 49
-1.0
 74
     0
  0
LTYPE
  5
45
330
5
100
AcDbSymbolTableRecord
100
AcDbLinetypeTableRecord
  2
CENTER_DASH_DASH
 70
     0
  3
Center_Dash_Dash
 72
    65
 73
     6
 40
14.0
 49
9.0
 74
     0
 49
-1.0
 74
     0
 49
1.0
 74
     0
 49
-1.0
 74
     0
 49
1.0
 74
     0
 49
-1.0
 74
     0
  0
ENDTAB
  0
TABLE
  2
LAYER
  5
2
330
0
100
AcDbSymbolTable
 70
     2
  0
LAYER
  5
10
330
2
100
AcDbSymbolTableRecord
100
AcDbLayerTableRecord
  2
0
 70
     0
 62
     7
  6
Continuous
370
    -3
390
F
  0
LAYER
  5
46
330
2
100
AcDbSymbolTableRecord
100
AcDbLayerTableRecord
  2
1
 70
     0
 62
     7
  6
Continuous
370
    -3
390
F
  0
ENDTAB
  0
TABLE
  2
STYLE
  5
3
330
0
100
AcDbSymbolTable
 70
     3
  0
STYLE
  5
11
330
3
100
AcDbSymbolTableRecord
100
AcDbTextStyleTableRecord
  2
Standard
 70
     0
 40
0.0
 41
1.0
 50
0.0
 71
     0
 42
0.2
  3
txt
  4

  0
STYLE
  5
167
330
3
100
AcDbSymbolTableRecord
100
AcDbTextStyleTableRecord
  2
CONVERTER_11
 70
     0
 40
0.0
 41
0.89
 50
0.0
 71
     0
 42
0.2
  3
MS Mincho.ttf
  4

1001
ACAD
1000
MS Mincho
1071
    32785
  0
STYLE
  5
25D
330
3
100
AcDbSymbolTableRecord
100
AcDbTextStyleTableRecord
  2
CONVERTER_12
 70
     0
 40
0.0
 41
0.9
 50
0.0
 71
     0
 42
0.2
  3
txt.shx
  4

  0
ENDTAB
  0
TABLE
  2
VIEW
  5
6
330
0
100
AcDbSymbolTable
 70
     0
  0
ENDTAB
  0
TABLE
  2
UCS
  5
7
330
0
100
AcDbSymbolTable
 70
     0
  0
ENDTAB
  0
TABLE
  2
APPID
  5
9
330
0
100
AcDbSymbolTable
 70
     1
  0
APPID
  5
12
330
9
100
AcDbSymbolTableRecord
100
AcDbRegAppTableRecord
  2
ACAD
 70
     0
  0
ENDTAB
  0
TABLE
  2
DIMSTYLE
  5
A
330
0
100
AcDbSymbolTable
 70
     9
100
AcDbDimStyleTable
  0
DIMSTYLE
105
27
330
A
100
AcDbSymbolTableRecord
100
AcDbDimStyleTableRecord
  2
Standard
 70
     0
178
     0
340
11
  0
DIMSTYLE
105
26D
102
{ACAD_REACTORS
330
26E
102
}
330
A
100
AcDbSymbolTableRecord
100
AcDbDimStyleTableRecord
  2
ME10_DIM_10
 70
     0
 41
8.75
 42
0.0
 44
2.5
 73
     0
 74
     0
 77
     1
 78
     8
140
8.75
147
2.5
172
     1
173
     1
174
     1
175
     1
176
     2
177
     2
271
     2
178
     7
271
     2
340
25D
  0
DIMSTYLE
105
27A
102
{ACAD_REACTORS
330
27B
102
}
330
A
100
AcDbSymbolTableRecord
100
AcDbDimStyleTableRecord
  2
ME10_DIM_11
 70
     0
 41
8.75
 42
0.0
 44
2.5
 73
     0
 74
     0
 77
     1
 78
     8
140
8.75
147
2.5
172
     1
173
     1
174
     1
175
     1
176
     2
177
     2
271
     2
178
     7
271
     2
340
25D
  0
DIMSTYLE
105
285
102
{ACAD_REACTORS
330
286
102
}
330
A
100
AcDbSymbolTableRecord
100
AcDbDimStyleTableRecord
  2
ME10_DIM_12
 70
     0
 41
8.75
 42
0.0
 44
2.5
 73
     0
 74
     0
 77
     1
 78
     8
140
8.75
147
2.5
172
     1
173
     1
174
     1
175
     1
176
     2
177
     2
271
     2
178
     7
271
     2
340
25D
  0
DIMSTYLE
105
290
102
{ACAD_REACTORS
330
291
102
}
330
A
100
AcDbSymbolTableRecord
100
AcDbDimStyleTableRecord
  2
ME10_DIM_13
 70
     0
 41
8.75
 42
0.0
 44
2.5
 73
     0
 74
     0
 77
     1
 78
     8
140
8.75
147
2.5
172
     1
173
     1
174
     1
175
     1
176
     2
177
     2
271
     2
178
     7
271
     2
340
25D
  0
DIMSTYLE
105
29B
102
{ACAD_REACTORS
330
29C
102
}
330
A
100
AcDbSymbolTableRecord
100
AcDbDimStyleTableRecord
  2
ME10_DIM_14
 70
     0
 41
8.75
 42
0.0
 44
2.5
 73
     0
 74
     0
 77
     1
 78
     8
140
8.75
147
2.5
172
     1
173
     1
174
     1
175
     1
176
     2
177
     2
271
     2
178
     7
271
     2
340
25D
  0
DIMSTYLE
105
2A6
102
{ACAD_REACTORS
330
2A7
102
}
330
A
100
AcDbSymbolTableRecord
100
AcDbDimStyleTableRecord
  2
ME10_DIM_15
 70
     0
 41
8.75
 42
0.0
 44
2.5
 73
     0
 74
     0
 77
     1
 78
     8
140
8.75
147
2.5
172
     1
173
     1
174
     1
175
     1
176
     2
177
     2
271
     2
178
     7
271
     2
340
25D
  0
DIMSTYLE
105
2B1
102
{ACAD_REACTORS
330
2B2
102
}
330
A
100
AcDbSymbolTableRecord
100
AcDbDimStyleTableRecord
  2
ME10_DIM_16
 70
     0
 41
8.75
 42
0.0
 44
2.5
 73
     0
 74
     0
 77
     1
 78
     8
140
8.75
147
2.5
172
     1
173
     1
174
     1
175
     1
176
     2
177
     2
271
     2
178
     7
271
     2
340
167
  0
DIMSTYLE
105
2BC
102
{ACAD_REACTORS
330
2BD
102
}
330
A
100
AcDbSymbolTableRecord
100
AcDbDimStyleTableRecord
  2
ME10_DIM_17
 70
     0
  3
{\Fgdt;n}<>
 41
8.75
 42
0.0
 44
2.5
 73
     0
 74
     0
 77
     1
 78
     8
140
8.75
147
2.5
172
     1
173
     1
174
     1
175
     1
176
     2
177
     2
271
     2
178
     7
271
     2
340
25D
  0
ENDTAB
  0
TABLE
  2
BLOCK_RECORD
  5
1
330
0
100
AcDbSymbolTable
 70
    19
  0
BLOCK_RECORD
  5
1F
330
1
100
AcDbSymbolTableRecord
100
AcDbBlockTableRecord
  2
*Model_Space
340
22
  0
BLOCK_RECORD
  5
1B
330
1
100
AcDbSymbolTableRecord
100
AcDbBlockTableRecord
  2
*Paper_Space
340
1E
  0
BLOCK_RECORD
  5
23
330
1
100
AcDbSymbolTableRecord
100
AcDbBlockTableRecord
  2
*Paper_Space0
340
26
  0
BLOCK_RECORD
  5
47
330
1
100
AcDbSymbolTableRecord
100
AcDbBlockTableRecord
  2
36-190-M11
340
0
102
{BLKREFS
331
4E
102
}
  0
BLOCK_RECORD
  5
4A
330
1
100
AcDbSymbolTableRecord
100
AcDbBlockTableRecord
  2
37-119
340
0
102
{BLKREFS
331
4F
102
}
  0
BLOCK_RECORD
  5
4D
330
1
100
AcDbSymbolTableRecord
100
AcDbBlockTableRecord
  2
U360S-13
340
0
102
{BLKREFS
331
69
102
}
  0
BLOCK_RECORD
  5
52
330
1
100
AcDbSymbolTableRecord
100
AcDbBlockTableRecord
  2
27-2A-M1
340
0
102
{BLKREFS
331
6A
102
}
  0
BLOCK_RECORD
  5
55
330
1
100
AcDbSymbolTableRecord
100
AcDbBlockTableRecord
  2
42-29
340
0
102
{BLKREFS
331
6B
102
}
  0
BLOCK_RECORD
  5
58
330
1
100
AcDbSymbolTableRecord
100
AcDbBlockTableRecord
  2
開示A4
340
0
102
{BLKREFS
331
6C
102
}
  0
BLOCK_RECORD
  5
5B
330
1
100
AcDbSymbolTableRecord
100
AcDbBlockTableRecord
  2
32-1-16
340
0
102
{BLKREFS
331
62
102
}
  0
BLOCK_RECORD
  5
5E
330
1
100
AcDbSymbolTableRecord
100
AcDbBlockTableRecord
  2
60-1-16-170
340
0
102
{BLKREFS
331
63
102
}
  0
BLOCK_RECORD
  5
61
330
1
100
AcDbSymbolTableRecord
100
AcDbBlockTableRecord
  2
60-1X-16-170
340
0
102
{BLKREFS
331
6D
102
}
  0
BLOCK_RECORD
  5
66
330
1
100
AcDbSymbolTableRecord
100
AcDbBlockTableRecord
  2
A90-0A-13-M1
340
0
102
{BLKREFS
331
6E
102
}
  0
BLOCK_RECORD
  5
264
330
1
100
AcDbSymbolTableRecord
100
AcDbBlockTableRecord
  2
*D11
340
0
  0
BLOCK_RECORD
  5
26F
330
1
100
AcDbSymbolTableRecord
100
AcDbBlockTableRecord
  2
*D12
340
0
  0
BLOCK_RECORD
  5
27C
330
1
100
AcDbSymbolTableRecord
100
AcDbBlockTableRecord
  2
*D13
340
0
  0
BLOCK_RECORD
  5
287
330
1
100
AcDbSymbolTableRecord
100
AcDbBlockTableRecord
  2
*D14
340
0
  0
BLOCK_RECORD
  5
292
330
1
100
AcDbSymbolTableRecord
100
AcDbBlockTableRecord
  2
*D15
340
0
  0
BLOCK_RECORD
  5
29D
330
1
100
AcDbSymbolTableRecord
100
AcDbBlockTableRecord
  2
*D16
340
0
  0
BLOCK_RECORD
  5
2A8
330
1
100
AcDbSymbolTableRecord
100
AcDbBlockTableRecord
  2
*D17
340
0
  0
BLOCK_RECORD
  5
2B3
330
1
100
AcDbSymbolTableRecord
100
AcDbBlockTableRecord
  2
*D18
340
0
  0
ENDTAB
  0
ENDSEC
  0
SECTION
  2
BLOCKS
  0
BLOCK
  5
20
330
1F
100
AcDbEntity
  8
0
100
AcDbBlockBegin
  2
*Model_Space
 70
     0
 10
0.0
 20
0.0
 30
0.0
  3
*Model_Space
  1

  0
ENDBLK
  5
21
330
1F
100
AcDbEntity
  8
0
100
AcDbBlockEnd
  0
BLOCK
  5
1C
330
1B
100
AcDbEntity
 67
     1
  8
0
100
AcDbBlockBegin
  2
*Paper_Space
 70
     0
 10
0.0
 20
0.0
 30
0.0
  3
*Paper_Space
  1

  0
ENDBLK
  5
1D
330
1B
100
AcDbEntity
 67
     1
  8
0
100
AcDbBlockEnd
  0
BLOCK
  5
24
330
23
100
AcDbEntity
  8
0
100
AcDbBlockBegin
  2
*Paper_Space0
 70
     0
 10
0.0
 20
0.0
 30
0.0
  3
*Paper_Space0
  1

  0
ENDBLK
  5
25
330
23
100
AcDbEntity
  8
0
100
AcDbBlockEnd
  0
BLOCK
  5
48
330
47
100
AcDbEntity
  8
0
100
AcDbBlockBegin
  2
36-190-M11
 70
     0
 10
155.6617867375143
 20
139.6692616699
 30
0.0
  3
36-190-M11
  1

  0
LINE
  5
6F
330
47
100
AcDbEntity
  8
1
  6
Continuous
 62
     7
100
AcDbLine
 10
396.7256451594625
 20
282.2382890032492
 30
0.0
 11
396.7256451594625
 21
285.7383876793361
 31
0.0
  0
LINE
  5
70
330
47
100
AcDbEntity
  8
1
  6
Continuous
 62
     7
100
AcDbLine
 10
114.7092901941679
 20
282.2383876793357
 30
0.0
 11
114.7092901941679
 21
285.7383876793361
 31
0.0
  0
LINE
  5
71
330
47
100
AcDbEntity
  8
1
  6
Continuous
 62
     7
100
AcDbLine
 10
124.2092901941679
 20
285.7383876793361
 30
0.0
 11
124.2092901941679
 21
282.2383876793357
 31
0.0
  0
LINE
  5
72
330
47
100
AcDbEntity
  8
1
  6
Continuous
 62
     7
100
AcDbLine
 10
406.2256451594626
 20
285.7383876793361
 30
0.0
 11
406.2256451594627
 21
282.2382890032491
 31
0.0
  0
ENDBLK
  5
49
330
47
100
AcDbEntity
  8
0
100
AcDbBlockEnd
  0
BLOCK
  5
4B
330
4A
100
AcDbEntity
  8
0
100
AcDbBlockBegin
  2
37-119
 70
     0
 10
623.9661316756567
 20
740.9902526749138
 30
0.0
  3
37-119
  1

  0
LINE
  5
73
330
4A
100
AcDbEntity
  8
1
  6
DOT_CENTER
 62
     2
100
AcDbLine
 10
401.4756451594627
 20
263.7384863554227
 30
0.0
 11
401.4756451594627
 21
261.3124830909048
 31
0.0
  0
LINE
  5
74
330
4A
100
AcDbEntity
  8
1
  6
Continuous
 62
     7
100
AcDbLine
 10
120.3971413288463
 20
574.0344396245861
 30
0.0
 11
131.5214390594898
 21
567.6118233352536
 31
0.0
  0
LINE
  5
75
330
4A
100
AcDbEntity
  8
1
  6
Continuous
 62
     7
100
AcDbLine
 10
132.4592901941679
 20
565.9874175200547
 30
0.0
 11
132.4592901941679
 21
553.1421849413896
 31
0.0
  0
LINE
  5
76
330
4A
100
AcDbEntity
  8
1
  6
Continuous
 62
     7
100
AcDbLine
 10
131.5214390594898
 20
551.5177791261908
 30
0.0
 11
120.3971413288463
 21
545.0951628368582
 31
0.0
  0
LINE
  5
77
330
4A
100
AcDbEntity
  8
1
  6
Continuous
 62
     7
100
AcDbLine
 10
118.5214390594898
 20
545.0951628368582
 30
0.0
 11
107.3971413288463
 21
551.5177791261908
 31
0.0
  0
LINE
  5
78
330
4A
100
AcDbEntity
  8
1
  6
Continuous
 62
     7
100
AcDbLine
 10
106.4592901941679
 20
553.1421849413896
 30
0.0
 11
106.4592901941679
 21
565.9874175200548
 31
0.0
  0
LINE
  5
79
330
4A
100
AcDbEntity
  8
1
  6
Continuous
 62
     7
100
AcDbLine
 10
107.3971413288463
 20
567.6118233352536
 30
0.0
 11
118.5214390594898
 21
574.0344396245862
 31
0.0
  0
LINE
  5
7A
330
4A
100
AcDbEntity
  8
1
  6
DASH_CENTER
 62
     2
100
AcDbLine
 10
119.4592901941679
 20
577.5637098012018
 30
0.0
 11
119.4592901941679
 21
541.8598155333316
 31
0.0
  0
LINE
  5
7B
330
4A
100
AcDbEntity
  8
1
  6
DASH_CENTER
 62
     2
100
AcDbLine
 10
135.0256002492134
 20
559.5648012307222
 30
0.0
 11
103.9625934511702
 21
559.5648012307222
 31
0.0
  0
LINE
  5
7C
330
4A
100
AcDbEntity
  8
1
  6
Continuous
 62
     7
100
AcDbLine
 10
392.9756451594627
 20
281.2383876793357
 30
0.0
 11
392.9756451594627
 21
276.5520961783205
 31
0.0
  0
LINE
  5
7D
330
4A
100
AcDbEntity
  8
1
  6
Continuous
 62
     7
100
AcDbLine
 10
388.44011125353
 20
270.7739215852686
 30
0.0
 11
392.0969655030224
 21
274.4307758347611
 31
0.0
  0
LINE
  5
7E
330
4A
100
AcDbEntity
  8
1
  6
Continuous
 62
     7
100
AcDbLine
 10
393.9756451594627
 20
275.3094554912013
 30
0.0
 11
401.4756451594627
 21
275.3094554912013
 31
0.0
  0
LINE
  5
7F
330
4A
100
AcDbEntity
  8
1
  6
Continuous
 62
     7
100
AcDbLine
 10
396.5756451594626
 20
263.738387679336
 30
0.0
 11
393.9756451594627
 21
263.738387679336
 31
0.0
  0
LINE
  5
80
330
4A
100
AcDbEntity
  8
1
  6
Continuous
 62
     7
100
AcDbLine
 10
393.9756451594627
 20
263.738387679336
 30
0.0
 11
388.4049309451914
 21
263.738387679336
 31
0.0
  0
LINE
  5
81
330
4A
100
AcDbEntity
  8
1
  6
Continuous
 62
     7
100
AcDbLine
 10
401.4756451594627
 20
282.2383876793357
 30
0.0
 11
393.9756451594627
 21
282.2383876793357
 31
0.0
  0
LINE
  5
82
330
4A
100
AcDbEntity
  8
1
  6
Continuous
 62
     7
100
AcDbLine
 10
401.4756451594625
 20
263.738387679336
 30
0.0
 11
396.5756451594626
 21
263.738387679336
 31
0.0
  0
LINE
  5
83
330
4A
100
AcDbEntity
  8
1
  6
Continuous
 62
     7
100
AcDbLine
 10
406.3756451594627
 20
263.738387679336
 30
0.0
 11
401.4756451594625
 21
263.738387679336
 31
0.0
  0
LINE
  5
84
330
4A
100
AcDbEntity
  8
1
  6
Continuous
 62
     7
100
AcDbLine
 10
408.9756451594626
 20
282.2383876793357
 30
0.0
 11
401.4756451594627
 21
282.2383876793357
 31
0.0
  0
LINE
  5
85
330
4A
100
AcDbEntity
  8
1
  6
Continuous
 62
     7
100
AcDbLine
 10
414.5463593737341
 20
263.738387679336
 30
0.0
 11
408.9756451594627
 21
263.738387679336
 31
0.0
  0
LINE
  5
86
330
4A
100
AcDbEntity
  8
1
  6
Continuous
 62
     7
100
AcDbLine
 10
408.9756451594627
 20
263.738387679336
 30
0.0
 11
406.3756451594627
 21
263.738387679336
 31
0.0
  0
LINE
  5
87
330
4A
100
AcDbEntity
  8
1
  6
Continuous
 62
     7
100
AcDbLine
 10
401.4756451594627
 20
275.3094554912013
 30
0.0
 11
408.9756451594626
 21
275.3094554912013
 31
0.0
  0
LINE
  5
88
330
4A
100
AcDbEntity
  8
1
  6
Continuous
 62
     7
100
AcDbLine
 10
410.8543248159031
 20
274.430775834761
 30
0.0
 11
414.5111790653955
 21
270.7739215852686
 31
0.0
  0
LINE
  5
89
330
4A
100
AcDbEntity
  8
1
  6
Continuous
 62
     7
100
AcDbLine
 10
409.9756451594626
 20
276.5520961783205
 30
0.0
 11
409.9756451594626
 21
281.2383876793357
 31
0.0
  0
LINE
  5
8A
330
4A
100
AcDbEntity
  8
1
  6
Continuous
 62
     7
100
AcDbLine
 10
106.4592901941676
 20
263.7382890032486
 30
0.0
 11
106.4592901941677
 21
270.8090032175201
 31
0.0
  0
LINE
  5
8B
330
4A
100
AcDbEntity
  8
1
  6
Continuous
 62
     7
100
AcDbLine
 10
132.4592901941677
 20
270.8090032175198
 30
0.0
 11
132.4592901941676
 21
263.7382890032483
 31
0.0
  0
LINE
  5
8C
330
4A
100
AcDbEntity
  8
1
  6
Continuous
 62
     7
100
AcDbLine
 10
127.9592901941679
 20
276.5519975022339
 30
0.0
 11
127.9592901941679
 21
281.2382890032491
 31
0.0
  0
LINE
  5
8D
330
4A
100
AcDbEntity
  8
1
  6
Continuous
 62
     7
100
AcDbLine
 10
128.8379698506082
 20
274.430677158674
 30
0.0
 11
132.4948241001006
 21
270.7738229091817
 31
0.0
  0
LINE
  5
8E
330
4A
100
AcDbEntity
  8
1
  6
Continuous
 62
     7
100
AcDbLine
 10
119.4592901941677
 20
275.3093568151145
 30
0.0
 11
126.9592901941679
 21
275.3093568151145
 31
0.0
  0
LINE
  5
8F
330
4A
100
AcDbEntity
  8
1
  6
Continuous
 62
     7
100
AcDbLine
 10
126.9592901941677
 20
263.7382890032491
 30
0.0
 11
124.3592901941677
 21
263.7382890032492
 31
0.0
  0
LINE
  5
90
330
4A
100
AcDbEntity
  8
1
  6
Continuous
 62
     7
100
AcDbLine
 10
132.5300044084393
 20
263.7382890032488
 30
0.0
 11
126.9592901941677
 21
263.7382890032491
 31
0.0
  0
LINE
  5
91
330
4A
100
AcDbEntity
  8
1
  6
Continuous
 62
     7
100
AcDbLine
 10
124.3592901941677
 20
263.7382890032492
 30
0.0
 11
119.4592901941676
 21
263.7382890032492
 31
0.0
  0
LINE
  5
92
330
4A
100
AcDbEntity
  8
1
  6
Continuous
 62
     7
100
AcDbLine
 10
126.9592901941679
 20
282.238289003249
 30
0.0
 11
119.4592901941678
 21
282.2382890032492
 31
0.0
  0
LINE
  5
93
330
4A
100
AcDbEntity
  8
1
  6
Continuous
 62
     7
100
AcDbLine
 10
119.4592901941678
 20
282.2382890032492
 30
0.0
 11
111.9592901941678
 21
282.2382890032492
 31
0.0
  0
LINE
  5
94
330
4A
100
AcDbEntity
  8
1
  6
Continuous
 62
     7
100
AcDbLine
 10
119.4592901941676
 20
263.7382890032492
 30
0.0
 11
114.5592901941676
 21
263.7382890032492
 31
0.0
  0
LINE
  5
95
330
4A
100
AcDbEntity
  8
1
  6
PHANTOM
 62
     4
100
AcDbLine
 10
119.4592901941677
 20
263.738387679336
 30
0.0
 11
119.4592901941678
 21
282.7790195673351
 31
0.0
  0
LINE
  5
96
330
4A
100
AcDbEntity
  8
1
  6
PHANTOM
 62
     4
100
AcDbLine
 10
119.4592901941677
 20
263.738387679336
 30
0.0
 11
119.4592901941675
 21
261.3123844148179
 31
0.0
  0
LINE
  5
97
330
4A
100
AcDbEntity
  8
1
  6
Continuous
 62
     7
100
AcDbLine
 10
111.9592901941676
 20
263.7382890032492
 30
0.0
 11
106.3885759798963
 21
263.7382890032495
 31
0.0
  0
LINE
  5
98
330
4A
100
AcDbEntity
  8
1
  6
Continuous
 62
     7
100
AcDbLine
 10
114.5592901941676
 20
263.7382890032492
 30
0.0
 11
111.9592901941676
 21
263.7382890032492
 31
0.0
  0
LINE
  5
99
330
4A
100
AcDbEntity
  8
1
  6
Continuous
 62
     7
100
AcDbLine
 10
111.9592901941677
 20
275.3093568151148
 30
0.0
 11
119.4592901941677
 21
275.3093568151145
 31
0.0
  0
LINE
  5
9A
330
4A
100
AcDbEntity
  8
1
  6
Continuous
 62
     7
100
AcDbLine
 10
106.4237562882352
 20
270.7738229091821
 30
0.0
 11
110.0806105377273
 21
274.4306771586745
 31
0.0
  0
LINE
  5
9B
330
4A
100
AcDbEntity
  8
1
  6
Continuous
 62
     7
100
AcDbLine
 10
110.9592901941678
 20
281.2382890032491
 30
0.0
 11
110.9592901941677
 21
276.5519975022339
 31
0.0
  0
ARC
  5
9C
330
4A
100
AcDbEntity
  8
1
  6
Continuous
 62
     7
100
AcDbCircle
 10
119.4592901941679
 20
559.5648012307222
 30
0.0
 40
14.49999999999996
100
AcDbArc
 50
26.29155527472915
 51
33.70844472527016
  0
ARC
  5
9D
330
4A
100
AcDbEntity
  8
1
  6
Continuous
 62
     7
100
AcDbCircle
 10
119.4592901941679
 20
559.5648012307222
 30
0.0
 40
14.50000000000011
100
AcDbArc
 50
326.2915552747298
 51
333.7084447252705
  0
ARC
  5
9E
330
4A
100
AcDbEntity
  8
1
  6
Continuous
 62
     7
100
AcDbCircle
 10
119.4592901941679
 20
559.5648012307222
 30
0.0
 40
14.5
100
AcDbArc
 50
270.0
 51
273.7084447252711
  0
ARC
  5
9F
330
4A
100
AcDbEntity
  8
1
  6
Continuous
 62
     7
100
AcDbCircle
 10
119.4592901941679
 20
559.5648012307222
 30
0.0
 40
14.50000000000002
100
AcDbArc
 50
206.2915552747295
 51
213.7084447252708
  0
ARC
  5
A0
330
4A
100
AcDbEntity
  8
1
  6
Continuous
 62
     7
100
AcDbCircle
 10
119.4592901941679
 20
559.5648012307222
 30
0.0
 40
14.49999999999986
100
AcDbArc
 50
146.2915552747292
 51
153.7084447252705
  0
ARC
  5
A1
330
4A
100
AcDbEntity
  8
1
  6
Continuous
 62
     7
100
AcDbCircle
 10
119.4592901941679
 20
559.5648012307222
 30
0.0
 40
14.5
100
AcDbArc
 50
90.0
 51
93.70844472527008
  0
ARC
  5
A2
330
4A
100
AcDbEntity
  8
1
  6
Continuous
 62
     7
100
AcDbCircle
 10
391.9756451594627
 20
267.2383876793357
 30
0.0
 40
5.000000000000121
100
AcDbArc
 50
134.9999999999982
 51
224.4270040008041
  0
ARC
  5
A3
330
4A
100
AcDbEntity
  8
1
  6
Continuous
 62
     7
100
AcDbCircle
 10
119.4592901941679
 20
559.5648012307222
 30
0.0
 40
14.4999999999999
100
AcDbArc
 50
86.29155527472876
 51
90.0
  0
ARC
  5
A4
330
4A
100
AcDbEntity
  8
1
  6
Continuous
 62
     7
100
AcDbCircle
 10
119.4592901941679
 20
559.5648012307222
 30
0.0
 40
14.49999999999999
100
AcDbArc
 50
266.2915552747299
 51
270.0
  0
ARC
  5
A5
330
4A
100
AcDbEntity
  8
1
  6
Continuous
 62
     7
100
AcDbCircle
 10
410.9756451594627
 20
267.2383876793357
 30
0.0
 40
4.999999999999776
100
AcDbArc
 50
315.5729959991963
 51
45.00000000000138
  0
SPLINE
  5
A6
330
4A
100
AcDbEntity
  8
1
  6
Continuous
 62
     7
100
AcDbSpline
210
0.0
220
0.0
230
1.0
 70
    11
 71
     3
 72
    79
 73
    75
 74
    73
 42
0.000000001
 43
0.0000000001
 44
0.00000001
 40
0.0
 40
0.0
 40
0.0
 40
0.0
 40
0.3102615582251814
 40
0.620559542082091
 40
0.942216297528806
 40
1.263944872753658
 40
1.606039020844849
 40
1.94819346890687
 40
2.316051885190494
 40
2.683951048240006
 40
3.079084664080413
 40
3.47424478017367
 40
3.894897959207474
 40
4.31556820749416
 40
4.757452126736315
 40
5.199346674241501
 40
5.656354161986967
 40
6.113367478658127
 40
6.578223037733192
 40
7.043080455842659
 40
7.507937873950117
 40
7.97279343301849
 40
8.429806749677462
 40
8.886814237403572
 40
9.328708784880364
 40
9.770592704081507
 40
10.19126295231268
 40
10.61191613126921
 40
11.007076247263
 40
11.40220986296856
 40
11.77010902584983
 40
12.13796744190987
 40
12.48012188969626
 40
12.82221603741914
 40
13.14394461216132
 40
13.46560136682464
 40
13.77589934864137
 40
14.08616091447264
 40
14.39642248030357
 40
14.70672046212009
 40
15.02837721678338
 40
15.35010579152562
 40
15.69219993924856
 40
16.0343543870351
 40
16.40221280309499
 40
16.77011196597614
 40
17.16524558168167
 40
17.56040569767545
 40
17.98105887663218
 40
18.40172912486357
 40
18.84361304406477
 40
19.28550759154166
 40
19.74251507926753
 40
20.19952839592635
 40
20.66438395499457
 40
21.12924137310188
 40
21.59409879121158
 40
22.0589543502868
 40
22.51596766695782
 40
22.97297515470313
 40
23.41486970220843
 40
23.85675362145077
 40
24.27742386973738
 40
24.69807704877116
 40
25.09323716486442
 40
25.48837078070477
 40
25.85626994375424
 40
26.22412836003784
 40
26.56628280809998
 40
26.90837695619127
 40
27.23010553141623
 40
27.55176228686297
 40
27.86206027071981
 40
28.17232182894494
 40
28.17232182894494
 40
28.17232182894494
 40
28.17232182894494
 10
120.3971413288461
 20
267.2736461103841
 30
0.0
 10
120.4011745205621
 20
267.3771362923061
 30
0.0
 10
120.4092413692329
 20
267.584128806651
 30
0.0
 10
120.4732253470422
 20
267.8929776746735
 30
0.0
 10
120.5746461433396
 20
268.1949445884076
 30
0.0
 10
120.7170686434372
 20
268.4918542445224
 30
0.0
 10
120.8961712161973
 20
268.7761723528826
 30
0.0
 10
121.1141414840577
 20
269.0516733991792
 30
0.0
 10
121.3644236380927
 20
269.3102794198477
 30
0.0
 10
121.6508857998645
 20
269.5560373094605
 30
0.0
 10
121.9647165521519
 20
269.781682569655
 30
0.0
 10
122.310630717183
 20
269.9904542375428
 30
0.0
 10
122.6787495093335
 20
270.1766750058142
 30
0.0
 10
123.0734434442502
 20
270.342359536161
 30
0.0
 10
123.4849966442222
 20
270.4836673090103
 30
0.0
 10
123.9164223438167
 20
270.6014467975847
 30
0.0
 10
124.3591963725273
 20
270.6935650992235
 30
0.0
 10
124.8142543711212
 20
270.7600510266165
 30
0.0
 10
125.2750214732023
 20
270.8001085835267
 30
0.0
 10
125.7399436486331
 20
270.8134505408219
 30
0.0
 10
126.2048658240601
 20
270.8001085836053
 30
0.0
 10
126.6656329261527
 20
270.7600510267775
 30
0.0
 10
127.1206909247051
 20
270.6935650994761
 30
0.0
 10
127.5634649535701
 20
270.601446797941
 30
0.0
 10
127.9948906526119
 20
270.4836673094882
 30
0.0
 10
128.4064438546106
 20
270.3423595367802
 30
0.0
 10
128.8011377823328
 20
270.176675006603
 30
0.0
 10
129.169256600555
 20
269.9904542385295
 30
0.0
 10
129.515170673978
 20
269.781682570877
 30
0.0
 10
129.829001755916
 20
269.5560373109543
 30
0.0
 10
130.115462768389
 20
269.3102794216628
 30
0.0
 10
130.3657490474618
 20
269.0516734013636
 30
0.0
 10
130.583704945469
 20
268.7761723555074
 30
0.0
 10
130.7628592592082
 20
268.4918542476682
 30
0.0
 10
130.9050996105959
 20
268.1949445922557
 30
0.0
 10
131.007183262636
 20
267.8929776797465
 30
0.0
 10
131.0687765025639
 20
267.5841288106
 30
0.0
 10
131.0897303060252
 20
267.2736461103839
 30
0.0
 10
131.0687765025637
 20
266.963163410168
 30
0.0
 10
131.0071832626358
 20
266.6543145410217
 30
0.0
 10
130.9050996105958
 20
266.3523476285123
 30
0.0
 10
130.7628592592082
 20
266.0554379730999
 30
0.0
 10
130.5837049454691
 20
265.7711198652606
 30
0.0
 10
130.3657490474621
 20
265.4956188194039
 30
0.0
 10
130.115462768389
 20
265.2370127991052
 30
0.0
 10
129.829001755916
 20
264.991254909814
 30
0.0
 10
129.5151706739781
 20
264.7656096498912
 30
0.0
 10
129.1692566005551
 20
264.5568379822386
 30
0.0
 10
128.8011377823329
 20
264.3706172141648
 30
0.0
 10
128.4064438546104
 20
264.2049326839879
 30
0.0
 10
127.9948906526116
 20
264.0636249112799
 30
0.0
 10
127.5634649535698
 20
263.9458454228272
 30
0.0
 10
127.1206909247049
 20
263.8537271212919
 30
0.0
 10
126.6656329261527
 20
263.7872411939905
 30
0.0
 10
126.2048658240602
 20
263.7471836371628
 30
0.0
 10
125.7399436486333
 20
263.7338416799462
 30
0.0
 10
125.2750214732024
 20
263.7471836372414
 30
0.0
 10
124.8142543711212
 20
263.7872411941513
 30
0.0
 10
124.3591963725274
 20
263.8537271215446
 30
0.0
 10
123.9164223438168
 20
263.9458454231832
 30
0.0
 10
123.4849966442223
 20
264.0636249117578
 30
0.0
 10
123.0734434442502
 20
264.2049326846073
 30
0.0
 10
122.6787495093335
 20
264.3706172149541
 30
0.0
 10
122.310630717183
 20
264.5568379832253
 30
0.0
 10
121.9647165521518
 20
264.765609651113
 30
0.0
 10
121.6508857998645
 20
264.9912549113075
 30
0.0
 10
121.3644236380928
 20
265.2370128009204
 30
0.0
 10
121.1141414840579
 20
265.495618821589
 30
0.0
 10
120.8961712161973
 20
265.7711198678855
 30
0.0
 10
120.7170686434371
 20
266.0554379762457
 30
0.0
 10
120.5746461433395
 20
266.3523476323606
 30
0.0
 10
120.4732253470422
 20
266.6543145460947
 30
0.0
 10
120.4092413692329
 20
266.9631634141173
 30
0.0
 10
120.4011745205621
 20
267.170155928462
 30
0.0
 10
120.3971413288461
 20
267.2736461103841
 30
0.0
 11
120.3971413288461
 21
267.2736461103841
 31
0.0
 11
120.4177584220468
 21
267.5832219085207
 31
0.0
 11
120.4783105014448
 21
267.88755442944
 31
0.0
 11
120.5807773900767
 21
268.1924537647034
 31
0.0
 11
120.7193517350055
 21
268.482809454874
 31
0.0
 11
120.9011437793628
 21
268.7726025855654
 31
0.0
 11
121.1129411136189
 21
269.041324663952
 31
0.0
 11
121.3682976238928
 21
269.306113007721
 31
0.0
 11
121.6471196231822
 21
269.5461298546682
 31
0.0
 11
121.9676115508072
 21
269.7772477869934
 31
0.0
 11
122.305656519989
 21
269.9818867767465
 31
0.0
 11
122.6808202438331
 21
270.1721531093377
 31
0.0
 11
123.0685424936659
 21
270.3353551766135
 31
0.0
 11
123.4863788181272
 21
270.4791404471954
 31
0.0
 11
123.9125976399418
 21
270.5957950958024
 31
0.0
 11
124.3599876060318
 21
270.6890584975018
 31
0.0
 11
124.8121757703095
 21
270.755293199158
 31
0.0
 11
125.2752789835218
 21
270.7956181879248
 31
0.0
 11
125.7399436584859
 21
270.8090032175198
 31
0.0
 11
126.2046083334502
 21
270.7956181879248
 31
0.0
 11
126.6677115466626
 21
270.7552931991581
 31
0.0
 11
127.1198997109404
 21
270.6890584975019
 31
0.0
 11
127.5672896770305
 21
270.5957950958024
 31
0.0
 11
127.9935084988449
 21
270.4791404471953
 31
0.0
 11
128.4113448233062
 21
270.3353551766132
 31
0.0
 11
128.7990670731389
 21
270.1721531093376
 31
0.0
 11
129.1742307969831
 21
269.9818867767466
 31
0.0
 11
129.512275766165
 21
269.7772477869935
 31
0.0
 11
129.83276769379
 21
269.5461298546682
 31
0.0
 11
130.1115896930792
 21
269.3061130077208
 31
0.0
 11
130.366946203353
 21
269.0413246639517
 31
0.0
 11
130.5787435376092
 21
268.7726025855653
 31
0.0
 11
130.7605355819665
 21
268.482809454874
 31
0.0
 11
130.8991099268954
 21
268.1924537647034
 31
0.0
 11
131.0015768155273
 21
267.88755442944
 31
0.0
 11
131.0621288949253
 21
267.5832219085207
 31
0.0
 11
131.082745988126
 21
267.2736461103838
 31
0.0
 11
131.0621288949251
 21
266.9640703122473
 31
0.0
 11
131.0015768155271
 21
266.6597377913282
 31
0.0
 11
130.8991099268953
 21
266.3548384560648
 31
0.0
 11
130.7605355819665
 21
266.0644827658941
 31
0.0
 11
130.5787435376093
 21
265.7746896352026
 31
0.0
 11
130.3669462033532
 21
265.505967556816
 31
0.0
 11
130.1115896930793
 21
265.2411792130472
 31
0.0
 11
129.8327676937901
 21
265.0011623661
 31
0.0
 11
129.5122757661651
 21
264.7700444337747
 31
0.0
 11
129.1742307969833
 21
264.5654054440215
 31
0.0
 11
128.799067073139
 21
264.3751391114304
 31
0.0
 11
128.411344823306
 21
264.2119370441548
 31
0.0
 11
127.9935084988446
 21
264.0681517735728
 31
0.0
 11
127.5672896770301
 21
263.9514971249657
 31
0.0
 11
127.1198997109402
 21
263.8582337232662
 31
0.0
 11
126.6677115466626
 21
263.79199902161
 31
0.0
 11
126.2046083334504
 21
263.7516740328433
 31
0.0
 11
125.7399436584862
 21
263.7382890032483
 31
0.0
 11
125.2752789835218
 21
263.7516740328433
 31
0.0
 11
124.8121757703094
 21
263.7919990216099
 31
0.0
 11
124.3599876060318
 21
263.8582337232662
 31
0.0
 11
123.912597639942
 21
263.9514971249656
 31
0.0
 11
123.4863788181273
 21
264.0681517735728
 31
0.0
 11
123.0685424936659
 21
264.2119370441548
 31
0.0
 11
122.6808202438332
 21
264.3751391114305
 31
0.0
 11
122.305656519989
 21
264.5654054440216
 31
0.0
 11
121.9676115508071
 21
264.7700444337746
 31
0.0
 11
121.6471196231822
 21
265.0011623660998
 31
0.0
 11
121.3682976238929
 21
265.241179213047
 31
0.0
 11
121.1129411136191
 21
265.5059675568161
 31
0.0
 11
120.9011437793628
 21
265.7746896352027
 31
0.0
 11
120.7193517350054
 21
266.0644827658942
 31
0.0
 11
120.5807773900766
 21
266.3548384560649
 31
0.0
 11
120.4783105014448
 21
266.6597377913283
 31
0.0
 11
120.4177584220469
 21
266.9640703122475
 31
0.0
 11
120.3971413288461
 21
267.2736461103841
 31
0.0
  0
SPLINE
  5
A7
330
4A
100
AcDbEntity
  8
1
  6
Continuous
 62
     7
100
AcDbSpline
210
0.0
220
0.0
230
1.0
 70
    11
 71
     3
 72
    79
 73
    75
 74
    73
 42
0.000000001
 43
0.0000000001
 44
0.00000001
 40
0.0
 40
0.0
 40
0.0
 40
0.0
 40
0.3102615582250689
 40
0.620559542081697
 40
0.9422162975284885
 40
1.26394487275355
 40
1.606039020844763
 40
1.94819346890673
 40
2.316051885190296
 40
2.683951048239801
 40
3.079084664080219
 40
3.474244780173635
 40
3.894897959207387
 40
4.315568207493982
 40
4.757452126736299
 40
5.199346674241597
 40
5.656354161986886
 40
6.113367478657883
 40
6.578223037733
 40
7.043080455842608
 40
7.507937873950136
 40
7.972793433018533
 40
8.429806749677349
 40
8.88681423740328
 40
9.328708784880028
 40
9.770592704081036
 40
10.19126295231239
 40
10.61191613126901
 40
11.00707624726293
 40
11.40220986296855
 40
11.7701090258497
 40
12.13796744190969
 40
12.48012188969603
 40
12.82221603741879
 40
13.14394461216113
 40
13.46560136682464
 40
13.77589934864127
 40
14.08616091447232
 40
14.39642248030342
 40
14.70672046212011
 40
15.02837721678339
 40
15.35010579152556
 40
15.69219993924848
 40
16.03435438703492
 40
16.40221280309486
 40
16.77011196597602
 40
17.16524558168162
 40
17.56040569767557
 40
17.98105887663219
 40
18.40172912486351
 40
18.84361304406463
 40
19.28550759154153
 40
19.74251507926742
 40
20.19952839592623
 40
20.66438395499453
 40
21.12924137310196
 40
21.59409879121159
 40
22.05895435028677
 40
22.51596766695785
 40
22.9729751547032
 40
23.41486970220846
 40
23.85675362145075
 40
24.27742386973731
 40
24.69807704877108
 40
25.09323716486444
 40
25.48837078070489
 40
25.85626994375441
 40
26.22412836003788
 40
26.56628280809989
 40
26.9083769561911
 40
27.23010553141602
 40
27.55176228686269
 40
27.86206027071965
 40
28.17232182894506
 40
28.17232182894506
 40
28.17232182894506
 40
28.17232182894506
 10
118.5214390594894
 20
267.2736461103843
 30
0.0
 10
118.5174058677734
 20
267.3771362923064
 30
0.0
 10
118.5093390191027
 20
267.584128806651
 30
0.0
 10
118.4453550412932
 20
267.8929776746734
 30
0.0
 10
118.3439342449958
 20
268.1949445884075
 30
0.0
 10
118.2015117448981
 20
268.4918542445224
 30
0.0
 10
118.022409172138
 20
268.7761723528825
 30
0.0
 10
117.8044389042775
 20
269.051673399179
 30
0.0
 10
117.5541567502426
 20
269.3102794198476
 30
0.0
 10
117.267694588471
 20
269.5560373094607
 30
0.0
 10
116.9538638361836
 20
269.7816825696551
 30
0.0
 10
116.6079496711524
 20
269.9904542375429
 30
0.0
 10
116.2398308790019
 20
270.1766750058142
 30
0.0
 10
115.8451369440852
 20
270.342359536161
 30
0.0
 10
115.4335837441131
 20
270.4836673090106
 30
0.0
 10
115.0021580445186
 20
270.6014467975849
 30
0.0
 10
114.5593840158081
 20
270.6935650992236
 30
0.0
 10
114.1043260172143
 20
270.7600510266165
 30
0.0
 10
113.6435589151332
 20
270.8001085835267
 30
0.0
 10
113.1786367397023
 20
270.8134505408219
 30
0.0
 10
112.7137145642752
 20
270.8001085836052
 30
0.0
 10
112.2529474621825
 20
270.7600510267776
 30
0.0
 10
111.7978894636302
 20
270.6935650994762
 30
0.0
 10
111.3551154347654
 20
270.6014467979412
 30
0.0
 10
110.9236897357237
 20
270.4836673094885
 30
0.0
 10
110.5121365337249
 20
270.3423595367807
 30
0.0
 10
110.1174426060027
 20
270.1766750066034
 30
0.0
 10
109.7493237877805
 20
269.9904542385298
 30
0.0
 10
109.4034097143574
 20
269.7816825708773
 30
0.0
 10
109.0895786324193
 20
269.5560373109545
 30
0.0
 10
108.8031176199464
 20
269.3102794216628
 30
0.0
 10
108.5528313408734
 20
269.051673401364
 30
0.0
 10
108.3348754428664
 20
268.7761723555078
 30
0.0
 10
108.1557211291271
 20
268.4918542476686
 30
0.0
 10
108.0134807777394
 20
268.1949445922561
 30
0.0
 10
107.9113971256995
 20
267.8929776797467
 30
0.0
 10
107.8498038857715
 20
267.5841288106002
 30
0.0
 10
107.8288500823099
 20
267.2736461103843
 30
0.0
 10
107.8498038857715
 20
266.9631634101683
 30
0.0
 10
107.9113971256993
 20
266.6543145410218
 30
0.0
 10
108.0134807777395
 20
266.3523476285126
 30
0.0
 10
108.1557211291271
 20
266.0554379731002
 30
0.0
 10
108.3348754428663
 20
265.771119865261
 30
0.0
 10
108.5528313408732
 20
265.4956188194045
 30
0.0
 10
108.8031176199462
 20
265.2370127991055
 30
0.0
 10
109.0895786324191
 20
264.9912549098141
 30
0.0
 10
109.4034097143573
 20
264.7656096498915
 30
0.0
 10
109.7493237877805
 20
264.5568379822391
 30
0.0
 10
110.1174426060026
 20
264.3706172141652
 30
0.0
 10
110.5121365337249
 20
264.2049326839879
 30
0.0
 10
110.9236897357236
 20
264.0636249112799
 30
0.0
 10
111.3551154347654
 20
263.9458454228272
 30
0.0
 10
111.7978894636303
 20
263.853727121292
 30
0.0
 10
112.2529474621825
 20
263.7872411939904
 30
0.0
 10
112.7137145642751
 20
263.7471836371629
 30
0.0
 10
113.1786367397021
 20
263.7338416799464
 30
0.0
 10
113.643558915133
 20
263.7471836372414
 30
0.0
 10
114.1043260172142
 20
263.7872411941515
 30
0.0
 10
114.559384015808
 20
263.8537271215449
 30
0.0
 10
115.0021580445186
 20
263.9458454231833
 30
0.0
 10
115.433583744113
 20
264.0636249117579
 30
0.0
 10
115.845136944085
 20
264.2049326846076
 30
0.0
 10
116.2398308790019
 20
264.3706172149541
 30
0.0
 10
116.6079496711523
 20
264.5568379832253
 30
0.0
 10
116.9538638361836
 20
264.765609651113
 30
0.0
 10
117.2676945884709
 20
264.9912549113077
 30
0.0
 10
117.5541567502425
 20
265.2370128009206
 30
0.0
 10
117.8044389042775
 20
265.4956188215891
 30
0.0
 10
118.022409172138
 20
265.7711198678855
 30
0.0
 10
118.2015117448981
 20
266.0554379762458
 30
0.0
 10
118.3439342449958
 20
266.3523476323605
 30
0.0
 10
118.4453550412933
 20
266.6543145460945
 30
0.0
 10
118.5093390191026
 20
266.9631634141173
 30
0.0
 10
118.5174058677734
 20
267.170155928462
 30
0.0
 10
118.5214390594894
 20
267.2736461103843
 30
0.0
 11
118.5214390594894
 21
267.2736461103843
 31
0.0
 11
118.5008219662887
 21
267.5832219085208
 31
0.0
 11
118.4402698868907
 21
267.8875544294398
 31
0.0
 11
118.3378029982588
 21
268.1924537647032
 31
0.0
 11
118.1992286533298
 21
268.482809454874
 31
0.0
 11
118.0174366089725
 21
268.7726025855654
 31
0.0
 11
117.8056392747163
 21
269.0413246639519
 31
0.0
 11
117.5502827644425
 21
269.306113007721
 31
0.0
 11
117.2714607651533
 21
269.5461298546683
 31
0.0
 11
116.9509688375283
 21
269.7772477869935
 31
0.0
 11
116.6129238683463
 21
269.9818867767466
 31
0.0
 11
116.2377601445022
 21
270.1721531093377
 31
0.0
 11
115.8500378946695
 21
270.3353551766135
 31
0.0
 11
115.4322015702081
 21
270.4791404471956
 31
0.0
 11
115.0059827483934
 21
270.5957950958026
 31
0.0
 11
114.5585927823036
 21
270.6890584975019
 31
0.0
 11
114.106404618026
 21
270.7552931991581
 31
0.0
 11
113.6433014048137
 21
270.7956181879248
 31
0.0
 11
113.1786367298494
 21
270.8090032175197
 31
0.0
 11
112.713972054885
 21
270.7956181879248
 31
0.0
 11
112.2508688416726
 21
270.7552931991581
 31
0.0
 11
111.7986806773949
 21
270.689058497502
 31
0.0
 11
111.351290711305
 21
270.5957950958026
 31
0.0
 11
110.9250718894906
 21
270.4791404471956
 31
0.0
 11
110.5072355650294
 21
270.3353551766137
 31
0.0
 11
110.1195133151965
 21
270.172153109338
 31
0.0
 11
109.7443495913523
 21
269.9818867767469
 31
0.0
 11
109.4063046221703
 21
269.7772477869937
 31
0.0
 11
109.0858126945453
 21
269.5461298546683
 31
0.0
 11
108.8069906952562
 21
269.306113007721
 31
0.0
 11
108.5516341849823
 21
269.041324663952
 31
0.0
 11
108.3398368507261
 21
268.7726025855657
 31
0.0
 11
108.1580448063688
 21
268.4828094548745
 31
0.0
 11
108.0194704614399
 21
268.1924537647037
 31
0.0
 11
107.9170035728081
 21
267.8875544294401
 31
0.0
 11
107.85645149341
 21
267.5832219085209
 31
0.0
 11
107.8358344002092
 21
267.2736461103843
 31
0.0
 11
107.85645149341
 21
266.9640703122476
 31
0.0
 11
107.917003572808
 21
266.6597377913283
 31
0.0
 11
108.01947046144
 21
266.354838456065
 31
0.0
 11
108.1580448063688
 21
266.0644827658944
 31
0.0
 11
108.339836850726
 21
265.7746896352029
 31
0.0
 11
108.5516341849821
 21
265.5059675568164
 31
0.0
 11
108.8069906952559
 21
265.2411792130475
 31
0.0
 11
109.0858126945451
 21
265.0011623661002
 31
0.0
 11
109.4063046221702
 21
264.770044433775
 31
0.0
 11
109.7443495913523
 21
264.5654054440219
 31
0.0
 11
110.1195133151965
 21
264.3751391114308
 31
0.0
 11
110.5072355650293
 21
264.211937044155
 31
0.0
 11
110.9250718894906
 21
264.0681517735729
 31
0.0
 11
111.3512907113051
 21
263.9514971249658
 31
0.0
 11
111.798680677395
 21
263.8582337232663
 31
0.0
 11
112.2508688416726
 21
263.79199902161
 31
0.0
 11
112.7139720548849
 21
263.7516740328434
 31
0.0
 11
113.1786367298492
 21
263.7382890032485
 31
0.0
 11
113.6433014048135
 21
263.7516740328434
 31
0.0
 11
114.1064046180259
 21
263.79199902161
 31
0.0
 11
114.5585927823035
 21
263.8582337232663
 31
0.0
 11
115.0059827483934
 21
263.9514971249658
 31
0.0
 11
115.432201570208
 21
264.0681517735729
 31
0.0
 11
115.8500378946694
 21
264.211937044155
 31
0.0
 11
116.2377601445021
 21
264.3751391114305
 31
0.0
 11
116.6129238683463
 21
264.5654054440216
 31
0.0
 11
116.9509688375282
 21
264.7700444337747
 31
0.0
 11
117.2714607651532
 21
265.0011623661
 31
0.0
 11
117.5502827644425
 21
265.2411792130473
 31
0.0
 11
117.8056392747163
 21
265.5059675568162
 31
0.0
 11
118.0174366089725
 21
265.7746896352027
 31
0.0
 11
118.1992286533298
 21
266.0644827658942
 31
0.0
 11
118.3378029982588
 21
266.3548384560648
 31
0.0
 11
118.4402698868907
 21
266.6597377913281
 31
0.0
 11
118.5008219662887
 21
266.9640703122474
 31
0.0
 11
118.5214390594894
 21
267.2736461103843
 31
0.0
  0
SPLINE
  5
A8
330
4A
100
AcDbEntity
  8
1
  6
Continuous
 62
     7
100
AcDbSpline
210
0.0
220
0.0
230
1.0
 70
     8
 71
     3
 72
    29
 73
    25
 74
    23
 42
0.000000001
 43
0.0000000001
 44
0.00000001
 40
0.0
 40
0.0
 40
0.0
 40
0.0
 40
0.606907707133379
 40
1.212222618922021
 40
1.842666699980927
 40
2.474631891987643
 40
3.102420163134855
 40
3.729333881624334
 40
4.271042929453127
 40
4.812985317241423
 40
5.340107969104117
 40
5.866248914948653
 40
6.263874824440269
 40
6.661485222726572
 40
7.28096648314104
 40
7.902596723210121
 40
8.549168899022638
 40
9.195896755584679
 40
9.722415956711801
 40
10.24911839923897
 40
11.07897535377075
 40
11.90732205839644
 40
12.67331707894433
 40
13.44191268485649
 40
13.44191268485649
 40
13.44191268485649
 40
13.44191268485649
 10
401.4756451594627
 20
270.7383876793357
 30
0.0
 10
401.6777049870083
 20
270.7285123059716
 30
0.0
 10
402.0812943466856
 20
270.708787464759
 30
0.0
 10
402.6929998947693
 20
270.6449971165376
 30
0.0
 10
403.3024169559114
 20
270.5108138187971
 30
0.0
 10
403.9008231308897
 20
270.3103581992708
 30
0.0
 10
404.4753856623635
 20
270.0517970830406
 30
0.0
 10
404.9902834597321
 20
269.7428676939362
 30
0.0
 10
405.4393023334881
 20
269.3890507699917
 30
0.0
 10
405.813243935786
 20
269.0010261024747
 30
0.0
 10
406.1202098370929
 20
268.5640956993997
 30
0.0
 10
406.3275184945323
 20
268.1238817329635
 30
0.0
 10
406.4434210827525
 20
267.6971726129109
 30
0.0
 10
406.4941242876303
 20
267.2262571711088
 30
0.0
 10
406.4336679643889
 20
266.677282578868
 30
0.0
 10
406.2207207327598
 20
266.0795365135462
 30
0.0
 10
405.8734837956072
 20
265.5379342684058
 30
0.0
 10
405.4521260700271
 20
265.0973263010157
 30
0.0
 10
405.0047125800469
 20
264.7474523780461
 30
0.0
 10
404.4688761945017
 20
264.4185419957044
 30
0.0
 10
403.8039851451159
 20
264.1148033753026
 30
0.0
 10
403.0243240844794
 20
263.8900335095864
 30
0.0
 10
402.2419184683749
 20
263.7856467101954
 30
0.0
 10
401.7313580022011
 20
263.7542242196895
 30
0.0
 10
401.4756451594627
 20
263.7384863554227
 30
0.0
 11
401.4756451594627
 21
270.7383876793357
 31
0.0
 11
402.0815311812208
 21
270.7031868135733
 31
0.0
 11
402.6829740007023
 21
270.6348298214892
 31
0.0
 11
403.2988652124434
 21
270.5001533356648
 31
0.0
 11
403.8983266739921
 21
270.3000884437198
 31
0.0
 11
404.4700254473121
 21
270.0407072054696
 31
0.0
 11
405.0065906643252
 21
269.7164872506916
 31
0.0
 11
405.4310232031044
 21
269.3798781107105
 31
0.0
 11
405.8057721783849
 21
268.9883876793357
 31
0.0
 11
406.1073280643449
 21
268.5560425181172
 31
0.0
 11
406.3293483781787
 21
268.0790401325011
 31
0.0
 11
406.4331090953218
 21
267.6951911023714
 31
0.0
 11
406.4748671931425
 21
267.2997795565572
 31
0.0
 11
406.410273581521
 21
266.6836751023473
 31
0.0
 11
406.2026554113696
 21
266.0977409320705
 31
0.0
 11
405.8572828105146
 21
265.5511392981566
 31
0.0
 11
405.4130086839118
 21
265.0811633180762
 31
0.0
 11
404.9991382651372
 21
264.755688670505
 31
0.0
 11
404.551099417913
 21
264.4787831723253
 31
0.0
 11
403.7963387112754
 21
264.1338210841478
 31
0.0
 11
403.0001824008873
 21
263.9051435944015
 31
0.0
 11
402.2421732702878
 21
263.7948234653869
 31
0.0
 11
401.4756451594627
 21
263.7384863554227
 31
0.0
  0
SPLINE
  5
A9
330
4A
100
AcDbEntity
  8
1
  6
Continuous
 62
     7
100
AcDbSpline
210
0.0
220
0.0
230
1.0
 70
    11
 71
     3
 72
    79
 73
    75
 74
    73
 42
0.000000001
 43
0.0000000001
 44
0.00000001
 40
0.0
 40
0.0
 40
0.0
 40
0.0
 40
0.2803981055170699
 40
0.5607977780794369
 40
0.8427454767815907
 40
1.124697465942907
 40
1.409536444711912
 40
1.694381494092127
 40
1.983071303433757
 40
2.271767836809151
 40
2.564776135645465
 40
2.857790848031632
 40
3.15505569206338
 40
3.452325972452663
 40
3.753284820909499
 40
4.054247736388211
 40
4.357919800455163
 40
4.6615943617714
 40
4.966700742338054
 40
5.271807963175731
 40
5.57691518400283
 40
5.882021564538364
 40
6.185696125802533
 40
6.489368189795937
 40
6.790331105179644
 40
7.091289953518529
 40
7.388560233767351
 40
7.685825077633507
 40
7.97883978983026
 40
8.271848088448923
 40
8.560544621579613
 40
8.849234430642387
 40
9.134079479707221
 40
9.418918458106099
 40
9.70087044681261
 40
9.982818144855955
 40
10.26321781600861
 40
10.54361593035224
 40
10.82401404469574
 40
11.10441371584851
 40
11.3863614138918
 40
11.66831340259848
 40
11.95315238099733
 40
12.23799743006218
 40
12.52668723912492
 40
12.81538377225565
 40
13.10839207087423
 40
13.40140678307098
 40
13.69867162693717
 40
13.99594190718602
 40
14.29690075552488
 40
14.59786367090861
 40
14.90153573490198
 40
15.20521029616615
 40
15.51031667670169
 40
15.8154238975288
 40
16.12053111836648
 40
16.42563749893313
 40
16.72931206024937
 40
17.03298412431629
 40
17.33394703979502
 40
17.63490588825183
 40
17.93217616864112
 40
18.22944101267291
 40
18.52245572505912
 40
18.81546402389531
 40
19.10416055727071
 40
19.39285036661234
 40
19.67769541599253
 40
19.96253439476157
 40
20.24448638392299
 40
20.52643408262514
 40
20.80683375518751
 40
21.08723186070458
 40
21.08723186070458
 40
21.08723186070458
 40
21.08723186070458
 10
412.7339754086604
 20
270.7383876793357
 30
0.0
 10
412.8274759487026
 20
270.7358062935297
 30
0.0
 10
413.0144775515045
 20
270.7306435128249
 30
0.0
 10
413.2929619626979
 20
270.6891711642617
 30
0.0
 10
413.5669041598503
 20
270.62327100442
 30
0.0
 10
413.8348323256193
 20
270.5310388954628
 30
0.0
 10
414.0938781134896
 20
270.4139567063336
 30
0.0
 10
414.3430374079066
 20
270.2724804249349
 30
0.0
 10
414.5793474283207
 20
270.1081980790984
 30
0.0
 10
414.8021224224585
 20
269.9217379310197
 30
0.0
 10
415.0085784549644
 20
269.7153134562067
 30
0.0
 10
415.1981911988046
 20
269.4895957618833
 30
0.0
 10
415.368590374923
 20
269.2473049636383
 30
0.0
 10
415.5193031827187
 20
268.9892474708944
 30
0.0
 10
415.6485263194279
 20
268.7184202675018
 30
0.0
 10
415.7558059927928
 20
268.4359034140886
 30
0.0
 10
415.8399604965264
 20
268.1447154435737
 30
0.0
 10
415.9006037705341
 20
267.8463366707323
 30
0.0
 10
415.9371375329806
 20
267.5435756989212
 30
0.0
 10
415.9493565638923
 20
267.2383876887387
 30
0.0
 10
415.9371375333306
 20
266.9331996785539
 30
0.0
 10
415.9006037712351
 20
266.6304387067275
 30
0.0
 10
415.8399604975807
 20
266.3320599338845
 30
0.0
 10
415.7558059942036
 20
266.0408719632808
 30
0.0
 10
415.6485263211992
 20
265.7583551100647
 30
0.0
 10
415.5193031848555
 20
265.4875279057686
 30
0.0
 10
415.3685903774322
 20
265.229470416142
 30
0.0
 10
415.1981912016931
 20
264.9871796060856
 30
0.0
 10
415.0085784582419
 20
264.7614619549238
 30
0.0
 10
414.8021224261352
 20
264.55503731993
 30
0.0
 10
414.5793474324115
 20
264.3685777607816
 30
0.0
 10
414.3430374124296
 20
264.2042932330958
 30
0.0
 10
414.0938781184753
 20
264.0628249900477
 30
0.0
 10
413.8348323311147
 20
263.9457129864641
 30
0.0
 10
413.5669041659812
 20
263.8535910680048
 30
0.0
 10
413.2929619697813
 20
263.7872813024474
 30
0.0
 10
413.0144775567446
 20
263.7473296373576
 30
0.0
 10
412.7339754086604
 20
263.7339167277368
 30
0.0
 10
412.4534732605763
 20
263.7473296373577
 30
0.0
 10
412.1749888475395
 20
263.7872813024472
 30
0.0
 10
411.9010466513398
 20
263.8535910680049
 30
0.0
 10
411.6331184862058
 20
263.9457129864639
 30
0.0
 10
411.3740726988455
 20
264.0628249900478
 30
0.0
 10
411.1249134048909
 20
264.2042932330958
 30
0.0
 10
410.8886033849092
 20
264.3685777607816
 30
0.0
 10
410.6658283911856
 20
264.5550373199299
 30
0.0
 10
410.4593723590788
 20
264.761461954924
 30
0.0
 10
410.2697596156278
 20
264.9871796060856
 30
0.0
 10
410.0993604398886
 20
265.229470416142
 30
0.0
 10
409.9486476324651
 20
265.4875279057685
 30
0.0
 10
409.8194244961218
 20
265.7583551100648
 30
0.0
 10
409.7121448231171
 20
266.0408719632807
 30
0.0
 10
409.6279903197401
 20
266.3320599338847
 30
0.0
 10
409.5673470460855
 20
266.6304387067274
 30
0.0
 10
409.53081328399
 20
266.933199678554
 30
0.0
 10
409.5185942534283
 20
267.2383876887386
 30
0.0
 10
409.5308132843403
 20
267.5435756989213
 30
0.0
 10
409.5673470467867
 20
267.8463366707322
 30
0.0
 10
409.6279903207944
 20
268.1447154435736
 30
0.0
 10
409.7121448245279
 20
268.4359034140886
 30
0.0
 10
409.8194244978928
 20
268.7184202675018
 30
0.0
 10
409.948647634602
 20
268.9892474708943
 30
0.0
 10
410.0993604423978
 20
269.2473049636383
 30
0.0
 10
410.2697596185162
 20
269.4895957618833
 30
0.0
 10
410.4593723623563
 20
269.7153134562067
 30
0.0
 10
410.6658283948622
 20
269.9217379310195
 30
0.0
 10
410.888603389
 20
270.1081980790985
 30
0.0
 10
411.1249134094141
 20
270.2724804249348
 30
0.0
 10
411.3740727038311
 20
270.4139567063339
 30
0.0
 10
411.6331184917015
 20
270.5310388954626
 30
0.0
 10
411.9010466574705
 20
270.62327100442
 30
0.0
 10
412.1749888546229
 20
270.6891711642616
 30
0.0
 10
412.4534732658162
 20
270.7306435128251
 30
0.0
 10
412.6404748686183
 20
270.7358062935296
 30
0.0
 10
412.7339754086604
 20
270.7383876793357
 30
0.0
 11
412.7339754086604
 21
270.7383876793357
 31
0.0
 11
413.01405540753
 21
270.7250348940376
 31
0.0
 11
413.2916132159087
 21
270.6852148148784
 31
0.0
 11
413.5656646202876
 21
270.6189552321545
 31
0.0
 11
413.832307480562
 21
270.5273118520864
 31
0.0
 11
414.091895905098
 21
270.4100638518013
 31
0.0
 11
414.3396294809935
 21
270.2694765925813
 31
0.0
 11
414.5767299656025
 21
270.1047793972292
 31
0.0
 11
414.7981644949373
 21
269.9195432302521
 31
0.0
 11
415.0054478842471
 21
269.7124503533369
 31
0.0
 11
415.1939801680247
 21
269.4881443132387
 31
0.0
 11
415.3650687145983
 21
269.2450494825379
 31
0.0
 11
415.5150498413212
 21
268.9883876793357
 31
0.0
 11
415.6447266211956
 21
268.7167994593646
 31
0.0
 11
415.7516179752729
 21
268.4354581809757
 31
0.0
 11
415.8359840366032
 21
268.1437406974302
 31
0.0
 11
415.896496566839
 21
267.84615630117
 31
0.0
 11
415.9330755154019
 21
267.5432505666357
 31
0.0
 11
415.9452835533266
 21
267.2383876793357
 31
0.0
 11
415.9330755154019
 21
266.9335247920358
 31
0.0
 11
415.896496566839
 21
266.6306190575016
 31
0.0
 11
415.8359840366032
 21
266.3330346612414
 31
0.0
 11
415.7516179752729
 21
266.041317177696
 31
0.0
 11
415.6447266211956
 21
265.7599758993071
 31
0.0
 11
415.5150498413212
 21
265.488387679336
 31
0.0
 11
415.3650687145982
 21
265.2317258761338
 31
0.0
 11
415.1939801680247
 21
264.988631045433
 31
0.0
 11
415.0054478842471
 21
264.7643250053349
 31
0.0
 11
414.7981644949373
 21
264.5572321284196
 31
0.0
 11
414.5767299656025
 21
264.3719959614425
 31
0.0
 11
414.3396294809935
 21
264.2072987660903
 31
0.0
 11
414.091895905098
 21
264.0667115068703
 31
0.0
 11
413.832307480562
 21
263.9494635065852
 31
0.0
 11
413.5656646202876
 21
263.857820126517
 31
0.0
 11
413.2916132159087
 21
263.791560543793
 31
0.0
 11
413.0140554075301
 21
263.751740464634
 31
0.0
 11
412.7339754086604
 21
263.738387679336
 31
0.0
 11
412.4538954097908
 21
263.751740464634
 31
0.0
 11
412.1763376014121
 21
263.791560543793
 31
0.0
 11
411.9022861970332
 21
263.857820126517
 31
0.0
 11
411.6356433367587
 21
263.9494635065852
 31
0.0
 11
411.3760549122227
 21
264.0667115068703
 31
0.0
 11
411.1283213363272
 21
264.2072987660903
 31
0.0
 11
410.8912208517182
 21
264.3719959614424
 31
0.0
 11
410.6697863223834
 21
264.5572321284196
 31
0.0
 11
410.4625029330737
 21
264.7643250053349
 31
0.0
 11
410.2739706492961
 21
264.988631045433
 31
0.0
 11
410.1028821027225
 21
265.2317258761338
 31
0.0
 11
409.9529009759995
 21
265.488387679336
 31
0.0
 11
409.8232241961252
 21
265.7599758993071
 31
0.0
 11
409.7163328420478
 21
266.041317177696
 31
0.0
 11
409.6319667807176
 21
266.3330346612414
 31
0.0
 11
409.5714542504818
 21
266.6306190575016
 31
0.0
 11
409.5348753019188
 21
266.9335247920358
 31
0.0
 11
409.5226672639941
 21
267.2383876793357
 31
0.0
 11
409.5348753019189
 21
267.5432505666357
 31
0.0
 11
409.5714542504818
 21
267.84615630117
 31
0.0
 11
409.6319667807176
 21
268.1437406974302
 31
0.0
 11
409.7163328420478
 21
268.4354581809757
 31
0.0
 11
409.8232241961252
 21
268.7167994593646
 31
0.0
 11
409.9529009759995
 21
268.9883876793357
 31
0.0
 11
410.1028821027225
 21
269.2450494825379
 31
0.0
 11
410.2739706492961
 21
269.4881443132387
 31
0.0
 11
410.4625029330737
 21
269.7124503533369
 31
0.0
 11
410.6697863223834
 21
269.9195432302521
 31
0.0
 11
410.8912208517182
 21
270.1047793972292
 31
0.0
 11
411.1283213363272
 21
270.2694765925813
 31
0.0
 11
411.3760549122226
 21
270.4100638518013
 31
0.0
 11
411.6356433367587
 21
270.5273118520864
 31
0.0
 11
411.9022861970332
 21
270.6189552321545
 31
0.0
 11
412.1763376014121
 21
270.6852148148784
 31
0.0
 11
412.4538954097908
 21
270.7250348940376
 31
0.0
 11
412.7339754086604
 21
270.7383876793357
 31
0.0
  0
SPLINE
  5
AA
330
4A
100
AcDbEntity
  8
1
  6
Continuous
 62
     7
100
AcDbSpline
210
0.0
220
0.0
230
1.0
 70
    11
 71
     3
 72
    79
 73
    75
 74
    73
 42
0.000000001
 43
0.0000000001
 44
0.00000001
 40
0.0
 40
0.0
 40
0.0
 40
0.0
 40
0.2803981055170726
 40
0.560797778079319
 40
0.8427454767814728
 40
1.124697465942842
 40
1.409536444711951
 40
1.694381494092166
 40
1.983071303433749
 40
2.27176783680923
 40
2.564776135645464
 40
2.857790848031588
 40
3.155055692063415
 40
3.452325972452706
 40
3.753284820909518
 40
4.05424773638823
 40
4.357919800455134
 40
4.661594361771382
 40
4.966700742338036
 40
5.271807963175718
 40
5.57691518400282
 40
5.882021564538361
 40
6.185696125802529
 40
6.489368189795902
 40
6.790331105179609
 40
7.091289953518469
 40
7.388560233767292
 40
7.685825077633546
 40
7.978839789830262
 40
8.271848088448845
 40
8.560544621579615
 40
8.849234430642356
 40
9.134079479707191
 40
9.418918458106068
 40
9.700870446812687
 40
9.982818144856086
 40
10.26321781600875
 40
10.54361593035225
 40
10.82401404469587
 40
11.10441371584859
 40
11.38636141389184
 40
11.66831340259838
 40
11.95315238099736
 40
12.23799743006215
 40
12.52668723912489
 40
12.81538377225562
 40
13.10839207087428
 40
13.40140678307107
 40
13.69867162693726
 40
13.99594190718609
 40
14.29690075552497
 40
14.59786367090866
 40
14.90153573490203
 40
15.2052102961662
 40
15.51031667670175
 40
15.81542389752885
 40
16.12053111836653
 40
16.42563749893319
 40
16.72931206024942
 40
17.03298412431635
 40
17.33394703979507
 40
17.63490588825188
 40
17.93217616864109
 40
18.22944101267293
 40
18.52245572505914
 40
18.81546402389545
 40
19.10416055727089
 40
19.39285036661247
 40
19.67769541599267
 40
19.96253439476175
 40
20.24448638392312
 40
20.52643408262517
 40
20.80683375518753
 40
21.08723186070466
 40
21.08723186070466
 40
21.08723186070466
 40
21.08723186070466
 10
390.217314910265
 20
270.7383876793357
 30
0.0
 10
390.1238143702229
 20
270.7358062935295
 30
0.0
 10
389.9368127674208
 20
270.730643512825
 30
0.0
 10
389.6583283562278
 20
270.6891711642617
 30
0.0
 10
389.3843861590752
 20
270.6232710044199
 30
0.0
 10
389.1164579933063
 20
270.5310388954626
 30
0.0
 10
388.8574122054357
 20
270.4139567063337
 30
0.0
 10
388.6082529110187
 20
270.2724804249348
 30
0.0
 10
388.3719428906048
 20
270.1081980790984
 30
0.0
 10
388.1491678964668
 20
269.9217379310197
 30
0.0
 10
387.942711863961
 20
269.7153134562067
 30
0.0
 10
387.7530991201209
 20
269.4895957618833
 30
0.0
 10
387.5826999440023
 20
269.2473049636383
 30
0.0
 10
387.4319871362066
 20
268.9892474708943
 30
0.0
 10
387.3027639994976
 20
268.7184202675018
 30
0.0
 10
387.1954843261323
 20
268.4359034140886
 30
0.0
 10
387.1113298223993
 20
268.1447154435736
 30
0.0
 10
387.0506865483912
 20
267.8463366707322
 30
0.0
 10
387.014152785945
 20
267.5435756989212
 30
0.0
 10
387.0019337550329
 20
267.2383876887386
 30
0.0
 10
387.0141527855947
 20
266.933199678554
 30
0.0
 10
387.0506865476902
 20
266.6304387067274
 30
0.0
 10
387.1113298213448
 20
266.3320599338847
 30
0.0
 10
387.1954843247217
 20
266.0408719632807
 30
0.0
 10
387.3027639977263
 20
265.7583551100647
 30
0.0
 10
387.4319871340697
 20
265.4875279057686
 30
0.0
 10
387.5826999414931
 20
265.229470416142
 30
0.0
 10
387.7530991172324
 20
264.9871796060856
 30
0.0
 10
387.9427118606836
 20
264.7614619549239
 30
0.0
 10
388.1491678927902
 20
264.5550373199299
 30
0.0
 10
388.371942886514
 20
264.3685777607817
 30
0.0
 10
388.6082529064956
 20
264.2042932330958
 30
0.0
 10
388.85741220045
 20
264.0628249900477
 30
0.0
 10
389.1164579878106
 20
263.945712986464
 30
0.0
 10
389.3843861529442
 20
263.8535910680048
 30
0.0
 10
389.6583283491443
 20
263.7872813024474
 30
0.0
 10
389.9368127621808
 20
263.7473296373576
 30
0.0
 10
390.217314910265
 20
263.7339167277369
 30
0.0
 10
390.4978170583492
 20
263.7473296373577
 30
0.0
 10
390.7763014713859
 20
263.7872813024472
 30
0.0
 10
391.0502436675856
 20
263.853591068005
 30
0.0
 10
391.3181718327194
 20
263.945712986464
 30
0.0
 10
391.5772176200799
 20
264.0628249900476
 30
0.0
 10
391.8263769140343
 20
264.2042932330959
 30
0.0
 10
392.0626869340161
 20
264.3685777607816
 30
0.0
 10
392.2854619277397
 20
264.55503731993
 30
0.0
 10
392.4919179598465
 20
264.7614619549238
 30
0.0
 10
392.6815307032978
 20
264.9871796060856
 30
0.0
 10
392.8519298790368
 20
265.229470416142
 30
0.0
 10
393.0026426864603
 20
265.4875279057686
 30
0.0
 10
393.131865822804
 20
265.7583551100647
 30
0.0
 10
393.2391454958082
 20
266.0408719632807
 30
0.0
 10
393.3232999991853
 20
266.3320599338846
 30
0.0
 10
393.3839432728397
 20
266.6304387067275
 30
0.0
 10
393.4204770349355
 20
266.933199678554
 30
0.0
 10
393.4326960654969
 20
267.2383876887386
 30
0.0
 10
393.4204770345854
 20
267.5435756989212
 30
0.0
 10
393.3839432721385
 20
267.8463366707323
 30
0.0
 10
393.3232999981311
 20
268.1447154435737
 30
0.0
 10
393.2391454943976
 20
268.4359034140886
 30
0.0
 10
393.1318658210325
 20
268.7184202675018
 30
0.0
 10
393.0026426843233
 20
268.9892474708943
 30
0.0
 10
392.8519298765276
 20
269.2473049636382
 30
0.0
 10
392.6815307004092
 20
269.4895957618832
 30
0.0
 10
392.4919179565691
 20
269.7153134562067
 30
0.0
 10
392.2854619240631
 20
269.9217379310197
 30
0.0
 10
392.0626869299251
 20
270.1081980790984
 30
0.0
 10
391.8263769095113
 20
270.2724804249349
 30
0.0
 10
391.5772176150942
 20
270.4139567063338
 30
0.0
 10
391.3181718272238
 20
270.5310388954627
 30
0.0
 10
391.0502436614549
 20
270.6232710044199
 30
0.0
 10
390.7763014643024
 20
270.6891711642616
 30
0.0
 10
390.4978170531093
 20
270.730643512825
 30
0.0
 10
390.310815450307
 20
270.7358062935297
 30
0.0
 10
390.217314910265
 20
270.7383876793357
 30
0.0
 11
390.217314910265
 21
270.7383876793357
 31
0.0
 11
389.9372349113954
 21
270.7250348940375
 31
0.0
 11
389.6596771030168
 21
270.6852148148784
 31
0.0
 11
389.3856256986379
 21
270.6189552321545
 31
0.0
 11
389.1189828383634
 21
270.5273118520864
 31
0.0
 11
388.8593944138273
 21
270.4100638518013
 31
0.0
 11
388.6116608379318
 21
270.2694765925813
 31
0.0
 11
388.3745603533229
 21
270.1047793972292
 31
0.0
 11
388.153125823988
 21
269.9195432302521
 31
0.0
 11
387.9458424346783
 21
269.7124503533369
 31
0.0
 11
387.7573101509007
 21
269.4881443132387
 31
0.0
 11
387.5862216043271
 21
269.2450494825379
 31
0.0
 11
387.4362404776041
 21
268.9883876793357
 31
0.0
 11
387.3065636977298
 21
268.7167994593646
 31
0.0
 11
387.1996723436524
 21
268.4354581809757
 31
0.0
 11
387.1153062823223
 21
268.1437406974302
 31
0.0
 11
387.0547937520864
 21
267.84615630117
 31
0.0
 11
387.0182148035235
 21
267.5432505666357
 31
0.0
 11
387.0060067655987
 21
267.2383876793357
 31
0.0
 11
387.0182148035234
 21
266.9335247920358
 31
0.0
 11
387.0547937520864
 21
266.6306190575016
 31
0.0
 11
387.1153062823222
 21
266.3330346612414
 31
0.0
 11
387.1996723436524
 21
266.041317177696
 31
0.0
 11
387.3065636977298
 21
265.7599758993071
 31
0.0
 11
387.4362404776041
 21
265.488387679336
 31
0.0
 11
387.586221604327
 21
265.2317258761338
 31
0.0
 11
387.7573101509007
 21
264.988631045433
 31
0.0
 11
387.9458424346783
 21
264.7643250053349
 31
0.0
 11
388.153125823988
 21
264.5572321284196
 31
0.0
 11
388.3745603533229
 21
264.3719959614424
 31
0.0
 11
388.6116608379318
 21
264.2072987660903
 31
0.0
 11
388.8593944138273
 21
264.0667115068703
 31
0.0
 11
389.1189828383633
 21
263.9494635065852
 31
0.0
 11
389.3856256986378
 21
263.857820126517
 31
0.0
 11
389.6596771030168
 21
263.791560543793
 31
0.0
 11
389.9372349113954
 21
263.751740464634
 31
0.0
 11
390.217314910265
 21
263.738387679336
 31
0.0
 11
390.4973949091347
 21
263.751740464634
 31
0.0
 11
390.7749527175133
 21
263.791560543793
 31
0.0
 11
391.0490041218922
 21
263.857820126517
 31
0.0
 11
391.3156469821666
 21
263.9494635065852
 31
0.0
 11
391.5752354067027
 21
264.0667115068703
 31
0.0
 11
391.8229689825981
 21
264.2072987660903
 31
0.0
 11
392.0600694672071
 21
264.3719959614424
 31
0.0
 11
392.2815039965419
 21
264.5572321284196
 31
0.0
 11
392.4887873858518
 21
264.7643250053348
 31
0.0
 11
392.6773196696294
 21
264.988631045433
 31
0.0
 11
392.848408216203
 21
265.2317258761338
 31
0.0
 11
392.9983893429259
 21
265.488387679336
 31
0.0
 11
393.1280661228003
 21
265.7599758993071
 31
0.0
 11
393.2349574768776
 21
266.041317177696
 31
0.0
 11
393.3193235382078
 21
266.3330346612414
 31
0.0
 11
393.3798360684436
 21
266.6306190575016
 31
0.0
 11
393.4164150170066
 21
266.9335247920358
 31
0.0
 11
393.4286230549313
 21
267.2383876793357
 31
0.0
 11
393.4164150170066
 21
267.5432505666357
 31
0.0
 11
393.3798360684436
 21
267.84615630117
 31
0.0
 11
393.3193235382079
 21
268.1437406974302
 31
0.0
 11
393.2349574768776
 21
268.4354581809757
 31
0.0
 11
393.1280661228002
 21
268.7167994593646
 31
0.0
 11
392.9983893429259
 21
268.9883876793357
 31
0.0
 11
392.848408216203
 21
269.2450494825378
 31
0.0
 11
392.6773196696294
 21
269.4881443132387
 31
0.0
 11
392.4887873858518
 21
269.7124503533369
 31
0.0
 11
392.2815039965419
 21
269.9195432302521
 31
0.0
 11
392.060069467207
 21
270.1047793972292
 31
0.0
 11
391.8229689825981
 21
270.2694765925813
 31
0.0
 11
391.5752354067027
 21
270.4100638518013
 31
0.0
 11
391.3156469821666
 21
270.5273118520864
 31
0.0
 11
391.0490041218922
 21
270.6189552321545
 31
0.0
 11
390.7749527175133
 21
270.6852148148784
 31
0.0
 11
390.4973949091346
 21
270.7250348940376
 31
0.0
 11
390.217314910265
 21
270.7383876793357
 31
0.0
  0
SPLINE
  5
AB
330
4A
100
AcDbEntity
  8
1
  6
Continuous
 62
     7
100
AcDbSpline
210
0.0
220
0.0
230
1.0
 70
     8
 71
     3
 72
    29
 73
    25
 74
    23
 42
0.000000001
 43
0.0000000001
 44
0.00000001
 40
0.0
 40
0.0
 40
0.0
 40
0.0
 40
0.6069077071334358
 40
1.212222618922021
 40
1.842666699980983
 40
2.474631891987592
 40
3.102420163134908
 40
3.729333881624483
 40
4.271042929453233
 40
4.81298531724145
 40
5.340107969104079
 40
5.866248914948639
 40
6.263874824440285
 40
6.661485222726601
 40
7.280966483141013
 40
7.902596723210166
 40
8.549168899022714
 40
9.195896755584794
 40
9.722415956711961
 40
10.24911839923913
 40
11.07897535377076
 40
11.90732205839644
 40
12.67331707894445
 40
13.44191268485661
 40
13.44191268485661
 40
13.44191268485661
 40
13.44191268485661
 10
401.4756451594627
 20
270.7383876793357
 30
0.0
 10
401.273585331917
 20
270.7285123059717
 30
0.0
 10
400.8699959722399
 20
270.708787464759
 30
0.0
 10
400.258290424156
 20
270.6449971165377
 30
0.0
 10
399.648873363014
 20
270.5108138187971
 30
0.0
 10
399.0504671880358
 20
270.3103581992707
 30
0.0
 10
398.4759046565619
 20
270.0517970830405
 30
0.0
 10
397.9610068591932
 20
269.7428676939363
 30
0.0
 10
397.5119879854372
 20
269.3890507699917
 30
0.0
 10
397.1380463831395
 20
269.0010261024747
 30
0.0
 10
396.8310804818326
 20
268.5640956993996
 30
0.0
 10
396.6237718243933
 20
268.1238817329634
 30
0.0
 10
396.5078692361727
 20
267.6971726129109
 30
0.0
 10
396.4571660312952
 20
267.226257171109
 30
0.0
 10
396.5176223545362
 20
266.677282578868
 30
0.0
 10
396.7305695861656
 20
266.0795365135462
 30
0.0
 10
397.0778065233181
 20
265.5379342684058
 30
0.0
 10
397.4991642488983
 20
265.0973263010158
 30
0.0
 10
397.9465777388787
 20
264.7474523780461
 30
0.0
 10
398.4824141244237
 20
264.4185419957045
 30
0.0
 10
399.1473051738094
 20
264.1148033753026
 30
0.0
 10
399.9269662344462
 20
263.8900335095862
 30
0.0
 10
400.7093718505503
 20
263.7856467101954
 30
0.0
 10
401.2199323167242
 20
263.7542242196895
 30
0.0
 10
401.4756451594627
 20
263.7384863554227
 30
0.0
 11
401.4756451594627
 21
270.7383876793357
 31
0.0
 11
400.8697591377045
 21
270.7031868135733
 31
0.0
 11
400.2683163182231
 21
270.6348298214892
 31
0.0
 11
399.652425106482
 21
270.5001533356648
 31
0.0
 11
399.0529636449334
 21
270.3000884437198
 31
0.0
 11
398.4812648716132
 21
270.0407072054696
 31
0.0
 11
397.9446996546001
 21
269.7164872506916
 31
0.0
 11
397.520267115821
 21
269.3798781107105
 31
0.0
 11
397.1455181405405
 21
268.9883876793357
 31
0.0
 11
396.8439622545806
 21
268.5560425181172
 31
0.0
 11
396.6219419407468
 21
268.0790401325011
 31
0.0
 11
396.5181812236036
 21
267.6951911023714
 31
0.0
 11
396.4764231257828
 21
267.2997795565572
 31
0.0
 11
396.5410167374042
 21
266.6836751023473
 31
0.0
 11
396.7486349075557
 21
266.0977409320705
 31
0.0
 11
397.0940075084108
 21
265.5511392981566
 31
0.0
 11
397.5382816350136
 21
265.0811633180762
 31
0.0
 11
397.9521520537883
 21
264.755688670505
 31
0.0
 11
398.4001909010125
 21
264.4787831723253
 31
0.0
 11
399.1549516076499
 21
264.1338210841478
 31
0.0
 11
399.951107918038
 21
263.9051435944015
 31
0.0
 11
400.7091170486377
 21
263.7948234653869
 31
0.0
 11
401.4756451594627
 21
263.7384863554227
 31
0.0
  0
ARC
  5
AC
330
4A
100
AcDbEntity
  8
1
  6
Continuous
 62
     7
100
AcDbCircle
 10
389.9756451594627
 20
276.5520961783205
 30
0.0
 40
2.999999999999823
100
AcDbArc
 50
315.0000000000038
 51
0.0
  0
ARC
  5
AD
330
4A
100
AcDbEntity
  8
1
  6
Continuous
 62
     7
100
AcDbCircle
 10
393.9756451594627
 20
281.2383876793357
 30
0.0
 40
1.0
100
AcDbArc
 50
90.0
 51
180.0
  0
ARC
  5
AE
330
4A
100
AcDbEntity
  8
1
  6
Continuous
 62
     7
100
AcDbCircle
 10
408.9756451594626
 20
281.2383876793357
 30
0.0
 40
1.0
100
AcDbArc
 50
0.0
 51
90.0
  0
ARC
  5
AF
330
4A
100
AcDbEntity
  8
1
  6
Continuous
 62
     7
100
AcDbCircle
 10
412.9756451594626
 20
276.5520961783205
 30
0.0
 40
3.0
100
AcDbArc
 50
180.0
 51
225.0
  0
ARC
  5
B0
330
4A
100
AcDbEntity
  8
1
  6
Continuous
 62
     7
100
AcDbCircle
 10
130.9592901941679
 20
276.5519975022336
 30
0.0
 40
2.999999999999986
100
AcDbArc
 50
179.9999999999935
 51
224.9999999999988
  0
ARC
  5
B1
330
4A
100
AcDbEntity
  8
1
  6
Continuous
 62
     7
100
AcDbCircle
 10
126.9592901941682
 20
281.2382890032491
 30
0.0
 40
0.9999999999997016
100
AcDbArc
 50
0.0
 51
90.00000000001711
  0
ARC
  5
B2
330
4A
100
AcDbEntity
  8
1
  6
Continuous
 62
     7
100
AcDbCircle
 10
111.9592901941677
 20
281.2382890032493
 30
0.0
 40
0.9999999999998863
100
AcDbArc
 50
89.9999999999943
 51
180.0000000000097
  0
ARC
  5
B3
330
4A
100
AcDbEntity
  8
1
  6
Continuous
 62
     7
100
AcDbCircle
 10
107.9592901941677
 20
276.551997502234
 30
0.0
 40
2.999999999999853
100
AcDbArc
 50
315.0000000000013
 51
359.9999999999989
  0
ENDBLK
  5
4C
330
4A
100
AcDbEntity
  8
0
100
AcDbBlockEnd
  0
BLOCK
  5
50
330
4D
100
AcDbEntity
  8
0
100
AcDbBlockBegin
  2
U360S-13
 70
     0
 10
489.8403318129679
 20
572.742842891623
 30
0.0
  3
U360S-13
  1

  0
INSERT
  5
4E
330
4D
100
AcDbEntity
  8
0
100
AcDbBlockReference
  2
36-190-M11
 10
155.6617867375143
 20
139.6692616699
 30
0.0
 41
1.0
 42
1.0
 43
1.0
  0
INSERT
  5
4F
330
4D
100
AcDbEntity
  8
1
100
AcDbBlockReference
  2
37-119
 10
623.9661316756566
 20
740.9902526749137
 30
0.0
 41
1.0
 42
1.0
 43
1.0
  0
ENDBLK
  5
51
330
4D
100
AcDbEntity
  8
0
100
AcDbBlockEnd
  0
BLOCK
  5
53
330
52
100
AcDbEntity
  8
0
100
AcDbBlockBegin
  2
27-2A-M1
 70
     0
 10
668.8403318129679
 20
474.835792414527
 30
0.0
  3
27-2A-M1
  1

  0
LINE
  5
B4
330
52
100
AcDbEntity
  8
1
  6
Continuous
 62
     7
100
AcDbLine
 10
123.8079256380233
 20
309.2383876793361
 30
0.0
 11
131.0039112706576
 21
309.2383876793361
 31
0.0
  0
LINE
  5
B5
330
52
100
AcDbEntity
  8
1
  6
Continuous
 62
     7
100
AcDbLine
 10
346.235784245417
 20
300.1791284138287
 30
0.0
 11
340.4756451594628
 21
300.438387679336
 31
0.0
  0
LINE
  5
B6
330
52
100
AcDbEntity
  8
1
  6
Continuous
 62
     7
100
AcDbLine
 10
388.699441269821
 20
285.7383876793361
 30
0.0
 11
389.3545385108594
 21
298.2383876793361
 31
0.0
  0
LINE
  5
B7
330
52
100
AcDbEntity
  8
1
  6
Continuous
 62
     7
100
AcDbLine
 10
401.4756451594625
 20
309.2383876793361
 30
0.0
 11
365.4756451594628
 21
309.2383876793361
 31
0.0
  0
LINE
  5
B8
330
52
100
AcDbEntity
  8
1
  6
Continuous
 62
     7
100
AcDbLine
 10
413.0202662359529
 20
309.2383876793361
 30
0.0
 11
414.2518490491041
 21
285.7383876793361
 31
0.0
  0
LINE
  5
B9
330
52
100
AcDbEntity
  8
1
  6
Continuous
 62
     7
100
AcDbLine
 10
358.7120721444824
 20
316.0015082596944
 30
0.0
 11
365.4756451594628
 21
309.2383876793361
 31
0.0
  0
LINE
  5
BA
330
52
100
AcDbEntity
  8
1
  6
Continuous
 62
     7
100
AcDbLine
 10
346.4606026504856
 20
305.1740715250905
 30
0.0
 11
340.4756451594628
 21
305.4434496876767
 31
0.0
  0
LINE
  5
BB
330
52
100
AcDbEntity
  8
1
  6
Continuous
 62
     7
100
AcDbLine
 10
355.1765382365719
 20
312.465974351784
 30
0.0
 11
355.9350571163172
 21
311.7075062115222
 31
0.0
  0
LINE
  5
BC
330
52
100
AcDbEntity
  8
1
  6
Continuous
 62
     7
100
AcDbLine
 10
119.4592901941679
 20
484.5648012307224
 30
0.0
 11
115.4592901941679
 21
484.5648012307224
 31
0.0
  0
LINE
  5
BD
330
52
100
AcDbEntity
  8
1
  6
DASH_CENTER
 62
     2
100
AcDbLine
 10
119.4592901941679
 20
484.5648012307224
 30
0.0
 11
119.4592901941679
 21
481.5648012307224
 31
0.0
  0
LINE
  5
BE
330
52
100
AcDbEntity
  8
1
  6
Continuous
 62
     7
100
AcDbLine
 10
115.4592901941679
 20
484.5648012307224
 30
0.0
 11
115.4592901941679
 21
523.5648012307224
 31
0.0
  0
LINE
  5
BF
330
52
100
AcDbEntity
  8
1
  6
Continuous
 62
     7
100
AcDbLine
 10
115.4592901941679
 20
523.5648012307224
 30
0.0
 11
114.9582761314196
 21
540.265269989002
 31
0.0
  0
LINE
  5
C0
330
52
100
AcDbEntity
  8
1
  6
Continuous
 62
     7
100
AcDbLine
 10
123.9603042569163
 20
540.265269989002
 30
0.0
 11
123.4592901941679
 21
523.5648012307224
 31
0.0
  0
LINE
  5
C1
330
52
100
AcDbEntity
  8
1
  6
Continuous
 62
     7
100
AcDbLine
 10
123.4592901941679
 20
523.5648012307224
 30
0.0
 11
123.4592901941679
 21
484.5648012307224
 31
0.0
  0
LINE
  5
C2
330
52
100
AcDbEntity
  8
1
  6
Continuous
 62
     7
100
AcDbLine
 10
123.4592901941679
 20
484.5648012307224
 30
0.0
 11
119.4592901941679
 21
484.5648012307224
 31
0.0
  0
LINE
  5
C3
330
52
100
AcDbEntity
  8
1
  6
Continuous
 62
     7
100
AcDbLine
 10
350.3748089767864
 20
324.3382137241609
 30
0.0
 11
358.7120721444824
 21
316.0015082596944
 31
0.0
  0
LINE
  5
C4
330
52
100
AcDbEntity
  8
1
  6
Continuous
 62
     7
100
AcDbLine
 10
346.8393933277423
 20
320.802561565295
 30
0.0
 11
355.1765382365719
 21
312.465974351784
 31
0.0
  0
LINE
  5
C5
330
52
100
AcDbEntity
  8
1
  6
Continuous
 62
     7
100
AcDbLine
 10
352.926869873027
 20
304.8830299954199
 30
0.0
 11
346.4606026504856
 21
305.1740715250905
 31
0.0
  0
LINE
  5
C6
330
52
100
AcDbEntity
  8
1
  6
Continuous
 62
     7
100
AcDbLine
 10
387.3417594388186
 20
298.3289812598138
 30
0.0
 11
346.235784245417
 21
300.1791284138287
 31
0.0
  0
LINE
  5
C7
330
52
100
AcDbEntity
  8
1
  6
Continuous
 62
     7
100
AcDbLine
 10
132.2354940838092
 20
285.7383876793361
 30
0.0
 11
106.6830863045263
 21
285.7383876793361
 31
0.0
  0
LINE
  5
C8
330
52
100
AcDbEntity
  8
1
  6
Continuous
 62
     7
100
AcDbLine
 10
131.0039112706576
 20
309.2383876793361
 30
0.0
 11
132.2354940838092
 21
285.7383876793361
 31
0.0
  0
LINE
  5
C9
330
52
100
AcDbEntity
  8
1
  6
Continuous
 62
     7
100
AcDbLine
 10
115.4592901941677
 20
300.438387679336
 30
0.0
 11
116.2841534717776
 21
300.438387679336
 31
0.0
  0
LINE
  5
CA
330
52
100
AcDbEntity
  8
1
  6
Continuous
 62
     7
100
AcDbLine
 10
117.6774010941676
 20
299.6030717158994
 30
0.0
 11
121.2411792941676
 21
299.6030717158994
 31
0.0
  0
LINE
  5
CB
330
52
100
AcDbEntity
  8
1
  6
Continuous
 62
     7
100
AcDbLine
 10
115.4592901941677
 20
309.2383876793361
 30
0.0
 11
115.1106547503119
 21
309.2383876793361
 31
0.0
  0
LINE
  5
CC
330
52
100
AcDbEntity
  8
1
  6
Continuous
 62
     7
100
AcDbLine
 10
115.4592901941677
 20
298.2383876793361
 30
0.0
 11
117.2692901941676
 21
298.2383876793361
 31
0.0
  0
LINE
  5
CD
330
52
100
AcDbEntity
  8
1
  6
Continuous
 62
     7
100
AcDbLine
 10
116.2841534717776
 20
300.438387679336
 30
0.0
 11
113.8951080694484
 21
297.4847159991254
 31
0.0
  0
LINE
  5
CE
330
52
100
AcDbEntity
  8
1
  6
Continuous
 62
     7
100
AcDbLine
 10
115.1106547503119
 20
309.2383876793361
 30
0.0
 11
113.4592901941677
 21
296.2383876793361
 31
0.0
  0
LINE
  5
CF
330
52
100
AcDbEntity
  8
1
  6
Continuous
 62
     7
100
AcDbLine
 10
115.1106547503119
 20
309.2383876793361
 30
0.0
 11
107.9146691176776
 21
309.2383876793361
 31
0.0
  0
LINE
  5
D0
330
52
100
AcDbEntity
  8
1
  6
Continuous
 62
     7
100
AcDbLine
 10
125.0050451002566
 20
297.5074983011111
 30
0.0
 11
122.6344269165576
 21
300.438387679336
 31
0.0
  0
LINE
  5
D1
330
52
100
AcDbEntity
  8
1
  6
Continuous
 62
     7
100
AcDbLine
 10
125.4592901941677
 20
296.2383876793361
 30
0.0
 11
123.8079256380233
 21
309.2383876793361
 31
0.0
  0
LINE
  5
D2
330
52
100
AcDbEntity
  8
1
  6
Continuous
 62
     7
100
AcDbLine
 10
117.6774010941676
 20
299.6030717158994
 30
0.0
 11
117.2692901941676
 21
298.2383876793361
 31
0.0
  0
LINE
  5
D3
330
52
100
AcDbEntity
  8
1
  6
Continuous
 62
     7
100
AcDbLine
 10
117.2692901941676
 20
298.2383876793361
 30
0.0
 11
121.6492901941676
 21
298.2383876793361
 31
0.0
  0
LINE
  5
D4
330
52
100
AcDbEntity
  8
1
  6
Continuous
 62
     7
100
AcDbLine
 10
121.2411792941676
 20
299.6030717158994
 30
0.0
 11
121.6492901941676
 21
298.2383876793361
 31
0.0
  0
LINE
  5
D5
330
52
100
AcDbEntity
  8
1
  6
Continuous
 62
     7
100
AcDbLine
 10
121.6492901941676
 20
298.2383876793361
 30
0.0
 11
123.4592901941677
 21
298.2383876793361
 31
0.0
  0
LINE
  5
D6
330
52
100
AcDbEntity
  8
1
  6
Continuous
 62
     7
100
AcDbLine
 10
413.0202662359529
 20
309.2383876793361
 30
0.0
 11
401.4756451594625
 21
309.2383876793361
 31
0.0
  0
LINE
  5
D7
330
52
100
AcDbEntity
  8
1
  6
Continuous
 62
     7
100
AcDbLine
 10
414.2518490491041
 20
285.7383876793361
 30
0.0
 11
388.699441269821
 21
285.7383876793361
 31
0.0
  0
LINE
  5
D8
330
52
100
AcDbEntity
  8
1
  6
Continuous
 62
     7
100
AcDbLine
 10
106.6830863045263
 20
285.7383876793361
 30
0.0
 11
107.9146691176776
 21
309.2383876793361
 31
0.0
  0
LINE
  5
D9
330
52
100
AcDbEntity
  8
1
  6
Continuous
 62
     7
100
AcDbLine
 10
123.4592901941677
 20
309.2383876793361
 30
0.0
 11
123.8079256380233
 21
309.2383876793361
 31
0.0
  0
LINE
  5
DA
330
52
100
AcDbEntity
  8
1
  6
Continuous
 62
     7
100
AcDbLine
 10
123.4592901941677
 20
328.438387679336
 30
0.0
 11
123.4592901941677
 21
309.2383876793361
 31
0.0
  0
LINE
  5
DB
330
52
100
AcDbEntity
  8
1
  6
Continuous
 62
     7
100
AcDbLine
 10
115.4592901941677
 20
300.438387679336
 30
0.0
 11
115.4592901941677
 21
309.2383876793361
 31
0.0
  0
LINE
  5
DC
330
52
100
AcDbEntity
  8
1
  6
Continuous
 62
     7
100
AcDbLine
 10
116.2841534717776
 20
300.438387679336
 30
0.0
 11
122.6344269165576
 21
300.438387679336
 31
0.0
  0
LINE
  5
DD
330
52
100
AcDbEntity
  8
1
  6
Continuous
 62
     7
100
AcDbLine
 10
122.6344269165576
 20
300.438387679336
 30
0.0
 11
123.4592901941677
 21
300.438387679336
 31
0.0
  0
LINE
  5
DE
330
52
100
AcDbEntity
  8
1
  6
Continuous
 62
     7
100
AcDbLine
 10
115.4592901941677
 20
328.438387679336
 30
0.0
 11
123.4592901941677
 21
328.438387679336
 31
0.0
  0
LINE
  5
DF
330
52
100
AcDbEntity
  8
1
  6
Continuous
 62
     7
100
AcDbLine
 10
123.4592901941677
 20
309.2383876793361
 30
0.0
 11
123.4592901941677
 21
300.438387679336
 31
0.0
  0
LINE
  5
E0
330
52
100
AcDbEntity
  8
1
  6
Continuous
 62
     7
100
AcDbLine
 10
115.4592901941677
 20
309.2383876793361
 30
0.0
 11
115.4592901941677
 21
328.438387679336
 31
0.0
  0
LINE
  5
E1
330
52
100
AcDbEntity
  8
1
  6
Continuous
 62
     7
100
AcDbLine
 10
389.4043760154842
 20
299.189343917258
 30
0.0
 11
389.8799646175854
 21
308.2641150410753
 31
0.0
  0
LINE
  5
E2
330
52
100
AcDbEntity
  8
1
  6
Continuous
 62
     7
100
AcDbLine
 10
122.3979708869745
 20
523.5648012307224
 30
0.0
 11
116.7215935032764
 21
523.5648012307224
 31
0.0
  0
ARC
  5
E3
330
52
100
AcDbEntity
  8
1
  6
Continuous
 62
     7
100
AcDbCircle
 10
119.4592901941677
 20
559.5648012307222
 30
0.0
 40
12.75
100
AcDbArc
 50
90.0
 51
180.0
  0
ARC
  5
E4
330
52
100
AcDbEntity
  8
1
  6
Continuous
 62
     7
100
AcDbCircle
 10
340.4756451594628
 20
314.438387679336
 30
0.0
 40
14.0
100
AcDbArc
 50
90.0
 51
180.0
  0
ARC
  5
E5
330
52
100
AcDbEntity
  8
1
  6
Continuous
 62
     7
100
AcDbCircle
 10
340.4756451594628
 20
314.438387679336
 30
0.0
 40
14.0
100
AcDbArc
 50
180.0
 51
270.0
  0
ARC
  5
E6
330
52
100
AcDbEntity
  8
1
  6
Continuous
 62
     7
100
AcDbCircle
 10
119.4592901941677
 20
559.5648012307222
 30
0.0
 40
12.75000000000018
100
AcDbArc
 50
0.00000000000102
 51
90.0
  0
ARC
  5
E7
330
52
100
AcDbEntity
  8
1
  6
Continuous
 62
     7
100
AcDbCircle
 10
340.4756451594628
 20
314.438387679336
 30
0.0
 40
14.00000000000009
100
AcDbArc
 50
45.00191640286433
 51
90.0
  0
ARC
  5
E8
330
52
100
AcDbEntity
  8
1
  6
Continuous
 62
     7
100
AcDbCircle
 10
340.4756451594628
 20
314.438387679336
 30
0.0
 40
8.994937991659457
100
AcDbArc
 50
45.00191640286387
 51
270.0
  0
ARC
  5
E9
330
52
100
AcDbEntity
  8
1
  6
Continuous
 62
     7
100
AcDbCircle
 10
353.106724597082
 20
308.8789844844295
 30
0.0
 40
4.000000000000101
100
AcDbArc
 50
267.422901981416
 51
45.00191640286433
  0
ARC
  5
EA
330
52
100
AcDbEntity
  8
1
  6
Continuous
 62
     7
100
AcDbCircle
 10
99.96502157858401
 20
539.8154723524171
 30
0.0
 40
15.00000000000011
100
AcDbArc
 50
26.7408134221629
 51
45.3723835667237
  0
ARC
  5
EB
330
52
100
AcDbEntity
  8
1
  6
Continuous
 62
     7
100
AcDbCircle
 10
119.4592901941677
 20
559.5648012307222
 30
0.0
 40
12.75
100
AcDbArc
 50
180.0
 51
225.3723835667246
  0
ARC
  5
EC
330
52
100
AcDbEntity
  8
1
  6
Continuous
 62
     7
100
AcDbCircle
 10
138.9535588097518
 20
539.8154723524171
 30
0.0
 40
14.99999999999993
100
AcDbArc
 50
153.2591865778367
 51
178.2816419983452
  0
ARC
  5
ED
330
52
100
AcDbEntity
  8
1
  6
Continuous
 62
     7
100
AcDbCircle
 10
138.9535588097518
 20
539.8154723524171
 30
0.0
 40
14.99999999999986
100
AcDbArc
 50
134.6276164332758
 51
153.2591865778367
  0
ARC
  5
EE
330
52
100
AcDbEntity
  8
1
  6
Continuous
 62
     7
100
AcDbCircle
 10
99.96502157858401
 20
539.8154723524171
 30
0.0
 40
15.00000000000007
100
AcDbArc
 50
1.71835800165478
 51
26.7408134221629
  0
ARC
  5
EF
330
52
100
AcDbEntity
  8
1
  6
Continuous
 62
     7
100
AcDbCircle
 10
115.4592901941677
 20
296.2383876793361
 30
0.0
 40
2.000000000000067
100
AcDbArc
 50
141.4524318300564
 51
180.0
  0
ARC
  5
F0
330
52
100
AcDbEntity
  8
1
  6
Continuous
 62
     7
100
AcDbCircle
 10
123.4592901941677
 20
296.2383876793361
 30
0.0
 40
2.000000000000025
100
AcDbArc
 50
39.38701050525522
 51
90.0
  0
ARC
  5
F1
330
52
100
AcDbEntity
  8
1
  6
Continuous
 62
     7
100
AcDbCircle
 10
115.4592901941677
 20
296.2383876793361
 30
0.0
 40
2.0
100
AcDbArc
 50
90.0
 51
141.4524318300564
  0
ARC
  5
F2
330
52
100
AcDbEntity
  8
1
  6
Continuous
 62
     7
100
AcDbCircle
 10
123.4592901941677
 20
296.2383876793361
 30
0.0
 40
2.0
100
AcDbArc
 50
0.0
 51
39.38701050525522
  0
ARC
  5
F3
330
52
100
AcDbEntity
  8
1
  6
Continuous
 62
     7
100
AcDbCircle
 10
119.4592901941677
 20
559.5648012307222
 30
0.0
 40
12.75000000000015
100
AcDbArc
 50
314.6276164332772
 51
0.00000000000102
  0
ARC
  5
F4
330
52
100
AcDbEntity
  8
1
  6
Continuous
 62
     7
100
AcDbCircle
 10
387.2518320767911
 20
296.331004015309
 30
0.0
 40
2.000000000000037
100
AcDbArc
 50
52.27251365015615
 51
87.42290198141686
  0
ARC
  5
F5
330
52
100
AcDbEntity
  8
1
  6
Continuous
 62
     7
100
AcDbCircle
 10
387.2518320767911
 20
296.331004015309
 30
0.0
 40
2.000000000000043
100
AcDbArc
 50
357.0000000000043
 51
52.27251365015615
  0
ENDBLK
  5
54
330
52
100
AcDbEntity
  8
0
100
AcDbBlockEnd
  0
BLOCK
  5
56
330
55
100
AcDbEntity
  8
0
100
AcDbBlockBegin
  2
42-29
 70
     0
 10
878.3105577300439
 20
1214.998812728349
 30
0.0
  3
42-29
  1

  0
LINE
  5
F6
330
55
100
AcDbEntity
  8
1
  6
Continuous
 62
     7
100
AcDbLine
 10
123.4592901941677
 20
309.2383876793361
 30
0.0
 11
126.4592901941677
 21
309.238387679336
 31
0.0
  0
LINE
  5
F7
330
55
100
AcDbEntity
  8
1
  6
Continuous
 62
     7
100
AcDbLine
 10
115.4592901941677
 20
311.2218850363819
 30
0.0
 11
112.4592901941677
 21
311.2218850363819
 31
0.0
  0
LINE
  5
F8
330
55
100
AcDbEntity
  8
1
  6
Continuous
 62
     2
100
AcDbLine
 10
114.4592901941677
 20
311.021885036382
 30
0.0
 11
114.4592901941677
 21
309.3383876793359
 31
0.0
  0
LINE
  5
F9
330
55
100
AcDbEntity
  8
1
  6
Continuous
 62
     7
100
AcDbLine
 10
112.4592901941677
 20
309.238387679336
 30
0.0
 11
112.4592901941677
 21
311.2459628572821
 31
0.0
  0
LINE
  5
FA
330
55
100
AcDbEntity
  8
1
  6
Continuous
 62
     2
100
AcDbLine
 10
113.4592901941677
 20
311.2218850363819
 30
0.0
 11
113.4592901941677
 21
309.238387679336
 31
0.0
  0
LINE
  5
FB
330
55
100
AcDbEntity
  8
1
  6
Continuous
 62
     7
100
AcDbLine
 10
112.4592901941677
 20
309.238387679336
 30
0.0
 11
115.4592901941677
 21
309.2383876793361
 31
0.0
  0
LINE
  5
FC
330
55
100
AcDbEntity
  8
1
  6
Continuous
 62
     2
100
AcDbLine
 10
115.4592901862524
 20
310.9359785943047
 30
0.0
 11
115.4592901941677
 21
309.4495623317106
 31
0.0
  0
LINE
  5
FD
330
55
100
AcDbEntity
  8
1
  6
Continuous
 62
     7
100
AcDbLine
 10
126.4592901941677
 20
311.2218850363819
 30
0.0
 11
123.4592901941677
 21
311.2218850363819
 31
0.0
  0
LINE
  5
FE
330
55
100
AcDbEntity
  8
1
  6
Continuous
 62
     2
100
AcDbLine
 10
123.4592901941677
 20
309.4495623317106
 30
0.0
 11
123.459290202083
 21
310.9359785943047
 31
0.0
  0
LINE
  5
FF
330
55
100
AcDbEntity
  8
1
  6
Continuous
 62
     2
100
AcDbLine
 10
125.4592901941677
 20
309.238387679336
 30
0.0
 11
125.4592901941677
 21
311.2218850363819
 31
0.0
  0
LINE
  5
100
330
55
100
AcDbEntity
  8
1
  6
Continuous
 62
     7
100
AcDbLine
 10
126.4592901941677
 20
311.2459628572821
 30
0.0
 11
126.4592901941677
 21
309.238387679336
 31
0.0
  0
LINE
  5
101
330
55
100
AcDbEntity
  8
1
  6
Continuous
 62
     2
100
AcDbLine
 10
124.4592901941677
 20
309.3383876793359
 30
0.0
 11
124.4592901941677
 21
311.021885036382
 31
0.0
  0
LINE
  5
102
330
55
100
AcDbEntity
  8
1
  6
DASH_CENTER
 62
     2
100
AcDbLine
 10
119.4592901941679
 20
545.5648012307222
 30
0.0
 11
119.4592901941679
 21
573.5648012307222
 31
0.0
  0
LINE
  5
103
330
55
100
AcDbEntity
  8
1
  6
DASH_CENTER
 62
     2
100
AcDbLine
 10
105.459290194168
 20
559.5648012307222
 30
0.0
 11
133.4592901941679
 21
559.5648012307222
 31
0.0
  0
LINE
  5
104
330
55
100
AcDbEntity
  8
1
  6
Continuous
 62
     2
100
AcDbLine
 10
402.4756451594624
 20
310.3597886398113
 30
0.0
 11
402.4756451594624
 21
309.9314406666808
 31
0.0
  0
LINE
  5
105
330
55
100
AcDbEntity
  8
1
  6
Continuous
 62
     2
100
AcDbLine
 10
404.4756451594624
 20
309.570484304239
 30
0.0
 11
404.4756451594624
 21
310.744950240522
 31
0.0
  0
LINE
  5
106
330
55
100
AcDbEntity
  8
1
  6
Continuous
 62
     2
100
AcDbLine
 10
406.4756451594624
 20
309.3383876793359
 30
0.0
 11
406.4756451594624
 21
311.021885036382
 31
0.0
  0
LINE
  5
107
330
55
100
AcDbEntity
  8
1
  6
Continuous
 62
     7
100
AcDbLine
 10
408.4756451594624
 20
311.2459628572821
 30
0.0
 11
408.4756451594624
 21
309.238387679336
 31
0.0
  0
LINE
  5
108
330
55
100
AcDbEntity
  8
1
  6
Continuous
 62
     2
100
AcDbLine
 10
407.4756451594624
 20
309.238387679336
 30
0.0
 11
407.4756451594624
 21
311.2218850363819
 31
0.0
  0
LINE
  5
109
330
55
100
AcDbEntity
  8
1
  6
Continuous
 62
     7
100
AcDbLine
 10
401.4756451594624
 20
309.238387679336
 30
0.0
 11
408.4756451594624
 21
309.238387679336
 31
0.0
  0
LINE
  5
10A
330
55
100
AcDbEntity
  8
1
  6
Continuous
 62
     2
100
AcDbLine
 10
405.4756451594624
 20
309.4495623317106
 30
0.0
 11
405.4756451673776
 21
310.9359785943047
 31
0.0
  0
LINE
  5
10B
330
55
100
AcDbEntity
  8
1
  6
Continuous
 62
     2
100
AcDbLine
 10
403.4756451594624
 20
310.5473330798599
 30
0.0
 11
403.4756451594624
 21
309.7868243138655
 31
0.0
  0
LINE
  5
10C
330
55
100
AcDbEntity
  8
1
  6
Continuous
 62
     2
100
AcDbLine
 10
401.4756451594624
 20
310.0597886398115
 30
0.0
 11
401.4756451594624
 21
309.6314406666807
 31
0.0
  0
LINE
  5
10D
330
55
100
AcDbEntity
  8
1
  6
Continuous
 62
     7
100
AcDbLine
 10
408.4756451594624
 20
311.2218850363819
 30
0.0
 11
401.4756451594624
 21
311.2218850363819
 31
0.0
  0
LINE
  5
10E
330
55
100
AcDbEntity
  8
1
  6
Continuous
 62
     7
100
AcDbLine
 10
401.4756451594624
 20
311.2218850363819
 30
0.0
 11
394.4756451594624
 21
311.2218850363819
 31
0.0
  0
LINE
  5
10F
330
55
100
AcDbEntity
  8
1
  6
Continuous
 62
     2
100
AcDbLine
 10
399.4756451594624
 20
309.7868243138655
 30
0.0
 11
399.4756451594624
 21
310.5473330798599
 31
0.0
  0
LINE
  5
110
330
55
100
AcDbEntity
  8
1
  6
Continuous
 62
     2
100
AcDbLine
 10
397.4756451515469
 20
310.9359785943047
 30
0.0
 11
397.4756451594624
 21
309.4495623317106
 31
0.0
  0
LINE
  5
111
330
55
100
AcDbEntity
  8
1
  6
Continuous
 62
     7
100
AcDbLine
 10
394.4756451594624
 20
309.238387679336
 30
0.0
 11
401.4756451594624
 21
309.238387679336
 31
0.0
  0
LINE
  5
112
330
55
100
AcDbEntity
  8
1
  6
Continuous
 62
     2
100
AcDbLine
 10
395.4756451594624
 20
311.2218850363819
 30
0.0
 11
395.4756451594624
 21
309.238387679336
 31
0.0
  0
LINE
  5
113
330
55
100
AcDbEntity
  8
1
  6
Continuous
 62
     7
100
AcDbLine
 10
394.4756451594624
 20
309.238387679336
 30
0.0
 11
394.4756451594624
 21
311.2459628572821
 31
0.0
  0
LINE
  5
114
330
55
100
AcDbEntity
  8
1
  6
Continuous
 62
     2
100
AcDbLine
 10
396.4756451594624
 20
311.021885036382
 30
0.0
 11
396.4756451594624
 21
309.3383876793359
 31
0.0
  0
LINE
  5
115
330
55
100
AcDbEntity
  8
1
  6
Continuous
 62
     2
100
AcDbLine
 10
398.4756451594624
 20
310.744950240522
 30
0.0
 11
398.4756451594624
 21
309.570484304239
 31
0.0
  0
LINE
  5
116
330
55
100
AcDbEntity
  8
1
  6
Continuous
 62
     2
100
AcDbLine
 10
400.4756451594624
 20
309.9314406666808
 30
0.0
 11
400.4756451594624
 21
310.3597886398113
 31
0.0
  0
ARC
  5
117
330
55
100
AcDbEntity
  8
0
  6
Continuous
 62
     7
100
AcDbCircle
 10
119.4592901941677
 20
261.7383876793346
 30
0.0
 40
50.00000000000124
100
AcDbArc
 50
81.9521537526887
 51
85.4114342642143
  0
ARC
  5
118
330
55
100
AcDbEntity
  8
0
  6
Continuous
 62
     7
100
AcDbCircle
 10
119.4592901941677
 20
261.7383876793346
 30
0.0
 40
50.00000000000126
100
AcDbArc
 50
94.58856573578572
 51
98.04784624731133
  0
ARC
  5
119
330
55
100
AcDbEntity
  8
0
  6
Continuous
 62
     7
100
AcDbCircle
 10
401.4756451594624
 20
261.7383876793346
 30
0.0
 40
50.00000000000124
100
AcDbArc
 50
81.9521537526887
 51
90.0
  0
ARC
  5
11A
330
55
100
AcDbEntity
  8
0
  6
Continuous
 62
     7
100
AcDbCircle
 10
401.4756451594624
 20
261.7383876793346
 30
0.0
 40
50.00000000000108
100
AcDbArc
 50
90.0
 51
98.04784624731133
  0
CIRCLE
  5
11B
330
55
100
AcDbEntity
  8
1
  6
Continuous
 62
     7
100
AcDbCircle
 10
119.4592901941679
 20
559.5648012307222
 30
0.0
 40
7.0
  0
ENDBLK
  5
57
330
55
100
AcDbEntity
  8
0
100
AcDbBlockEnd
  0
BLOCK
  5
59
330
58
100
AcDbEntity
  8
0
100
AcDbBlockBegin
  2
開示A4
 70
     0
 10
0.0
 20
0.0
 30
0.0
  3
開示A4
  1

  0
POINT
  5
11C
330
58
100
AcDbEntity
  8
1
 62
     4
100
AcDbPoint
 10
34.0
 20
34.0
 30
0.0
  0
POINT
  5
11D
330
58
100
AcDbEntity
  8
1
 62
     4
100
AcDbPoint
 10
57.0
 20
12.25
 30
0.0
  0
POINT
  5
11E
330
58
100
AcDbEntity
  8
1
 62
     4
100
AcDbPoint
 10
57.0
 20
20.75
 30
0.0
  0
POINT
  5
11F
330
58
100
AcDbEntity
  8
1
 62
     4
100
AcDbPoint
 10
57.0
 20
24.75
 30
0.0
  0
POINT
  5
120
330
58
100
AcDbEntity
  8
1
 62
     4
100
AcDbPoint
 10
57.0
 20
16.25
 30
0.0
  0
POINT
  5
121
330
58
100
AcDbEntity
  8
1
 62
     4
100
AcDbPoint
 10
157.5
 20
19.0
 30
0.0
  0
POINT
  5
122
330
58
100
AcDbEntity
  8
1
 62
     4
100
AcDbPoint
 10
47.5
 20
282.0000000000003
 30
0.0
  0
POINT
  5
123
330
58
100
AcDbEntity
  8
1
 62
     4
100
AcDbPoint
 10
57.0
 20
22.75
 30
0.0
  0
POINT
  5
124
330
58
100
AcDbEntity
  8
1
 62
     4
100
AcDbPoint
 10
57.0
 20
14.25
 30
0.0
  0
POINT
  5
125
330
58
100
AcDbEntity
  8
1
 62
     4
100
AcDbPoint
 10
157.5
 20
12.5
 30
0.0
  0
POINT
  5
126
330
58
100
AcDbEntity
  8
1
 62
     4
100
AcDbPoint
 10
163.25
 20
12.5
 30
0.0
  0
POINT
  5
127
330
58
100
AcDbEntity
  8
1
 62
     4
100
AcDbPoint
 10
151.75
 20
12.5
 30
0.0
  0
POINT
  5
128
330
58
100
AcDbEntity
  8
1
 62
     4
100
AcDbPoint
 10
134.75
 20
12.5
 30
0.0
  0
POINT
  5
129
330
58
100
AcDbEntity
  8
1
 62
     4
100
AcDbPoint
 10
146.25
 20
12.5
 30
0.0
  0
POINT
  5
12A
330
58
100
AcDbEntity
  8
1
 62
     4
100
AcDbPoint
 10
140.5
 20
12.5
 30
0.0
  0
POINT
  5
12B
330
58
100
AcDbEntity
  8
1
 62
     4
100
AcDbPoint
 10
140.5
 20
19.0
 30
0.0
  0
POINT
  5
12C
330
58
100
AcDbEntity
  8
1
 62
     4
100
AcDbPoint
 10
117.75
 20
12.5
 30
0.0
  0
POINT
  5
12D
330
58
100
AcDbEntity
  8
1
 62
     4
100
AcDbPoint
 10
129.25
 20
12.5
 30
0.0
  0
POINT
  5
12E
330
58
100
AcDbEntity
  8
1
 62
     4
100
AcDbPoint
 10
123.5
 20
12.5
 30
0.0
  0
POINT
  5
12F
330
58
100
AcDbEntity
  8
1
 62
     4
100
AcDbPoint
 10
123.5
 20
19.0
 30
0.0
  0
POINT
  5
130
330
58
100
AcDbEntity
  8
1
 62
     4
100
AcDbPoint
 10
100.75
 20
12.5
 30
0.0
  0
POINT
  5
131
330
58
100
AcDbEntity
  8
1
 62
     4
100
AcDbPoint
 10
112.25
 20
12.5
 30
0.0
  0
POINT
  5
132
330
58
100
AcDbEntity
  8
1
 62
     4
100
AcDbPoint
 10
106.5
 20
12.5
 30
0.0
  0
POINT
  5
133
330
58
100
AcDbEntity
  8
1
 62
     4
100
AcDbPoint
 10
106.5
 20
19.0
 30
0.0
  0
POINT
  5
134
330
58
100
AcDbEntity
  8
1
 62
     4
100
AcDbPoint
 10
85.25
 20
17.0
 30
0.0
  0
POINT
  5
135
330
58
100
AcDbEntity
  8
1
 62
     4
100
AcDbPoint
 10
93.75
 20
17.0
 30
0.0
  0
LINE
  5
136
330
58
100
AcDbEntity
  8
1
  6
Continuous
 62
     2
100
AcDbLine
 10
81.0
 20
27.0
 30
0.0
 11
81.0
 21
10.0
 31
0.0
  0
LINE
  5
137
330
58
100
AcDbEntity
  8
1
  6
DOT_CENTER
 62
     2
100
AcDbLine
 10
187.0
 20
26.5
 30
0.0
 11
187.0
 21
20.5
 31
0.0
  0
LINE
  5
138
330
58
100
AcDbEntity
  8
1
  6
DOT_CENTER
 62
     2
100
AcDbLine
 10
184.0
 20
23.5
 30
0.0
 11
197.0
 21
23.5
 31
0.0
  0
LINE
  5
139
330
58
100
AcDbEntity
  8
1
  6
Continuous
 62
     7
100
AcDbLine
 10
196.0
 20
21.5
 30
0.0
 11
191.0
 21
22.30000000000001
 31
0.0
  0
LINE
  5
13A
330
58
100
AcDbEntity
  8
1
  6
Continuous
 62
     7
100
AcDbLine
 10
196.0
 20
25.5
 30
0.0
 11
196.0
 21
21.5
 31
0.0
  0
LINE
  5
13B
330
58
100
AcDbEntity
  8
1
  6
Continuous
 62
     7
100
AcDbLine
 10
191.0
 20
24.70000000000002
 30
0.0
 11
196.0
 21
25.5
 31
0.0
  0
LINE
  5
13C
330
58
100
AcDbEntity
  8
1
  6
Continuous
 62
     7
100
AcDbLine
 10
191.0
 20
24.70000000000002
 30
0.0
 11
191.0
 21
22.30000000000001
 31
0.0
  0
LINE
  5
13D
330
58
100
AcDbEntity
  8
1
  6
Continuous
 62
     2
100
AcDbLine
 10
33.0
 20
27.0
 30
0.0
 11
33.0
 21
10.0
 31
0.0
  0
LINE
  5
13E
330
58
100
AcDbEntity
  8
1
  6
Continuous
 62
     2
100
AcDbLine
 10
25.0
 20
18.5
 30
0.0
 11
81.0
 21
18.5
 31
0.0
  0
LINE
  5
13F
330
58
100
AcDbEntity
  8
1
  6
Continuous
 62
     7
100
AcDbLine
 10
200.0
 20
287.0000000000003
 30
0.0
 11
105.0
 21
287.0000000000003
 31
0.0
  0
LINE
  5
140
330
58
100
AcDbEntity
  8
1
  6
Continuous
 62
     7
100
AcDbLine
 10
200.0
 20
10.0
 30
0.0
 11
200.0
 21
148.5
 31
0.0
  0
LINE
  5
141
330
58
100
AcDbEntity
  8
1
  6
Continuous
 62
     7
100
AcDbLine
 10
25.0
 20
10.0
 30
0.0
 11
105.0
 21
10.0
 31
0.0
  0
LINE
  5
142
330
58
100
AcDbEntity
  8
1
  6
PHANTOM
 62
     4
100
AcDbLine
 10
0.0
 20
297.0
 30
0.0
 11
0.0
 21
0.0
 31
0.0
  0
LINE
  5
143
330
58
100
AcDbEntity
  8
1
  6
PHANTOM
 62
     4
100
AcDbLine
 10
210.0
 20
297.0
 30
0.0
 11
0.0
 21
297.0
 31
0.0
  0
LINE
  5
144
330
58
100
AcDbEntity
  8
1
  6
PHANTOM
 62
     4
100
AcDbLine
 10
210.0
 20
0.0
 30
0.0
 11
210.0
 21
297.0
 31
0.0
  0
LINE
  5
145
330
58
100
AcDbEntity
  8
1
  6
PHANTOM
 62
     4
100
AcDbLine
 10
0.0
 20
0.0
 30
0.0
 11
210.0
 21
0.0
 31
0.0
  0
LINE
  5
146
330
58
100
AcDbEntity
  8
1
  6
Continuous
 62
     7
100
AcDbLine
 10
25.0
 20
41.0
 30
0.0
 11
200.0
 21
41.0
 31
0.0
  0
LINE
  5
147
330
58
100
AcDbEntity
  8
1
  6
Continuous
 62
     7
100
AcDbLine
 10
200.0
 20
27.0
 30
0.0
 11
25.0
 21
27.0
 31
0.0
  0
LINE
  5
148
330
58
100
AcDbEntity
  8
1
  6
Continuous
 62
     2
100
AcDbLine
 10
33.0
 20
41.0
 30
0.0
 11
33.0
 21
27.0
 31
0.0
  0
LINE
  5
149
330
58
100
AcDbEntity
  8
1
  6
Continuous
 62
     2
100
AcDbLine
 10
55.0
 20
287.0000000000003
 30
0.0
 11
55.0
 21
277.0000000000003
 31
0.0
  0
LINE
  5
14A
330
58
100
AcDbEntity
  8
1
  6
Continuous
 62
     2
100
AcDbLine
 10
40.0
 20
287.0000000000003
 30
0.0
 11
40.0
 21
277.0000000000003
 31
0.0
  0
LINE
  5
14B
330
58
100
AcDbEntity
  8
1
  6
Continuous
 62
     7
100
AcDbLine
 10
25.0
 20
10.0
 30
0.0
 11
25.0
 21
148.5
 31
0.0
  0
LINE
  5
14C
330
58
100
AcDbEntity
  8
1
  6
Continuous
 62
     2
100
AcDbLine
 10
55.0
 20
277.0000000000003
 30
0.0
 11
25.0
 21
277.0000000000003
 31
0.0
  0
LINE
  5
14D
330
58
100
AcDbEntity
  8
1
  6
Continuous
 62
     2
100
AcDbLine
 10
166.0
 20
27.0
 30
0.0
 11
166.0
 21
10.0
 31
0.0
  0
LINE
  5
14E
330
58
100
AcDbEntity
  8
1
  6
Continuous
 62
     2
100
AcDbLine
 10
132.0
 20
27.0
 30
0.0
 11
132.0
 21
10.0
 31
0.0
  0
LINE
  5
14F
330
58
100
AcDbEntity
  8
1
  6
Continuous
 62
     2
100
AcDbLine
 10
149.0
 20
27.0
 30
0.0
 11
149.0
 21
10.0
 31
0.0
  0
LINE
  5
150
330
58
100
AcDbEntity
  8
1
  6
Continuous
 62
     2
100
AcDbLine
 10
115.0
 20
27.0
 30
0.0
 11
115.0
 21
10.0
 31
0.0
  0
LINE
  5
151
330
58
100
AcDbEntity
  8
1
  6
Continuous
 62
     2
100
AcDbLine
 10
98.0
 20
27.0
 30
0.0
 11
98.0
 21
10.0
 31
0.0
  0
LINE
  5
152
330
58
100
AcDbEntity
  8
1
  6
Continuous
 62
     2
100
AcDbLine
 10
166.0
 20
20.0
 30
0.0
 11
200.0
 21
20.0
 31
0.0
  0
LINE
  5
153
330
58
100
AcDbEntity
  8
1
  6
Continuous
 62
     2
100
AcDbLine
 10
105.0
 20
287.0000000000003
 30
0.0
 11
105.0
 21
292.0000000000003
 31
0.0
  0
LINE
  5
154
330
58
100
AcDbEntity
  8
1
  6
Continuous
 62
     7
100
AcDbLine
 10
105.0
 20
287.0000000000003
 30
0.0
 11
25.0
 21
287.0000000000003
 31
0.0
  0
LINE
  5
155
330
58
100
AcDbEntity
  8
1
  6
Continuous
 62
     2
100
AcDbLine
 10
25.0
 20
148.5
 30
0.0
 11
20.0
 21
148.5
 31
0.0
  0
LINE
  5
156
330
58
100
AcDbEntity
  8
1
  6
Continuous
 62
     7
100
AcDbLine
 10
25.0
 20
148.5
 30
0.0
 11
25.0
 21
287.0000000000003
 31
0.0
  0
LINE
  5
157
330
58
100
AcDbEntity
  8
1
  6
Continuous
 62
     2
100
AcDbLine
 10
200.0
 20
148.5
 30
0.0
 11
205.0
 21
148.5
 31
0.0
  0
LINE
  5
158
330
58
100
AcDbEntity
  8
1
  6
Continuous
 62
     7
100
AcDbLine
 10
200.0
 20
148.5
 30
0.0
 11
200.0
 21
287.0000000000003
 31
0.0
  0
LINE
  5
159
330
58
100
AcDbEntity
  8
1
  6
Continuous
 62
     2
100
AcDbLine
 10
105.0
 20
10.0
 30
0.0
 11
105.0
 21
5.0
 31
0.0
  0
LINE
  5
15A
330
58
100
AcDbEntity
  8
1
  6
Continuous
 62
     7
100
AcDbLine
 10
105.0
 20
10.0
 30
0.0
 11
200.0
 21
10.0
 31
0.0
  0
CIRCLE
  5
15B
330
58
100
AcDbEntity
  8
1
  6
DOT_CENTER
 62
     7
100
AcDbCircle
 10
89.5
 20
18.0
 30
0.0
 40
0.1000000000000227
  0
CIRCLE
  5
15C
330
58
100
AcDbEntity
  8
1
  6
DOT_CENTER
 62
     7
100
AcDbCircle
 10
89.5
 20
16.0
 30
0.0
 40
0.1000000000000227
  0
CIRCLE
  5
15D
330
58
100
AcDbEntity
  8
1
  6
Continuous
 62
     7
100
AcDbCircle
 10
187.0
 20
23.5
 30
0.0
 40
2.0
  0
CIRCLE
  5
15E
330
58
100
AcDbEntity
  8
1
  6
Continuous
 62
     7
100
AcDbCircle
 10
187.0
 20
23.5
 30
0.0
 40
1.200000000000102
  0
CIRCLE
  5
15F
330
58
100
AcDbEntity
  8
1
  6
Continuous
 62
     7
100
AcDbCircle
 10
154.5
 20
12.5
 30
0.0
 40
0.3000000000000114
  0
CIRCLE
  5
160
330
58
100
AcDbEntity
  8
1
  6
Continuous
 62
     7
100
AcDbCircle
 10
160.5
 20
12.5
 30
0.0
 40
0.3000000000000114
  0
CIRCLE
  5
161
330
58
100
AcDbEntity
  8
1
  6
Continuous
 62
     7
100
AcDbCircle
 10
143.5
 20
12.5
 30
0.0
 40
0.3000000000000114
  0
CIRCLE
  5
162
330
58
100
AcDbEntity
  8
1
  6
Continuous
 62
     7
100
AcDbCircle
 10
137.5
 20
12.5
 30
0.0
 40
0.3000000000000114
  0
CIRCLE
  5
163
330
58
100
AcDbEntity
  8
1
  6
Continuous
 62
     7
100
AcDbCircle
 10
126.5
 20
12.5
 30
0.0
 40
0.2999999999999972
  0
CIRCLE
  5
164
330
58
100
AcDbEntity
  8
1
  6
Continuous
 62
     7
100
AcDbCircle
 10
120.5
 20
12.5
 30
0.0
 40
0.2999999999999972
  0
CIRCLE
  5
165
330
58
100
AcDbEntity
  8
1
  6
Continuous
 62
     7
100
AcDbCircle
 10
109.5
 20
12.5
 30
0.0
 40
0.2999999999999972
  0
CIRCLE
  5
166
330
58
100
AcDbEntity
  8
1
  6
Continuous
 62
     7
100
AcDbCircle
 10
103.5
 20
12.5
 30
0.0
 40
0.2999999999999972
  0
MTEXT
  5
168
330
58
100
AcDbEntity
  8
1
 62
   250
100
AcDbMText
 10
25.0
 20
5.0
 30
0.0
 40
3.5
 41
0.0
 71
     4
 72
     1
  1
備考欄の文字列 原点位置=4
  7
CONVERTER_11
 73
     1
 44
0.54545454545455
  0
MTEXT
  5
169
330
58
100
AcDbEntity
  8
1
 62
     2
100
AcDbMText
 10
89.5
 20
24.0
 30
0.0
 40
3.5
 41
0.0
 71
     5
 72
     1
  1
尺度
  7
CONVERTER_11
 73
     1
 44
0.54545454545455
  0
MTEXT
  5
16A
330
58
100
AcDbEntity
  8
1
 62
     2
100
AcDbMText
 10
135.5
 20
25.0
 30
0.0
 40
3.0
 41
0.0
 71
     5
 72
     1
  1
製図
  7
CONVERTER_11
 73
     1
 44
0.59090909090909
  0
MTEXT
  5
16B
330
58
100
AcDbEntity
  8
1
 62
     2
100
AcDbMText
 10
152.5
 20
25.0
 30
0.0
 40
3.0
 41
0.0
 71
     5
 72
     1
  1
設計
  7
CONVERTER_11
 73
     1
 44
0.59090909090909
  0
MTEXT
  5
16C
330
58
100
AcDbEntity
  8
1
 62
     2
100
AcDbMText
 10
118.5
 20
25.0
 30
0.0
 40
3.0
 41
0.0
 71
     5
 72
     1
  1
検図
  7
CONVERTER_11
 73
     1
 44
0.59090909090909
  0
MTEXT
  5
16D
330
58
100
AcDbEntity
  8
1
 62
     2
100
AcDbMText
 10
175.0
 20
23.5
 30
0.0
 40
3.5
 41
0.0
 71
     5
 72
     1
  1
第三角法
  7
CONVERTER_11
 73
     1
 44
0.54545454545455
  0
MTEXT
  5
16E
330
58
100
AcDbEntity
  8
1
 62
     2
100
AcDbMText
 10
101.5
 20
25.0
 30
0.0
 40
3.0
 41
0.0
 71
     5
 72
     1
  1
承認
  7
CONVERTER_11
 73
     1
 44
0.59090909090909
  0
MTEXT
  5
16F
330
58
100
AcDbEntity
  8
1
 62
     2
100
AcDbMText
 10
29.0
 20
14.25
 30
0.0
 40
3.5
 41
0.0
 71
     5
 72
     1
  1
品番
  7
CONVERTER_11
 73
     1
 44
0.72727272727273
  0
MTEXT
  5
170
330
58
100
AcDbEntity
  8
1
 62
     2
100
AcDbMText
 10
29.0
 20
22.75
 30
0.0
 40
3.5
 41
0.0
 71
     5
 72
     1
  1
品名
  7
CONVERTER_11
 73
     1
 44
0.72727272727273
  0
MTEXT
  5
171
330
58
100
AcDbEntity
  8
1
 62
     2
100
AcDbMText
 10
29.0
 20
34.0
 30
0.0
 40
3.5
 41
0.0
 71
     5
 72
     1
  1
備考
  7
CONVERTER_11
 73
     1
 44
0.45454545454545
  0
MTEXT
  5
172
330
58
100
AcDbEntity
  8
1
 62
     2
100
AcDbMText
 10
32.5
 20
282.0000000000003
 30
0.0
 40
5.0
 41
0.0
 71
     5
 72
     1
  1
図番
  7
CONVERTER_11
 73
     1
 44
0.45454545454545
  0
MTEXT
  5
173
330
58
100
AcDbEntity
  8
1
 62
     7
100
AcDbMText
 10
171.5
 20
15.0
 30
0.0
 40
2.5
 41
0.0
 71
     5
 72
     1
  1
株式会社
  7
CONVERTER_11
 73
     1
 44
1.0
  0
MTEXT
  5
174
330
58
100
AcDbEntity
  8
1
 62
     7
100
AcDbMText
 10
188.5
 20
15.0
 30
0.0
 40
3.0
 41
0.0
 71
     5
 72
     1
  1
三栄水栓製作所
  7
CONVERTER_11
 73
     1
 44
1.0
  0
ENDBLK
  5
5A
330
58
100
AcDbEntity
  8
0
100
AcDbBlockEnd
  0
BLOCK
  5
5C
330
5B
100
AcDbEntity
  8
0
100
AcDbBlockBegin
  2
32-1-16
 70
     0
 10
69.92990532379372
 20
418.7242198094452
 30
0.0
  3
32-1-16
  1

  0
LINE
  5
175
330
5B
100
AcDbEntity
  8
1
  6
Continuous
 62
     7
100
AcDbLine
 10
123.9313393811191
 20
510.980932495328
 30
0.0
 11
132.2201495050695
 21
515.7664792516525
 31
0.0
  0
LINE
  5
176
330
5B
100
AcDbEntity
  8
1
  6
Continuous
 62
     7
100
AcDbLine
 10
128.2095865433101
 20
535.6786228153655
 30
0.0
 11
132.2201495050695
 21
533.3631232097916
 31
0.0
  0
LINE
  5
177
330
5B
100
AcDbEntity
  8
1
  6
Continuous
 62
     7
100
AcDbLine
 10
110.7089938450257
 20
535.6786228153655
 30
0.0
 11
106.6984308832665
 21
533.3631232097916
 31
0.0
  0
LINE
  5
178
330
5B
100
AcDbEntity
  8
1
  6
Continuous
 62
     7
100
AcDbLine
 10
133.4592901941679
 20
211.525210429623
 30
0.0
 11
133.4592901941679
 21
218.666638858166
 31
0.0
  0
LINE
  5
179
330
5B
100
AcDbEntity
  8
1
  6
Continuous
 62
     7
100
AcDbLine
 10
132.7592901941679
 20
219.2383876793361
 30
0.0
 11
119.4592901941677
 21
219.2383876793361
 31
0.0
  0
LINE
  5
17A
330
5B
100
AcDbEntity
  8
1
  6
Continuous
 62
     7
100
AcDbLine
 10
131.0173112558986
 20
210.2383876793361
 30
0.0
 11
130.9592901941679
 21
210.2383876793361
 31
0.0
  0
LINE
  5
17B
330
5B
100
AcDbEntity
  8
1
  6
Continuous
 62
     7
100
AcDbLine
 10
119.4592901941677
 20
209.2383876793361
 30
0.0
 11
129.2272393865991
 21
209.2383876793361
 31
0.0
  0
LINE
  5
17C
330
5B
100
AcDbEntity
  8
1
  6
Continuous
 62
     7
100
AcDbLine
 10
105.4592901941679
 20
218.666638858166
 30
0.0
 11
105.4592901941679
 21
211.525210429623
 31
0.0
  0
LINE
  5
17D
330
5B
100
AcDbEntity
  8
1
  6
Continuous
 62
     7
100
AcDbLine
 10
119.4592901941677
 20
219.2383876793361
 30
0.0
 11
106.1592901941679
 21
219.2383876793361
 31
0.0
  0
LINE
  5
17E
330
5B
100
AcDbEntity
  8
1
  6
Continuous
 62
     7
100
AcDbLine
 10
107.9592901941677
 20
210.2383876793361
 30
0.0
 11
107.9012691324373
 21
210.2383876793361
 31
0.0
  0
LINE
  5
17F
330
5B
100
AcDbEntity
  8
1
  6
Continuous
 62
     7
100
AcDbLine
 10
109.6913410017365
 20
209.2383876793361
 30
0.0
 11
119.4592901941677
 21
209.2383876793361
 31
0.0
  0
LINE
  5
180
330
5B
100
AcDbEntity
  8
1
  6
Continuous
 62
     7
100
AcDbLine
 10
379.7756451594626
 20
219.2383876793361
 30
0.0
 11
366.4756451594626
 21
219.2383876793361
 31
0.0
  0
LINE
  5
181
330
5B
100
AcDbEntity
  8
1
  6
Continuous
 62
     7
100
AcDbLine
 10
379.6626451594626
 20
219.2383876793361
 30
0.0
 11
379.7756451594626
 21
219.2383876793361
 31
0.0
  0
LINE
  5
182
330
5B
100
AcDbEntity
  8
1
  6
Continuous
 62
     7
100
AcDbLine
 10
378.033666221193
 20
210.2383876793361
 30
0.0
 11
377.9756451594626
 21
210.2383876793361
 31
0.0
  0
LINE
  5
183
330
5B
100
AcDbEntity
  8
1
  6
Continuous
 62
     7
100
AcDbLine
 10
366.4756451594626
 20
209.2383876793361
 30
0.0
 11
376.2435943518938
 21
209.2383876793361
 31
0.0
  0
LINE
  5
184
330
5B
100
AcDbEntity
  8
1
  6
Continuous
 62
     7
100
AcDbLine
 10
106.6984308832665
 20
515.7664792516525
 30
0.0
 11
114.9872410072172
 21
510.9809324953278
 31
0.0
  0
LINE
  5
185
330
5B
100
AcDbEntity
  8
1
  6
Continuous
 62
     7
100
AcDbLine
 10
105.4592901941679
 20
531.2168685785471
 30
0.0
 11
105.4592901941679
 21
517.9127338828971
 31
0.0
  0
LINE
  5
186
330
5B
100
AcDbEntity
  8
1
  6
Continuous
 62
     7
100
AcDbLine
 10
133.4592901941679
 20
531.2168685785471
 30
0.0
 11
133.4592901941679
 21
517.912733882897
 31
0.0
  0
LINE
  5
187
330
5B
100
AcDbEntity
  8
1
  6
Continuous
 62
     7
100
AcDbLine
 10
366.4756451594626
 20
219.2383876793361
 30
0.0
 11
353.1756451594624
 21
219.2383876793361
 31
0.0
  0
LINE
  5
188
330
5B
100
AcDbEntity
  8
1
  6
Continuous
 62
     7
100
AcDbLine
 10
353.1756451594624
 20
219.2383876793361
 30
0.0
 11
353.2886451594625
 21
219.2383876793361
 31
0.0
  0
LINE
  5
189
330
5B
100
AcDbEntity
  8
1
  6
Continuous
 62
     7
100
AcDbLine
 10
354.9756451594626
 20
210.2383876793361
 30
0.0
 11
354.917624097732
 21
210.2383876793361
 31
0.0
  0
LINE
  5
18A
330
5B
100
AcDbEntity
  8
1
  6
Continuous
 62
     7
100
AcDbLine
 10
356.7076959670314
 20
209.2383876793361
 30
0.0
 11
366.4756451594626
 21
209.2383876793361
 31
0.0
  0
ARC
  5
18B
330
5B
100
AcDbEntity
  8
1
  6
Continuous
 62
     7
100
AcDbCircle
 10
129.9592901941679
 20
215.0959246438945
 30
0.0
 40
5.000000000000057
100
AcDbArc
 50
45.57299599919494
 51
55.94420225743207
  0
ARC
  5
18C
330
5B
100
AcDbEntity
  8
1
  6
Continuous
 62
     7
100
AcDbCircle
 10
129.9592901941679
 20
215.0959246438945
 30
0.0
 40
5.000000000000014
100
AcDbArc
 50
285.3375576695554
 51
314.427004000805
  0
ARC
  5
18D
330
5B
100
AcDbEntity
  8
1
  6
Continuous
 62
     7
100
AcDbCircle
 10
108.9592901941677
 20
215.0959246438945
 30
0.0
 40
4.999999999999905
100
AcDbArc
 50
124.055797742566
 51
134.4270040008035
  0
ARC
  5
18E
330
5B
100
AcDbEntity
  8
1
  6
Continuous
 62
     7
100
AcDbCircle
 10
108.9592901941677
 20
215.0959246438945
 30
0.0
 40
4.999999999999917
100
AcDbArc
 50
225.5729959991965
 51
254.6624423304468
  0
ARC
  5
18F
330
5B
100
AcDbEntity
  8
1
  6
Continuous
 62
     7
100
AcDbCircle
 10
376.9756451594626
 20
215.0959246438945
 30
0.0
 40
5.000000000000044
100
AcDbArc
 50
285.3375576695566
 51
55.94420225743207
  0
ARC
  5
190
330
5B
100
AcDbEntity
  8
1
  6
Continuous
 62
     7
100
AcDbCircle
 10
119.4592901941679
 20
524.5648012307222
 30
0.0
 40
15.50000000000013
100
AcDbArc
 50
325.4146209151612
 51
334.5853790848384
  0
ARC
  5
191
330
5B
100
AcDbEntity
  8
1
  6
Continuous
 62
     7
100
AcDbCircle
 10
119.4592901941679
 20
524.5648012307222
 30
0.0
 40
15.50000000000002
100
AcDbArc
 50
205.4146209151612
 51
214.5853790848392
  0
ARC
  5
192
330
5B
100
AcDbEntity
  8
1
  6
Continuous
 62
     7
100
AcDbCircle
 10
119.4592901941679
 20
524.5648012307222
 30
0.0
 40
15.49999999999986
100
AcDbArc
 50
145.4146209151614
 51
154.5853790848396
  0
ARC
  5
193
330
5B
100
AcDbEntity
  8
1
  6
Continuous
 62
     7
100
AcDbCircle
 10
119.4592901941679
 20
524.5648012307222
 30
0.0
 40
15.49999999999992
100
AcDbArc
 50
25.41462091516044
 51
34.58537908483822
  0
ARC
  5
194
330
5B
100
AcDbEntity
  8
1
  6
Continuous
 62
     7
100
AcDbCircle
 10
355.9756451594626
 20
215.0959246438945
 30
0.0
 40
5.000000000000112
100
AcDbArc
 50
124.0557977425696
 51
254.6624423304471
  0
SPLINE
  5
195
330
5B
100
AcDbEntity
  8
1
  6
Continuous
 62
     7
100
AcDbSpline
210
0.0
220
0.0
230
1.0
 70
    11
 71
     3
 72
    79
 73
    75
 74
    73
 42
0.000000001
 43
0.0000000001
 44
0.00000001
 40
0.0
 40
0.0
 40
0.0
 40
0.0
 40
0.2903672471832135
 40
0.5807357518971925
 40
0.872407097735945
 40
1.164081911024015
 40
1.45818992452223
 40
1.752302920472758
 40
2.049663201046351
 40
2.347029106415344
 40
2.64804578611582
 40
2.949067936325138
 40
3.253697746552208
 40
3.558332275329915
 40
3.86610485778
 40
4.173881019539971
 40
4.483966061108291
 40
4.794053321447545
 40
5.105362217358571
 40
5.416671863434687
 40
5.727981509500035
 40
6.039290405378586
 40
6.349377665663533
 40
6.659462707155243
 40
6.967238868816554
 40
7.275011451144493
 40
7.579645979777224
 40
7.884275789834247
 40
8.185297939849494
 40
8.486314619328304
 40
8.783680524448862
 40
9.08104080474091
 40
9.37515380037404
 40
9.669261813502082
 40
9.960936626337025
 40
10.25260797152385
 40
10.54297647485853
 40
10.83334373090407
 40
11.12371098694967
 40
11.41407949028446
 40
11.70575083547118
 40
11.99742564830617
 40
12.29153366143422
 40
12.5856466570674
 40
12.88300693735954
 40
13.18037284248001
 40
13.48138952195882
 40
13.78241167197407
 40
14.08704148203106
 40
14.39167601066373
 40
14.69944859299177
 40
15.00722475465301
 40
15.31730979614474
 40
15.62739705642967
 40
15.93870595230822
 40
16.25001559837357
 40
16.56132524444969
 40
16.87263414036071
 40
17.18272140069994
 40
17.4928064422683
 40
17.80058260402827
 40
18.10835518647838
 40
18.41298971525605
 40
18.71761952548306
 40
19.01864167569238
 40
19.31965835539285
 40
19.61702426076187
 40
19.91438454133544
 40
20.20849753728593
 40
20.50260555078424
 40
20.7942803640723
 40
21.085951709911
 40
21.37632021462504
 40
21.66668746180836
 40
21.66668746180836
 40
21.66668746180836
 40
21.66668746180836
 10
354.3512895064804
 20
211.5252104296231
 30
0.0
 10
354.2544656997707
 20
211.5278420269437
 30
0.0
 10
354.0608176668549
 20
211.5331052277621
 30
0.0
 10
353.7724567905482
 20
211.5754002999442
 30
0.0
 10
353.4887446465689
 20
211.6426111924374
 30
0.0
 10
353.2113195837833
 20
211.7366663577069
 30
0.0
 10
352.9429986724022
 20
211.8560978153903
 30
0.0
 10
352.6849989090314
 20
212.0003733108767
 30
0.0
 10
352.4401969057752
 20
212.1679773860796
 30
0.0
 10
352.2095006807127
 20
212.3581399402395
 30
0.0
 10
351.9956049734363
 20
212.5687626605512
 30
0.0
 10
351.7992314308566
 20
212.7989842763828
 30
0.0
 10
351.6226820856933
 20
213.0462206997808
 30
0.0
 10
351.4665792890228
 20
213.3094548740276
 30
0.0
 10
351.3326902744136
 20
213.5858184286093
 30
0.0
 10
351.2215622574102
 20
213.8740318724707
 30
0.0
 10
351.1343714974284
 20
214.1711703156238
 30
0.0
 10
351.071545890788
 20
214.4755934696554
 30
0.0
 10
351.0336973408329
 20
214.7845300819478
 30
0.0
 10
351.0210350786946
 20
215.0959246345222
 30
0.0
 10
351.0336973404714
 20
215.4073191870992
 30
0.0
 10
351.0715458900641
 20
215.7162557994077
 30
0.0
 10
351.1343714963401
 20
216.020678953442
 30
0.0
 10
351.2215622559555
 20
216.3178173966853
 30
0.0
 10
351.3326902725883
 20
216.6060308403514
 30
0.0
 10
351.466579286823
 20
216.8823943958397
 30
0.0
 10
351.6226820831133
 20
217.1456285669614
 30
0.0
 10
351.7992314278904
 20
217.3928650022256
 30
0.0
 10
351.9956049700752
 20
217.623086574602
 30
0.0
 10
352.2095006769481
 20
217.8337094564188
 30
0.0
 10
352.4401969015936
 20
218.0238714152958
 30
0.0
 10
352.6849989044156
 20
218.1914776988893
 30
0.0
 10
352.9429986673236
 20
218.3357450393507
 30
0.0
 10
353.2113195781961
 20
218.4552067786893
 30
0.0
 10
353.4887446403512
 20
218.5491498257432
 30
0.0
 10
353.7724567833919
 20
218.6167777981804
 30
0.0
 10
354.0608176615735
 20
218.6575229230228
 30
0.0
 10
354.3512895064804
 20
218.6711968009479
 30
0.0
 10
354.6417613513873
 20
218.6575229230228
 30
0.0
 10
354.9301222295691
 20
218.6167777981805
 30
0.0
 10
355.2138343726097
 20
218.5491498257433
 30
0.0
 10
355.4912594347647
 20
218.4552067786893
 30
0.0
 10
355.7595803456373
 20
218.3357450393507
 30
0.0
 10
356.0175801085454
 20
218.1914776988893
 30
0.0
 10
356.2623821113676
 20
218.0238714152958
 30
0.0
 10
356.4930783360127
 20
217.8337094564187
 30
0.0
 10
356.7069740428857
 20
217.623086574602
 30
0.0
 10
356.9033475850705
 20
217.3928650022256
 30
0.0
 10
357.0798969298477
 20
217.1456285669614
 30
0.0
 10
357.2359997261377
 20
216.8823943958396
 30
0.0
 10
357.3698887403729
 20
216.6060308403515
 30
0.0
 10
357.4810167570052
 20
216.3178173966852
 30
0.0
 10
357.5682075166209
 20
216.0206789534421
 30
0.0
 10
357.6310331228968
 20
215.7162557994077
 30
0.0
 10
357.6688816724895
 20
215.4073191870992
 30
0.0
 10
357.6815439342662
 20
215.0959246345222
 30
0.0
 10
357.6688816721279
 20
214.7845300819478
 30
0.0
 10
357.6310331221729
 20
214.4755934696554
 30
0.0
 10
357.5682075155327
 20
214.1711703156238
 30
0.0
 10
357.4810167555505
 20
213.8740318724708
 30
0.0
 10
357.3698887385474
 20
213.5858184286092
 30
0.0
 10
357.2359997239379
 20
213.3094548740277
 30
0.0
 10
357.0798969272677
 20
213.0462206997808
 30
0.0
 10
356.9033475821042
 20
212.7989842763828
 30
0.0
 10
356.7069740395248
 20
212.5687626605513
 30
0.0
 10
356.4930783322482
 20
212.3581399402394
 30
0.0
 10
356.2623821071858
 20
212.1679773860797
 30
0.0
 10
356.0175801039296
 20
212.0003733108766
 30
0.0
 10
355.7595803405588
 20
211.8560978153904
 30
0.0
 10
355.4912594291776
 20
211.7366663577068
 30
0.0
 10
355.213834366392
 20
211.6426111924374
 30
0.0
 10
354.9301222224128
 20
211.5754002999442
 30
0.0
 10
354.6417613461058
 20
211.5331052277621
 30
0.0
 10
354.4481133131903
 20
211.5278420269437
 30
0.0
 10
354.3512895064804
 20
211.5252104296231
 30
0.0
 11
354.3512895064804
 21
211.5252104296231
 31
0.0
 11
354.0612417446823
 21
211.5388280424756
 31
0.0
 11
353.7737298201466
 21
211.5794576018891
 31
0.0
 11
353.489992510278
 21
211.6470246997276
 31
0.0
 11
353.2137189926228
 21
211.7405508458083
 31
0.0
 11
352.9450019305241
 21
211.8600944112461
 31
0.0
 11
352.6882726695242
 21
212.0035954246813
 31
0.0
 11
352.4428553797421
 21
212.1715045973881
 31
0.0
 11
352.2133562714893
 21
212.360598862086
 31
0.0
 11
351.9988017124525
 21
212.5717324279156
 31
0.0
 11
351.8033998929532
 21
212.8007137892292
 31
0.0
 11
351.626296487813
 21
213.0485720252267
 31
0.0
 11
351.4708598510297
 21
213.3105675367588
 31
0.0
 11
351.3366066224066
 21
213.5875152450258
 31
0.0
 11
351.2258402066194
 21
213.8746684565544
 31
0.0
 11
351.1384824511465
 21
214.1721938430017
 31
0.0
 11
351.0757857576317
 21
214.4758766276169
 31
0.0
 11
351.0379033376626
 21
214.7848720174894
 31
0.0
 11
351.025255832568
 21
215.0959246438945
 31
0.0
 11
351.0379033376626
 21
215.4069772702997
 31
0.0
 11
351.0757857576317
 21
215.7159726601722
 31
0.0
 11
351.1384824511464
 21
216.0196554447874
 31
0.0
 11
351.2258402066194
 21
216.3171808312346
 31
0.0
 11
351.3366066224066
 21
216.6043340427632
 31
0.0
 11
351.4708598510297
 21
216.8812817510302
 31
0.0
 11
351.626296487813
 21
217.1432772625623
 31
0.0
 11
351.8033998929532
 21
217.3911354985598
 31
0.0
 11
351.9988017124525
 21
217.6201168598735
 31
0.0
 11
352.2133562714893
 21
217.8312504257031
 31
0.0
 11
352.4428553797421
 21
218.020344690401
 31
0.0
 11
352.6882726695242
 21
218.1882538631078
 31
0.0
 11
352.945001930524
 21
218.331754876543
 31
0.0
 11
353.2137189926228
 21
218.4512984419807
 31
0.0
 11
353.4899925102779
 21
218.5448245880614
 31
0.0
 11
353.7737298201466
 21
218.6123916858999
 31
0.0
 11
354.0612417446823
 21
218.6530212453134
 31
0.0
 11
354.3512895064804
 21
218.6666388581659
 31
0.0
 11
354.6413372682785
 21
218.6530212453134
 31
0.0
 11
354.9288491928143
 21
218.6123916858999
 31
0.0
 11
355.2125865026829
 21
218.5448245880614
 31
0.0
 11
355.4888600203381
 21
218.4512984419807
 31
0.0
 11
355.7575770824369
 21
218.331754876543
 31
0.0
 11
356.0143063434367
 21
218.1882538631078
 31
0.0
 11
356.2597236332189
 21
218.020344690401
 31
0.0
 11
356.4892227414716
 21
217.8312504257031
 31
0.0
 11
356.7037773005085
 21
217.6201168598735
 31
0.0
 11
356.8991791200077
 21
217.3911354985598
 31
0.0
 11
357.0762825251479
 21
217.1432772625623
 31
0.0
 11
357.2317191619311
 21
216.8812817510302
 31
0.0
 11
357.3659723905543
 21
216.6043340427632
 31
0.0
 11
357.4767388063414
 21
216.3171808312346
 31
0.0
 11
357.5640965618144
 21
216.0196554447874
 31
0.0
 11
357.6267932553291
 21
215.7159726601722
 31
0.0
 11
357.6646756752982
 21
215.4069772702997
 31
0.0
 11
357.6773231803929
 21
215.0959246438945
 31
0.0
 11
357.6646756752982
 21
214.7848720174894
 31
0.0
 11
357.6267932553291
 21
214.4758766276169
 31
0.0
 11
357.5640965618144
 21
214.1721938430017
 31
0.0
 11
357.4767388063414
 21
213.8746684565544
 31
0.0
 11
357.3659723905542
 21
213.5875152450258
 31
0.0
 11
357.2317191619311
 21
213.3105675367588
 31
0.0
 11
357.0762825251479
 21
213.0485720252266
 31
0.0
 11
356.8991791200077
 21
212.8007137892292
 31
0.0
 11
356.7037773005084
 21
212.5717324279156
 31
0.0
 11
356.4892227414716
 21
212.360598862086
 31
0.0
 11
356.2597236332188
 21
212.1715045973881
 31
0.0
 11
356.0143063434367
 21
212.0035954246813
 31
0.0
 11
355.7575770824369
 21
211.860094411246
 31
0.0
 11
355.4888600203381
 21
211.7405508458083
 31
0.0
 11
355.2125865026829
 21
211.6470246997276
 31
0.0
 11
354.9288491928143
 21
211.5794576018891
 31
0.0
 11
354.6413372682786
 21
211.5388280424756
 31
0.0
 11
354.3512895064804
 21
211.5252104296231
 31
0.0
  0
SPLINE
  5
196
330
5B
100
AcDbEntity
  8
1
  6
Continuous
 62
     7
100
AcDbSpline
210
0.0
220
0.0
230
1.0
 70
    11
 71
     3
 72
    79
 73
    75
 74
    73
 42
0.000000001
 43
0.0000000001
 44
0.00000001
 40
0.0
 40
0.0
 40
0.0
 40
0.0
 40
0.2903672471832716
 40
0.5807357518972467
 40
0.8724070977359439
 40
1.164081911024014
 40
1.45818992452228
 40
1.752302920472859
 40
2.049663201046498
 40
2.347029106415535
 40
2.648045786116011
 40
2.949067936325255
 40
3.253697746552326
 40
3.558332275329974
 40
3.866104857780084
 40
4.173881019540075
 40
4.483966061108426
 40
4.794053321447658
 40
5.105362217358691
 40
5.416671863434814
 40
5.727981509500166
 40
6.039290405378731
 40
6.349377665663678
 40
6.659462707155388
 40
6.967238868816699
 40
7.275011451144687
 40
7.579645979777361
 40
7.884275789834384
 40
8.185297939849631
 40
8.486314619328361
 40
8.783680524448918
 40
9.081040804741061
 40
9.37515380037429
 40
9.669261813502333
 40
9.96093662633732
 40
10.25260797152405
 40
10.54297647485872
 40
10.83334373090432
 40
11.12371098694981
 40
11.41407949028437
 40
11.7057508354711
 40
11.99742564830608
 40
12.29153366143428
 40
12.58564665706761
 40
12.88300693735964
 40
13.18037284248017
 40
13.48138952195894
 40
13.78241167197426
 40
14.08704148203125
 40
14.39167601066393
 40
14.69944859299194
 40
15.0072247546532
 40
15.31730979614491
 40
15.62739705642985
 40
15.93870595230841
 40
16.25001559837376
 40
16.56132524444988
 40
16.8726341403609
 40
17.18272140070015
 40
17.49280644226847
 40
17.80058260402844
 40
18.10835518647855
 40
18.41298971525622
 40
18.71761952548323
 40
19.01864167569259
 40
19.31965835539306
 40
19.61702426076199
 40
19.9143845413356
 40
20.20849753728629
 40
20.5026055507847
 40
20.79428036407275
 40
21.08595170991147
 40
21.37632021462533
 40
21.66668746180849
 40
21.66668746180849
 40
21.66668746180849
 40
21.66668746180849
 10
378.6000008124447
 20
211.5252104296231
 30
0.0
 10
378.6968246191544
 20
211.5278420269437
 30
0.0
 10
378.8904726520702
 20
211.5331052277623
 30
0.0
 10
379.1788335283767
 20
211.5754002999441
 30
0.0
 10
379.4625456723563
 20
211.6426111924374
 30
0.0
 10
379.7399707351418
 20
211.7366663577068
 30
0.0
 10
380.008291646523
 20
211.8560978153904
 30
0.0
 10
380.2662914098938
 20
212.0003733108767
 30
0.0
 10
380.5110934131502
 20
212.1679773860796
 30
0.0
 10
380.7417896382126
 20
212.3581399402395
 30
0.0
 10
380.9556853454891
 20
212.5687626605511
 30
0.0
 10
381.1520588880685
 20
212.7989842763829
 30
0.0
 10
381.3286082332319
 20
213.0462206997807
 30
0.0
 10
381.4847110299023
 20
213.3094548740277
 30
0.0
 10
381.6186000445118
 20
213.5858184286093
 30
0.0
 10
381.7297280615148
 20
213.8740318724707
 30
0.0
 10
381.816918821497
 20
214.1711703156238
 30
0.0
 10
381.8797444281373
 20
214.4755934696555
 30
0.0
 10
381.9175929780923
 20
214.7845300819477
 30
0.0
 10
381.9302552402308
 20
215.0959246345224
 30
0.0
 10
381.9175929784539
 20
215.4073191870991
 30
0.0
 10
381.8797444288612
 20
215.7162557994077
 30
0.0
 10
381.8169188225851
 20
216.020678953442
 30
0.0
 10
381.7297280629697
 20
216.3178173966853
 30
0.0
 10
381.6186000463371
 20
216.6060308403515
 30
0.0
 10
381.4847110321019
 20
216.8823943958396
 30
0.0
 10
381.3286082358121
 20
217.1456285669614
 30
0.0
 10
381.1520588910347
 20
217.3928650022256
 30
0.0
 10
380.95568534885
 20
217.6230865746019
 30
0.0
 10
380.7417896419771
 20
217.8337094564188
 30
0.0
 10
380.5110934173317
 20
218.0238714152957
 30
0.0
 10
380.2662914145095
 20
218.1914776988893
 30
0.0
 10
380.0082916516016
 20
218.3357450393507
 30
0.0
 10
379.7399707407289
 20
218.4552067786894
 30
0.0
 10
379.4625456785738
 20
218.5491498257431
 30
0.0
 10
379.1788335355333
 20
218.6167777981805
 30
0.0
 10
378.8904726573517
 20
218.6575229230229
 30
0.0
 10
378.6000008124447
 20
218.6711968009479
 30
0.0
 10
378.309528967538
 20
218.6575229230228
 30
0.0
 10
378.0211680893563
 20
218.6167777981805
 30
0.0
 10
377.7374559463158
 20
218.5491498257431
 30
0.0
 10
377.4600308841606
 20
218.4552067786892
 30
0.0
 10
377.1917099732879
 20
218.3357450393507
 30
0.0
 10
376.9337102103799
 20
218.1914776988894
 30
0.0
 10
376.6889082075576
 20
218.0238714152956
 30
0.0
 10
376.4582119829124
 20
217.8337094564189
 30
0.0
 10
376.2443162760395
 20
217.6230865746019
 30
0.0
 10
376.0479427338545
 20
217.3928650022256
 30
0.0
 10
375.8713933890775
 20
217.1456285669614
 30
0.0
 10
375.7152905927874
 20
216.8823943958397
 30
0.0
 10
375.5814015785524
 20
216.6060308403514
 30
0.0
 10
375.4702735619198
 20
216.3178173966853
 30
0.0
 10
375.3830828023044
 20
216.0206789534421
 30
0.0
 10
375.3202571960284
 20
215.7162557994077
 30
0.0
 10
375.2824086464357
 20
215.4073191870991
 30
0.0
 10
375.2697463846589
 20
215.0959246345223
 30
0.0
 10
375.2824086467972
 20
214.7845300819478
 30
0.0
 10
375.3202571967523
 20
214.4755934696554
 30
0.0
 10
375.3830828033927
 20
214.1711703156238
 30
0.0
 10
375.4702735633746
 20
213.8740318724707
 30
0.0
 10
375.5814015803776
 20
213.5858184286093
 30
0.0
 10
375.7152905949872
 20
213.3094548740276
 30
0.0
 10
375.8713933916574
 20
213.0462206997808
 30
0.0
 10
376.0479427368209
 20
212.7989842763828
 30
0.0
 10
376.2443162794003
 20
212.5687626605512
 30
0.0
 10
376.458211986677
 20
212.3581399402395
 30
0.0
 10
376.6889082117393
 20
212.1679773860796
 30
0.0
 10
376.9337102149955
 20
212.0003733108766
 30
0.0
 10
377.1917099783665
 20
211.8560978153903
 30
0.0
 10
377.4600308897477
 20
211.7366663577068
 30
0.0
 10
377.7374559525335
 20
211.6426111924375
 30
0.0
 10
378.0211680965126
 20
211.5754002999441
 30
0.0
 10
378.3095289728195
 20
211.5331052277623
 30
0.0
 10
378.5031770057349
 20
211.5278420269437
 30
0.0
 10
378.6000008124447
 20
211.5252104296231
 30
0.0
 11
378.6000008124447
 21
211.5252104296231
 31
0.0
 11
378.8900485742428
 21
211.5388280424756
 31
0.0
 11
379.1775604987785
 21
211.5794576018891
 31
0.0
 11
379.4612978086471
 21
211.6470246997276
 31
0.0
 11
379.7375713263023
 21
211.7405508458083
 31
0.0
 11
380.006288388401
 21
211.8600944112461
 31
0.0
 11
380.263017649401
 21
212.0035954246813
 31
0.0
 11
380.5084349391832
 21
212.1715045973881
 31
0.0
 11
380.737934047436
 21
212.360598862086
 31
0.0
 11
380.9524886064728
 21
212.5717324279156
 31
0.0
 11
381.147890425972
 21
212.8007137892292
 31
0.0
 11
381.3249938311122
 21
213.0485720252267
 31
0.0
 11
381.4804304678954
 21
213.3105675367588
 31
0.0
 11
381.6146836965186
 21
213.5875152450258
 31
0.0
 11
381.7254501123058
 21
213.8746684565544
 31
0.0
 11
381.8128078677788
 21
214.1721938430017
 31
0.0
 11
381.8755045612935
 21
214.4758766276169
 31
0.0
 11
381.9133869812627
 21
214.7848720174894
 31
0.0
 11
381.9260344863574
 21
215.0959246438945
 31
0.0
 11
381.9133869812627
 21
215.4069772702997
 31
0.0
 11
381.8755045612935
 21
215.7159726601722
 31
0.0
 11
381.8128078677788
 21
216.0196554447874
 31
0.0
 11
381.7254501123058
 21
216.3171808312346
 31
0.0
 11
381.6146836965186
 21
216.6043340427632
 31
0.0
 11
381.4804304678954
 21
216.8812817510302
 31
0.0
 11
381.3249938311122
 21
217.1432772625623
 31
0.0
 11
381.147890425972
 21
217.3911354985598
 31
0.0
 11
380.9524886064727
 21
217.6201168598735
 31
0.0
 11
380.737934047436
 21
217.8312504257031
 31
0.0
 11
380.5084349391832
 21
218.020344690401
 31
0.0
 11
380.263017649401
 21
218.1882538631078
 31
0.0
 11
380.0062883884011
 21
218.331754876543
 31
0.0
 11
379.7375713263023
 21
218.4512984419807
 31
0.0
 11
379.4612978086471
 21
218.5448245880614
 31
0.0
 11
379.1775604987785
 21
218.6123916858999
 31
0.0
 11
378.8900485742428
 21
218.6530212453134
 31
0.0
 11
378.6000008124447
 21
218.6666388581659
 31
0.0
 11
378.3099530506467
 21
218.6530212453134
 31
0.0
 11
378.0224411261111
 21
218.6123916858999
 31
0.0
 11
377.7387038162425
 21
218.5448245880614
 31
0.0
 11
377.4624302985873
 21
218.4512984419807
 31
0.0
 11
377.1937132364884
 21
218.331754876543
 31
0.0
 11
376.9369839754884
 21
218.1882538631078
 31
0.0
 11
376.6915666857063
 21
218.020344690401
 31
0.0
 11
376.4620675774535
 21
217.8312504257031
 31
0.0
 11
376.2475130184167
 21
217.6201168598735
 31
0.0
 11
376.0521111989174
 21
217.3911354985598
 31
0.0
 11
375.8750077937772
 21
217.1432772625623
 31
0.0
 11
375.719571156994
 21
216.8812817510302
 31
0.0
 11
375.5853179283708
 21
216.6043340427632
 31
0.0
 11
375.4745515125837
 21
216.3171808312346
 31
0.0
 11
375.3871937571107
 21
216.0196554447874
 31
0.0
 11
375.324497063596
 21
215.7159726601722
 31
0.0
 11
375.2866146436269
 21
215.4069772702997
 31
0.0
 11
375.2739671385322
 21
215.0959246438945
 31
0.0
 11
375.2866146436269
 21
214.7848720174894
 31
0.0
 11
375.324497063596
 21
214.4758766276169
 31
0.0
 11
375.3871937571108
 21
214.1721938430017
 31
0.0
 11
375.4745515125837
 21
213.8746684565544
 31
0.0
 11
375.5853179283708
 21
213.5875152450258
 31
0.0
 11
375.719571156994
 21
213.3105675367588
 31
0.0
 11
375.8750077937772
 21
213.0485720252266
 31
0.0
 11
376.0521111989174
 21
212.8007137892292
 31
0.0
 11
376.2475130184167
 21
212.5717324279156
 31
0.0
 11
376.4620675774535
 21
212.360598862086
 31
0.0
 11
376.6915666857062
 21
212.1715045973881
 31
0.0
 11
376.9369839754884
 21
212.0035954246813
 31
0.0
 11
377.1937132364885
 21
211.860094411246
 31
0.0
 11
377.4624302985873
 21
211.7405508458083
 31
0.0
 11
377.7387038162425
 21
211.6470246997276
 31
0.0
 11
378.0224411261111
 21
211.5794576018891
 31
0.0
 11
378.3099530506467
 21
211.5388280424756
 31
0.0
 11
378.6000008124447
 21
211.5252104296231
 31
0.0
  0
SPLINE
  5
197
330
5B
100
AcDbEntity
  8
1
  6
Continuous
 62
     7
100
AcDbSpline
210
0.0
220
0.0
230
1.0
 70
     8
 71
     3
 72
    25
 73
    21
 74
    19
 42
0.000000001
 43
0.0000000001
 44
0.00000001
 40
0.0
 40
0.0
 40
0.0
 40
0.0
 40
1.525997363576719
 40
3.041991995961887
 40
4.036425729137956
 40
5.033630621467629
 40
5.779988201878554
 40
6.525153423607695
 40
7.1131396548759
 40
7.69681469375541
 40
7.949097143679909
 40
8.201245171958645
 40
8.846896618341464
 40
9.499909905032116
 40
10.24994289999146
 40
11.00216045375455
 40
12.12686675713049
 40
13.24812597618487
 40
14.81779813343734
 40
16.39782994900074
 40
16.39782994900074
 40
16.39782994900074
 40
16.39782994900074
 10
366.4756451594626
 20
218.6666222090305
 30
0.0
 10
365.9680963337806
 20
218.6333043405066
 30
0.0
 10
364.9563256054932
 20
218.5668869872453
 30
0.0
 10
363.6226631858385
 20
218.3529667181756
 30
0.0
 10
362.5076008431316
 20
217.990127283072
 30
0.0
 10
361.6824053792224
 20
217.5934836070815
 30
0.0
 10
360.9848630551258
 20
217.1402743817821
 30
0.0
 10
360.4716552510514
 20
216.6671717919057
 30
0.0
 10
360.0948478423946
 20
216.1466110112587
 30
0.0
 10
359.9056294745823
 20
215.7048928944482
 30
0.0
 10
359.8342100710675
 20
215.3483515328586
 30
0.0
 10
359.8088158740742
 20
214.9646608517505
 30
0.0
 10
359.9075727138505
 20
214.4469073045926
 30
0.0
 10
360.2176651446807
 20
213.83082929858
 30
0.0
 10
360.698240485401
 20
213.2866903341957
 30
0.0
 10
361.4007658669082
 20
212.7587198339048
 30
0.0
 10
362.2858762106896
 20
212.28425227825
 30
0.0
 10
363.4927603839691
 20
211.8675743437025
 30
0.0
 10
364.9027588167662
 20
211.632255906921
 30
0.0
 10
365.9502013341842
 20
211.5609019385194
 30
0.0
 10
366.4756451594626
 20
211.5251076149791
 30
0.0
 11
366.4756451594626
 21
218.6666222090305
 31
0.0
 11
364.9546786584427
 21
218.5428123645963
 31
0.0
 11
363.4617893147374
 21
218.2791437545133
 31
0.0
 11
362.5166790536073
 21
217.9698460896657
 31
0.0
 11
361.6188408350045
 21
217.5359058494977
 31
0.0
 11
360.9970358219429
 21
217.1231006115573
 31
0.0
 11
360.453779245171
 21
216.6130579657582
 31
0.0
 11
360.1127952733135
 21
216.1340404922882
 31
0.0
 11
359.8889979296002
 21
215.5949752820703
 31
0.0
 11
359.8396969259506
 21
215.3475569202561
 31
0.0
 11
359.8235778116375
 21
215.0959246438945
 31
0.0
 11
359.9352488169377
 21
214.4600037541518
 31
0.0
 11
360.2247465597404
 21
213.8746684565544
 31
0.0
 11
360.7143993065716
 21
213.3065226282232
 31
0.0
 11
361.3095280684273
 21
212.8464650166309
 31
0.0
 11
362.2987686260007
 21
212.3113319582967
 31
0.0
 11
363.3573920968303
 21
211.9418206794137
 31
0.0
 11
364.9012292277111
 21
211.6582054509517
 31
0.0
 11
366.4756451594626
 21
211.5251076149791
 31
0.0
  0
SPLINE
  5
198
330
5B
100
AcDbEntity
  8
1
  6
Continuous
 62
     7
100
AcDbSpline
210
0.0
220
0.0
230
1.0
 70
     8
 71
     3
 72
    25
 73
    21
 74
    19
 42
0.000000001
 43
0.0000000001
 44
0.00000001
 40
0.0
 40
0.0
 40
0.0
 40
0.0
 40
1.525997363576606
 40
3.041991995961717
 40
4.03642572913794
 40
5.033630621467728
 40
5.779988201878511
 40
6.52515342360761
 40
7.113139654875805
 40
7.696814693755311
 40
7.949097143679786
 40
8.201245171958526
 40
8.846896618341345
 40
9.499909905031947
 40
10.24994289999126
 40
11.00216045375448
 40
12.12686675713047
 40
13.24812597618468
 40
14.81779813343712
 40
16.39782994900051
 40
16.39782994900051
 40
16.39782994900051
 40
16.39782994900051
 10
366.4756451594626
 20
218.6666222090305
 30
0.0
 10
366.9831939851446
 20
218.6333043405066
 30
0.0
 10
367.994964713432
 20
218.5668869872454
 30
0.0
 10
369.3286271330865
 20
218.3529667181754
 30
0.0
 10
370.4436894757937
 20
217.9901272830721
 30
0.0
 10
371.2688849397027
 20
217.5934836070816
 30
0.0
 10
371.9664272637995
 20
217.1402743817821
 30
0.0
 10
372.4796350678737
 20
216.6671717919058
 30
0.0
 10
372.8564424765304
 20
216.1466110112587
 30
0.0
 10
373.0456608443428
 20
215.7048928944482
 30
0.0
 10
373.1170802478575
 20
215.3483515328587
 30
0.0
 10
373.1424744448506
 20
214.9646608517505
 30
0.0
 10
373.0437176050746
 20
214.4469073045927
 30
0.0
 10
372.7336251742447
 20
213.83082929858
 30
0.0
 10
372.2530498335242
 20
213.2866903341956
 30
0.0
 10
371.5505244520167
 20
212.7587198339048
 30
0.0
 10
370.6654141082355
 20
212.28425227825
 30
0.0
 10
369.4585299349561
 20
211.8675743437025
 30
0.0
 10
368.0485315021588
 20
211.6322559069209
 30
0.0
 10
367.0010889847412
 20
211.5609019385193
 30
0.0
 10
366.4756451594626
 20
211.5251076149791
 30
0.0
 11
366.4756451594626
 21
218.6666222090305
 31
0.0
 11
367.9966116604824
 21
218.5428123645963
 31
0.0
 11
369.4895010041876
 21
218.2791437545133
 31
0.0
 11
370.4346112653179
 21
217.9698460896657
 31
0.0
 11
371.3324494839208
 21
217.5359058494977
 31
0.0
 11
371.9542544969823
 21
217.1231006115573
 31
0.0
 11
372.4975110737541
 21
216.6130579657582
 31
0.0
 11
372.8384950456115
 21
216.1340404922882
 31
0.0
 11
373.0622923893249
 21
215.5949752820703
 31
0.0
 11
373.1115933929743
 21
215.3475569202561
 31
0.0
 11
373.1277125072875
 21
215.0959246438945
 31
0.0
 11
373.0160415019873
 21
214.4600037541518
 31
0.0
 11
372.7265437591847
 21
213.8746684565544
 31
0.0
 11
372.2368910123536
 21
213.3065226282232
 31
0.0
 11
371.6417622504977
 21
212.8464650166309
 31
0.0
 11
370.6525216929243
 21
212.3113319582967
 31
0.0
 11
369.5938982220948
 21
211.9418206794137
 31
0.0
 11
368.0500610912141
 21
211.6582054509516
 31
0.0
 11
366.4756451594626
 21
211.5251076149791
 31
0.0
  0
SPLINE
  5
199
330
5B
100
AcDbEntity
  8
1
  6
Continuous
 62
     7
100
AcDbSpline
210
0.0
220
0.0
230
1.0
 70
    11
 71
     3
 72
    79
 73
    75
 74
    73
 42
0.000000001
 43
0.0000000001
 44
0.00000001
 40
0.0
 40
0.0
 40
0.0
 40
0.0
 40
0.321081305664824
 40
0.6418951396081669
 40
0.9828988891664647
 40
1.323531051596582
 40
1.692967055112473
 40
2.062075178394393
 40
2.463733854380018
 40
2.865152862487698
 40
3.298564779288518
 40
3.731815223729023
 40
4.19313126056884
 40
4.654344167617111
 40
5.137240966498906
 40
5.620077099452219
 40
6.116559525296412
 40
6.613013903592158
 40
7.114121230352351
 40
7.615228557112279
 40
8.111682935406884
 40
8.608165361248018
 40
9.091001494194723
 40
9.573898293063696
 40
10.03511120009039
 40
10.49642723689447
 40
10.92967768128228
 40
11.36308959800309
 40
11.76450860600178
 40
12.16616728182972
 40
12.5352754049046
 40
12.90471140812305
 40
13.24534357014038
 40
13.58634731899454
 40
13.90716115088655
 40
14.2282424638691
 40
14.54200444896846
 40
14.85576643406669
 40
15.17684774704588
 40
15.49766157893252
 40
15.83866532777948
 40
16.17929748978872
 40
16.54873349299778
 40
16.91784161606304
 40
17.31950029188055
 40
17.72091929986919
 40
18.15433121657967
 40
18.58758166095781
 40
19.04889769775225
 40
19.51011060477003
 40
19.99300740363049
 40
20.47584353656945
 40
20.97232596240344
 40
21.46878034069173
 40
21.96988766744626
 40
22.47099499420195
 40
22.96744937249427
 40
23.46393179833612
 40
23.9467679312882
 40
24.42966473016975
 40
24.89087763721867
 40
25.35219367405969
 40
25.78544411850141
 40
26.21885603530219
 40
26.62027504340744
 40
27.02193371938501
 40
27.39104184264872
 40
27.76047784612185
 40
28.10111000845242
 40
28.44211375771944
 40
28.76292759014607
 40
29.08400890392578
 40
29.39777089116763
 40
29.7115328691918
 40
29.7115328691918
 40
29.7115328691918
 40
29.7115328691918
 10
132.1976585232674
 20
214.7829697923288
 30
0.0
 10
132.1783786725182
 20
214.677508709265
 30
0.0
 10
132.1398350404506
 20
214.4666743940941
 30
0.0
 10
132.0247817282989
 20
214.1583347710347
 30
0.0
 10
131.8723932624516
 20
213.8602466764788
 30
0.0
 10
131.6753166179955
 20
213.5695745921607
 30
0.0
 10
131.442130108168
 20
213.2948090137335
 30
0.0
 10
131.1679616416204
 20
213.0307800684957
 30
0.0
 10
130.8624184415366
 20
212.7863960924203
 30
0.0
 10
130.5198008506439
 20
212.5565245180241
 30
0.0
 10
130.1511046338777
 20
212.3489572657898
 30
0.0
 10
129.7505498917406
 20
212.1597403061417
 30
0.0
 10
129.3294453945916
 20
211.9947756909386
 30
0.0
 10
128.883087088632
 20
211.8515916692763
 30
0.0
 10
128.4218912307997
 20
211.7340644423211
 30
0.0
 10
127.943196134444
 20
211.6409806358117
 30
0.0
 10
127.4555288254471
 20
211.5744778372482
 30
0.0
 10
126.9589110196961
 20
211.5340922747913
 30
0.0
 10
126.4592902041246
 20
211.5207487945891
 30
0.0
 10
125.9596693885375
 20
211.5340922747882
 30
0.0
 10
125.4630515828352
 20
211.5744778372455
 30
0.0
 10
124.9753842736673
 20
211.640980635769
 30
0.0
 10
124.496689177941
 20
211.73406444234
 30
0.0
 10
124.0354933178198
 20
211.8515916689179
 30
0.0
 10
123.5891350200474
 20
211.9947756916889
 30
0.0
 10
123.1680304932588
 20
212.159740302523
 30
0.0
 10
122.7674758553363
 20
212.3489572770513
 30
0.0
 10
122.3987792641541
 20
212.5565244751743
 30
0.0
 10
122.0561629726821
 20
212.7863962365463
 30
0.0
 10
121.7506151290482
 20
213.0307795433917
 30
0.0
 10
121.4764626633747
 20
213.2948107933912
 30
0.0
 10
121.2432189983958
 20
213.5695681375306
 30
0.0
 10
121.0463399649293
 20
213.8602686893541
 30
0.0
 10
120.893240422714
 20
214.1582543440338
 30
0.0
 10
120.7806929522023
 20
214.4669549634127
 30
0.0
 10
120.7141414418377
 20
214.7795256005129
 30
0.0
 10
120.6906661851457
 20
215.0959246435128
 30
0.0
 10
120.7141414418269
 20
215.4123236865125
 30
0.0
 10
120.7806929521808
 20
215.7248943236116
 30
0.0
 10
120.8932404226818
 20
216.0335949429888
 30
0.0
 10
121.0463399648871
 20
216.3315805976661
 30
0.0
 10
121.2432189983439
 20
216.6222811494862
 30
0.0
 10
121.4764626633136
 20
216.8970384936216
 30
0.0
 10
121.7506151289786
 20
217.161069743616
 30
0.0
 10
122.0561629726046
 20
217.4054530504554
 30
0.0
 10
122.398779264069
 20
217.6353248118201
 30
0.0
 10
122.7674758552442
 20
217.8428920099352
 30
0.0
 10
123.1680304931604
 20
218.032108984454
 30
0.0
 10
123.5891350199431
 20
218.1970735952772
 30
0.0
 10
124.03549331771
 20
218.3402576180358
 30
0.0
 10
124.4966891778263
 20
218.4577848445995
 30
0.0
 10
124.9753842735479
 20
218.5508686511542
 30
0.0
 10
125.463051582711
 20
218.6173714496592
 30
0.0
 10
125.9596693884096
 20
218.6577570120955
 30
0.0
 10
126.4592902039888
 20
218.6711004922704
 30
0.0
 10
126.9589110195669
 20
218.6577570120433
 30
0.0
 10
127.4555288252687
 20
218.6173714495493
 30
0.0
 10
127.9431961344191
 20
218.5508686509797
 30
0.0
 10
128.4218912301841
 20
218.4577848443375
 30
0.0
 10
128.8830870901352
 20
218.3402576176973
 30
0.0
 10
129.3294453884783
 20
218.1970735947306
 30
0.0
 10
129.7505499131492
 20
218.032108984058
 30
0.0
 10
130.1511045584475
 20
217.8428920082872
 30
0.0
 10
130.5198011230321
 20
217.6353248137766
 30
0.0
 10
130.862417506678
 20
217.4054530388594
 30
0.0
 10
131.1679650207354
 20
217.1610697791796
 30
0.0
 10
131.442118621825
 20
216.8970383652366
 30
0.0
 10
131.6753582307493
 20
216.6222816049895
 30
0.0
 10
131.8722512873645
 20
216.3315790324606
 30
0.0
 10
132.0253003685396
 20
216.0336006466875
 30
0.0
 10
132.1380256636235
 20
215.7248744088722
 30
0.0
 10
132.2039266087579
 20
215.4123974918741
 30
0.0
 10
132.229778118586
 20
215.0956561232963
 30
0.0
 10
132.2083650518707
 20
214.8871985685544
 30
0.0
 10
132.1976585232674
 20
214.7829697923288
 30
0.0
 11
132.1976585232674
 21
214.7829697923288
 31
0.0
 11
132.1306629815647
 21
214.4689557687157
 31
0.0
 11
132.0217081494203
 21
214.1672102478458
 31
0.0
 11
131.8662832828429
 21
213.8636864964502
 31
0.0
 11
131.6760475587373
 21
213.5811256372673
 31
0.0
 11
131.4375542621819
 21
213.2989839919215
 31
0.0
 11
131.172217133077
 21
213.0423967465412
 31
0.0
 11
130.8590557758553
 21
212.7908820227945
 31
0.0
 11
130.5260286566744
 21
212.5667611672012
 31
0.0
 11
130.1487002939561
 21
212.353526094386
 31
0.0
 11
129.7571326247626
 21
212.1681057394351
 31
0.0
 11
129.3277992730235
 21
211.9993296779882
 31
0.0
 11
128.888710184523
 21
211.8581981153179
 31
0.0
 11
128.4208642941222
 21
211.7385756207668
 31
0.0
 11
127.9469322666234
 21
211.6462763001007
 31
0.0
 11
127.4550355599298
 21
211.5789529823275
 31
0.0
 11
126.9602160079475
 21
211.5386967939204
 31
0.0
 11
126.4592901941679
 21
211.5252104296231
 31
0.0
 11
125.9583643803882
 21
211.5386967939204
 31
0.0
 11
125.4635448284058
 21
211.5789529823274
 31
0.0
 11
124.9716481217122
 21
211.6462763001007
 31
0.0
 11
124.4977160942134
 21
211.7385756207668
 31
0.0
 11
124.0298702038126
 21
211.8581981153179
 31
0.0
 11
123.5907811153122
 21
211.9993296779881
 31
0.0
 11
123.1614477635731
 21
212.1681057394351
 31
0.0
 11
122.7698800943797
 21
212.353526094386
 31
0.0
 11
122.3925517316613
 21
212.5667611672012
 31
0.0
 11
122.0595246124804
 21
212.7908820227945
 31
0.0
 11
121.7463632552587
 21
213.0423967465412
 31
0.0
 11
121.4810261261537
 21
213.2989839919216
 31
0.0
 11
121.2425328295984
 21
213.5811256372673
 31
0.0
 11
121.0522971054927
 21
213.8636864964502
 31
0.0
 11
120.8968722389153
 21
214.1672102478458
 31
0.0
 11
120.7879174067709
 21
214.4689557687157
 31
0.0
 11
120.7209218650682
 21
214.7829697923288
 31
0.0
 11
120.6984308832663
 21
215.0959246438945
 31
0.0
 11
120.7209218650683
 21
215.4088794954602
 31
0.0
 11
120.7879174067711
 21
215.7228935190734
 31
0.0
 11
120.8968722389155
 21
216.0246390399432
 31
0.0
 11
121.0522971054927
 21
216.3281627913388
 31
0.0
 11
121.2425328295984
 21
216.6107236505218
 31
0.0
 11
121.4810261261537
 21
216.8928652958676
 31
0.0
 11
121.7463632552587
 21
217.1494525412479
 31
0.0
 11
122.0595246124804
 21
217.4009672649946
 31
0.0
 11
122.3925517316614
 21
217.6250881205878
 31
0.0
 11
122.7698800943797
 21
217.838323193403
 31
0.0
 11
123.1614477635731
 21
218.0237435483539
 31
0.0
 11
123.5907811153122
 21
218.1925196098009
 31
0.0
 11
124.0298702038126
 21
218.3336511724711
 31
0.0
 11
124.4977160942134
 21
218.4532736670222
 31
0.0
 11
124.9716481217122
 21
218.5455729876884
 31
0.0
 11
125.4635448284058
 21
218.6128963054617
 31
0.0
 11
125.9583643803882
 21
218.6531524938688
 31
0.0
 11
126.4592901941679
 21
218.6666388581661
 31
0.0
 11
126.9602160079475
 21
218.6531524938688
 31
0.0
 11
127.4550355599298
 21
218.6128963054616
 31
0.0
 11
127.9469322666234
 21
218.5455729876884
 31
0.0
 11
128.4208642941222
 21
218.4532736670223
 31
0.0
 11
128.888710184523
 21
218.3336511724711
 31
0.0
 11
129.3277992730235
 21
218.1925196098009
 31
0.0
 11
129.7571326247627
 21
218.0237435483539
 31
0.0
 11
130.1487002939562
 21
217.8383231934029
 31
0.0
 11
130.5260286566745
 21
217.6250881205878
 31
0.0
 11
130.8590557758553
 21
217.4009672649945
 31
0.0
 11
131.1722171330769
 21
217.1494525412479
 31
0.0
 11
131.4375542621819
 21
216.8928652958675
 31
0.0
 11
131.6760475587372
 21
216.6107236505218
 31
0.0
 11
131.8662832828429
 21
216.3281627913389
 31
0.0
 11
132.0217081494202
 21
216.0246390399432
 31
0.0
 11
132.1306629815646
 21
215.7228935190733
 31
0.0
 11
132.1976585232674
 21
215.4088794954602
 31
0.0
 11
132.2201495050693
 21
215.0959246438945
 31
0.0
 11
132.1976585232674
 21
214.7829697923288
 31
0.0
  0
SPLINE
  5
19A
330
5B
100
AcDbEntity
  8
1
  6
Continuous
 62
     7
100
AcDbSpline
210
0.0
220
0.0
230
1.0
 70
    11
 71
     3
 72
    79
 73
    75
 74
    73
 42
0.000000001
 43
0.0000000001
 44
0.00000001
 40
0.0
 40
0.0
 40
0.0
 40
0.0
 40
0.3210813056648151
 40
0.6418951396081531
 40
0.9828988891664574
 40
1.323531051596582
 40
1.692967055112446
 40
2.062075178394417
 40
2.463733854380097
 40
2.86515286248779
 40
3.29856477928861
 40
3.731815223729063
 40
4.193131260568867
 40
4.654344167617151
 40
5.137240966498988
 40
5.620077099452259
 40
6.116559525296424
 40
6.613013903592127
 40
7.114121230352306
 40
7.615228557112262
 40
8.111682935406838
 40
8.608165361247986
 40
9.09100149419469
 40
9.573898293063664
 40
10.0351112000904
 40
10.49642723689463
 40
10.92967768128255
 40
11.36308959800327
 40
11.76450860600185
 40
12.16616728182971
 40
12.5352754049046
 40
12.90471140812303
 40
13.24534357014036
 40
13.58634731899454
 40
13.90716115088654
 40
14.22824246386909
 40
14.54200444896845
 40
14.85576643406668
 40
15.17684774704585
 40
15.49766157893251
 40
15.83866532777953
 40
16.17929748978879
 40
16.54873349299784
 40
16.91784161606307
 40
17.31950029188055
 40
17.72091929986909
 40
18.15433121657948
 40
18.58758166095772
 40
19.04889769775232
 40
19.51011060477015
 40
19.9930074036306
 40
20.47584353656956
 40
20.97232596240352
 40
21.46878034069173
 40
21.96988766744619
 40
22.47099499420193
 40
22.96744937249437
 40
23.46393179833623
 40
23.94676793128834
 40
24.42966473016986
 40
24.89087763721874
 40
25.35219367405963
 40
25.78544411850127
 40
26.2188560353021
 40
26.62027504340745
 40
27.02193371938509
 40
27.39104184264878
 40
27.76047784612186
 40
28.10111000845239
 40
28.44211375771941
 40
28.76292759014603
 40
29.08400890392575
 40
29.3977708911676
 40
29.71153286919177
 40
29.71153286919177
 40
29.71153286919177
 40
29.71153286919177
 10
106.7209218650682
 20
214.7829697923288
 30
0.0
 10
106.7402017158174
 20
214.6775087092649
 30
0.0
 10
106.778745347885
 20
214.4666743940941
 30
0.0
 10
106.8937986600366
 20
214.1583347710347
 30
0.0
 10
107.046187125884
 20
213.8602466764788
 30
0.0
 10
107.2432637703401
 20
213.5695745921607
 30
0.0
 10
107.4764502801676
 20
213.2948090137334
 30
0.0
 10
107.7506187467153
 20
213.0307800684957
 30
0.0
 10
108.0561619467991
 20
212.7863960924202
 30
0.0
 10
108.3987795376918
 20
212.5565245180242
 30
0.0
 10
108.767475754458
 20
212.3489572657897
 30
0.0
 10
109.1680304965951
 20
212.1597403061416
 30
0.0
 10
109.5891349937441
 20
211.9947756909387
 30
0.0
 10
110.0354932997037
 20
211.8515916692763
 30
0.0
 10
110.4966891575361
 20
211.7340644423211
 30
0.0
 10
110.9753842538917
 20
211.6409806358116
 30
0.0
 10
111.4630515628886
 20
211.5744778372483
 30
0.0
 10
111.9596693686396
 20
211.5340922747912
 30
0.0
 10
112.459290184211
 20
211.5207487945891
 30
0.0
 10
112.9589109997981
 20
211.5340922747882
 30
0.0
 10
113.4555288055004
 20
211.5744778372456
 30
0.0
 10
113.9431961146682
 20
211.640980635769
 30
0.0
 10
114.4218912103946
 20
211.73406444234
 30
0.0
 10
114.8830870705159
 20
211.8515916689179
 30
0.0
 10
115.3294453682883
 20
211.994775691689
 30
0.0
 10
115.750549895077
 20
212.159740302523
 30
0.0
 10
116.1511045329997
 20
212.3489572770512
 30
0.0
 10
116.5198011241817
 20
212.5565244751743
 30
0.0
 10
116.8624174156536
 20
212.7863962365462
 30
0.0
 10
117.1679652592874
 20
213.0307795433917
 30
0.0
 10
117.442117724961
 20
213.2948107933912
 30
0.0
 10
117.6753613899397
 20
213.5695681375306
 30
0.0
 10
117.8722404234063
 20
213.8602686893541
 30
0.0
 10
118.0253399656217
 20
214.1582543440339
 30
0.0
 10
118.1378874361332
 20
214.4669549634126
 30
0.0
 10
118.2044389464979
 20
214.7795256005129
 30
0.0
 10
118.22791420319
 20
215.0959246435129
 30
0.0
 10
118.2044389465089
 20
215.4123236865125
 30
0.0
 10
118.1378874361551
 20
215.7248943236117
 30
0.0
 10
118.0253399656539
 20
216.0335949429888
 30
0.0
 10
117.8722404234486
 20
216.3315805976661
 30
0.0
 10
117.6753613899917
 20
216.6222811494861
 30
0.0
 10
117.4421177250221
 20
216.8970384936217
 30
0.0
 10
117.1679652593571
 20
217.1610697436159
 30
0.0
 10
116.8624174157312
 20
217.4054530504555
 30
0.0
 10
116.5198011242669
 20
217.6353248118201
 30
0.0
 10
116.1511045330916
 20
217.8428920099352
 30
0.0
 10
115.7505498951754
 20
218.0321089844539
 30
0.0
 10
115.3294453683926
 20
218.1970735952772
 30
0.0
 10
114.8830870706256
 20
218.3402576180359
 30
0.0
 10
114.4218912105094
 20
218.4577848445995
 30
0.0
 10
113.9431961147877
 20
218.5508686511543
 30
0.0
 10
113.4555288056246
 20
218.6173714496591
 30
0.0
 10
112.9589109999261
 20
218.6577570120956
 30
0.0
 10
112.4592901843469
 20
218.6711004922705
 30
0.0
 10
111.9596693687688
 20
218.6577570120433
 30
0.0
 10
111.463051563067
 20
218.6173714495494
 30
0.0
 10
110.9753842539165
 20
218.5508686509797
 30
0.0
 10
110.4966891581514
 20
218.4577848443374
 30
0.0
 10
110.0354932982004
 20
218.3402576176973
 30
0.0
 10
109.5891349998574
 20
218.1970735947307
 30
0.0
 10
109.1680304751865
 20
218.032108984058
 30
0.0
 10
108.7674758298884
 20
217.8428920082872
 30
0.0
 10
108.3987792653038
 20
217.6353248137766
 30
0.0
 10
108.0561628816577
 20
217.4054530388594
 30
0.0
 10
107.7506153676003
 20
217.1610697791796
 30
0.0
 10
107.4764617665106
 20
216.8970383652366
 30
0.0
 10
107.2432221575865
 20
216.6222816049895
 30
0.0
 10
107.0463291009713
 20
216.3315790324606
 30
0.0
 10
106.8932800197962
 20
216.0336006466874
 30
0.0
 10
106.7805547247123
 20
215.7248744088722
 30
0.0
 10
106.7146537795779
 20
215.4123974918742
 30
0.0
 10
106.6888022697496
 20
215.0956561232963
 30
0.0
 10
106.710215336465
 20
214.8871985685544
 30
0.0
 10
106.7209218650682
 20
214.7829697923288
 30
0.0
 11
106.7209218650682
 21
214.7829697923288
 31
0.0
 11
106.7879174067709
 21
214.4689557687157
 31
0.0
 11
106.8968722389153
 21
214.1672102478458
 31
0.0
 11
107.0522971054927
 21
213.8636864964502
 31
0.0
 11
107.2425328295984
 21
213.5811256372673
 31
0.0
 11
107.4810261261537
 21
213.2989839919215
 31
0.0
 11
107.7463632552587
 21
213.0423967465412
 31
0.0
 11
108.0595246124804
 21
212.7908820227945
 31
0.0
 11
108.3925517316614
 21
212.5667611672012
 31
0.0
 11
108.7698800943797
 21
212.353526094386
 31
0.0
 11
109.1614477635731
 21
212.1681057394351
 31
0.0
 11
109.5907811153122
 21
211.9993296779882
 31
0.0
 11
110.0298702038127
 21
211.8581981153179
 31
0.0
 11
110.4977160942135
 21
211.7385756207668
 31
0.0
 11
110.9716481217123
 21
211.6462763001007
 31
0.0
 11
111.4635448284059
 21
211.5789529823275
 31
0.0
 11
111.9583643803881
 21
211.5386967939204
 31
0.0
 11
112.4592901941677
 21
211.5252104296231
 31
0.0
 11
112.9602160079474
 21
211.5386967939204
 31
0.0
 11
113.4550355599298
 21
211.5789529823274
 31
0.0
 11
113.9469322666234
 21
211.6462763001007
 31
0.0
 11
114.4208642941222
 21
211.7385756207668
 31
0.0
 11
114.888710184523
 21
211.8581981153179
 31
0.0
 11
115.3277992730235
 21
211.9993296779881
 31
0.0
 11
115.7571326247627
 21
212.1681057394351
 31
0.0
 11
116.1487002939563
 21
212.353526094386
 31
0.0
 11
116.5260286566745
 21
212.5667611672012
 31
0.0
 11
116.8590557758553
 21
212.7908820227945
 31
0.0
 11
117.1722171330769
 21
213.0423967465412
 31
0.0
 11
117.4375542621819
 21
213.2989839919216
 31
0.0
 11
117.6760475587372
 21
213.5811256372673
 31
0.0
 11
117.8662832828429
 21
213.8636864964502
 31
0.0
 11
118.0217081494203
 21
214.1672102478458
 31
0.0
 11
118.1306629815647
 21
214.4689557687157
 31
0.0
 11
118.1976585232674
 21
214.7829697923288
 31
0.0
 11
118.2201495050693
 21
215.0959246438945
 31
0.0
 11
118.1976585232674
 21
215.4088794954602
 31
0.0
 11
118.1306629815647
 21
215.7228935190734
 31
0.0
 11
118.0217081494203
 21
216.0246390399432
 31
0.0
 11
117.8662832828429
 21
216.3281627913388
 31
0.0
 11
117.6760475587372
 21
216.6107236505218
 31
0.0
 11
117.4375542621819
 21
216.8928652958676
 31
0.0
 11
117.172217133077
 21
217.1494525412479
 31
0.0
 11
116.8590557758553
 21
217.4009672649946
 31
0.0
 11
116.5260286566745
 21
217.6250881205878
 31
0.0
 11
116.1487002939563
 21
217.838323193403
 31
0.0
 11
115.7571326247627
 21
218.0237435483539
 31
0.0
 11
115.3277992730235
 21
218.1925196098009
 31
0.0
 11
114.888710184523
 21
218.3336511724711
 31
0.0
 11
114.4208642941222
 21
218.4532736670222
 31
0.0
 11
113.9469322666234
 21
218.5455729876884
 31
0.0
 11
113.4550355599298
 21
218.6128963054617
 31
0.0
 11
112.9602160079475
 21
218.6531524938688
 31
0.0
 11
112.4592901941679
 21
218.6666388581661
 31
0.0
 11
111.9583643803882
 21
218.6531524938688
 31
0.0
 11
111.4635448284058
 21
218.6128963054616
 31
0.0
 11
110.9716481217122
 21
218.5455729876884
 31
0.0
 11
110.4977160942134
 21
218.4532736670223
 31
0.0
 11
110.0298702038126
 21
218.3336511724711
 31
0.0
 11
109.5907811153122
 21
218.1925196098009
 31
0.0
 11
109.1614477635731
 21
218.0237435483539
 31
0.0
 11
108.7698800943797
 21
217.8383231934029
 31
0.0
 11
108.3925517316614
 21
217.6250881205878
 31
0.0
 11
108.0595246124804
 21
217.4009672649945
 31
0.0
 11
107.7463632552587
 21
217.1494525412479
 31
0.0
 11
107.4810261261538
 21
216.8928652958675
 31
0.0
 11
107.2425328295985
 21
216.6107236505218
 31
0.0
 11
107.0522971054929
 21
216.3281627913389
 31
0.0
 11
106.8968722389156
 21
216.0246390399432
 31
0.0
 11
106.7879174067712
 21
215.7228935190733
 31
0.0
 11
106.7209218650683
 21
215.4088794954602
 31
0.0
 11
106.6984308832664
 21
215.0959246438945
 31
0.0
 11
106.7209218650682
 21
214.7829697923288
 31
0.0
  0
ARC
  5
19B
330
5B
100
AcDbEntity
  8
1
  6
Continuous
 62
     7
100
AcDbCircle
 10
131.0173112558986
 20
211.2383876793361
 30
0.0
 40
1.0
100
AcDbArc
 50
270.0
 51
285.337557669552
  0
ARC
  5
19C
330
5B
100
AcDbEntity
  8
1
  6
Continuous
 62
     7
100
AcDbCircle
 10
129.2272393865991
 20
210.2383876793361
 30
0.0
 40
1.0
100
AcDbArc
 50
270.0
 51
329.9999999999954
  0
ARC
  5
19D
330
5B
100
AcDbEntity
  8
1
  6
Continuous
 62
     7
100
AcDbCircle
 10
130.9592901941679
 20
209.2383876793361
 30
0.0
 40
1.0
100
AcDbArc
 50
90.0
 51
150.0000000000019
  0
ARC
  5
19E
330
5B
100
AcDbEntity
  8
1
  6
Continuous
 62
     7
100
AcDbCircle
 10
107.9012691324373
 20
211.2383876793361
 30
0.0
 40
1.000000000000025
100
AcDbArc
 50
254.6624423304425
 51
270.0
  0
ARC
  5
19F
330
5B
100
AcDbEntity
  8
1
  6
Continuous
 62
     7
100
AcDbCircle
 10
109.6913410017365
 20
210.2383876793361
 30
0.0
 40
0.9999999999998851
100
AcDbArc
 50
210.0000000000038
 51
270.0
  0
ARC
  5
1A0
330
5B
100
AcDbEntity
  8
1
  6
Continuous
 62
     7
100
AcDbCircle
 10
107.9592901941677
 20
209.2383876793361
 30
0.0
 40
1.000000000000045
100
AcDbArc
 50
29.99999999999851
 51
90.0
  0
ARC
  5
1A1
330
5B
100
AcDbEntity
  8
1
  6
Continuous
 62
     7
100
AcDbCircle
 10
378.033666221193
 20
211.2383876793361
 30
0.0
 40
1.0
100
AcDbArc
 50
270.0
 51
285.337557669574
  0
ARC
  5
1A2
330
5B
100
AcDbEntity
  8
1
  6
Continuous
 62
     7
100
AcDbCircle
 10
376.2435943518938
 20
210.2383876793361
 30
0.0
 40
1.0
100
AcDbArc
 50
270.0
 51
329.9999999999962
  0
ARC
  5
1A3
330
5B
100
AcDbEntity
  8
1
  6
Continuous
 62
     7
100
AcDbCircle
 10
377.9756451594626
 20
209.2383876793361
 30
0.0
 40
1.0
100
AcDbArc
 50
90.0
 51
150.0000000000011
  0
ARC
  5
1A4
330
5B
100
AcDbEntity
  8
1
  6
Continuous
 62
     7
100
AcDbCircle
 10
354.917624097732
 20
211.2383876793361
 30
0.0
 40
0.9999999999999688
100
AcDbArc
 50
254.6624423304542
 51
270.0
  0
ARC
  5
1A5
330
5B
100
AcDbEntity
  8
1
  6
Continuous
 62
     7
100
AcDbCircle
 10
356.7076959670314
 20
210.2383876793361
 30
0.0
 40
0.9999999999999344
100
AcDbArc
 50
210.0000000000022
 51
270.0
  0
ARC
  5
1A6
330
5B
100
AcDbEntity
  8
1
  6
Continuous
 62
     7
100
AcDbCircle
 10
354.9756451594626
 20
209.2383876793361
 30
0.0
 40
0.9999999999999836
100
AcDbArc
 50
30.00000000000054
 51
90.0
  0
ENDBLK
  5
5D
330
5B
100
AcDbEntity
  8
0
100
AcDbBlockEnd
  0
BLOCK
  5
5F
330
5E
100
AcDbEntity
  8
0
100
AcDbBlockBegin
  2
60-1-16-170
 70
     0
 10
190.3094111540487
 20
113.3722898493423
 30
0.0
  3
60-1-16-170
  1

  0
LINE
  5
1A7
330
5E
100
AcDbEntity
  8
1
  6
Continuous
 62
     7
100
AcDbLine
 10
339.4756451594626
 20
168.7383876793361
 30
0.0
 11
223.4738457550519
 21
168.7383876793361
 31
0.0
  0
LINE
  5
1A8
330
5E
100
AcDbEntity
  8
1
  6
Continuous
 62
     7
100
AcDbLine
 10
204.4738457550519
 20
148.7383876793361
 30
0.0
 11
204.4738457550519
 21
149.7383876793361
 31
0.0
  0
LINE
  5
1A9
330
5E
100
AcDbEntity
  8
1
  6
Continuous
 62
     7
100
AcDbLine
 10
188.4738457550519
 20
148.7383876793361
 30
0.0
 11
188.4738457550519
 21
149.7383876793361
 31
0.0
  0
LINE
  5
1AA
330
5E
100
AcDbEntity
  8
1
  6
Continuous
 62
     7
100
AcDbLine
 10
374.4756451594626
 20
209.2383876793361
 30
0.0
 11
374.4756451594626
 21
203.7383876793361
 31
0.0
  0
LINE
  5
1AB
330
5E
100
AcDbEntity
  8
1
  6
Continuous
 62
     7
100
AcDbLine
 10
358.4756451594626
 20
203.7383876793361
 30
0.0
 11
358.4756451594626
 21
209.2383876793361
 31
0.0
  0
LINE
  5
1AC
330
5E
100
AcDbEntity
  8
1
  6
Continuous
 62
     7
100
AcDbLine
 10
339.4756451594626
 20
184.7383876793361
 30
0.0
 11
223.4738457550519
 21
184.7383876793361
 31
0.0
  0
LINE
  5
1AD
330
5E
100
AcDbEntity
  8
1
  6
Continuous
 62
     7
100
AcDbLine
 10
204.4738457550519
 20
148.7383876793361
 30
0.0
 11
188.4738457550519
 21
148.7383876793361
 31
0.0
  0
LINE
  5
1AE
330
5E
100
AcDbEntity
  8
1
  6
Continuous
 62
     7
100
AcDbLine
 10
189.0874387490658
 20
143.7383876793361
 30
0.0
 11
203.8602527610381
 21
143.7383876793361
 31
0.0
  0
LINE
  5
1AF
330
5E
100
AcDbEntity
  8
1
  6
Continuous
 62
     7
100
AcDbLine
 10
127.4592901941679
 20
513.0177958469296
 30
0.0
 11
127.4592901941679
 21
354.5630018263113
 31
0.0
  0
LINE
  5
1B0
330
5E
100
AcDbEntity
  8
1
  6
Continuous
 62
     7
100
AcDbLine
 10
111.4592901941679
 20
513.0177958469296
 30
0.0
 11
111.4592901941679
 21
354.5630018263113
 31
0.0
  0
LINE
  5
1B1
330
5E
100
AcDbEntity
  8
1
  6
DASH_CENTER
 62
     2
100
AcDbLine
 10
130.8335123880299
 20
354.5630018263113
 30
0.0
 11
108.481338981947
 21
354.5630018263113
 31
0.0
  0
LINE
  5
1B2
330
5E
100
AcDbEntity
  8
1
  6
Continuous
 62
     7
100
AcDbLine
 10
127.4592901941678
 20
148.7383876793361
 30
0.0
 11
111.4592901941678
 21
148.7383876793361
 31
0.0
  0
LINE
  5
1B3
330
5E
100
AcDbEntity
  8
1
  6
Continuous
 62
     7
100
AcDbLine
 10
112.0728831881818
 20
143.7383876793361
 30
0.0
 11
126.8456972001538
 21
143.7383876793361
 31
0.0
  0
LINE
  5
1B4
330
5E
100
AcDbEntity
  8
1
  6
Continuous
 62
     7
100
AcDbLine
 10
127.4592901941678
 20
148.7383876793361
 30
0.0
 11
127.4592901941678
 21
209.2383876793361
 31
0.0
  0
LINE
  5
1B5
330
5E
100
AcDbEntity
  8
1
  6
Continuous
 62
     7
100
AcDbLine
 10
111.4592901941678
 20
148.7383876793361
 30
0.0
 11
111.4592901941678
 21
209.2383876793361
 31
0.0
  0
ARC
  5
1B6
330
5E
100
AcDbEntity
  8
1
  6
Continuous
 62
     7
100
AcDbCircle
 10
201.2638194603336
 20
146.5946679721138
 30
0.0
 40
3.86002629471821
100
AcDbArc
 50
0.0
 51
33.73579100002762
  0
ARC
  5
1B7
330
5E
100
AcDbEntity
  8
1
  6
Continuous
 62
     7
100
AcDbCircle
 10
191.68387204977
 20
146.5946679721138
 30
0.0
 40
3.860026294718296
100
AcDbArc
 50
180.0
 51
227.7283445035828
  0
ARC
  5
1B8
330
5E
100
AcDbEntity
  8
1
  6
Continuous
 62
     7
100
AcDbCircle
 10
191.68387204977
 20
146.5946679721138
 30
0.0
 40
3.860026294718067
100
AcDbArc
 50
146.2642089999705
 51
180.0
  0
ARC
  5
1B9
330
5E
100
AcDbEntity
  8
1
  6
Continuous
 62
     7
100
AcDbCircle
 10
201.2638194603336
 20
146.5946679721138
 30
0.0
 40
3.860026294718408
100
AcDbArc
 50
312.2716554964206
 51
0.0
  0
ARC
  5
1BA
330
5E
100
AcDbEntity
  8
1
  6
Continuous
 62
     7
100
AcDbCircle
 10
223.4738457550519
 20
149.7383876793361
 30
0.0
 40
19.0
100
AcDbArc
 50
90.0
 51
180.0
  0
ARC
  5
1BB
330
5E
100
AcDbEntity
  8
1
  6
Continuous
 62
     7
100
AcDbCircle
 10
223.4738457550519
 20
149.7383876793361
 30
0.0
 40
35.0
100
AcDbArc
 50
90.0
 51
180.0
  0
ARC
  5
1BC
330
5E
100
AcDbEntity
  8
1
  6
Continuous
 62
     7
100
AcDbCircle
 10
339.4756451594626
 20
203.7383876793361
 30
0.0
 40
19.0
100
AcDbArc
 50
270.0
 51
0.0
  0
ARC
  5
1BD
330
5E
100
AcDbEntity
  8
1
  6
Continuous
 62
     7
100
AcDbCircle
 10
339.4756451594626
 20
203.7383876793361
 30
0.0
 40
35.0
100
AcDbArc
 50
270.0
 51
0.0
  0
ARC
  5
1BE
330
5E
100
AcDbEntity
  8
1
  6
Continuous
 62
     7
100
AcDbCircle
 10
119.4592901941679
 20
354.5630018263113
 30
0.0
 40
8.0
100
AcDbArc
 50
180.0
 51
0.0
  0
ARC
  5
1BF
330
5E
100
AcDbEntity
  8
1
  6
Continuous
 62
     7
100
AcDbCircle
 10
119.4592901941679
 20
354.5630018263113
 30
0.0
 40
8.650000000000091
100
AcDbArc
 50
270.0
 51
22.35342559933306
  0
ARC
  5
1C0
330
5E
100
AcDbEntity
  8
1
  6
Continuous
 62
     7
100
AcDbCircle
 10
119.4592901941679
 20
354.5630018263113
 30
0.0
 40
8.650000000000114
100
AcDbArc
 50
157.6465744006669
 51
270.0
  0
ARC
  5
1C1
330
5E
100
AcDbEntity
  8
1
  6
Continuous
 62
     7
100
AcDbCircle
 10
124.2492638994495
 20
146.5946679721138
 30
0.0
 40
3.86002629471831
100
AcDbArc
 50
0.0
 51
33.73579100002773
  0
ARC
  5
1C2
330
5E
100
AcDbEntity
  8
1
  6
Continuous
 62
     7
100
AcDbCircle
 10
114.6693164888859
 20
146.5946679721138
 30
0.0
 40
3.860026294718196
100
AcDbArc
 50
180.0
 51
227.7283445035841
  0
ARC
  5
1C3
330
5E
100
AcDbEntity
  8
1
  6
Continuous
 62
     7
100
AcDbCircle
 10
114.6693164888859
 20
146.5946679721138
 30
0.0
 40
3.860026294718067
100
AcDbArc
 50
146.2642089999705
 51
180.0
  0
ARC
  5
1C4
330
5E
100
AcDbEntity
  8
1
  6
Continuous
 62
     7
100
AcDbCircle
 10
124.2492638994495
 20
146.5946679721138
 30
0.0
 40
3.860026294718256
100
AcDbArc
 50
312.2716554964181
 51
0.0
  0
ARC
  5
1C5
330
5E
100
AcDbEntity
  8
1
  6
Continuous
 62
     7
100
AcDbCircle
 10
119.4592901941678
 20
176.7383876793361
 30
0.0
 40
8.0
100
AcDbArc
 50
0.0
 51
180.0
  0
ENDBLK
  5
60
330
5E
100
AcDbEntity
  8
0
100
AcDbBlockEnd
  0
BLOCK
  5
64
330
61
100
AcDbEntity
  8
0
100
AcDbBlockBegin
  2
60-1X-16-170
 70
     0
 10
149.8238457550516
 20
141.5903427597141
 30
0.0
  3
60-1X-16-170
  1

  0
INSERT
  5
62
330
61
100
AcDbEntity
  8
1
100
AcDbBlockReference
  2
32-1-16
 10
69.9299053237937
 20
418.7242198094451
 30
0.0
 41
1.0
 42
1.0
 43
1.0
  0
INSERT
  5
63
330
61
100
AcDbEntity
  8
0
100
AcDbBlockReference
  2
60-1-16-170
 10
190.3094111540487
 20
113.3722898493423
 30
0.0
 41
1.0
 42
1.0
 43
1.0
  0
ENDBLK
  5
65
330
61
100
AcDbEntity
  8
0
100
AcDbBlockEnd
  0
BLOCK
  5
67
330
66
100
AcDbEntity
  8
0
100
AcDbBlockBegin
  2
A90-0A-13-M1
 70
     0
 10
401.4756451594626
 20
238.2383876793361
 30
0.0
  3
A90-0A-13-M1
  1

  0
LINE
  5
1C6
330
66
100
AcDbEntity
  8
1
  6
Continuous
 62
     7
100
AcDbLine
 10
132.459290194168
 20
222.5983327346959
 30
0.0
 11
131.4804844769869
 21
226.0241527448289
 31
0.0
  0
LINE
  5
1C7
330
66
100
AcDbEntity
  8
1
  6
Continuous
 62
     2
100
AcDbLine
 10
131.4592901941679
 20
220.7383876793361
 30
0.0
 11
132.4592901941679
 21
222.4704384869049
 31
0.0
  0
LINE
  5
1C8
330
66
100
AcDbEntity
  8
1
  6
Continuous
 62
     7
100
AcDbLine
 10
132.4592901941679
 20
222.4704384869049
 30
0.0
 11
132.4592901941679
 21
219.2383876793361
 31
0.0
  0
LINE
  5
1C9
330
66
100
AcDbEntity
  8
1
  6
Continuous
 62
     2
100
AcDbLine
 10
131.4592901941679
 20
220.7383876793361
 30
0.0
 11
131.4592901941679
 21
219.2383876793361
 31
0.0
  0
LINE
  5
1CA
330
66
100
AcDbEntity
  8
1
  6
Continuous
 62
     7
100
AcDbLine
 10
132.459290194168
 20
222.5983327346959
 30
0.0
 11
132.4592901941679
 21
222.4704384869049
 31
0.0
  0
LINE
  5
1CB
330
66
100
AcDbEntity
  8
1
  6
Continuous
 62
     7
100
AcDbLine
 10
106.4592995243369
 20
238.2228125610586
 30
0.0
 11
107.1667129945189
 21
260.5063368717674
 31
0.0
  0
LINE
  5
1CC
330
66
100
AcDbEntity
  8
1
  6
Continuous
 62
     7
100
AcDbLine
 10
131.4592901941677
 20
260.5063368717674
 30
0.0
 11
107.4592901941677
 21
260.5063368717674
 31
0.0
  0
LINE
  5
1CD
330
66
100
AcDbEntity
  8
1
  6
Continuous
 62
     7
100
AcDbLine
 10
131.4592901941677
 20
262.2383876793361
 30
0.0
 11
107.4592901941679
 21
262.2383876793361
 31
0.0
  0
LINE
  5
1CE
330
66
100
AcDbEntity
  8
1
  6
Continuous
 62
     7
100
AcDbLine
 10
132.4592901941679
 20
220.7383876793361
 30
0.0
 11
106.4592901941678
 21
220.7383876793361
 31
0.0
  0
LINE
  5
1CF
330
66
100
AcDbEntity
  8
1
  6
Continuous
 62
     7
100
AcDbLine
 10
107.4380959113488
 20
226.0241527448289
 30
0.0
 11
106.4592901941678
 21
222.5983327346959
 31
0.0
  0
LINE
  5
1D0
330
66
100
AcDbEntity
  8
1
  6
Continuous
 62
     7
100
AcDbLine
 10
131.7518673938171
 20
260.5063368717674
 30
0.0
 11
132.4592808639987
 21
238.2228125610586
 31
0.0
  0
LINE
  5
1D1
330
66
100
AcDbEntity
  8
1
  6
Continuous
 62
     2
100
AcDbLine
 10
130.4592901941677
 20
263.7383876793361
 30
0.0
 11
130.4592901941677
 21
262.2383876793361
 31
0.0
  0
LINE
  5
1D2
330
66
100
AcDbEntity
  8
1
  6
Continuous
 62
     2
100
AcDbLine
 10
106.4592901941677
 20
222.4704384869049
 30
0.0
 11
107.4592901941677
 21
220.7383876793361
 31
0.0
  0
LINE
  5
1D3
330
66
100
AcDbEntity
  8
1
  6
Continuous
 62
     7
100
AcDbLine
 10
106.4592901941677
 20
219.2383876793361
 30
0.0
 11
106.4592901941677
 21
222.4704384869049
 31
0.0
  0
LINE
  5
1D4
330
66
100
AcDbEntity
  8
1
  6
Continuous
 62
     2
100
AcDbLine
 10
107.4592901941677
 20
219.2383876793361
 30
0.0
 11
107.4592901941677
 21
220.7383876793361
 31
0.0
  0
LINE
  5
1D5
330
66
100
AcDbEntity
  8
1
  6
Continuous
 62
     7
100
AcDbLine
 10
107.1667129945189
 20
260.5063368717674
 30
0.0
 11
107.4592901941677
 21
260.5063368717674
 31
0.0
  0
LINE
  5
1D6
330
66
100
AcDbEntity
  8
1
  6
Continuous
 62
     7
100
AcDbLine
 10
131.4592901941677
 20
260.5063368717674
 30
0.0
 11
131.7518673938171
 21
260.5063368717674
 31
0.0
  0
LINE
  5
1D7
330
66
100
AcDbEntity
  8
1
  6
Continuous
 62
     2
100
AcDbLine
 10
130.4592901941677
 20
262.2383876793361
 30
0.0
 11
131.4592901941677
 21
260.5063368717674
 31
0.0
  0
LINE
  5
1D8
330
66
100
AcDbEntity
  8
1
  6
Continuous
 62
     7
100
AcDbLine
 10
131.4592901941677
 20
260.5063368717674
 30
0.0
 11
131.4592901941677
 21
263.7383876793361
 31
0.0
  0
LINE
  5
1D9
330
66
100
AcDbEntity
  8
1
  6
Continuous
 62
     2
100
AcDbLine
 10
107.4592901941677
 20
260.5063368717674
 30
0.0
 11
108.4592901941677
 21
262.2383876793361
 31
0.0
  0
LINE
  5
1DA
330
66
100
AcDbEntity
  8
1
  6
Continuous
 62
     2
100
AcDbLine
 10
108.4592901941677
 20
262.2383876793361
 30
0.0
 11
108.4592901941679
 21
263.7383876793361
 31
0.0
  0
LINE
  5
1DB
330
66
100
AcDbEntity
  8
1
  6
Continuous
 62
     7
100
AcDbLine
 10
107.4592901941677
 20
263.7383876793361
 30
0.0
 11
107.4592901941677
 21
260.5063368717674
 31
0.0
  0
LINE
  5
1DC
330
66
100
AcDbEntity
  8
1
  6
Continuous
 62
     7
100
AcDbLine
 10
106.4592901941677
 20
222.4704384869049
 30
0.0
 11
106.4592901941678
 21
222.5983327346959
 31
0.0
  0
LINE
  5
1DD
330
66
100
AcDbEntity
  8
1
  6
Continuous
 62
     7
100
AcDbLine
 10
96.92006064630402
 20
602.0285378096846
 30
0.0
 11
141.9985197420318
 21
602.0285378096846
 31
0.0
  0
LINE
  5
1DE
330
66
100
AcDbEntity
  8
1
  6
Continuous
 62
     7
100
AcDbLine
 10
129.9592901941679
 20
617.5648012307222
 30
0.0
 11
108.9592901941679
 21
617.5648012307222
 31
0.0
  0
LINE
  5
1DF
330
66
100
AcDbEntity
  8
1
  6
Continuous
 62
     7
100
AcDbLine
 10
108.9592901941679
 20
606.296852038291
 30
0.0
 11
129.9592901941679
 21
606.296852038291
 31
0.0
  0
LINE
  5
1E0
330
66
100
AcDbEntity
  8
1
  6
Continuous
 62
     7
100
AcDbLine
 10
128.2092901941679
 20
526.5648012307222
 30
0.0
 11
128.2092901941679
 21
535.545277921547
 31
0.0
  0
LINE
  5
1E1
330
66
100
AcDbEntity
  8
1
  6
Continuous
 62
     7
100
AcDbLine
 10
110.7092901941679
 20
526.5648012307222
 30
0.0
 11
110.7092901941679
 21
535.545277921547
 31
0.0
  0
LINE
  5
1E2
330
66
100
AcDbEntity
  8
1
  6
Continuous
 62
     7
100
AcDbLine
 10
109.9592901941679
 20
618.5648012307222
 30
0.0
 11
128.9592901941679
 21
618.5648012307222
 31
0.0
  0
LINE
  5
1E3
330
66
100
AcDbEntity
  8
1
  6
Continuous
 62
     7
100
AcDbLine
 10
129.9592901941679
 20
617.5648012307222
 30
0.0
 11
128.9592901941679
 21
618.5648012307222
 31
0.0
  0
LINE
  5
1E4
330
66
100
AcDbEntity
  8
1
  6
Continuous
 62
     7
100
AcDbLine
 10
129.9592901941679
 20
617.5648012307222
 30
0.0
 11
129.9592901941679
 21
604.5648012307222
 31
0.0
  0
LINE
  5
1E5
330
66
100
AcDbEntity
  8
1
  6
Continuous
 62
     7
100
AcDbLine
 10
109.9592901941679
 20
618.5648012307222
 30
0.0
 11
108.9592901941679
 21
617.5648012307222
 31
0.0
  0
LINE
  5
1E6
330
66
100
AcDbEntity
  8
1
  6
Continuous
 62
     7
100
AcDbLine
 10
108.9592901941679
 20
604.5648012307222
 30
0.0
 11
108.9592901941679
 21
617.5648012307222
 31
0.0
  0
LINE
  5
1E7
330
66
100
AcDbEntity
  8
1
  6
Continuous
 62
     7
100
AcDbLine
 10
110.7092901941679
 20
598.0285378096846
 30
0.0
 11
110.7092901941679
 21
583.5843245398971
 31
0.0
  0
LINE
  5
1E8
330
66
100
AcDbEntity
  8
1
  6
Continuous
 62
     2
100
AcDbLine
 10
109.9592901941679
 20
606.296852038291
 30
0.0
 11
109.9592901941679
 21
618.5648012307222
 31
0.0
  0
LINE
  5
1E9
330
66
100
AcDbEntity
  8
1
  6
Continuous
 62
     2
100
AcDbLine
 10
108.9592901941679
 20
604.5648012307222
 30
0.0
 11
109.9592901941679
 21
606.296852038291
 31
0.0
  0
LINE
  5
1EA
330
66
100
AcDbEntity
  8
1
  6
Continuous
 62
     7
100
AcDbLine
 10
96.45929019416792
 20
604.5648012307222
 30
0.0
 11
96.45929019416792
 21
602.5269964765512
 31
0.0
  0
LINE
  5
1EB
330
66
100
AcDbEntity
  8
1
  6
Continuous
 62
     7
100
AcDbLine
 10
128.2092901941679
 20
598.0285378096846
 30
0.0
 11
128.2092901941679
 21
583.5843245398971
 31
0.0
  0
LINE
  5
1EC
330
66
100
AcDbEntity
  8
1
  6
Continuous
 62
     7
100
AcDbLine
 10
142.4592901941679
 20
602.5269964765512
 30
0.0
 11
142.4592901941679
 21
604.5648012307222
 31
0.0
  0
LINE
  5
1ED
330
66
100
AcDbEntity
  8
1
  6
Continuous
 62
     7
100
AcDbLine
 10
142.4592901941679
 20
604.5648012307222
 30
0.0
 11
96.45929019416792
 21
604.5648012307222
 31
0.0
  0
LINE
  5
1EE
330
66
100
AcDbEntity
  8
1
  6
Continuous
 62
     2
100
AcDbLine
 10
128.9592901941679
 20
606.296852038291
 30
0.0
 11
129.9592901941679
 21
604.5648012307222
 31
0.0
  0
LINE
  5
1EF
330
66
100
AcDbEntity
  8
1
  6
Continuous
 62
     2
100
AcDbLine
 10
128.9592901941679
 20
606.296852038291
 30
0.0
 11
128.9592901941679
 21
618.5648012307222
 31
0.0
  0
LINE
  5
1F0
330
66
100
AcDbEntity
  8
1
  6
PHANTOM
 62
     4
100
AcDbLine
 10
136.4592901941679
 20
559.5648012307222
 30
0.0
 11
102.4592901941679
 21
559.5648012307222
 31
0.0
  0
LINE
  5
1F1
330
66
100
AcDbEntity
  8
1
  6
Continuous
 62
     7
100
AcDbLine
 10
459.4756451594625
 20
248.7383876793361
 30
0.0
 11
459.4756451594625
 21
227.7383876793361
 31
0.0
  0
LINE
  5
1F2
330
66
100
AcDbEntity
  8
1
  6
Continuous
 62
     7
100
AcDbLine
 10
443.9756451594625
 20
250.9883876793361
 30
0.0
 11
443.9756451594625
 21
225.4883876793361
 31
0.0
  0
LINE
  5
1F3
330
66
100
AcDbEntity
  8
1
  6
Continuous
 62
     7
100
AcDbLine
 10
446.4756451594625
 20
227.7383876793361
 30
0.0
 11
446.4756451594625
 21
248.7383876793361
 31
0.0
  0
LINE
  5
1F4
330
66
100
AcDbEntity
  8
1
  6
Continuous
 62
     7
100
AcDbLine
 10
448.2076959670317
 20
248.7383876793361
 30
0.0
 11
448.2076959670317
 21
227.7383876793361
 31
0.0
  0
LINE
  5
1F5
330
66
100
AcDbEntity
  8
1
  6
Continuous
 62
     7
100
AcDbLine
 10
413.4756451594625
 20
260.5063368717674
 30
0.0
 11
389.4756451594624
 21
260.5063368717674
 31
0.0
  0
LINE
  5
1F6
330
66
100
AcDbEntity
  8
1
  6
Continuous
 62
     7
100
AcDbLine
 10
413.4756451594625
 20
262.2383876793361
 30
0.0
 11
389.4756451594626
 21
262.2383876793361
 31
0.0
  0
LINE
  5
1F7
330
66
100
AcDbEntity
  8
1
  6
Continuous
 62
     7
100
AcDbLine
 10
379.4756451594626
 20
220.7383876793361
 30
0.0
 11
353.4756451594624
 21
220.7383876793361
 31
0.0
  0
LINE
  5
1F8
330
66
100
AcDbEntity
  8
1
  6
Continuous
 62
     7
100
AcDbLine
 10
389.0212889321974
 20
255.4102975018478
 30
0.0
 11
389.1830679598146
 21
260.5063368717674
 31
0.0
  0
LINE
  5
1F9
330
66
100
AcDbEntity
  8
1
  6
Continuous
 62
     7
100
AcDbLine
 10
354.4544508766435
 20
226.0241527448289
 30
0.0
 11
353.4756451594624
 21
222.5983327346959
 31
0.0
  0
LINE
  5
1FA
330
66
100
AcDbEntity
  8
1
  6
Continuous
 62
     7
100
AcDbLine
 10
439.9756451594625
 20
246.9883876793361
 30
0.0
 11
423.6553092687316
 21
246.9883876793363
 31
0.0
  0
LINE
  5
1FB
330
66
100
AcDbEntity
  8
1
  6
Continuous
 62
     7
100
AcDbLine
 10
413.7682223591116
 20
260.5063368717674
 30
0.0
 11
413.9203203516527
 21
255.7152501067293
 31
0.0
  0
LINE
  5
1FC
330
66
100
AcDbEntity
  8
1
  6
Continuous
 62
     7
100
AcDbLine
 10
423.6553092687307
 20
229.4883876793359
 30
0.0
 11
439.9756451594625
 21
229.4883876793361
 31
0.0
  0
LINE
  5
1FD
330
66
100
AcDbEntity
  8
1
  6
Continuous
 62
     7
100
AcDbLine
 10
383.0433365682957
 20
229.7383876793361
 30
0.0
 11
382.2171190494895
 21
229.7383876793361
 31
0.0
  0
LINE
  5
1FE
330
66
100
AcDbEntity
  8
1
  6
Continuous
 62
     7
100
AcDbLine
 10
378.4567919765834
 20
226.1643188747739
 30
0.0
 11
379.4756451594624
 21
222.5983327346959
 31
0.0
  0
LINE
  5
1FF
330
66
100
AcDbEntity
  8
1
  6
Continuous
 62
     2
100
AcDbLine
 10
412.4756451594624
 20
263.7383876793361
 30
0.0
 11
412.4756451594624
 21
262.2383876793361
 31
0.0
  0
LINE
  5
200
330
66
100
AcDbEntity
  8
1
  6
Continuous
 62
     7
100
AcDbLine
 10
459.4756451594625
 20
227.7383876793361
 30
0.0
 11
446.4756451594625
 21
227.7383876793361
 31
0.0
  0
LINE
  5
201
330
66
100
AcDbEntity
  8
1
  6
Continuous
 62
     2
100
AcDbLine
 10
448.2076959670317
 20
228.7383876793361
 30
0.0
 11
446.4756451594625
 21
227.7383876793361
 31
0.0
  0
LINE
  5
202
330
66
100
AcDbEntity
  8
1
  6
Continuous
 62
     2
100
AcDbLine
 10
460.4756451594626
 20
228.7383876793361
 30
0.0
 11
448.2076959670317
 21
228.7383876793361
 31
0.0
  0
LINE
  5
203
330
66
100
AcDbEntity
  8
1
  6
Continuous
 62
     7
100
AcDbLine
 10
459.4756451594625
 20
227.7383876793361
 30
0.0
 11
460.4756451594626
 21
228.7383876793361
 31
0.0
  0
LINE
  5
204
330
66
100
AcDbEntity
  8
1
  6
Continuous
 62
     7
100
AcDbLine
 10
443.9756451594625
 20
225.4883876793361
 30
0.0
 11
443.9756451594626
 21
215.7383876793361
 31
0.0
  0
LINE
  5
205
330
66
100
AcDbEntity
  8
1
  6
Continuous
 62
     7
100
AcDbLine
 10
446.4756451594626
 20
215.2383876793361
 30
0.0
 11
444.4756451594625
 21
215.2383876793361
 31
0.0
  0
LINE
  5
206
330
66
100
AcDbEntity
  8
1
  6
Continuous
 62
     7
100
AcDbLine
 10
446.4756451594625
 20
227.7383876793361
 30
0.0
 11
446.4756451594626
 21
215.2383876793361
 31
0.0
  0
LINE
  5
207
330
66
100
AcDbEntity
  8
1
  6
Continuous
 62
     2
100
AcDbLine
 10
448.2076959670317
 20
247.7383876793361
 30
0.0
 11
460.4756451594625
 21
247.7383876793361
 31
0.0
  0
LINE
  5
208
330
66
100
AcDbEntity
  8
1
  6
Continuous
 62
     7
100
AcDbLine
 10
446.4756451594625
 20
248.7383876793361
 30
0.0
 11
459.4756451594625
 21
248.7383876793361
 31
0.0
  0
LINE
  5
209
330
66
100
AcDbEntity
  8
1
  6
Continuous
 62
     7
100
AcDbLine
 10
460.4756451594625
 20
247.7383876793361
 30
0.0
 11
459.4756451594625
 21
248.7383876793361
 31
0.0
  0
LINE
  5
20A
330
66
100
AcDbEntity
  8
1
  6
Continuous
 62
     2
100
AcDbLine
 10
446.4756451594625
 20
248.7383876793361
 30
0.0
 11
448.2076959670317
 21
247.7383876793361
 31
0.0
  0
LINE
  5
20B
330
66
100
AcDbEntity
  8
1
  6
Continuous
 62
     7
100
AcDbLine
 10
446.4756451594626
 20
261.2383876793361
 30
0.0
 11
446.4756451594625
 21
248.7383876793361
 31
0.0
  0
LINE
  5
20C
330
66
100
AcDbEntity
  8
1
  6
Continuous
 62
     7
100
AcDbLine
 10
446.4756451594626
 20
261.2383876793361
 30
0.0
 11
444.4756451594625
 21
261.2383876793361
 31
0.0
  0
LINE
  5
20D
330
66
100
AcDbEntity
  8
1
  6
Continuous
 62
     7
100
AcDbLine
 10
443.9756451594625
 20
250.9883876793361
 30
0.0
 11
443.9756451594625
 21
260.7383876793361
 31
0.0
  0
LINE
  5
20E
330
66
100
AcDbEntity
  8
1
  6
Continuous
 62
     7
100
AcDbLine
 10
379.4756451594624
 20
222.5983327346959
 30
0.0
 11
379.4756451594624
 21
219.2383876793361
 31
0.0
  0
LINE
  5
20F
330
66
100
AcDbEntity
  8
1
  6
Continuous
 62
     2
100
AcDbLine
 10
353.4756451594624
 20
222.4704384869049
 30
0.0
 11
354.4756451594624
 21
220.7383876793361
 31
0.0
  0
LINE
  5
210
330
66
100
AcDbEntity
  8
1
  6
Continuous
 62
     7
100
AcDbLine
 10
353.4756451594624
 20
219.2383876793361
 30
0.0
 11
353.4756451594624
 21
222.4704384869049
 31
0.0
  0
LINE
  5
211
330
66
100
AcDbEntity
  8
1
  6
Continuous
 62
     2
100
AcDbLine
 10
378.4756451594624
 20
220.7383876793361
 30
0.0
 11
379.4756451594624
 21
222.470438486905
 31
0.0
  0
LINE
  5
212
330
66
100
AcDbEntity
  8
1
  6
Continuous
 62
     2
100
AcDbLine
 10
378.4756451594624
 20
220.7383876793361
 30
0.0
 11
378.4756451594624
 21
219.2383876793361
 31
0.0
  0
LINE
  5
213
330
66
100
AcDbEntity
  8
1
  6
Continuous
 62
     2
100
AcDbLine
 10
354.4756451594624
 20
219.2383876793361
 30
0.0
 11
354.4756451594624
 21
220.7383876793361
 31
0.0
  0
LINE
  5
214
330
66
100
AcDbEntity
  8
1
  6
Continuous
 62
     7
100
AcDbLine
 10
389.1830679598146
 20
260.5063368717674
 30
0.0
 11
389.4756451594624
 21
260.5063368717674
 31
0.0
  0
LINE
  5
215
330
66
100
AcDbEntity
  8
1
  6
Continuous
 62
     7
100
AcDbLine
 10
413.4756451594625
 20
260.5063368717674
 30
0.0
 11
413.7682223591116
 21
260.5063368717674
 31
0.0
  0
LINE
  5
216
330
66
100
AcDbEntity
  8
1
  6
Continuous
 62
     2
100
AcDbLine
 10
412.4756451594624
 20
262.2383876793361
 30
0.0
 11
413.4756451594625
 21
260.5063368717674
 31
0.0
  0
LINE
  5
217
330
66
100
AcDbEntity
  8
1
  6
Continuous
 62
     7
100
AcDbLine
 10
413.4756451594625
 20
260.5063368717674
 30
0.0
 11
413.4756451594625
 21
263.7383876793361
 31
0.0
  0
LINE
  5
218
330
66
100
AcDbEntity
  8
1
  6
Continuous
 62
     2
100
AcDbLine
 10
389.4756451594624
 20
260.5063368717674
 30
0.0
 11
390.4756451594624
 21
262.2383876793361
 31
0.0
  0
LINE
  5
219
330
66
100
AcDbEntity
  8
1
  6
Continuous
 62
     2
100
AcDbLine
 10
390.4756451594624
 20
262.2383876793361
 30
0.0
 11
390.4756451594626
 21
263.7383876793361
 31
0.0
  0
LINE
  5
21A
330
66
100
AcDbEntity
  8
1
  6
Continuous
 62
     7
100
AcDbLine
 10
389.4756451594624
 20
263.7383876793361
 30
0.0
 11
389.4756451594624
 21
260.5063368717674
 31
0.0
  0
LINE
  5
21B
330
66
100
AcDbEntity
  8
1
  6
Continuous
 62
     7
100
AcDbLine
 10
353.4756451594624
 20
222.4704384869049
 30
0.0
 11
353.4756451594624
 21
222.5983327346959
 31
0.0
  0
LINE
  5
21C
330
66
100
AcDbEntity
  8
1
  6
Continuous
 62
     7
100
AcDbLine
 10
460.4756451594626
 20
228.7383876793361
 30
0.0
 11
460.4756451594625
 21
247.7383876793361
 31
0.0
  0
ARC
  5
21D
330
66
100
AcDbEntity
  8
1
  6
Continuous
 62
     7
100
AcDbCircle
 10
119.4592901941679
 20
238.2383876793361
 30
0.0
 40
23.00000000000001
100
AcDbArc
 50
122.5778011728607
 51
235.582611289558
  0
ARC
  5
21E
330
66
100
AcDbEntity
  8
1
  6
Continuous
 62
     7
100
AcDbCircle
 10
119.4592901941679
 20
238.2383876793361
 30
0.0
 40
22.99999999999999
100
AcDbArc
 50
0.0
 51
57.42219882713893
  0
ARC
  5
21F
330
66
100
AcDbEntity
  8
1
  6
Continuous
 62
     7
100
AcDbCircle
 10
119.4592901941679
 20
238.2383876793361
 30
0.0
 40
23.00000000000002
100
AcDbArc
 50
304.4173887104415
 51
0.0
  0
ARC
  5
220
330
66
100
AcDbEntity
  8
1
  6
Continuous
 62
     7
100
AcDbCircle
 10
119.4592901941679
 20
524.5648012307222
 30
0.0
 40
12.9999999999999
100
AcDbArc
 50
132.3049897071832
 51
249.8299689900539
  0
ARC
  5
221
330
66
100
AcDbEntity
  8
1
  6
Continuous
 62
     7
100
AcDbCircle
 10
146.4592901941679
 20
559.5648012307222
 30
0.0
 40
39.99999999999987
100
AcDbArc
 50
159.931945379181
 51
168.8814414053017
  0
ARC
  5
222
330
66
100
AcDbEntity
  8
1
  6
Continuous
 62
     7
100
AcDbCircle
 10
92.45929019416792
 20
559.5648012307222
 30
0.0
 40
40.00000000000011
100
AcDbArc
 50
339.9319453791808
 51
348.7845600273497
  0
ARC
  5
223
330
66
100
AcDbEntity
  8
1
  6
Continuous
 62
     7
100
AcDbCircle
 10
92.45929019416792
 20
559.5648012307222
 30
0.0
 40
39.99999999999997
100
AcDbArc
 50
11.21543997265001
 51
20.06805462081891
  0
ARC
  5
224
330
66
100
AcDbEntity
  8
1
  6
Continuous
 62
     7
100
AcDbCircle
 10
119.4592901941679
 20
238.2383876793361
 30
0.0
 40
8.35199593590594
100
AcDbArc
 50
0.19057502307755
 51
90.0
  0
ARC
  5
225
330
66
100
AcDbEntity
  8
1
  6
Continuous
 62
     7
100
AcDbCircle
 10
119.4592901941679
 20
238.2383876793361
 30
0.0
 40
8.351995935906075
100
AcDbArc
 50
90.0
 51
179.8094249769225
  0
ARC
  5
226
330
66
100
AcDbEntity
  8
1
  6
Continuous
 62
     7
100
AcDbCircle
 10
119.4592901941679
 20
238.2383876793361
 30
0.0
 40
13.0000000000001
100
AcDbArc
 50
180.0686452889392
 51
214.3100927933895
  0
ARC
  5
227
330
66
100
AcDbEntity
  8
1
  6
Continuous
 62
     7
100
AcDbCircle
 10
107.7548596201756
 20
222.4054892962711
 30
0.0
 40
24.00000000000147
100
AcDbArc
 50
8.67199482596345
 51
27.87011739414499
  0
ARC
  5
228
330
66
100
AcDbEntity
  8
1
  6
Continuous
 62
     7
100
AcDbCircle
 10
119.4592901941679
 20
238.2383876793361
 30
0.0
 40
13.0
100
AcDbArc
 50
180.0
 51
180.0686452889392
  0
ARC
  5
229
330
66
100
AcDbEntity
  8
1
  6
Continuous
 62
     7
100
AcDbCircle
 10
119.4592901941679
 20
238.2383876793361
 30
0.0
 40
13.00000000000004
100
AcDbArc
 50
325.6899072066108
 51
359.9313547110607
  0
ARC
  5
22A
330
66
100
AcDbEntity
  8
1
  6
Continuous
 62
     7
100
AcDbCircle
 10
131.16372076816
 20
222.4054892962711
 30
0.0
 40
24.00000000000137
100
AcDbArc
 50
152.1298826058547
 51
171.3280051740365
  0
ARC
  5
22B
330
66
100
AcDbEntity
  8
1
  6
Continuous
 62
     7
100
AcDbCircle
 10
132.2092901941679
 20
598.0285378096846
 30
0.0
 40
4.0
100
AcDbArc
 50
90.0
 51
180.0
  0
ARC
  5
22C
330
66
100
AcDbEntity
  8
1
  6
Continuous
 62
     7
100
AcDbCircle
 10
106.7092901941679
 20
598.0285378096846
 30
0.0
 40
4.0
100
AcDbArc
 50
0.0
 51
90.0
  0
ARC
  5
22D
330
66
100
AcDbEntity
  8
1
  6
Continuous
 62
     7
100
AcDbCircle
 10
146.4592901941679
 20
559.5648012307222
 30
0.0
 40
39.99999999999997
100
AcDbArc
 50
191.21543997265
 51
200.0680546208193
  0
ARC
  5
22E
330
66
100
AcDbEntity
  8
1
  6
Continuous
 62
     7
100
AcDbCircle
 10
119.4592901941679
 20
524.5648012307222
 30
0.0
 40
12.99999999999984
100
AcDbArc
 50
290.170031009948
 51
47.69501029281679
  0
ARC
  5
22F
330
66
100
AcDbEntity
  8
1
  6
Continuous
 62
     7
100
AcDbCircle
 10
401.4756451594624
 20
254.238387679336
 30
0.0
 40
28.9999999999999
100
AcDbArc
 50
242.5607598493188
 51
291.694716022386
  0
ARC
  5
230
330
66
100
AcDbEntity
  8
1
  6
Continuous
 62
     7
100
AcDbCircle
 10
382.4346797838837
 20
225.7443086457124
 30
0.0
 40
3.999999999997829
100
AcDbArc
 50
93.1178665175751
 51
173.9726861048982
  0
ARC
  5
231
330
66
100
AcDbEntity
  8
1
  6
Continuous
 62
     7
100
AcDbCircle
 10
439.9756451594625
 20
225.4883876793361
 30
0.0
 40
4.0
100
AcDbArc
 50
0.0
 51
90.0
  0
ARC
  5
232
330
66
100
AcDbEntity
  8
1
  6
Continuous
 62
     7
100
AcDbCircle
 10
439.9756451594625
 20
250.9883876793361
 30
0.0
 40
4.0
100
AcDbArc
 50
270.0
 51
0.0
  0
ARC
  5
233
330
66
100
AcDbEntity
  8
1
  6
Continuous
 62
     7
100
AcDbCircle
 10
378.1800757334548
 20
222.4054892962711
 30
0.0
 40
24.00000000000223
100
AcDbArc
 50
99.36066212030313
 51
171.3280051740366
  0
ARC
  5
234
330
66
100
AcDbEntity
  8
1
  6
Continuous
 62
     7
100
AcDbCircle
 10
382.2462899211238
 20
197.7383876788767
 30
0.0
 40
49.00000000045973
100
AcDbArc
 50
92.19404509977879
 51
99.36066212030437
  0
ARC
  5
235
330
66
100
AcDbEntity
  8
1
  6
Continuous
 62
     7
100
AcDbCircle
 10
380.0258206545358
 20
255.695867923362
 30
0.0
 40
9.000000000003753
100
AcDbArc
 50
272.1940450997746
 51
358.181697035541
  0
ARC
  5
236
330
66
100
AcDbEntity
  8
1
  6
Continuous
 62
     7
100
AcDbCircle
 10
137.81118461288
 20
238.2994292714017
 30
0.0
 40
10.00000000000027
100
AcDbArc
 50
180.1905750230771
 51
207.8701173941449
  0
ARC
  5
237
330
66
100
AcDbEntity
  8
1
  6
Continuous
 62
     7
100
AcDbCircle
 10
101.107395775456
 20
238.2994292714017
 30
0.0
 40
10.00000000000006
100
AcDbArc
 50
332.1298826058548
 51
359.8094249769229
  0
ARC
  5
238
330
66
100
AcDbEntity
  8
1
  6
Continuous
 62
     7
100
AcDbCircle
 10
158.2092901941679
 20
583.5843245398971
 30
0.0
 40
30.0
100
AcDbArc
 50
180.0
 51
200.0680546208195
  0
ARC
  5
239
330
66
100
AcDbEntity
  8
1
  6
Continuous
 62
     7
100
AcDbCircle
 10
130.2092901941679
 20
526.5648012307222
 30
0.0
 40
2.0
100
AcDbArc
 50
180.0
 51
270.0
  0
ARC
  5
23A
330
66
100
AcDbEntity
  8
1
  6
Continuous
 62
     7
100
AcDbCircle
 10
108.7092901941679
 20
526.5648012307222
 30
0.0
 40
2.0
100
AcDbArc
 50
270.0
 51
0.0
  0
ARC
  5
23B
330
66
100
AcDbEntity
  8
1
  6
Continuous
 62
     7
100
AcDbCircle
 10
80.70929019416792
 20
583.5843245398971
 30
0.0
 40
30.00000000000008
100
AcDbArc
 50
339.9319453791807
 51
0.0
  0
ARC
  5
23C
330
66
100
AcDbEntity
  8
1
  6
Continuous
 62
     7
100
AcDbCircle
 10
80.70929019416792
 20
535.545277921547
 30
0.0
 40
29.99999999999999
100
AcDbArc
 50
0.0
 51
20.06805462081934
  0
ARC
  5
23D
330
66
100
AcDbEntity
  8
1
  6
Continuous
 62
     7
100
AcDbCircle
 10
158.2092901941679
 20
535.545277921547
 30
0.0
 40
29.99999999999992
100
AcDbArc
 50
159.9319453791806
 51
180.0
  0
ARC
  5
23E
330
66
100
AcDbEntity
  8
1
  6
Continuous
 62
     7
100
AcDbCircle
 10
96.95929019416792
 20
602.5269964765512
 30
0.0
 40
0.5
100
AcDbArc
 50
180.0
 51
265.5000000000028
  0
ARC
  5
23F
330
66
100
AcDbEntity
  8
1
  6
Continuous
 62
     7
100
AcDbCircle
 10
141.9592901941679
 20
602.5269964765512
 30
0.0
 40
0.4999999999999883
100
AcDbArc
 50
274.4999999999972
 51
0.0
  0
ARC
  5
240
330
66
100
AcDbEntity
  8
1
  6
Continuous
 62
     7
100
AcDbCircle
 10
423.6553092687316
 20
277.9883876793363
 30
0.0
 40
31.00000000000002
100
AcDbArc
 50
268.0736638597934
 51
270.0
  0
ARC
  5
241
330
66
100
AcDbEntity
  8
1
  6
Continuous
 62
     7
100
AcDbCircle
 10
422.9157886293097
 20
256.0008205282423
 30
0.0
 40
8.999999999998678
100
AcDbArc
 50
181.8183029644523
 51
268.0736638597957
  0
ARC
  5
242
330
66
100
AcDbEntity
  8
1
  6
Continuous
 62
     7
100
AcDbCircle
 10
423.6553092687316
 20
198.4883876793359
 30
0.0
 40
31.0
100
AcDbArc
 50
90.00000000000168
 51
111.6947160223879
  0
ARC
  5
243
330
66
100
AcDbEntity
  8
1
  6
Continuous
 62
     7
100
AcDbCircle
 10
383.0433365682957
 20
218.7383876793361
 30
0.0
 40
10.99999999999998
100
AcDbArc
 50
62.56075984931903
 51
90.0
  0
ARC
  5
244
330
66
100
AcDbEntity
  8
1
  6
Continuous
 62
     7
100
AcDbCircle
 10
444.4756451594625
 20
215.7383876793361
 30
0.0
 40
0.4999999999998863
100
AcDbArc
 50
180.0
 51
270.0
  0
ARC
  5
245
330
66
100
AcDbEntity
  8
1
  6
Continuous
 62
     7
100
AcDbCircle
 10
444.4756451594625
 20
260.7383876793361
 30
0.0
 40
0.5
100
AcDbArc
 50
90.0
 51
180.0
  0
ENDBLK
  5
68
330
66
100
AcDbEntity
  8
0
100
AcDbBlockEnd
  0
BLOCK
  5
26B
330
264
100
AcDbEntity
  8
0
100
AcDbBlockBegin
  2
*D11
 70
     1
 10
0.0
 20
0.0
 30
0.0
  3
*D11
  1

  0
LINE
  5
265
330
264
100
AcDbEntity
  8
1
  6
Continuous
 62
     2
100
AcDbLine
 10
326.4756451594629
 20
353.438387679336
 30
0.0
 11
401.4756451594623
 21
353.438387679336
 31
0.0
  0
LINE
  5
266
330
264
100
AcDbEntity
  8
1
  6
Continuous
 62
     2
100
AcDbLine
 10
326.4756451594629
 20
314.438387679336
 30
0.0
 11
326.4756451594629
 21
355.938387679336
 31
0.0
  0
LINE
  5
267
330
264
100
AcDbEntity
  8
1
  6
Continuous
 62
     2
100
AcDbLine
 10
401.4756451594623
 20
311.7383876793357
 30
0.0
 11
401.4756451594623
 21
355.938387679336
 31
0.0
  0
SOLID
  5
268
330
264
100
AcDbEntity
  8
1
 62
     2
100
AcDbTrace
 10
335.2256451594629
 20
354.5903470332257
 30
0.0
 11
335.2256451594629
 21
352.2864283254463
 31
0.0
 12
326.4756451594629
 22
353.438387679336
 32
0.0
 13
326.4756451594629
 23
353.438387679336
 33
0.0
  0
SOLID
  5
269
330
264
100
AcDbEntity
  8
1
 62
     2
100
AcDbTrace
 10
392.7256451594623
 20
352.2864283254463
 30
0.0
 11
392.7256451594623
 21
354.5903470332257
 31
0.0
 12
401.4756451594623
 22
353.438387679336
 32
0.0
 13
401.4756451594623
 23
353.438387679336
 33
0.0
  0
MTEXT
  5
26A
330
264
100
AcDbEntity
  8
1
 62
     7
100
AcDbMText
 10
357.4131451594627
 20
355.938387679336
 30
0.0
 40
8.75
 41
0.0
 71
     7
 72
     1
  1
75
  7
CONVERTER_12
 11
0.9999999999970619
 21
2.424068405545306E-6
 31
0.0
 73
     1
 44
0.60024009603842
  0
ENDBLK
  5
26C
330
264
100
AcDbEntity
  8
0
100
AcDbBlockEnd
  0
BLOCK
  5
278
330
26F
100
AcDbEntity
  8
0
100
AcDbBlockBegin
  2
*D12
 70
     1
 10
0.0
 20
0.0
 30
0.0
  3
*D12
  1

  0
LINE
  5
270
330
26F
100
AcDbEntity
  8
1
  6
Continuous
 62
     2
100
AcDbLine
 10
460.4756451594626
 20
118.7383876793361
 30
0.0
 11
477.9756451594626
 21
118.7383876793361
 31
0.0
  0
LINE
  5
271
330
26F
100
AcDbEntity
  8
1
  6
Continuous
 62
     2
100
AcDbLine
 10
446.4756451594626
 20
118.7383876793361
 30
0.0
 11
460.4756451594626
 21
118.7383876793361
 31
0.0
  0
LINE
  5
272
330
26F
100
AcDbEntity
  8
1
  6
Continuous
 62
     2
100
AcDbLine
 10
428.9756451594626
 20
118.7383876793361
 30
0.0
 11
446.4756451594626
 21
118.7383876793361
 31
0.0
  0
LINE
  5
273
330
26F
100
AcDbEntity
  8
1
  6
Continuous
 62
     2
100
AcDbLine
 10
446.4756451594626
 20
215.2383876793361
 30
0.0
 11
446.4756451594626
 21
116.2383876793361
 31
0.0
  0
LINE
  5
274
330
26F
100
AcDbEntity
  8
1
  6
Continuous
 62
     2
100
AcDbLine
 10
460.4756451594626
 20
228.7383876793361
 30
0.0
 11
460.4756451594626
 21
116.2383876793361
 31
0.0
  0
SOLID
  5
275
330
26F
100
AcDbEntity
  8
1
 62
     2
100
AcDbTrace
 10
437.7256451594626
 20
117.5864283254464
 30
0.0
 11
437.7256451594626
 21
119.8903470332258
 31
0.0
 12
446.4756451594626
 22
118.7383876793361
 32
0.0
 13
446.4756451594626
 23
118.7383876793361
 33
0.0
  0
SOLID
  5
276
330
26F
100
AcDbEntity
  8
1
 62
     2
100
AcDbTrace
 10
469.2256451594626
 20
119.8903470332258
 30
0.0
 11
469.2256451594626
 21
117.5864283254464
 31
0.0
 12
460.4756451594626
 22
118.7383876793361
 32
0.0
 13
460.4756451594626
 23
118.7383876793361
 33
0.0
  0
MTEXT
  5
277
330
26F
100
AcDbEntity
  8
1
 62
     7
100
AcDbMText
 10
448.329793950621
 20
121.2383876793361
 30
0.0
 40
8.75
 41
0.0
 71
     7
 72
     1
  1
14
  7
CONVERTER_12
 11
0.9999999999970619
 21
2.424068405545306E-6
 31
0.0
 73
     1
 44
0.60024009603842
  0
ENDBLK
  5
279
330
26F
100
AcDbEntity
  8
0
100
AcDbBlockEnd
  0
BLOCK
  5
283
330
27C
100
AcDbEntity
  8
0
100
AcDbBlockBegin
  2
*D13
 70
     1
 10
0.0
 20
0.0
 30
0.0
  3
*D13
  1

  0
LINE
  5
27D
330
27C
100
AcDbEntity
  8
1
  6
Continuous
 62
     2
100
AcDbLine
 10
446.4756451594625
 20
118.7383876793361
 30
0.0
 11
401.4756451594625
 21
118.7383876793361
 31
0.0
  0
LINE
  5
27E
330
27C
100
AcDbEntity
  8
1
  6
Continuous
 62
     2
100
AcDbLine
 10
446.4756451594625
 20
215.2383876793361
 30
0.0
 11
446.4756451594625
 21
116.2383876793361
 31
0.0
  0
LINE
  5
27F
330
27C
100
AcDbEntity
  8
1
  6
Continuous
 62
     2
100
AcDbLine
 10
401.4756451594625
 20
222.5871027293721
 30
0.0
 11
401.4756451594625
 21
116.2383876793361
 31
0.0
  0
SOLID
  5
280
330
27C
100
AcDbEntity
  8
1
 62
     2
100
AcDbTrace
 10
437.7256451594625
 20
117.5864283254464
 30
0.0
 11
437.7256451594625
 21
119.8903470332258
 31
0.0
 12
446.4756451594625
 22
118.7383876793361
 32
0.0
 13
446.4756451594625
 23
118.7383876793361
 33
0.0
  0
SOLID
  5
281
330
27C
100
AcDbEntity
  8
1
 62
     2
100
AcDbTrace
 10
410.2256451594625
 20
119.8903470332258
 30
0.0
 11
410.2256451594625
 21
117.5864283254464
 31
0.0
 12
401.4756451594625
 22
118.7383876793361
 32
0.0
 13
401.4756451594625
 23
118.7383876793361
 33
0.0
  0
MTEXT
  5
282
330
27C
100
AcDbEntity
  8
1
 62
     7
100
AcDbMText
 10
417.2670606224801
 20
121.2383876793361
 30
0.0
 40
8.75
 41
0.0
 71
     7
 72
     1
  1
45
  7
CONVERTER_12
 11
0.9999999999970619
 21
2.424068405545306E-6
 31
0.0
 73
     1
 44
0.60024009603842
  0
ENDBLK
  5
284
330
27C
100
AcDbEntity
  8
0
100
AcDbBlockEnd
  0
BLOCK
  5
28E
330
287
100
AcDbEntity
  8
0
100
AcDbBlockBegin
  2
*D14
 70
     1
 10
0.0
 20
0.0
 30
0.0
  3
*D14
  1

  0
LINE
  5
288
330
287
100
AcDbEntity
  8
1
  6
Continuous
 62
     2
100
AcDbLine
 10
366.4756451594626
 20
118.7383876793361
 30
0.0
 11
401.4756451594626
 21
118.7383876793361
 31
0.0
  0
LINE
  5
289
330
287
100
AcDbEntity
  8
1
  6
Continuous
 62
     2
100
AcDbLine
 10
401.4756451594626
 20
222.5871027293721
 30
0.0
 11
401.4756451594626
 21
116.2383876793361
 31
0.0
  0
LINE
  5
28A
330
287
100
AcDbEntity
  8
1
  6
Continuous
 62
     2
100
AcDbLine
 10
366.4756451594626
 20
203.7383876793361
 30
0.0
 11
366.4756451594626
 21
116.2383876793361
 31
0.0
  0
SOLID
  5
28B
330
287
100
AcDbEntity
  8
1
 62
     2
100
AcDbTrace
 10
375.2256451594626
 20
119.8903470332258
 30
0.0
 11
375.2256451594626
 21
117.5864283254464
 31
0.0
 12
366.4756451594626
 22
118.7383876793361
 32
0.0
 13
366.4756451594626
 23
118.7383876793361
 33
0.0
  0
SOLID
  5
28C
330
287
100
AcDbEntity
  8
1
 62
     2
100
AcDbTrace
 10
392.7256451594626
 20
117.5864283254464
 30
0.0
 11
392.7256451594626
 21
119.8903470332258
 31
0.0
 12
401.4756451594626
 22
118.7383876793361
 32
0.0
 13
401.4756451594626
 23
118.7383876793361
 33
0.0
  0
MTEXT
  5
28D
330
287
100
AcDbEntity
  8
1
 62
     7
100
AcDbMText
 10
377.4293956184561
 20
121.2383876793361
 30
0.0
 40
8.75
 41
0.0
 71
     7
 72
     1
  1
35
  7
CONVERTER_12
 11
0.9999999999970619
 21
2.424068405545306E-6
 31
0.0
 73
     1
 44
0.60024009603842
  0
ENDBLK
  5
28F
330
287
100
AcDbEntity
  8
0
100
AcDbBlockEnd
  0
BLOCK
  5
299
330
292
100
AcDbEntity
  8
0
100
AcDbBlockBegin
  2
*D15
 70
     1
 10
0.0
 20
0.0
 30
0.0
  3
*D15
  1

  0
LINE
  5
293
330
292
100
AcDbEntity
  8
1
  6
Continuous
 62
     2
100
AcDbLine
 10
196.473845755052
 20
118.7383876793361
 30
0.0
 11
366.4756451594627
 21
118.7383876793361
 31
0.0
  0
LINE
  5
294
330
292
100
AcDbEntity
  8
1
  6
Continuous
 62
     2
100
AcDbLine
 10
366.4756451594627
 20
204.7383876793361
 30
0.0
 11
366.4756451594627
 21
116.2383876793361
 31
0.0
  0
LINE
  5
295
330
292
100
AcDbEntity
  8
1
  6
Continuous
 62
     2
100
AcDbLine
 10
196.473845755052
 20
140.590342759714
 30
0.0
 11
196.473845755052
 21
116.2383876793361
 31
0.0
  0
SOLID
  5
296
330
292
100
AcDbEntity
  8
1
 62
     2
100
AcDbTrace
 10
205.223845755052
 20
119.8903470332258
 30
0.0
 11
205.223845755052
 21
117.5864283254464
 31
0.0
 12
196.473845755052
 22
118.7383876793361
 32
0.0
 13
196.473845755052
 23
118.7383876793361
 33
0.0
  0
SOLID
  5
297
330
292
100
AcDbEntity
  8
1
 62
     2
100
AcDbTrace
 10
357.7256451594627
 20
117.5864283254464
 30
0.0
 11
357.7256451594627
 21
119.8903470332258
 31
0.0
 12
366.4756451594627
 22
118.7383876793361
 32
0.0
 13
366.4756451594627
 23
118.7383876793361
 33
0.0
  0
MTEXT
  5
298
330
292
100
AcDbEntity
  8
1
 62
     7
100
AcDbMText
 10
269.7919914228251
 20
121.2383876793361
 30
0.0
 40
8.75
 41
0.0
 71
     7
 72
     1
  1
170
  7
CONVERTER_12
 11
0.9999999999970619
 21
2.424068405545306E-6
 31
0.0
 73
     1
 44
0.60024009603842
  0
ENDBLK
  5
29A
330
292
100
AcDbEntity
  8
0
100
AcDbBlockEnd
  0
BLOCK
  5
2A4
330
29D
100
AcDbEntity
  8
0
100
AcDbBlockBegin
  2
*D16
 70
     1
 10
0.0
 20
0.0
 30
0.0
  3
*D16
  1

  0
LINE
  5
29E
330
29D
100
AcDbEntity
  8
1
  6
Continuous
 62
     2
100
AcDbLine
 10
162.8238457550517
 20
143.7383876793361
 30
0.0
 11
162.8238457550517
 21
238.2383876793361
 31
0.0
  0
LINE
  5
29F
330
29D
100
AcDbEntity
  8
1
  6
Continuous
 62
     2
100
AcDbLine
 10
189.0874387490658
 20
143.7383876793361
 30
0.0
 11
160.3238457550517
 21
143.7383876793361
 31
0.0
  0
LINE
  5
2A0
330
29D
100
AcDbEntity
  8
1
  6
Continuous
 62
     2
100
AcDbLine
 10
351.6803788872733
 20
238.2383876793361
 30
0.0
 11
160.3238457550517
 21
238.2383876793361
 31
0.0
  0
SOLID
  5
2A1
330
29D
100
AcDbEntity
  8
1
 62
     2
100
AcDbTrace
 10
161.671886401162
 20
152.4883876793361
 30
0.0
 11
163.9758051089414
 21
152.4883876793361
 31
0.0
 12
162.8238457550517
 22
143.7383876793361
 32
0.0
 13
162.8238457550517
 23
143.7383876793361
 33
0.0
  0
SOLID
  5
2A2
330
29D
100
AcDbEntity
  8
1
 62
     2
100
AcDbTrace
 10
163.9758051089414
 20
229.4883876793361
 30
0.0
 11
161.671886401162
 21
229.4883876793361
 31
0.0
 12
162.8238457550517
 22
238.2383876793361
 32
0.0
 13
162.8238457550517
 23
238.2383876793361
 33
0.0
  0
MTEXT
  5
2A3
330
29D
100
AcDbEntity
  8
1
 62
     7
100
AcDbMText
 10
160.3238457550517
 20
184.4258876793361
 30
0.0
 40
8.75
 41
0.0
 71
     7
 72
     1
  1
95
  7
CONVERTER_12
 11
0.0
 21
1.0
 31
0.0
 73
     1
 44
0.60024009603842
  0
ENDBLK
  5
2A5
330
29D
100
AcDbEntity
  8
0
100
AcDbBlockEnd
  0
BLOCK
  5
2AF
330
2A8
100
AcDbEntity
  8
0
100
AcDbBlockBegin
  2
*D17
 70
     1
 10
0.0
 20
0.0
 30
0.0
  3
*D17
  1

  0
LINE
  5
2A9
330
2A8
100
AcDbEntity
  8
1
  6
Continuous
 62
     2
100
AcDbLine
 10
162.8238457550517
 20
328.4383876793361
 30
0.0
 11
162.8238457550517
 21
238.2383876793362
 31
0.0
  0
LINE
  5
2AA
330
2A8
100
AcDbEntity
  8
1
  6
Continuous
 62
     2
100
AcDbLine
 10
351.6803788872733
 20
238.2383876793362
 30
0.0
 11
160.3238457550517
 21
238.2383876793362
 31
0.0
  0
LINE
  5
2AB
330
2A8
100
AcDbEntity
  8
1
  6
Continuous
 62
     2
100
AcDbLine
 10
340.4756451594629
 20
328.4383876793361
 30
0.0
 11
160.3238457550517
 21
328.4383876793361
 31
0.0
  0
SOLID
  5
2AC
330
2A8
100
AcDbEntity
  8
1
 62
     2
100
AcDbTrace
 10
163.9758051089414
 20
319.6883876793361
 30
0.0
 11
161.671886401162
 21
319.6883876793361
 31
0.0
 12
162.8238457550517
 22
328.4383876793361
 32
0.0
 13
162.8238457550517
 23
328.4383876793361
 33
0.0
  0
SOLID
  5
2AD
330
2A8
100
AcDbEntity
  8
1
 62
     2
100
AcDbTrace
 10
161.671886401162
 20
246.9883876793362
 30
0.0
 11
163.9758051089414
 21
246.9883876793362
 31
0.0
 12
162.8238457550517
 22
238.2383876793362
 32
0.0
 13
162.8238457550517
 23
238.2383876793362
 33
0.0
  0
MTEXT
  5
2AE
330
2A8
100
AcDbEntity
  8
1
 62
     7
100
AcDbMText
 10
160.3238457550517
 20
259.7133876793362
 30
0.0
 40
8.75
 41
0.0
 71
     7
 72
     1
  1
90リフト3
  7
CONVERTER_11
 11
0.0
 21
1.0
 31
0.0
 73
     1
 44
0.45454545454545
  0
ENDBLK
  5
2B0
330
2A8
100
AcDbEntity
  8
0
100
AcDbBlockEnd
  0
BLOCK
  5
2BA
330
2B3
100
AcDbEntity
  8
0
100
AcDbBlockBegin
  2
*D18
 70
     1
 10
0.0
 20
0.0
 30
0.0
  3
*D18
  1

  0
LINE
  5
2B4
330
2B3
100
AcDbEntity
  8
1
  6
Continuous
 62
     2
100
AcDbLine
 10
485.4756451594625
 20
261.2383876793361
 30
0.0
 11
485.4756451594625
 21
215.2383876793361
 31
0.0
  0
LINE
  5
2B5
330
2B3
100
AcDbEntity
  8
1
  6
Continuous
 62
     2
100
AcDbLine
 10
446.4756451594625
 20
261.2383876793361
 30
0.0
 11
487.9756451594625
 21
261.2383876793361
 31
0.0
  0
LINE
  5
2B6
330
2B3
100
AcDbEntity
  8
1
  6
Continuous
 62
     2
100
AcDbLine
 10
446.4756451594625
 20
215.2383876793361
 30
0.0
 11
487.9756451594625
 21
215.2383876793361
 31
0.0
  0
SOLID
  5
2B7
330
2B3
100
AcDbEntity
  8
1
 62
     2
100
AcDbTrace
 10
486.6276045133522
 20
252.4883876793361
 30
0.0
 11
484.3236858055728
 21
252.4883876793361
 31
0.0
 12
485.4756451594625
 22
261.2383876793361
 32
0.0
 13
485.4756451594625
 23
261.2383876793361
 33
0.0
  0
SOLID
  5
2B8
330
2B3
100
AcDbEntity
  8
1
 62
     2
100
AcDbTrace
 10
484.3236858055728
 20
223.9883876793361
 30
0.0
 11
486.6276045133522
 21
223.9883876793361
 31
0.0
 12
485.4756451594625
 22
215.2383876793361
 32
0.0
 13
485.4756451594625
 23
215.2383876793361
 33
0.0
  0
MTEXT
  5
2B9
330
2B3
100
AcDbEntity
  8
1
 62
     7
100
AcDbMText
 10
482.9756451594625
 20
229.7508876793361
 30
0.0
 40
8.75
 41
0.0
 71
     7
 72
     1
  1
\C7;{\Fgdt;n}\C7;46
  7
CONVERTER_12
 11
0.0
 21
1.0
 31
0.0
 73
     1
 44
0.60024009603842
  0
ENDBLK
  5
2BB
330
2B3
100
AcDbEntity
  8
0
100
AcDbBlockEnd
  0
ENDSEC
  0
SECTION
  2
ENTITIES
  0
INSERT
  5
69
330
1F
100
AcDbEntity
  8
1
100
AcDbBlockReference
  2
U360S-13
 10
489.8403318129679
 20
572.7428428916229
 30
0.0
 41
1.0
 42
1.0
 43
1.0
  0
INSERT
  5
6A
330
1F
100
AcDbEntity
  8
1
100
AcDbBlockReference
  2
27-2A-M1
 10
668.8403318129677
 20
474.835792414527
 30
0.0
 41
1.0
 42
1.0
 43
1.0
  0
INSERT
  5
6B
330
1F
100
AcDbEntity
  8
1
100
AcDbBlockReference
  2
42-29
 10
878.3105577300438
 20
1214.998812728349
 30
0.0
 41
1.0
 42
1.0
 43
1.0
  0
INSERT
  5
6C
330
1F
100
AcDbEntity
  8
1
100
AcDbBlockReference
  2
開示A4
 10
0.0
 20
0.0
 30
0.0
 41
2.5
 42
2.5
 43
2.5
  0
INSERT
  5
6D
330
1F
100
AcDbEntity
  8
1
100
AcDbBlockReference
  2
60-1X-16-170
 10
149.8238457550516
 20
141.5903427597141
 30
0.0
 41
1.0
 42
1.0
 43
1.0
  0
INSERT
  5
6E
330
1F
100
AcDbEntity
  8
1
100
AcDbBlockReference
  2
A90-0A-13-M1
 10
401.4756451594625
 20
238.2383876793361
 30
0.0
 41
1.0
 42
1.0
 43
1.0
  0
LINE
  5
246
330
1F
100
AcDbEntity
  8
0
  6
DASH_CENTER
 62
     2
100
AcDbLine
 10
142.4592901941679
 20
238.2383876793361
 30
0.0
 11
145.4592901941679
 21
238.2383876793361
 31
0.0
  0
LINE
  5
247
330
1F
100
AcDbEntity
  8
0
  6
DASH_CENTER
 62
     2
100
AcDbLine
 10
93.45929019416792
 20
238.2383876793361
 30
0.0
 11
142.4592901941679
 21
238.2383876793361
 31
0.0
  0
LINE
  5
248
330
1F
100
AcDbEntity
  8
1
  6
DASH_CENTER
 62
     2
100
AcDbLine
 10
135.4592901941679
 20
524.5648012307222
 30
0.0
 11
103.4592901941679
 21
524.5648012307222
 31
0.0
  0
LINE
  5
249
330
1F
100
AcDbEntity
  8
1
  6
DASH_CENTER
 62
     2
100
AcDbLine
 10
136.8111019221781
 20
559.5648012307224
 30
0.0
 11
102.4592901941679
 21
559.5648012307224
 31
0.0
  0
LINE
  5
24A
330
1F
100
AcDbEntity
  8
1
  6
DASH_CENTER
 62
     2
100
AcDbLine
 10
125.4592901941679
 20
498.5648012307224
 30
0.0
 11
113.4592901941679
 21
498.5648012307224
 31
0.0
  0
LINE
  5
24B
330
1F
100
AcDbEntity
  8
1
  6
DASH_CENTER
 62
     2
100
AcDbLine
 10
112.4592901941677
 20
314.438387679336
 30
0.0
 11
126.4592901941677
 21
314.438387679336
 31
0.0
  0
LINE
  5
24C
330
1F
100
AcDbEntity
  8
1
  6
DASH_CENTER
 62
     2
100
AcDbLine
 10
119.4592901941679
 20
624.2866194248659
 30
0.0
 11
119.4592901941679
 21
339.586804560757
 31
0.0
  0
LINE
  5
24D
330
1F
100
AcDbEntity
  8
0
  6
DASH_CENTER
 62
     2
100
AcDbLine
 10
119.4592901941679
 20
334.9062007369949
 30
0.0
 11
119.4592901941679
 21
141.2954151777522
 31
0.0
  0
LINE
  5
24E
330
1F
100
AcDbEntity
  8
1
  6
DASH_CENTER
 62
     2
100
AcDbLine
 10
401.4756451594626
 20
222.5871027293721
 30
0.0
 11
401.4756451594626
 21
277.5998529484942
 31
0.0
  0
LINE
  5
24F
330
1F
100
AcDbEntity
  8
1
  6
DASH_CENTER
 62
     2
100
AcDbLine
 10
463.5134516912156
 20
238.2383876793361
 30
0.0
 11
351.6803788872733
 21
238.2383876793361
 31
0.0
  0
LINE
  5
250
330
1F
100
AcDbEntity
  8
1
  6
DASH_CENTER
 62
     2
100
AcDbLine
 10
366.4756451594626
 20
204.7383876793361
 30
0.0
 11
366.4756451594626
 21
241.1708570751037
 31
0.0
  0
LINE
  5
251
330
1F
100
AcDbEntity
  8
1
  6
DASH_CENTER
 62
     2
100
AcDbLine
 10
196.4738457550519
 20
140.5903427597141
 30
0.0
 11
196.4738457550519
 21
149.7383876793361
 31
0.0
  0
LINE
  5
252
330
1F
100
AcDbEntity
  8
1
  6
DASH_CENTER
 62
     2
100
AcDbLine
 10
223.4738457550519
 20
176.7383876793361
 30
0.0
 11
339.4756451594626
 21
176.7383876793361
 31
0.0
  0
LINE
  5
253
330
1F
100
AcDbEntity
  8
1
  6
DASH_CENTER
 62
     2
100
AcDbLine
 10
401.4756451594625
 20
282.7383876793361
 30
0.0
 11
401.4756451594625
 21
314.438387679336
 31
0.0
  0
LINE
  5
254
330
1F
100
AcDbEntity
  8
1
  6
DASH_CENTER
 62
     2
100
AcDbLine
 10
401.4756451594627
 20
263.7384863554227
 30
0.0
 11
401.4756451594627
 21
282.7791182434218
 31
0.0
  0
LINE
  5
255
330
1F
100
AcDbEntity
  8
1
  6
DASH_CENTER
 62
     2
100
AcDbLine
 10
356.057354920322
 20
314.438387679336
 30
0.0
 11
324.4229050966509
 21
314.438387679336
 31
0.0
  0
LINE
  5
256
330
1F
100
AcDbEntity
  8
1
  6
DASH_CENTER
 62
     2
100
AcDbLine
 10
340.4756451594628
 20
305.4434496876767
 30
0.0
 11
340.4756451594628
 21
330.6856863479595
 31
0.0
  0
LINE
  5
257
330
1F
100
AcDbEntity
  8
1
  6
DASH_CENTER
 62
     2
100
AcDbLine
 10
340.4756451594628
 20
293.2383876793361
 30
0.0
 11
340.4756451594628
 21
305.4434496876767
 31
0.0
  0
ARC
  5
258
330
1F
100
AcDbEntity
  8
1
  6
DASH_CENTER
 62
     2
100
AcDbCircle
 10
223.4738457550519
 20
149.7383876793361
 30
0.0
 40
27.0
100
AcDbArc
 50
90.0
 51
180.0
  0
ARC
  5
259
330
1F
100
AcDbEntity
  8
1
  6
DASH_CENTER
 62
     2
100
AcDbCircle
 10
339.4756451594626
 20
203.7383876793361
 30
0.0
 40
27.0
100
AcDbArc
 50
270.0
 51
0.0
  0
SOLID
  5
25A
330
1F
100
AcDbEntity
  8
1
 62
     2
100
AcDbTrace
 10
133.3366641295724
 20
619.6618676867238
 30
0.0
 11
135.3319162587636
 21
618.509908332834
 31
0.0
 12
129.9592901941679
 22
611.5081657266651
 32
0.0
 13
129.9592901941679
 23
611.5081657266651
 33
0.0
  0
LEADER
  5
25B
330
1F
100
AcDbEntity
  8
1
  6
Continuous
 62
     2
100
AcDbLeader
  3
Standard
 71
     0
 76
     3
 10
129.9592901941679
 20
611.5081657266651
 30
0.0
 10
143.1207491640215
 20
634.3044813641845
 30
0.0
 10
179.248820882861
 20
634.3044813641845
 30
0.0
  0
MTEXT
  5
25C
330
1F
100
AcDbEntity
  8
1
 62
     7
100
AcDbMText
 10
85.0
 20
76.25000000000006
 30
0.0
 40
8.75
 41
0.0
 71
     4
 72
     1
  1
共用形
  7
CONVERTER_11
 73
     1
 44
0.54545454545455
  0
MTEXT
  5
25E
330
1F
100
AcDbEntity
  8
1
 62
     7
100
AcDbMText
 10
161.4828404184091
 20
641.8044813641845
 30
0.0
 40
8.75
 41
0.0
 71
     5
 72
     1
  1
PJ1/2
  7
CONVERTER_12
 73
     1
 44
0.7202881152461
  0
MTEXT
  5
25F
330
1F
100
AcDbEntity
  8
1
 62
     7
100
AcDbMText
 10
234.375
 20
42.5
 30
0.0
 40
8.75
 41
0.0
 71
     5
 72
     1
  1
2,5
  7
CONVERTER_12
 73
     1
 44
0.7202881152461
  0
MTEXT
  5
260
330
1F
100
AcDbEntity
  8
1
 62
     7
100
AcDbMText
 10
213.125
 20
42.5
 30
0.0
 40
8.75
 41
0.0
 71
     5
 72
     1
  1
1
  7
CONVERTER_12
 73
     1
 44
0.7202881152461
  0
MTEXT
  5
261
330
1F
100
AcDbEntity
  8
1
 62
     7
100
AcDbMText
 10
142.5
 20
35.625
 30
0.0
 40
8.75
 41
0.0
 71
     5
 72
     1
  1
A1310-13
  7
CONVERTER_12
 73
     1
 44
0.7202881152461
  0
MTEXT
  5
262
330
1F
100
AcDbEntity
  8
1
 62
     7
100
AcDbMText
 10
142.5
 20
56.87500000000006
 30
0.0
 40
8.75
 41
0.0
 71
     5
 72
     1
  1
厨房用自在水栓
  7
CONVERTER_11
 73
     1
 44
0.54545454545455
  0
MTEXT
  5
263
330
1F
100
AcDbEntity
  8
1
 62
     7
100
AcDbMText
 10
85.0
 20
93.75
 30
0.0
 40
8.75
 41
0.0
 71
     4
 72
     1
  1
JIS
  7
CONVERTER_12
 73
     1
 44
0.7202881152461
  0
DIMENSION
  5
26E
330
1F
100
AcDbEntity
  8
1
100
AcDbDimension
  2
*D11
 10
326.4756451594629
 20
353.438387679336
 30
0.0
 11
363.9756451594627
 21
360.313387679336
 31
0.0
 70
    32
  1
<>
 71
     5
 42
-1.0
 53
0.00013888888889
  3
ME10_DIM_10
100
AcDbAlignedDimension
 13
401.4756451594623
 23
311.7383876793356
 33
0.0
 14
326.4756451594627
 24
314.438387679336
 34
0.0
100
AcDbRotatedDimension
  0
DIMENSION
  5
27B
330
1F
100
AcDbEntity
  8
1
100
AcDbDimension
  2
*D12
 10
446.4756451594626
 20
118.7383876793361
 30
0.0
 11
453.579793950621
 21
125.6133876793361
 31
0.0
 70
    32
  1
<>
 71
     5
 42
-1.0
 53
0.00013888888889
  3
ME10_DIM_11
100
AcDbAlignedDimension
 13
460.4756451594625
 23
228.7383876793361
 33
0.0
 14
446.4756451594625
 24
215.238387679336
 34
0.0
100
AcDbRotatedDimension
  0
DIMENSION
  5
286
330
1F
100
AcDbEntity
  8
1
100
AcDbDimension
  2
*D13
 10
446.4756451594625
 20
118.7383876793361
 30
0.0
 11
423.8295606224801
 21
125.6133876793361
 31
0.0
 70
    32
  1
<>
 71
     5
 42
-1.0
 53
0.00013888888889
  3
ME10_DIM_12
100
AcDbAlignedDimension
 13
401.4756451594626
 23
222.5871027293721
 33
0.0
 14
446.4756451594625
 24
215.238387679336
 34
0.0
100
AcDbRotatedDimension
  0
DIMENSION
  5
291
330
1F
100
AcDbEntity
  8
1
100
AcDbDimension
  2
*D14
 10
366.4756451594626
 20
118.7383876793361
 30
0.0
 11
383.9918956184561
 21
125.6133876793361
 31
0.0
 70
    32
  1
<>
 71
     5
 42
-1.0
 53
0.00013888888889
  3
ME10_DIM_13
100
AcDbAlignedDimension
 13
401.4756451594626
 23
222.5871027293721
 33
0.0
 14
366.4756451594626
 24
203.7383876793361
 34
0.0
100
AcDbRotatedDimension
  0
DIMENSION
  5
29C
330
1F
100
AcDbEntity
  8
1
100
AcDbDimension
  2
*D15
 10
196.473845755052
 20
118.7383876793361
 30
0.0
 11
278.9794914228251
 21
125.6133876793361
 31
0.0
 70
    32
  1
<>
 71
     5
 42
-1.0
 53
0.00013888888889
  3
ME10_DIM_14
100
AcDbAlignedDimension
 13
366.4756451594626
 23
204.7383876793361
 33
0.0
 14
196.4738457550519
 24
140.5903427597141
 34
0.0
100
AcDbRotatedDimension
  0
DIMENSION
  5
2A7
330
1F
100
AcDbEntity
  8
1
100
AcDbDimension
  2
*D16
 10
162.8238457550517
 20
143.7383876793361
 30
0.0
 11
155.9488457550517
 21
190.9883876793361
 31
0.0
 70
    32
  1
95
 71
     5
 42
-1.0
 53
90.0
  3
ME10_DIM_15
100
AcDbAlignedDimension
 13
351.6803788872733
 23
238.2383876793361
 33
0.0
 14
189.0874387490657
 24
143.7383876793361
 34
0.0
 50
90.0
100
AcDbRotatedDimension
  0
DIMENSION
  5
2B2
330
1F
100
AcDbEntity
  8
1
100
AcDbDimension
  2
*D17
 10
162.8238457550517
 20
328.4383876793361
 30
0.0
 11
155.9488457550517
 21
283.3383876793362
 31
0.0
 70
    32
  1
90リフト3
 71
     5
 42
-1.0
 53
90.0
  3
ME10_DIM_16
100
AcDbAlignedDimension
 13
351.6803788872733
 23
238.2383876793361
 33
0.0
 14
340.4756451594627
 24
328.4383876793359
 34
0.0
 50
90.0
100
AcDbRotatedDimension
  0
DIMENSION
  5
2BD
330
1F
100
AcDbEntity
  8
1
100
AcDbDimension
  2
*D18
 10
485.4756451594625
 20
261.2383876793361
 30
0.0
 11
478.6006451594625
 21
238.2383876793361
 31
0.0
 70
    32
  1
<>
 71
     5
 42
-1.0
 53
90.0
  3
ME10_DIM_17
100
AcDbAlignedDimension
 13
446.4756451594625
 23
215.238387679336
 33
0.0
 14
446.4756451594625
 24
261.238387679336
 34
0.0
 50
90.0
100
AcDbRotatedDimension
  0
ENDSEC
  0
SECTION
  2
OBJECTS
  0
DICTIONARY
  5
C
330
0
100
AcDbDictionary
281
     1
  3
ACAD_GROUP
350
D
  3
ACAD_LAYOUT
350
1A
  3
ACAD_MATERIAL
350
3B
  3
ACAD_MLEADERSTYLE
350
2C0
  3
ACAD_MLINESTYLE
350
17
  3
ACAD_PLOTSETTINGS
350
19
  3
ACAD_PLOTSTYLENAME
350
E
  3
ACAD_VISUALSTYLE
350
2A
  3
AcDbVariableDictionary
350
2BE
  0
DICTIONARY
  5
D
102
{ACAD_REACTORS
330
C
102
}
330
C
100
AcDbDictionary
281
     1
  0
DICTIONARY
  5
1A
102
{ACAD_REACTORS
330
C
102
}
330
C
100
AcDbDictionary
281
     1
  3
Layout1
350
1E
  3
Layout2
350
26
  3
Model
350
22
  0
DICTIONARY
  5
3B
102
{ACAD_REACTORS
330
C
102
}
330
C
100
AcDbDictionary
281
     1
  3
ByBlock
350
3D
  3
ByLayer
350
3C
  3
Global
350
3E
  0
DICTIONARY
  5
2C0
102
{ACAD_REACTORS
330
C
102
}
330
C
100
AcDbDictionary
281
     1
  0
DICTIONARY
  5
17
102
{ACAD_REACTORS
330
C
102
}
330
C
100
AcDbDictionary
281
     1
  3
Standard
350
18
  0
DICTIONARY
  5
19
102
{ACAD_REACTORS
330
C
102
}
330
C
100
AcDbDictionary
281
     1
  0
ACDBDICTIONARYWDFLT
  5
E
102
{ACAD_REACTORS
330
C
102
}
330
C
100
AcDbDictionary
281
     1
  3
Normal
350
F
100
AcDbDictionaryWithDefault
340
F
  0
DICTIONARY
  5
2A
102
{ACAD_REACTORS
330
C
102
}
330
C
100
AcDbDictionary
281
     1
  3
2dWireframe
350
2F
  3
3D Hidden
350
31
  3
3dWireframe
350
30
  3
Basic
350
32
  3
Brighten
350
36
  3
ColorChange
350
3A
  3
Conceptual
350
34
  3
Dim
350
35
  3
Facepattern
350
39
  3
Flat
350
2B
  3
FlatWithEdges
350
2C
  3
Gouraud
350
2D
  3
GouraudWithEdges
350
2E
  3
Linepattern
350
38
  3
Realistic
350
33
  3
Thicken
350
37
  0
DICTIONARY
  5
2BE
102
{ACAD_REACTORS
330
C
102
}
330
C
100
AcDbDictionary
281
     1
  3
DIMASSOC
350
2C1
  3
HIDETEXT
350
2C2
  0
LAYOUT
  5
1E
102
{ACAD_REACTORS
330
1A
102
}
330
1A
100
AcDbPlotSettings
  1

  2
none_device
  4

  6

 40
0.0
 41
0.0
 42
0.0
 43
0.0
 44
0.0
 45
0.0
 46
0.0
 47
0.0
 48
0.0
 49
0.0
140
0.0
141
0.0
142
1.0
143
1.0
 70
   688
 72
     0
 73
     0
 74
     5
  7

 75
    16
147
1.0
148
0.0
149
0.0
100
AcDbLayout
  1
Layout1
 70
     1
 71
     1
 10
0.0
 20
0.0
 11
12.0
 21
9.0
 12
0.0
 22
0.0
 32
0.0
 14
1.00000000000000E+20
 24
1.00000000000000E+20
 34
1.00000000000000E+20
 15
-1.00000000000000E+20
 25
-1.00000000000000E+20
 35
-1.00000000000000E+20
146
0.0
 13
0.0
 23
0.0
 33
0.0
 16
1.0
 26
0.0
 36
0.0
 17
0.0
 27
1.0
 37
0.0
 76
     0
330
1B
  0
LAYOUT
  5
26
102
{ACAD_REACTORS
330
1A
102
}
330
1A
100
AcDbPlotSettings
  1

  2
none_device
  4

  6

 40
0.0
 41
0.0
 42
0.0
 43
0.0
 44
0.0
 45
0.0
 46
0.0
 47
0.0
 48
0.0
 49
0.0
140
0.0
141
0.0
142
1.0
143
1.0
 70
   688
 72
     0
 73
     0
 74
     5
  7

 75
    16
147
1.0
148
0.0
149
0.0
100
AcDbLayout
  1
Layout2
 70
     1
 71
     2
 10
0.0
 20
0.0
 11
0.0
 21
0.0
 12
0.0
 22
0.0
 32
0.0
 14
0.0
 24
0.0
 34
0.0
 15
0.0
 25
0.0
 35
0.0
146
0.0
 13
0.0
 23
0.0
 33
0.0
 16
1.0
 26
0.0
 36
0.0
 17
0.0
 27
1.0
 37
0.0
 76
     0
330
23
  0
LAYOUT
  5
22
102
{ACAD_REACTORS
330
1A
102
}
330
1A
100
AcDbPlotSettings
  1

  2
none_device
  4

  6

 40
0.0
 41
0.0
 42
0.0
 43
0.0
 44
0.0
 45
0.0
 46
0.0
 47
0.0
 48
0.0
 49
0.0
140
0.0
141
0.0
142
1.0
143
1.0
 70
  1712
 72
     0
 73
     0
 74
     0
  7

 75
     0
147
1.0
148
0.0
149
0.0
100
AcDbLayout
  1
Model
 70
     1
 71
     0
 10
0.0
 20
0.0
 11
12.0
 21
9.0
 12
0.0
 22
0.0
 32
0.0
 14
0.0
 24
0.0
 34
0.0
 15
525.0
 25
742.5
 35
0.0
146
0.0
 13
0.0
 23
0.0
 33
0.0
 16
1.0
 26
0.0
 36
0.0
 17
0.0
 27
1.0
 37
0.0
 76
     0
330
1F
331
29
  0
MATERIAL
  5
3D
102
{ACAD_REACTORS
330
3B
102
}
102
{ACAD_XDICTIONARY
360
2E5
102
}
330
3B
100
AcDbMaterial
  1
ByBlock
  0
MATERIAL
  5
3C
102
{ACAD_REACTORS
330
3B
102
}
102
{ACAD_XDICTIONARY
360
2E3
102
}
330
3B
100
AcDbMaterial
  1
ByLayer
  0
MATERIAL
  5
3E
102
{ACAD_REACTORS
330
3B
102
}
102
{ACAD_XDICTIONARY
360
2E7
102
}
330
3B
100
AcDbMaterial
  1
Global
  0
MLINESTYLE
  5
18
102
{ACAD_REACTORS
330
17
102
}
330
17
100
AcDbMlineStyle
  2
Standard
 70
     0
  3

 62
   256
 51
90.0
 52
90.0
 71
     2
 49
0.5
 62
   256
  6
BYLAYER
 49
-0.5
 62
   256
  6
BYLAYER
  0
ACDBPLACEHOLDER
  5
F
102
{ACAD_REACTORS
330
E
102
}
330
E
  0
VISUALSTYLE
  5
2F
102
{ACAD_REACTORS
330
2A
102
}
102
{ACAD_XDICTIONARY
360
2CB
102
}
330
2A
100
AcDbVisualStyle
  2
2dWireframe
 70
     4
 71
     0
 72
     2
 73
     0
 90
        0
 40
-0.6
 41
-30.0
 62
     5
 63
     7
 74
     1
 91
        4
 64
     7
 65
   257
 75
     1
175
     1
 42
1.0
 92
        0
 66
   257
 43
1.0
 76
     1
 77
     6
 78
     2
 67
     7
 79
     5
170
     0
171
     0
290
     0
174
     0
 93
        1
 44
0.0
173
     0
291
     0
 45
0.0
1001
ACAD
1000
AcDbSavedByObjectVersion
1070
     0
  0
VISUALSTYLE
  5
31
102
{ACAD_REACTORS
330
2A
102
}
102
{ACAD_XDICTIONARY
360
2CF
102
}
330
2A
100
AcDbVisualStyle
  2
3D Hidden
 70
     6
 71
     1
 72
     2
 73
     2
 90
        0
 40
-0.6
 41
-30.0
 62
     5
 63
     7
 74
     2
 91
        2
 64
     7
 65
   257
 75
     2
175
     1
 42
40.0
 92
        0
 66
   257
 43
1.0
 76
     1
 77
     6
 78
     2
 67
     7
 79
     3
170
     0
171
     0
290
     0
174
     0
 93
        1
 44
0.0
173
     0
291
     0
 45
0.0
1001
ACAD
1000
AcDbSavedByObjectVersion
1070
     0
  0
VISUALSTYLE
  5
30
102
{ACAD_REACTORS
330
2A
102
}
102
{ACAD_XDICTIONARY
360
2CD
102
}
330
2A
100
AcDbVisualStyle
  2
3dWireframe
 70
     5
 71
     0
 72
     2
 73
     0
 90
        0
 40
-0.6
 41
-30.0
 62
     5
 63
     7
 74
     1
 91
        4
 64
     7
 65
   257
 75
     1
175
     1
 42
1.0
 92
        0
 66
   257
 43
1.0
 76
     1
 77
     6
 78
     2
 67
     7
 79
     5
170
     0
171
     0
290
     0
174
     0
 93
        1
 44
0.0
173
     0
291
     0
 45
0.0
1001
ACAD
1000
AcDbSavedByObjectVersion
1070
     0
  0
VISUALSTYLE
  5
32
102
{ACAD_REACTORS
330
2A
102
}
102
{ACAD_XDICTIONARY
360
2D1
102
}
330
2A
100
AcDbVisualStyle
  2
Basic
 70
     7
 71
     1
 72
     0
 73
     1
 90
        0
 40
-0.6
 41
-30.0
 62
     5
 63
     7
 74
     0
 91
        4
 64
     7
 65
   257
 75
     1
175
     1
 42
1.0
 92
        8
 66
     7
 43
1.0
 76
     1
 77
     6
 78
     2
 67
     7
 79
     5
170
     0
171
     0
290
     0
174
     0
 93
        1
 44
0.0
173
     0
291
     1
 45
0.0
1001
ACAD
1000
AcDbSavedByObjectVersion
1070
     0
  0
VISUALSTYLE
  5
36
102
{ACAD_REACTORS
330
2A
102
}
102
{ACAD_XDICTIONARY
360
2D9
102
}
330
2A
100
AcDbVisualStyle
  2
Brighten
 70
    12
 71
     2
 72
     2
 73
     0
 90
        0
 40
-0.6
 41
-30.0
 62
     5
 63
     7
 74
     1
 91
        4
 64
     7
 65
   257
 75
     1
175
     1
 42
1.0
 92
        8
 66
     7
 43
1.0
 76
     1
 77
     6
 78
     2
 67
     7
 79
     5
170
     0
171
     0
290
     0
174
     0
 93
        1
 44
50.0
173
     0
291
     1
 45
0.0
1001
ACAD
1000
AcDbSavedByObjectVersion
1070
     0
  0
VISUALSTYLE
  5
3A
102
{ACAD_REACTORS
330
2A
102
}
102
{ACAD_XDICTIONARY
360
2E1
102
}
330
2A
100
AcDbVisualStyle
  2
ColorChange
 70
    16
 71
     2
 72
     2
 73
     3
 90
        0
 40
-0.6
 41
-30.0
 62
     5
 63
     8
 74
     1
 91
        4
 64
     7
 65
   257
 75
     1
175
     1
 42
1.0
 92
        8
 66
     8
 43
1.0
 76
     1
 77
     6
 78
     2
 67
     7
 79
     5
170
     0
171
     0
290
     0
174
     0
 93
        1
 44
0.0
173
     0
291
     1
 45
0.0
1001
ACAD
1000
AcDbSavedByObjectVersion
1070
     0
  0
VISUALSTYLE
  5
34
102
{ACAD_REACTORS
330
2A
102
}
102
{ACAD_XDICTIONARY
360
2D5
102
}
330
2A
100
AcDbVisualStyle
  2
Conceptual
 70
     9
 71
     3
 72
     2
 73
     0
 90
        0
 40
-0.6
 41
-30.0
 62
     5
 63
     7
 74
     2
 91
        2
 64
     7
 65
   257
 75
     1
175
     1
 42
40.0
 92
        8
 66
     7
 43
1.0
 76
     1
 77
     6
 78
     2
 67
     7
 79
     3
170
     0
171
     0
290
     0
174
     0
 93
        1
 44
0.0
173
     0
291
     0
 45
0.0
1001
ACAD
1000
AcDbSavedByObjectVersion
1070
     0
  0
VISUALSTYLE
  5
35
102
{ACAD_REACTORS
330
2A
102
}
102
{ACAD_XDICTIONARY
360
2D7
102
}
330
2A
100
AcDbVisualStyle
  2
Dim
 70
    11
 71
     2
 72
     2
 73
     0
 90
        0
 40
-0.6
 41
-30.0
 62
     5
 63
     7
 74
     1
 91
        4
 64
     7
 65
   257
 75
     1
175
     1
 42
1.0
 92
        8
 66
     7
 43
1.0
 76
     1
 77
     6
 78
     2
 67
     7
 79
     5
170
     0
171
     0
290
     0
174
     0
 93
        1
 44
-50.0
173
     0
291
     1
 45
0.0
1001
ACAD
1000
AcDbSavedByObjectVersion
1070
     0
  0
VISUALSTYLE
  5
39
102
{ACAD_REACTORS
330
2A
102
}
102
{ACAD_XDICTIONARY
360
2DF
102
}
330
2A
100
AcDbVisualStyle
  2
Facepattern
 70
    15
 71
     2
 72
     2
 73
     0
 90
        0
 40
-0.6
 41
-30.0
 62
     5
 63
     7
 74
     1
 91
        4
 64
     7
 65
   257
 75
     1
175
     1
 42
1.0
 92
        8
 66
     7
 43
1.0
 76
     1
 77
     6
 78
     2
 67
     7
 79
     5
170
     0
171
     0
290
     0
174
     0
 93
        1
 44
0.0
173
     0
291
     1
 45
0.0
1001
ACAD
1000
AcDbSavedByObjectVersion
1070
     0
  0
VISUALSTYLE
  5
2B
102
{ACAD_REACTORS
330
2A
102
}
102
{ACAD_XDICTIONARY
360
2C3
102
}
330
2A
100
AcDbVisualStyle
  2
Flat
 70
     0
 71
     2
 72
     1
 73
     1
 90
        2
 40
-0.6
 41
30.0
 62
     5
 63
     7
 74
     0
 91
        4
 64
     7
 65
   257
 75
     1
175
     1
 42
1.0
 92
        8
 66
     7
 43
1.0
 76
     1
 77
     6
 78
     2
 67
     7
 79
     5
170
     0
171
     0
290
     0
174
     0
 93
       13
 44
0.0
173
     0
291
     1
 45
0.0
1001
ACAD
1000
AcDbSavedByObjectVersion
1070
     0
  0
VISUALSTYLE
  5
2C
102
{ACAD_REACTORS
330
2A
102
}
102
{ACAD_XDICTIONARY
360
2C5
102
}
330
2A
100
AcDbVisualStyle
  2
FlatWithEdges
 70
     1
 71
     2
 72
     1
 73
     1
 90
        2
 40
-0.6
 41
30.0
 62
     5
 63
     7
 74
     1
 91
        4
 64
     7
 65
   257
 75
     1
175
     1
 42
1.0
 92
        0
 66
   257
 43
1.0
 76
     1
 77
     6
 78
     2
 67
     7
 79
     5
170
     0
171
     0
290
     0
174
     0
 93
       13
 44
0.0
173
     0
291
     1
 45
0.0
1001
ACAD
1000
AcDbSavedByObjectVersion
1070
     0
  0
VISUALSTYLE
  5
2D
102
{ACAD_REACTORS
330
2A
102
}
102
{ACAD_XDICTIONARY
360
2C7
102
}
330
2A
100
AcDbVisualStyle
  2
Gouraud
 70
     2
 71
     2
 72
     2
 73
     1
 90
        2
 40
-0.6
 41
30.0
 62
     5
 63
     7
 74
     0
 91
        4
 64
     7
 65
   257
 75
     1
175
     1
 42
1.0
 92
        0
 66
     7
 43
1.0
 76
     1
 77
     6
 78
     2
 67
     7
 79
     5
170
     0
171
     0
290
     0
174
     0
 93
       13
 44
0.0
173
     0
291
     1
 45
0.0
1001
ACAD
1000
AcDbSavedByObjectVersion
1070
     0
  0
VISUALSTYLE
  5
2E
102
{ACAD_REACTORS
330
2A
102
}
102
{ACAD_XDICTIONARY
360
2C9
102
}
330
2A
100
AcDbVisualStyle
  2
GouraudWithEdges
 70
     3
 71
     2
 72
     2
 73
     1
 90
        2
 40
-0.6
 41
30.0
 62
     5
 63
     7
 74
     1
 91
        4
 64
     7
 65
   257
 75
     1
175
     1
 42
1.0
 92
        0
 66
   257
 43
1.0
 76
     1
 77
     6
 78
     2
 67
     7
 79
     5
170
     0
171
     0
290
     0
174
     0
 93
       13
 44
0.0
173
     0
291
     1
 45
0.0
1001
ACAD
1000
AcDbSavedByObjectVersion
1070
     0
  0
VISUALSTYLE
  5
38
102
{ACAD_REACTORS
330
2A
102
}
102
{ACAD_XDICTIONARY
360
2DD
102
}
330
2A
100
AcDbVisualStyle
  2
Linepattern
 70
    14
 71
     2
 72
     2
 73
     0
 90
        0
 40
-0.6
 41
-30.0
 62
     5
 63
     7
 74
     1
 91
        4
 64
     7
 65
   257
 75
     7
175
     7
 42
1.0
 92
        8
 66
     7
 43
1.0
 76
     1
 77
     6
 78
     2
 67
     7
 79
     5
170
     0
171
     0
290
     0
174
     0
 93
        1
 44
0.0
173
     0
291
     1
 45
0.0
1001
ACAD
1000
AcDbSavedByObjectVersion
1070
     0
  0
VISUALSTYLE
  5
33
102
{ACAD_REACTORS
330
2A
102
}
102
{ACAD_XDICTIONARY
360
2D3
102
}
330
2A
100
AcDbVisualStyle
  2
Realistic
 70
     8
 71
     2
 72
     2
 73
     0
 90
        0
 40
-0.6
 41
-30.0
 62
     5
 63
     7
 74
     1
 91
        0
 64
     7
 65
   257
 75
     1
175
     1
 42
1.0
 92
        8
 66
     8
 43
1.0
 76
     1
 77
     6
 78
     2
 67
     7
 79
     5
170
     0
171
     0
290
     0
174
     0
 93
       13
 44
0.0
173
     0
291
     0
 45
0.0
1001
ACAD
1000
AcDbSavedByObjectVersion
1070
     0
  0
VISUALSTYLE
  5
37
102
{ACAD_REACTORS
330
2A
102
}
102
{ACAD_XDICTIONARY
360
2DB
102
}
330
2A
100
AcDbVisualStyle
  2
Thicken
 70
    13
 71
     2
 72
     2
 73
     0
 90
        0
 40
-0.6
 41
-30.0
 62
     5
 63
     7
 74
     1
 91
        4
 64
     7
 65
   257
 75
     1
175
     1
 42
1.0
 92
       12
 66
     7
 43
1.0
 76
     1
 77
     6
 78
     2
 67
     7
 79
     5
170
     0
171
     0
290
     0
174
     0
 93
        1
 44
0.0
173
     0
291
     1
 45
0.0
1001
ACAD
1000
AcDbSavedByObjectVersion
1070
     0
  0
DICTIONARYVAR
  5
2C1
102
{ACAD_REACTORS
330
2BE
102
}
330
2BE
100
DictionaryVariables
280
     0
  1
2
  0
DICTIONARYVAR
  5
2C2
102
{ACAD_REACTORS
330
2BE
102
}
330
2BE
100
DictionaryVariables
280
     0
  1
1
  0
DICTIONARY
  5
2E5
330
3D
100
AcDbDictionary
280
     1
281
     1
  3
ACAD_XREC_ROUNDTRIP
360
2E6
  0
DICTIONARY
  5
2E3
330
3C
100
AcDbDictionary
280
     1
281
     1
  3
ACAD_XREC_ROUNDTRIP
360
2E4
  0
DICTIONARY
  5
2E7
330
3E
100
AcDbDictionary
280
     1
281
     1
  3
ACAD_XREC_ROUNDTRIP
360
2E8
  0
DICTIONARY
  5
2CB
330
2F
100
AcDbDictionary
280
     1
281
     1
  3
ACAD_XREC_ROUNDTRIP
360
2CC
  0
DICTIONARY
  5
2CF
330
31
100
AcDbDictionary
280
     1
281
     1
  3
ACAD_XREC_ROUNDTRIP
360
2D0
  0
DICTIONARY
  5
2CD
330
30
100
AcDbDictionary
280
     1
281
     1
  3
ACAD_XREC_ROUNDTRIP
360
2CE
  0
DICTIONARY
  5
2D1
330
32
100
AcDbDictionary
280
     1
281
     1
  3
ACAD_XREC_ROUNDTRIP
360
2D2
  0
DICTIONARY
  5
2D9
330
36
100
AcDbDictionary
280
     1
281
     1
  3
ACAD_XREC_ROUNDTRIP
360
2DA
  0
DICTIONARY
  5
2E1
330
3A
100
AcDbDictionary
280
     1
281
     1
  3
ACAD_XREC_ROUNDTRIP
360
2E2
  0
DICTIONARY
  5
2D5
330
34
100
AcDbDictionary
280
     1
281
     1
  3
ACAD_XREC_ROUNDTRIP
360
2D6
  0
DICTIONARY
  5
2D7
330
35
100
AcDbDictionary
280
     1
281
     1
  3
ACAD_XREC_ROUNDTRIP
360
2D8
  0
DICTIONARY
  5
2DF
330
39
100
AcDbDictionary
280
     1
281
     1
  3
ACAD_XREC_ROUNDTRIP
360
2E0
  0
DICTIONARY
  5
2C3
330
2B
100
AcDbDictionary
280
     1
281
     1
  3
ACAD_XREC_ROUNDTRIP
360
2C4
  0
DICTIONARY
  5
2C5
330
2C
100
AcDbDictionary
280
     1
281
     1
  3
ACAD_XREC_ROUNDTRIP
360
2C6
  0
DICTIONARY
  5
2C7
330
2D
100
AcDbDictionary
280
     1
281
     1
  3
ACAD_XREC_ROUNDTRIP
360
2C8
  0
DICTIONARY
  5
2C9
330
2E
100
AcDbDictionary
280
     1
281
     1
  3
ACAD_XREC_ROUNDTRIP
360
2CA
  0
DICTIONARY
  5
2DD
330
38
100
AcDbDictionary
280
     1
281
     1
  3
ACAD_XREC_ROUNDTRIP
360
2DE
  0
DICTIONARY
  5
2D3
330
33
100
AcDbDictionary
280
     1
281
     1
  3
ACAD_XREC_ROUNDTRIP
360
2D4
  0
DICTIONARY
  5
2DB
330
37
100
AcDbDictionary
280
     1
281
     1
  3
ACAD_XREC_ROUNDTRIP
360
2DC
  0
XRECORD
  5
2E6
102
{ACAD_REACTORS
330
2E5
102
}
330
2E5
100
AcDbXrecord
280
     1
102
MATERIAL
148
0.0
149
0.0
149
0.0
 93
        0
 94
      127
282
     0
 72
     1
 77
     1
171
     1
175
     1
179
     1
273
     0
  0
XRECORD
  5
2E4
102
{ACAD_REACTORS
330
2E3
102
}
330
2E3
100
AcDbXrecord
280
     1
102
MATERIAL
148
0.0
149
0.0
149
0.0
 93
        0
 94
      127
282
     0
 72
     1
 77
     1
171
     1
175
     1
179
     1
273
     0
  0
XRECORD
  5
2E8
102
{ACAD_REACTORS
330
2E7
102
}
330
2E7
100
AcDbXrecord
280
     1
102
MATERIAL
148
0.0
149
0.0
149
0.0
 93
        0
 94
      127
282
     0
 72
     1
 77
     1
171
     1
175
     1
179
     1
273
     0
  0
XRECORD
  5
2CC
102
{ACAD_REACTORS
330
2CB
102
}
330
2CB
100
AcDbXrecord
280
     1
102
RTVSPropertyOp0
 70
     1
102
RTVSPropertyOp1
 70
     1
102
RTVSPropertyOp2
 70
     1
102
RTVSPropertyOp3
 70
     1
102
RTVSPropertyOp4
 70
     1
102
RTVSPropertyOp5
 70
     1
102
RTVSPropertyOp6
 70
     1
102
RTVSPropertyOp7
 70
     1
102
RTVSPropertyOp8
 70
     1
102
RTVSPropertyOp9
 70
     1
102
RTVSPropertyOp10
 70
     1
102
RTVSPropertyOp11
 70
     1
102
RTVSPropertyOp12
 70
     1
102
RTVSPropertyOp13
 70
     1
102
RTVSPropertyOp14
 70
     1
102
RTVSPropertyOp15
 70
     1
102
RTVSPropertyOp16
 70
     1
102
RTVSPropertyOp17
 70
     1
102
RTVSPropertyOp18
 70
     1
102
RTVSPropertyOp19
 70
     1
102
RTVSPropertyOp20
 70
     1
102
RTVSPropertyOp21
 70
     1
102
RTVSPropertyOp22
 70
     1
102
RTVSPropertyOp23
 70
     1
102
RTVSPropertyOp24
 70
     1
102
RTVSPropertyOp25
 70
     1
102
RTVSPropertyOp26
 70
     1
102
RTVSPropertyOp27
 70
     1
102
RTVSPropertyOp28
 70
     1
102
RTVSPropertyOp29
 70
     1
102
RTVSPropertyOp30
 70
     1
102
RTVSPropertyOp31
 70
     1
102
RTVSPropertyOp32
 70
     1
  0
XRECORD
  5
2D0
102
{ACAD_REACTORS
330
2CF
102
}
330
2CF
100
AcDbXrecord
280
     1
102
RTVSPropertyOp0
 70
     1
102
RTVSPropertyOp1
 70
     1
102
RTVSPropertyOp2
 70
     1
102
RTVSPropertyOp3
 70
     1
102
RTVSPropertyOp4
 70
     1
102
RTVSPropertyOp5
 70
     1
102
RTVSPropertyOp6
 70
     1
102
RTVSPropertyOp7
 70
     1
102
RTVSPropertyOp8
 70
     1
102
RTVSPropertyOp9
 70
     1
102
RTVSPropertyOp10
 70
     1
102
RTVSPropertyOp11
 70
     1
102
RTVSPropertyOp12
 70
     1
102
RTVSPropertyOp13
 70
     1
102
RTVSPropertyOp14
 70
     1
102
RTVSPropertyOp15
 70
     1
102
RTVSPropertyOp16
 70
     1
102
RTVSPropertyOp17
 70
     1
102
RTVSPropertyOp18
 70
     1
102
RTVSPropertyOp19
 70
     1
102
RTVSPropertyOp20
 70
     1
102
RTVSPropertyOp21
 70
     1
102
RTVSPropertyOp22
 70
     1
102
RTVSPropertyOp23
 70
     1
102
RTVSPropertyOp24
 70
     1
102
RTVSPropertyOp25
 70
     1
102
RTVSPropertyOp26
 70
     1
102
RTVSPropertyOp27
 70
     1
102
RTVSPropertyOp28
 70
     1
102
RTVSPropertyOp29
 70
     1
102
RTVSPropertyOp30
 70
     1
102
RTVSPropertyOp31
 70
     1
102
RTVSPropertyOp32
 70
     1
  0
XRECORD
  5
2CE
102
{ACAD_REACTORS
330
2CD
102
}
330
2CD
100
AcDbXrecord
280
     1
102
RTVSPropertyOp0
 70
     1
102
RTVSPropertyOp1
 70
     1
102
RTVSPropertyOp2
 70
     1
102
RTVSPropertyOp3
 70
     1
102
RTVSPropertyOp4
 70
     1
102
RTVSPropertyOp5
 70
     1
102
RTVSPropertyOp6
 70
     1
102
RTVSPropertyOp7
 70
     1
102
RTVSPropertyOp8
 70
     1
102
RTVSPropertyOp9
 70
     1
102
RTVSPropertyOp10
 70
     1
102
RTVSPropertyOp11
 70
     1
102
RTVSPropertyOp12
 70
     1
102
RTVSPropertyOp13
 70
     1
102
RTVSPropertyOp14
 70
     1
102
RTVSPropertyOp15
 70
     1
102
RTVSPropertyOp16
 70
     1
102
RTVSPropertyOp17
 70
     1
102
RTVSPropertyOp18
 70
     1
102
RTVSPropertyOp19
 70
     1
102
RTVSPropertyOp20
 70
     1
102
RTVSPropertyOp21
 70
     1
102
RTVSPropertyOp22
 70
     1
102
RTVSPropertyOp23
 70
     1
102
RTVSPropertyOp24
 70
     1
102
RTVSPropertyOp25
 70
     1
102
RTVSPropertyOp26
 70
     1
102
RTVSPropertyOp27
 70
     1
102
RTVSPropertyOp28
 70
     1
102
RTVSPropertyOp29
 70
     1
102
RTVSPropertyOp30
 70
     1
102
RTVSPropertyOp31
 70
     1
102
RTVSPropertyOp32
 70
     1
  0
XRECORD
  5
2D2
102
{ACAD_REACTORS
330
2D1
102
}
330
2D1
100
AcDbXrecord
280
     1
102
RTVSPropertyOp0
 70
     1
102
RTVSPropertyOp1
 70
     1
102
RTVSPropertyOp2
 70
     1
102
RTVSPropertyOp3
 70
     1
102
RTVSPropertyOp4
 70
     1
102
RTVSPropertyOp5
 70
     1
102
RTVSPropertyOp6
 70
     1
102
RTVSPropertyOp7
 70
     1
102
RTVSPropertyOp8
 70
     1
102
RTVSPropertyOp9
 70
     1
102
RTVSPropertyOp10
 70
     1
102
RTVSPropertyOp11
 70
     1
102
RTVSPropertyOp12
 70
     1
102
RTVSPropertyOp13
 70
     1
102
RTVSPropertyOp14
 70
     1
102
RTVSPropertyOp15
 70
     1
102
RTVSPropertyOp16
 70
     1
102
RTVSPropertyOp17
 70
     1
102
RTVSPropertyOp18
 70
     1
102
RTVSPropertyOp19
 70
     1
102
RTVSPropertyOp20
 70
     1
102
RTVSPropertyOp21
 70
     1
102
RTVSPropertyOp22
 70
     1
102
RTVSPropertyOp23
 70
     1
102
RTVSPropertyOp24
 70
     1
102
RTVSPropertyOp25
 70
     1
102
RTVSPropertyOp26
 70
     1
102
RTVSPropertyOp27
 70
     1
102
RTVSPropertyOp28
 70
     1
102
RTVSPropertyOp29
 70
     1
102
RTVSPropertyOp30
 70
     1
102
RTVSPropertyOp31
 70
     1
102
RTVSPropertyOp32
 70
     1
  0
XRECORD
  5
2DA
102
{ACAD_REACTORS
330
2D9
102
}
330
2D9
100
AcDbXrecord
280
     1
102
RTVSPropertyOp0
 70
     1
102
RTVSPropertyOp1
 70
     1
102
RTVSPropertyOp2
 70
     1
102
RTVSPropertyOp3
 70
     1
102
RTVSPropertyOp4
 70
     1
102
RTVSPropertyOp5
 70
     1
102
RTVSPropertyOp6
 70
     1
102
RTVSPropertyOp7
 70
     1
102
RTVSPropertyOp8
 70
     1
102
RTVSPropertyOp9
 70
     1
102
RTVSPropertyOp10
 70
     1
102
RTVSPropertyOp11
 70
     1
102
RTVSPropertyOp12
 70
     1
102
RTVSPropertyOp13
 70
     1
102
RTVSPropertyOp14
 70
     1
102
RTVSPropertyOp15
 70
     1
102
RTVSPropertyOp16
 70
     1
102
RTVSPropertyOp17
 70
     1
102
RTVSPropertyOp18
 70
     1
102
RTVSPropertyOp19
 70
     1
102
RTVSPropertyOp20
 70
     1
102
RTVSPropertyOp21
 70
     1
102
RTVSPropertyOp22
 70
     1
102
RTVSPropertyOp23
 70
     1
102
RTVSPropertyOp24
 70
     1
102
RTVSPropertyOp25
 70
     1
102
RTVSPropertyOp26
 70
     1
102
RTVSPropertyOp27
 70
     1
102
RTVSPropertyOp28
 70
     1
102
RTVSPropertyOp29
 70
     1
102
RTVSPropertyOp30
 70
     1
102
RTVSPropertyOp31
 70
     1
102
RTVSPropertyOp32
 70
     1
  0
XRECORD
  5
2E2
102
{ACAD_REACTORS
330
2E1
102
}
330
2E1
100
AcDbXrecord
280
     1
102
RTVSPropertyOp0
 70
     1
102
RTVSPropertyOp1
 70
     1
102
RTVSPropertyOp2
 70
     1
102
RTVSPropertyOp3
 70
     1
102
RTVSPropertyOp4
 70
     1
102
RTVSPropertyOp5
 70
     1
102
RTVSPropertyOp6
 70
     1
102
RTVSPropertyOp7
 70
     1
102
RTVSPropertyOp8
 70
     1
102
RTVSPropertyOp9
 70
     1
102
RTVSPropertyOp10
 70
     1
102
RTVSPropertyOp11
 70
     1
102
RTVSPropertyOp12
 70
     1
102
RTVSPropertyOp13
 70
     1
102
RTVSPropertyOp14
 70
     1
102
RTVSPropertyOp15
 70
     1
102
RTVSPropertyOp16
 70
     1
102
RTVSPropertyOp17
 70
     1
102
RTVSPropertyOp18
 70
     1
102
RTVSPropertyOp19
 70
     1
102
RTVSPropertyOp20
 70
     1
102
RTVSPropertyOp21
 70
     1
102
RTVSPropertyOp22
 70
     1
102
RTVSPropertyOp23
 70
     1
102
RTVSPropertyOp24
 70
     1
102
RTVSPropertyOp25
 70
     1
102
RTVSPropertyOp26
 70
     1
102
RTVSPropertyOp27
 70
     1
102
RTVSPropertyOp28
 70
     1
102
RTVSPropertyOp29
 70
     1
102
RTVSPropertyOp30
 70
     1
102
RTVSPropertyOp31
 70
     1
102
RTVSPropertyOp32
 70
     1
  0
XRECORD
  5
2D6
102
{ACAD_REACTORS
330
2D5
102
}
330
2D5
100
AcDbXrecord
280
     1
102
RTVSPropertyOp0
 70
     1
102
RTVSPropertyOp1
 70
     1
102
RTVSPropertyOp2
 70
     1
102
RTVSPropertyOp3
 70
     1
102
RTVSPropertyOp4
 70
     1
102
RTVSPropertyOp5
 70
     1
102
RTVSPropertyOp6
 70
     1
102
RTVSPropertyOp7
 70
     1
102
RTVSPropertyOp8
 70
     1
102
RTVSPropertyOp9
 70
     1
102
RTVSPropertyOp10
 70
     1
102
RTVSPropertyOp11
 70
     1
102
RTVSPropertyOp12
 70
     1
102
RTVSPropertyOp13
 70
     1
102
RTVSPropertyOp14
 70
     1
102
RTVSPropertyOp15
 70
     1
102
RTVSPropertyOp16
 70
     1
102
RTVSPropertyOp17
 70
     1
102
RTVSPropertyOp18
 70
     1
102
RTVSPropertyOp19
 70
     1
102
RTVSPropertyOp20
 70
     1
102
RTVSPropertyOp21
 70
     1
102
RTVSPropertyOp22
 70
     1
102
RTVSPropertyOp23
 70
     1
102
RTVSPropertyOp24
 70
     1
102
RTVSPropertyOp25
 70
     1
102
RTVSPropertyOp26
 70
     1
102
RTVSPropertyOp27
 70
     1
102
RTVSPropertyOp28
 70
     1
102
RTVSPropertyOp29
 70
     1
102
RTVSPropertyOp30
 70
     1
102
RTVSPropertyOp31
 70
     1
102
RTVSPropertyOp32
 70
     1
  0
XRECORD
  5
2D8
102
{ACAD_REACTORS
330
2D7
102
}
330
2D7
100
AcDbXrecord
280
     1
102
RTVSPropertyOp0
 70
     1
102
RTVSPropertyOp1
 70
     1
102
RTVSPropertyOp2
 70
     1
102
RTVSPropertyOp3
 70
     1
102
RTVSPropertyOp4
 70
     1
102
RTVSPropertyOp5
 70
     1
102
RTVSPropertyOp6
 70
     1
102
RTVSPropertyOp7
 70
     1
102
RTVSPropertyOp8
 70
     1
102
RTVSPropertyOp9
 70
     1
102
RTVSPropertyOp10
 70
     1
102
RTVSPropertyOp11
 70
     1
102
RTVSPropertyOp12
 70
     1
102
RTVSPropertyOp13
 70
     1
102
RTVSPropertyOp14
 70
     1
102
RTVSPropertyOp15
 70
     1
102
RTVSPropertyOp16
 70
     1
102
RTVSPropertyOp17
 70
     1
102
RTVSPropertyOp18
 70
     1
102
RTVSPropertyOp19
 70
     1
102
RTVSPropertyOp20
 70
     1
102
RTVSPropertyOp21
 70
     1
102
RTVSPropertyOp22
 70
     1
102
RTVSPropertyOp23
 70
     1
102
RTVSPropertyOp24
 70
     1
102
RTVSPropertyOp25
 70
     1
102
RTVSPropertyOp26
 70
     1
102
RTVSPropertyOp27
 70
     1
102
RTVSPropertyOp28
 70
     1
102
RTVSPropertyOp29
 70
     1
102
RTVSPropertyOp30
 70
     1
102
RTVSPropertyOp31
 70
     1
102
RTVSPropertyOp32
 70
     1
  0
XRECORD
  5
2E0
102
{ACAD_REACTORS
330
2DF
102
}
330
2DF
100
AcDbXrecord
280
     1
102
RTVSPropertyOp0
 70
     1
102
RTVSPropertyOp1
 70
     1
102
RTVSPropertyOp2
 70
     1
102
RTVSPropertyOp3
 70
     1
102
RTVSPropertyOp4
 70
     1
102
RTVSPropertyOp5
 70
     1
102
RTVSPropertyOp6
 70
     1
102
RTVSPropertyOp7
 70
     1
102
RTVSPropertyOp8
 70
     1
102
RTVSPropertyOp9
 70
     1
102
RTVSPropertyOp10
 70
     1
102
RTVSPropertyOp11
 70
     1
102
RTVSPropertyOp12
 70
     1
102
RTVSPropertyOp13
 70
     1
102
RTVSPropertyOp14
 70
     1
102
RTVSPropertyOp15
 70
     1
102
RTVSPropertyOp16
 70
     1
102
RTVSPropertyOp17
 70
     1
102
RTVSPropertyOp18
 70
     1
102
RTVSPropertyOp19
 70
     1
102
RTVSPropertyOp20
 70
     1
102
RTVSPropertyOp21
 70
     1
102
RTVSPropertyOp22
 70
     1
102
RTVSPropertyOp23
 70
     1
102
RTVSPropertyOp24
 70
     1
102
RTVSPropertyOp25
 70
     1
102
RTVSPropertyOp26
 70
     1
102
RTVSPropertyOp27
 70
     1
102
RTVSPropertyOp28
 70
     1
102
RTVSPropertyOp29
 70
     1
102
RTVSPropertyOp30
 70
     1
102
RTVSPropertyOp31
 70
     1
102
RTVSPropertyOp32
 70
     1
  0
XRECORD
  5
2C4
102
{ACAD_REACTORS
330
2C3
102
}
330
2C3
100
AcDbXrecord
280
     1
102
RTVSPropertyOp0
 70
     1
102
RTVSPropertyOp1
 70
     1
102
RTVSPropertyOp2
 70
     1
102
RTVSPropertyOp3
 70
     1
102
RTVSPropertyOp4
 70
     1
102
RTVSPropertyOp5
 70
     1
102
RTVSPropertyOp6
 70
     1
102
RTVSPropertyOp7
 70
     1
102
RTVSPropertyOp8
 70
     1
102
RTVSPropertyOp9
 70
     1
102
RTVSPropertyOp10
 70
     1
102
RTVSPropertyOp11
 70
     1
102
RTVSPropertyOp12
 70
     1
102
RTVSPropertyOp13
 70
     1
102
RTVSPropertyOp14
 70
     1
102
RTVSPropertyOp15
 70
     1
102
RTVSPropertyOp16
 70
     1
102
RTVSPropertyOp17
 70
     1
102
RTVSPropertyOp18
 70
     1
102
RTVSPropertyOp19
 70
     1
102
RTVSPropertyOp20
 70
     1
102
RTVSPropertyOp21
 70
     1
102
RTVSPropertyOp22
 70
     1
102
RTVSPropertyOp23
 70
     1
102
RTVSPropertyOp24
 70
     1
102
RTVSPropertyOp25
 70
     1
102
RTVSPropertyOp26
 70
     1
102
RTVSPropertyOp27
 70
     1
102
RTVSPropertyOp28
 70
     1
102
RTVSPropertyOp29
 70
     1
102
RTVSPropertyOp30
 70
     1
102
RTVSPropertyOp31
 70
     1
102
RTVSPropertyOp32
 70
     1
  0
XRECORD
  5
2C6
102
{ACAD_REACTORS
330
2C5
102
}
330
2C5
100
AcDbXrecord
280
     1
102
RTVSPropertyOp0
 70
     1
102
RTVSPropertyOp1
 70
     1
102
RTVSPropertyOp2
 70
     1
102
RTVSPropertyOp3
 70
     1
102
RTVSPropertyOp4
 70
     1
102
RTVSPropertyOp5
 70
     1
102
RTVSPropertyOp6
 70
     1
102
RTVSPropertyOp7
 70
     1
102
RTVSPropertyOp8
 70
     1
102
RTVSPropertyOp9
 70
     1
102
RTVSPropertyOp10
 70
     1
102
RTVSPropertyOp11
 70
     1
102
RTVSPropertyOp12
 70
     1
102
RTVSPropertyOp13
 70
     1
102
RTVSPropertyOp14
 70
     1
102
RTVSPropertyOp15
 70
     1
102
RTVSPropertyOp16
 70
     1
102
RTVSPropertyOp17
 70
     1
102
RTVSPropertyOp18
 70
     1
102
RTVSPropertyOp19
 70
     1
102
RTVSPropertyOp20
 70
     1
102
RTVSPropertyOp21
 70
     1
102
RTVSPropertyOp22
 70
     1
102
RTVSPropertyOp23
 70
     1
102
RTVSPropertyOp24
 70
     1
102
RTVSPropertyOp25
 70
     1
102
RTVSPropertyOp26
 70
     1
102
RTVSPropertyOp27
 70
     1
102
RTVSPropertyOp28
 70
     1
102
RTVSPropertyOp29
 70
     1
102
RTVSPropertyOp30
 70
     1
102
RTVSPropertyOp31
 70
     1
102
RTVSPropertyOp32
 70
     1
  0
XRECORD
  5
2C8
102
{ACAD_REACTORS
330
2C7
102
}
330
2C7
100
AcDbXrecord
280
     1
102
RTVSPropertyOp0
 70
     1
102
RTVSPropertyOp1
 70
     1
102
RTVSPropertyOp2
 70
     1
102
RTVSPropertyOp3
 70
     1
102
RTVSPropertyOp4
 70
     1
102
RTVSPropertyOp5
 70
     1
102
RTVSPropertyOp6
 70
     1
102
RTVSPropertyOp7
 70
     1
102
RTVSPropertyOp8
 70
     1
102
RTVSPropertyOp9
 70
     1
102
RTVSPropertyOp10
 70
     1
102
RTVSPropertyOp11
 70
     1
102
RTVSPropertyOp12
 70
     1
102
RTVSPropertyOp13
 70
     1
102
RTVSPropertyOp14
 70
     1
102
RTVSPropertyOp15
 70
     1
102
RTVSPropertyOp16
 70
     1
102
RTVSPropertyOp17
 70
     1
102
RTVSPropertyOp18
 70
     1
102
RTVSPropertyOp19
 70
     1
102
RTVSPropertyOp20
 70
     1
102
RTVSPropertyOp21
 70
     1
102
RTVSPropertyOp22
 70
     1
102
RTVSPropertyOp23
 70
     1
102
RTVSPropertyOp24
 70
     1
102
RTVSPropertyOp25
 70
     1
102
RTVSPropertyOp26
 70
     1
102
RTVSPropertyOp27
 70
     1
102
RTVSPropertyOp28
 70
     1
102
RTVSPropertyOp29
 70
     1
102
RTVSPropertyOp30
 70
     1
102
RTVSPropertyOp31
 70
     1
102
RTVSPropertyOp32
 70
     1
  0
XRECORD
  5
2CA
102
{ACAD_REACTORS
330
2C9
102
}
330
2C9
100
AcDbXrecord
280
     1
102
RTVSPropertyOp0
 70
     1
102
RTVSPropertyOp1
 70
     1
102
RTVSPropertyOp2
 70
     1
102
RTVSPropertyOp3
 70
     1
102
RTVSPropertyOp4
 70
     1
102
RTVSPropertyOp5
 70
     1
102
RTVSPropertyOp6
 70
     1
102
RTVSPropertyOp7
 70
     1
102
RTVSPropertyOp8
 70
     1
102
RTVSPropertyOp9
 70
     1
102
RTVSPropertyOp10
 70
     1
102
RTVSPropertyOp11
 70
     1
102
RTVSPropertyOp12
 70
     1
102
RTVSPropertyOp13
 70
     1
102
RTVSPropertyOp14
 70
     1
102
RTVSPropertyOp15
 70
     1
102
RTVSPropertyOp16
 70
     1
102
RTVSPropertyOp17
 70
     1
102
RTVSPropertyOp18
 70
     1
102
RTVSPropertyOp19
 70
     1
102
RTVSPropertyOp20
 70
     1
102
RTVSPropertyOp21
 70
     1
102
RTVSPropertyOp22
 70
     1
102
RTVSPropertyOp23
 70
     1
102
RTVSPropertyOp24
 70
     1
102
RTVSPropertyOp25
 70
     1
102
RTVSPropertyOp26
 70
     1
102
RTVSPropertyOp27
 70
     1
102
RTVSPropertyOp28
 70
     1
102
RTVSPropertyOp29
 70
     1
102
RTVSPropertyOp30
 70
     1
102
RTVSPropertyOp31
 70
     1
102
RTVSPropertyOp32
 70
     1
  0
XRECORD
  5
2DE
102
{ACAD_REACTORS
330
2DD
102
}
330
2DD
100
AcDbXrecord
280
     1
102
RTVSPropertyOp0
 70
     1
102
RTVSPropertyOp1
 70
     1
102
RTVSPropertyOp2
 70
     1
102
RTVSPropertyOp3
 70
     1
102
RTVSPropertyOp4
 70
     1
102
RTVSPropertyOp5
 70
     1
102
RTVSPropertyOp6
 70
     1
102
RTVSPropertyOp7
 70
     1
102
RTVSPropertyOp8
 70
     1
102
RTVSPropertyOp9
 70
     1
102
RTVSPropertyOp10
 70
     1
102
RTVSPropertyOp11
 70
     1
102
RTVSPropertyOp12
 70
     1
102
RTVSPropertyOp13
 70
     1
102
RTVSPropertyOp14
 70
     1
102
RTVSPropertyOp15
 70
     1
102
RTVSPropertyOp16
 70
     1
102
RTVSPropertyOp17
 70
     1
102
RTVSPropertyOp18
 70
     1
102
RTVSPropertyOp19
 70
     1
102
RTVSPropertyOp20
 70
     1
102
RTVSPropertyOp21
 70
     1
102
RTVSPropertyOp22
 70
     1
102
RTVSPropertyOp23
 70
     1
102
RTVSPropertyOp24
 70
     1
102
RTVSPropertyOp25
 70
     1
102
RTVSPropertyOp26
 70
     1
102
RTVSPropertyOp27
 70
     1
102
RTVSPropertyOp28
 70
     1
102
RTVSPropertyOp29
 70
     1
102
RTVSPropertyOp30
 70
     1
102
RTVSPropertyOp31
 70
     1
102
RTVSPropertyOp32
 70
     1
  0
XRECORD
  5
2D4
102
{ACAD_REACTORS
330
2D3
102
}
330
2D3
100
AcDbXrecord
280
     1
102
RTVSPropertyOp0
 70
     1
102
RTVSPropertyOp1
 70
     1
102
RTVSPropertyOp2
 70
     1
102
RTVSPropertyOp3
 70
     1
102
RTVSPropertyOp4
 70
     1
102
RTVSPropertyOp5
 70
     1
102
RTVSPropertyOp6
 70
     1
102
RTVSPropertyOp7
 70
     1
102
RTVSPropertyOp8
 70
     1
102
RTVSPropertyOp9
 70
     1
102
RTVSPropertyOp10
 70
     1
102
RTVSPropertyOp11
 70
     1
102
RTVSPropertyOp12
 70
     1
102
RTVSPropertyOp13
 70
     1
102
RTVSPropertyOp14
 70
     1
102
RTVSPropertyOp15
 70
     1
102
RTVSPropertyOp16
 70
     1
102
RTVSPropertyOp17
 70
     1
102
RTVSPropertyOp18
 70
     1
102
RTVSPropertyOp19
 70
     1
102
RTVSPropertyOp20
 70
     1
102
RTVSPropertyOp21
 70
     1
102
RTVSPropertyOp22
 70
     1
102
RTVSPropertyOp23
 70
     1
102
RTVSPropertyOp24
 70
     1
102
RTVSPropertyOp25
 70
     1
102
RTVSPropertyOp26
 70
     1
102
RTVSPropertyOp27
 70
     1
102
RTVSPropertyOp28
 70
     1
102
RTVSPropertyOp29
 70
     1
102
RTVSPropertyOp30
 70
     1
102
RTVSPropertyOp31
 70
     1
102
RTVSPropertyOp32
 70
     1
  0
XRECORD
  5
2DC
102
{ACAD_REACTORS
330
2DB
102
}
330
2DB
100
AcDbXrecord
280
     1
102
RTVSPropertyOp0
 70
     1
102
RTVSPropertyOp1
 70
     1
102
RTVSPropertyOp2
 70
     1
102
RTVSPropertyOp3
 70
     1
102
RTVSPropertyOp4
 70
     1
102
RTVSPropertyOp5
 70
     1
102
RTVSPropertyOp6
 70
     1
102
RTVSPropertyOp7
 70
     1
102
RTVSPropertyOp8
 70
     1
102
RTVSPropertyOp9
 70
     1
102
RTVSPropertyOp10
 70
     1
102
RTVSPropertyOp11
 70
     1
102
RTVSPropertyOp12
 70
     1
102
RTVSPropertyOp13
 70
     1
102
RTVSPropertyOp14
 70
     1
102
RTVSPropertyOp15
 70
     1
102
RTVSPropertyOp16
 70
     1
102
RTVSPropertyOp17
 70
     1
102
RTVSPropertyOp18
 70
     1
102
RTVSPropertyOp19
 70
     1
102
RTVSPropertyOp20
 70
     1
102
RTVSPropertyOp21
 70
     1
102
RTVSPropertyOp22
 70
     1
102
RTVSPropertyOp23
 70
     1
102
RTVSPropertyOp24
 70
     1
102
RTVSPropertyOp25
 70
     1
102
RTVSPropertyOp26
 70
     1
102
RTVSPropertyOp27
 70
     1
102
RTVSPropertyOp28
 70
     1
102
RTVSPropertyOp29
 70
     1
102
RTVSPropertyOp30
 70
     1
102
RTVSPropertyOp31
 70
     1
102
RTVSPropertyOp32
 70
     1
  0
ENDSEC
  0
EOF
