  0
SECTION
  2
HEADER
  9
$ACADVER
  1
AC1015
  9
$ACADMAINTVER
 70
     6
  9
$DWGCODEPAGE
  3
ANSI_932
  9
$INSBASE
 10
0.0
 20
0.0
 30
0.0
  9
$EXTMIN
 10
0.0
 20
0.0
 30
0.0
  9
$EXTMAX
 10
420.0
 20
594.0
 30
0.0
  9
$LIMMIN
 10
0.0
 20
0.0
  9
$LIMMAX
 10
12.0
 20
9.0
  9
$ORTHOMODE
 70
     0
  9
$REGENMODE
 70
     1
  9
$FILLMODE
 70
     1
  9
$QTEXTMODE
 70
     0
  9
$MIRRTEXT
 70
     1
  9
$LTSCALE
 40
1.0
  9
$ATTMODE
 70
     1
  9
$TEXTSIZE
 40
0.2
  9
$TRACEWID
 40
0.05
  9
$TEXTSTYLE
  7
Standard
  9
$CLAYER
  8
0
  9
$CELTYPE
  6
ByLayer
  9
$CECOLOR
 62
   256
  9
$CELTSCALE
 40
1.0
  9
$DISPSILH
 70
     0
  9
$DIMSCALE
 40
1.0
  9
$DIMASZ
 40
0.18
  9
$DIMEXO
 40
0.0625
  9
$DIMDLI
 40
0.38
  9
$DIMRND
 40
0.0
  9
$DIMDLE
 40
0.0
  9
$DIMEXE
 40
0.18
  9
$DIMTP
 40
0.0
  9
$DIMTM
 40
0.0
  9
$DIMTXT
 40
0.18
  9
$DIMCEN
 40
0.09
  9
$DIMTSZ
 40
0.0
  9
$DIMTOL
 70
     0
  9
$DIMLIM
 70
     0
  9
$DIMTIH
 70
     1
  9
$DIMTOH
 70
     1
  9
$DIMSE1
 70
     0
  9
$DIMSE2
 70
     0
  9
$DIMTAD
 70
     0
  9
$DIMZIN
 70
     0
  9
$DIMBLK
  1

  9
$DIMASO
 70
     1
  9
$DIMSHO
 70
     1
  9
$DIMPOST
  1

  9
$DIMAPOST
  1

  9
$DIMALT
 70
     0
  9
$DIMALTD
 70
     2
  9
$DIMALTF
 40
25.4
  9
$DIMLFAC
 40
1.0
  9
$DIMTOFL
 70
     0
  9
$DIMTVP
 40
0.0
  9
$DIMTIX
 70
     0
  9
$DIMSOXD
 70
     0
  9
$DIMSAH
 70
     0
  9
$DIMBLK1
  1

  9
$DIMBLK2
  1

  9
$DIMSTYLE
  2
Standard
  9
$DIMCLRD
 70
     0
  9
$DIMCLRE
 70
     0
  9
$DIMCLRT
 70
     0
  9
$DIMTFAC
 40
1.0
  9
$DIMGAP
 40
0.09
  9
$DIMJUST
 70
     0
  9
$DIMSD1
 70
     0
  9
$DIMSD2
 70
     0
  9
$DIMTOLJ
 70
     1
  9
$DIMTZIN
 70
     0
  9
$DIMALTZ
 70
     0
  9
$DIMALTTZ
 70
     0
  9
$DIMUPT
 70
     0
  9
$DIMDEC
 70
     4
  9
$DIMTDEC
 70
     4
  9
$DIMALTU
 70
     2
  9
$DIMALTTD
 70
     2
  9
$DIMTXSTY
  7
Standard
  9
$DIMAUNIT
 70
     0
  9
$DIMADEC
 70
     0
  9
$DIMALTRND
 40
0.0
  9
$DIMAZIN
 70
     0
  9
$DIMDSEP
 70
    46
  9
$DIMATFIT
 70
     3
  9
$DIMFRAC
 70
     0
  9
$DIMLDRBLK
  1

  9
$DIMLUNIT
 70
     2
  9
$DIMLWD
 70
    -2
  9
$DIMLWE
 70
    -2
  9
$DIMTMOVE
 70
     0
  9
$LUNITS
 70
     2
  9
$LUPREC
 70
     4
  9
$SKETCHINC
 40
0.1
  9
$FILLETRAD
 40
0.5
  9
$AUNITS
 70
     0
  9
$AUPREC
 70
     0
  9
$MENU
  1
.
  9
$ELEVATION
 40
0.0
  9
$PELEVATION
 40
0.0
  9
$THICKNESS
 40
0.0
  9
$LIMCHECK
 70
     0
  9
$CHAMFERA
 40
0.5
  9
$CHAMFERB
 40
0.5
  9
$CHAMFERC
 40
1.0
  9
$CHAMFERD
 40
0.0
  9
$SKPOLY
 70
     0
  9
$TDCREATE
 40
2456548.599290232
  9
$TDUCREATE
 40
2456548.224290232
  9
$TDUPDATE
 40
2456548.599291493
  9
$TDUUPDATE
 40
2456548.224291493
  9
$TDINDWG
 40
0.0000000116
  9
$TDUSRTIMER
 40
0.0000000116
  9
$USRTIMER
 70
     1
  9
$ANGBASE
 50
0.0
  9
$ANGDIR
 70
     0
  9
$PDMODE
 70
     0
  9
$PDSIZE
 40
0.0
  9
$PLINEWID
 40
0.0
  9
$SPLFRAME
 70
     0
  9
$SPLINETYPE
 70
     6
  9
$SPLINESEGS
 70
     8
  9
$HANDSEED
  5
28F
  9
$SURFTAB1
 70
     6
  9
$SURFTAB2
 70
     6
  9
$SURFTYPE
 70
     6
  9
$SURFU
 70
     6
  9
$SURFV
 70
     6
  9
$UCSBASE
  2

  9
$UCSNAME
  2

  9
$UCSORG
 10
0.0
 20
0.0
 30
0.0
  9
$UCSXDIR
 10
1.0
 20
0.0
 30
0.0
  9
$UCSYDIR
 10
0.0
 20
1.0
 30
0.0
  9
$UCSORTHOREF
  2

  9
$UCSORTHOVIEW
 70
     0
  9
$UCSORGTOP
 10
0.0
 20
0.0
 30
0.0
  9
$UCSORGBOTTOM
 10
0.0
 20
0.0
 30
0.0
  9
$UCSORGLEFT
 10
0.0
 20
0.0
 30
0.0
  9
$UCSORGRIGHT
 10
0.0
 20
0.0
 30
0.0
  9
$UCSORGFRONT
 10
0.0
 20
0.0
 30
0.0
  9
$UCSORGBACK
 10
0.0
 20
0.0
 30
0.0
  9
$PUCSBASE
  2

  9
$PUCSNAME
  2

  9
$PUCSORG
 10
0.0
 20
0.0
 30
0.0
  9
$PUCSXDIR
 10
1.0
 20
0.0
 30
0.0
  9
$PUCSYDIR
 10
0.0
 20
1.0
 30
0.0
  9
$PUCSORTHOREF
  2

  9
$PUCSORTHOVIEW
 70
     0
  9
$PUCSORGTOP
 10
0.0
 20
0.0
 30
0.0
  9
$PUCSORGBOTTOM
 10
0.0
 20
0.0
 30
0.0
  9
$PUCSORGLEFT
 10
0.0
 20
0.0
 30
0.0
  9
$PUCSORGRIGHT
 10
0.0
 20
0.0
 30
0.0
  9
$PUCSORGFRONT
 10
0.0
 20
0.0
 30
0.0
  9
$PUCSORGBACK
 10
0.0
 20
0.0
 30
0.0
  9
$USERI1
 70
     0
  9
$USERI2
 70
     0
  9
$USERI3
 70
     0
  9
$USERI4
 70
     0
  9
$USERI5
 70
     0
  9
$USERR1
 40
18.1
  9
$USERR2
 40
0.0
  9
$USERR3
 40
0.0
  9
$USERR4
 40
0.0
  9
$USERR5
 40
0.0
  9
$WORLDVIEW
 70
     1
  9
$SHADEDGE
 70
     3
  9
$SHADEDIF
 70
    70
  9
$TILEMODE
 70
     1
  9
$MAXACTVP
 70
    64
  9
$PINSBASE
 10
0.0
 20
0.0
 30
0.0
  9
$PLIMCHECK
 70
     0
  9
$PEXTMIN
 10
1.00000000000000E+20
 20
1.00000000000000E+20
 30
1.00000000000000E+20
  9
$PEXTMAX
 10
-1.00000000000000E+20
 20
-1.00000000000000E+20
 30
-1.00000000000000E+20
  9
$PLIMMIN
 10
0.0
 20
0.0
  9
$PLIMMAX
 10
12.0
 20
9.0
  9
$UNITMODE
 70
     0
  9
$VISRETAIN
 70
     1
  9
$PLINEGEN
 70
     0
  9
$PSLTSCALE
 70
     1
  9
$TREEDEPTH
 70
  3020
  9
$CMLSTYLE
  2
Standard
  9
$CMLJUST
 70
     0
  9
$CMLSCALE
 40
1.0
  9
$PROXYGRAPHICS
 70
     1
  9
$MEASUREMENT
 70
     1
  9
$CELWEIGHT
370
    -1
  9
$ENDCAPS
280
     0
  9
$JOINSTYLE
280
     0
  9
$LWDISPLAY
290
     0
  9
$INSUNITS
 70
     4
  9
$HYPERLINKBASE
  1

  9
$STYLESHEET
  1

  9
$XEDIT
290
     1
  9
$CEPSNTYPE
380
     0
  9
$PSTYLEMODE
290
     1
  9
$FINGERPRINTGUID
  2
{567FACFF-6D65-4304-ADDD-87041223BBF3}
  9
$VERSIONGUID
  2
{FAEB1C32-E019-11D5-929B-00C0DF256EC4}
  9
$EXTNAMES
290
     1
  9
$PSVPSCALE
 40
0.0
  9
$OLESTARTUP
290
     0
  0
ENDSEC
  0
SECTION
  2
CLASSES
  0
CLASS
  1
ACDBDICTIONARYWDFLT
  2
AcDbDictionaryWithDefault
  3
ObjectDBX Classes
 90
        0
280
     0
281
     0
  0
CLASS
  1
VISUALSTYLE
  2
AcDbVisualStyle
  3
ObjectDBX Classes
 90
     4095
280
     0
281
     0
  0
CLASS
  1
MATERIAL
  2
AcDbMaterial
  3
ObjectDBX Classes
 90
     1153
280
     0
281
     0
  0
CLASS
  1
DICTIONARYVAR
  2
AcDbDictionaryVar
  3
ObjectDBX Classes
 90
        0
280
     0
281
     0
  0
CLASS
  1
ACDBPLACEHOLDER
  2
AcDbPlaceHolder
  3
ObjectDBX Classes
 90
        0
280
     0
281
     0
  0
CLASS
  1
LAYOUT
  2
AcDbLayout
  3
ObjectDBX Classes
 90
        0
280
     0
281
     0
  0
ENDSEC
  0
SECTION
  2
TABLES
  0
TABLE
  2
VPORT
  5
8
330
0
100
AcDbSymbolTable
 70
     1
  0
VPORT
  5
29
330
8
100
AcDbSymbolTableRecord
100
AcDbViewportTableRecord
  2
*Active
 70
     0
 10
0.0
 20
0.0
 11
1.0
 21
1.0
 12
210.0
 22
297.0
 13
0.0
 23
0.0
 14
0.5
 24
0.5
 15
0.5
 25
0.5
 16
0.0
 26
0.0
 36
1.0
 17
0.0
 27
0.0
 37
0.0
 40
653.4000000000001
 41
1.60267857142857
 42
50.0
 43
0.0
 44
0.0
 50
0.0
 51
0.0
 71
     0
 72
   100
 73
     1
 74
     3
 75
     0
 76
     0
 77
     0
 78
     0
281
     0
 65
     1
110
0.0
120
0.0
130
0.0
111
1.0
121
0.0
131
0.0
112
0.0
122
1.0
132
0.0
 79
     0
146
0.0
  0
ENDTAB
  0
TABLE
  2
LTYPE
  5
5
330
0
100
AcDbSymbolTable
 70
     8
  0
LTYPE
  5
14
330
5
100
AcDbSymbolTableRecord
100
AcDbLinetypeTableRecord
  2
ByBlock
 70
     0
  3

 72
    65
 73
     0
 40
0.0
  0
LTYPE
  5
15
330
5
100
AcDbSymbolTableRecord
100
AcDbLinetypeTableRecord
  2
ByLayer
 70
     0
  3

 72
    65
 73
     0
 40
0.0
  0
LTYPE
  5
16
330
5
100
AcDbSymbolTableRecord
100
AcDbLinetypeTableRecord
  2
Continuous
 70
     0
  3
Solid line
 72
    65
 73
     0
 40
0.0
  0
LTYPE
  5
3F
330
5
100
AcDbSymbolTableRecord
100
AcDbLinetypeTableRecord
  2
DASHED
 70
     0
  3
Dashed
 72
    65
 73
     2
 40
15.0
 49
7.0
 74
     0
 49
-8.0
 74
     0
  0
LTYPE
  5
40
330
5
100
AcDbSymbolTableRecord
100
AcDbLinetypeTableRecord
  2
DOTTED
 70
     0
  3
Dotted
 72
    65
 73
     2
 40
1.0
 49
0.0
 74
     0
 49
-1.0
 74
     0
  0
LTYPE
  5
41
330
5
100
AcDbSymbolTableRecord
100
AcDbLinetypeTableRecord
  2
DOT_CENTER
 70
     0
  3
Dot_Center
 72
    65
 73
     4
 40
14.0
 49
12.0
 74
     0
 49
-1.0
 74
     0
 49
0.0
 74
     0
 49
-1.0
 74
     0
  0
LTYPE
  5
42
330
5
100
AcDbSymbolTableRecord
100
AcDbLinetypeTableRecord
  2
LONG_DASHED
 70
     0
  3
Long_Dashed
 72
    65
 73
     2
 40
15.0
 49
10.0
 74
     0
 49
-5.0
 74
     0
  0
LTYPE
  5
43
330
5
100
AcDbSymbolTableRecord
100
AcDbLinetypeTableRecord
  2
DASH_CENTER
 70
     0
  3
Dash_Center
 72
    65
 73
     4
 40
14.0
 49
11.0
 74
     0
 49
-1.0
 74
     0
 49
1.0
 74
     0
 49
-1.0
 74
     0
  0
LTYPE
  5
44
330
5
100
AcDbSymbolTableRecord
100
AcDbLinetypeTableRecord
  2
PHANTOM
 70
     0
  3
Phantom
 72
    65
 73
     6
 40
13.0
 49
10.0
 74
     0
 49
-1.0
 74
     0
 49
0.0
 74
     0
 49
-1.0
 74
     0
 49
0.0
 74
     0
 49
-1.0
 74
     0
  0
LTYPE
  5
45
330
5
100
AcDbSymbolTableRecord
100
AcDbLinetypeTableRecord
  2
CENTER_DASH_DASH
 70
     0
  3
Center_Dash_Dash
 72
    65
 73
     6
 40
14.0
 49
9.0
 74
     0
 49
-1.0
 74
     0
 49
1.0
 74
     0
 49
-1.0
 74
     0
 49
1.0
 74
     0
 49
-1.0
 74
     0
  0
ENDTAB
  0
TABLE
  2
LAYER
  5
2
330
0
100
AcDbSymbolTable
 70
     2
  0
LAYER
  5
10
330
2
100
AcDbSymbolTableRecord
100
AcDbLayerTableRecord
  2
0
 70
     0
 62
     7
  6
Continuous
370
    -3
390
F
  0
LAYER
  5
46
330
2
100
AcDbSymbolTableRecord
100
AcDbLayerTableRecord
  2
1
 70
     0
 62
     7
  6
Continuous
370
    -3
390
F
  0
ENDTAB
  0
TABLE
  2
STYLE
  5
3
330
0
100
AcDbSymbolTable
 70
     3
  0
STYLE
  5
11
330
3
100
AcDbSymbolTableRecord
100
AcDbTextStyleTableRecord
  2
Standard
 70
     0
 40
0.0
 41
1.0
 50
0.0
 71
     0
 42
0.2
  3
txt
  4

  0
STYLE
  5
1D4
330
3
100
AcDbSymbolTableRecord
100
AcDbTextStyleTableRecord
  2
CONVERTER_11
 70
     0
 40
0.0
 41
0.89
 50
0.0
 71
     0
 42
0.2
  3
MS Mincho.ttf
  4

1001
ACAD
1000
MS Mincho
1071
    32785
  0
STYLE
  5
219
330
3
100
AcDbSymbolTableRecord
100
AcDbTextStyleTableRecord
  2
CONVERTER_12
 70
     0
 40
0.0
 41
0.9
 50
0.0
 71
     0
 42
0.2
  3
txt.shx
  4

  0
ENDTAB
  0
TABLE
  2
VIEW
  5
6
330
0
100
AcDbSymbolTable
 70
     0
  0
ENDTAB
  0
TABLE
  2
UCS
  5
7
330
0
100
AcDbSymbolTable
 70
     0
  0
ENDTAB
  0
TABLE
  2
APPID
  5
9
330
0
100
AcDbSymbolTable
 70
     1
  0
APPID
  5
12
330
9
100
AcDbSymbolTableRecord
100
AcDbRegAppTableRecord
  2
ACAD
 70
     0
  0
ENDTAB
  0
TABLE
  2
DIMSTYLE
  5
A
330
0
100
AcDbSymbolTable
 70
     7
100
AcDbDimStyleTable
  0
DIMSTYLE
105
27
330
A
100
AcDbSymbolTableRecord
100
AcDbDimStyleTableRecord
  2
Standard
 70
     0
178
     0
340
11
  0
DIMSTYLE
105
229
102
{ACAD_REACTORS
330
22A
102
}
330
A
100
AcDbSymbolTableRecord
100
AcDbDimStyleTableRecord
  2
ME10_DIM_10
 70
     0
 41
7.0
 42
0.0
 44
2.0
 73
     0
 74
     0
 77
     1
 78
     8
140
7.0
147
2.0
172
     1
173
     1
174
     1
175
     1
176
     2
177
     2
271
     2
178
     7
271
     2
340
219
  0
DIMSTYLE
105
234
102
{ACAD_REACTORS
330
235
102
}
330
A
100
AcDbSymbolTableRecord
100
AcDbDimStyleTableRecord
  2
ME10_DIM_11
 70
     0
  3
{\Fgdt;n}<>
 41
7.0
 42
0.0
 44
2.0
 73
     0
 74
     0
 77
     1
 78
     8
140
7.0
147
2.0
172
     1
173
     1
174
     1
175
     1
176
     2
177
     2
271
     2
178
     7
271
     2
340
219
  0
DIMSTYLE
105
23F
102
{ACAD_REACTORS
330
240
102
}
330
A
100
AcDbSymbolTableRecord
100
AcDbDimStyleTableRecord
  2
ME10_DIM_12
 70
     0
 41
7.0
 42
0.0
 44
2.0
 73
     0
 74
     0
 77
     1
 78
     8
140
7.0
147
2.0
172
     1
173
     1
174
     1
175
     1
176
     2
177
     2
271
     2
178
     7
271
     2
340
219
  0
DIMSTYLE
105
24C
102
{ACAD_REACTORS
330
24D
102
}
330
A
100
AcDbSymbolTableRecord
100
AcDbDimStyleTableRecord
  2
ME10_DIM_13
 70
     0
 41
7.0
 42
0.0
 44
2.0
 73
     0
 74
     0
 77
     1
 78
     8
140
7.0
147
2.0
172
     1
173
     1
174
     1
175
     1
176
     2
177
     2
271
     2
178
     7
271
     2
340
219
  0
DIMSTYLE
105
257
102
{ACAD_REACTORS
330
258
102
}
330
A
100
AcDbSymbolTableRecord
100
AcDbDimStyleTableRecord
  2
ME10_DIM_14
 70
     0
 41
7.0
 42
0.0
 44
2.0
 73
     0
 74
     0
 77
     1
 78
     8
140
7.0
147
2.0
172
     1
173
     1
174
     1
175
     1
176
     2
177
     2
271
     2
178
     7
271
     2
340
1D4
  0
DIMSTYLE
105
262
102
{ACAD_REACTORS
330
263
102
}
330
A
100
AcDbSymbolTableRecord
100
AcDbDimStyleTableRecord
  2
ME10_DIM_15
 70
     0
 41
7.0
 42
0.0
 44
2.0
 73
     0
 74
     0
 77
     1
 78
     8
140
7.0
147
2.0
172
     1
173
     1
174
     1
175
     1
176
     2
177
     2
271
     2
178
     7
271
     2
340
219
  0
ENDTAB
  0
TABLE
  2
BLOCK_RECORD
  5
1
330
0
100
AcDbSymbolTable
 70
    14
  0
BLOCK_RECORD
  5
1F
330
1
100
AcDbSymbolTableRecord
100
AcDbBlockTableRecord
  2
*Model_Space
340
22
  0
BLOCK_RECORD
  5
1B
330
1
100
AcDbSymbolTableRecord
100
AcDbBlockTableRecord
  2
*Paper_Space
340
1E
  0
BLOCK_RECORD
  5
23
330
1
100
AcDbSymbolTableRecord
100
AcDbBlockTableRecord
  2
*Paper_Space0
340
26
  0
BLOCK_RECORD
  5
47
330
1
100
AcDbSymbolTableRecord
100
AcDbBlockTableRecord
  2
36-190-M11
340
0
102
{BLKREFS
331
4E
102
}
  0
BLOCK_RECORD
  5
4A
330
1
100
AcDbSymbolTableRecord
100
AcDbBlockTableRecord
  2
37-119
340
0
102
{BLKREFS
331
4F
102
}
  0
BLOCK_RECORD
  5
4D
330
1
100
AcDbSymbolTableRecord
100
AcDbBlockTableRecord
  2
U360S-13
340
0
102
{BLKREFS
331
5E
102
}
  0
BLOCK_RECORD
  5
52
330
1
100
AcDbSymbolTableRecord
100
AcDbBlockTableRecord
  2
27-2A-M1
340
0
102
{BLKREFS
331
5F
102
}
  0
BLOCK_RECORD
  5
55
330
1
100
AcDbSymbolTableRecord
100
AcDbBlockTableRecord
  2
A90-0A-13-M1
340
0
102
{BLKREFS
331
60
102
}
  0
BLOCK_RECORD
  5
58
330
1
100
AcDbSymbolTableRecord
100
AcDbBlockTableRecord
  2
開示A4
340
0
102
{BLKREFS
331
61
102
}
  0
BLOCK_RECORD
  5
5B
330
1
100
AcDbSymbolTableRecord
100
AcDbBlockTableRecord
  2
42-29
340
0
102
{BLKREFS
331
62
102
}
  0
BLOCK_RECORD
  5
220
330
1
100
AcDbSymbolTableRecord
100
AcDbBlockTableRecord
  2
*D8
340
0
  0
BLOCK_RECORD
  5
22B
330
1
100
AcDbSymbolTableRecord
100
AcDbBlockTableRecord
  2
*D9
340
0
  0
BLOCK_RECORD
  5
236
330
1
100
AcDbSymbolTableRecord
100
AcDbBlockTableRecord
  2
*D10
340
0
  0
BLOCK_RECORD
  5
241
330
1
100
AcDbSymbolTableRecord
100
AcDbBlockTableRecord
  2
*D11
340
0
  0
BLOCK_RECORD
  5
24E
330
1
100
AcDbSymbolTableRecord
100
AcDbBlockTableRecord
  2
*D12
340
0
  0
BLOCK_RECORD
  5
259
330
1
100
AcDbSymbolTableRecord
100
AcDbBlockTableRecord
  2
*D13
340
0
  0
ENDTAB
  0
ENDSEC
  0
SECTION
  2
BLOCKS
  0
BLOCK
  5
20
330
1F
100
AcDbEntity
  8
0
100
AcDbBlockBegin
  2
*Model_Space
 70
     0
 10
0.0
 20
0.0
 30
0.0
  3
*Model_Space
  1

  0
ENDBLK
  5
21
330
1F
100
AcDbEntity
  8
0
100
AcDbBlockEnd
  0
BLOCK
  5
1C
330
1B
100
AcDbEntity
 67
     1
  8
0
100
AcDbBlockBegin
  2
*Paper_Space
 70
     0
 10
0.0
 20
0.0
 30
0.0
  3
*Paper_Space
  1

  0
ENDBLK
  5
1D
330
1B
100
AcDbEntity
 67
     1
  8
0
100
AcDbBlockEnd
  0
BLOCK
  5
24
330
23
100
AcDbEntity
  8
0
100
AcDbBlockBegin
  2
*Paper_Space0
 70
     0
 10
0.0
 20
0.0
 30
0.0
  3
*Paper_Space0
  1

  0
ENDBLK
  5
25
330
23
100
AcDbEntity
  8
0
100
AcDbBlockEnd
  0
BLOCK
  5
48
330
47
100
AcDbEntity
  8
0
100
AcDbBlockBegin
  2
36-190-M11
 70
     0
 10
145.6617867375143
 20
59.66926166990001
 30
0.0
  3
36-190-M11
  1

  0
LINE
  5
63
330
47
100
AcDbEntity
  8
1
  6
Continuous
 62
     7
100
AcDbLine
 10
296.2256451594626
 20
205.7383876793361
 30
0.0
 11
296.2256451594627
 21
202.2382890032491
 31
0.0
  0
LINE
  5
64
330
47
100
AcDbEntity
  8
1
  6
Continuous
 62
     7
100
AcDbLine
 10
114.2092901941679
 20
205.7383876793361
 30
0.0
 11
114.2092901941679
 21
202.2383876793357
 31
0.0
  0
LINE
  5
65
330
47
100
AcDbEntity
  8
1
  6
Continuous
 62
     7
100
AcDbLine
 10
104.7092901941679
 20
202.2383876793357
 30
0.0
 11
104.7092901941679
 21
205.7383876793361
 31
0.0
  0
LINE
  5
66
330
47
100
AcDbEntity
  8
1
  6
Continuous
 62
     7
100
AcDbLine
 10
286.7256451594625
 20
202.2382890032492
 30
0.0
 11
286.7256451594625
 21
205.7383876793361
 31
0.0
  0
ENDBLK
  5
49
330
47
100
AcDbEntity
  8
0
100
AcDbBlockEnd
  0
BLOCK
  5
4B
330
4A
100
AcDbEntity
  8
0
100
AcDbBlockBegin
  2
37-119
 70
     0
 10
613.9661316756567
 20
660.9902526749138
 30
0.0
  3
37-119
  1

  0
LINE
  5
67
330
4A
100
AcDbEntity
  8
1
  6
Continuous
 62
     7
100
AcDbLine
 10
100.9592901941678
 20
201.2382890032491
 30
0.0
 11
100.9592901941677
 21
196.5519975022339
 31
0.0
  0
LINE
  5
68
330
4A
100
AcDbEntity
  8
1
  6
Continuous
 62
     7
100
AcDbLine
 10
96.4237562882351
 20
190.7738229091821
 30
0.0
 11
100.0806105377273
 21
194.4306771586745
 31
0.0
  0
LINE
  5
69
330
4A
100
AcDbEntity
  8
1
  6
Continuous
 62
     7
100
AcDbLine
 10
101.9592901941677
 20
195.3093568151148
 30
0.0
 11
109.4592901941677
 21
195.3093568151146
 31
0.0
  0
LINE
  5
6A
330
4A
100
AcDbEntity
  8
1
  6
Continuous
 62
     7
100
AcDbLine
 10
104.5592901941676
 20
183.7382890032492
 30
0.0
 11
101.9592901941676
 21
183.7382890032492
 31
0.0
  0
LINE
  5
6B
330
4A
100
AcDbEntity
  8
1
  6
Continuous
 62
     7
100
AcDbLine
 10
101.9592901941676
 20
183.7382890032492
 30
0.0
 11
96.3885759798962
 21
183.7382890032494
 31
0.0
  0
LINE
  5
6C
330
4A
100
AcDbEntity
  8
1
  6
PHANTOM
 62
     4
100
AcDbLine
 10
109.4592901941677
 20
183.738387679336
 30
0.0
 11
109.4592901941675
 21
181.3123844148179
 31
0.0
  0
LINE
  5
6D
330
4A
100
AcDbEntity
  8
1
  6
PHANTOM
 62
     4
100
AcDbLine
 10
109.4592901941677
 20
183.738387679336
 30
0.0
 11
109.4592901941678
 21
202.7790195673351
 31
0.0
  0
LINE
  5
6E
330
4A
100
AcDbEntity
  8
1
  6
Continuous
 62
     7
100
AcDbLine
 10
109.4592901941676
 20
183.7382890032492
 30
0.0
 11
104.5592901941676
 21
183.7382890032492
 31
0.0
  0
LINE
  5
6F
330
4A
100
AcDbEntity
  8
1
  6
Continuous
 62
     7
100
AcDbLine
 10
109.4592901941678
 20
202.2382890032492
 30
0.0
 11
101.9592901941678
 21
202.2382890032492
 31
0.0
  0
LINE
  5
70
330
4A
100
AcDbEntity
  8
1
  6
Continuous
 62
     7
100
AcDbLine
 10
116.9592901941679
 20
202.238289003249
 30
0.0
 11
109.4592901941678
 21
202.2382890032492
 31
0.0
  0
LINE
  5
71
330
4A
100
AcDbEntity
  8
1
  6
Continuous
 62
     7
100
AcDbLine
 10
114.3592901941677
 20
183.7382890032492
 30
0.0
 11
109.4592901941676
 21
183.7382890032492
 31
0.0
  0
LINE
  5
72
330
4A
100
AcDbEntity
  8
1
  6
Continuous
 62
     7
100
AcDbLine
 10
122.5300044084393
 20
183.7382890032488
 30
0.0
 11
116.9592901941677
 21
183.7382890032491
 31
0.0
  0
LINE
  5
73
330
4A
100
AcDbEntity
  8
1
  6
Continuous
 62
     7
100
AcDbLine
 10
116.9592901941677
 20
183.7382890032491
 30
0.0
 11
114.3592901941677
 21
183.7382890032492
 31
0.0
  0
LINE
  5
74
330
4A
100
AcDbEntity
  8
1
  6
Continuous
 62
     7
100
AcDbLine
 10
109.4592901941677
 20
195.3093568151146
 30
0.0
 11
116.9592901941679
 21
195.3093568151145
 31
0.0
  0
LINE
  5
75
330
4A
100
AcDbEntity
  8
1
  6
Continuous
 62
     7
100
AcDbLine
 10
118.8379698506082
 20
194.430677158674
 30
0.0
 11
122.4948241001006
 21
190.7738229091817
 31
0.0
  0
LINE
  5
76
330
4A
100
AcDbEntity
  8
1
  6
Continuous
 62
     7
100
AcDbLine
 10
117.9592901941679
 20
196.5519975022338
 30
0.0
 11
117.9592901941679
 21
201.2382890032491
 31
0.0
  0
LINE
  5
77
330
4A
100
AcDbEntity
  8
1
  6
Continuous
 62
     7
100
AcDbLine
 10
122.4592901941677
 20
190.8090032175198
 30
0.0
 11
122.4592901941676
 21
183.7382890032483
 31
0.0
  0
LINE
  5
78
330
4A
100
AcDbEntity
  8
1
  6
Continuous
 62
     7
100
AcDbLine
 10
96.4592901941676
 20
183.7382890032486
 30
0.0
 11
96.4592901941677
 21
190.8090032175201
 31
0.0
  0
LINE
  5
79
330
4A
100
AcDbEntity
  8
1
  6
Continuous
 62
     7
100
AcDbLine
 10
299.9756451594627
 20
196.5520961783205
 30
0.0
 11
299.9756451594626
 21
201.2383876793357
 31
0.0
  0
LINE
  5
7A
330
4A
100
AcDbEntity
  8
1
  6
Continuous
 62
     7
100
AcDbLine
 10
300.8543248159031
 20
194.430775834761
 30
0.0
 11
304.5111790653954
 21
190.7739215852686
 31
0.0
  0
LINE
  5
7B
330
4A
100
AcDbEntity
  8
1
  6
Continuous
 62
     7
100
AcDbLine
 10
291.4756451594627
 20
195.3094554912013
 30
0.0
 11
298.9756451594626
 21
195.3094554912013
 31
0.0
  0
LINE
  5
7C
330
4A
100
AcDbEntity
  8
1
  6
Continuous
 62
     7
100
AcDbLine
 10
298.9756451594627
 20
183.738387679336
 30
0.0
 11
296.3756451594627
 21
183.738387679336
 31
0.0
  0
LINE
  5
7D
330
4A
100
AcDbEntity
  8
1
  6
Continuous
 62
     7
100
AcDbLine
 10
304.5463593737341
 20
183.738387679336
 30
0.0
 11
298.9756451594627
 21
183.738387679336
 31
0.0
  0
LINE
  5
7E
330
4A
100
AcDbEntity
  8
1
  6
Continuous
 62
     7
100
AcDbLine
 10
298.9756451594626
 20
202.2383876793357
 30
0.0
 11
291.4756451594627
 21
202.2383876793357
 31
0.0
  0
LINE
  5
7F
330
4A
100
AcDbEntity
  8
1
  6
Continuous
 62
     7
100
AcDbLine
 10
296.3756451594627
 20
183.738387679336
 30
0.0
 11
291.4756451594625
 21
183.738387679336
 31
0.0
  0
LINE
  5
80
330
4A
100
AcDbEntity
  8
1
  6
Continuous
 62
     7
100
AcDbLine
 10
291.4756451594625
 20
183.738387679336
 30
0.0
 11
286.5756451594626
 21
183.738387679336
 31
0.0
  0
LINE
  5
81
330
4A
100
AcDbEntity
  8
1
  6
Continuous
 62
     7
100
AcDbLine
 10
291.4756451594627
 20
202.2383876793357
 30
0.0
 11
283.9756451594627
 21
202.2383876793357
 31
0.0
  0
LINE
  5
82
330
4A
100
AcDbEntity
  8
1
  6
Continuous
 62
     7
100
AcDbLine
 10
283.9756451594627
 20
183.738387679336
 30
0.0
 11
278.4049309451913
 21
183.738387679336
 31
0.0
  0
LINE
  5
83
330
4A
100
AcDbEntity
  8
1
  6
Continuous
 62
     7
100
AcDbLine
 10
286.5756451594626
 20
183.738387679336
 30
0.0
 11
283.9756451594627
 21
183.738387679336
 31
0.0
  0
LINE
  5
84
330
4A
100
AcDbEntity
  8
1
  6
Continuous
 62
     7
100
AcDbLine
 10
283.9756451594627
 20
195.3094554912013
 30
0.0
 11
291.4756451594627
 21
195.3094554912013
 31
0.0
  0
LINE
  5
85
330
4A
100
AcDbEntity
  8
1
  6
Continuous
 62
     7
100
AcDbLine
 10
278.44011125353
 20
190.7739215852686
 30
0.0
 11
282.0969655030224
 21
194.430775834761
 31
0.0
  0
LINE
  5
86
330
4A
100
AcDbEntity
  8
1
  6
Continuous
 62
     7
100
AcDbLine
 10
282.9756451594627
 20
201.2383876793357
 30
0.0
 11
282.9756451594627
 21
196.5520961783205
 31
0.0
  0
LINE
  5
87
330
4A
100
AcDbEntity
  8
1
  6
PHANTOM
 62
     4
100
AcDbLine
 10
125.0256002492134
 20
429.5648012307221
 30
0.0
 11
93.9625934511702
 21
429.5648012307221
 31
0.0
  0
LINE
  5
88
330
4A
100
AcDbEntity
  8
1
  6
PHANTOM
 62
     4
100
AcDbLine
 10
109.4592901941679
 20
447.5637098012018
 30
0.0
 11
109.4592901941679
 21
411.8598155333315
 31
0.0
  0
LINE
  5
89
330
4A
100
AcDbEntity
  8
1
  6
Continuous
 62
     7
100
AcDbLine
 10
97.3971413288463
 20
437.6118233352535
 30
0.0
 11
108.5214390594898
 21
444.0344396245861
 31
0.0
  0
LINE
  5
8A
330
4A
100
AcDbEntity
  8
1
  6
Continuous
 62
     7
100
AcDbLine
 10
96.4592901941679
 20
423.1421849413895
 30
0.0
 11
96.4592901941679
 21
435.9874175200547
 31
0.0
  0
LINE
  5
8B
330
4A
100
AcDbEntity
  8
1
  6
Continuous
 62
     7
100
AcDbLine
 10
108.5214390594898
 20
415.0951628368581
 30
0.0
 11
97.3971413288463
 21
421.5177791261907
 31
0.0
  0
LINE
  5
8C
330
4A
100
AcDbEntity
  8
1
  6
Continuous
 62
     7
100
AcDbLine
 10
121.5214390594898
 20
421.5177791261907
 30
0.0
 11
110.3971413288463
 21
415.0951628368581
 31
0.0
  0
LINE
  5
8D
330
4A
100
AcDbEntity
  8
1
  6
Continuous
 62
     7
100
AcDbLine
 10
122.4592901941679
 20
435.9874175200547
 30
0.0
 11
122.4592901941679
 21
423.1421849413895
 31
0.0
  0
LINE
  5
8E
330
4A
100
AcDbEntity
  8
1
  6
Continuous
 62
     7
100
AcDbLine
 10
110.3971413288463
 20
444.0344396245861
 30
0.0
 11
121.5214390594898
 21
437.6118233352535
 31
0.0
  0
LINE
  5
8F
330
4A
100
AcDbEntity
  8
1
  6
DOT_CENTER
 62
     2
100
AcDbLine
 10
291.4756451594627
 20
183.7384863554227
 30
0.0
 11
291.4756451594627
 21
181.3124830909048
 31
0.0
  0
ARC
  5
90
330
4A
100
AcDbEntity
  8
1
  6
Continuous
 62
     7
100
AcDbCircle
 10
300.9756451594627
 20
187.2383876793357
 30
0.0
 40
4.999999999999757
100
AcDbArc
 50
315.5729959991966
 51
45.00000000000162
  0
ARC
  5
91
330
4A
100
AcDbEntity
  8
1
  6
Continuous
 62
     7
100
AcDbCircle
 10
109.4592901941679
 20
429.5648012307221
 30
0.0
 40
14.49999999999999
100
AcDbArc
 50
266.2915552747299
 51
270.0
  0
ARC
  5
92
330
4A
100
AcDbEntity
  8
1
  6
Continuous
 62
     7
100
AcDbCircle
 10
109.4592901941679
 20
429.5648012307221
 30
0.0
 40
14.50000000000007
100
AcDbArc
 50
86.29155527472881
 51
90.0
  0
ARC
  5
93
330
4A
100
AcDbEntity
  8
1
  6
Continuous
 62
     7
100
AcDbCircle
 10
281.9756451594627
 20
187.2383876793357
 30
0.0
 40
5.0000000000001
100
AcDbArc
 50
134.9999999999984
 51
224.4270040008034
  0
ARC
  5
94
330
4A
100
AcDbEntity
  8
1
  6
Continuous
 62
     7
100
AcDbCircle
 10
109.4592901941679
 20
429.5648012307221
 30
0.0
 40
14.5
100
AcDbArc
 50
90.0
 51
93.70844472527006
  0
ARC
  5
95
330
4A
100
AcDbEntity
  8
1
  6
Continuous
 62
     7
100
AcDbCircle
 10
109.4592901941679
 20
429.5648012307221
 30
0.0
 40
14.49999999999989
100
AcDbArc
 50
146.291555274729
 51
153.7084447252705
  0
ARC
  5
96
330
4A
100
AcDbEntity
  8
1
  6
Continuous
 62
     7
100
AcDbCircle
 10
109.4592901941679
 20
429.5648012307221
 30
0.0
 40
14.50000000000002
100
AcDbArc
 50
206.2915552747295
 51
213.7084447252708
  0
ARC
  5
97
330
4A
100
AcDbEntity
  8
1
  6
Continuous
 62
     7
100
AcDbCircle
 10
109.4592901941679
 20
429.5648012307221
 30
0.0
 40
14.5
100
AcDbArc
 50
270.0
 51
273.7084447252711
  0
ARC
  5
98
330
4A
100
AcDbEntity
  8
1
  6
Continuous
 62
     7
100
AcDbCircle
 10
109.4592901941679
 20
429.5648012307221
 30
0.0
 40
14.50000000000009
100
AcDbArc
 50
326.2915552747298
 51
333.7084447252705
  0
ARC
  5
99
330
4A
100
AcDbEntity
  8
1
  6
Continuous
 62
     7
100
AcDbCircle
 10
109.4592901941679
 20
429.5648012307221
 30
0.0
 40
14.50000000000002
100
AcDbArc
 50
26.29155527472953
 51
33.70844472527038
  0
SPLINE
  5
9A
330
4A
100
AcDbEntity
  8
1
  6
Continuous
 62
     7
100
AcDbSpline
210
0.0
220
0.0
230
1.0
 70
     8
 71
     3
 72
    29
 73
    25
 74
    23
 42
0.000000001
 43
0.0000000001
 44
0.00000001
 40
0.0
 40
0.0
 40
0.0
 40
0.0
 40
0.6069077071334358
 40
1.212222618922018
 40
1.842666699980912
 40
2.47463189198761
 40
3.102420163134891
 40
3.729333881624496
 40
4.271042929453148
 40
4.812985317241465
 40
5.340107969104118
 40
5.866248914948703
 40
6.263874824440268
 40
6.661485222726611
 40
7.280966483141023
 40
7.902596723210204
 40
8.549168899022726
 40
9.195896755584826
 40
9.722415956711913
 40
10.24911839923913
 40
11.07897535377081
 40
11.90732205839645
 40
12.67331707894439
 40
13.44191268485661
 40
13.44191268485661
 40
13.44191268485661
 40
13.44191268485661
 10
291.4756451594627
 20
190.7383876793357
 30
0.0
 10
291.273585331917
 20
190.7285123059717
 30
0.0
 10
290.8699959722398
 20
190.708787464759
 30
0.0
 10
290.2582904241561
 20
190.6449971165378
 30
0.0
 10
289.6488733630139
 20
190.5108138187971
 30
0.0
 10
289.0504671880359
 20
190.3103581992707
 30
0.0
 10
288.4759046565619
 20
190.0517970830406
 30
0.0
 10
287.9610068591932
 20
189.7428676939363
 30
0.0
 10
287.5119879854373
 20
189.3890507699917
 30
0.0
 10
287.1380463831394
 20
189.0010261024747
 30
0.0
 10
286.8310804818327
 20
188.5640956993996
 30
0.0
 10
286.6237718243933
 20
188.1238817329634
 30
0.0
 10
286.5078692361728
 20
187.6971726129109
 30
0.0
 10
286.4571660312951
 20
187.2262571711088
 30
0.0
 10
286.5176223545363
 20
186.6772825788681
 30
0.0
 10
286.7305695861656
 20
186.0795365135461
 30
0.0
 10
287.0778065233183
 20
185.5379342684059
 30
0.0
 10
287.4991642488982
 20
185.0973263010156
 30
0.0
 10
287.9465777388786
 20
184.7474523780461
 30
0.0
 10
288.4824141244237
 20
184.4185419957046
 30
0.0
 10
289.1473051738095
 20
184.1148033753027
 30
0.0
 10
289.9269662344461
 20
183.8900335095862
 30
0.0
 10
290.7093718505503
 20
183.7856467101954
 30
0.0
 10
291.2199323167243
 20
183.7542242196895
 30
0.0
 10
291.4756451594627
 20
183.7384863554227
 30
0.0
 11
291.4756451594627
 21
190.7383876793357
 31
0.0
 11
290.8697591377045
 21
190.7031868135734
 31
0.0
 11
290.2683163182231
 21
190.6348298214892
 31
0.0
 11
289.652425106482
 21
190.5001533356648
 31
0.0
 11
289.0529636449334
 21
190.3000884437198
 31
0.0
 11
288.4812648716132
 21
190.0407072054696
 31
0.0
 11
287.9446996546001
 21
189.7164872506916
 31
0.0
 11
287.520267115821
 21
189.3798781107105
 31
0.0
 11
287.1455181405405
 21
188.9883876793357
 31
0.0
 11
286.8439622545806
 21
188.5560425181172
 31
0.0
 11
286.6219419407468
 21
188.0790401325011
 31
0.0
 11
286.5181812236036
 21
187.6951911023714
 31
0.0
 11
286.4764231257828
 21
187.2997795565572
 31
0.0
 11
286.5410167374042
 21
186.6836751023473
 31
0.0
 11
286.7486349075557
 21
186.0977409320705
 31
0.0
 11
287.0940075084108
 21
185.5511392981566
 31
0.0
 11
287.5382816350136
 21
185.0811633180762
 31
0.0
 11
287.9521520537883
 21
184.755688670505
 31
0.0
 11
288.4001909010125
 21
184.4787831723253
 31
0.0
 11
289.15495160765
 21
184.1338210841478
 31
0.0
 11
289.951107918038
 21
183.9051435944015
 31
0.0
 11
290.7091170486376
 21
183.7948234653869
 31
0.0
 11
291.4756451594627
 21
183.7384863554227
 31
0.0
  0
SPLINE
  5
9B
330
4A
100
AcDbEntity
  8
1
  6
Continuous
 62
     7
100
AcDbSpline
210
0.0
220
0.0
230
1.0
 70
    11
 71
     3
 72
    79
 73
    75
 74
    73
 42
0.000000001
 43
0.0000000001
 44
0.00000001
 40
0.0
 40
0.0
 40
0.0
 40
0.0
 40
0.2803981055170712
 40
0.5607977780793256
 40
0.8427454767814175
 40
1.124697465942841
 40
1.40953644471195
 40
1.694381494092193
 40
1.983071303433774
 40
2.271767836809211
 40
2.564776135645445
 40
2.857790848031612
 40
3.155055692063439
 40
3.452325972452681
 40
3.753284820909493
 40
4.054247736388178
 40
4.357919800455126
 40
4.661594361771418
 40
4.966700742338079
 40
5.271807963175702
 40
5.576915184002834
 40
5.882021564538311
 40
6.185696125802508
 40
6.489368189795908
 40
6.790331105179641
 40
7.091289953518425
 40
7.388560233767222
 40
7.68582507763357
 40
7.978839789830264
 40
8.271848088448866
 40
8.560544621579563
 40
8.849234430642321
 40
9.134079479707127
 40
9.41891845810604
 40
9.700870446812658
 40
9.982818144856072
 40
10.26321781600873
 40
10.54361593035223
 40
10.82401404469579
 40
11.10441371584856
 40
11.38636141389182
 40
11.66831340259837
 40
11.95315238099733
 40
12.23799743006214
 40
12.5266872391249
 40
12.81538377225555
 40
13.10839207087419
 40
13.40140678307101
 40
13.69867162693729
 40
13.99594190718608
 40
14.29690075552494
 40
14.59786367090861
 40
14.90153573490205
 40
15.20521029616621
 40
15.5103166767017
 40
15.81542389752883
 40
16.12053111836642
 40
16.42563749893311
 40
16.72931206024939
 40
17.03298412431635
 40
17.33394703979501
 40
17.63490588825185
 40
17.93217616864104
 40
18.22944101267285
 40
18.52245572505908
 40
18.81546402389541
 40
19.10416055727081
 40
19.39285036661238
 40
19.67769541599257
 40
19.96253439476168
 40
20.24448638392306
 40
20.52643408262509
 40
20.80683375518746
 40
21.08723186070459
 40
21.08723186070459
 40
21.08723186070459
 40
21.08723186070459
 10
280.217314910265
 20
190.7383876793357
 30
0.0
 10
280.1238143702229
 20
190.7358062935296
 30
0.0
 10
279.9368127674207
 20
190.730643512825
 30
0.0
 10
279.6583283562277
 20
190.6891711642616
 30
0.0
 10
279.3843861590751
 20
190.6232710044199
 30
0.0
 10
279.1164579933064
 20
190.5310388954627
 30
0.0
 10
278.8574122054357
 20
190.4139567063337
 30
0.0
 10
278.6082529110187
 20
190.2724804249347
 30
0.0
 10
278.3719428906046
 20
190.1081980790985
 30
0.0
 10
278.1491678964669
 20
189.9217379310197
 30
0.0
 10
277.9427118639609
 20
189.7153134562067
 30
0.0
 10
277.7530991201209
 20
189.4895957618832
 30
0.0
 10
277.5826999440024
 20
189.2473049636382
 30
0.0
 10
277.4319871362067
 20
188.9892474708944
 30
0.0
 10
277.3027639994975
 20
188.7184202675018
 30
0.0
 10
277.1954843261323
 20
188.4359034140886
 30
0.0
 10
277.1113298223991
 20
188.1447154435736
 30
0.0
 10
277.0506865483914
 20
187.8463366707323
 30
0.0
 10
277.0141527859447
 20
187.5435756989212
 30
0.0
 10
277.0019337550331
 20
187.2383876887387
 30
0.0
 10
277.0141527855947
 20
186.933199678554
 30
0.0
 10
277.0506865476904
 20
186.6304387067275
 30
0.0
 10
277.1113298213446
 20
186.3320599338846
 30
0.0
 10
277.1954843247217
 20
186.0408719632807
 30
0.0
 10
277.3027639977262
 20
185.7583551100647
 30
0.0
 10
277.4319871340698
 20
185.4875279057687
 30
0.0
 10
277.5826999414932
 20
185.229470416142
 30
0.0
 10
277.7530991172324
 20
184.9871796060857
 30
0.0
 10
277.9427118606835
 20
184.7614619549239
 30
0.0
 10
278.1491678927901
 20
184.5550373199298
 30
0.0
 10
278.3719428865139
 20
184.3685777607817
 30
0.0
 10
278.6082529064957
 20
184.204293233096
 30
0.0
 10
278.8574122004501
 20
184.0628249900478
 30
0.0
 10
279.1164579878105
 20
183.945712986464
 30
0.0
 10
279.3843861529444
 20
183.853591068005
 30
0.0
 10
279.6583283491441
 20
183.7872813024472
 30
0.0
 10
279.9368127621808
 20
183.7473296373576
 30
0.0
 10
280.217314910265
 20
183.7339167277369
 30
0.0
 10
280.4978170583493
 20
183.7473296373576
 30
0.0
 10
280.7763014713858
 20
183.7872813024471
 30
0.0
 10
281.0502436675857
 20
183.8535910680051
 30
0.0
 10
281.3181718327194
 20
183.945712986464
 30
0.0
 10
281.5772176200799
 20
184.0628249900478
 30
0.0
 10
281.8263769140343
 20
184.2042932330959
 30
0.0
 10
282.0626869340161
 20
184.3685777607818
 30
0.0
 10
282.2854619277398
 20
184.5550373199299
 30
0.0
 10
282.4919179598465
 20
184.7614619549238
 30
0.0
 10
282.6815307032978
 20
184.9871796060856
 30
0.0
 10
282.8519298790368
 20
185.229470416142
 30
0.0
 10
283.0026426864602
 20
185.4875279057687
 30
0.0
 10
283.1318658228039
 20
185.7583551100646
 30
0.0
 10
283.2391454958081
 20
186.0408719632807
 30
0.0
 10
283.3232999991854
 20
186.3320599338847
 30
0.0
 10
283.3839432728396
 20
186.6304387067275
 30
0.0
 10
283.4204770349355
 20
186.933199678554
 30
0.0
 10
283.4326960654969
 20
187.2383876887386
 30
0.0
 10
283.4204770345854
 20
187.5435756989212
 30
0.0
 10
283.3839432721385
 20
187.8463366707322
 30
0.0
 10
283.323299998131
 20
188.1447154435736
 30
0.0
 10
283.2391454943976
 20
188.4359034140886
 30
0.0
 10
283.1318658210325
 20
188.7184202675018
 30
0.0
 10
283.0026426843235
 20
188.9892474708944
 30
0.0
 10
282.8519298765276
 20
189.2473049636382
 30
0.0
 10
282.6815307004093
 20
189.4895957618833
 30
0.0
 10
282.4919179565691
 20
189.7153134562067
 30
0.0
 10
282.285461924063
 20
189.9217379310197
 30
0.0
 10
282.0626869299252
 20
190.1081980790983
 30
0.0
 10
281.8263769095112
 20
190.2724804249347
 30
0.0
 10
281.5772176150943
 20
190.4139567063337
 30
0.0
 10
281.3181718272236
 20
190.5310388954626
 30
0.0
 10
281.050243661455
 20
190.62327100442
 30
0.0
 10
280.7763014643023
 20
190.6891711642616
 30
0.0
 10
280.4978170531093
 20
190.730643512825
 30
0.0
 10
280.3108154503071
 20
190.7358062935296
 30
0.0
 10
280.217314910265
 20
190.7383876793357
 30
0.0
 11
280.217314910265
 21
190.7383876793357
 31
0.0
 11
279.9372349113954
 21
190.7250348940375
 31
0.0
 11
279.6596771030168
 21
190.6852148148784
 31
0.0
 11
279.3856256986379
 21
190.6189552321545
 31
0.0
 11
279.1189828383634
 21
190.5273118520864
 31
0.0
 11
278.8593944138273
 21
190.4100638518013
 31
0.0
 11
278.6116608379318
 21
190.2694765925813
 31
0.0
 11
278.3745603533229
 21
190.1047793972293
 31
0.0
 11
278.153125823988
 21
189.9195432302521
 31
0.0
 11
277.9458424346783
 21
189.7124503533369
 31
0.0
 11
277.7573101509007
 21
189.4881443132387
 31
0.0
 11
277.5862216043271
 21
189.2450494825379
 31
0.0
 11
277.4362404776041
 21
188.9883876793357
 31
0.0
 11
277.3065636977298
 21
188.7167994593646
 31
0.0
 11
277.1996723436524
 21
188.4354581809757
 31
0.0
 11
277.1153062823222
 21
188.1437406974303
 31
0.0
 11
277.0547937520864
 21
187.84615630117
 31
0.0
 11
277.0182148035234
 21
187.5432505666357
 31
0.0
 11
277.0060067655987
 21
187.2383876793357
 31
0.0
 11
277.0182148035235
 21
186.9335247920358
 31
0.0
 11
277.0547937520864
 21
186.6306190575016
 31
0.0
 11
277.1153062823222
 21
186.3330346612414
 31
0.0
 11
277.1996723436524
 21
186.041317177696
 31
0.0
 11
277.3065636977298
 21
185.7599758993071
 31
0.0
 11
277.4362404776041
 21
185.488387679336
 31
0.0
 11
277.586221604327
 21
185.2317258761339
 31
0.0
 11
277.7573101509007
 21
184.988631045433
 31
0.0
 11
277.9458424346783
 21
184.7643250053348
 31
0.0
 11
278.153125823988
 21
184.5572321284196
 31
0.0
 11
278.3745603533229
 21
184.3719959614425
 31
0.0
 11
278.6116608379318
 21
184.2072987660903
 31
0.0
 11
278.8593944138273
 21
184.0667115068704
 31
0.0
 11
279.1189828383633
 21
183.9494635065852
 31
0.0
 11
279.3856256986378
 21
183.857820126517
 31
0.0
 11
279.6596771030168
 21
183.791560543793
 31
0.0
 11
279.9372349113954
 21
183.751740464634
 31
0.0
 11
280.217314910265
 21
183.738387679336
 31
0.0
 11
280.4973949091346
 21
183.751740464634
 31
0.0
 11
280.7749527175133
 21
183.791560543793
 31
0.0
 11
281.0490041218922
 21
183.857820126517
 31
0.0
 11
281.3156469821666
 21
183.9494635065852
 31
0.0
 11
281.5752354067026
 21
184.0667115068704
 31
0.0
 11
281.8229689825981
 21
184.2072987660903
 31
0.0
 11
282.0600694672071
 21
184.3719959614425
 31
0.0
 11
282.2815039965419
 21
184.5572321284196
 31
0.0
 11
282.4887873858517
 21
184.7643250053348
 31
0.0
 11
282.6773196696294
 21
184.988631045433
 31
0.0
 11
282.848408216203
 21
185.2317258761339
 31
0.0
 11
282.9983893429259
 21
185.488387679336
 31
0.0
 11
283.1280661228003
 21
185.7599758993071
 31
0.0
 11
283.2349574768776
 21
186.041317177696
 31
0.0
 11
283.3193235382079
 21
186.3330346612414
 31
0.0
 11
283.3798360684436
 21
186.6306190575016
 31
0.0
 11
283.4164150170066
 21
186.9335247920358
 31
0.0
 11
283.4286230549313
 21
187.2383876793357
 31
0.0
 11
283.4164150170066
 21
187.5432505666357
 31
0.0
 11
283.3798360684436
 21
187.84615630117
 31
0.0
 11
283.3193235382079
 21
188.1437406974303
 31
0.0
 11
283.2349574768776
 21
188.4354581809757
 31
0.0
 11
283.1280661228002
 21
188.7167994593646
 31
0.0
 11
282.9983893429259
 21
188.9883876793357
 31
0.0
 11
282.848408216203
 21
189.2450494825378
 31
0.0
 11
282.6773196696294
 21
189.4881443132387
 31
0.0
 11
282.4887873858518
 21
189.7124503533369
 31
0.0
 11
282.2815039965419
 21
189.9195432302521
 31
0.0
 11
282.060069467207
 21
190.1047793972292
 31
0.0
 11
281.8229689825981
 21
190.2694765925813
 31
0.0
 11
281.5752354067027
 21
190.4100638518013
 31
0.0
 11
281.3156469821666
 21
190.5273118520864
 31
0.0
 11
281.0490041218922
 21
190.6189552321545
 31
0.0
 11
280.7749527175133
 21
190.6852148148784
 31
0.0
 11
280.4973949091346
 21
190.7250348940375
 31
0.0
 11
280.217314910265
 21
190.7383876793357
 31
0.0
  0
SPLINE
  5
9C
330
4A
100
AcDbEntity
  8
1
  6
Continuous
 62
     7
100
AcDbSpline
210
0.0
220
0.0
230
1.0
 70
    11
 71
     3
 72
    79
 73
    75
 74
    73
 42
0.000000001
 43
0.0000000001
 44
0.00000001
 40
0.0
 40
0.0
 40
0.0
 40
0.0
 40
0.2803981055170699
 40
0.5607977780794409
 40
0.8427454767815881
 40
1.124697465942904
 40
1.40953644471191
 40
1.694381494092152
 40
1.983071303433766
 40
2.271767836809123
 40
2.564776135645437
 40
2.857790848031641
 40
3.155055692063435
 40
3.45232597245262
 40
3.753284820909482
 40
4.054247736388141
 40
4.35791980045512
 40
4.661594361771412
 40
4.966700742338066
 40
5.271807963175687
 40
5.576915184002814
 40
5.882021564538292
 40
6.185696125802489
 40
6.48936818979592
 40
6.7903311051796
 40
7.091289953518459
 40
7.388560233767257
 40
7.685825077633506
 40
7.97883978983028
 40
8.271848088448923
 40
8.560544621579576
 40
8.849234430642333
 40
9.13407947970714
 40
9.418918458106052
 40
9.700870446812564
 40
9.982818144855921
 40
10.26321781600858
 40
10.54361593035219
 40
10.8240140446957
 40
11.10441371584847
 40
11.38636141389189
 40
11.66831340259844
 40
11.9531523809973
 40
12.23799743006216
 40
12.52668723912492
 40
12.81538377225557
 40
13.10839207087415
 40
13.4014067830709
 40
13.69867162693719
 40
13.99594190718601
 40
14.2969007555248
 40
14.59786367090855
 40
14.90153573490198
 40
15.20521029616615
 40
15.51031667670163
 40
15.81542389752876
 40
16.12053111836635
 40
16.42563749893304
 40
16.72931206024933
 40
17.03298412431628
 40
17.33394703979496
 40
17.63490588825179
 40
17.93217616864101
 40
18.22944101267283
 40
18.52245572505905
 40
18.81546402389527
 40
19.10416055727062
 40
19.39285036661224
 40
19.67769541599248
 40
19.96253439476149
 40
20.24448638392292
 40
20.52643408262506
 40
20.80683375518743
 40
21.0872318607045
 40
21.0872318607045
 40
21.0872318607045
 40
21.0872318607045
 10
302.7339754086604
 20
190.7383876793357
 30
0.0
 10
302.8274759487025
 20
190.7358062935296
 30
0.0
 10
303.0144775515047
 20
190.730643512825
 30
0.0
 10
303.2929619626977
 20
190.6891711642616
 30
0.0
 10
303.5669041598503
 20
190.6232710044199
 30
0.0
 10
303.8348323256191
 20
190.5310388954627
 30
0.0
 10
304.0938781134896
 20
190.4139567063337
 30
0.0
 10
304.3430374079066
 20
190.2724804249347
 30
0.0
 10
304.5793474283207
 20
190.1081980790984
 30
0.0
 10
304.8021224224584
 20
189.9217379310197
 30
0.0
 10
305.0085784549644
 20
189.7153134562067
 30
0.0
 10
305.1981911988046
 20
189.4895957618833
 30
0.0
 10
305.368590374923
 20
189.2473049636383
 30
0.0
 10
305.5193031827187
 20
188.9892474708944
 30
0.0
 10
305.6485263194278
 20
188.7184202675018
 30
0.0
 10
305.7558059927928
 20
188.4359034140886
 30
0.0
 10
305.8399604965265
 20
188.1447154435737
 30
0.0
 10
305.900603770534
 20
187.8463366707322
 30
0.0
 10
305.9371375329806
 20
187.5435756989212
 30
0.0
 10
305.9493565638923
 20
187.2383876887386
 30
0.0
 10
305.9371375333307
 20
186.933199678554
 30
0.0
 10
305.9006037712352
 20
186.6304387067276
 30
0.0
 10
305.8399604975807
 20
186.3320599338846
 30
0.0
 10
305.7558059942035
 20
186.0408719632807
 30
0.0
 10
305.6485263211992
 20
185.7583551100647
 30
0.0
 10
305.5193031848555
 20
185.4875279057687
 30
0.0
 10
305.3685903774321
 20
185.229470416142
 30
0.0
 10
305.1981912016931
 20
184.9871796060855
 30
0.0
 10
305.0085784582419
 20
184.7614619549238
 30
0.0
 10
304.8021224261351
 20
184.5550373199299
 30
0.0
 10
304.5793474324115
 20
184.3685777607817
 30
0.0
 10
304.3430374124297
 20
184.2042932330959
 30
0.0
 10
304.0938781184753
 20
184.0628249900478
 30
0.0
 10
303.8348323311148
 20
183.9457129864641
 30
0.0
 10
303.566904165981
 20
183.8535910680049
 30
0.0
 10
303.2929619697812
 20
183.7872813024473
 30
0.0
 10
303.0144775567446
 20
183.7473296373576
 30
0.0
 10
302.7339754086605
 20
183.733916727737
 30
0.0
 10
302.4534732605762
 20
183.7473296373576
 30
0.0
 10
302.1749888475396
 20
183.7872813024472
 30
0.0
 10
301.9010466513397
 20
183.853591068005
 30
0.0
 10
301.633118486206
 20
183.9457129864641
 30
0.0
 10
301.3740726988454
 20
184.0628249900478
 30
0.0
 10
301.1249134048911
 20
184.2042932330959
 30
0.0
 10
300.8886033849092
 20
184.3685777607817
 30
0.0
 10
300.6658283911856
 20
184.5550373199298
 30
0.0
 10
300.459372359079
 20
184.7614619549239
 30
0.0
 10
300.2697596156278
 20
184.9871796060857
 30
0.0
 10
300.0993604398886
 20
185.229470416142
 30
0.0
 10
299.9486476324652
 20
185.4875279057687
 30
0.0
 10
299.8194244961215
 20
185.7583551100646
 30
0.0
 10
299.7121448231171
 20
186.0408719632807
 30
0.0
 10
299.6279903197401
 20
186.3320599338846
 30
0.0
 10
299.5673470460857
 20
186.6304387067275
 30
0.0
 10
299.53081328399
 20
186.933199678554
 30
0.0
 10
299.5185942534284
 20
187.2383876887387
 30
0.0
 10
299.5308132843402
 20
187.5435756989212
 30
0.0
 10
299.5673470467867
 20
187.8463366707323
 30
0.0
 10
299.6279903207945
 20
188.1447154435736
 30
0.0
 10
299.7121448245277
 20
188.4359034140886
 30
0.0
 10
299.819424497893
 20
188.7184202675018
 30
0.0
 10
299.948647634602
 20
188.9892474708943
 30
0.0
 10
300.0993604423978
 20
189.2473049636382
 30
0.0
 10
300.2697596185162
 20
189.4895957618833
 30
0.0
 10
300.4593723623564
 20
189.7153134562066
 30
0.0
 10
300.6658283948623
 20
189.9217379310197
 30
0.0
 10
300.8886033890001
 20
190.1081980790984
 30
0.0
 10
301.124913409414
 20
190.2724804249347
 30
0.0
 10
301.3740727038311
 20
190.4139567063338
 30
0.0
 10
301.6331184917015
 20
190.5310388954627
 30
0.0
 10
301.9010466574704
 20
190.62327100442
 30
0.0
 10
302.1749888546231
 20
190.6891711642616
 30
0.0
 10
302.4534732658162
 20
190.730643512825
 30
0.0
 10
302.6404748686183
 20
190.7358062935296
 30
0.0
 10
302.7339754086604
 20
190.7383876793357
 30
0.0
 11
302.7339754086604
 21
190.7383876793357
 31
0.0
 11
303.01405540753
 21
190.7250348940376
 31
0.0
 11
303.2916132159087
 21
190.6852148148784
 31
0.0
 11
303.5656646202876
 21
190.6189552321545
 31
0.0
 11
303.832307480562
 21
190.5273118520864
 31
0.0
 11
304.091895905098
 21
190.4100638518013
 31
0.0
 11
304.3396294809935
 21
190.2694765925813
 31
0.0
 11
304.5767299656025
 21
190.1047793972292
 31
0.0
 11
304.7981644949373
 21
189.9195432302521
 31
0.0
 11
305.0054478842471
 21
189.7124503533369
 31
0.0
 11
305.1939801680247
 21
189.4881443132387
 31
0.0
 11
305.3650687145983
 21
189.2450494825379
 31
0.0
 11
305.5150498413212
 21
188.9883876793357
 31
0.0
 11
305.6447266211956
 21
188.7167994593646
 31
0.0
 11
305.7516179752729
 21
188.4354581809757
 31
0.0
 11
305.8359840366032
 21
188.1437406974303
 31
0.0
 11
305.896496566839
 21
187.84615630117
 31
0.0
 11
305.9330755154019
 21
187.5432505666357
 31
0.0
 11
305.9452835533266
 21
187.2383876793357
 31
0.0
 11
305.9330755154019
 21
186.9335247920358
 31
0.0
 11
305.896496566839
 21
186.6306190575016
 31
0.0
 11
305.8359840366032
 21
186.3330346612414
 31
0.0
 11
305.7516179752729
 21
186.041317177696
 31
0.0
 11
305.6447266211956
 21
185.7599758993071
 31
0.0
 11
305.5150498413212
 21
185.488387679336
 31
0.0
 11
305.3650687145982
 21
185.2317258761339
 31
0.0
 11
305.1939801680247
 21
184.988631045433
 31
0.0
 11
305.0054478842471
 21
184.7643250053348
 31
0.0
 11
304.7981644949373
 21
184.5572321284196
 31
0.0
 11
304.5767299656025
 21
184.3719959614425
 31
0.0
 11
304.3396294809935
 21
184.2072987660903
 31
0.0
 11
304.091895905098
 21
184.0667115068704
 31
0.0
 11
303.832307480562
 21
183.9494635065852
 31
0.0
 11
303.5656646202876
 21
183.857820126517
 31
0.0
 11
303.2916132159087
 21
183.791560543793
 31
0.0
 11
303.0140554075301
 21
183.751740464634
 31
0.0
 11
302.7339754086604
 21
183.738387679336
 31
0.0
 11
302.4538954097908
 21
183.751740464634
 31
0.0
 11
302.1763376014121
 21
183.791560543793
 31
0.0
 11
301.9022861970331
 21
183.857820126517
 31
0.0
 11
301.6356433367587
 21
183.9494635065852
 31
0.0
 11
301.3760549122227
 21
184.0667115068704
 31
0.0
 11
301.1283213363272
 21
184.2072987660903
 31
0.0
 11
300.8912208517182
 21
184.3719959614425
 31
0.0
 11
300.6697863223834
 21
184.5572321284196
 31
0.0
 11
300.4625029330737
 21
184.7643250053348
 31
0.0
 11
300.2739706492961
 21
184.988631045433
 31
0.0
 11
300.1028821027225
 21
185.2317258761339
 31
0.0
 11
299.9529009759995
 21
185.488387679336
 31
0.0
 11
299.8232241961252
 21
185.7599758993071
 31
0.0
 11
299.7163328420478
 21
186.041317177696
 31
0.0
 11
299.6319667807176
 21
186.3330346612414
 31
0.0
 11
299.5714542504818
 21
186.6306190575016
 31
0.0
 11
299.5348753019188
 21
186.9335247920358
 31
0.0
 11
299.5226672639941
 21
187.2383876793357
 31
0.0
 11
299.5348753019189
 21
187.5432505666357
 31
0.0
 11
299.5714542504818
 21
187.84615630117
 31
0.0
 11
299.6319667807176
 21
188.1437406974303
 31
0.0
 11
299.7163328420478
 21
188.4354581809757
 31
0.0
 11
299.8232241961252
 21
188.7167994593646
 31
0.0
 11
299.9529009759995
 21
188.9883876793357
 31
0.0
 11
300.1028821027225
 21
189.2450494825378
 31
0.0
 11
300.2739706492961
 21
189.4881443132387
 31
0.0
 11
300.4625029330737
 21
189.7124503533369
 31
0.0
 11
300.6697863223834
 21
189.9195432302521
 31
0.0
 11
300.8912208517182
 21
190.1047793972292
 31
0.0
 11
301.1283213363272
 21
190.2694765925813
 31
0.0
 11
301.3760549122227
 21
190.4100638518013
 31
0.0
 11
301.6356433367587
 21
190.5273118520864
 31
0.0
 11
301.9022861970332
 21
190.6189552321545
 31
0.0
 11
302.1763376014121
 21
190.6852148148784
 31
0.0
 11
302.4538954097908
 21
190.7250348940375
 31
0.0
 11
302.7339754086604
 21
190.7383876793357
 31
0.0
  0
SPLINE
  5
9D
330
4A
100
AcDbEntity
  8
1
  6
Continuous
 62
     7
100
AcDbSpline
210
0.0
220
0.0
230
1.0
 70
     8
 71
     3
 72
    29
 73
    25
 74
    23
 42
0.000000001
 43
0.0000000001
 44
0.00000001
 40
0.0
 40
0.0
 40
0.0
 40
0.0
 40
0.606907707133379
 40
1.212222618922017
 40
1.8426666999809
 40
2.47463189198767
 40
3.102420163134847
 40
3.729333881624354
 40
4.271042929453095
 40
4.812985317241452
 40
5.340107969104169
 40
5.866248914948731
 40
6.263874824440265
 40
6.661485222726596
 40
7.280966483141008
 40
7.90259672321017
 40
8.549168899022662
 40
9.195896755584723
 40
9.72241595671181
 40
10.24911839923898
 40
11.07897535377071
 40
11.90732205839646
 40
12.67331707894435
 40
13.44191268485651
 40
13.44191268485651
 40
13.44191268485651
 40
13.44191268485651
 10
291.4756451594627
 20
190.7383876793357
 30
0.0
 10
291.6777049870085
 20
190.7285123059717
 30
0.0
 10
292.0812943466855
 20
190.708787464759
 30
0.0
 10
292.6929998947693
 20
190.6449971165377
 30
0.0
 10
293.3024169559115
 20
190.5108138187973
 30
0.0
 10
293.9008231308895
 20
190.3103581992706
 30
0.0
 10
294.4753856623635
 20
190.0517970830406
 30
0.0
 10
294.990283459732
 20
189.7428676939362
 30
0.0
 10
295.4393023334881
 20
189.3890507699917
 30
0.0
 10
295.8132439357859
 20
189.0010261024747
 30
0.0
 10
296.1202098370929
 20
188.5640956993996
 30
0.0
 10
296.3275184945321
 20
188.1238817329634
 30
0.0
 10
296.4434210827527
 20
187.6971726129109
 30
0.0
 10
296.49412428763
 20
187.2262571711088
 30
0.0
 10
296.433667964389
 20
186.677282578868
 30
0.0
 10
296.2207207327596
 20
186.0795365135461
 30
0.0
 10
295.8734837956072
 20
185.5379342684058
 30
0.0
 10
295.4521260700272
 20
185.0973263010157
 30
0.0
 10
295.0047125800469
 20
184.7474523780461
 30
0.0
 10
294.4688761945018
 20
184.4185419957045
 30
0.0
 10
293.8039851451159
 20
184.1148033753026
 30
0.0
 10
293.0243240844792
 20
183.8900335095862
 30
0.0
 10
292.241918468375
 20
183.7856467101954
 30
0.0
 10
291.7313580022011
 20
183.7542242196895
 30
0.0
 10
291.4756451594627
 20
183.7384863554227
 30
0.0
 11
291.4756451594627
 21
190.7383876793357
 31
0.0
 11
292.0815311812208
 21
190.7031868135734
 31
0.0
 11
292.6829740007023
 21
190.6348298214892
 31
0.0
 11
293.2988652124434
 21
190.5001533356649
 31
0.0
 11
293.8983266739921
 21
190.3000884437198
 31
0.0
 11
294.4700254473121
 21
190.0407072054696
 31
0.0
 11
295.0065906643252
 21
189.7164872506916
 31
0.0
 11
295.4310232031044
 21
189.3798781107105
 31
0.0
 11
295.8057721783849
 21
188.9883876793357
 31
0.0
 11
296.1073280643449
 21
188.5560425181172
 31
0.0
 11
296.3293483781787
 21
188.0790401325011
 31
0.0
 11
296.4331090953218
 21
187.6951911023714
 31
0.0
 11
296.4748671931425
 21
187.2997795565572
 31
0.0
 11
296.410273581521
 21
186.6836751023473
 31
0.0
 11
296.2026554113696
 21
186.0977409320705
 31
0.0
 11
295.8572828105146
 21
185.5511392981566
 31
0.0
 11
295.4130086839118
 21
185.0811633180762
 31
0.0
 11
294.9991382651372
 21
184.755688670505
 31
0.0
 11
294.551099417913
 21
184.4787831723253
 31
0.0
 11
293.7963387112754
 21
184.1338210841478
 31
0.0
 11
293.0001824008873
 21
183.9051435944015
 31
0.0
 11
292.2421732702878
 21
183.7948234653869
 31
0.0
 11
291.4756451594627
 21
183.7384863554227
 31
0.0
  0
SPLINE
  5
9E
330
4A
100
AcDbEntity
  8
1
  6
Continuous
 62
     7
100
AcDbSpline
210
0.0
220
0.0
230
1.0
 70
    11
 71
     3
 72
    79
 73
    75
 74
    73
 42
0.000000001
 43
0.0000000001
 44
0.00000001
 40
0.0
 40
0.0
 40
0.0
 40
0.0
 40
0.3102615582249839
 40
0.6205595420816954
 40
0.9422162975285677
 40
1.263944872753552
 40
1.606039020844741
 40
1.948193468906708
 40
2.316051885190274
 40
2.68395104823978
 40
3.079084664080181
 40
3.474244780173597
 40
3.894897959207375
 40
4.315568207493947
 40
4.757452126736274
 40
5.199346674241571
 40
5.656354161986873
 40
6.113367478657862
 40
6.578223037732979
 40
7.043080455842586
 40
7.507937873950113
 40
7.972793433018505
 40
8.429806749677333
 40
8.886814237403254
 40
9.328708784880009
 40
9.770592704081016
 40
10.19126295231233
 40
10.611916131269
 40
11.0070762472629
 40
11.40220986296857
 40
11.77010902584968
 40
12.13796744190969
 40
12.480121889696
 40
12.82221603741876
 40
13.14394461216114
 40
13.46560136682465
 40
13.77589934864126
 40
14.08616091447228
 40
14.39642248030341
 40
14.70672046212013
 40
15.02837721678337
 40
15.35010579152555
 40
15.69219993924848
 40
16.03435438703494
 40
16.40221280309488
 40
16.77011196597599
 40
17.16524558168161
 40
17.56040569767555
 40
17.98105887663223
 40
18.40172912486348
 40
18.8436130440646
 40
19.28550759154151
 40
19.7425150792674
 40
20.19952839592622
 40
20.66438395499451
 40
21.12924137310193
 40
21.59409879121157
 40
22.05895435028675
 40
22.51596766695782
 40
22.97297515470319
 40
23.41486970220846
 40
23.85675362145074
 40
24.27742386973728
 40
24.69807704877105
 40
25.09323716486442
 40
25.48837078070484
 40
25.85626994375435
 40
26.22412836003785
 40
26.56628280809984
 40
26.9083769561911
 40
27.23010553141596
 40
27.55176228686267
 40
27.86206027071974
 40
28.17232182894507
 40
28.17232182894507
 40
28.17232182894507
 40
28.17232182894507
 10
108.5214390594894
 20
187.2736461103843
 30
0.0
 10
108.5174058677734
 20
187.3771362923065
 30
0.0
 10
108.5093390191026
 20
187.5841288066509
 30
0.0
 10
108.4453550412933
 20
187.8929776746735
 30
0.0
 10
108.3439342449959
 20
188.1949445884076
 30
0.0
 10
108.2015117448981
 20
188.4918542445224
 30
0.0
 10
108.022409172138
 20
188.7761723528826
 30
0.0
 10
107.8044389042775
 20
189.051673399179
 30
0.0
 10
107.5541567502426
 20
189.3102794198477
 30
0.0
 10
107.267694588471
 20
189.5560373094606
 30
0.0
 10
106.9538638361836
 20
189.7816825696552
 30
0.0
 10
106.6079496711523
 20
189.9904542375428
 30
0.0
 10
106.2398308790019
 20
190.1766750058143
 30
0.0
 10
105.8451369440851
 20
190.3423595361609
 30
0.0
 10
105.4335837441131
 20
190.4836673090107
 30
0.0
 10
105.0021580445186
 20
190.6014467975849
 30
0.0
 10
104.5593840158081
 20
190.6935650992237
 30
0.0
 10
104.1043260172142
 20
190.7600510266165
 30
0.0
 10
103.6435589151332
 20
190.8001085835268
 30
0.0
 10
103.1786367397022
 20
190.8134505408218
 30
0.0
 10
102.7137145642752
 20
190.8001085836052
 30
0.0
 10
102.2529474621825
 20
190.7600510267777
 30
0.0
 10
101.7978894636302
 20
190.6935650994762
 30
0.0
 10
101.3551154347654
 20
190.6014467979412
 30
0.0
 10
100.9236897357237
 20
190.4836673094886
 30
0.0
 10
100.5121365337249
 20
190.3423595367807
 30
0.0
 10
100.1174426060026
 20
190.1766750066036
 30
0.0
 10
99.74932378778048
 20
189.9904542385297
 30
0.0
 10
99.40340971435734
 20
189.7816825708772
 30
0.0
 10
99.08957863241939
 20
189.5560373109544
 30
0.0
 10
98.80311761994642
 20
189.310279421663
 30
0.0
 10
98.55283134087347
 20
189.051673401364
 30
0.0
 10
98.33487544286633
 20
188.7761723555078
 30
0.0
 10
98.15572112912702
 20
188.4918542476686
 30
0.0
 10
98.01348077773943
 20
188.1949445922561
 30
0.0
 10
97.91139712569944
 20
187.8929776797467
 30
0.0
 10
97.84980388577154
 20
187.5841288106002
 30
0.0
 10
97.82885008230991
 20
187.2736461103843
 30
0.0
 10
97.84980388577142
 20
186.9631634101682
 30
0.0
 10
97.91139712569931
 20
186.6543145410218
 30
0.0
 10
98.01348077773946
 20
186.3523476285125
 30
0.0
 10
98.15572112912716
 20
186.0554379731002
 30
0.0
 10
98.33487544286626
 20
185.7711198652609
 30
0.0
 10
98.55283134087315
 20
185.4956188194044
 30
0.0
 10
98.80311761994619
 20
185.2370127991055
 30
0.0
 10
99.08957863241913
 20
184.9912549098142
 30
0.0
 10
99.40340971435732
 20
184.7656096498915
 30
0.0
 10
99.74932378778047
 20
184.5568379822391
 30
0.0
 10
100.1174426060026
 20
184.3706172141653
 30
0.0
 10
100.5121365337248
 20
184.2049326839879
 30
0.0
 10
100.9236897357237
 20
184.0636249112801
 30
0.0
 10
101.3551154347654
 20
183.9458454228271
 30
0.0
 10
101.7978894636302
 20
183.8537271212921
 30
0.0
 10
102.2529474621824
 20
183.7872411939904
 30
0.0
 10
102.7137145642751
 20
183.7471836371629
 30
0.0
 10
103.1786367397021
 20
183.7338416799464
 30
0.0
 10
103.643558915133
 20
183.7471836372415
 30
0.0
 10
104.1043260172142
 20
183.7872411941515
 30
0.0
 10
104.559384015808
 20
183.8537271215448
 30
0.0
 10
105.0021580445186
 20
183.9458454231834
 30
0.0
 10
105.433583744113
 20
184.063624911758
 30
0.0
 10
105.8451369440851
 20
184.2049326846077
 30
0.0
 10
106.2398308790018
 20
184.370617214954
 30
0.0
 10
106.6079496711524
 20
184.5568379832253
 30
0.0
 10
106.9538638361835
 20
184.7656096511131
 30
0.0
 10
107.2676945884709
 20
184.9912549113077
 30
0.0
 10
107.5541567502426
 20
185.2370128009206
 30
0.0
 10
107.8044389042775
 20
185.4956188215891
 30
0.0
 10
108.022409172138
 20
185.7711198678855
 30
0.0
 10
108.201511744898
 20
186.0554379762458
 30
0.0
 10
108.3439342449958
 20
186.3523476323605
 30
0.0
 10
108.4453550412933
 20
186.6543145460946
 30
0.0
 10
108.5093390191026
 20
186.9631634141173
 30
0.0
 10
108.5174058677734
 20
187.1701559284621
 30
0.0
 10
108.5214390594894
 20
187.2736461103843
 30
0.0
 11
108.5214390594894
 21
187.2736461103843
 31
0.0
 11
108.5008219662887
 21
187.5832219085208
 31
0.0
 11
108.4402698868907
 21
187.8875544294398
 31
0.0
 11
108.3378029982588
 21
188.1924537647033
 31
0.0
 11
108.1992286533298
 21
188.482809454874
 31
0.0
 11
108.0174366089725
 21
188.7726025855654
 31
0.0
 11
107.8056392747163
 21
189.0413246639519
 31
0.0
 11
107.5502827644425
 21
189.306113007721
 31
0.0
 11
107.2714607651533
 21
189.5461298546683
 31
0.0
 11
106.9509688375283
 21
189.7772477869935
 31
0.0
 11
106.6129238683463
 21
189.9818867767466
 31
0.0
 11
106.2377601445022
 21
190.1721531093378
 31
0.0
 11
105.8500378946695
 21
190.3353551766135
 31
0.0
 11
105.4322015702081
 21
190.4791404471956
 31
0.0
 11
105.0059827483934
 21
190.5957950958026
 31
0.0
 11
104.5585927823036
 21
190.689058497502
 31
0.0
 11
104.106404618026
 21
190.7552931991581
 31
0.0
 11
103.6433014048137
 21
190.7956181879248
 31
0.0
 11
103.1786367298494
 21
190.8090032175197
 31
0.0
 11
102.713972054885
 21
190.7956181879248
 31
0.0
 11
102.2508688416726
 21
190.7552931991581
 31
0.0
 11
101.7986806773949
 21
190.689058497502
 31
0.0
 11
101.351290711305
 21
190.5957950958026
 31
0.0
 11
100.9250718894906
 21
190.4791404471956
 31
0.0
 11
100.5072355650294
 21
190.3353551766137
 31
0.0
 11
100.1195133151965
 21
190.172153109338
 31
0.0
 11
99.7443495913523
 21
189.9818867767469
 31
0.0
 11
99.40630462217031
 21
189.7772477869937
 31
0.0
 11
99.0858126945453
 21
189.5461298546683
 31
0.0
 11
98.80699069525615
 21
189.306113007721
 31
0.0
 11
98.5516341849823
 21
189.041324663952
 31
0.0
 11
98.3398368507261
 21
188.7726025855657
 31
0.0
 11
98.1580448063688
 21
188.4828094548745
 31
0.0
 11
98.01947046143992
 21
188.1924537647037
 31
0.0
 11
97.9170035728081
 21
187.8875544294401
 31
0.0
 11
97.85645149341005
 21
187.5832219085209
 31
0.0
 11
97.8358344002092
 21
187.2736461103843
 31
0.0
 11
97.85645149340993
 21
186.9640703122476
 31
0.0
 11
97.917003572808
 21
186.6597377913283
 31
0.0
 11
98.01947046143994
 21
186.354838456065
 31
0.0
 11
98.1580448063688
 21
186.0644827658944
 31
0.0
 11
98.33983685072602
 21
185.7746896352029
 31
0.0
 11
98.5516341849821
 21
185.5059675568164
 31
0.0
 11
98.80699069525589
 21
185.2411792130475
 31
0.0
 11
99.0858126945451
 21
185.0011623661002
 31
0.0
 11
99.40630462217023
 21
184.770044433775
 31
0.0
 11
99.7443495913523
 21
184.5654054440219
 31
0.0
 11
100.1195133151965
 21
184.3751391114308
 31
0.0
 11
100.5072355650293
 21
184.211937044155
 31
0.0
 11
100.9250718894906
 21
184.068151773573
 31
0.0
 11
101.3512907113051
 21
183.9514971249658
 31
0.0
 11
101.798680677395
 21
183.8582337232663
 31
0.0
 11
102.2508688416726
 21
183.79199902161
 31
0.0
 11
102.7139720548849
 21
183.7516740328434
 31
0.0
 11
103.1786367298492
 21
183.7382890032485
 31
0.0
 11
103.6433014048135
 21
183.7516740328434
 31
0.0
 11
104.1064046180259
 21
183.79199902161
 31
0.0
 11
104.5585927823035
 21
183.8582337232663
 31
0.0
 11
105.0059827483934
 21
183.9514971249658
 31
0.0
 11
105.432201570208
 21
184.068151773573
 31
0.0
 11
105.8500378946694
 21
184.211937044155
 31
0.0
 11
106.2377601445021
 21
184.3751391114305
 31
0.0
 11
106.6129238683463
 21
184.5654054440216
 31
0.0
 11
106.9509688375282
 21
184.7700444337748
 31
0.0
 11
107.2714607651532
 21
185.0011623661
 31
0.0
 11
107.5502827644425
 21
185.2411792130473
 31
0.0
 11
107.8056392747163
 21
185.5059675568162
 31
0.0
 11
108.0174366089725
 21
185.7746896352027
 31
0.0
 11
108.1992286533298
 21
186.0644827658942
 31
0.0
 11
108.3378029982588
 21
186.3548384560648
 31
0.0
 11
108.4402698868907
 21
186.6597377913281
 31
0.0
 11
108.5008219662887
 21
186.9640703122475
 31
0.0
 11
108.5214390594894
 21
187.2736461103843
 31
0.0
  0
SPLINE
  5
9F
330
4A
100
AcDbEntity
  8
1
  6
Continuous
 62
     7
100
AcDbSpline
210
0.0
220
0.0
230
1.0
 70
    11
 71
     3
 72
    79
 73
    75
 74
    73
 42
0.000000001
 43
0.0000000001
 44
0.00000001
 40
0.0
 40
0.0
 40
0.0
 40
0.0
 40
0.3102615582252098
 40
0.6205595420820914
 40
0.9422162975288333
 40
1.263944872753685
 40
1.6060390208449
 40
1.948193468906855
 40
2.316051885190467
 40
2.683951048240021
 40
3.079084664080377
 40
3.474244780173664
 40
3.894897959207468
 40
4.315568207494143
 40
4.757452126736316
 40
5.199346674241503
 40
5.656354161986958
 40
6.113367478658113
 40
6.578223037733187
 40
7.043080455842654
 40
7.507937873950112
 40
7.972793433018481
 40
8.429806749677462
 40
8.88681423740356
 40
9.328708784880382
 40
9.770592704081498
 40
10.19126295231265
 40
10.61191613126923
 40
11.00707624726306
 40
11.40220986296859
 40
11.77010902584981
 40
12.13796744190985
 40
12.48012188969623
 40
12.82221603741909
 40
13.14394461216135
 40
13.46560136682463
 40
13.77589934864143
 40
14.08616091447266
 40
14.39642248030357
 40
14.70672046212009
 40
15.02837721678339
 40
15.35010579152565
 40
15.6921999392486
 40
16.03435438703512
 40
16.40221280309503
 40
16.7701119659761
 40
17.16524558168165
 40
17.56040569767544
 40
17.98105887663217
 40
18.40172912486356
 40
18.84361304406476
 40
19.28550759154167
 40
19.74251507926751
 40
20.19952839592635
 40
20.66438395499456
 40
21.12924137310188
 40
21.59409879121157
 40
22.0589543502868
 40
22.51596766695781
 40
22.97297515470312
 40
23.41486970220841
 40
23.85675362145077
 40
24.27742386973737
 40
24.69807704877116
 40
25.09323716486447
 40
25.48837078070476
 40
25.8562699437543
 40
26.22412836003784
 40
26.56628280809996
 40
26.90837695619128
 40
27.23010553141616
 40
27.55176228686291
 40
27.86206027071976
 40
28.17232182894491
 40
28.17232182894491
 40
28.17232182894491
 40
28.17232182894491
 10
110.3971413288461
 20
187.2736461103841
 30
0.0
 10
110.4011745205621
 20
187.3771362923063
 30
0.0
 10
110.4092413692328
 20
187.5841288066509
 30
0.0
 10
110.4732253470423
 20
187.8929776746737
 30
0.0
 10
110.5746461433396
 20
188.1949445884076
 30
0.0
 10
110.7170686434372
 20
188.4918542445224
 30
0.0
 10
110.8961712161973
 20
188.7761723528826
 30
0.0
 10
111.1141414840577
 20
189.0516733991791
 30
0.0
 10
111.3644236380928
 20
189.3102794198476
 30
0.0
 10
111.6508857998645
 20
189.5560373094605
 30
0.0
 10
111.9647165521519
 20
189.781682569655
 30
0.0
 10
112.3106307171829
 20
189.9904542375428
 30
0.0
 10
112.6787495093334
 20
190.1766750058142
 30
0.0
 10
113.0734434442502
 20
190.3423595361609
 30
0.0
 10
113.4849966442222
 20
190.4836673090106
 30
0.0
 10
113.9164223438166
 20
190.6014467975847
 30
0.0
 10
114.3591963725273
 20
190.6935650992235
 30
0.0
 10
114.8142543711211
 20
190.7600510266163
 30
0.0
 10
115.2750214732022
 20
190.8001085835268
 30
0.0
 10
115.7399436486331
 20
190.813450540822
 30
0.0
 10
116.20486582406
 20
190.8001085836052
 30
0.0
 10
116.6656329261528
 20
190.7600510267777
 30
0.0
 10
117.1206909247051
 20
190.6935650994761
 30
0.0
 10
117.5634649535701
 20
190.6014467979411
 30
0.0
 10
117.9948906526119
 20
190.4836673094881
 30
0.0
 10
118.4064438546106
 20
190.3423595367803
 30
0.0
 10
118.8011377823329
 20
190.1766750066031
 30
0.0
 10
119.1692566005549
 20
189.9904542385294
 30
0.0
 10
119.515170673978
 20
189.781682570877
 30
0.0
 10
119.8290017559161
 20
189.5560373109542
 30
0.0
 10
120.1154627683889
 20
189.3102794216628
 30
0.0
 10
120.3657490474618
 20
189.0516734013637
 30
0.0
 10
120.583704945469
 20
188.7761723555074
 30
0.0
 10
120.7628592592082
 20
188.4918542476682
 30
0.0
 10
120.9050996105959
 20
188.1949445922558
 30
0.0
 10
121.007183262636
 20
187.8929776797464
 30
0.0
 10
121.0687765025638
 20
187.5841288106
 30
0.0
 10
121.0897303060253
 20
187.2736461103839
 30
0.0
 10
121.0687765025636
 20
186.963163410168
 30
0.0
 10
121.0071832626358
 20
186.6543145410217
 30
0.0
 10
120.9050996105957
 20
186.3523476285124
 30
0.0
 10
120.7628592592082
 20
186.0554379730999
 30
0.0
 10
120.5837049454691
 20
185.7711198652605
 30
0.0
 10
120.3657490474621
 20
185.495618819404
 30
0.0
 10
120.1154627683891
 20
185.2370127991051
 30
0.0
 10
119.829001755916
 20
184.991254909814
 30
0.0
 10
119.515170673978
 20
184.7656096498912
 30
0.0
 10
119.1692566005551
 20
184.5568379822387
 30
0.0
 10
118.8011377823328
 20
184.370617214165
 30
0.0
 10
118.4064438546105
 20
184.2049326839878
 30
0.0
 10
117.9948906526115
 20
184.06362491128
 30
0.0
 10
117.5634649535698
 20
183.9458454228271
 30
0.0
 10
117.1206909247049
 20
183.8537271212921
 30
0.0
 10
116.6656329261528
 20
183.7872411939905
 30
0.0
 10
116.2048658240602
 20
183.7471836371628
 30
0.0
 10
115.7399436486333
 20
183.7338416799461
 30
0.0
 10
115.2750214732023
 20
183.7471836372413
 30
0.0
 10
114.8142543711212
 20
183.7872411941514
 30
0.0
 10
114.3591963725273
 20
183.8537271215446
 30
0.0
 10
113.9164223438168
 20
183.9458454231832
 30
0.0
 10
113.4849966442223
 20
184.0636249117577
 30
0.0
 10
113.0734434442502
 20
184.2049326846073
 30
0.0
 10
112.6787495093335
 20
184.3706172149541
 30
0.0
 10
112.3106307171829
 20
184.5568379832253
 30
0.0
 10
111.9647165521518
 20
184.7656096511131
 30
0.0
 10
111.6508857998644
 20
184.9912549113074
 30
0.0
 10
111.3644236380929
 20
185.2370128009205
 30
0.0
 10
111.1141414840579
 20
185.495618821589
 30
0.0
 10
110.8961712161973
 20
185.7711198678855
 30
0.0
 10
110.7170686434371
 20
186.0554379762457
 30
0.0
 10
110.5746461433396
 20
186.3523476323606
 30
0.0
 10
110.4732253470422
 20
186.6543145460947
 30
0.0
 10
110.4092413692329
 20
186.9631634141173
 30
0.0
 10
110.4011745205621
 20
187.1701559284619
 30
0.0
 10
110.3971413288461
 20
187.2736461103841
 30
0.0
 11
110.3971413288461
 21
187.2736461103841
 31
0.0
 11
110.4177584220468
 21
187.5832219085208
 31
0.0
 11
110.4783105014448
 21
187.88755442944
 31
0.0
 11
110.5807773900767
 21
188.1924537647034
 31
0.0
 11
110.7193517350055
 21
188.482809454874
 31
0.0
 11
110.9011437793628
 21
188.7726025855655
 31
0.0
 11
111.1129411136189
 21
189.041324663952
 31
0.0
 11
111.3682976238929
 21
189.3061130077209
 31
0.0
 11
111.6471196231822
 21
189.5461298546682
 31
0.0
 11
111.9676115508072
 21
189.7772477869933
 31
0.0
 11
112.305656519989
 21
189.9818867767465
 31
0.0
 11
112.6808202438331
 21
190.1721531093377
 31
0.0
 11
113.0685424936659
 21
190.3353551766135
 31
0.0
 11
113.4863788181272
 21
190.4791404471954
 31
0.0
 11
113.9125976399418
 21
190.5957950958024
 31
0.0
 11
114.3599876060318
 21
190.6890584975018
 31
0.0
 11
114.8121757703095
 21
190.755293199158
 31
0.0
 11
115.2752789835218
 21
190.7956181879248
 31
0.0
 11
115.7399436584859
 21
190.8090032175198
 31
0.0
 11
116.2046083334502
 21
190.7956181879248
 31
0.0
 11
116.6677115466626
 21
190.7552931991581
 31
0.0
 11
117.1198997109404
 21
190.6890584975019
 31
0.0
 11
117.5672896770305
 21
190.5957950958024
 31
0.0
 11
117.9935084988449
 21
190.4791404471952
 31
0.0
 11
118.4113448233062
 21
190.3353551766132
 31
0.0
 11
118.7990670731389
 21
190.1721531093377
 31
0.0
 11
119.1742307969831
 21
189.9818867767466
 31
0.0
 11
119.512275766165
 21
189.7772477869935
 31
0.0
 11
119.83276769379
 21
189.5461298546682
 31
0.0
 11
120.1115896930792
 21
189.3061130077208
 31
0.0
 11
120.366946203353
 21
189.0413246639517
 31
0.0
 11
120.5787435376092
 21
188.7726025855654
 31
0.0
 11
120.7605355819665
 21
188.482809454874
 31
0.0
 11
120.8991099268954
 21
188.1924537647034
 31
0.0
 11
121.0015768155273
 21
187.88755442944
 31
0.0
 11
121.0621288949253
 21
187.5832219085206
 31
0.0
 11
121.082745988126
 21
187.2736461103838
 31
0.0
 11
121.0621288949251
 21
186.9640703122473
 31
0.0
 11
121.0015768155271
 21
186.6597377913282
 31
0.0
 11
120.8991099268953
 21
186.3548384560648
 31
0.0
 11
120.7605355819665
 21
186.0644827658941
 31
0.0
 11
120.5787435376093
 21
185.7746896352025
 31
0.0
 11
120.3669462033532
 21
185.505967556816
 31
0.0
 11
120.1115896930794
 21
185.2411792130472
 31
0.0
 11
119.8327676937901
 21
185.0011623661
 31
0.0
 11
119.5122757661651
 21
184.7700444337747
 31
0.0
 11
119.1742307969833
 21
184.5654054440215
 31
0.0
 11
118.799067073139
 21
184.3751391114304
 31
0.0
 11
118.411344823306
 21
184.2119370441548
 31
0.0
 11
117.9935084988446
 21
184.0681517735729
 31
0.0
 11
117.5672896770301
 21
183.9514971249657
 31
0.0
 11
117.1198997109402
 21
183.8582337232663
 31
0.0
 11
116.6677115466626
 21
183.79199902161
 31
0.0
 11
116.2046083334504
 21
183.7516740328433
 31
0.0
 11
115.7399436584862
 21
183.7382890032483
 31
0.0
 11
115.2752789835218
 21
183.7516740328432
 31
0.0
 11
114.8121757703094
 21
183.7919990216099
 31
0.0
 11
114.3599876060318
 21
183.8582337232662
 31
0.0
 11
113.912597639942
 21
183.9514971249656
 31
0.0
 11
113.4863788181273
 21
184.0681517735727
 31
0.0
 11
113.0685424936659
 21
184.2119370441548
 31
0.0
 11
112.6808202438332
 21
184.3751391114305
 31
0.0
 11
112.305656519989
 21
184.5654054440216
 31
0.0
 11
111.9676115508071
 21
184.7700444337747
 31
0.0
 11
111.6471196231822
 21
185.0011623660998
 31
0.0
 11
111.368297623893
 21
185.2411792130472
 31
0.0
 11
111.1129411136191
 21
185.5059675568161
 31
0.0
 11
110.9011437793628
 21
185.7746896352027
 31
0.0
 11
110.7193517350054
 21
186.0644827658942
 31
0.0
 11
110.5807773900766
 21
186.3548384560649
 31
0.0
 11
110.4783105014448
 21
186.6597377913283
 31
0.0
 11
110.4177584220469
 21
186.9640703122475
 31
0.0
 11
110.3971413288461
 21
187.2736461103841
 31
0.0
  0
ARC
  5
A0
330
4A
100
AcDbEntity
  8
1
  6
Continuous
 62
     7
100
AcDbCircle
 10
97.9592901941677
 20
196.551997502234
 30
0.0
 40
2.999999999999853
100
AcDbArc
 50
315.0000000000013
 51
359.9999999999978
  0
ARC
  5
A1
330
4A
100
AcDbEntity
  8
1
  6
Continuous
 62
     7
100
AcDbCircle
 10
101.9592901941677
 20
201.2382890032493
 30
0.0
 40
0.9999999999999147
100
AcDbArc
 50
89.9999999999943
 51
180.0000000000114
  0
ARC
  5
A2
330
4A
100
AcDbEntity
  8
1
  6
Continuous
 62
     7
100
AcDbCircle
 10
116.9592901941681
 20
201.2382890032491
 30
0.0
 40
0.999999999999801
100
AcDbArc
 50
0.0
 51
90.0000000000114
  0
ARC
  5
A3
330
4A
100
AcDbEntity
  8
1
  6
Continuous
 62
     7
100
AcDbCircle
 10
120.9592901941679
 20
196.5519975022336
 30
0.0
 40
3.0
100
AcDbArc
 50
179.9999999999962
 51
224.9999999999986
  0
ARC
  5
A4
330
4A
100
AcDbEntity
  8
1
  6
Continuous
 62
     7
100
AcDbCircle
 10
302.9756451594627
 20
196.5520961783205
 30
0.0
 40
3.0
100
AcDbArc
 50
180.0
 51
224.9999999999988
  0
ARC
  5
A5
330
4A
100
AcDbEntity
  8
1
  6
Continuous
 62
     7
100
AcDbCircle
 10
298.9756451594626
 20
201.2383876793357
 30
0.0
 40
1.0
100
AcDbArc
 50
0.0
 51
90.0
  0
ARC
  5
A6
330
4A
100
AcDbEntity
  8
1
  6
Continuous
 62
     7
100
AcDbCircle
 10
283.9756451594627
 20
201.2383876793357
 30
0.0
 40
1.0
100
AcDbArc
 50
90.0
 51
180.0
  0
ARC
  5
A7
330
4A
100
AcDbEntity
  8
1
  6
Continuous
 62
     7
100
AcDbCircle
 10
279.9756451594627
 20
196.5520961783205
 30
0.0
 40
2.999999999999924
100
AcDbArc
 50
315.0000000000019
 51
0.0
  0
ENDBLK
  5
4C
330
4A
100
AcDbEntity
  8
0
100
AcDbBlockEnd
  0
BLOCK
  5
50
330
4D
100
AcDbEntity
  8
0
100
AcDbBlockBegin
  2
U360S-13
 70
     0
 10
479.8403318129679
 20
492.742842891623
 30
0.0
  3
U360S-13
  1

  0
INSERT
  5
4E
330
4D
100
AcDbEntity
  8
0
100
AcDbBlockReference
  2
36-190-M11
 10
145.6617867375143
 20
59.66926166990001
 30
0.0
  0
INSERT
  5
4F
330
4D
100
AcDbEntity
  8
1
100
AcDbBlockReference
  2
37-119
 10
613.9661316756567
 20
660.9902526749138
 30
0.0
  0
ENDBLK
  5
51
330
4D
100
AcDbEntity
  8
0
100
AcDbBlockEnd
  0
BLOCK
  5
53
330
52
100
AcDbEntity
  8
0
100
AcDbBlockBegin
  2
27-2A-M1
 70
     0
 10
658.8403318129679
 20
394.8357924145271
 30
0.0
  3
27-2A-M1
  1

  0
LINE
  5
A8
330
52
100
AcDbEntity
  8
1
  6
PHANTOM
 62
     4
100
AcDbLine
 10
124.25129396084
 20
429.5648012307223
 30
0.0
 11
109.4592901941677
 21
429.5648012307221
 31
0.0
  0
LINE
  5
A9
330
52
100
AcDbEntity
  8
1
  6
PHANTOM
 62
     4
100
AcDbLine
 10
109.4592901941677
 20
429.5648012307221
 30
0.0
 11
109.4592901941679
 21
425.5648012307223
 31
0.0
  0
LINE
  5
AA
330
52
100
AcDbEntity
  8
1
  6
PHANTOM
 62
     4
100
AcDbLine
 10
109.4592901941679
 20
416.5648012307223
 30
0.0
 11
109.4592901941679
 21
425.5648012307223
 31
0.0
  0
LINE
  5
AB
330
52
100
AcDbEntity
  8
1
  6
PHANTOM
 62
     4
100
AcDbLine
 10
109.4592901941677
 20
429.5648012307221
 30
0.0
 11
94.6672864274958
 21
429.5648012307223
 31
0.0
  0
LINE
  5
AC
330
52
100
AcDbEntity
  8
1
  6
PHANTOM
 62
     4
100
AcDbLine
 10
109.4592901941679
 20
445.9833457805352
 30
0.0
 11
109.4592901941677
 21
429.5648012307221
 31
0.0
  0
LINE
  5
AD
330
52
100
AcDbEntity
  8
1
  6
PHANTOM
 62
     4
100
AcDbLine
 10
109.4592901941679
 20
386.9294852672854
 30
0.0
 11
109.4592901941679
 21
416.5648012307223
 31
0.0
  0
LINE
  5
AE
330
52
100
AcDbEntity
  8
1
  6
PHANTOM
 62
     4
100
AcDbLine
 10
109.4592901941679
 20
386.9294852672854
 30
0.0
 11
109.4592901941679
 21
354.5648012307223
 31
0.0
  0
LINE
  5
AF
330
52
100
AcDbEntity
  8
1
  6
PHANTOM
 62
     4
100
AcDbLine
 10
115.4592901941679
 20
368.5648012307223
 30
0.0
 11
103.4592901941679
 21
368.5648012307223
 31
0.0
  0
LINE
  5
B0
330
52
100
AcDbEntity
  8
1
  6
PHANTOM
 62
     4
100
AcDbLine
 10
109.4592901941679
 20
354.5648012307223
 30
0.0
 11
109.4592901941679
 21
351.5648012307223
 31
0.0
  0
LINE
  5
B1
330
52
100
AcDbEntity
  8
1
  6
Continuous
 62
     7
100
AcDbLine
 10
112.3979708869745
 20
393.5648012307223
 30
0.0
 11
106.7215935032764
 21
393.5648012307223
 31
0.0
  0
LINE
  5
B2
330
52
100
AcDbEntity
  8
1
  6
Continuous
 62
     7
100
AcDbLine
 10
279.4043760154842
 20
219.189343917258
 30
0.0
 11
279.8799646175854
 21
228.2641150410753
 31
0.0
  0
LINE
  5
B3
330
52
100
AcDbEntity
  8
1
  6
Continuous
 62
     7
100
AcDbLine
 10
105.4592901941677
 20
229.2383876793361
 30
0.0
 11
105.4592901941677
 21
248.4383876793361
 31
0.0
  0
LINE
  5
B4
330
52
100
AcDbEntity
  8
1
  6
Continuous
 62
     7
100
AcDbLine
 10
113.4592901941677
 20
229.2383876793361
 30
0.0
 11
113.4592901941677
 21
220.4383876793361
 31
0.0
  0
LINE
  5
B5
330
52
100
AcDbEntity
  8
1
  6
Continuous
 62
     7
100
AcDbLine
 10
105.4592901941677
 20
248.4383876793361
 30
0.0
 11
113.4592901941677
 21
248.4383876793361
 31
0.0
  0
LINE
  5
B6
330
52
100
AcDbEntity
  8
1
  6
Continuous
 62
     7
100
AcDbLine
 10
112.6344269165576
 20
220.4383876793361
 30
0.0
 11
113.4592901941677
 21
220.4383876793361
 31
0.0
  0
LINE
  5
B7
330
52
100
AcDbEntity
  8
1
  6
Continuous
 62
     7
100
AcDbLine
 10
106.2841534717776
 20
220.4383876793361
 30
0.0
 11
112.6344269165576
 21
220.4383876793361
 31
0.0
  0
LINE
  5
B8
330
52
100
AcDbEntity
  8
1
  6
Continuous
 62
     7
100
AcDbLine
 10
105.4592901941677
 20
220.4383876793361
 30
0.0
 11
105.4592901941677
 21
229.2383876793361
 31
0.0
  0
LINE
  5
B9
330
52
100
AcDbEntity
  8
1
  6
PHANTOM
 62
     4
100
AcDbLine
 10
102.4592901941677
 20
234.4383876793361
 30
0.0
 11
116.4592901941677
 21
234.4383876793361
 31
0.0
  0
LINE
  5
BA
330
52
100
AcDbEntity
  8
1
  6
Continuous
 62
     7
100
AcDbLine
 10
113.4592901941677
 20
248.4383876793361
 30
0.0
 11
113.4592901941677
 21
229.2383876793361
 31
0.0
  0
LINE
  5
BB
330
52
100
AcDbEntity
  8
1
  6
Continuous
 62
     7
100
AcDbLine
 10
113.4592901941677
 20
229.2383876793361
 30
0.0
 11
113.8079256380233
 21
229.2383876793361
 31
0.0
  0
LINE
  5
BC
330
52
100
AcDbEntity
  8
1
  6
Continuous
 62
     7
100
AcDbLine
 10
96.6830863045263
 20
205.7383876793361
 30
0.0
 11
97.9146691176776
 21
229.2383876793361
 31
0.0
  0
LINE
  5
BD
330
52
100
AcDbEntity
  8
1
  6
Continuous
 62
     7
100
AcDbLine
 10
304.2518490491041
 20
205.7383876793361
 30
0.0
 11
278.699441269821
 21
205.7383876793361
 31
0.0
  0
LINE
  5
BE
330
52
100
AcDbEntity
  8
1
  6
Continuous
 62
     7
100
AcDbLine
 10
303.0202662359529
 20
229.2383876793361
 30
0.0
 11
291.4756451594625
 21
229.2383876793361
 31
0.0
  0
LINE
  5
BF
330
52
100
AcDbEntity
  8
1
  6
Continuous
 62
     7
100
AcDbLine
 10
111.6492901941676
 20
218.2383876793361
 30
0.0
 11
113.4592901941677
 21
218.2383876793361
 31
0.0
  0
LINE
  5
C0
330
52
100
AcDbEntity
  8
1
  6
Continuous
 62
     7
100
AcDbLine
 10
111.2411792941676
 20
219.6030717158993
 30
0.0
 11
111.6492901941676
 21
218.2383876793361
 31
0.0
  0
LINE
  5
C1
330
52
100
AcDbEntity
  8
1
  6
Continuous
 62
     7
100
AcDbLine
 10
107.2692901941676
 20
218.2383876793361
 30
0.0
 11
111.6492901941676
 21
218.2383876793361
 31
0.0
  0
LINE
  5
C2
330
52
100
AcDbEntity
  8
1
  6
Continuous
 62
     7
100
AcDbLine
 10
107.6774010941676
 20
219.6030717158993
 30
0.0
 11
107.2692901941676
 21
218.2383876793361
 31
0.0
  0
LINE
  5
C3
330
52
100
AcDbEntity
  8
1
  6
Continuous
 62
     7
100
AcDbLine
 10
115.4592901941677
 20
216.2383876793361
 30
0.0
 11
113.8079256380233
 21
229.2383876793361
 31
0.0
  0
LINE
  5
C4
330
52
100
AcDbEntity
  8
1
  6
Continuous
 62
     7
100
AcDbLine
 10
115.0050451002566
 20
217.507498301111
 30
0.0
 11
112.6344269165576
 21
220.4383876793361
 31
0.0
  0
LINE
  5
C5
330
52
100
AcDbEntity
  8
1
  6
Continuous
 62
     7
100
AcDbLine
 10
105.1106547503119
 20
229.2383876793361
 30
0.0
 11
97.9146691176776
 21
229.2383876793361
 31
0.0
  0
LINE
  5
C6
330
52
100
AcDbEntity
  8
1
  6
Continuous
 62
     7
100
AcDbLine
 10
105.1106547503119
 20
229.2383876793361
 30
0.0
 11
103.4592901941677
 21
216.2383876793361
 31
0.0
  0
LINE
  5
C7
330
52
100
AcDbEntity
  8
1
  6
Continuous
 62
     7
100
AcDbLine
 10
106.2841534717776
 20
220.4383876793361
 30
0.0
 11
103.8951080694484
 21
217.4847159991254
 31
0.0
  0
LINE
  5
C8
330
52
100
AcDbEntity
  8
1
  6
Continuous
 62
     7
100
AcDbLine
 10
105.4592901941677
 20
218.2383876793361
 30
0.0
 11
107.2692901941676
 21
218.2383876793361
 31
0.0
  0
LINE
  5
C9
330
52
100
AcDbEntity
  8
1
  6
Continuous
 62
     7
100
AcDbLine
 10
105.4592901941677
 20
229.2383876793361
 30
0.0
 11
105.1106547503119
 21
229.2383876793361
 31
0.0
  0
LINE
  5
CA
330
52
100
AcDbEntity
  8
1
  6
PHANTOM
 62
     4
100
AcDbLine
 10
109.4592901941677
 20
202.7383876793361
 30
0.0
 11
109.4592901941677
 21
251.4383876793361
 31
0.0
  0
LINE
  5
CB
330
52
100
AcDbEntity
  8
1
  6
Continuous
 62
     7
100
AcDbLine
 10
107.6774010941676
 20
219.6030717158993
 30
0.0
 11
111.2411792941676
 21
219.6030717158993
 31
0.0
  0
LINE
  5
CC
330
52
100
AcDbEntity
  8
1
  6
Continuous
 62
     7
100
AcDbLine
 10
105.4592901941677
 20
220.4383876793361
 30
0.0
 11
106.2841534717776
 21
220.4383876793361
 31
0.0
  0
LINE
  5
CD
330
52
100
AcDbEntity
  8
1
  6
Continuous
 62
     7
100
AcDbLine
 10
121.0039112706576
 20
229.2383876793361
 30
0.0
 11
122.2354940838092
 21
205.7383876793361
 31
0.0
  0
LINE
  5
CE
330
52
100
AcDbEntity
  8
1
  6
Continuous
 62
     7
100
AcDbLine
 10
122.2354940838092
 20
205.7383876793361
 30
0.0
 11
96.6830863045263
 21
205.7383876793361
 31
0.0
  0
LINE
  5
CF
330
52
100
AcDbEntity
  8
1
  6
Continuous
 62
     7
100
AcDbLine
 10
277.3417594388186
 20
218.3289812598138
 30
0.0
 11
236.235784245417
 21
220.1791284138287
 31
0.0
  0
LINE
  5
D0
330
52
100
AcDbEntity
  8
1
  6
Continuous
 62
     7
100
AcDbLine
 10
242.926869873027
 20
224.88302999542
 30
0.0
 11
236.4606026504856
 21
225.1740715250905
 31
0.0
  0
LINE
  5
D1
330
52
100
AcDbEntity
  8
1
  6
Continuous
 62
     7
100
AcDbLine
 10
236.8393933277423
 20
240.8025615652949
 30
0.0
 11
245.1765382365719
 21
232.465974351784
 31
0.0
  0
LINE
  5
D2
330
52
100
AcDbEntity
  8
1
  6
Continuous
 62
     7
100
AcDbLine
 10
240.3748089767865
 20
244.3382137241609
 30
0.0
 11
248.7120721444824
 21
236.0015082596944
 31
0.0
  0
LINE
  5
D3
330
52
100
AcDbEntity
  8
1
  6
PHANTOM
 62
     4
100
AcDbLine
 10
246.057354920322
 20
234.4383876793361
 30
0.0
 11
214.4229050966509
 21
234.4383876793361
 31
0.0
  0
LINE
  5
D4
330
52
100
AcDbEntity
  8
1
  6
Continuous
 62
     7
100
AcDbLine
 10
113.4592901941679
 20
354.5648012307223
 30
0.0
 11
109.4592901941679
 21
354.5648012307223
 31
0.0
  0
LINE
  5
D5
330
52
100
AcDbEntity
  8
1
  6
Continuous
 62
     7
100
AcDbLine
 10
113.4592901941679
 20
393.5648012307223
 30
0.0
 11
113.4592901941679
 21
354.5648012307223
 31
0.0
  0
LINE
  5
D6
330
52
100
AcDbEntity
  8
1
  6
Continuous
 62
     7
100
AcDbLine
 10
113.9603042569163
 20
410.265269989002
 30
0.0
 11
113.4592901941679
 21
393.5648012307223
 31
0.0
  0
LINE
  5
D7
330
52
100
AcDbEntity
  8
1
  6
Continuous
 62
     7
100
AcDbLine
 10
105.4592901941679
 20
393.5648012307223
 30
0.0
 11
104.9582761314196
 21
410.265269989002
 31
0.0
  0
LINE
  5
D8
330
52
100
AcDbEntity
  8
1
  6
Continuous
 62
     7
100
AcDbLine
 10
105.4592901941679
 20
354.5648012307223
 30
0.0
 11
105.4592901941679
 21
393.5648012307223
 31
0.0
  0
LINE
  5
D9
330
52
100
AcDbEntity
  8
1
  6
Continuous
 62
     7
100
AcDbLine
 10
109.4592901941679
 20
354.5648012307223
 30
0.0
 11
105.4592901941679
 21
354.5648012307223
 31
0.0
  0
LINE
  5
DA
330
52
100
AcDbEntity
  8
1
  6
Continuous
 62
     7
100
AcDbLine
 10
245.1765382365719
 20
232.465974351784
 30
0.0
 11
245.9350571163172
 21
231.7075062115223
 31
0.0
  0
LINE
  5
DB
330
52
100
AcDbEntity
  8
1
  6
Continuous
 62
     7
100
AcDbLine
 10
236.4606026504856
 20
225.1740715250905
 30
0.0
 11
230.4756451594629
 21
225.4434496876768
 31
0.0
  0
LINE
  5
DC
330
52
100
AcDbEntity
  8
1
  6
PHANTOM
 62
     4
100
AcDbLine
 10
230.4756451594629
 20
213.2383876793361
 30
0.0
 11
230.4756451594629
 21
225.4434496876768
 31
0.0
  0
LINE
  5
DD
330
52
100
AcDbEntity
  8
1
  6
Continuous
 62
     7
100
AcDbLine
 10
248.7120721444824
 20
236.0015082596944
 30
0.0
 11
255.4756451594629
 21
229.2383876793361
 31
0.0
  0
LINE
  5
DE
330
52
100
AcDbEntity
  8
1
  6
Continuous
 62
     7
100
AcDbLine
 10
303.0202662359529
 20
229.2383876793361
 30
0.0
 11
304.2518490491041
 21
205.7383876793361
 31
0.0
  0
LINE
  5
DF
330
52
100
AcDbEntity
  8
1
  6
Continuous
 62
     7
100
AcDbLine
 10
291.4756451594625
 20
229.2383876793361
 30
0.0
 11
255.4756451594629
 21
229.2383876793361
 31
0.0
  0
LINE
  5
E0
330
52
100
AcDbEntity
  8
1
  6
Continuous
 62
     7
100
AcDbLine
 10
278.699441269821
 20
205.7383876793361
 30
0.0
 11
279.3545385108594
 21
218.2383876793361
 31
0.0
  0
LINE
  5
E1
330
52
100
AcDbEntity
  8
1
  6
Continuous
 62
     7
100
AcDbLine
 10
236.235784245417
 20
220.1791284138287
 30
0.0
 11
230.4756451594629
 21
220.4383876793361
 31
0.0
  0
LINE
  5
E2
330
52
100
AcDbEntity
  8
1
  6
PHANTOM
 62
     4
100
AcDbLine
 10
230.4756451594629
 20
225.4434496876768
 30
0.0
 11
230.4756451594629
 21
250.6856863479595
 31
0.0
  0
LINE
  5
E3
330
52
100
AcDbEntity
  8
1
  6
Continuous
 62
     7
100
AcDbLine
 10
113.8079256380233
 20
229.2383876793361
 30
0.0
 11
121.0039112706576
 21
229.2383876793361
 31
0.0
  0
ARC
  5
E4
330
52
100
AcDbEntity
  8
1
  6
Continuous
 62
     7
100
AcDbCircle
 10
109.4592901941677
 20
429.5648012307221
 30
0.0
 40
12.75000000000007
100
AcDbArc
 50
314.6276164332776
 51
0.00000000000102
  0
ARC
  5
E5
330
52
100
AcDbEntity
  8
1
  6
Continuous
 62
     7
100
AcDbCircle
 10
113.4592901941677
 20
216.2383876793361
 30
0.0
 40
2.0
100
AcDbArc
 50
0.0
 51
39.38701050525207
  0
ARC
  5
E6
330
52
100
AcDbEntity
  8
1
  6
Continuous
 62
     7
100
AcDbCircle
 10
105.4592901941677
 20
216.2383876793361
 30
0.0
 40
2.0
100
AcDbArc
 50
90.0
 51
141.452431830057
  0
ARC
  5
E7
330
52
100
AcDbEntity
  8
1
  6
Continuous
 62
     7
100
AcDbCircle
 10
113.4592901941677
 20
216.2383876793361
 30
0.0
 40
1.999999999999935
100
AcDbArc
 50
39.38701050525207
 51
90.0
  0
ARC
  5
E8
330
52
100
AcDbEntity
  8
1
  6
Continuous
 62
     7
100
AcDbCircle
 10
105.4592901941677
 20
216.2383876793361
 30
0.0
 40
2.000000000000049
100
AcDbArc
 50
141.452431830057
 51
180.0
  0
ARC
  5
E9
330
52
100
AcDbEntity
  8
1
  6
Continuous
 62
     7
100
AcDbCircle
 10
89.96502157858401
 20
409.815472352417
 30
0.0
 40
15.00000000000008
100
AcDbArc
 50
1.71835800165521
 51
26.7408134221631
  0
ARC
  5
EA
330
52
100
AcDbEntity
  8
1
  6
Continuous
 62
     7
100
AcDbCircle
 10
128.9535588097518
 20
409.815472352417
 30
0.0
 40
14.99999999999998
100
AcDbArc
 50
134.6276164332753
 51
153.2591865778366
  0
ARC
  5
EB
330
52
100
AcDbEntity
  8
1
  6
Continuous
 62
     7
100
AcDbCircle
 10
128.9535588097518
 20
409.815472352417
 30
0.0
 40
14.99999999999996
100
AcDbArc
 50
153.2591865778366
 51
178.2816419983448
  0
ARC
  5
EC
330
52
100
AcDbEntity
  8
1
  6
Continuous
 62
     7
100
AcDbCircle
 10
109.4592901941677
 20
429.5648012307221
 30
0.0
 40
12.75
100
AcDbArc
 50
180.0
 51
225.3723835667243
  0
ARC
  5
ED
330
52
100
AcDbEntity
  8
1
  6
Continuous
 62
     7
100
AcDbCircle
 10
89.96502157858401
 20
409.815472352417
 30
0.0
 40
15.00000000000014
100
AcDbArc
 50
26.7408134221631
 51
45.37238356672416
  0
ARC
  5
EE
330
52
100
AcDbEntity
  8
1
  6
Continuous
 62
     7
100
AcDbCircle
 10
243.106724597082
 20
228.8789844844295
 30
0.0
 40
4.000000000000016
100
AcDbArc
 50
267.422901981416
 51
45.0019164028652
  0
ARC
  5
EF
330
52
100
AcDbEntity
  8
1
  6
Continuous
 62
     7
100
AcDbCircle
 10
230.4756451594629
 20
234.4383876793361
 30
0.0
 40
8.994937991659297
100
AcDbArc
 50
45.00191640286439
 51
270.0
  0
ARC
  5
F0
330
52
100
AcDbEntity
  8
1
  6
Continuous
 62
     7
100
AcDbCircle
 10
230.4756451594629
 20
234.4383876793361
 30
0.0
 40
14.00000000000001
100
AcDbArc
 50
45.00191640286433
 51
90.0
  0
ARC
  5
F1
330
52
100
AcDbEntity
  8
1
  6
Continuous
 62
     7
100
AcDbCircle
 10
109.4592901941677
 20
429.5648012307221
 30
0.0
 40
12.7500000000002
100
AcDbArc
 50
0.00000000000102
 51
90.0
  0
ARC
  5
F2
330
52
100
AcDbEntity
  8
1
  6
Continuous
 62
     7
100
AcDbCircle
 10
230.4756451594629
 20
234.4383876793361
 30
0.0
 40
14.0
100
AcDbArc
 50
180.0
 51
270.0
  0
ARC
  5
F3
330
52
100
AcDbEntity
  8
1
  6
Continuous
 62
     7
100
AcDbCircle
 10
230.4756451594629
 20
234.4383876793361
 30
0.0
 40
14.0
100
AcDbArc
 50
90.0
 51
180.0
  0
ARC
  5
F4
330
52
100
AcDbEntity
  8
1
  6
Continuous
 62
     7
100
AcDbCircle
 10
109.4592901941677
 20
429.5648012307221
 30
0.0
 40
12.75
100
AcDbArc
 50
90.0
 51
180.0
  0
ARC
  5
F5
330
52
100
AcDbEntity
  8
1
  6
Continuous
 62
     7
100
AcDbCircle
 10
277.2518320767911
 20
216.331004015309
 30
0.0
 40
2.000000000000045
100
AcDbArc
 50
357.0000000000027
 51
52.27251365015208
  0
ARC
  5
F6
330
52
100
AcDbEntity
  8
1
  6
Continuous
 62
     7
100
AcDbCircle
 10
277.2518320767911
 20
216.331004015309
 30
0.0
 40
2.000000000000039
100
AcDbArc
 50
52.27251365015208
 51
87.42290198141686
  0
ENDBLK
  5
54
330
52
100
AcDbEntity
  8
0
100
AcDbBlockEnd
  0
BLOCK
  5
56
330
55
100
AcDbEntity
  8
0
100
AcDbBlockBegin
  2
A90-0A-13-M1
 70
     0
 10
391.4756451594626
 20
158.2383876793361
 30
0.0
  3
A90-0A-13-M1
  1

  0
LINE
  5
F7
330
55
100
AcDbEntity
  8
1
  6
Continuous
 62
     7
100
AcDbLine
 10
121.2092901941679
 20
134.7383876793361
 30
0.0
 11
97.70929019416775
 21
134.7383876793361
 31
0.0
  0
LINE
  5
F8
330
55
100
AcDbEntity
  8
1
  6
Continuous
 62
     2
100
AcDbLine
 10
244.4756451594624
 20
135.9883876793361
 30
0.0
 11
244.4756451594624
 21
140.7383876793361
 31
0.0
  0
LINE
  5
F9
330
55
100
AcDbEntity
  8
1
  6
Continuous
 62
     7
100
AcDbLine
 10
243.4756451594624
 20
135.9883876793361
 30
0.0
 11
269.4756451594624
 21
135.9883876793361
 31
0.0
  0
LINE
  5
FA
330
55
100
AcDbEntity
  8
1
  6
Continuous
 62
     7
100
AcDbLine
 10
244.7256451594624
 20
134.7383876793361
 30
0.0
 11
268.2256451594625
 21
134.7383876793361
 31
0.0
  0
LINE
  5
FB
330
55
100
AcDbEntity
  8
1
  6
Continuous
 62
     7
100
AcDbLine
 10
122.4592901941679
 20
140.7383876793361
 30
0.0
 11
96.4592901941678
 21
140.7383876793361
 31
0.0
  0
LINE
  5
FC
330
55
100
AcDbEntity
  8
1
  6
Continuous
 62
     2
100
AcDbLine
 10
121.4592901941679
 20
140.7383876793361
 30
0.0
 11
121.4592901941677
 21
134.9883876793361
 31
0.0
  0
LINE
  5
FD
330
55
100
AcDbEntity
  8
1
  6
Continuous
 62
     2
100
AcDbLine
 10
97.45929019416775
 20
134.9883876793361
 30
0.0
 11
97.4592901941677
 21
140.7383876793361
 31
0.0
  0
LINE
  5
FE
330
55
100
AcDbEntity
  8
1
  6
Continuous
 62
     7
100
AcDbLine
 10
122.4592901941677
 20
135.9883876793361
 30
0.0
 11
121.2092901941679
 21
134.7383876793361
 31
0.0
  0
LINE
  5
FF
330
55
100
AcDbEntity
  8
1
  6
Continuous
 62
     7
100
AcDbLine
 10
121.2092901941679
 20
134.7383876793361
 30
0.0
 11
121.2092901941679
 21
133.2383876793361
 31
0.0
  0
LINE
  5
100
330
55
100
AcDbEntity
  8
1
  6
Continuous
 62
     7
100
AcDbLine
 10
96.45929019416775
 20
135.9883876793361
 30
0.0
 11
97.70929019416775
 21
134.7383876793361
 31
0.0
  0
LINE
  5
101
330
55
100
AcDbEntity
  8
1
  6
Continuous
 62
     7
100
AcDbLine
 10
97.70929019416775
 20
134.7383876793361
 30
0.0
 11
97.70929019416786
 21
133.2383876793361
 31
0.0
  0
LINE
  5
102
330
55
100
AcDbEntity
  8
1
  6
Continuous
 62
     7
100
AcDbLine
 10
97.70929019416786
 20
133.2383876793361
 30
0.0
 11
121.2092901941679
 21
133.2383876793361
 31
0.0
  0
LINE
  5
103
330
55
100
AcDbEntity
  8
1
  6
Continuous
 62
     7
100
AcDbLine
 10
244.7256451594625
 20
133.2383876793361
 30
0.0
 11
268.2256451594625
 21
133.2383876793361
 31
0.0
  0
LINE
  5
104
330
55
100
AcDbEntity
  8
1
  6
Continuous
 62
     7
100
AcDbLine
 10
244.7256451594624
 20
134.7383876793361
 30
0.0
 11
244.7256451594625
 21
133.2383876793361
 31
0.0
  0
LINE
  5
105
330
55
100
AcDbEntity
  8
1
  6
Continuous
 62
     7
100
AcDbLine
 10
243.4756451594624
 20
135.9883876793361
 30
0.0
 11
244.7256451594624
 21
134.7383876793361
 31
0.0
  0
LINE
  5
106
330
55
100
AcDbEntity
  8
1
  6
Continuous
 62
     7
100
AcDbLine
 10
268.2256451594625
 20
134.7383876793361
 30
0.0
 11
268.2256451594625
 21
133.2383876793361
 31
0.0
  0
LINE
  5
107
330
55
100
AcDbEntity
  8
1
  6
Continuous
 62
     7
100
AcDbLine
 10
269.4756451594624
 20
135.9883876793361
 30
0.0
 11
268.2256451594625
 21
134.7383876793361
 31
0.0
  0
LINE
  5
108
330
55
100
AcDbEntity
  8
1
  6
Continuous
 62
     7
100
AcDbLine
 10
350.4756451594626
 20
148.7383876793361
 30
0.0
 11
350.4756451594625
 21
167.7383876793361
 31
0.0
  0
LINE
  5
109
330
55
100
AcDbEntity
  8
1
  6
Continuous
 62
     7
100
AcDbLine
 10
243.4756451594624
 20
142.4704384869049
 30
0.0
 11
243.4756451594624
 21
142.598332734696
 31
0.0
  0
LINE
  5
10A
330
55
100
AcDbEntity
  8
1
  6
Continuous
 62
     7
100
AcDbLine
 10
279.4756451594624
 20
183.7383876793361
 30
0.0
 11
279.4756451594624
 21
180.5063368717674
 31
0.0
  0
LINE
  5
10B
330
55
100
AcDbEntity
  8
1
  6
Continuous
 62
     2
100
AcDbLine
 10
280.4756451594624
 20
182.2383876793361
 30
0.0
 11
280.4756451594626
 21
183.7383876793361
 31
0.0
  0
LINE
  5
10C
330
55
100
AcDbEntity
  8
1
  6
Continuous
 62
     2
100
AcDbLine
 10
279.4756451594624
 20
180.5063368717674
 30
0.0
 11
280.4756451594624
 21
182.2383876793361
 31
0.0
  0
LINE
  5
10D
330
55
100
AcDbEntity
  8
1
  6
Continuous
 62
     7
100
AcDbLine
 10
303.4756451594625
 20
180.5063368717674
 30
0.0
 11
303.4756451594625
 21
183.7383876793361
 31
0.0
  0
LINE
  5
10E
330
55
100
AcDbEntity
  8
1
  6
Continuous
 62
     2
100
AcDbLine
 10
302.4756451594624
 20
182.2383876793361
 30
0.0
 11
303.4756451594625
 21
180.5063368717674
 31
0.0
  0
LINE
  5
10F
330
55
100
AcDbEntity
  8
1
  6
Continuous
 62
     7
100
AcDbLine
 10
303.4756451594625
 20
180.5063368717674
 30
0.0
 11
303.7682223591116
 21
180.5063368717674
 31
0.0
  0
LINE
  5
110
330
55
100
AcDbEntity
  8
1
  6
Continuous
 62
     7
100
AcDbLine
 10
279.1830679598146
 20
180.5063368717674
 30
0.0
 11
279.4756451594624
 21
180.5063368717674
 31
0.0
  0
LINE
  5
111
330
55
100
AcDbEntity
  8
1
  6
Continuous
 62
     2
100
AcDbLine
 10
244.4756451594624
 20
134.9883876793361
 30
0.0
 11
244.4756451594624
 21
135.9883876793361
 31
0.0
  0
LINE
  5
112
330
55
100
AcDbEntity
  8
1
  6
Continuous
 62
     2
100
AcDbLine
 10
268.4756451594624
 20
140.7383876793361
 30
0.0
 11
268.4756451594624
 21
134.9883876793361
 31
0.0
  0
LINE
  5
113
330
55
100
AcDbEntity
  8
1
  6
Continuous
 62
     2
100
AcDbLine
 10
268.4756451594624
 20
140.7383876793361
 30
0.0
 11
269.4756451594624
 21
142.470438486905
 31
0.0
  0
LINE
  5
114
330
55
100
AcDbEntity
  8
1
  6
Continuous
 62
     7
100
AcDbLine
 10
243.4756451594624
 20
135.9883876793361
 30
0.0
 11
243.4756451594624
 21
142.4704384869049
 31
0.0
  0
LINE
  5
115
330
55
100
AcDbEntity
  8
1
  6
Continuous
 62
     2
100
AcDbLine
 10
243.4756451594624
 20
142.4704384869049
 30
0.0
 11
244.4756451594624
 21
140.7383876793361
 31
0.0
  0
LINE
  5
116
330
55
100
AcDbEntity
  8
1
  6
Continuous
 62
     7
100
AcDbLine
 10
269.4756451594624
 20
142.598332734696
 30
0.0
 11
269.4756451594624
 21
135.9883876793361
 31
0.0
  0
LINE
  5
117
330
55
100
AcDbEntity
  8
1
  6
Continuous
 62
     7
100
AcDbLine
 10
333.9756451594625
 20
170.9883876793361
 30
0.0
 11
333.9756451594625
 21
180.7383876793361
 31
0.0
  0
LINE
  5
118
330
55
100
AcDbEntity
  8
1
  6
Continuous
 62
     7
100
AcDbLine
 10
336.4756451594626
 20
181.2383876793361
 30
0.0
 11
334.4756451594625
 21
181.2383876793361
 31
0.0
  0
LINE
  5
119
330
55
100
AcDbEntity
  8
1
  6
Continuous
 62
     7
100
AcDbLine
 10
336.4756451594626
 20
181.2383876793361
 30
0.0
 11
336.4756451594625
 21
168.7383876793361
 31
0.0
  0
LINE
  5
11A
330
55
100
AcDbEntity
  8
1
  6
Continuous
 62
     2
100
AcDbLine
 10
336.4756451594625
 20
168.7383876793361
 30
0.0
 11
338.2076959670316
 21
167.7383876793361
 31
0.0
  0
LINE
  5
11B
330
55
100
AcDbEntity
  8
1
  6
Continuous
 62
     7
100
AcDbLine
 10
350.4756451594625
 20
167.7383876793361
 30
0.0
 11
349.4756451594625
 21
168.7383876793361
 31
0.0
  0
LINE
  5
11C
330
55
100
AcDbEntity
  8
1
  6
Continuous
 62
     7
100
AcDbLine
 10
336.4756451594625
 20
168.7383876793361
 30
0.0
 11
349.4756451594625
 21
168.7383876793361
 31
0.0
  0
LINE
  5
11D
330
55
100
AcDbEntity
  8
1
  6
Continuous
 62
     2
100
AcDbLine
 10
338.2076959670316
 20
167.7383876793361
 30
0.0
 11
350.4756451594625
 21
167.7383876793361
 31
0.0
  0
LINE
  5
11E
330
55
100
AcDbEntity
  8
1
  6
Continuous
 62
     7
100
AcDbLine
 10
336.4756451594625
 20
147.7383876793361
 30
0.0
 11
336.4756451594626
 21
135.2383876793361
 31
0.0
  0
LINE
  5
11F
330
55
100
AcDbEntity
  8
1
  6
Continuous
 62
     7
100
AcDbLine
 10
336.4756451594626
 20
135.2383876793361
 30
0.0
 11
334.4756451594625
 21
135.2383876793361
 31
0.0
  0
LINE
  5
120
330
55
100
AcDbEntity
  8
1
  6
Continuous
 62
     7
100
AcDbLine
 10
333.9756451594625
 20
145.4883876793361
 30
0.0
 11
333.9756451594626
 21
135.7383876793361
 31
0.0
  0
LINE
  5
121
330
55
100
AcDbEntity
  8
1
  6
Continuous
 62
     7
100
AcDbLine
 10
349.4756451594625
 20
147.7383876793361
 30
0.0
 11
350.4756451594626
 21
148.7383876793361
 31
0.0
  0
LINE
  5
122
330
55
100
AcDbEntity
  8
1
  6
Continuous
 62
     2
100
AcDbLine
 10
350.4756451594626
 20
148.7383876793361
 30
0.0
 11
338.2076959670316
 21
148.7383876793361
 31
0.0
  0
LINE
  5
123
330
55
100
AcDbEntity
  8
1
  6
Continuous
 62
     2
100
AcDbLine
 10
338.2076959670316
 20
148.7383876793361
 30
0.0
 11
336.4756451594625
 21
147.7383876793361
 31
0.0
  0
LINE
  5
124
330
55
100
AcDbEntity
  8
1
  6
Continuous
 62
     7
100
AcDbLine
 10
349.4756451594625
 20
147.7383876793361
 30
0.0
 11
336.4756451594625
 21
147.7383876793361
 31
0.0
  0
LINE
  5
125
330
55
100
AcDbEntity
  8
1
  6
Continuous
 62
     2
100
AcDbLine
 10
302.4756451594624
 20
183.7383876793361
 30
0.0
 11
302.4756451594624
 21
182.2383876793361
 31
0.0
  0
LINE
  5
126
330
55
100
AcDbEntity
  8
1
  6
Continuous
 62
     7
100
AcDbLine
 10
268.4567919765835
 20
146.1643188747739
 30
0.0
 11
269.4756451594624
 21
142.598332734696
 31
0.0
  0
LINE
  5
127
330
55
100
AcDbEntity
  8
1
  6
Continuous
 62
     7
100
AcDbLine
 10
273.0433365682956
 20
149.7383876793361
 30
0.0
 11
272.2171190494895
 21
149.7383876793361
 31
0.0
  0
LINE
  5
128
330
55
100
AcDbEntity
  8
1
  6
Continuous
 62
     7
100
AcDbLine
 10
313.6553092687306
 20
149.4883876793359
 30
0.0
 11
329.9756451594625
 21
149.4883876793361
 31
0.0
  0
LINE
  5
129
330
55
100
AcDbEntity
  8
1
  6
Continuous
 62
     7
100
AcDbLine
 10
303.7682223591116
 20
180.5063368717674
 30
0.0
 11
303.9203203516526
 21
175.7152501067293
 31
0.0
  0
LINE
  5
12A
330
55
100
AcDbEntity
  8
1
  6
Continuous
 62
     7
100
AcDbLine
 10
329.9756451594625
 20
166.9883876793361
 30
0.0
 11
313.6553092687316
 21
166.9883876793363
 31
0.0
  0
LINE
  5
12B
330
55
100
AcDbEntity
  8
1
  6
Continuous
 62
     7
100
AcDbLine
 10
244.4544508766434
 20
146.0241527448289
 30
0.0
 11
243.4756451594624
 21
142.598332734696
 31
0.0
  0
LINE
  5
12C
330
55
100
AcDbEntity
  8
1
  6
Continuous
 62
     7
100
AcDbLine
 10
279.0212889321974
 20
175.4102975018478
 30
0.0
 11
279.1830679598146
 21
180.5063368717674
 31
0.0
  0
LINE
  5
12D
330
55
100
AcDbEntity
  8
1
  6
Continuous
 62
     7
100
AcDbLine
 10
269.4756451594626
 20
140.7383876793361
 30
0.0
 11
243.4756451594624
 21
140.7383876793361
 31
0.0
  0
LINE
  5
12E
330
55
100
AcDbEntity
  8
1
  6
Continuous
 62
     7
100
AcDbLine
 10
303.4756451594625
 20
182.2383876793361
 30
0.0
 11
279.4756451594626
 21
182.2383876793361
 31
0.0
  0
LINE
  5
12F
330
55
100
AcDbEntity
  8
1
  6
Continuous
 62
     7
100
AcDbLine
 10
303.4756451594625
 20
180.5063368717674
 30
0.0
 11
279.4756451594624
 21
180.5063368717674
 31
0.0
  0
LINE
  5
130
330
55
100
AcDbEntity
  8
1
  6
Continuous
 62
     7
100
AcDbLine
 10
338.2076959670316
 20
168.7383876793361
 30
0.0
 11
338.2076959670316
 21
147.7383876793361
 31
0.0
  0
LINE
  5
131
330
55
100
AcDbEntity
  8
1
  6
Continuous
 62
     7
100
AcDbLine
 10
336.4756451594625
 20
147.7383876793361
 30
0.0
 11
336.4756451594625
 21
168.7383876793361
 31
0.0
  0
LINE
  5
132
330
55
100
AcDbEntity
  8
1
  6
Continuous
 62
     7
100
AcDbLine
 10
333.9756451594625
 20
170.9883876793361
 30
0.0
 11
333.9756451594625
 21
145.4883876793361
 31
0.0
  0
LINE
  5
133
330
55
100
AcDbEntity
  8
1
  6
Continuous
 62
     7
100
AcDbLine
 10
349.4756451594625
 20
168.7383876793361
 30
0.0
 11
349.4756451594625
 21
147.7383876793361
 31
0.0
  0
LINE
  5
134
330
55
100
AcDbEntity
  8
1
  6
PHANTOM
 62
     4
100
AcDbLine
 10
126.4592901941679
 20
429.5648012307221
 30
0.0
 11
92.4592901941679
 21
429.5648012307221
 31
0.0
  0
LINE
  5
135
330
55
100
AcDbEntity
  8
1
  6
Continuous
 62
     2
100
AcDbLine
 10
118.9592901941679
 20
476.2968520382909
 30
0.0
 11
118.9592901941679
 21
488.5648012307221
 31
0.0
  0
LINE
  5
136
330
55
100
AcDbEntity
  8
1
  6
Continuous
 62
     2
100
AcDbLine
 10
118.9592901941679
 20
476.2968520382909
 30
0.0
 11
119.9592901941679
 21
474.5648012307221
 31
0.0
  0
LINE
  5
137
330
55
100
AcDbEntity
  8
1
  6
Continuous
 62
     7
100
AcDbLine
 10
132.4592901941679
 20
474.5648012307221
 30
0.0
 11
86.45929019416792
 21
474.5648012307221
 31
0.0
  0
LINE
  5
138
330
55
100
AcDbEntity
  8
1
  6
Continuous
 62
     7
100
AcDbLine
 10
132.4592901941679
 20
472.5269964765512
 30
0.0
 11
132.4592901941679
 21
474.5648012307221
 31
0.0
  0
LINE
  5
139
330
55
100
AcDbEntity
  8
1
  6
Continuous
 62
     7
100
AcDbLine
 10
118.2092901941679
 20
468.0285378096846
 30
0.0
 11
118.2092901941679
 21
453.584324539897
 31
0.0
  0
LINE
  5
13A
330
55
100
AcDbEntity
  8
1
  6
Continuous
 62
     7
100
AcDbLine
 10
86.45929019416792
 20
474.5648012307221
 30
0.0
 11
86.45929019416792
 21
472.5269964765512
 31
0.0
  0
LINE
  5
13B
330
55
100
AcDbEntity
  8
1
  6
Continuous
 62
     2
100
AcDbLine
 10
98.9592901941679
 20
474.5648012307221
 30
0.0
 11
99.9592901941679
 21
476.2968520382909
 31
0.0
  0
LINE
  5
13C
330
55
100
AcDbEntity
  8
1
  6
Continuous
 62
     2
100
AcDbLine
 10
99.9592901941679
 20
476.2968520382909
 30
0.0
 11
99.9592901941679
 21
488.5648012307221
 31
0.0
  0
LINE
  5
13D
330
55
100
AcDbEntity
  8
1
  6
Continuous
 62
     7
100
AcDbLine
 10
100.7092901941679
 20
468.0285378096846
 30
0.0
 11
100.7092901941679
 21
453.584324539897
 31
0.0
  0
LINE
  5
13E
330
55
100
AcDbEntity
  8
1
  6
Continuous
 62
     7
100
AcDbLine
 10
98.9592901941679
 20
474.5648012307221
 30
0.0
 11
98.9592901941679
 21
487.5648012307221
 31
0.0
  0
LINE
  5
13F
330
55
100
AcDbEntity
  8
1
  6
Continuous
 62
     7
100
AcDbLine
 10
99.9592901941679
 20
488.5648012307221
 30
0.0
 11
98.9592901941679
 21
487.5648012307221
 31
0.0
  0
LINE
  5
140
330
55
100
AcDbEntity
  8
1
  6
Continuous
 62
     7
100
AcDbLine
 10
119.9592901941679
 20
487.5648012307221
 30
0.0
 11
119.9592901941679
 21
474.5648012307221
 31
0.0
  0
LINE
  5
141
330
55
100
AcDbEntity
  8
1
  6
Continuous
 62
     7
100
AcDbLine
 10
119.9592901941679
 20
487.5648012307221
 30
0.0
 11
118.9592901941679
 21
488.5648012307221
 31
0.0
  0
LINE
  5
142
330
55
100
AcDbEntity
  8
1
  6
Continuous
 62
     7
100
AcDbLine
 10
99.9592901941679
 20
488.5648012307221
 30
0.0
 11
118.9592901941679
 21
488.5648012307221
 31
0.0
  0
LINE
  5
143
330
55
100
AcDbEntity
  8
1
  6
Continuous
 62
     7
100
AcDbLine
 10
100.7092901941679
 20
396.5648012307221
 30
0.0
 11
100.7092901941679
 21
405.545277921547
 31
0.0
  0
LINE
  5
144
330
55
100
AcDbEntity
  8
1
  6
Continuous
 62
     7
100
AcDbLine
 10
118.2092901941679
 20
396.5648012307221
 30
0.0
 11
118.2092901941679
 21
405.545277921547
 31
0.0
  0
LINE
  5
145
330
55
100
AcDbEntity
  8
1
  6
Continuous
 62
     7
100
AcDbLine
 10
98.9592901941679
 20
476.2968520382909
 30
0.0
 11
119.9592901941679
 21
476.2968520382909
 31
0.0
  0
LINE
  5
146
330
55
100
AcDbEntity
  8
1
  6
Continuous
 62
     7
100
AcDbLine
 10
119.9592901941679
 20
487.5648012307221
 30
0.0
 11
98.9592901941679
 21
487.5648012307221
 31
0.0
  0
LINE
  5
147
330
55
100
AcDbEntity
  8
1
  6
Continuous
 62
     7
100
AcDbLine
 10
86.92006064630402
 20
472.0285378096846
 30
0.0
 11
131.9985197420318
 21
472.0285378096846
 31
0.0
  0
LINE
  5
148
330
55
100
AcDbEntity
  8
1
  6
Continuous
 62
     7
100
AcDbLine
 10
96.4592901941677
 20
142.4704384869049
 30
0.0
 11
96.4592901941678
 21
142.598332734696
 31
0.0
  0
LINE
  5
149
330
55
100
AcDbEntity
  8
1
  6
Continuous
 62
     7
100
AcDbLine
 10
97.4592901941677
 20
183.7383876793361
 30
0.0
 11
97.4592901941677
 21
180.5063368717674
 31
0.0
  0
LINE
  5
14A
330
55
100
AcDbEntity
  8
1
  6
Continuous
 62
     2
100
AcDbLine
 10
98.4592901941677
 20
182.2383876793361
 30
0.0
 11
98.4592901941679
 21
183.7383876793361
 31
0.0
  0
LINE
  5
14B
330
55
100
AcDbEntity
  8
1
  6
Continuous
 62
     2
100
AcDbLine
 10
97.4592901941677
 20
180.5063368717674
 30
0.0
 11
98.4592901941677
 21
182.2383876793361
 31
0.0
  0
LINE
  5
14C
330
55
100
AcDbEntity
  8
1
  6
Continuous
 62
     7
100
AcDbLine
 10
121.4592901941677
 20
180.5063368717674
 30
0.0
 11
121.4592901941677
 21
183.7383876793361
 31
0.0
  0
LINE
  5
14D
330
55
100
AcDbEntity
  8
1
  6
Continuous
 62
     2
100
AcDbLine
 10
120.4592901941677
 20
182.2383876793361
 30
0.0
 11
121.4592901941677
 21
180.5063368717674
 31
0.0
  0
LINE
  5
14E
330
55
100
AcDbEntity
  8
1
  6
Continuous
 62
     7
100
AcDbLine
 10
121.4592901941677
 20
180.5063368717674
 30
0.0
 11
121.751867393817
 21
180.5063368717674
 31
0.0
  0
LINE
  5
14F
330
55
100
AcDbEntity
  8
1
  6
Continuous
 62
     7
100
AcDbLine
 10
97.1667129945189
 20
180.5063368717674
 30
0.0
 11
97.4592901941677
 21
180.5063368717674
 31
0.0
  0
LINE
  5
150
330
55
100
AcDbEntity
  8
1
  6
Continuous
 62
     2
100
AcDbLine
 10
97.4592901941677
 20
139.2383876793361
 30
0.0
 11
97.4592901941677
 21
140.7383876793361
 31
0.0
  0
LINE
  5
151
330
55
100
AcDbEntity
  8
1
  6
Continuous
 62
     7
100
AcDbLine
 10
96.45929019416775
 20
135.9883876793361
 30
0.0
 11
96.4592901941677
 21
142.4704384869049
 31
0.0
  0
LINE
  5
152
330
55
100
AcDbEntity
  8
1
  6
Continuous
 62
     2
100
AcDbLine
 10
96.4592901941677
 20
142.4704384869049
 30
0.0
 11
97.4592901941677
 21
140.7383876793361
 31
0.0
  0
LINE
  5
153
330
55
100
AcDbEntity
  8
1
  6
Continuous
 62
     2
100
AcDbLine
 10
120.4592901941677
 20
183.7383876793361
 30
0.0
 11
120.4592901941677
 21
182.2383876793361
 31
0.0
  0
LINE
  5
154
330
55
100
AcDbEntity
  8
1
  6
Continuous
 62
     7
100
AcDbLine
 10
121.751867393817
 20
180.5063368717674
 30
0.0
 11
122.4592808639987
 21
158.2228125610586
 31
0.0
  0
LINE
  5
155
330
55
100
AcDbEntity
  8
1
  6
Continuous
 62
     7
100
AcDbLine
 10
97.4380959113488
 20
146.0241527448289
 30
0.0
 11
96.4592901941678
 21
142.598332734696
 31
0.0
  0
LINE
  5
156
330
55
100
AcDbEntity
  8
1
  6
Continuous
 62
     7
100
AcDbLine
 10
122.4592901941679
 20
140.7383876793361
 30
0.0
 11
96.4592901941678
 21
140.7383876793361
 31
0.0
  0
LINE
  5
157
330
55
100
AcDbEntity
  8
1
  6
Continuous
 62
     7
100
AcDbLine
 10
121.4592901941677
 20
182.2383876793361
 30
0.0
 11
97.4592901941679
 21
182.2383876793361
 31
0.0
  0
LINE
  5
158
330
55
100
AcDbEntity
  8
1
  6
Continuous
 62
     7
100
AcDbLine
 10
121.4592901941677
 20
180.5063368717674
 30
0.0
 11
97.4592901941677
 21
180.5063368717674
 31
0.0
  0
LINE
  5
159
330
55
100
AcDbEntity
  8
1
  6
Continuous
 62
     7
100
AcDbLine
 10
96.4592995243369
 20
158.2228125610586
 30
0.0
 11
97.1667129945189
 21
180.5063368717674
 31
0.0
  0
LINE
  5
15A
330
55
100
AcDbEntity
  8
1
  6
Continuous
 62
     7
100
AcDbLine
 10
122.459290194168
 20
142.598332734696
 30
0.0
 11
122.4592901941679
 21
142.4704384869049
 31
0.0
  0
LINE
  5
15B
330
55
100
AcDbEntity
  8
1
  6
Continuous
 62
     2
100
AcDbLine
 10
121.4592901941679
 20
140.7383876793361
 30
0.0
 11
121.4592901941679
 21
139.2383876793361
 31
0.0
  0
LINE
  5
15C
330
55
100
AcDbEntity
  8
1
  6
Continuous
 62
     7
100
AcDbLine
 10
122.4592901941679
 20
142.4704384869049
 30
0.0
 11
122.4592901941677
 21
135.9883876793361
 31
0.0
  0
LINE
  5
15D
330
55
100
AcDbEntity
  8
1
  6
Continuous
 62
     2
100
AcDbLine
 10
121.4592901941679
 20
140.7383876793361
 30
0.0
 11
122.4592901941679
 21
142.4704384869049
 31
0.0
  0
LINE
  5
15E
330
55
100
AcDbEntity
  8
1
  6
Continuous
 62
     7
100
AcDbLine
 10
122.459290194168
 20
142.598332734696
 30
0.0
 11
121.480484476987
 21
146.0241527448289
 31
0.0
  0
LINE
  5
15F
330
55
100
AcDbEntity
  8
1
  6
Continuous
 62
     7
100
AcDbLine
 10
122.4592901941677
 20
135.9883876793361
 30
0.0
 11
96.45929019416775
 21
135.9883876793361
 31
0.0
  0
ARC
  5
160
330
55
100
AcDbEntity
  8
1
  6
Continuous
 62
     7
100
AcDbCircle
 10
270.0258206545358
 20
175.695867923362
 30
0.0
 40
9.000000000003753
100
AcDbArc
 50
272.1940450997746
 51
358.181697035541
  0
ARC
  5
161
330
55
100
AcDbEntity
  8
1
  6
Continuous
 62
     7
100
AcDbCircle
 10
272.2462899211238
 20
117.7383876788767
 30
0.0
 40
49.00000000045973
100
AcDbArc
 50
92.19404509977879
 51
99.36066212030437
  0
ARC
  5
162
330
55
100
AcDbEntity
  8
1
  6
Continuous
 62
     7
100
AcDbCircle
 10
268.1800757334548
 20
142.4054892962711
 30
0.0
 40
24.00000000000223
100
AcDbArc
 50
99.36066212030313
 51
171.3280051740366
  0
ARC
  5
163
330
55
100
AcDbEntity
  8
1
  6
Continuous
 62
     7
100
AcDbCircle
 10
329.9756451594625
 20
170.9883876793361
 30
0.0
 40
4.0
100
AcDbArc
 50
270.0
 51
0.0
  0
ARC
  5
164
330
55
100
AcDbEntity
  8
1
  6
Continuous
 62
     7
100
AcDbCircle
 10
329.9756451594625
 20
145.4883876793361
 30
0.0
 40
4.0
100
AcDbArc
 50
0.0
 51
90.0
  0
ARC
  5
165
330
55
100
AcDbEntity
  8
1
  6
Continuous
 62
     7
100
AcDbCircle
 10
272.4346797838837
 20
145.7443086457123
 30
0.0
 40
3.999999999997942
100
AcDbArc
 50
93.11786651757501
 51
173.9726861048965
  0
ARC
  5
166
330
55
100
AcDbEntity
  8
1
  6
Continuous
 62
     7
100
AcDbCircle
 10
291.4756451594624
 20
174.238387679336
 30
0.0
 40
28.9999999999999
100
AcDbArc
 50
242.5607598493188
 51
291.6947160223859
  0
ARC
  5
167
330
55
100
AcDbEntity
  8
1
  6
Continuous
 62
     7
100
AcDbCircle
 10
109.4592901941679
 20
394.5648012307221
 30
0.0
 40
12.99999999999989
100
AcDbArc
 50
290.170031009948
 51
47.69501029281692
  0
ARC
  5
168
330
55
100
AcDbEntity
  8
1
  6
Continuous
 62
     7
100
AcDbCircle
 10
136.4592901941679
 20
429.5648012307221
 30
0.0
 40
39.99999999999997
100
AcDbArc
 50
191.21543997265
 51
200.0680546208192
  0
ARC
  5
169
330
55
100
AcDbEntity
  8
1
  6
Continuous
 62
     7
100
AcDbCircle
 10
96.7092901941679
 20
468.0285378096846
 30
0.0
 40
4.0
100
AcDbArc
 50
0.0
 51
90.0
  0
ARC
  5
16A
330
55
100
AcDbEntity
  8
1
  6
Continuous
 62
     7
100
AcDbCircle
 10
122.2092901941679
 20
468.0285378096846
 30
0.0
 40
4.0
100
AcDbArc
 50
90.0
 51
180.0
  0
ARC
  5
16B
330
55
100
AcDbEntity
  8
1
  6
Continuous
 62
     7
100
AcDbCircle
 10
121.16372076816
 20
142.4054892962711
 30
0.0
 40
24.00000000000137
100
AcDbArc
 50
152.1298826058547
 51
171.3280051740365
  0
ARC
  5
16C
330
55
100
AcDbEntity
  8
1
  6
Continuous
 62
     7
100
AcDbCircle
 10
109.4592901941679
 20
158.2383876793361
 30
0.0
 40
13.00000000000004
100
AcDbArc
 50
325.6899072066108
 51
359.9313547110607
  0
ARC
  5
16D
330
55
100
AcDbEntity
  8
1
  6
Continuous
 62
     7
100
AcDbCircle
 10
109.4592901941679
 20
158.2383876793361
 30
0.0
 40
13.0
100
AcDbArc
 50
180.0
 51
180.0686452889392
  0
ARC
  5
16E
330
55
100
AcDbEntity
  8
1
  6
Continuous
 62
     7
100
AcDbCircle
 10
97.7548596201756
 20
142.4054892962711
 30
0.0
 40
24.00000000000157
100
AcDbArc
 50
8.67199482596342
 51
27.87011739414498
  0
ARC
  5
16F
330
55
100
AcDbEntity
  8
1
  6
Continuous
 62
     7
100
AcDbCircle
 10
109.4592901941679
 20
158.2383876793361
 30
0.0
 40
13.0000000000001
100
AcDbArc
 50
180.0686452889392
 51
214.3100927933895
  0
ARC
  5
170
330
55
100
AcDbEntity
  8
1
  6
Continuous
 62
     7
100
AcDbCircle
 10
109.4592901941679
 20
158.2383876793361
 30
0.0
 40
8.351995935906075
100
AcDbArc
 50
90.0
 51
179.8094249769225
  0
ARC
  5
171
330
55
100
AcDbEntity
  8
1
  6
Continuous
 62
     7
100
AcDbCircle
 10
109.4592901941679
 20
158.2383876793361
 30
0.0
 40
8.35199593590594
100
AcDbArc
 50
0.19057502307755
 51
90.0
  0
ARC
  5
172
330
55
100
AcDbEntity
  8
1
  6
Continuous
 62
     7
100
AcDbCircle
 10
82.45929019416792
 20
429.5648012307221
 30
0.0
 40
39.99999999999999
100
AcDbArc
 50
11.21543997265009
 51
20.06805462081913
  0
ARC
  5
173
330
55
100
AcDbEntity
  8
1
  6
Continuous
 62
     7
100
AcDbCircle
 10
82.45929019416792
 20
429.5648012307221
 30
0.0
 40
40.00000000000009
100
AcDbArc
 50
339.9319453791809
 51
348.7845600273498
  0
ARC
  5
174
330
55
100
AcDbEntity
  8
1
  6
Continuous
 62
     7
100
AcDbCircle
 10
136.4592901941679
 20
429.5648012307221
 30
0.0
 40
39.99999999999994
100
AcDbArc
 50
159.9319453791808
 51
168.8814414053017
  0
ARC
  5
175
330
55
100
AcDbEntity
  8
1
  6
Continuous
 62
     7
100
AcDbCircle
 10
109.4592901941679
 20
394.5648012307221
 30
0.0
 40
12.99999999999994
100
AcDbArc
 50
132.3049897071831
 51
249.8299689900537
  0
ARC
  5
176
330
55
100
AcDbEntity
  8
1
  6
Continuous
 62
     7
100
AcDbCircle
 10
109.4592901941679
 20
158.2383876793361
 30
0.0
 40
23.00000000000003
100
AcDbArc
 50
304.4173887104415
 51
0.0
  0
ARC
  5
177
330
55
100
AcDbEntity
  8
1
  6
Continuous
 62
     7
100
AcDbCircle
 10
109.4592901941679
 20
158.2383876793361
 30
0.0
 40
22.99999999999999
100
AcDbArc
 50
0.0
 51
57.42219882713912
  0
ARC
  5
178
330
55
100
AcDbEntity
  8
1
  6
Continuous
 62
     7
100
AcDbCircle
 10
109.4592901941679
 20
158.2383876793361
 30
0.0
 40
22.99999999999998
100
AcDbArc
 50
122.5778011728607
 51
235.582611289558
  0
ARC
  5
179
330
55
100
AcDbEntity
  8
1
  6
Continuous
 62
     7
100
AcDbCircle
 10
334.4756451594625
 20
180.7383876793361
 30
0.0
 40
0.5
100
AcDbArc
 50
90.0
 51
180.0
  0
ARC
  5
17A
330
55
100
AcDbEntity
  8
1
  6
Continuous
 62
     7
100
AcDbCircle
 10
334.4756451594625
 20
135.7383876793361
 30
0.0
 40
0.4999999999998863
100
AcDbArc
 50
180.0
 51
270.0
  0
ARC
  5
17B
330
55
100
AcDbEntity
  8
1
  6
Continuous
 62
     7
100
AcDbCircle
 10
273.0433365682956
 20
138.7383876793361
 30
0.0
 40
11.0
100
AcDbArc
 50
62.56075984931876
 51
90.0
  0
ARC
  5
17C
330
55
100
AcDbEntity
  8
1
  6
Continuous
 62
     7
100
AcDbCircle
 10
313.6553092687316
 20
118.4883876793359
 30
0.0
 40
30.99999999999999
100
AcDbArc
 50
90.0000000000019
 51
111.694716022388
  0
ARC
  5
17D
330
55
100
AcDbEntity
  8
1
  6
Continuous
 62
     7
100
AcDbCircle
 10
312.9157886293096
 20
176.0008205282423
 30
0.0
 40
8.999999999998678
100
AcDbArc
 50
181.8183029644523
 51
268.0736638597964
  0
ARC
  5
17E
330
55
100
AcDbEntity
  8
1
  6
Continuous
 62
     7
100
AcDbCircle
 10
313.6553092687316
 20
197.9883876793363
 30
0.0
 40
31.00000000000002
100
AcDbArc
 50
268.0736638597934
 51
270.0
  0
ARC
  5
17F
330
55
100
AcDbEntity
  8
1
  6
Continuous
 62
     7
100
AcDbCircle
 10
131.9592901941679
 20
472.5269964765512
 30
0.0
 40
0.4999999999999883
100
AcDbArc
 50
274.4999999999972
 51
0.0
  0
ARC
  5
180
330
55
100
AcDbEntity
  8
1
  6
Continuous
 62
     7
100
AcDbCircle
 10
86.95929019416792
 20
472.5269964765512
 30
0.0
 40
0.5
100
AcDbArc
 50
180.0
 51
265.5000000000028
  0
ARC
  5
181
330
55
100
AcDbEntity
  8
1
  6
Continuous
 62
     7
100
AcDbCircle
 10
148.2092901941679
 20
405.545277921547
 30
0.0
 40
29.99999999999993
100
AcDbArc
 50
159.9319453791804
 51
180.0
  0
ARC
  5
182
330
55
100
AcDbEntity
  8
1
  6
Continuous
 62
     7
100
AcDbCircle
 10
70.70929019416792
 20
405.545277921547
 30
0.0
 40
29.99999999999999
100
AcDbArc
 50
0.0
 51
20.06805462081944
  0
ARC
  5
183
330
55
100
AcDbEntity
  8
1
  6
Continuous
 62
     7
100
AcDbCircle
 10
70.70929019416792
 20
453.584324539897
 30
0.0
 40
30.00000000000002
100
AcDbArc
 50
339.9319453791809
 51
0.0
  0
ARC
  5
184
330
55
100
AcDbEntity
  8
1
  6
Continuous
 62
     7
100
AcDbCircle
 10
98.7092901941679
 20
396.5648012307221
 30
0.0
 40
2.0
100
AcDbArc
 50
270.0
 51
0.0
  0
ARC
  5
185
330
55
100
AcDbEntity
  8
1
  6
Continuous
 62
     7
100
AcDbCircle
 10
120.2092901941679
 20
396.5648012307221
 30
0.0
 40
2.0
100
AcDbArc
 50
180.0
 51
270.0
  0
ARC
  5
186
330
55
100
AcDbEntity
  8
1
  6
Continuous
 62
     7
100
AcDbCircle
 10
148.2092901941679
 20
453.584324539897
 30
0.0
 40
29.99999999999999
100
AcDbArc
 50
180.0
 51
200.0680546208192
  0
ARC
  5
187
330
55
100
AcDbEntity
  8
1
  6
Continuous
 62
     7
100
AcDbCircle
 10
91.107395775456
 20
158.2994292714017
 30
0.0
 40
10.00000000000006
100
AcDbArc
 50
332.1298826058548
 51
359.8094249769229
  0
ARC
  5
188
330
55
100
AcDbEntity
  8
1
  6
Continuous
 62
     7
100
AcDbCircle
 10
127.8111846128799
 20
158.2994292714017
 30
0.0
 40
10.00000000000017
100
AcDbArc
 50
180.1905750230771
 51
207.8701173941452
  0
ENDBLK
  5
57
330
55
100
AcDbEntity
  8
0
100
AcDbBlockEnd
  0
BLOCK
  5
59
330
58
100
AcDbEntity
  8
0
100
AcDbBlockBegin
  2
開示A4
 70
     0
 10
0.0
 20
0.0
 30
0.0
  3
開示A4
  1

  0
POINT
  5
189
330
58
100
AcDbEntity
  8
1
 62
     4
100
AcDbPoint
 10
93.75
 20
17.0
 30
0.0
  0
POINT
  5
18A
330
58
100
AcDbEntity
  8
1
 62
     4
100
AcDbPoint
 10
85.25
 20
17.0
 30
0.0
  0
POINT
  5
18B
330
58
100
AcDbEntity
  8
1
 62
     4
100
AcDbPoint
 10
106.5
 20
19.00000000000001
 30
0.0
  0
POINT
  5
18C
330
58
100
AcDbEntity
  8
1
 62
     4
100
AcDbPoint
 10
106.5
 20
12.5
 30
0.0
  0
POINT
  5
18D
330
58
100
AcDbEntity
  8
1
 62
     4
100
AcDbPoint
 10
112.25
 20
12.5
 30
0.0
  0
POINT
  5
18E
330
58
100
AcDbEntity
  8
1
 62
     4
100
AcDbPoint
 10
100.75
 20
12.5
 30
0.0
  0
POINT
  5
18F
330
58
100
AcDbEntity
  8
1
 62
     4
100
AcDbPoint
 10
123.5
 20
19.00000000000001
 30
0.0
  0
POINT
  5
190
330
58
100
AcDbEntity
  8
1
 62
     4
100
AcDbPoint
 10
123.5
 20
12.5
 30
0.0
  0
POINT
  5
191
330
58
100
AcDbEntity
  8
1
 62
     4
100
AcDbPoint
 10
129.25
 20
12.5
 30
0.0
  0
POINT
  5
192
330
58
100
AcDbEntity
  8
1
 62
     4
100
AcDbPoint
 10
117.75
 20
12.5
 30
0.0
  0
POINT
  5
193
330
58
100
AcDbEntity
  8
1
 62
     4
100
AcDbPoint
 10
140.5
 20
19.00000000000001
 30
0.0
  0
POINT
  5
194
330
58
100
AcDbEntity
  8
1
 62
     4
100
AcDbPoint
 10
140.5
 20
12.5
 30
0.0
  0
POINT
  5
195
330
58
100
AcDbEntity
  8
1
 62
     4
100
AcDbPoint
 10
146.25
 20
12.5
 30
0.0
  0
POINT
  5
196
330
58
100
AcDbEntity
  8
1
 62
     4
100
AcDbPoint
 10
134.75
 20
12.5
 30
0.0
  0
POINT
  5
197
330
58
100
AcDbEntity
  8
1
 62
     4
100
AcDbPoint
 10
151.75
 20
12.5
 30
0.0
  0
POINT
  5
198
330
58
100
AcDbEntity
  8
1
 62
     4
100
AcDbPoint
 10
163.25
 20
12.5
 30
0.0
  0
POINT
  5
199
330
58
100
AcDbEntity
  8
1
 62
     4
100
AcDbPoint
 10
157.5
 20
12.5
 30
0.0
  0
POINT
  5
19A
330
58
100
AcDbEntity
  8
1
 62
     4
100
AcDbPoint
 10
57.0
 20
14.25
 30
0.0
  0
POINT
  5
19B
330
58
100
AcDbEntity
  8
1
 62
     4
100
AcDbPoint
 10
57.0
 20
22.75000000000001
 30
0.0
  0
POINT
  5
19C
330
58
100
AcDbEntity
  8
1
 62
     4
100
AcDbPoint
 10
47.5
 20
282.0000000000003
 30
0.0
  0
POINT
  5
19D
330
58
100
AcDbEntity
  8
1
 62
     4
100
AcDbPoint
 10
157.5
 20
19.00000000000001
 30
0.0
  0
POINT
  5
19E
330
58
100
AcDbEntity
  8
1
 62
     4
100
AcDbPoint
 10
57.0
 20
16.25
 30
0.0
  0
POINT
  5
19F
330
58
100
AcDbEntity
  8
1
 62
     4
100
AcDbPoint
 10
57.0
 20
24.75000000000001
 30
0.0
  0
POINT
  5
1A0
330
58
100
AcDbEntity
  8
1
 62
     4
100
AcDbPoint
 10
57.0
 20
20.75000000000001
 30
0.0
  0
POINT
  5
1A1
330
58
100
AcDbEntity
  8
1
 62
     4
100
AcDbPoint
 10
57.0
 20
12.25
 30
0.0
  0
POINT
  5
1A2
330
58
100
AcDbEntity
  8
1
 62
     4
100
AcDbPoint
 10
34.0
 20
34.00000000000001
 30
0.0
  0
LINE
  5
1A3
330
58
100
AcDbEntity
  8
1
  6
Continuous
 62
     7
100
AcDbLine
 10
105.0
 20
10.0
 30
0.0
 11
200.0
 21
10.0
 31
0.0
  0
LINE
  5
1A4
330
58
100
AcDbEntity
  8
1
  6
Continuous
 62
     2
100
AcDbLine
 10
105.0
 20
10.0
 30
0.0
 11
105.0
 21
5.0
 31
0.0
  0
LINE
  5
1A5
330
58
100
AcDbEntity
  8
1
  6
Continuous
 62
     7
100
AcDbLine
 10
200.0
 20
148.5
 30
0.0
 11
200.0
 21
287.0000000000003
 31
0.0
  0
LINE
  5
1A6
330
58
100
AcDbEntity
  8
1
  6
Continuous
 62
     2
100
AcDbLine
 10
200.0
 20
148.5
 30
0.0
 11
205.0
 21
148.5
 31
0.0
  0
LINE
  5
1A7
330
58
100
AcDbEntity
  8
1
  6
Continuous
 62
     7
100
AcDbLine
 10
25.0
 20
148.5
 30
0.0
 11
25.0
 21
287.0000000000003
 31
0.0
  0
LINE
  5
1A8
330
58
100
AcDbEntity
  8
1
  6
Continuous
 62
     2
100
AcDbLine
 10
25.0
 20
148.5
 30
0.0
 11
20.0
 21
148.5
 31
0.0
  0
LINE
  5
1A9
330
58
100
AcDbEntity
  8
1
  6
Continuous
 62
     7
100
AcDbLine
 10
105.0
 20
287.0000000000003
 30
0.0
 11
25.0
 21
287.0000000000003
 31
0.0
  0
LINE
  5
1AA
330
58
100
AcDbEntity
  8
1
  6
Continuous
 62
     2
100
AcDbLine
 10
105.0
 20
287.0000000000003
 30
0.0
 11
105.0
 21
292.0000000000003
 31
0.0
  0
LINE
  5
1AB
330
58
100
AcDbEntity
  8
1
  6
Continuous
 62
     2
100
AcDbLine
 10
166.0
 20
20.00000000000001
 30
0.0
 11
200.0
 21
20.00000000000001
 31
0.0
  0
LINE
  5
1AC
330
58
100
AcDbEntity
  8
1
  6
Continuous
 62
     2
100
AcDbLine
 10
98.0
 20
27.00000000000001
 30
0.0
 11
98.0
 21
9.99999999999999
 31
0.0
  0
LINE
  5
1AD
330
58
100
AcDbEntity
  8
1
  6
Continuous
 62
     2
100
AcDbLine
 10
115.0
 20
27.00000000000001
 30
0.0
 11
115.0
 21
9.99999999999999
 31
0.0
  0
LINE
  5
1AE
330
58
100
AcDbEntity
  8
1
  6
Continuous
 62
     2
100
AcDbLine
 10
149.0
 20
27.00000000000001
 30
0.0
 11
149.0
 21
10.0
 31
0.0
  0
LINE
  5
1AF
330
58
100
AcDbEntity
  8
1
  6
Continuous
 62
     2
100
AcDbLine
 10
132.0
 20
27.00000000000001
 30
0.0
 11
132.0
 21
9.99999999999999
 31
0.0
  0
LINE
  5
1B0
330
58
100
AcDbEntity
  8
1
  6
Continuous
 62
     2
100
AcDbLine
 10
166.0
 20
27.00000000000001
 30
0.0
 11
166.0
 21
10.0
 31
0.0
  0
LINE
  5
1B1
330
58
100
AcDbEntity
  8
1
  6
Continuous
 62
     2
100
AcDbLine
 10
55.0
 20
277.0000000000003
 30
0.0
 11
25.0
 21
277.0000000000003
 31
0.0
  0
LINE
  5
1B2
330
58
100
AcDbEntity
  8
1
  6
Continuous
 62
     7
100
AcDbLine
 10
25.0
 20
10.0
 30
0.0
 11
25.0
 21
148.5
 31
0.0
  0
LINE
  5
1B3
330
58
100
AcDbEntity
  8
1
  6
Continuous
 62
     2
100
AcDbLine
 10
40.0
 20
287.0000000000003
 30
0.0
 11
40.0
 21
277.0000000000003
 31
0.0
  0
LINE
  5
1B4
330
58
100
AcDbEntity
  8
1
  6
Continuous
 62
     2
100
AcDbLine
 10
55.0
 20
287.0000000000003
 30
0.0
 11
55.0
 21
277.0000000000003
 31
0.0
  0
LINE
  5
1B5
330
58
100
AcDbEntity
  8
1
  6
Continuous
 62
     2
100
AcDbLine
 10
33.0
 20
41.00000000000001
 30
0.0
 11
33.0
 21
27.0
 31
0.0
  0
LINE
  5
1B6
330
58
100
AcDbEntity
  8
1
  6
Continuous
 62
     7
100
AcDbLine
 10
200.0
 20
27.00000000000001
 30
0.0
 11
25.0
 21
27.00000000000001
 31
0.0
  0
LINE
  5
1B7
330
58
100
AcDbEntity
  8
1
  6
Continuous
 62
     7
100
AcDbLine
 10
25.0
 20
41.0
 30
0.0
 11
200.0
 21
41.0
 31
0.0
  0
LINE
  5
1B8
330
58
100
AcDbEntity
  8
1
  6
PHANTOM
 62
     4
100
AcDbLine
 10
0.0
 20
0.0
 30
0.0
 11
210.0
 21
0.0
 31
0.0
  0
LINE
  5
1B9
330
58
100
AcDbEntity
  8
1
  6
PHANTOM
 62
     4
100
AcDbLine
 10
210.0
 20
0.0
 30
0.0
 11
210.0
 21
297.0
 31
0.0
  0
LINE
  5
1BA
330
58
100
AcDbEntity
  8
1
  6
PHANTOM
 62
     4
100
AcDbLine
 10
210.0
 20
297.0
 30
0.0
 11
0.0
 21
297.0
 31
0.0
  0
LINE
  5
1BB
330
58
100
AcDbEntity
  8
1
  6
PHANTOM
 62
     4
100
AcDbLine
 10
0.0
 20
297.0
 30
0.0
 11
0.0
 21
0.0
 31
0.0
  0
LINE
  5
1BC
330
58
100
AcDbEntity
  8
1
  6
Continuous
 62
     7
100
AcDbLine
 10
25.0
 20
10.0
 30
0.0
 11
105.0
 21
10.0
 31
0.0
  0
LINE
  5
1BD
330
58
100
AcDbEntity
  8
1
  6
Continuous
 62
     7
100
AcDbLine
 10
200.0
 20
10.0
 30
0.0
 11
200.0
 21
148.5
 31
0.0
  0
LINE
  5
1BE
330
58
100
AcDbEntity
  8
1
  6
Continuous
 62
     7
100
AcDbLine
 10
200.0
 20
287.0000000000003
 30
0.0
 11
105.0
 21
287.0000000000003
 31
0.0
  0
LINE
  5
1BF
330
58
100
AcDbEntity
  8
1
  6
Continuous
 62
     2
100
AcDbLine
 10
25.0
 20
18.50000000000001
 30
0.0
 11
81.0
 21
18.50000000000001
 31
0.0
  0
LINE
  5
1C0
330
58
100
AcDbEntity
  8
1
  6
Continuous
 62
     2
100
AcDbLine
 10
33.0
 20
27.0
 30
0.0
 11
33.0
 21
10.0
 31
0.0
  0
LINE
  5
1C1
330
58
100
AcDbEntity
  8
1
  6
Continuous
 62
     7
100
AcDbLine
 10
191.0
 20
24.70000000000001
 30
0.0
 11
191.0
 21
22.30000000000001
 31
0.0
  0
LINE
  5
1C2
330
58
100
AcDbEntity
  8
1
  6
Continuous
 62
     7
100
AcDbLine
 10
191.0
 20
24.70000000000001
 30
0.0
 11
196.0
 21
25.50000000000001
 31
0.0
  0
LINE
  5
1C3
330
58
100
AcDbEntity
  8
1
  6
Continuous
 62
     7
100
AcDbLine
 10
196.0
 20
25.50000000000001
 30
0.0
 11
196.0
 21
21.50000000000001
 31
0.0
  0
LINE
  5
1C4
330
58
100
AcDbEntity
  8
1
  6
Continuous
 62
     7
100
AcDbLine
 10
196.0
 20
21.50000000000001
 30
0.0
 11
191.0
 21
22.30000000000001
 31
0.0
  0
LINE
  5
1C5
330
58
100
AcDbEntity
  8
1
  6
DOT_CENTER
 62
     2
100
AcDbLine
 10
184.0
 20
23.50000000000001
 30
0.0
 11
197.0
 21
23.50000000000001
 31
0.0
  0
LINE
  5
1C6
330
58
100
AcDbEntity
  8
1
  6
DOT_CENTER
 62
     2
100
AcDbLine
 10
187.0
 20
26.50000000000001
 30
0.0
 11
187.0
 21
20.50000000000001
 31
0.0
  0
LINE
  5
1C7
330
58
100
AcDbEntity
  8
1
  6
Continuous
 62
     2
100
AcDbLine
 10
81.0
 20
27.00000000000001
 30
0.0
 11
81.0
 21
10.0
 31
0.0
  0
CIRCLE
  5
1C8
330
58
100
AcDbEntity
  8
1
  6
Continuous
 62
     7
100
AcDbCircle
 10
103.5
 20
12.5
 30
0.0
 40
0.2999999999999972
  0
CIRCLE
  5
1C9
330
58
100
AcDbEntity
  8
1
  6
Continuous
 62
     7
100
AcDbCircle
 10
109.5
 20
12.5
 30
0.0
 40
0.2999999999999972
  0
CIRCLE
  5
1CA
330
58
100
AcDbEntity
  8
1
  6
Continuous
 62
     7
100
AcDbCircle
 10
120.5
 20
12.5
 30
0.0
 40
0.2999999999999972
  0
CIRCLE
  5
1CB
330
58
100
AcDbEntity
  8
1
  6
Continuous
 62
     7
100
AcDbCircle
 10
126.5
 20
12.5
 30
0.0
 40
0.2999999999999972
  0
CIRCLE
  5
1CC
330
58
100
AcDbEntity
  8
1
  6
Continuous
 62
     7
100
AcDbCircle
 10
137.5
 20
12.5
 30
0.0
 40
0.3000000000000114
  0
CIRCLE
  5
1CD
330
58
100
AcDbEntity
  8
1
  6
Continuous
 62
     7
100
AcDbCircle
 10
143.5
 20
12.5
 30
0.0
 40
0.3000000000000114
  0
CIRCLE
  5
1CE
330
58
100
AcDbEntity
  8
1
  6
Continuous
 62
     7
100
AcDbCircle
 10
160.5
 20
12.5
 30
0.0
 40
0.3000000000000114
  0
CIRCLE
  5
1CF
330
58
100
AcDbEntity
  8
1
  6
Continuous
 62
     7
100
AcDbCircle
 10
154.5
 20
12.5
 30
0.0
 40
0.3000000000000114
  0
CIRCLE
  5
1D0
330
58
100
AcDbEntity
  8
1
  6
Continuous
 62
     7
100
AcDbCircle
 10
187.0
 20
23.50000000000001
 30
0.0
 40
1.200000000000102
  0
CIRCLE
  5
1D1
330
58
100
AcDbEntity
  8
1
  6
Continuous
 62
     7
100
AcDbCircle
 10
187.0
 20
23.50000000000001
 30
0.0
 40
2.0
  0
CIRCLE
  5
1D2
330
58
100
AcDbEntity
  8
1
  6
DOT_CENTER
 62
     7
100
AcDbCircle
 10
89.5
 20
16.0
 30
0.0
 40
0.1000000000000227
  0
CIRCLE
  5
1D3
330
58
100
AcDbEntity
  8
1
  6
DOT_CENTER
 62
     7
100
AcDbCircle
 10
89.5
 20
18.0
 30
0.0
 40
0.1000000000000227
  0
MTEXT
  5
1D5
330
58
100
AcDbEntity
  8
1
 62
     7
100
AcDbMText
 10
188.5
 20
15.0
 30
0.0
 40
3.0
 41
0.0
 71
     5
 72
     1
  1
三栄水栓製作所
  7
CONVERTER_11
 73
     1
 44
1.0
  0
MTEXT
  5
1D6
330
58
100
AcDbEntity
  8
1
 62
     7
100
AcDbMText
 10
171.5
 20
15.0
 30
0.0
 40
2.5
 41
0.0
 71
     5
 72
     1
  1
株式会社
  7
CONVERTER_11
 73
     1
 44
1.0
  0
MTEXT
  5
1D7
330
58
100
AcDbEntity
  8
1
 62
     2
100
AcDbMText
 10
32.5
 20
282.0000000000003
 30
0.0
 40
5.0
 41
0.0
 71
     5
 72
     1
  1
図番
  7
CONVERTER_11
 73
     1
 44
0.45454545454545
  0
MTEXT
  5
1D8
330
58
100
AcDbEntity
  8
1
 62
     2
100
AcDbMText
 10
29.0
 20
34.00000000000001
 30
0.0
 40
3.5
 41
0.0
 71
     5
 72
     1
  1
備考
  7
CONVERTER_11
 73
     1
 44
0.45454545454545
  0
MTEXT
  5
1D9
330
58
100
AcDbEntity
  8
1
 62
     2
100
AcDbMText
 10
29.0
 20
22.75
 30
0.0
 40
3.5
 41
0.0
 71
     5
 72
     1
  1
品名
  7
CONVERTER_11
 73
     1
 44
0.72727272727273
  0
MTEXT
  5
1DA
330
58
100
AcDbEntity
  8
1
 62
     2
100
AcDbMText
 10
29.0
 20
14.25
 30
0.0
 40
3.5
 41
0.0
 71
     5
 72
     1
  1
品番
  7
CONVERTER_11
 73
     1
 44
0.72727272727273
  0
MTEXT
  5
1DB
330
58
100
AcDbEntity
  8
1
 62
     2
100
AcDbMText
 10
101.5
 20
25.00000000000001
 30
0.0
 40
3.0
 41
0.0
 71
     5
 72
     1
  1
承認
  7
CONVERTER_11
 73
     1
 44
0.59090909090909
  0
MTEXT
  5
1DC
330
58
100
AcDbEntity
  8
1
 62
     2
100
AcDbMText
 10
175.0
 20
23.50000000000001
 30
0.0
 40
3.5
 41
0.0
 71
     5
 72
     1
  1
第三角法
  7
CONVERTER_11
 73
     1
 44
0.54545454545455
  0
MTEXT
  5
1DD
330
58
100
AcDbEntity
  8
1
 62
     2
100
AcDbMText
 10
118.5
 20
25.00000000000001
 30
0.0
 40
3.0
 41
0.0
 71
     5
 72
     1
  1
検図
  7
CONVERTER_11
 73
     1
 44
0.59090909090909
  0
MTEXT
  5
1DE
330
58
100
AcDbEntity
  8
1
 62
     2
100
AcDbMText
 10
152.5
 20
25.00000000000001
 30
0.0
 40
3.0
 41
0.0
 71
     5
 72
     1
  1
設計
  7
CONVERTER_11
 73
     1
 44
0.59090909090909
  0
MTEXT
  5
1DF
330
58
100
AcDbEntity
  8
1
 62
     2
100
AcDbMText
 10
135.5
 20
25.00000000000001
 30
0.0
 40
3.0
 41
0.0
 71
     5
 72
     1
  1
製図
  7
CONVERTER_11
 73
     1
 44
0.59090909090909
  0
MTEXT
  5
1E0
330
58
100
AcDbEntity
  8
1
 62
     2
100
AcDbMText
 10
89.5
 20
24.00000000000001
 30
0.0
 40
3.5
 41
0.0
 71
     5
 72
     1
  1
尺度
  7
CONVERTER_11
 73
     1
 44
0.54545454545455
  0
MTEXT
  5
1E1
330
58
100
AcDbEntity
  8
1
 62
   250
100
AcDbMText
 10
25.0
 20
5.0
 30
0.0
 40
3.5
 41
0.0
 71
     4
 72
     1
  1
備考欄の文字列 原点位置=4
  7
CONVERTER_11
 73
     1
 44
0.54545454545455
  0
ENDBLK
  5
5A
330
58
100
AcDbEntity
  8
0
100
AcDbBlockEnd
  0
BLOCK
  5
5C
330
5B
100
AcDbEntity
  8
0
100
AcDbBlockBegin
  2
42-29
 70
     0
 10
868.310557730044
 20
1134.998812728349
 30
0.0
  3
42-29
  1

  0
LINE
  5
1E2
330
5B
100
AcDbEntity
  8
1
  6
Continuous
 62
     2
100
AcDbLine
 10
290.4756451594623
 20
229.9314406666807
 30
0.0
 11
290.4756451594623
 21
230.3597886398113
 31
0.0
  0
LINE
  5
1E3
330
5B
100
AcDbEntity
  8
1
  6
Continuous
 62
     2
100
AcDbLine
 10
288.4756451594623
 20
230.7449502405219
 30
0.0
 11
288.4756451594623
 21
229.5704843042389
 31
0.0
  0
LINE
  5
1E4
330
5B
100
AcDbEntity
  8
1
  6
Continuous
 62
     2
100
AcDbLine
 10
286.4756451594623
 20
231.021885036382
 30
0.0
 11
286.4756451594623
 21
229.3383876793359
 31
0.0
  0
LINE
  5
1E5
330
5B
100
AcDbEntity
  8
1
  6
Continuous
 62
     7
100
AcDbLine
 10
284.4756451594623
 20
229.2383876793359
 30
0.0
 11
284.4756451594623
 21
231.2459628572821
 31
0.0
  0
LINE
  5
1E6
330
5B
100
AcDbEntity
  8
1
  6
Continuous
 62
     2
100
AcDbLine
 10
285.4756451594623
 20
231.221885036382
 30
0.0
 11
285.4756451594623
 21
229.2383876793359
 31
0.0
  0
LINE
  5
1E7
330
5B
100
AcDbEntity
  8
1
  6
Continuous
 62
     7
100
AcDbLine
 10
284.4756451594623
 20
229.2383876793359
 30
0.0
 11
291.4756451594623
 21
229.2383876793359
 31
0.0
  0
LINE
  5
1E8
330
5B
100
AcDbEntity
  8
1
  6
Continuous
 62
     2
100
AcDbLine
 10
287.4756451515469
 20
230.9359785943047
 30
0.0
 11
287.4756451594623
 21
229.4495623317107
 31
0.0
  0
LINE
  5
1E9
330
5B
100
AcDbEntity
  8
1
  6
Continuous
 62
     2
100
AcDbLine
 10
289.4756451594623
 20
229.7868243138655
 30
0.0
 11
289.4756451594623
 21
230.54733307986
 31
0.0
  0
LINE
  5
1EA
330
5B
100
AcDbEntity
  8
1
  6
Continuous
 62
     7
100
AcDbLine
 10
291.4756451594623
 20
231.221885036382
 30
0.0
 11
284.4756451594623
 21
231.221885036382
 31
0.0
  0
LINE
  5
1EB
330
5B
100
AcDbEntity
  8
1
  6
Continuous
 62
     7
100
AcDbLine
 10
298.4756451594623
 20
231.221885036382
 30
0.0
 11
291.4756451594623
 21
231.221885036382
 31
0.0
  0
LINE
  5
1EC
330
5B
100
AcDbEntity
  8
1
  6
Continuous
 62
     2
100
AcDbLine
 10
291.4756451594623
 20
230.0597886398115
 30
0.0
 11
291.4756451594623
 21
229.6314406666807
 31
0.0
  0
LINE
  5
1ED
330
5B
100
AcDbEntity
  8
1
  6
Continuous
 62
     2
100
AcDbLine
 10
293.4756451594623
 20
230.54733307986
 30
0.0
 11
293.4756451594623
 21
229.7868243138655
 31
0.0
  0
LINE
  5
1EE
330
5B
100
AcDbEntity
  8
1
  6
Continuous
 62
     2
100
AcDbLine
 10
295.4756451594623
 20
229.4495623317107
 30
0.0
 11
295.4756451673776
 21
230.9359785943047
 31
0.0
  0
LINE
  5
1EF
330
5B
100
AcDbEntity
  8
1
  6
Continuous
 62
     7
100
AcDbLine
 10
291.4756451594623
 20
229.2383876793359
 30
0.0
 11
298.4756451594623
 21
229.2383876793359
 31
0.0
  0
LINE
  5
1F0
330
5B
100
AcDbEntity
  8
1
  6
Continuous
 62
     2
100
AcDbLine
 10
297.4756451594623
 20
229.2383876793359
 30
0.0
 11
297.4756451594623
 21
231.221885036382
 31
0.0
  0
LINE
  5
1F1
330
5B
100
AcDbEntity
  8
1
  6
Continuous
 62
     7
100
AcDbLine
 10
298.4756451594623
 20
231.2459628572821
 30
0.0
 11
298.4756451594623
 21
229.2383876793359
 31
0.0
  0
LINE
  5
1F2
330
5B
100
AcDbEntity
  8
1
  6
Continuous
 62
     2
100
AcDbLine
 10
296.4756451594623
 20
229.3383876793359
 30
0.0
 11
296.4756451594623
 21
231.021885036382
 31
0.0
  0
LINE
  5
1F3
330
5B
100
AcDbEntity
  8
1
  6
Continuous
 62
     2
100
AcDbLine
 10
294.4756451594623
 20
229.5704843042389
 30
0.0
 11
294.4756451594623
 21
230.7449502405219
 31
0.0
  0
LINE
  5
1F4
330
5B
100
AcDbEntity
  8
1
  6
Continuous
 62
     2
100
AcDbLine
 10
292.4756451594623
 20
230.3597886398113
 30
0.0
 11
292.4756451594623
 21
229.9314406666807
 31
0.0
  0
LINE
  5
1F5
330
5B
100
AcDbEntity
  8
1
  6
Continuous
 62
     2
100
AcDbLine
 10
114.4592901941677
 20
229.3383876793359
 30
0.0
 11
114.4592901941677
 21
231.021885036382
 31
0.0
  0
LINE
  5
1F6
330
5B
100
AcDbEntity
  8
1
  6
Continuous
 62
     7
100
AcDbLine
 10
116.4592901941677
 20
231.2459628572821
 30
0.0
 11
116.4592901941677
 21
229.2383876793359
 31
0.0
  0
LINE
  5
1F7
330
5B
100
AcDbEntity
  8
1
  6
Continuous
 62
     2
100
AcDbLine
 10
115.4592901941677
 20
229.2383876793359
 30
0.0
 11
115.4592901941677
 21
231.221885036382
 31
0.0
  0
LINE
  5
1F8
330
5B
100
AcDbEntity
  8
1
  6
Continuous
 62
     2
100
AcDbLine
 10
113.4592901941677
 20
229.4495623317107
 30
0.0
 11
113.459290202083
 21
230.9359785943047
 31
0.0
  0
LINE
  5
1F9
330
5B
100
AcDbEntity
  8
1
  6
Continuous
 62
     7
100
AcDbLine
 10
116.4592901941677
 20
231.221885036382
 30
0.0
 11
113.4592901941677
 21
231.221885036382
 31
0.0
  0
LINE
  5
1FA
330
5B
100
AcDbEntity
  8
1
  6
Continuous
 62
     2
100
AcDbLine
 10
105.4592901862524
 20
230.9359785943047
 30
0.0
 11
105.4592901941677
 21
229.4495623317107
 31
0.0
  0
LINE
  5
1FB
330
5B
100
AcDbEntity
  8
1
  6
Continuous
 62
     7
100
AcDbLine
 10
102.4592901941677
 20
229.2383876793359
 30
0.0
 11
105.4592901941677
 21
229.2383876793361
 31
0.0
  0
LINE
  5
1FC
330
5B
100
AcDbEntity
  8
1
  6
Continuous
 62
     2
100
AcDbLine
 10
103.4592901941677
 20
231.221885036382
 30
0.0
 11
103.4592901941677
 21
229.2383876793359
 31
0.0
  0
LINE
  5
1FD
330
5B
100
AcDbEntity
  8
1
  6
Continuous
 62
     7
100
AcDbLine
 10
102.4592901941677
 20
229.2383876793359
 30
0.0
 11
102.4592901941677
 21
231.2459628572821
 31
0.0
  0
LINE
  5
1FE
330
5B
100
AcDbEntity
  8
1
  6
Continuous
 62
     2
100
AcDbLine
 10
104.4592901941677
 20
231.021885036382
 30
0.0
 11
104.4592901941677
 21
229.3383876793359
 31
0.0
  0
LINE
  5
1FF
330
5B
100
AcDbEntity
  8
1
  6
Continuous
 62
     7
100
AcDbLine
 10
105.4592901941677
 20
231.221885036382
 30
0.0
 11
102.4592901941677
 21
231.221885036382
 31
0.0
  0
LINE
  5
200
330
5B
100
AcDbEntity
  8
1
  6
Continuous
 62
     7
100
AcDbLine
 10
113.4592901941677
 20
229.2383876793361
 30
0.0
 11
116.4592901941677
 21
229.2383876793359
 31
0.0
  0
ARC
  5
201
330
5B
100
AcDbEntity
  8
0
  6
Continuous
 62
     7
100
AcDbCircle
 10
291.4756451594623
 20
181.7383876793346
 30
0.0
 40
50.00000000000119
100
AcDbArc
 50
90.0
 51
98.04784624731133
  0
ARC
  5
202
330
5B
100
AcDbEntity
  8
0
  6
Continuous
 62
     7
100
AcDbCircle
 10
291.4756451594623
 20
181.7383876793346
 30
0.0
 40
50.00000000000124
100
AcDbArc
 50
81.9521537526887
 51
90.0
  0
ARC
  5
203
330
5B
100
AcDbEntity
  8
0
  6
Continuous
 62
     7
100
AcDbCircle
 10
109.4592901941677
 20
181.7383876793346
 30
0.0
 40
50.00000000000124
100
AcDbArc
 50
94.58856573578572
 51
98.04784624731133
  0
ARC
  5
204
330
5B
100
AcDbEntity
  8
0
  6
Continuous
 62
     7
100
AcDbCircle
 10
109.4592901941677
 20
181.7383876793346
 30
0.0
 40
50.00000000000124
100
AcDbArc
 50
81.9521537526887
 51
85.41143426421428
  0
CIRCLE
  5
205
330
5B
100
AcDbEntity
  8
1
  6
Continuous
 62
     7
100
AcDbCircle
 10
109.4592901941679
 20
429.5648012307222
 30
0.0
 40
7.0
  0
ENDBLK
  5
5D
330
5B
100
AcDbEntity
  8
0
100
AcDbBlockEnd
  0
BLOCK
  5
227
330
220
100
AcDbEntity
  8
0
100
AcDbBlockBegin
  2
*D8
 70
     1
 10
0.0
 20
0.0
 30
0.0
  3
*D8
  1

  0
LINE
  5
221
330
220
100
AcDbEntity
  8
1
  6
Continuous
 62
     2
100
AcDbLine
 10
216.4756451594629
 20
268.4383876793361
 30
0.0
 11
291.4756451594625
 21
268.4383876793361
 31
0.0
  0
LINE
  5
222
330
220
100
AcDbEntity
  8
1
  6
Continuous
 62
     2
100
AcDbLine
 10
216.4756451594629
 20
234.4383876793361
 30
0.0
 11
216.4756451594629
 21
270.4383876793361
 31
0.0
  0
LINE
  5
223
330
220
100
AcDbEntity
  8
1
  6
Continuous
 62
     2
100
AcDbLine
 10
291.4756451594625
 20
234.4383876793361
 30
0.0
 11
291.4756451594625
 21
270.4383876793361
 31
0.0
  0
SOLID
  5
224
330
220
100
AcDbEntity
  8
1
 62
     2
100
AcDbTrace
 10
223.4756451594629
 20
269.3599551624478
 30
0.0
 11
223.4756451594629
 21
267.5168201962243
 31
0.0
 12
216.4756451594629
 22
268.4383876793361
 32
0.0
 13
216.4756451594629
 23
268.4383876793361
 33
0.0
  0
SOLID
  5
225
330
220
100
AcDbEntity
  8
1
 62
     2
100
AcDbTrace
 10
284.4756451594625
 20
267.5168201962243
 30
0.0
 11
284.4756451594625
 21
269.3599551624478
 31
0.0
 12
291.4756451594625
 22
268.4383876793361
 32
0.0
 13
291.4756451594625
 23
268.4383876793361
 33
0.0
  0
MTEXT
  5
226
330
220
100
AcDbEntity
  8
1
 62
     7
100
AcDbMText
 10
248.7256451594628
 20
270.4383876793361
 30
0.0
 40
7.0
 41
0.0
 71
     7
 72
     1
  1
75
  7
CONVERTER_12
 11
0.9999999999970619
 21
2.424068405545306E-6
 31
0.0
 73
     1
 44
0.60024009603842
  0
ENDBLK
  5
228
330
220
100
AcDbEntity
  8
0
100
AcDbBlockEnd
  0
BLOCK
  5
232
330
22B
100
AcDbEntity
  8
0
100
AcDbBlockBegin
  2
*D9
 70
     1
 10
0.0
 20
0.0
 30
0.0
  3
*D9
  1

  0
LINE
  5
22C
330
22B
100
AcDbEntity
  8
1
  6
Continuous
 62
     2
100
AcDbLine
 10
370.4756451594625
 20
181.2383876793361
 30
0.0
 11
370.4756451594625
 21
135.2383876793361
 31
0.0
  0
LINE
  5
22D
330
22B
100
AcDbEntity
  8
1
  6
Continuous
 62
     2
100
AcDbLine
 10
336.4756451594625
 20
181.2383876793361
 30
0.0
 11
372.4756451594625
 21
181.2383876793361
 31
0.0
  0
LINE
  5
22E
330
22B
100
AcDbEntity
  8
1
  6
Continuous
 62
     2
100
AcDbLine
 10
336.4756451594625
 20
135.2383876793361
 30
0.0
 11
372.4756451594625
 21
135.2383876793361
 31
0.0
  0
SOLID
  5
22F
330
22B
100
AcDbEntity
  8
1
 62
     2
100
AcDbTrace
 10
371.3972126425742
 20
174.2383876793361
 30
0.0
 11
369.5540776763507
 21
174.2383876793361
 31
0.0
 12
370.4756451594625
 22
181.2383876793361
 32
0.0
 13
370.4756451594625
 23
181.2383876793361
 33
0.0
  0
SOLID
  5
230
330
22B
100
AcDbEntity
  8
1
 62
     2
100
AcDbTrace
 10
369.5540776763507
 20
142.2383876793361
 30
0.0
 11
371.3972126425742
 21
142.2383876793361
 31
0.0
 12
370.4756451594625
 22
135.2383876793361
 32
0.0
 13
370.4756451594625
 23
135.2383876793361
 33
0.0
  0
MTEXT
  5
231
330
22B
100
AcDbEntity
  8
1
 62
     7
100
AcDbMText
 10
368.4756451594625
 20
151.4483876793361
 30
0.0
 40
7.0
 41
0.0
 71
     7
 72
     1
  1
\C7;{\Fgdt;n}\C7;46
  7
CONVERTER_12
 11
0.0
 21
1.0
 31
0.0
 73
     1
 44
0.60024009603842
  0
ENDBLK
  5
233
330
22B
100
AcDbEntity
  8
0
100
AcDbBlockEnd
  0
BLOCK
  5
23D
330
236
100
AcDbEntity
  8
0
100
AcDbBlockBegin
  2
*D10
 70
     1
 10
0.0
 20
0.0
 30
0.0
  3
*D10
  1

  0
LINE
  5
237
330
236
100
AcDbEntity
  8
1
  6
Continuous
 62
     2
100
AcDbLine
 10
336.4756451594626
 20
113.2383876793361
 30
0.0
 11
291.4756451594626
 21
113.2383876793361
 31
0.0
  0
LINE
  5
238
330
236
100
AcDbEntity
  8
1
  6
Continuous
 62
     2
100
AcDbLine
 10
336.4756451594626
 20
135.2383876793361
 30
0.0
 11
336.4756451594626
 21
111.2383876793361
 31
0.0
  0
LINE
  5
239
330
236
100
AcDbEntity
  8
1
  6
Continuous
 62
     2
100
AcDbLine
 10
291.4756451594626
 20
142.5871027293721
 30
0.0
 11
291.4756451594626
 21
111.2383876793361
 31
0.0
  0
SOLID
  5
23A
330
236
100
AcDbEntity
  8
1
 62
     2
100
AcDbTrace
 10
329.4756451594626
 20
112.3168201962243
 30
0.0
 11
329.4756451594626
 21
114.1599551624479
 31
0.0
 12
336.4756451594626
 22
113.2383876793361
 32
0.0
 13
336.4756451594626
 23
113.2383876793361
 33
0.0
  0
SOLID
  5
23B
330
236
100
AcDbEntity
  8
1
 62
     2
100
AcDbTrace
 10
298.4756451594626
 20
114.1599551624479
 30
0.0
 11
298.4756451594626
 21
112.3168201962243
 31
0.0
 12
291.4756451594626
 22
113.2383876793361
 32
0.0
 13
291.4756451594626
 23
113.2383876793361
 33
0.0
  0
MTEXT
  5
23C
330
236
100
AcDbEntity
  8
1
 62
     7
100
AcDbMText
 10
308.7256451594626
 20
115.2383876793361
 30
0.0
 40
7.0
 41
0.0
 71
     7
 72
     1
  1
45
  7
CONVERTER_12
 11
0.9999999999970619
 21
2.424068405545306E-6
 31
0.0
 73
     1
 44
0.60024009603842
  0
ENDBLK
  5
23E
330
236
100
AcDbEntity
  8
0
100
AcDbBlockEnd
  0
BLOCK
  5
24A
330
241
100
AcDbEntity
  8
0
100
AcDbBlockBegin
  2
*D11
 70
     1
 10
0.0
 20
0.0
 30
0.0
  3
*D11
  1

  0
LINE
  5
242
330
241
100
AcDbEntity
  8
1
  6
Continuous
 62
     2
100
AcDbLine
 10
350.4756451594626
 20
113.2383876793361
 30
0.0
 11
364.4756451594626
 21
113.2383876793361
 31
0.0
  0
LINE
  5
243
330
241
100
AcDbEntity
  8
1
  6
Continuous
 62
     2
100
AcDbLine
 10
336.4756451594626
 20
113.2383876793361
 30
0.0
 11
350.4756451594626
 21
113.2383876793361
 31
0.0
  0
LINE
  5
244
330
241
100
AcDbEntity
  8
1
  6
Continuous
 62
     2
100
AcDbLine
 10
322.4756451594626
 20
113.2383876793361
 30
0.0
 11
336.4756451594626
 21
113.2383876793361
 31
0.0
  0
LINE
  5
245
330
241
100
AcDbEntity
  8
1
  6
Continuous
 62
     2
100
AcDbLine
 10
336.4756451594626
 20
135.2383876793361
 30
0.0
 11
336.4756451594626
 21
111.2383876793361
 31
0.0
  0
LINE
  5
246
330
241
100
AcDbEntity
  8
1
  6
Continuous
 62
     2
100
AcDbLine
 10
350.4756451594626
 20
148.7383876793361
 30
0.0
 11
350.4756451594626
 21
111.2383876793361
 31
0.0
  0
SOLID
  5
247
330
241
100
AcDbEntity
  8
1
 62
     2
100
AcDbTrace
 10
329.4756451594626
 20
112.3168201962243
 30
0.0
 11
329.4756451594626
 21
114.1599551624479
 31
0.0
 12
336.4756451594626
 22
113.2383876793361
 32
0.0
 13
336.4756451594626
 23
113.2383876793361
 33
0.0
  0
SOLID
  5
248
330
241
100
AcDbEntity
  8
1
 62
     2
100
AcDbTrace
 10
357.4756451594626
 20
114.1599551624479
 30
0.0
 11
357.4756451594626
 21
112.3168201962243
 31
0.0
 12
350.4756451594626
 22
113.2383876793361
 32
0.0
 13
350.4756451594626
 23
113.2383876793361
 33
0.0
  0
MTEXT
  5
249
330
241
100
AcDbEntity
  8
1
 62
     7
100
AcDbMText
 10
339.2756451594626
 20
115.2383876793361
 30
0.0
 40
7.0
 41
0.0
 71
     7
 72
     1
  1
14
  7
CONVERTER_12
 11
0.9999999999970619
 21
2.424068405545306E-6
 31
0.0
 73
     1
 44
0.60024009603842
  0
ENDBLK
  5
24B
330
241
100
AcDbEntity
  8
0
100
AcDbBlockEnd
  0
BLOCK
  5
255
330
24E
100
AcDbEntity
  8
0
100
AcDbBlockBegin
  2
*D12
 70
     1
 10
0.0
 20
0.0
 30
0.0
  3
*D12
  1

  0
LINE
  5
24F
330
24E
100
AcDbEntity
  8
1
  6
Continuous
 62
     2
100
AcDbLine
 10
196.4756451594629
 20
248.4383876793361
 30
0.0
 11
196.4756451594629
 21
158.2383876793361
 31
0.0
  0
LINE
  5
250
330
24E
100
AcDbEntity
  8
1
  6
Continuous
 62
     2
100
AcDbLine
 10
241.6803788872733
 20
158.2383876793361
 30
0.0
 11
194.4756451594629
 21
158.2383876793361
 31
0.0
  0
LINE
  5
251
330
24E
100
AcDbEntity
  8
1
  6
Continuous
 62
     2
100
AcDbLine
 10
230.4756451594629
 20
248.4383876793361
 30
0.0
 11
194.4756451594629
 21
248.4383876793361
 31
0.0
  0
SOLID
  5
252
330
24E
100
AcDbEntity
  8
1
 62
     2
100
AcDbTrace
 10
197.3972126425747
 20
241.4383876793361
 30
0.0
 11
195.5540776763511
 21
241.4383876793361
 31
0.0
 12
196.4756451594629
 22
248.4383876793361
 32
0.0
 13
196.4756451594629
 23
248.4383876793361
 33
0.0
  0
SOLID
  5
253
330
24E
100
AcDbEntity
  8
1
 62
     2
100
AcDbTrace
 10
195.5540776763511
 20
165.2383876793361
 30
0.0
 11
197.3972126425747
 21
165.2383876793361
 31
0.0
 12
196.4756451594629
 22
158.2383876793361
 32
0.0
 13
196.4756451594629
 23
158.2383876793361
 33
0.0
  0
MTEXT
  5
254
330
24E
100
AcDbEntity
  8
1
 62
     7
100
AcDbMText
 10
194.4756451594629
 20
184.4383876793361
 30
0.0
 40
7.0
 41
0.0
 71
     7
 72
     1
  1
90リフト3
  7
CONVERTER_11
 11
0.0
 21
1.0
 31
0.0
 73
     1
 44
0.45454545454545
  0
ENDBLK
  5
256
330
24E
100
AcDbEntity
  8
0
100
AcDbBlockEnd
  0
BLOCK
  5
260
330
259
100
AcDbEntity
  8
0
100
AcDbBlockBegin
  2
*D13
 70
     1
 10
0.0
 20
0.0
 30
0.0
  3
*D13
  1

  0
LINE
  5
25A
330
259
100
AcDbEntity
  8
1
  6
Continuous
 62
     2
100
AcDbLine
 10
256.4756451594626
 20
113.2383876793361
 30
0.0
 11
291.4756451594626
 21
113.2383876793361
 31
0.0
  0
LINE
  5
25B
330
259
100
AcDbEntity
  8
1
  6
Continuous
 62
     2
100
AcDbLine
 10
256.4756451594626
 20
124.7383876793361
 30
0.0
 11
256.4756451594626
 21
111.2383876793361
 31
0.0
  0
LINE
  5
25C
330
259
100
AcDbEntity
  8
1
  6
Continuous
 62
     2
100
AcDbLine
 10
291.4756451594626
 20
142.5871027293721
 30
0.0
 11
291.4756451594626
 21
111.2383876793361
 31
0.0
  0
SOLID
  5
25D
330
259
100
AcDbEntity
  8
1
 62
     2
100
AcDbTrace
 10
263.4756451594626
 20
114.1599551624479
 30
0.0
 11
263.4756451594626
 21
112.3168201962243
 31
0.0
 12
256.4756451594626
 22
113.2383876793361
 32
0.0
 13
256.4756451594626
 23
113.2383876793361
 33
0.0
  0
SOLID
  5
25E
330
259
100
AcDbEntity
  8
1
 62
     2
100
AcDbTrace
 10
284.4756451594626
 20
112.3168201962243
 30
0.0
 11
284.4756451594626
 21
114.1599551624479
 31
0.0
 12
291.4756451594626
 22
113.2383876793361
 32
0.0
 13
291.4756451594626
 23
113.2383876793361
 33
0.0
  0
MTEXT
  5
25F
330
259
100
AcDbEntity
  8
1
 62
     7
100
AcDbMText
 10
268.7256451594626
 20
115.2383876793361
 30
0.0
 40
7.0
 41
0.0
 71
     7
 72
     1
  1
35
  7
CONVERTER_12
 11
0.9999999999970619
 21
2.424068405545306E-6
 31
0.0
 73
     1
 44
0.60024009603842
  0
ENDBLK
  5
261
330
259
100
AcDbEntity
  8
0
100
AcDbBlockEnd
  0
ENDSEC
  0
SECTION
  2
ENTITIES
  0
INSERT
  5
5E
330
1F
100
AcDbEntity
  8
1
100
AcDbBlockReference
  2
U360S-13
 10
479.8403318129679
 20
492.742842891623
 30
0.0
  0
INSERT
  5
5F
330
1F
100
AcDbEntity
  8
1
100
AcDbBlockReference
  2
27-2A-M1
 10
658.8403318129679
 20
394.8357924145271
 30
0.0
  0
INSERT
  5
60
330
1F
100
AcDbEntity
  8
1
100
AcDbBlockReference
  2
A90-0A-13-M1
 10
391.4756451594626
 20
158.2383876793361
 30
0.0
  0
INSERT
  5
61
330
1F
100
AcDbEntity
  8
1
100
AcDbBlockReference
  2
開示A4
 10
0.0
 20
0.0
 30
0.0
 41
2.0
 42
2.0
 43
2.0
  0
INSERT
  5
62
330
1F
100
AcDbEntity
  8
1
100
AcDbBlockReference
  2
42-29
 10
868.310557730044
 20
1134.998812728349
 30
0.0
  0
LINE
  5
206
330
1F
100
AcDbEntity
  8
1
  6
DASH_CENTER
 62
     2
100
AcDbLine
 10
101.4592901941677
 20
234.4383876793361
 30
0.0
 11
117.4592901941677
 21
234.4383876793361
 31
0.0
  0
LINE
  5
207
330
1F
100
AcDbEntity
  8
1
  6
DASH_CENTER
 62
     2
100
AcDbLine
 10
210.4756451594629
 20
234.4383876793361
 30
0.0
 11
249.2039929598599
 21
234.4383876793361
 31
0.0
  0
LINE
  5
208
330
1F
100
AcDbEntity
  8
1
  6
DASH_CENTER
 62
     2
100
AcDbLine
 10
230.4756451594629
 20
254.4383876793361
 30
0.0
 11
230.4756451594629
 21
214.4383876793361
 31
0.0
  0
LINE
  5
209
330
1F
100
AcDbEntity
  8
1
  6
DASH_CENTER
 62
     2
100
AcDbLine
 10
109.4592901941679
 20
494.5648012307221
 30
0.0
 11
109.4592901941679
 21
348.5648012307223
 31
0.0
  0
LINE
  5
20A
330
1F
100
AcDbEntity
  8
1
  6
DASH_CENTER
 62
     2
100
AcDbLine
 10
92.4592901941679
 20
429.5648012307222
 30
0.0
 11
126.4592901941679
 21
429.5648012307222
 31
0.0
  0
LINE
  5
20B
330
1F
100
AcDbEntity
  8
1
  6
DASH_CENTER
 62
     2
100
AcDbLine
 10
125.4592901941679
 20
394.5648012307221
 30
0.0
 11
93.4592901941679
 21
394.5648012307221
 31
0.0
  0
LINE
  5
20C
330
1F
100
AcDbEntity
  8
0
  6
DASH_CENTER
 62
     2
100
AcDbLine
 10
132.4592901941679
 20
158.2383876793361
 30
0.0
 11
135.4592901941679
 21
158.2383876793361
 31
0.0
  0
LINE
  5
20D
330
1F
100
AcDbEntity
  8
0
  6
DASH_CENTER
 62
     2
100
AcDbLine
 10
83.45929019416792
 20
158.2383876793361
 30
0.0
 11
132.4592901941679
 21
158.2383876793361
 31
0.0
  0
LINE
  5
20E
330
1F
100
AcDbEntity
  8
1
  6
DASH_CENTER
 62
     2
100
AcDbLine
 10
291.4756451594627
 20
183.7384863554227
 30
0.0
 11
291.4756451594627
 21
202.7791182434218
 31
0.0
  0
LINE
  5
20F
330
1F
100
AcDbEntity
  8
1
  6
DASH_CENTER
 62
     2
100
AcDbLine
 10
291.4756451594625
 20
202.7383876793361
 30
0.0
 11
291.4756451594625
 21
234.4383876793361
 31
0.0
  0
LINE
  5
210
330
1F
100
AcDbEntity
  8
1
  6
DASH_CENTER
 62
     2
100
AcDbLine
 10
109.4592901941679
 20
254.4383876793361
 30
0.0
 11
109.4592901941679
 21
127.2383876793361
 31
0.0
  0
LINE
  5
211
330
1F
100
AcDbEntity
  8
1
  6
DASH_CENTER
 62
     2
100
AcDbLine
 10
256.4756451594626
 20
124.7383876793361
 30
0.0
 11
256.4756451594626
 21
161.1708570751037
 31
0.0
  0
LINE
  5
212
330
1F
100
AcDbEntity
  8
1
  6
DASH_CENTER
 62
     2
100
AcDbLine
 10
291.4756451594626
 20
142.5871027293721
 30
0.0
 11
291.4756451594626
 21
197.5998529484942
 31
0.0
  0
LINE
  5
213
330
1F
100
AcDbEntity
  8
1
  6
DASH_CENTER
 62
     2
100
AcDbLine
 10
353.5134516912156
 20
158.2383876793361
 30
0.0
 11
241.6803788872733
 21
158.2383876793361
 31
0.0
  0
SOLID
  5
214
330
1F
100
AcDbEntity
  8
1
 62
     2
100
AcDbTrace
 10
122.6611893424915
 20
488.031127294712
 30
0.0
 11
124.2573910458444
 21
487.1095598116001
 31
0.0
 12
119.9592901941679
 22
481.508165726665
 32
0.0
 13
119.9592901941679
 23
481.508165726665
 33
0.0
  0
LEADER
  5
215
330
1F
100
AcDbEntity
  8
1
  6
Continuous
 62
     2
100
AcDbLeader
  3
Standard
 71
     0
 76
     3
 10
119.9592901941679
 20
481.508165726665
 30
0.0
 10
133.1207491640215
 20
504.3044813641845
 30
0.0
 10
162.248820882861
 20
504.3044813641845
 30
0.0
  0
SOLID
  5
216
330
1F
100
AcDbEntity
  8
1
 62
     2
100
AcDbTrace
 10
240.7737460111389
 20
131.838698335887
 30
0.0
 11
239.177544307786
 21
132.7602658189988
 31
0.0
 12
243.4756451594624
 22
138.361659903934
 32
0.0
 13
243.4756451594624
 23
138.361659903934
 33
0.0
  0
LEADER
  5
217
330
1F
100
AcDbEntity
  8
1
  6
Continuous
 62
     2
100
AcDbLeader
  3
Standard
 71
     0
 76
     3
 10
243.4756451594624
 20
138.361659903934
 30
0.0
 10
230.0381818028412
 20
115.087290645421
 30
0.0
 10
189.747991987101
 20
115.087290645421
 30
0.0
  0
MTEXT
  5
218
330
1F
100
AcDbEntity
  8
1
 62
     7
100
AcDbMText
 10
68.0
 20
68.00000000000001
 30
0.0
 40
7.0
 41
0.0
 71
     4
 72
     1
  1
共用形
  7
CONVERTER_11
 73
     1
 44
0.54545454545455
  0
MTEXT
  5
21A
330
1F
100
AcDbEntity
  8
1
 62
     7
100
AcDbMText
 10
187.5
 20
34.0
 30
0.0
 40
7.0
 41
0.0
 71
     5
 72
     1
  1
2
  7
CONVERTER_12
 73
     1
 44
0.7202881152461
  0
MTEXT
  5
21B
330
1F
100
AcDbEntity
  8
1
 62
     7
100
AcDbMText
 10
170.5
 20
34.0
 30
0.0
 40
7.0
 41
0.0
 71
     5
 72
     1
  1
1
  7
CONVERTER_12
 73
     1
 44
0.7202881152461
  0
MTEXT
  5
21C
330
1F
100
AcDbEntity
  8
1
 62
     7
100
AcDbMText
 10
114.0
 20
45.50000000000002
 30
0.0
 40
7.0
 41
0.0
 71
     5
 72
     1
  1
厨房用自在水栓本体
  7
CONVERTER_11
 73
     1
 44
0.54545454545455
  0
MTEXT
  5
21D
330
1F
100
AcDbEntity
  8
1
 62
     7
100
AcDbMText
 10
114.0
 20
28.5
 30
0.0
 40
7.0
 41
0.0
 71
     5
 72
     1
  1
A1310F-13
  7
CONVERTER_12
 73
     1
 44
0.7202881152461
  0
MTEXT
  5
21E
330
1F
100
AcDbEntity
  8
1
 62
     7
100
AcDbMText
 10
148.482840418409
 20
510.3044813641845
 30
0.0
 40
7.0
 41
0.0
 71
     5
 72
     1
  1
PJ1/2
  7
CONVERTER_12
 73
     1
 44
0.7202881152461
  0
MTEXT
  5
21F
330
1F
100
AcDbEntity
  8
1
 62
     7
100
AcDbMText
 10
209.753186996833
 20
121.087290645421
 30
0.0
 40
7.0
 41
0.0
 71
     5
 72
     1
  1
W26山20
  7
CONVERTER_11
 73
     1
 44
0.54545454545455
  0
DIMENSION
  5
22A
330
1F
100
AcDbEntity
  8
1
100
AcDbDimension
  2
*D8
 10
216.4756451594629
 20
268.4383876793361
 30
0.0
 11
253.9756451594628
 21
273.9383876793361
 31
0.0
 70
    32
  1
<>
 71
     5
 42
-1.0
 53
0.00013888888889
  3
ME10_DIM_10
100
AcDbAlignedDimension
 13
291.4756451594625
 23
234.4383876793361
 33
0.0
 14
216.4756451594629
 24
234.4383876793361
 34
0.0
100
AcDbRotatedDimension
  0
DIMENSION
  5
235
330
1F
100
AcDbEntity
  8
1
100
AcDbDimension
  2
*D9
 10
370.4756451594625
 20
181.2383876793361
 30
0.0
 11
364.9756451594625
 21
158.2383876793361
 31
0.0
 70
    32
  1
<>
 71
     5
 42
-1.0
 53
90.0
  3
ME10_DIM_11
100
AcDbAlignedDimension
 13
336.4756451594626
 23
135.2383876793361
 33
0.0
 14
336.4756451594626
 24
181.2383876793361
 34
0.0
 50
90.0
100
AcDbRotatedDimension
  0
DIMENSION
  5
240
330
1F
100
AcDbEntity
  8
1
100
AcDbDimension
  2
*D10
 10
336.4756451594626
 20
113.2383876793361
 30
0.0
 11
313.9756451594626
 21
118.7383876793361
 31
0.0
 70
    32
  1
<>
 71
     5
 42
-1.0
 53
0.00013888888889
  3
ME10_DIM_12
100
AcDbAlignedDimension
 13
291.4756451594626
 23
142.5871027293721
 33
0.0
 14
336.4756451594626
 24
135.2383876793361
 34
0.0
100
AcDbRotatedDimension
  0
DIMENSION
  5
24D
330
1F
100
AcDbEntity
  8
1
100
AcDbDimension
  2
*D11
 10
336.4756451594626
 20
113.2383876793361
 30
0.0
 11
343.4756451594626
 21
118.7383876793361
 31
0.0
 70
    32
  1
<>
 71
     5
 42
-1.0
 53
0.00013888888889
  3
ME10_DIM_13
100
AcDbAlignedDimension
 13
350.4756451594626
 23
148.7383876793361
 33
0.0
 14
336.4756451594626
 24
135.2383876793361
 34
0.0
100
AcDbRotatedDimension
  0
DIMENSION
  5
258
330
1F
100
AcDbEntity
  8
1
100
AcDbDimension
  2
*D12
 10
196.4756451594629
 20
248.4383876793361
 30
0.0
 11
190.9756451594629
 21
203.3383876793361
 31
0.0
 70
    32
  1
90リフト3
 71
     5
 42
-1.0
 53
90.0
  3
ME10_DIM_14
100
AcDbAlignedDimension
 13
241.6803788872733
 23
158.2383876793361
 33
0.0
 14
230.4756451594629
 24
248.4383876793361
 34
0.0
 50
90.0
100
AcDbRotatedDimension
  0
DIMENSION
  5
263
330
1F
100
AcDbEntity
  8
1
100
AcDbDimension
  2
*D13
 10
256.4756451594626
 20
113.2383876793361
 30
0.0
 11
273.9756451594626
 21
118.7383876793361
 31
0.0
 70
    32
  1
<>
 71
     5
 42
-1.0
 53
0.00013888888889
  3
ME10_DIM_15
100
AcDbAlignedDimension
 13
291.4756451594626
 23
142.5871027293721
 33
0.0
 14
256.4756451594626
 24
124.7383876793361
 34
0.0
100
AcDbRotatedDimension
  0
ENDSEC
  0
SECTION
  2
OBJECTS
  0
DICTIONARY
  5
C
330
0
100
AcDbDictionary
281
     1
  3
ACAD_GROUP
350
D
  3
ACAD_LAYOUT
350
1A
  3
ACAD_MATERIAL
350
3B
  3
ACAD_MLEADERSTYLE
350
266
  3
ACAD_MLINESTYLE
350
17
  3
ACAD_PLOTSETTINGS
350
19
  3
ACAD_PLOTSTYLENAME
350
E
  3
ACAD_VISUALSTYLE
350
2A
  3
AcDbVariableDictionary
350
264
  0
DICTIONARY
  5
D
102
{ACAD_REACTORS
330
C
102
}
330
C
100
AcDbDictionary
281
     1
  0
DICTIONARY
  5
1A
102
{ACAD_REACTORS
330
C
102
}
330
C
100
AcDbDictionary
281
     1
  3
Layout1
350
1E
  3
Layout2
350
26
  3
Model
350
22
  0
DICTIONARY
  5
3B
102
{ACAD_REACTORS
330
C
102
}
330
C
100
AcDbDictionary
281
     1
  3
ByBlock
350
3D
  3
ByLayer
350
3C
  3
Global
350
3E
  0
DICTIONARY
  5
266
102
{ACAD_REACTORS
330
C
102
}
330
C
100
AcDbDictionary
281
     1
  0
DICTIONARY
  5
17
102
{ACAD_REACTORS
330
C
102
}
330
C
100
AcDbDictionary
281
     1
  3
Standard
350
18
  0
DICTIONARY
  5
19
102
{ACAD_REACTORS
330
C
102
}
330
C
100
AcDbDictionary
281
     1
  0
ACDBDICTIONARYWDFLT
  5
E
102
{ACAD_REACTORS
330
C
102
}
330
C
100
AcDbDictionary
281
     1
  3
Normal
350
F
100
AcDbDictionaryWithDefault
340
F
  0
DICTIONARY
  5
2A
102
{ACAD_REACTORS
330
C
102
}
330
C
100
AcDbDictionary
281
     1
  3
2dWireframe
350
2F
  3
3D Hidden
350
31
  3
3dWireframe
350
30
  3
Basic
350
32
  3
Brighten
350
36
  3
ColorChange
350
3A
  3
Conceptual
350
34
  3
Dim
350
35
  3
Facepattern
350
39
  3
Flat
350
2B
  3
FlatWithEdges
350
2C
  3
Gouraud
350
2D
  3
GouraudWithEdges
350
2E
  3
Linepattern
350
38
  3
Realistic
350
33
  3
Thicken
350
37
  0
DICTIONARY
  5
264
102
{ACAD_REACTORS
330
C
102
}
330
C
100
AcDbDictionary
281
     1
  3
DIMASSOC
350
267
  3
HIDETEXT
350
268
  0
LAYOUT
  5
1E
102
{ACAD_REACTORS
330
1A
102
}
330
1A
100
AcDbPlotSettings
  1

  2
none_device
  4

  6

 40
0.0
 41
0.0
 42
0.0
 43
0.0
 44
0.0
 45
0.0
 46
0.0
 47
0.0
 48
0.0
 49
0.0
140
0.0
141
0.0
142
1.0
143
1.0
 70
   688
 72
     0
 73
     0
 74
     5
  7

 75
    16
147
1.0
148
0.0
149
0.0
100
AcDbLayout
  1
Layout1
 70
     1
 71
     1
 10
0.0
 20
0.0
 11
12.0
 21
9.0
 12
0.0
 22
0.0
 32
0.0
 14
1.00000000000000E+20
 24
1.00000000000000E+20
 34
1.00000000000000E+20
 15
-1.00000000000000E+20
 25
-1.00000000000000E+20
 35
-1.00000000000000E+20
146
0.0
 13
0.0
 23
0.0
 33
0.0
 16
1.0
 26
0.0
 36
0.0
 17
0.0
 27
1.0
 37
0.0
 76
     0
330
1B
  0
LAYOUT
  5
26
102
{ACAD_REACTORS
330
1A
102
}
330
1A
100
AcDbPlotSettings
  1

  2
none_device
  4

  6

 40
0.0
 41
0.0
 42
0.0
 43
0.0
 44
0.0
 45
0.0
 46
0.0
 47
0.0
 48
0.0
 49
0.0
140
0.0
141
0.0
142
1.0
143
1.0
 70
   688
 72
     0
 73
     0
 74
     5
  7

 75
    16
147
1.0
148
0.0
149
0.0
100
AcDbLayout
  1
Layout2
 70
     1
 71
     2
 10
0.0
 20
0.0
 11
0.0
 21
0.0
 12
0.0
 22
0.0
 32
0.0
 14
0.0
 24
0.0
 34
0.0
 15
0.0
 25
0.0
 35
0.0
146
0.0
 13
0.0
 23
0.0
 33
0.0
 16
1.0
 26
0.0
 36
0.0
 17
0.0
 27
1.0
 37
0.0
 76
     0
330
23
  0
LAYOUT
  5
22
102
{ACAD_REACTORS
330
1A
102
}
330
1A
100
AcDbPlotSettings
  1

  2
none_device
  4

  6

 40
0.0
 41
0.0
 42
0.0
 43
0.0
 44
0.0
 45
0.0
 46
0.0
 47
0.0
 48
0.0
 49
0.0
140
0.0
141
0.0
142
1.0
143
1.0
 70
  1712
 72
     0
 73
     0
 74
     0
  7

 75
     0
147
1.0
148
0.0
149
0.0
100
AcDbLayout
  1
Model
 70
     1
 71
     0
 10
0.0
 20
0.0
 11
12.0
 21
9.0
 12
0.0
 22
0.0
 32
0.0
 14
0.0
 24
0.0
 34
0.0
 15
420.0
 25
594.0
 35
0.0
146
0.0
 13
0.0
 23
0.0
 33
0.0
 16
1.0
 26
0.0
 36
0.0
 17
0.0
 27
1.0
 37
0.0
 76
     0
330
1F
331
29
  0
MATERIAL
  5
3D
102
{ACAD_REACTORS
330
3B
102
}
102
{ACAD_XDICTIONARY
360
28B
102
}
330
3B
100
AcDbMaterial
  1
ByBlock
  0
MATERIAL
  5
3C
102
{ACAD_REACTORS
330
3B
102
}
102
{ACAD_XDICTIONARY
360
289
102
}
330
3B
100
AcDbMaterial
  1
ByLayer
  0
MATERIAL
  5
3E
102
{ACAD_REACTORS
330
3B
102
}
102
{ACAD_XDICTIONARY
360
28D
102
}
330
3B
100
AcDbMaterial
  1
Global
  0
MLINESTYLE
  5
18
102
{ACAD_REACTORS
330
17
102
}
330
17
100
AcDbMlineStyle
  2
Standard
 70
     0
  3

 62
   256
 51
90.0
 52
90.0
 71
     2
 49
0.5
 62
   256
  6
BYLAYER
 49
-0.5
 62
   256
  6
BYLAYER
  0
ACDBPLACEHOLDER
  5
F
102
{ACAD_REACTORS
330
E
102
}
330
E
  0
VISUALSTYLE
  5
2F
102
{ACAD_REACTORS
330
2A
102
}
102
{ACAD_XDICTIONARY
360
271
102
}
330
2A
100
AcDbVisualStyle
  2
2dWireframe
 70
     4
 71
     0
 72
     2
 73
     0
 90
        0
 40
-0.6
 41
-30.0
 62
     5
 63
     7
 74
     1
 91
        4
 64
     7
 65
   257
 75
     1
175
     1
 42
1.0
 92
        0
 66
   257
 43
1.0
 76
     1
 77
     6
 78
     2
 67
     7
 79
     5
170
     0
171
     0
290
     0
174
     0
 93
        1
 44
0.0
173
     0
291
     0
 45
0.0
1001
ACAD
1000
AcDbSavedByObjectVersion
1070
     0
  0
VISUALSTYLE
  5
31
102
{ACAD_REACTORS
330
2A
102
}
102
{ACAD_XDICTIONARY
360
275
102
}
330
2A
100
AcDbVisualStyle
  2
3D Hidden
 70
     6
 71
     1
 72
     2
 73
     2
 90
        0
 40
-0.6
 41
-30.0
 62
     5
 63
     7
 74
     2
 91
        2
 64
     7
 65
   257
 75
     2
175
     1
 42
40.0
 92
        0
 66
   257
 43
1.0
 76
     1
 77
     6
 78
     2
 67
     7
 79
     3
170
     0
171
     0
290
     0
174
     0
 93
        1
 44
0.0
173
     0
291
     0
 45
0.0
1001
ACAD
1000
AcDbSavedByObjectVersion
1070
     0
  0
VISUALSTYLE
  5
30
102
{ACAD_REACTORS
330
2A
102
}
102
{ACAD_XDICTIONARY
360
273
102
}
330
2A
100
AcDbVisualStyle
  2
3dWireframe
 70
     5
 71
     0
 72
     2
 73
     0
 90
        0
 40
-0.6
 41
-30.0
 62
     5
 63
     7
 74
     1
 91
        4
 64
     7
 65
   257
 75
     1
175
     1
 42
1.0
 92
        0
 66
   257
 43
1.0
 76
     1
 77
     6
 78
     2
 67
     7
 79
     5
170
     0
171
     0
290
     0
174
     0
 93
        1
 44
0.0
173
     0
291
     0
 45
0.0
1001
ACAD
1000
AcDbSavedByObjectVersion
1070
     0
  0
VISUALSTYLE
  5
32
102
{ACAD_REACTORS
330
2A
102
}
102
{ACAD_XDICTIONARY
360
277
102
}
330
2A
100
AcDbVisualStyle
  2
Basic
 70
     7
 71
     1
 72
     0
 73
     1
 90
        0
 40
-0.6
 41
-30.0
 62
     5
 63
     7
 74
     0
 91
        4
 64
     7
 65
   257
 75
     1
175
     1
 42
1.0
 92
        8
 66
     7
 43
1.0
 76
     1
 77
     6
 78
     2
 67
     7
 79
     5
170
     0
171
     0
290
     0
174
     0
 93
        1
 44
0.0
173
     0
291
     1
 45
0.0
1001
ACAD
1000
AcDbSavedByObjectVersion
1070
     0
  0
VISUALSTYLE
  5
36
102
{ACAD_REACTORS
330
2A
102
}
102
{ACAD_XDICTIONARY
360
27F
102
}
330
2A
100
AcDbVisualStyle
  2
Brighten
 70
    12
 71
     2
 72
     2
 73
     0
 90
        0
 40
-0.6
 41
-30.0
 62
     5
 63
     7
 74
     1
 91
        4
 64
     7
 65
   257
 75
     1
175
     1
 42
1.0
 92
        8
 66
     7
 43
1.0
 76
     1
 77
     6
 78
     2
 67
     7
 79
     5
170
     0
171
     0
290
     0
174
     0
 93
        1
 44
50.0
173
     0
291
     1
 45
0.0
1001
ACAD
1000
AcDbSavedByObjectVersion
1070
     0
  0
VISUALSTYLE
  5
3A
102
{ACAD_REACTORS
330
2A
102
}
102
{ACAD_XDICTIONARY
360
287
102
}
330
2A
100
AcDbVisualStyle
  2
ColorChange
 70
    16
 71
     2
 72
     2
 73
     3
 90
        0
 40
-0.6
 41
-30.0
 62
     5
 63
     8
 74
     1
 91
        4
 64
     7
 65
   257
 75
     1
175
     1
 42
1.0
 92
        8
 66
     8
 43
1.0
 76
     1
 77
     6
 78
     2
 67
     7
 79
     5
170
     0
171
     0
290
     0
174
     0
 93
        1
 44
0.0
173
     0
291
     1
 45
0.0
1001
ACAD
1000
AcDbSavedByObjectVersion
1070
     0
  0
VISUALSTYLE
  5
34
102
{ACAD_REACTORS
330
2A
102
}
102
{ACAD_XDICTIONARY
360
27B
102
}
330
2A
100
AcDbVisualStyle
  2
Conceptual
 70
     9
 71
     3
 72
     2
 73
     0
 90
        0
 40
-0.6
 41
-30.0
 62
     5
 63
     7
 74
     2
 91
        2
 64
     7
 65
   257
 75
     1
175
     1
 42
40.0
 92
        8
 66
     7
 43
1.0
 76
     1
 77
     6
 78
     2
 67
     7
 79
     3
170
     0
171
     0
290
     0
174
     0
 93
        1
 44
0.0
173
     0
291
     0
 45
0.0
1001
ACAD
1000
AcDbSavedByObjectVersion
1070
     0
  0
VISUALSTYLE
  5
35
102
{ACAD_REACTORS
330
2A
102
}
102
{ACAD_XDICTIONARY
360
27D
102
}
330
2A
100
AcDbVisualStyle
  2
Dim
 70
    11
 71
     2
 72
     2
 73
     0
 90
        0
 40
-0.6
 41
-30.0
 62
     5
 63
     7
 74
     1
 91
        4
 64
     7
 65
   257
 75
     1
175
     1
 42
1.0
 92
        8
 66
     7
 43
1.0
 76
     1
 77
     6
 78
     2
 67
     7
 79
     5
170
     0
171
     0
290
     0
174
     0
 93
        1
 44
-50.0
173
     0
291
     1
 45
0.0
1001
ACAD
1000
AcDbSavedByObjectVersion
1070
     0
  0
VISUALSTYLE
  5
39
102
{ACAD_REACTORS
330
2A
102
}
102
{ACAD_XDICTIONARY
360
285
102
}
330
2A
100
AcDbVisualStyle
  2
Facepattern
 70
    15
 71
     2
 72
     2
 73
     0
 90
        0
 40
-0.6
 41
-30.0
 62
     5
 63
     7
 74
     1
 91
        4
 64
     7
 65
   257
 75
     1
175
     1
 42
1.0
 92
        8
 66
     7
 43
1.0
 76
     1
 77
     6
 78
     2
 67
     7
 79
     5
170
     0
171
     0
290
     0
174
     0
 93
        1
 44
0.0
173
     0
291
     1
 45
0.0
1001
ACAD
1000
AcDbSavedByObjectVersion
1070
     0
  0
VISUALSTYLE
  5
2B
102
{ACAD_REACTORS
330
2A
102
}
102
{ACAD_XDICTIONARY
360
269
102
}
330
2A
100
AcDbVisualStyle
  2
Flat
 70
     0
 71
     2
 72
     1
 73
     1
 90
        2
 40
-0.6
 41
30.0
 62
     5
 63
     7
 74
     0
 91
        4
 64
     7
 65
   257
 75
     1
175
     1
 42
1.0
 92
        8
 66
     7
 43
1.0
 76
     1
 77
     6
 78
     2
 67
     7
 79
     5
170
     0
171
     0
290
     0
174
     0
 93
       13
 44
0.0
173
     0
291
     1
 45
0.0
1001
ACAD
1000
AcDbSavedByObjectVersion
1070
     0
  0
VISUALSTYLE
  5
2C
102
{ACAD_REACTORS
330
2A
102
}
102
{ACAD_XDICTIONARY
360
26B
102
}
330
2A
100
AcDbVisualStyle
  2
FlatWithEdges
 70
     1
 71
     2
 72
     1
 73
     1
 90
        2
 40
-0.6
 41
30.0
 62
     5
 63
     7
 74
     1
 91
        4
 64
     7
 65
   257
 75
     1
175
     1
 42
1.0
 92
        0
 66
   257
 43
1.0
 76
     1
 77
     6
 78
     2
 67
     7
 79
     5
170
     0
171
     0
290
     0
174
     0
 93
       13
 44
0.0
173
     0
291
     1
 45
0.0
1001
ACAD
1000
AcDbSavedByObjectVersion
1070
     0
  0
VISUALSTYLE
  5
2D
102
{ACAD_REACTORS
330
2A
102
}
102
{ACAD_XDICTIONARY
360
26D
102
}
330
2A
100
AcDbVisualStyle
  2
Gouraud
 70
     2
 71
     2
 72
     2
 73
     1
 90
        2
 40
-0.6
 41
30.0
 62
     5
 63
     7
 74
     0
 91
        4
 64
     7
 65
   257
 75
     1
175
     1
 42
1.0
 92
        0
 66
     7
 43
1.0
 76
     1
 77
     6
 78
     2
 67
     7
 79
     5
170
     0
171
     0
290
     0
174
     0
 93
       13
 44
0.0
173
     0
291
     1
 45
0.0
1001
ACAD
1000
AcDbSavedByObjectVersion
1070
     0
  0
VISUALSTYLE
  5
2E
102
{ACAD_REACTORS
330
2A
102
}
102
{ACAD_XDICTIONARY
360
26F
102
}
330
2A
100
AcDbVisualStyle
  2
GouraudWithEdges
 70
     3
 71
     2
 72
     2
 73
     1
 90
        2
 40
-0.6
 41
30.0
 62
     5
 63
     7
 74
     1
 91
        4
 64
     7
 65
   257
 75
     1
175
     1
 42
1.0
 92
        0
 66
   257
 43
1.0
 76
     1
 77
     6
 78
     2
 67
     7
 79
     5
170
     0
171
     0
290
     0
174
     0
 93
       13
 44
0.0
173
     0
291
     1
 45
0.0
1001
ACAD
1000
AcDbSavedByObjectVersion
1070
     0
  0
VISUALSTYLE
  5
38
102
{ACAD_REACTORS
330
2A
102
}
102
{ACAD_XDICTIONARY
360
283
102
}
330
2A
100
AcDbVisualStyle
  2
Linepattern
 70
    14
 71
     2
 72
     2
 73
     0
 90
        0
 40
-0.6
 41
-30.0
 62
     5
 63
     7
 74
     1
 91
        4
 64
     7
 65
   257
 75
     7
175
     7
 42
1.0
 92
        8
 66
     7
 43
1.0
 76
     1
 77
     6
 78
     2
 67
     7
 79
     5
170
     0
171
     0
290
     0
174
     0
 93
        1
 44
0.0
173
     0
291
     1
 45
0.0
1001
ACAD
1000
AcDbSavedByObjectVersion
1070
     0
  0
VISUALSTYLE
  5
33
102
{ACAD_REACTORS
330
2A
102
}
102
{ACAD_XDICTIONARY
360
279
102
}
330
2A
100
AcDbVisualStyle
  2
Realistic
 70
     8
 71
     2
 72
     2
 73
     0
 90
        0
 40
-0.6
 41
-30.0
 62
     5
 63
     7
 74
     1
 91
        0
 64
     7
 65
   257
 75
     1
175
     1
 42
1.0
 92
        8
 66
     8
 43
1.0
 76
     1
 77
     6
 78
     2
 67
     7
 79
     5
170
     0
171
     0
290
     0
174
     0
 93
       13
 44
0.0
173
     0
291
     0
 45
0.0
1001
ACAD
1000
AcDbSavedByObjectVersion
1070
     0
  0
VISUALSTYLE
  5
37
102
{ACAD_REACTORS
330
2A
102
}
102
{ACAD_XDICTIONARY
360
281
102
}
330
2A
100
AcDbVisualStyle
  2
Thicken
 70
    13
 71
     2
 72
     2
 73
     0
 90
        0
 40
-0.6
 41
-30.0
 62
     5
 63
     7
 74
     1
 91
        4
 64
     7
 65
   257
 75
     1
175
     1
 42
1.0
 92
       12
 66
     7
 43
1.0
 76
     1
 77
     6
 78
     2
 67
     7
 79
     5
170
     0
171
     0
290
     0
174
     0
 93
        1
 44
0.0
173
     0
291
     1
 45
0.0
1001
ACAD
1000
AcDbSavedByObjectVersion
1070
     0
  0
DICTIONARYVAR
  5
267
102
{ACAD_REACTORS
330
264
102
}
330
264
100
DictionaryVariables
280
     0
  1
2
  0
DICTIONARYVAR
  5
268
102
{ACAD_REACTORS
330
264
102
}
330
264
100
DictionaryVariables
280
     0
  1
1
  0
DICTIONARY
  5
28B
330
3D
100
AcDbDictionary
280
     1
281
     1
  3
ACAD_XREC_ROUNDTRIP
360
28C
  0
DICTIONARY
  5
289
330
3C
100
AcDbDictionary
280
     1
281
     1
  3
ACAD_XREC_ROUNDTRIP
360
28A
  0
DICTIONARY
  5
28D
330
3E
100
AcDbDictionary
280
     1
281
     1
  3
ACAD_XREC_ROUNDTRIP
360
28E
  0
DICTIONARY
  5
271
330
2F
100
AcDbDictionary
280
     1
281
     1
  3
ACAD_XREC_ROUNDTRIP
360
272
  0
DICTIONARY
  5
275
330
31
100
AcDbDictionary
280
     1
281
     1
  3
ACAD_XREC_ROUNDTRIP
360
276
  0
DICTIONARY
  5
273
330
30
100
AcDbDictionary
280
     1
281
     1
  3
ACAD_XREC_ROUNDTRIP
360
274
  0
DICTIONARY
  5
277
330
32
100
AcDbDictionary
280
     1
281
     1
  3
ACAD_XREC_ROUNDTRIP
360
278
  0
DICTIONARY
  5
27F
330
36
100
AcDbDictionary
280
     1
281
     1
  3
ACAD_XREC_ROUNDTRIP
360
280
  0
DICTIONARY
  5
287
330
3A
100
AcDbDictionary
280
     1
281
     1
  3
ACAD_XREC_ROUNDTRIP
360
288
  0
DICTIONARY
  5
27B
330
34
100
AcDbDictionary
280
     1
281
     1
  3
ACAD_XREC_ROUNDTRIP
360
27C
  0
DICTIONARY
  5
27D
330
35
100
AcDbDictionary
280
     1
281
     1
  3
ACAD_XREC_ROUNDTRIP
360
27E
  0
DICTIONARY
  5
285
330
39
100
AcDbDictionary
280
     1
281
     1
  3
ACAD_XREC_ROUNDTRIP
360
286
  0
DICTIONARY
  5
269
330
2B
100
AcDbDictionary
280
     1
281
     1
  3
ACAD_XREC_ROUNDTRIP
360
26A
  0
DICTIONARY
  5
26B
330
2C
100
AcDbDictionary
280
     1
281
     1
  3
ACAD_XREC_ROUNDTRIP
360
26C
  0
DICTIONARY
  5
26D
330
2D
100
AcDbDictionary
280
     1
281
     1
  3
ACAD_XREC_ROUNDTRIP
360
26E
  0
DICTIONARY
  5
26F
330
2E
100
AcDbDictionary
280
     1
281
     1
  3
ACAD_XREC_ROUNDTRIP
360
270
  0
DICTIONARY
  5
283
330
38
100
AcDbDictionary
280
     1
281
     1
  3
ACAD_XREC_ROUNDTRIP
360
284
  0
DICTIONARY
  5
279
330
33
100
AcDbDictionary
280
     1
281
     1
  3
ACAD_XREC_ROUNDTRIP
360
27A
  0
DICTIONARY
  5
281
330
37
100
AcDbDictionary
280
     1
281
     1
  3
ACAD_XREC_ROUNDTRIP
360
282
  0
XRECORD
  5
28C
102
{ACAD_REACTORS
330
28B
102
}
330
28B
100
AcDbXrecord
280
     1
102
MATERIAL
148
0.0
149
0.0
149
0.0
 93
        0
 94
      127
282
     0
 72
     1
 77
     1
171
     1
175
     1
179
     1
273
     0
  0
XRECORD
  5
28A
102
{ACAD_REACTORS
330
289
102
}
330
289
100
AcDbXrecord
280
     1
102
MATERIAL
148
0.0
149
0.0
149
0.0
 93
        0
 94
      127
282
     0
 72
     1
 77
     1
171
     1
175
     1
179
     1
273
     0
  0
XRECORD
  5
28E
102
{ACAD_REACTORS
330
28D
102
}
330
28D
100
AcDbXrecord
280
     1
102
MATERIAL
148
0.0
149
0.0
149
0.0
 93
        0
 94
      127
282
     0
 72
     1
 77
     1
171
     1
175
     1
179
     1
273
     0
  0
XRECORD
  5
272
102
{ACAD_REACTORS
330
271
102
}
330
271
100
AcDbXrecord
280
     1
102
RTVSPropertyOp0
 70
     1
102
RTVSPropertyOp1
 70
     1
102
RTVSPropertyOp2
 70
     1
102
RTVSPropertyOp3
 70
     1
102
RTVSPropertyOp4
 70
     1
102
RTVSPropertyOp5
 70
     1
102
RTVSPropertyOp6
 70
     1
102
RTVSPropertyOp7
 70
     1
102
RTVSPropertyOp8
 70
     1
102
RTVSPropertyOp9
 70
     1
102
RTVSPropertyOp10
 70
     1
102
RTVSPropertyOp11
 70
     1
102
RTVSPropertyOp12
 70
     1
102
RTVSPropertyOp13
 70
     1
102
RTVSPropertyOp14
 70
     1
102
RTVSPropertyOp15
 70
     1
102
RTVSPropertyOp16
 70
     1
102
RTVSPropertyOp17
 70
     1
102
RTVSPropertyOp18
 70
     1
102
RTVSPropertyOp19
 70
     1
102
RTVSPropertyOp20
 70
     1
102
RTVSPropertyOp21
 70
     1
102
RTVSPropertyOp22
 70
     1
102
RTVSPropertyOp23
 70
     1
102
RTVSPropertyOp24
 70
     1
102
RTVSPropertyOp25
 70
     1
102
RTVSPropertyOp26
 70
     1
102
RTVSPropertyOp27
 70
     1
102
RTVSPropertyOp28
 70
     1
102
RTVSPropertyOp29
 70
     1
102
RTVSPropertyOp30
 70
     1
102
RTVSPropertyOp31
 70
     1
102
RTVSPropertyOp32
 70
     1
  0
XRECORD
  5
276
102
{ACAD_REACTORS
330
275
102
}
330
275
100
AcDbXrecord
280
     1
102
RTVSPropertyOp0
 70
     1
102
RTVSPropertyOp1
 70
     1
102
RTVSPropertyOp2
 70
     1
102
RTVSPropertyOp3
 70
     1
102
RTVSPropertyOp4
 70
     1
102
RTVSPropertyOp5
 70
     1
102
RTVSPropertyOp6
 70
     1
102
RTVSPropertyOp7
 70
     1
102
RTVSPropertyOp8
 70
     1
102
RTVSPropertyOp9
 70
     1
102
RTVSPropertyOp10
 70
     1
102
RTVSPropertyOp11
 70
     1
102
RTVSPropertyOp12
 70
     1
102
RTVSPropertyOp13
 70
     1
102
RTVSPropertyOp14
 70
     1
102
RTVSPropertyOp15
 70
     1
102
RTVSPropertyOp16
 70
     1
102
RTVSPropertyOp17
 70
     1
102
RTVSPropertyOp18
 70
     1
102
RTVSPropertyOp19
 70
     1
102
RTVSPropertyOp20
 70
     1
102
RTVSPropertyOp21
 70
     1
102
RTVSPropertyOp22
 70
     1
102
RTVSPropertyOp23
 70
     1
102
RTVSPropertyOp24
 70
     1
102
RTVSPropertyOp25
 70
     1
102
RTVSPropertyOp26
 70
     1
102
RTVSPropertyOp27
 70
     1
102
RTVSPropertyOp28
 70
     1
102
RTVSPropertyOp29
 70
     1
102
RTVSPropertyOp30
 70
     1
102
RTVSPropertyOp31
 70
     1
102
RTVSPropertyOp32
 70
     1
  0
XRECORD
  5
274
102
{ACAD_REACTORS
330
273
102
}
330
273
100
AcDbXrecord
280
     1
102
RTVSPropertyOp0
 70
     1
102
RTVSPropertyOp1
 70
     1
102
RTVSPropertyOp2
 70
     1
102
RTVSPropertyOp3
 70
     1
102
RTVSPropertyOp4
 70
     1
102
RTVSPropertyOp5
 70
     1
102
RTVSPropertyOp6
 70
     1
102
RTVSPropertyOp7
 70
     1
102
RTVSPropertyOp8
 70
     1
102
RTVSPropertyOp9
 70
     1
102
RTVSPropertyOp10
 70
     1
102
RTVSPropertyOp11
 70
     1
102
RTVSPropertyOp12
 70
     1
102
RTVSPropertyOp13
 70
     1
102
RTVSPropertyOp14
 70
     1
102
RTVSPropertyOp15
 70
     1
102
RTVSPropertyOp16
 70
     1
102
RTVSPropertyOp17
 70
     1
102
RTVSPropertyOp18
 70
     1
102
RTVSPropertyOp19
 70
     1
102
RTVSPropertyOp20
 70
     1
102
RTVSPropertyOp21
 70
     1
102
RTVSPropertyOp22
 70
     1
102
RTVSPropertyOp23
 70
     1
102
RTVSPropertyOp24
 70
     1
102
RTVSPropertyOp25
 70
     1
102
RTVSPropertyOp26
 70
     1
102
RTVSPropertyOp27
 70
     1
102
RTVSPropertyOp28
 70
     1
102
RTVSPropertyOp29
 70
     1
102
RTVSPropertyOp30
 70
     1
102
RTVSPropertyOp31
 70
     1
102
RTVSPropertyOp32
 70
     1
  0
XRECORD
  5
278
102
{ACAD_REACTORS
330
277
102
}
330
277
100
AcDbXrecord
280
     1
102
RTVSPropertyOp0
 70
     1
102
RTVSPropertyOp1
 70
     1
102
RTVSPropertyOp2
 70
     1
102
RTVSPropertyOp3
 70
     1
102
RTVSPropertyOp4
 70
     1
102
RTVSPropertyOp5
 70
     1
102
RTVSPropertyOp6
 70
     1
102
RTVSPropertyOp7
 70
     1
102
RTVSPropertyOp8
 70
     1
102
RTVSPropertyOp9
 70
     1
102
RTVSPropertyOp10
 70
     1
102
RTVSPropertyOp11
 70
     1
102
RTVSPropertyOp12
 70
     1
102
RTVSPropertyOp13
 70
     1
102
RTVSPropertyOp14
 70
     1
102
RTVSPropertyOp15
 70
     1
102
RTVSPropertyOp16
 70
     1
102
RTVSPropertyOp17
 70
     1
102
RTVSPropertyOp18
 70
     1
102
RTVSPropertyOp19
 70
     1
102
RTVSPropertyOp20
 70
     1
102
RTVSPropertyOp21
 70
     1
102
RTVSPropertyOp22
 70
     1
102
RTVSPropertyOp23
 70
     1
102
RTVSPropertyOp24
 70
     1
102
RTVSPropertyOp25
 70
     1
102
RTVSPropertyOp26
 70
     1
102
RTVSPropertyOp27
 70
     1
102
RTVSPropertyOp28
 70
     1
102
RTVSPropertyOp29
 70
     1
102
RTVSPropertyOp30
 70
     1
102
RTVSPropertyOp31
 70
     1
102
RTVSPropertyOp32
 70
     1
  0
XRECORD
  5
280
102
{ACAD_REACTORS
330
27F
102
}
330
27F
100
AcDbXrecord
280
     1
102
RTVSPropertyOp0
 70
     1
102
RTVSPropertyOp1
 70
     1
102
RTVSPropertyOp2
 70
     1
102
RTVSPropertyOp3
 70
     1
102
RTVSPropertyOp4
 70
     1
102
RTVSPropertyOp5
 70
     1
102
RTVSPropertyOp6
 70
     1
102
RTVSPropertyOp7
 70
     1
102
RTVSPropertyOp8
 70
     1
102
RTVSPropertyOp9
 70
     1
102
RTVSPropertyOp10
 70
     1
102
RTVSPropertyOp11
 70
     1
102
RTVSPropertyOp12
 70
     1
102
RTVSPropertyOp13
 70
     1
102
RTVSPropertyOp14
 70
     1
102
RTVSPropertyOp15
 70
     1
102
RTVSPropertyOp16
 70
     1
102
RTVSPropertyOp17
 70
     1
102
RTVSPropertyOp18
 70
     1
102
RTVSPropertyOp19
 70
     1
102
RTVSPropertyOp20
 70
     1
102
RTVSPropertyOp21
 70
     1
102
RTVSPropertyOp22
 70
     1
102
RTVSPropertyOp23
 70
     1
102
RTVSPropertyOp24
 70
     1
102
RTVSPropertyOp25
 70
     1
102
RTVSPropertyOp26
 70
     1
102
RTVSPropertyOp27
 70
     1
102
RTVSPropertyOp28
 70
     1
102
RTVSPropertyOp29
 70
     1
102
RTVSPropertyOp30
 70
     1
102
RTVSPropertyOp31
 70
     1
102
RTVSPropertyOp32
 70
     1
  0
XRECORD
  5
288
102
{ACAD_REACTORS
330
287
102
}
330
287
100
AcDbXrecord
280
     1
102
RTVSPropertyOp0
 70
     1
102
RTVSPropertyOp1
 70
     1
102
RTVSPropertyOp2
 70
     1
102
RTVSPropertyOp3
 70
     1
102
RTVSPropertyOp4
 70
     1
102
RTVSPropertyOp5
 70
     1
102
RTVSPropertyOp6
 70
     1
102
RTVSPropertyOp7
 70
     1
102
RTVSPropertyOp8
 70
     1
102
RTVSPropertyOp9
 70
     1
102
RTVSPropertyOp10
 70
     1
102
RTVSPropertyOp11
 70
     1
102
RTVSPropertyOp12
 70
     1
102
RTVSPropertyOp13
 70
     1
102
RTVSPropertyOp14
 70
     1
102
RTVSPropertyOp15
 70
     1
102
RTVSPropertyOp16
 70
     1
102
RTVSPropertyOp17
 70
     1
102
RTVSPropertyOp18
 70
     1
102
RTVSPropertyOp19
 70
     1
102
RTVSPropertyOp20
 70
     1
102
RTVSPropertyOp21
 70
     1
102
RTVSPropertyOp22
 70
     1
102
RTVSPropertyOp23
 70
     1
102
RTVSPropertyOp24
 70
     1
102
RTVSPropertyOp25
 70
     1
102
RTVSPropertyOp26
 70
     1
102
RTVSPropertyOp27
 70
     1
102
RTVSPropertyOp28
 70
     1
102
RTVSPropertyOp29
 70
     1
102
RTVSPropertyOp30
 70
     1
102
RTVSPropertyOp31
 70
     1
102
RTVSPropertyOp32
 70
     1
  0
XRECORD
  5
27C
102
{ACAD_REACTORS
330
27B
102
}
330
27B
100
AcDbXrecord
280
     1
102
RTVSPropertyOp0
 70
     1
102
RTVSPropertyOp1
 70
     1
102
RTVSPropertyOp2
 70
     1
102
RTVSPropertyOp3
 70
     1
102
RTVSPropertyOp4
 70
     1
102
RTVSPropertyOp5
 70
     1
102
RTVSPropertyOp6
 70
     1
102
RTVSPropertyOp7
 70
     1
102
RTVSPropertyOp8
 70
     1
102
RTVSPropertyOp9
 70
     1
102
RTVSPropertyOp10
 70
     1
102
RTVSPropertyOp11
 70
     1
102
RTVSPropertyOp12
 70
     1
102
RTVSPropertyOp13
 70
     1
102
RTVSPropertyOp14
 70
     1
102
RTVSPropertyOp15
 70
     1
102
RTVSPropertyOp16
 70
     1
102
RTVSPropertyOp17
 70
     1
102
RTVSPropertyOp18
 70
     1
102
RTVSPropertyOp19
 70
     1
102
RTVSPropertyOp20
 70
     1
102
RTVSPropertyOp21
 70
     1
102
RTVSPropertyOp22
 70
     1
102
RTVSPropertyOp23
 70
     1
102
RTVSPropertyOp24
 70
     1
102
RTVSPropertyOp25
 70
     1
102
RTVSPropertyOp26
 70
     1
102
RTVSPropertyOp27
 70
     1
102
RTVSPropertyOp28
 70
     1
102
RTVSPropertyOp29
 70
     1
102
RTVSPropertyOp30
 70
     1
102
RTVSPropertyOp31
 70
     1
102
RTVSPropertyOp32
 70
     1
  0
XRECORD
  5
27E
102
{ACAD_REACTORS
330
27D
102
}
330
27D
100
AcDbXrecord
280
     1
102
RTVSPropertyOp0
 70
     1
102
RTVSPropertyOp1
 70
     1
102
RTVSPropertyOp2
 70
     1
102
RTVSPropertyOp3
 70
     1
102
RTVSPropertyOp4
 70
     1
102
RTVSPropertyOp5
 70
     1
102
RTVSPropertyOp6
 70
     1
102
RTVSPropertyOp7
 70
     1
102
RTVSPropertyOp8
 70
     1
102
RTVSPropertyOp9
 70
     1
102
RTVSPropertyOp10
 70
     1
102
RTVSPropertyOp11
 70
     1
102
RTVSPropertyOp12
 70
     1
102
RTVSPropertyOp13
 70
     1
102
RTVSPropertyOp14
 70
     1
102
RTVSPropertyOp15
 70
     1
102
RTVSPropertyOp16
 70
     1
102
RTVSPropertyOp17
 70
     1
102
RTVSPropertyOp18
 70
     1
102
RTVSPropertyOp19
 70
     1
102
RTVSPropertyOp20
 70
     1
102
RTVSPropertyOp21
 70
     1
102
RTVSPropertyOp22
 70
     1
102
RTVSPropertyOp23
 70
     1
102
RTVSPropertyOp24
 70
     1
102
RTVSPropertyOp25
 70
     1
102
RTVSPropertyOp26
 70
     1
102
RTVSPropertyOp27
 70
     1
102
RTVSPropertyOp28
 70
     1
102
RTVSPropertyOp29
 70
     1
102
RTVSPropertyOp30
 70
     1
102
RTVSPropertyOp31
 70
     1
102
RTVSPropertyOp32
 70
     1
  0
XRECORD
  5
286
102
{ACAD_REACTORS
330
285
102
}
330
285
100
AcDbXrecord
280
     1
102
RTVSPropertyOp0
 70
     1
102
RTVSPropertyOp1
 70
     1
102
RTVSPropertyOp2
 70
     1
102
RTVSPropertyOp3
 70
     1
102
RTVSPropertyOp4
 70
     1
102
RTVSPropertyOp5
 70
     1
102
RTVSPropertyOp6
 70
     1
102
RTVSPropertyOp7
 70
     1
102
RTVSPropertyOp8
 70
     1
102
RTVSPropertyOp9
 70
     1
102
RTVSPropertyOp10
 70
     1
102
RTVSPropertyOp11
 70
     1
102
RTVSPropertyOp12
 70
     1
102
RTVSPropertyOp13
 70
     1
102
RTVSPropertyOp14
 70
     1
102
RTVSPropertyOp15
 70
     1
102
RTVSPropertyOp16
 70
     1
102
RTVSPropertyOp17
 70
     1
102
RTVSPropertyOp18
 70
     1
102
RTVSPropertyOp19
 70
     1
102
RTVSPropertyOp20
 70
     1
102
RTVSPropertyOp21
 70
     1
102
RTVSPropertyOp22
 70
     1
102
RTVSPropertyOp23
 70
     1
102
RTVSPropertyOp24
 70
     1
102
RTVSPropertyOp25
 70
     1
102
RTVSPropertyOp26
 70
     1
102
RTVSPropertyOp27
 70
     1
102
RTVSPropertyOp28
 70
     1
102
RTVSPropertyOp29
 70
     1
102
RTVSPropertyOp30
 70
     1
102
RTVSPropertyOp31
 70
     1
102
RTVSPropertyOp32
 70
     1
  0
XRECORD
  5
26A
102
{ACAD_REACTORS
330
269
102
}
330
269
100
AcDbXrecord
280
     1
102
RTVSPropertyOp0
 70
     1
102
RTVSPropertyOp1
 70
     1
102
RTVSPropertyOp2
 70
     1
102
RTVSPropertyOp3
 70
     1
102
RTVSPropertyOp4
 70
     1
102
RTVSPropertyOp5
 70
     1
102
RTVSPropertyOp6
 70
     1
102
RTVSPropertyOp7
 70
     1
102
RTVSPropertyOp8
 70
     1
102
RTVSPropertyOp9
 70
     1
102
RTVSPropertyOp10
 70
     1
102
RTVSPropertyOp11
 70
     1
102
RTVSPropertyOp12
 70
     1
102
RTVSPropertyOp13
 70
     1
102
RTVSPropertyOp14
 70
     1
102
RTVSPropertyOp15
 70
     1
102
RTVSPropertyOp16
 70
     1
102
RTVSPropertyOp17
 70
     1
102
RTVSPropertyOp18
 70
     1
102
RTVSPropertyOp19
 70
     1
102
RTVSPropertyOp20
 70
     1
102
RTVSPropertyOp21
 70
     1
102
RTVSPropertyOp22
 70
     1
102
RTVSPropertyOp23
 70
     1
102
RTVSPropertyOp24
 70
     1
102
RTVSPropertyOp25
 70
     1
102
RTVSPropertyOp26
 70
     1
102
RTVSPropertyOp27
 70
     1
102
RTVSPropertyOp28
 70
     1
102
RTVSPropertyOp29
 70
     1
102
RTVSPropertyOp30
 70
     1
102
RTVSPropertyOp31
 70
     1
102
RTVSPropertyOp32
 70
     1
  0
XRECORD
  5
26C
102
{ACAD_REACTORS
330
26B
102
}
330
26B
100
AcDbXrecord
280
     1
102
RTVSPropertyOp0
 70
     1
102
RTVSPropertyOp1
 70
     1
102
RTVSPropertyOp2
 70
     1
102
RTVSPropertyOp3
 70
     1
102
RTVSPropertyOp4
 70
     1
102
RTVSPropertyOp5
 70
     1
102
RTVSPropertyOp6
 70
     1
102
RTVSPropertyOp7
 70
     1
102
RTVSPropertyOp8
 70
     1
102
RTVSPropertyOp9
 70
     1
102
RTVSPropertyOp10
 70
     1
102
RTVSPropertyOp11
 70
     1
102
RTVSPropertyOp12
 70
     1
102
RTVSPropertyOp13
 70
     1
102
RTVSPropertyOp14
 70
     1
102
RTVSPropertyOp15
 70
     1
102
RTVSPropertyOp16
 70
     1
102
RTVSPropertyOp17
 70
     1
102
RTVSPropertyOp18
 70
     1
102
RTVSPropertyOp19
 70
     1
102
RTVSPropertyOp20
 70
     1
102
RTVSPropertyOp21
 70
     1
102
RTVSPropertyOp22
 70
     1
102
RTVSPropertyOp23
 70
     1
102
RTVSPropertyOp24
 70
     1
102
RTVSPropertyOp25
 70
     1
102
RTVSPropertyOp26
 70
     1
102
RTVSPropertyOp27
 70
     1
102
RTVSPropertyOp28
 70
     1
102
RTVSPropertyOp29
 70
     1
102
RTVSPropertyOp30
 70
     1
102
RTVSPropertyOp31
 70
     1
102
RTVSPropertyOp32
 70
     1
  0
XRECORD
  5
26E
102
{ACAD_REACTORS
330
26D
102
}
330
26D
100
AcDbXrecord
280
     1
102
RTVSPropertyOp0
 70
     1
102
RTVSPropertyOp1
 70
     1
102
RTVSPropertyOp2
 70
     1
102
RTVSPropertyOp3
 70
     1
102
RTVSPropertyOp4
 70
     1
102
RTVSPropertyOp5
 70
     1
102
RTVSPropertyOp6
 70
     1
102
RTVSPropertyOp7
 70
     1
102
RTVSPropertyOp8
 70
     1
102
RTVSPropertyOp9
 70
     1
102
RTVSPropertyOp10
 70
     1
102
RTVSPropertyOp11
 70
     1
102
RTVSPropertyOp12
 70
     1
102
RTVSPropertyOp13
 70
     1
102
RTVSPropertyOp14
 70
     1
102
RTVSPropertyOp15
 70
     1
102
RTVSPropertyOp16
 70
     1
102
RTVSPropertyOp17
 70
     1
102
RTVSPropertyOp18
 70
     1
102
RTVSPropertyOp19
 70
     1
102
RTVSPropertyOp20
 70
     1
102
RTVSPropertyOp21
 70
     1
102
RTVSPropertyOp22
 70
     1
102
RTVSPropertyOp23
 70
     1
102
RTVSPropertyOp24
 70
     1
102
RTVSPropertyOp25
 70
     1
102
RTVSPropertyOp26
 70
     1
102
RTVSPropertyOp27
 70
     1
102
RTVSPropertyOp28
 70
     1
102
RTVSPropertyOp29
 70
     1
102
RTVSPropertyOp30
 70
     1
102
RTVSPropertyOp31
 70
     1
102
RTVSPropertyOp32
 70
     1
  0
XRECORD
  5
270
102
{ACAD_REACTORS
330
26F
102
}
330
26F
100
AcDbXrecord
280
     1
102
RTVSPropertyOp0
 70
     1
102
RTVSPropertyOp1
 70
     1
102
RTVSPropertyOp2
 70
     1
102
RTVSPropertyOp3
 70
     1
102
RTVSPropertyOp4
 70
     1
102
RTVSPropertyOp5
 70
     1
102
RTVSPropertyOp6
 70
     1
102
RTVSPropertyOp7
 70
     1
102
RTVSPropertyOp8
 70
     1
102
RTVSPropertyOp9
 70
     1
102
RTVSPropertyOp10
 70
     1
102
RTVSPropertyOp11
 70
     1
102
RTVSPropertyOp12
 70
     1
102
RTVSPropertyOp13
 70
     1
102
RTVSPropertyOp14
 70
     1
102
RTVSPropertyOp15
 70
     1
102
RTVSPropertyOp16
 70
     1
102
RTVSPropertyOp17
 70
     1
102
RTVSPropertyOp18
 70
     1
102
RTVSPropertyOp19
 70
     1
102
RTVSPropertyOp20
 70
     1
102
RTVSPropertyOp21
 70
     1
102
RTVSPropertyOp22
 70
     1
102
RTVSPropertyOp23
 70
     1
102
RTVSPropertyOp24
 70
     1
102
RTVSPropertyOp25
 70
     1
102
RTVSPropertyOp26
 70
     1
102
RTVSPropertyOp27
 70
     1
102
RTVSPropertyOp28
 70
     1
102
RTVSPropertyOp29
 70
     1
102
RTVSPropertyOp30
 70
     1
102
RTVSPropertyOp31
 70
     1
102
RTVSPropertyOp32
 70
     1
  0
XRECORD
  5
284
102
{ACAD_REACTORS
330
283
102
}
330
283
100
AcDbXrecord
280
     1
102
RTVSPropertyOp0
 70
     1
102
RTVSPropertyOp1
 70
     1
102
RTVSPropertyOp2
 70
     1
102
RTVSPropertyOp3
 70
     1
102
RTVSPropertyOp4
 70
     1
102
RTVSPropertyOp5
 70
     1
102
RTVSPropertyOp6
 70
     1
102
RTVSPropertyOp7
 70
     1
102
RTVSPropertyOp8
 70
     1
102
RTVSPropertyOp9
 70
     1
102
RTVSPropertyOp10
 70
     1
102
RTVSPropertyOp11
 70
     1
102
RTVSPropertyOp12
 70
     1
102
RTVSPropertyOp13
 70
     1
102
RTVSPropertyOp14
 70
     1
102
RTVSPropertyOp15
 70
     1
102
RTVSPropertyOp16
 70
     1
102
RTVSPropertyOp17
 70
     1
102
RTVSPropertyOp18
 70
     1
102
RTVSPropertyOp19
 70
     1
102
RTVSPropertyOp20
 70
     1
102
RTVSPropertyOp21
 70
     1
102
RTVSPropertyOp22
 70
     1
102
RTVSPropertyOp23
 70
     1
102
RTVSPropertyOp24
 70
     1
102
RTVSPropertyOp25
 70
     1
102
RTVSPropertyOp26
 70
     1
102
RTVSPropertyOp27
 70
     1
102
RTVSPropertyOp28
 70
     1
102
RTVSPropertyOp29
 70
     1
102
RTVSPropertyOp30
 70
     1
102
RTVSPropertyOp31
 70
     1
102
RTVSPropertyOp32
 70
     1
  0
XRECORD
  5
27A
102
{ACAD_REACTORS
330
279
102
}
330
279
100
AcDbXrecord
280
     1
102
RTVSPropertyOp0
 70
     1
102
RTVSPropertyOp1
 70
     1
102
RTVSPropertyOp2
 70
     1
102
RTVSPropertyOp3
 70
     1
102
RTVSPropertyOp4
 70
     1
102
RTVSPropertyOp5
 70
     1
102
RTVSPropertyOp6
 70
     1
102
RTVSPropertyOp7
 70
     1
102
RTVSPropertyOp8
 70
     1
102
RTVSPropertyOp9
 70
     1
102
RTVSPropertyOp10
 70
     1
102
RTVSPropertyOp11
 70
     1
102
RTVSPropertyOp12
 70
     1
102
RTVSPropertyOp13
 70
     1
102
RTVSPropertyOp14
 70
     1
102
RTVSPropertyOp15
 70
     1
102
RTVSPropertyOp16
 70
     1
102
RTVSPropertyOp17
 70
     1
102
RTVSPropertyOp18
 70
     1
102
RTVSPropertyOp19
 70
     1
102
RTVSPropertyOp20
 70
     1
102
RTVSPropertyOp21
 70
     1
102
RTVSPropertyOp22
 70
     1
102
RTVSPropertyOp23
 70
     1
102
RTVSPropertyOp24
 70
     1
102
RTVSPropertyOp25
 70
     1
102
RTVSPropertyOp26
 70
     1
102
RTVSPropertyOp27
 70
     1
102
RTVSPropertyOp28
 70
     1
102
RTVSPropertyOp29
 70
     1
102
RTVSPropertyOp30
 70
     1
102
RTVSPropertyOp31
 70
     1
102
RTVSPropertyOp32
 70
     1
  0
XRECORD
  5
282
102
{ACAD_REACTORS
330
281
102
}
330
281
100
AcDbXrecord
280
     1
102
RTVSPropertyOp0
 70
     1
102
RTVSPropertyOp1
 70
     1
102
RTVSPropertyOp2
 70
     1
102
RTVSPropertyOp3
 70
     1
102
RTVSPropertyOp4
 70
     1
102
RTVSPropertyOp5
 70
     1
102
RTVSPropertyOp6
 70
     1
102
RTVSPropertyOp7
 70
     1
102
RTVSPropertyOp8
 70
     1
102
RTVSPropertyOp9
 70
     1
102
RTVSPropertyOp10
 70
     1
102
RTVSPropertyOp11
 70
     1
102
RTVSPropertyOp12
 70
     1
102
RTVSPropertyOp13
 70
     1
102
RTVSPropertyOp14
 70
     1
102
RTVSPropertyOp15
 70
     1
102
RTVSPropertyOp16
 70
     1
102
RTVSPropertyOp17
 70
     1
102
RTVSPropertyOp18
 70
     1
102
RTVSPropertyOp19
 70
     1
102
RTVSPropertyOp20
 70
     1
102
RTVSPropertyOp21
 70
     1
102
RTVSPropertyOp22
 70
     1
102
RTVSPropertyOp23
 70
     1
102
RTVSPropertyOp24
 70
     1
102
RTVSPropertyOp25
 70
     1
102
RTVSPropertyOp26
 70
     1
102
RTVSPropertyOp27
 70
     1
102
RTVSPropertyOp28
 70
     1
102
RTVSPropertyOp29
 70
     1
102
RTVSPropertyOp30
 70
     1
102
RTVSPropertyOp31
 70
     1
102
RTVSPropertyOp32
 70
     1
  0
ENDSEC
  0
EOF
