  0
SECTION
  2
HEADER
  9
$ACADVER
  1
AC1015
  9
$ACADMAINTVER
 70
     6
  9
$DWGCODEPAGE
  3
ANSI_932
  9
$INSBASE
 10
0.0
 20
0.0
 30
0.0
  9
$EXTMIN
 10
0.0
 20
0.0
 30
0.0
  9
$EXTMAX
 10
630.0
 20
891.0
 30
0.0
  9
$LIMMIN
 10
0.0
 20
0.0
  9
$LIMMAX
 10
12.0
 20
9.0
  9
$ORTHOMODE
 70
     0
  9
$REGENMODE
 70
     1
  9
$FILLMODE
 70
     1
  9
$QTEXTMODE
 70
     0
  9
$MIRRTEXT
 70
     1
  9
$LTSCALE
 40
1.0
  9
$ATTMODE
 70
     1
  9
$TEXTSIZE
 40
0.2
  9
$TRACEWID
 40
0.05
  9
$TEXTSTYLE
  7
Standard
  9
$CLAYER
  8
0
  9
$CELTYPE
  6
ByLayer
  9
$CECOLOR
 62
   256
  9
$CELTSCALE
 40
1.0
  9
$DISPSILH
 70
     0
  9
$DIMSCALE
 40
1.0
  9
$DIMASZ
 40
0.18
  9
$DIMEXO
 40
0.0625
  9
$DIMDLI
 40
0.38
  9
$DIMRND
 40
0.0
  9
$DIMDLE
 40
0.0
  9
$DIMEXE
 40
0.18
  9
$DIMTP
 40
0.0
  9
$DIMTM
 40
0.0
  9
$DIMTXT
 40
0.18
  9
$DIMCEN
 40
0.09
  9
$DIMTSZ
 40
0.0
  9
$DIMTOL
 70
     0
  9
$DIMLIM
 70
     0
  9
$DIMTIH
 70
     1
  9
$DIMTOH
 70
     1
  9
$DIMSE1
 70
     0
  9
$DIMSE2
 70
     0
  9
$DIMTAD
 70
     0
  9
$DIMZIN
 70
     0
  9
$DIMBLK
  1

  9
$DIMASO
 70
     1
  9
$DIMSHO
 70
     1
  9
$DIMPOST
  1

  9
$DIMAPOST
  1

  9
$DIMALT
 70
     0
  9
$DIMALTD
 70
     2
  9
$DIMALTF
 40
25.4
  9
$DIMLFAC
 40
1.0
  9
$DIMTOFL
 70
     0
  9
$DIMTVP
 40
0.0
  9
$DIMTIX
 70
     0
  9
$DIMSOXD
 70
     0
  9
$DIMSAH
 70
     0
  9
$DIMBLK1
  1

  9
$DIMBLK2
  1

  9
$DIMSTYLE
  2
Standard
  9
$DIMCLRD
 70
     0
  9
$DIMCLRE
 70
     0
  9
$DIMCLRT
 70
     0
  9
$DIMTFAC
 40
1.0
  9
$DIMGAP
 40
0.09
  9
$DIMJUST
 70
     0
  9
$DIMSD1
 70
     0
  9
$DIMSD2
 70
     0
  9
$DIMTOLJ
 70
     1
  9
$DIMTZIN
 70
     0
  9
$DIMALTZ
 70
     0
  9
$DIMALTTZ
 70
     0
  9
$DIMUPT
 70
     0
  9
$DIMDEC
 70
     4
  9
$DIMTDEC
 70
     4
  9
$DIMALTU
 70
     2
  9
$DIMALTTD
 70
     2
  9
$DIMTXSTY
  7
Standard
  9
$DIMAUNIT
 70
     0
  9
$DIMADEC
 70
     0
  9
$DIMALTRND
 40
0.0
  9
$DIMAZIN
 70
     0
  9
$DIMDSEP
 70
    46
  9
$DIMATFIT
 70
     3
  9
$DIMFRAC
 70
     0
  9
$DIMLDRBLK
  1

  9
$DIMLUNIT
 70
     2
  9
$DIMLWD
 70
    -2
  9
$DIMLWE
 70
    -2
  9
$DIMTMOVE
 70
     0
  9
$LUNITS
 70
     2
  9
$LUPREC
 70
     4
  9
$SKETCHINC
 40
0.1
  9
$FILLETRAD
 40
0.5
  9
$AUNITS
 70
     0
  9
$AUPREC
 70
     0
  9
$MENU
  1
.
  9
$ELEVATION
 40
0.0
  9
$PELEVATION
 40
0.0
  9
$THICKNESS
 40
0.0
  9
$LIMCHECK
 70
     0
  9
$CHAMFERA
 40
0.5
  9
$CHAMFERB
 40
0.5
  9
$CHAMFERC
 40
1.0
  9
$CHAMFERD
 40
0.0
  9
$SKPOLY
 70
     0
  9
$TDCREATE
 40
2457186.566629421
  9
$TDUCREATE
 40
2457186.191629421
  9
$TDUPDATE
 40
2457186.566630509
  9
$TDUUPDATE
 40
2457186.191630509
  9
$TDINDWG
 40
0.0000000116
  9
$TDUSRTIMER
 40
0.0000000116
  9
$USRTIMER
 70
     1
  9
$ANGBASE
 50
0.0
  9
$ANGDIR
 70
     0
  9
$PDMODE
 70
     0
  9
$PDSIZE
 40
0.0
  9
$PLINEWID
 40
0.0
  9
$SPLFRAME
 70
     0
  9
$SPLINETYPE
 70
     6
  9
$SPLINESEGS
 70
     8
  9
$HANDSEED
  5
2DD
  9
$SURFTAB1
 70
     6
  9
$SURFTAB2
 70
     6
  9
$SURFTYPE
 70
     6
  9
$SURFU
 70
     6
  9
$SURFV
 70
     6
  9
$UCSBASE
  2

  9
$UCSNAME
  2

  9
$UCSORG
 10
0.0
 20
0.0
 30
0.0
  9
$UCSXDIR
 10
1.0
 20
0.0
 30
0.0
  9
$UCSYDIR
 10
0.0
 20
1.0
 30
0.0
  9
$UCSORTHOREF
  2

  9
$UCSORTHOVIEW
 70
     0
  9
$UCSORGTOP
 10
0.0
 20
0.0
 30
0.0
  9
$UCSORGBOTTOM
 10
0.0
 20
0.0
 30
0.0
  9
$UCSORGLEFT
 10
0.0
 20
0.0
 30
0.0
  9
$UCSORGRIGHT
 10
0.0
 20
0.0
 30
0.0
  9
$UCSORGFRONT
 10
0.0
 20
0.0
 30
0.0
  9
$UCSORGBACK
 10
0.0
 20
0.0
 30
0.0
  9
$PUCSBASE
  2

  9
$PUCSNAME
  2

  9
$PUCSORG
 10
0.0
 20
0.0
 30
0.0
  9
$PUCSXDIR
 10
1.0
 20
0.0
 30
0.0
  9
$PUCSYDIR
 10
0.0
 20
1.0
 30
0.0
  9
$PUCSORTHOREF
  2

  9
$PUCSORTHOVIEW
 70
     0
  9
$PUCSORGTOP
 10
0.0
 20
0.0
 30
0.0
  9
$PUCSORGBOTTOM
 10
0.0
 20
0.0
 30
0.0
  9
$PUCSORGLEFT
 10
0.0
 20
0.0
 30
0.0
  9
$PUCSORGRIGHT
 10
0.0
 20
0.0
 30
0.0
  9
$PUCSORGFRONT
 10
0.0
 20
0.0
 30
0.0
  9
$PUCSORGBACK
 10
0.0
 20
0.0
 30
0.0
  9
$USERI1
 70
     0
  9
$USERI2
 70
     0
  9
$USERI3
 70
     0
  9
$USERI4
 70
     0
  9
$USERI5
 70
     0
  9
$USERR1
 40
18.1
  9
$USERR2
 40
0.0
  9
$USERR3
 40
0.0
  9
$USERR4
 40
0.0
  9
$USERR5
 40
0.0
  9
$WORLDVIEW
 70
     1
  9
$SHADEDGE
 70
     3
  9
$SHADEDIF
 70
    70
  9
$TILEMODE
 70
     1
  9
$MAXACTVP
 70
    64
  9
$PINSBASE
 10
0.0
 20
0.0
 30
0.0
  9
$PLIMCHECK
 70
     0
  9
$PEXTMIN
 10
1.00000000000000E+20
 20
1.00000000000000E+20
 30
1.00000000000000E+20
  9
$PEXTMAX
 10
-1.00000000000000E+20
 20
-1.00000000000000E+20
 30
-1.00000000000000E+20
  9
$PLIMMIN
 10
0.0
 20
0.0
  9
$PLIMMAX
 10
12.0
 20
9.0
  9
$UNITMODE
 70
     0
  9
$VISRETAIN
 70
     1
  9
$PLINEGEN
 70
     0
  9
$PSLTSCALE
 70
     1
  9
$TREEDEPTH
 70
  3020
  9
$CMLSTYLE
  2
Standard
  9
$CMLJUST
 70
     0
  9
$CMLSCALE
 40
1.0
  9
$PROXYGRAPHICS
 70
     1
  9
$MEASUREMENT
 70
     1
  9
$CELWEIGHT
370
    -1
  9
$ENDCAPS
280
     0
  9
$JOINSTYLE
280
     0
  9
$LWDISPLAY
290
     0
  9
$INSUNITS
 70
     4
  9
$HYPERLINKBASE
  1

  9
$STYLESHEET
  1

  9
$XEDIT
290
     1
  9
$CEPSNTYPE
380
     0
  9
$PSTYLEMODE
290
     1
  9
$FINGERPRINTGUID
  2
{085DF0A0-C062-4F4C-9237-71F07284874D}
  9
$VERSIONGUID
  2
{FAEB1C32-E019-11D5-929B-00C0DF256EC4}
  9
$EXTNAMES
290
     1
  9
$PSVPSCALE
 40
0.0
  9
$OLESTARTUP
290
     0
  0
ENDSEC
  0
SECTION
  2
CLASSES
  0
CLASS
  1
ACDBDICTIONARYWDFLT
  2
AcDbDictionaryWithDefault
  3
ObjectDBX Classes
 90
        0
280
     0
281
     0
  0
CLASS
  1
VISUALSTYLE
  2
AcDbVisualStyle
  3
ObjectDBX Classes
 90
     4095
280
     0
281
     0
  0
CLASS
  1
MATERIAL
  2
AcDbMaterial
  3
ObjectDBX Classes
 90
     1153
280
     0
281
     0
  0
CLASS
  1
DICTIONARYVAR
  2
AcDbDictionaryVar
  3
ObjectDBX Classes
 90
        0
280
     0
281
     0
  0
CLASS
  1
ACDBPLACEHOLDER
  2
AcDbPlaceHolder
  3
ObjectDBX Classes
 90
        0
280
     0
281
     0
  0
CLASS
  1
LAYOUT
  2
AcDbLayout
  3
ObjectDBX Classes
 90
        0
280
     0
281
     0
  0
ENDSEC
  0
SECTION
  2
TABLES
  0
TABLE
  2
VPORT
  5
8
330
0
100
AcDbSymbolTable
 70
     1
  0
VPORT
  5
29
330
8
100
AcDbSymbolTableRecord
100
AcDbViewportTableRecord
  2
*Active
 70
     0
 10
0.0
 20
0.0
 11
1.0
 21
1.0
 12
315.0
 22
445.5
 13
0.0
 23
0.0
 14
0.5
 24
0.5
 15
0.5
 25
0.5
 16
0.0
 26
0.0
 36
1.0
 17
0.0
 27
0.0
 37
0.0
 40
980.1
 41
1.60267857142857
 42
50.0
 43
0.0
 44
0.0
 50
0.0
 51
0.0
 71
     0
 72
   100
 73
     1
 74
     3
 75
     0
 76
     0
 77
     0
 78
     0
281
     0
 65
     1
110
0.0
120
0.0
130
0.0
111
1.0
121
0.0
131
0.0
112
0.0
122
1.0
132
0.0
 79
     0
146
0.0
  0
ENDTAB
  0
TABLE
  2
LTYPE
  5
5
330
0
100
AcDbSymbolTable
 70
     8
  0
LTYPE
  5
14
330
5
100
AcDbSymbolTableRecord
100
AcDbLinetypeTableRecord
  2
ByBlock
 70
     0
  3

 72
    65
 73
     0
 40
0.0
  0
LTYPE
  5
15
330
5
100
AcDbSymbolTableRecord
100
AcDbLinetypeTableRecord
  2
ByLayer
 70
     0
  3

 72
    65
 73
     0
 40
0.0
  0
LTYPE
  5
16
330
5
100
AcDbSymbolTableRecord
100
AcDbLinetypeTableRecord
  2
Continuous
 70
     0
  3
Solid line
 72
    65
 73
     0
 40
0.0
  0
LTYPE
  5
3F
330
5
100
AcDbSymbolTableRecord
100
AcDbLinetypeTableRecord
  2
DASHED
 70
     0
  3
Dashed
 72
    65
 73
     2
 40
15.0
 49
7.0
 74
     0
 49
-8.0
 74
     0
  0
LTYPE
  5
40
330
5
100
AcDbSymbolTableRecord
100
AcDbLinetypeTableRecord
  2
DOTTED
 70
     0
  3
Dotted
 72
    65
 73
     2
 40
1.0
 49
0.0
 74
     0
 49
-1.0
 74
     0
  0
LTYPE
  5
41
330
5
100
AcDbSymbolTableRecord
100
AcDbLinetypeTableRecord
  2
DOT_CENTER
 70
     0
  3
Dot_Center
 72
    65
 73
     4
 40
14.0
 49
12.0
 74
     0
 49
-1.0
 74
     0
 49
0.0
 74
     0
 49
-1.0
 74
     0
  0
LTYPE
  5
42
330
5
100
AcDbSymbolTableRecord
100
AcDbLinetypeTableRecord
  2
LONG_DASHED
 70
     0
  3
Long_Dashed
 72
    65
 73
     2
 40
15.0
 49
10.0
 74
     0
 49
-5.0
 74
     0
  0
LTYPE
  5
43
330
5
100
AcDbSymbolTableRecord
100
AcDbLinetypeTableRecord
  2
DASH_CENTER
 70
     0
  3
Dash_Center
 72
    65
 73
     4
 40
14.0
 49
11.0
 74
     0
 49
-1.0
 74
     0
 49
1.0
 74
     0
 49
-1.0
 74
     0
  0
LTYPE
  5
44
330
5
100
AcDbSymbolTableRecord
100
AcDbLinetypeTableRecord
  2
PHANTOM
 70
     0
  3
Phantom
 72
    65
 73
     6
 40
13.0
 49
10.0
 74
     0
 49
-1.0
 74
     0
 49
0.0
 74
     0
 49
-1.0
 74
     0
 49
0.0
 74
     0
 49
-1.0
 74
     0
  0
LTYPE
  5
45
330
5
100
AcDbSymbolTableRecord
100
AcDbLinetypeTableRecord
  2
CENTER_DASH_DASH
 70
     0
  3
Center_Dash_Dash
 72
    65
 73
     6
 40
14.0
 49
9.0
 74
     0
 49
-1.0
 74
     0
 49
1.0
 74
     0
 49
-1.0
 74
     0
 49
1.0
 74
     0
 49
-1.0
 74
     0
  0
ENDTAB
  0
TABLE
  2
LAYER
  5
2
330
0
100
AcDbSymbolTable
 70
     2
  0
LAYER
  5
10
330
2
100
AcDbSymbolTableRecord
100
AcDbLayerTableRecord
  2
0
 70
     0
 62
     7
  6
Continuous
370
    -3
390
F
  0
LAYER
  5
46
330
2
100
AcDbSymbolTableRecord
100
AcDbLayerTableRecord
  2
1
 70
     0
 62
     7
  6
Continuous
370
    -3
390
F
  0
ENDTAB
  0
TABLE
  2
STYLE
  5
3
330
0
100
AcDbSymbolTable
 70
     4
  0
STYLE
  5
11
330
3
100
AcDbSymbolTableRecord
100
AcDbTextStyleTableRecord
  2
Standard
 70
     0
 40
0.0
 41
1.0
 50
0.0
 71
     0
 42
0.2
  3
txt
  4

  0
STYLE
  5
21C
330
3
100
AcDbSymbolTableRecord
100
AcDbTextStyleTableRecord
  2
CONVERTER_11
 70
     0
 40
0.0
 41
0.89
 50
0.0
 71
     0
 42
0.2
  3
MS Mincho.ttf
  4

1001
ACAD
1000
MS Mincho
1071
    32785
  0
STYLE
  5
242
330
3
100
AcDbSymbolTableRecord
100
AcDbTextStyleTableRecord
  2
CONVERTER_12
 70
     0
 40
0.0
 41
0.9
 50
0.0
 71
     0
 42
0.2
  3
txt.shx
  4

  0
STYLE
  5
280
330
3
100
AcDbSymbolTableRecord
100
AcDbTextStyleTableRecord
  2
CONVERTER_13
 70
     0
 40
0.0
 41
0.801
 50
0.0
 71
     0
 42
0.2
  3
MS Mincho.ttf
  4

1001
ACAD
1000
MS Mincho
1071
    32785
  0
ENDTAB
  0
TABLE
  2
VIEW
  5
6
330
0
100
AcDbSymbolTable
 70
     0
  0
ENDTAB
  0
TABLE
  2
UCS
  5
7
330
0
100
AcDbSymbolTable
 70
     0
  0
ENDTAB
  0
TABLE
  2
APPID
  5
9
330
0
100
AcDbSymbolTable
 70
     1
  0
APPID
  5
12
330
9
100
AcDbSymbolTableRecord
100
AcDbRegAppTableRecord
  2
ACAD
 70
     0
  0
ENDTAB
  0
TABLE
  2
DIMSTYLE
  5
A
330
0
100
AcDbSymbolTable
 70
    10
100
AcDbDimStyleTable
  0
DIMSTYLE
105
27
330
A
100
AcDbSymbolTableRecord
100
AcDbDimStyleTableRecord
  2
Standard
 70
     0
178
     0
340
11
  0
DIMSTYLE
105
253
102
{ACAD_REACTORS
330
254
102
}
330
A
100
AcDbSymbolTableRecord
100
AcDbDimStyleTableRecord
  2
ME10_DIM_10
 70
     0
 41
10.5
 42
0.0
 44
3.0
 73
     0
 74
     0
 77
     1
 78
     8
140
10.5
147
3.0
172
     1
173
     1
174
     1
175
     1
176
     2
177
     2
271
     2
178
     7
271
     2
340
242
  0
DIMSTYLE
105
25E
102
{ACAD_REACTORS
330
25F
102
}
330
A
100
AcDbSymbolTableRecord
100
AcDbDimStyleTableRecord
  2
ME10_DIM_11
 70
     0
 41
10.5
 42
0.0
 44
3.0
 77
     1
 78
     8
140
10.5
147
3.0
172
     1
173
     1
174
     1
175
     1
176
     2
177
     2
271
     2
178
     7
271
     2
340
242
  0
DIMSTYLE
105
269
102
{ACAD_REACTORS
330
26A
102
}
330
A
100
AcDbSymbolTableRecord
100
AcDbDimStyleTableRecord
  2
ME10_DIM_12
 70
     0
 41
10.5
 42
0.0
 44
3.0
 77
     1
 78
     8
140
10.5
147
3.0
172
     1
173
     1
174
     1
175
     1
176
     2
177
     2
271
     2
178
     7
271
     2
340
242
  0
DIMSTYLE
105
277
102
{ACAD_REACTORS
330
278
102
}
330
A
100
AcDbSymbolTableRecord
100
AcDbDimStyleTableRecord
  2
ME10_DIM_13
 70
     0
 41
10.5
 42
0.0
 44
3.0
 73
     0
 74
     0
 77
     1
 78
     8
140
10.5
147
3.0
172
     1
173
     1
174
     1
175
     1
176
     2
177
     2
271
     2
178
     7
271
     2
340
242
344
274
  0
DIMSTYLE
105
284
102
{ACAD_REACTORS
330
285
102
}
330
A
100
AcDbSymbolTableRecord
100
AcDbDimStyleTableRecord
  2
ME10_DIM_14
 70
     0
 41
10.5
 42
0.0
 44
3.0
 73
     0
 74
     0
 77
     1
 78
     8
140
10.5
147
3.0
172
     1
173
     1
174
     1
175
     1
176
     2
177
     2
271
     1
178
     7
271
     1
340
280
  0
DIMSTYLE
105
28F
102
{ACAD_REACTORS
330
290
102
}
330
A
100
AcDbSymbolTableRecord
100
AcDbDimStyleTableRecord
  2
ME10_DIM_15
 70
     0
  3
{\Fgdt;n}<>
 41
10.5
 42
0.0
 44
3.0
 73
     0
 74
     0
 77
     1
 78
     8
140
10.5
147
3.0
172
     1
173
     1
174
     1
175
     1
176
     2
177
     2
271
     2
178
     7
271
     2
340
242
  0
DIMSTYLE
105
29A
102
{ACAD_REACTORS
330
29B
102
}
330
A
100
AcDbSymbolTableRecord
100
AcDbDimStyleTableRecord
  2
ME10_DIM_16
 70
     0
 41
10.5
 42
0.0
 44
3.0
 73
     0
 74
     0
 77
     1
 78
     8
140
10.5
147
3.0
172
     1
173
     1
174
     1
175
     1
176
     2
177
     2
271
     2
178
     7
271
     2
340
242
  0
DIMSTYLE
105
2A5
102
{ACAD_REACTORS
330
2A6
102
}
330
A
100
AcDbSymbolTableRecord
100
AcDbDimStyleTableRecord
  2
ME10_DIM_17
 70
     0
 41
10.5
 42
0.0
 44
3.0
 77
     1
 78
     8
140
10.5
147
3.0
172
     1
173
     1
174
     1
175
     1
176
     2
177
     2
271
     2
178
     7
271
     2
340
242
  0
DIMSTYLE
105
2B0
102
{ACAD_REACTORS
330
2B1
102
}
330
A
100
AcDbSymbolTableRecord
100
AcDbDimStyleTableRecord
  2
ME10_DIM_18
 70
     0
 41
10.5
 42
0.0
 44
3.0
 73
     0
 74
     0
 77
     1
 78
     8
140
10.5
147
3.0
172
     1
173
     1
174
     1
175
     1
176
     2
177
     2
271
     2
178
     7
271
     2
340
242
  0
ENDTAB
  0
TABLE
  2
BLOCK_RECORD
  5
1
330
0
100
AcDbSymbolTable
 70
    22
  0
BLOCK_RECORD
  5
1F
330
1
100
AcDbSymbolTableRecord
100
AcDbBlockTableRecord
  2
*Model_Space
340
22
  0
BLOCK_RECORD
  5
1B
330
1
100
AcDbSymbolTableRecord
100
AcDbBlockTableRecord
  2
*Paper_Space
340
1E
  0
BLOCK_RECORD
  5
23
330
1
100
AcDbSymbolTableRecord
100
AcDbBlockTableRecord
  2
*Paper_Space0
340
26
  0
BLOCK_RECORD
  5
47
330
1
100
AcDbSymbolTableRecord
100
AcDbBlockTableRecord
  2
32-1-16
340
0
102
{BLKREFS
331
6E
102
}
  0
BLOCK_RECORD
  5
4A
330
1
100
AcDbSymbolTableRecord
100
AcDbBlockTableRecord
  2
04-12-C4K
340
0
102
{BLKREFS
331
51
102
}
  0
BLOCK_RECORD
  5
4D
330
1
100
AcDbSymbolTableRecord
100
AcDbBlockTableRecord
  2
60-5
340
0
102
{BLKREFS
331
52
102
}
  0
BLOCK_RECORD
  5
50
330
1
100
AcDbSymbolTableRecord
100
AcDbBlockTableRecord
  2
60-5X-M2
340
0
102
{BLKREFS
331
6F
102
}
  0
BLOCK_RECORD
  5
55
330
1
100
AcDbSymbolTableRecord
100
AcDbBlockTableRecord
  2
37-1-13
340
0
102
{BLKREFS
331
62
102
}
  0
BLOCK_RECORD
  5
58
330
1
100
AcDbSymbolTableRecord
100
AcDbBlockTableRecord
  2
36-1A-13
340
0
102
{BLKREFS
331
63
102
}
  0
BLOCK_RECORD
  5
5B
330
1
100
AcDbSymbolTableRecord
100
AcDbBlockTableRecord
  2
51-1
340
0
102
{BLKREFS
331
64
102
}
  0
BLOCK_RECORD
  5
5E
330
1
100
AcDbSymbolTableRecord
100
AcDbBlockTableRecord
  2
42-1
340
0
102
{BLKREFS
331
65
102
}
  0
BLOCK_RECORD
  5
61
330
1
100
AcDbSymbolTableRecord
100
AcDbBlockTableRecord
  2
R10AK-13-B
340
0
102
{BLKREFS
331
70
102
}
  0
BLOCK_RECORD
  5
68
330
1
100
AcDbSymbolTableRecord
100
AcDbBlockTableRecord
  2
A10-0A-13
340
0
102
{BLKREFS
331
71
102
}
  0
BLOCK_RECORD
  5
6B
330
1
100
AcDbSymbolTableRecord
100
AcDbBlockTableRecord
  2
開示A4
340
0
102
{BLKREFS
331
72
102
}
  0
BLOCK_RECORD
  5
249
330
1
100
AcDbSymbolTableRecord
100
AcDbBlockTableRecord
  2
*D12
340
0
  0
BLOCK_RECORD
  5
255
330
1
100
AcDbSymbolTableRecord
100
AcDbBlockTableRecord
  2
*D13
340
0
  0
BLOCK_RECORD
  5
260
330
1
100
AcDbSymbolTableRecord
100
AcDbBlockTableRecord
  2
*D14
340
0
  0
BLOCK_RECORD
  5
26B
330
1
100
AcDbSymbolTableRecord
100
AcDbBlockTableRecord
  2
*D15
340
0
  0
BLOCK_RECORD
  5
274
330
1
100
AcDbSymbolTableRecord
100
AcDbBlockTableRecord
  2
_NONE
340
0
  0
BLOCK_RECORD
  5
279
330
1
100
AcDbSymbolTableRecord
100
AcDbBlockTableRecord
  2
*D17
340
0
  0
BLOCK_RECORD
  5
286
330
1
100
AcDbSymbolTableRecord
100
AcDbBlockTableRecord
  2
*D18
340
0
  0
BLOCK_RECORD
  5
291
330
1
100
AcDbSymbolTableRecord
100
AcDbBlockTableRecord
  2
*D19
340
0
  0
BLOCK_RECORD
  5
29C
330
1
100
AcDbSymbolTableRecord
100
AcDbBlockTableRecord
  2
*D20
340
0
  0
BLOCK_RECORD
  5
2A7
330
1
100
AcDbSymbolTableRecord
100
AcDbBlockTableRecord
  2
*D21
340
0
  0
ENDTAB
  0
ENDSEC
  0
SECTION
  2
BLOCKS
  0
BLOCK
  5
20
330
1F
100
AcDbEntity
  8
0
100
AcDbBlockBegin
  2
*Model_Space
 70
     0
 10
0.0
 20
0.0
 30
0.0
  3
*Model_Space
  1

  0
ENDBLK
  5
21
330
1F
100
AcDbEntity
  8
0
100
AcDbBlockEnd
  0
BLOCK
  5
1C
330
1B
100
AcDbEntity
 67
     1
  8
0
100
AcDbBlockBegin
  2
*Paper_Space
 70
     0
 10
0.0
 20
0.0
 30
0.0
  3
*Paper_Space
  1

  0
ENDBLK
  5
1D
330
1B
100
AcDbEntity
 67
     1
  8
0
100
AcDbBlockEnd
  0
BLOCK
  5
24
330
23
100
AcDbEntity
  8
0
100
AcDbBlockBegin
  2
*Paper_Space0
 70
     0
 10
0.0
 20
0.0
 30
0.0
  3
*Paper_Space0
  1

  0
ENDBLK
  5
25
330
23
100
AcDbEntity
  8
0
100
AcDbBlockEnd
  0
BLOCK
  5
48
330
47
100
AcDbEntity
  8
0
100
AcDbBlockBegin
  2
32-1-16
 70
     0
 10
672.3059331461816
 20
352.5691148858407
 30
0.0
  3
32-1-16
  1

  0
LINE
  5
73
330
47
100
AcDbEntity
  8
1
  6
Continuous
 62
     7
100
AcDbLine
 10
151.9423414326839
 20
228.2636972139014
 30
0.0
 11
153.7102906251151
 21
228.2636972139014
 31
0.0
  0
LINE
  5
74
330
47
100
AcDbEntity
  8
1
  6
Continuous
 62
     7
100
AcDbLine
 10
135.9423414326839
 20
238.2636972139014
 30
0.0
 11
130.6423414326839
 21
238.2636972139014
 31
0.0
  0
LINE
  5
75
330
47
100
AcDbEntity
  8
1
  6
Continuous
 62
     7
100
AcDbLine
 10
157.942341432684
 20
230.5505199641884
 30
0.0
 11
157.942341432684
 21
237.6919483927313
 31
0.0
  0
LINE
  5
76
330
47
100
AcDbEntity
  8
1
  6
Continuous
 62
     7
100
AcDbLine
 10
157.242341432684
 20
238.2636972139014
 30
0.0
 11
151.9423414326839
 21
238.2636972139014
 31
0.0
  0
LINE
  5
77
330
47
100
AcDbEntity
  8
1
  6
Continuous
 62
     7
100
AcDbLine
 10
155.5003624944147
 20
229.2636972139014
 30
0.0
 11
155.442341432684
 21
229.2636972139014
 31
0.0
  0
LINE
  5
78
330
47
100
AcDbEntity
  8
1
  6
Continuous
 62
     7
100
AcDbLine
 10
129.942341432684
 20
237.6919483927313
 30
0.0
 11
129.942341432684
 21
230.5505199641884
 31
0.0
  0
LINE
  5
79
330
47
100
AcDbEntity
  8
1
  6
Continuous
 62
     7
100
AcDbLine
 10
132.4423414326839
 20
229.2636972139014
 30
0.0
 11
132.3843203709533
 21
229.2636972139014
 31
0.0
  0
LINE
  5
7A
330
47
100
AcDbEntity
  8
1
  6
Continuous
 62
     7
100
AcDbLine
 10
134.1743922402526
 20
228.2636972139014
 30
0.0
 11
135.9423414326839
 21
228.2636972139014
 31
0.0
  0
LINE
  5
7B
330
47
100
AcDbEntity
  8
1
  6
Continuous
 62
     7
100
AcDbLine
 10
451.2586963979786
 20
238.2636972139018
 30
0.0
 11
437.9586963979787
 21
238.2636972139018
 31
0.0
  0
LINE
  5
7C
330
47
100
AcDbEntity
  8
1
  6
Continuous
 62
     7
100
AcDbLine
 10
451.1456963979786
 20
238.2636972139018
 30
0.0
 11
451.2586963979786
 21
238.2636972139018
 31
0.0
  0
LINE
  5
7D
330
47
100
AcDbEntity
  8
1
  6
Continuous
 62
     7
100
AcDbLine
 10
449.5167174597092
 20
229.2636972139018
 30
0.0
 11
449.4586963979787
 21
229.2636972139014
 31
0.0
  0
LINE
  5
7E
330
47
100
AcDbEntity
  8
1
  6
Continuous
 62
     7
100
AcDbLine
 10
437.9586963979787
 20
228.2636972139018
 30
0.0
 11
447.7266455904098
 21
228.2636972139018
 31
0.0
  0
LINE
  5
7F
330
47
100
AcDbEntity
  8
1
  6
Continuous
 62
     7
100
AcDbLine
 10
437.9586963979787
 20
238.2636972139018
 30
0.0
 11
424.6586963979786
 21
238.2636972139018
 31
0.0
  0
LINE
  5
80
330
47
100
AcDbEntity
  8
1
  6
Continuous
 62
     7
100
AcDbLine
 10
424.6586963979786
 20
238.2636972139018
 30
0.0
 11
424.7716963979785
 21
238.2636972139018
 31
0.0
  0
LINE
  5
81
330
47
100
AcDbEntity
  8
1
  6
Continuous
 62
     7
100
AcDbLine
 10
426.4586963979787
 20
229.2636972139014
 30
0.0
 11
426.400675336248
 21
229.2636972139018
 31
0.0
  0
LINE
  5
82
330
47
100
AcDbEntity
  8
1
  6
Continuous
 62
     7
100
AcDbLine
 10
428.1907472055475
 20
228.2636972139018
 30
0.0
 11
437.9586963979787
 21
228.2636972139018
 31
0.0
  0
LINE
  5
83
330
47
100
AcDbEntity
  8
1
  6
Continuous
 62
     7
100
AcDbLine
 10
129.9423414326842
 20
654.1116298660764
 30
0.0
 11
129.9423414326842
 21
667.4157645617265
 31
0.0
  0
LINE
  5
84
330
47
100
AcDbEntity
  8
1
  6
Continuous
 62
     7
100
AcDbLine
 10
142.7032007435855
 20
645.3133078870069
 30
0.0
 11
131.1814821217828
 21
651.9653752348318
 31
0.0
  0
LINE
  5
85
330
47
100
AcDbEntity
  8
1
  6
Continuous
 62
     7
100
AcDbLine
 10
156.7032007435856
 20
651.9653752348318
 30
0.0
 11
145.1814821217826
 21
645.313307887007
 31
0.0
  0
LINE
  5
86
330
47
100
AcDbEntity
  8
1
  6
Continuous
 62
     7
100
AcDbLine
 10
157.942341432684
 20
654.1116298660764
 30
0.0
 11
157.942341432684
 21
667.4157645617265
 31
0.0
  0
LINE
  5
87
330
47
100
AcDbEntity
  8
1
  6
Continuous
 62
     7
100
AcDbLine
 10
131.1814821217828
 20
669.5620191929712
 30
0.0
 11
134.1900456295443
 21
671.2990141440516
 31
0.0
  0
LINE
  5
88
330
47
100
AcDbEntity
  8
1
  6
Continuous
 62
     7
100
AcDbLine
 10
153.6946372358237
 20
671.2990141440515
 30
0.0
 11
156.7032007435856
 21
669.5620191929712
 31
0.0
  0
ARC
  5
89
330
47
100
AcDbEntity
  8
1
  6
Continuous
 62
     7
100
AcDbCircle
 10
154.442341432684
 20
234.1212341784598
 30
0.0
 40
5.000000000000057
100
AcDbArc
 50
45.57299599919494
 51
55.94420225743234
  0
ARC
  5
8A
330
47
100
AcDbEntity
  8
1
  6
Continuous
 62
     7
100
AcDbCircle
 10
154.442341432684
 20
234.1212341784598
 30
0.0
 40
4.999999999999905
100
AcDbArc
 50
285.3375576695557
 51
314.427004000806
  0
ARC
  5
8B
330
47
100
AcDbEntity
  8
1
  6
Continuous
 62
     7
100
AcDbCircle
 10
133.4423414326839
 20
234.1212341784598
 30
0.0
 40
5.000000000000001
100
AcDbArc
 50
124.0557977425677
 51
134.4270040008041
  0
ARC
  5
8C
330
47
100
AcDbEntity
  8
1
  6
Continuous
 62
     7
100
AcDbCircle
 10
133.4423414326839
 20
234.1212341784598
 30
0.0
 40
4.999999999999896
100
AcDbArc
 50
225.5729959991949
 51
254.6624423304421
  0
ARC
  5
8D
330
47
100
AcDbEntity
  8
1
  6
Continuous
 62
     7
100
AcDbCircle
 10
448.4586963979787
 20
234.1212341784602
 30
0.0
 40
4.999999999999955
100
AcDbArc
 50
285.3375576695528
 51
55.94420225743296
  0
ARC
  5
8E
330
47
100
AcDbEntity
  8
1
  6
Continuous
 62
     7
100
AcDbCircle
 10
427.4586963979787
 20
234.1212341784602
 30
0.0
 40
5.000000000000057
100
AcDbArc
 50
124.0557977425692
 51
254.6624423304446
  0
ARC
  5
8F
330
47
100
AcDbEntity
  8
1
  6
Continuous
 62
     7
100
AcDbCircle
 10
143.942341432684
 20
660.7636972139015
 30
0.0
 40
15.49999999999981
100
AcDbArc
 50
145.4146209151603
 51
154.5853790848389
  0
ARC
  5
90
330
47
100
AcDbEntity
  8
1
  6
Continuous
 62
     7
100
AcDbCircle
 10
143.942341432684
 20
660.7636972139015
 30
0.0
 40
15.49999999999985
100
AcDbArc
 50
205.4146209151615
 51
214.5853790848401
  0
ARC
  5
91
330
47
100
AcDbEntity
  8
1
  6
Continuous
 62
     7
100
AcDbCircle
 10
143.942341432684
 20
660.7636972139015
 30
0.0
 40
15.49999999999999
100
AcDbArc
 50
265.4146209151612
 51
274.5853790848392
  0
ARC
  5
92
330
47
100
AcDbEntity
  8
1
  6
Continuous
 62
     7
100
AcDbCircle
 10
143.942341432684
 20
660.7636972139015
 30
0.0
 40
15.5000000000002
100
AcDbArc
 50
325.4146209151608
 51
334.5853790848388
  0
ARC
  5
93
330
47
100
AcDbEntity
  8
1
  6
Continuous
 62
     7
100
AcDbCircle
 10
143.942341432684
 20
660.7636972139015
 30
0.0
 40
15.49999999999998
100
AcDbArc
 50
25.4146209151608
 51
34.58537908483888
  0
SPLINE
  5
94
330
47
100
AcDbEntity
  8
1
  6
Continuous
 62
     7
100
AcDbSpline
210
0.0
220
0.0
230
1.0
 70
    11
 71
     3
 72
    79
 73
    75
 74
    73
 42
0.000000001
 43
0.0000000001
 44
0.00000001
 40
0.0
 40
0.0
 40
0.0
 40
0.0
 40
0.2903672471831554
 40
0.5807357518971383
 40
0.8724070977358422
 40
1.164081911023903
 40
1.45818992452221
 40
1.752302920472752
 40
2.049663201046314
 40
2.347029106415333
 40
2.648045786115809
 40
2.949067936325127
 40
3.253697746552197
 40
3.558332275329851
 40
3.866104857779911
 40
4.173881019539908
 40
4.483966061108216
 40
4.794053321447459
 40
5.105362217358485
 40
5.416671863434635
 40
5.727981509499957
 40
6.039290405378514
 40
6.349377665663489
 40
6.6594627071552
 40
6.967238868816463
 40
7.275011451144428
 40
7.579645979777155
 40
7.884275789834155
 40
8.185297939849438
 40
8.486314619328207
 40
8.783680524448757
 40
9.08104080474082
 40
9.375153800374099
 40
9.66926181350209
 40
9.960936626337077
 40
10.2526079715238
 40
10.54297647485847
 40
10.83334373090396
 40
11.12371098694956
 40
11.41407949028435
 40
11.70575083547114
 40
11.99742564830606
 40
12.29153366143414
 40
12.58564665706739
 40
12.88300693735945
 40
13.18037284247996
 40
13.48138952195879
 40
13.78241167197405
 40
14.08704148203105
 40
14.39167601066372
 40
14.69944859299165
 40
15.00722475465295
 40
15.31730979614468
 40
15.62739705642963
 40
15.93870595230819
 40
16.25001559837351
 40
16.56132524444967
 40
16.87263414036069
 40
17.18272140069994
 40
17.49280644226824
 40
17.80058260402822
 40
18.10835518647831
 40
18.41298971525593
 40
18.71761952548297
 40
19.01864167569225
 40
19.31965835539281
 40
19.61702426076178
 40
19.91438454133535
 40
20.20849753728588
 40
20.50260555078425
 40
20.79428036407225
 40
21.08595170991101
 40
21.3763202146251
 40
21.66668746180837
 40
21.66668746180837
 40
21.66668746180837
 40
21.66668746180837
 10
425.8343407449964
 20
230.5505199641888
 30
0.0
 10
425.7375169382867
 20
230.5531515615094
 30
0.0
 10
425.543868905371
 20
230.5584147623278
 30
0.0
 10
425.2555080290644
 20
230.60070983451
 30
0.0
 10
424.971795885085
 20
230.6679207270031
 30
0.0
 10
424.6943708222994
 20
230.7619758922725
 30
0.0
 10
424.4260499109183
 20
230.8814073499561
 30
0.0
 10
424.1680501475473
 20
231.0256828454424
 30
0.0
 10
423.9232481442912
 20
231.1932869206454
 30
0.0
 10
423.6925519192288
 20
231.3834494748052
 30
0.0
 10
423.4786562119522
 20
231.5940721951169
 30
0.0
 10
423.2822826693726
 20
231.8242938109485
 30
0.0
 10
423.1057333242094
 20
232.0715302343465
 30
0.0
 10
422.9496305275389
 20
232.3347644085932
 30
0.0
 10
422.8157415129297
 20
232.6111279631751
 30
0.0
 10
422.7046134959264
 20
232.8993414070364
 30
0.0
 10
422.6174227359445
 20
233.1964798501895
 30
0.0
 10
422.554597129304
 20
233.5009030042211
 30
0.0
 10
422.516748579349
 20
233.8098396165135
 30
0.0
 10
422.5040863172106
 20
234.121234169088
 30
0.0
 10
422.5167485789874
 20
234.4326287216649
 30
0.0
 10
422.5545971285802
 20
234.7415653339734
 30
0.0
 10
422.6174227348562
 20
235.0459884880077
 30
0.0
 10
422.7046134944716
 20
235.343126931251
 30
0.0
 10
422.8157415111042
 20
235.631340374917
 30
0.0
 10
422.949630525339
 20
235.9077039304054
 30
0.0
 10
423.1057333216293
 20
236.1709381015272
 30
0.0
 10
423.2822826664064
 20
236.4181745367912
 30
0.0
 10
423.4786562085914
 20
236.6483961091677
 30
0.0
 10
423.6925519154642
 20
236.8590189909845
 30
0.0
 10
423.9232481401095
 20
237.0491809498616
 30
0.0
 10
424.1680501429315
 20
237.2167872334549
 30
0.0
 10
424.4260499058398
 20
237.3610545739163
 30
0.0
 10
424.6943708167122
 20
237.480516313255
 30
0.0
 10
424.9717958788674
 20
237.5744593603089
 30
0.0
 10
425.2555080219078
 20
237.6420873327461
 30
0.0
 10
425.5438689000896
 20
237.6828324575885
 30
0.0
 10
425.8343407449964
 20
237.6965063355136
 30
0.0
 10
426.1248125899034
 20
237.6828324575886
 30
0.0
 10
426.4131734680852
 20
237.6420873327462
 30
0.0
 10
426.6968856111256
 20
237.5744593603089
 30
0.0
 10
426.9743106732807
 20
237.480516313255
 30
0.0
 10
427.2426315841535
 20
237.3610545739165
 30
0.0
 10
427.5006313470613
 20
237.2167872334549
 30
0.0
 10
427.7454333498836
 20
237.0491809498616
 30
0.0
 10
427.9761295745287
 20
236.8590189909845
 30
0.0
 10
428.1900252814019
 20
236.6483961091677
 30
0.0
 10
428.3863988235866
 20
236.4181745367912
 30
0.0
 10
428.5629481683638
 20
236.1709381015271
 30
0.0
 10
428.7190509646538
 20
235.9077039304054
 30
0.0
 10
428.8529399788887
 20
235.6313403749171
 30
0.0
 10
428.9640679955214
 20
235.3431269312511
 30
0.0
 10
429.0512587551367
 20
235.0459884880077
 30
0.0
 10
429.1140843614127
 20
234.7415653339734
 30
0.0
 10
429.1519329110056
 20
234.4326287216649
 30
0.0
 10
429.1645951727823
 20
234.121234169088
 30
0.0
 10
429.1519329106439
 20
233.8098396165135
 30
0.0
 10
429.1140843606889
 20
233.5009030042211
 30
0.0
 10
429.0512587540485
 20
233.1964798501894
 30
0.0
 10
428.9640679940665
 20
232.8993414070365
 30
0.0
 10
428.8529399770634
 20
232.6111279631749
 30
0.0
 10
428.7190509624539
 20
232.3347644085933
 30
0.0
 10
428.5629481657838
 20
232.0715302343464
 30
0.0
 10
428.3863988206204
 20
231.8242938109486
 30
0.0
 10
428.1900252780409
 20
231.5940721951168
 30
0.0
 10
427.9761295707641
 20
231.3834494748052
 30
0.0
 10
427.7454333457019
 20
231.1932869206454
 30
0.0
 10
427.5006313424457
 20
231.0256828454423
 30
0.0
 10
427.2426315790747
 20
230.881407349956
 30
0.0
 10
426.9743106676936
 20
230.7619758922726
 30
0.0
 10
426.6968856049081
 20
230.6679207270031
 30
0.0
 10
426.4131734609286
 20
230.6007098345098
 30
0.0
 10
426.1248125846219
 20
230.5584147623279
 30
0.0
 10
425.931164551706
 20
230.5531515615093
 30
0.0
 10
425.8343407449964
 20
230.5505199641888
 30
0.0
 11
425.8343407449964
 21
230.5505199641888
 31
0.0
 11
425.5442929831984
 21
230.5641375770412
 31
0.0
 11
425.2567810586627
 21
230.6047671364548
 31
0.0
 11
424.9730437487941
 21
230.6723342342933
 31
0.0
 11
424.6967702311389
 21
230.765860380374
 31
0.0
 11
424.4280531690401
 21
230.8854039458117
 31
0.0
 11
424.1713239080402
 21
231.028904959247
 31
0.0
 11
423.9259066182581
 21
231.1968141319538
 31
0.0
 11
423.6964075100053
 21
231.3859083966517
 31
0.0
 11
423.4818529509685
 21
231.5970419624813
 31
0.0
 11
423.2864511314692
 21
231.8260233237949
 31
0.0
 11
423.109347726329
 21
232.0738815597924
 31
0.0
 11
422.9539110895457
 21
232.3358770713245
 31
0.0
 11
422.8196578609227
 21
232.6128247795914
 31
0.0
 11
422.7088914451355
 21
232.8999779911201
 31
0.0
 11
422.6215336896626
 21
233.1975033775674
 31
0.0
 11
422.5588369961478
 21
233.5011861621826
 31
0.0
 11
422.5209545761787
 21
233.810181552055
 31
0.0
 11
422.508307071084
 21
234.1212341784602
 31
0.0
 11
422.5209545761787
 21
234.4322868048654
 31
0.0
 11
422.5588369961478
 21
234.7412821947379
 31
0.0
 11
422.6215336896626
 21
235.0449649793531
 31
0.0
 11
422.7088914451355
 21
235.3424903658003
 31
0.0
 11
422.8196578609227
 21
235.6296435773289
 31
0.0
 11
422.9539110895457
 21
235.9065912855959
 31
0.0
 11
423.109347726329
 21
236.1685867971281
 31
0.0
 11
423.2864511314692
 21
236.4164450331255
 31
0.0
 11
423.4818529509685
 21
236.6454263944392
 31
0.0
 11
423.6964075100053
 21
236.8565599602688
 31
0.0
 11
423.9259066182581
 21
237.0456542249668
 31
0.0
 11
424.1713239080402
 21
237.2135633976735
 31
0.0
 11
424.4280531690402
 21
237.3570644111087
 31
0.0
 11
424.6967702311389
 21
237.4766079765464
 31
0.0
 11
424.9730437487941
 21
237.5701341226271
 31
0.0
 11
425.2567810586627
 21
237.6377012204656
 31
0.0
 11
425.5442929831984
 21
237.6783307798791
 31
0.0
 11
425.8343407449964
 21
237.6919483927316
 31
0.0
 11
426.1243885067945
 21
237.6783307798792
 31
0.0
 11
426.4119004313303
 21
237.6377012204656
 31
0.0
 11
426.6956377411989
 21
237.5701341226271
 31
0.0
 11
426.9719112588541
 21
237.4766079765464
 31
0.0
 11
427.2406283209529
 21
237.3570644111088
 31
0.0
 11
427.4973575819528
 21
237.2135633976735
 31
0.0
 11
427.742774871735
 21
237.0456542249668
 31
0.0
 11
427.9722739799877
 21
236.8565599602688
 31
0.0
 11
428.1868285390245
 21
236.6454263944392
 31
0.0
 11
428.3822303585238
 21
236.4164450331255
 31
0.0
 11
428.5593337636641
 21
236.1685867971281
 31
0.0
 11
428.7147704004472
 21
235.9065912855959
 31
0.0
 11
428.8490236290702
 21
235.6296435773289
 31
0.0
 11
428.9597900448574
 21
235.3424903658003
 31
0.0
 11
429.0471478003304
 21
235.044964979353
 31
0.0
 11
429.1098444938451
 21
234.7412821947379
 31
0.0
 11
429.1477269138143
 21
234.4322868048654
 31
0.0
 11
429.160374418909
 21
234.1212341784602
 31
0.0
 11
429.1477269138143
 21
233.810181552055
 31
0.0
 11
429.1098444938451
 21
233.5011861621826
 31
0.0
 11
429.0471478003304
 21
233.1975033775674
 31
0.0
 11
428.9597900448574
 21
232.8999779911201
 31
0.0
 11
428.8490236290703
 21
232.6128247795914
 31
0.0
 11
428.7147704004472
 21
232.3358770713245
 31
0.0
 11
428.5593337636641
 21
232.0738815597923
 31
0.0
 11
428.3822303585238
 21
231.8260233237949
 31
0.0
 11
428.1868285390246
 21
231.5970419624813
 31
0.0
 11
427.9722739799877
 21
231.3859083966517
 31
0.0
 11
427.7427748717349
 21
231.1968141319538
 31
0.0
 11
427.4973575819528
 21
231.028904959247
 31
0.0
 11
427.2406283209529
 21
230.8854039458118
 31
0.0
 11
426.9719112588541
 21
230.765860380374
 31
0.0
 11
426.6956377411989
 21
230.6723342342933
 31
0.0
 11
426.4119004313303
 21
230.6047671364548
 31
0.0
 11
426.1243885067945
 21
230.5641375770413
 31
0.0
 11
425.8343407449964
 21
230.5505199641888
 31
0.0
  0
SPLINE
  5
95
330
47
100
AcDbEntity
  8
1
  6
Continuous
 62
     7
100
AcDbSpline
210
0.0
220
0.0
230
1.0
 70
    11
 71
     3
 72
    79
 73
    75
 74
    73
 42
0.000000001
 43
0.0000000001
 44
0.00000001
 40
0.0
 40
0.0
 40
0.0
 40
0.0
 40
0.2903672471832122
 40
0.5807357518971389
 40
0.8724070977359113
 40
1.1640819110239
 40
1.458189924522207
 40
1.752302920472849
 40
2.049663201046505
 40
2.347029106415436
 40
2.648045786115952
 40
2.949067936325233
 40
3.25369774655227
 40
3.558332275329923
 40
3.866104857780034
 40
4.173881019540051
 40
4.483966061108375
 40
4.794053321447606
 40
5.105362217358632
 40
5.416671863434782
 40
5.727981509500106
 40
6.039290405378657
 40
6.349377665663621
 40
6.659462707155347
 40
6.967238868816611
 40
7.27501145114465
 40
7.579645979777377
 40
7.884275789834344
 40
8.185297939849628
 40
8.486314619328397
 40
8.783680524448947
 40
9.08104080474101
 40
9.375153800374289
 40
9.669261813502382
 40
9.960936626337316
 40
10.2526079715241
 40
10.54297647485872
 40
10.83334373090426
 40
11.1237109869498
 40
11.41407949028443
 40
11.70575083547116
 40
11.99742564830614
 40
12.29153366143427
 40
12.58564665706766
 40
12.88300693735973
 40
13.18037284248023
 40
13.48138952195902
 40
13.78241167197428
 40
14.08704148203125
 40
14.39167601066392
 40
14.69944859299191
 40
15.0072247546532
 40
15.31730979614495
 40
15.62739705642989
 40
15.93870595230845
 40
16.25001559837377
 40
16.56132524444991
 40
16.87263414036094
 40
17.18272140070021
 40
17.49280644226849
 40
17.80058260402849
 40
18.1083551864786
 40
18.41298971525622
 40
18.71761952548323
 40
19.01864167569255
 40
19.31965835539302
 40
19.61702426076195
 40
19.91438454133556
 40
20.20849753728624
 40
20.50260555078466
 40
20.79428036407267
 40
21.08595170991143
 40
21.37632021462535
 40
21.66668746180856
 40
21.66668746180856
 40
21.66668746180856
 40
21.66668746180856
 10
450.0830520509608
 20
230.5505199641888
 30
0.0
 10
450.1798758576705
 20
230.5531515615093
 30
0.0
 10
450.3735238905862
 20
230.5584147623278
 30
0.0
 10
450.661884766893
 20
230.60070983451
 30
0.0
 10
450.945596910872
 20
230.6679207270031
 30
0.0
 10
451.2230219736581
 20
230.7619758922726
 30
0.0
 10
451.4913428850388
 20
230.881407349956
 30
0.0
 10
451.7493426484101
 20
231.0256828454424
 30
0.0
 10
451.9941446516663
 20
231.1932869206453
 30
0.0
 10
452.2248408767285
 20
231.3834494748052
 30
0.0
 10
452.4387365840051
 20
231.5940721951168
 30
0.0
 10
452.6351101265847
 20
231.8242938109485
 30
0.0
 10
452.811659471748
 20
232.0715302343465
 30
0.0
 10
452.9677622684183
 20
232.3347644085933
 30
0.0
 10
453.1016512830279
 20
232.611127963175
 30
0.0
 10
453.2127793000309
 20
232.8993414070365
 30
0.0
 10
453.2999700600131
 20
233.1964798501895
 30
0.0
 10
453.3627956666533
 20
233.5009030042211
 30
0.0
 10
453.4006442166086
 20
233.8098396165135
 30
0.0
 10
453.4133064787467
 20
234.1212341690879
 30
0.0
 10
453.40064421697
 20
234.4326287216649
 30
0.0
 10
453.3627956673772
 20
234.7415653339733
 30
0.0
 10
453.2999700611012
 20
235.0459884880077
 30
0.0
 10
453.2127793014856
 20
235.343126931251
 30
0.0
 10
453.1016512848533
 20
235.6313403749172
 30
0.0
 10
452.967762270618
 20
235.9077039304053
 30
0.0
 10
452.8116594743281
 20
236.170938101527
 30
0.0
 10
452.6351101295509
 20
236.4181745367913
 30
0.0
 10
452.4387365873661
 20
236.6483961091677
 30
0.0
 10
452.2248408804931
 20
236.8590189909845
 30
0.0
 10
451.9941446558479
 20
237.0491809498615
 30
0.0
 10
451.7493426530256
 20
237.216787233455
 30
0.0
 10
451.4913428901176
 20
237.3610545739164
 30
0.0
 10
451.223021979245
 20
237.480516313255
 30
0.0
 10
450.9455969170897
 20
237.5744593603089
 30
0.0
 10
450.6618847740494
 20
237.6420873327461
 30
0.0
 10
450.3735238958675
 20
237.6828324575885
 30
0.0
 10
450.0830520509609
 20
237.6965063355136
 30
0.0
 10
449.7925802060539
 20
237.6828324575886
 30
0.0
 10
449.5042193278723
 20
237.6420873327462
 30
0.0
 10
449.2205071848318
 20
237.5744593603088
 30
0.0
 10
448.9430821226766
 20
237.480516313255
 30
0.0
 10
448.674761211804
 20
237.3610545739164
 30
0.0
 10
448.4167614488959
 20
237.216787233455
 30
0.0
 10
448.1719594460736
 20
237.0491809498615
 30
0.0
 10
447.9412632214283
 20
236.8590189909844
 30
0.0
 10
447.7273675145556
 20
236.6483961091677
 30
0.0
 10
447.5309939723707
 20
236.4181745367913
 30
0.0
 10
447.3544446275935
 20
236.1709381015271
 30
0.0
 10
447.1983418313034
 20
235.9077039304053
 30
0.0
 10
447.0644528170685
 20
235.6313403749172
 30
0.0
 10
446.953324800436
 20
235.3431269312509
 30
0.0
 10
446.8661340408203
 20
235.0459884880077
 30
0.0
 10
446.8033084345445
 20
234.7415653339735
 30
0.0
 10
446.7654598849516
 20
234.4326287216648
 30
0.0
 10
446.7527976231752
 20
234.1212341690881
 30
0.0
 10
446.7654598853132
 20
233.8098396165134
 30
0.0
 10
446.8033084352683
 20
233.5009030042211
 30
0.0
 10
446.8661340419087
 20
233.1964798501894
 30
0.0
 10
446.9533248018907
 20
232.8993414070364
 30
0.0
 10
447.0644528188936
 20
232.611127963175
 30
0.0
 10
447.1983418335033
 20
232.3347644085933
 30
0.0
 10
447.3544446301734
 20
232.0715302343465
 30
0.0
 10
447.5309939753369
 20
231.8242938109485
 30
0.0
 10
447.7273675179164
 20
231.5940721951169
 30
0.0
 10
447.941263225193
 20
231.3834494748052
 30
0.0
 10
448.1719594502553
 20
231.1932869206454
 30
0.0
 10
448.4167614535116
 20
231.0256828454423
 30
0.0
 10
448.6747612168825
 20
230.8814073499561
 30
0.0
 10
448.9430821282638
 20
230.7619758922726
 30
0.0
 10
449.2205071910495
 20
230.6679207270031
 30
0.0
 10
449.5042193350286
 20
230.6007098345099
 30
0.0
 10
449.7925802113353
 20
230.5584147623279
 30
0.0
 10
449.9862282442514
 20
230.5531515615094
 30
0.0
 10
450.0830520509608
 20
230.5505199641888
 30
0.0
 11
450.0830520509608
 21
230.5505199641888
 31
0.0
 11
450.3730998127589
 21
230.5641375770412
 31
0.0
 11
450.6606117372945
 21
230.6047671364548
 31
0.0
 11
450.9443490471631
 21
230.6723342342933
 31
0.0
 11
451.2206225648183
 21
230.765860380374
 31
0.0
 11
451.4893396269171
 21
230.8854039458117
 31
0.0
 11
451.7460688879171
 21
231.028904959247
 31
0.0
 11
451.9914861776993
 21
231.1968141319538
 31
0.0
 11
452.220985285952
 21
231.3859083966517
 31
0.0
 11
452.4355398449889
 21
231.5970419624813
 31
0.0
 11
452.6309416644881
 21
231.8260233237949
 31
0.0
 11
452.8080450696283
 21
232.0738815597924
 31
0.0
 11
452.9634817064115
 21
232.3358770713245
 31
0.0
 11
453.0977349350347
 21
232.6128247795914
 31
0.0
 11
453.2085013508219
 21
232.8999779911201
 31
0.0
 11
453.2958591062949
 21
233.1975033775674
 31
0.0
 11
453.3585557998096
 21
233.5011861621826
 31
0.0
 11
453.3964382197788
 21
233.810181552055
 31
0.0
 11
453.4090857248734
 21
234.1212341784602
 31
0.0
 11
453.3964382197787
 21
234.4322868048654
 31
0.0
 11
453.3585557998096
 21
234.7412821947379
 31
0.0
 11
453.2958591062949
 21
235.0449649793531
 31
0.0
 11
453.2085013508219
 21
235.3424903658003
 31
0.0
 11
453.0977349350347
 21
235.6296435773289
 31
0.0
 11
452.9634817064115
 21
235.9065912855959
 31
0.0
 11
452.8080450696283
 21
236.1685867971281
 31
0.0
 11
452.6309416644881
 21
236.4164450331255
 31
0.0
 11
452.4355398449888
 21
236.6454263944392
 31
0.0
 11
452.220985285952
 21
236.8565599602688
 31
0.0
 11
451.9914861776992
 21
237.0456542249668
 31
0.0
 11
451.7460688879171
 21
237.2135633976735
 31
0.0
 11
451.4893396269171
 21
237.3570644111087
 31
0.0
 11
451.2206225648183
 21
237.4766079765464
 31
0.0
 11
450.9443490471631
 21
237.5701341226271
 31
0.0
 11
450.6606117372945
 21
237.6377012204656
 31
0.0
 11
450.3730998127589
 21
237.6783307798791
 31
0.0
 11
450.0830520509608
 21
237.6919483927316
 31
0.0
 11
449.7930042891628
 21
237.6783307798792
 31
0.0
 11
449.5054923646271
 21
237.6377012204656
 31
0.0
 11
449.2217550547585
 21
237.5701341226271
 31
0.0
 11
448.9454815371033
 21
237.4766079765464
 31
0.0
 11
448.6767644750045
 21
237.3570644111088
 31
0.0
 11
448.4200352140044
 21
237.2135633976735
 31
0.0
 11
448.1746179242222
 21
237.0456542249668
 31
0.0
 11
447.9451188159695
 21
236.8565599602688
 31
0.0
 11
447.7305642569327
 21
236.6454263944392
 31
0.0
 11
447.5351624374334
 21
236.4164450331255
 31
0.0
 11
447.3580590322932
 21
236.1685867971281
 31
0.0
 11
447.2026223955101
 21
235.9065912855959
 31
0.0
 11
447.068369166887
 21
235.6296435773289
 31
0.0
 11
446.9576027510998
 21
235.3424903658003
 31
0.0
 11
446.8702449956268
 21
235.044964979353
 31
0.0
 11
446.8075483021121
 21
234.7412821947379
 31
0.0
 11
446.7696658821429
 21
234.4322868048654
 31
0.0
 11
446.7570183770483
 21
234.1212341784602
 31
0.0
 11
446.7696658821429
 21
233.810181552055
 31
0.0
 11
446.8075483021121
 21
233.5011861621826
 31
0.0
 11
446.8702449956268
 21
233.1975033775674
 31
0.0
 11
446.9576027510998
 21
232.8999779911201
 31
0.0
 11
447.068369166887
 21
232.6128247795914
 31
0.0
 11
447.2026223955101
 21
232.3358770713245
 31
0.0
 11
447.3580590322932
 21
232.0738815597923
 31
0.0
 11
447.5351624374334
 21
231.8260233237949
 31
0.0
 11
447.7305642569327
 21
231.5970419624813
 31
0.0
 11
447.9451188159695
 21
231.3859083966517
 31
0.0
 11
448.1746179242222
 21
231.1968141319538
 31
0.0
 11
448.4200352140044
 21
231.028904959247
 31
0.0
 11
448.6767644750045
 21
230.8854039458118
 31
0.0
 11
448.9454815371033
 21
230.765860380374
 31
0.0
 11
449.2217550547585
 21
230.6723342342933
 31
0.0
 11
449.5054923646271
 21
230.6047671364548
 31
0.0
 11
449.7930042891628
 21
230.5641375770413
 31
0.0
 11
450.0830520509608
 21
230.5505199641888
 31
0.0
  0
SPLINE
  5
96
330
47
100
AcDbEntity
  8
1
  6
Continuous
 62
     7
100
AcDbSpline
210
0.0
220
0.0
230
1.0
 70
     8
 71
     3
 72
    25
 73
    21
 74
    19
 42
0.000000001
 43
0.0000000001
 44
0.00000001
 40
0.0
 40
0.0
 40
0.0
 40
0.0
 40
1.525997363576722
 40
3.041991995961889
 40
4.036425729138012
 40
5.033630621467736
 40
5.779988201878599
 40
6.525153423607781
 40
7.113139654875887
 40
7.696814693755419
 40
7.94909714367984
 40
8.20124517195864
 40
8.84689661834147
 40
9.499909905032071
 40
10.2499428999914
 40
11.00216045375455
 40
12.12686675713048
 40
13.24812597618476
 40
14.8177981334372
 40
16.39782994900076
 40
16.39782994900076
 40
16.39782994900076
 40
16.39782994900076
 10
437.9586963979787
 20
237.6919317435962
 30
0.0
 10
437.4511475722967
 20
237.6586138750723
 30
0.0
 10
436.4393768440094
 20
237.592196521811
 30
0.0
 10
435.1057144243546
 20
237.3782762527411
 30
0.0
 10
433.9906520816477
 20
237.0154368176377
 30
0.0
 10
433.1654566177385
 20
236.6187931416472
 30
0.0
 10
432.4679142936417
 20
236.1655839163477
 30
0.0
 10
431.9547064895676
 20
235.6924813264716
 30
0.0
 10
431.5778990809106
 20
235.1719205458242
 30
0.0
 10
431.3886807130984
 20
234.7302024290141
 30
0.0
 10
431.3172613095837
 20
234.3736610674243
 30
0.0
 10
431.2918671125904
 20
233.9899703863163
 30
0.0
 10
431.3906239523668
 20
233.4722168391584
 30
0.0
 10
431.7007163831966
 20
232.8561388331456
 30
0.0
 10
432.1812917239171
 20
232.3119998687615
 30
0.0
 10
432.8838171054243
 20
231.7840293684705
 30
0.0
 10
433.7689274492056
 20
231.3095618128157
 30
0.0
 10
434.975811622485
 20
230.8928838782683
 30
0.0
 10
436.3858100552824
 20
230.6575654414866
 30
0.0
 10
437.4332525727001
 20
230.586211473085
 30
0.0
 10
437.9586963979787
 20
230.5504171495448
 30
0.0
 11
437.9586963979787
 21
237.6919317435962
 31
0.0
 11
436.4377298969588
 21
237.568121899162
 31
0.0
 11
434.9448405532535
 21
237.304453289079
 31
0.0
 11
433.9997302921233
 21
236.9951556242314
 31
0.0
 11
433.1018920735205
 21
236.5612153840634
 31
0.0
 11
432.4800870604589
 21
236.148410146123
 31
0.0
 11
431.936830483687
 21
235.6383675003239
 31
0.0
 11
431.5958465118297
 21
235.159350026854
 31
0.0
 11
431.3720491681163
 21
234.620284816636
 31
0.0
 11
431.3227481644669
 21
234.3728664548219
 31
0.0
 11
431.3066290501536
 21
234.1212341784602
 31
0.0
 11
431.4183000554539
 21
233.4853132887175
 31
0.0
 11
431.7077977982565
 21
232.8999779911201
 31
0.0
 11
432.1974505450877
 21
232.3318321627889
 31
0.0
 11
432.7925793069434
 21
231.8717745511966
 31
0.0
 11
433.7818198645168
 21
231.3366414928624
 31
0.0
 11
434.8404433353463
 21
230.9671302139794
 31
0.0
 11
436.384280466227
 21
230.6835149855173
 31
0.0
 11
437.9586963979787
 21
230.5504171495448
 31
0.0
  0
SPLINE
  5
97
330
47
100
AcDbEntity
  8
1
  6
Continuous
 62
     7
100
AcDbSpline
210
0.0
220
0.0
230
1.0
 70
     8
 71
     3
 72
    25
 73
    21
 74
    19
 42
0.000000001
 43
0.0000000001
 44
0.00000001
 40
0.0
 40
0.0
 40
0.0
 40
0.0
 40
1.525997363576608
 40
3.041991995961608
 40
4.036425729137875
 40
5.033630621467624
 40
5.779988201878438
 40
6.525153423607579
 40
7.113139654875718
 40
7.696814693755228
 40
7.949097143679649
 40
8.201245171958444
 40
8.846896618341274
 40
9.49990990503185
 40
10.24994289999117
 40
11.00216045375437
 40
12.12686675713029
 40
13.24812597618452
 40
14.81779813343691
 40
16.3978299490003
 40
16.3978299490003
 40
16.3978299490003
 40
16.3978299490003
 10
437.9586963979787
 20
237.6919317435962
 30
0.0
 10
438.4662452236606
 20
237.6586138750724
 30
0.0
 10
439.4780159519481
 20
237.592196521811
 30
0.0
 10
440.8116783716026
 20
237.3782762527411
 30
0.0
 10
441.9267407143096
 20
237.0154368176378
 30
0.0
 10
442.7519361782188
 20
236.6187931416472
 30
0.0
 10
443.4494785023156
 20
236.1655839163478
 30
0.0
 10
443.9626863063897
 20
235.6924813264715
 30
0.0
 10
444.3394937150464
 20
235.1719205458244
 30
0.0
 10
444.5287120828588
 20
234.7302024290139
 30
0.0
 10
444.6001314863734
 20
234.3736610674243
 30
0.0
 10
444.6255256833667
 20
233.9899703863163
 30
0.0
 10
444.5267688435905
 20
233.4722168391584
 30
0.0
 10
444.2166764127606
 20
232.8561388331456
 30
0.0
 10
443.7361010720402
 20
232.3119998687614
 30
0.0
 10
443.0335756905329
 20
231.7840293684706
 30
0.0
 10
442.1484653467514
 20
231.3095618128157
 30
0.0
 10
440.9415811734721
 20
230.8928838782683
 30
0.0
 10
439.5315827406751
 20
230.6575654414866
 30
0.0
 10
438.4841402232572
 20
230.586211473085
 30
0.0
 10
437.9586963979787
 20
230.5504171495448
 30
0.0
 11
437.9586963979787
 21
237.6919317435962
 31
0.0
 11
439.4796628989985
 21
237.568121899162
 31
0.0
 11
440.9725522427036
 21
237.304453289079
 31
0.0
 11
441.917662503834
 21
236.9951556242314
 31
0.0
 11
442.8155007224368
 21
236.5612153840634
 31
0.0
 11
443.4373057354983
 21
236.148410146123
 31
0.0
 11
443.9805623122702
 21
235.6383675003239
 31
0.0
 11
444.3215462841276
 21
235.159350026854
 31
0.0
 11
444.5453436278409
 21
234.620284816636
 31
0.0
 11
444.5946446314903
 21
234.3728664548219
 31
0.0
 11
444.6107637458035
 21
234.1212341784602
 31
0.0
 11
444.4990927405033
 21
233.4853132887175
 31
0.0
 11
444.2095949977007
 21
232.8999779911201
 31
0.0
 11
443.7199422508695
 21
232.3318321627889
 31
0.0
 11
443.1248134890137
 21
231.8717745511966
 31
0.0
 11
442.1355729314404
 21
231.3366414928624
 31
0.0
 11
441.0769494606109
 21
230.9671302139794
 31
0.0
 11
439.5331123297302
 21
230.6835149855173
 31
0.0
 11
437.9586963979787
 21
230.5504171495448
 31
0.0
  0
SPLINE
  5
98
330
47
100
AcDbEntity
  8
1
  6
Continuous
 62
     7
100
AcDbSpline
210
0.0
220
0.0
230
1.0
 70
     8
 71
     3
 72
    25
 73
    21
 74
    19
 42
0.000000001
 43
0.0000000001
 44
0.00000001
 40
0.0
 40
0.0
 40
0.0
 40
0.0
 40
0.2460288183550712
 40
0.4922494863981601
 40
0.9750856199141185
 40
1.45798241885849
 40
1.919195325861459
 40
2.380511362604816
 40
2.813761806924067
 40
3.247173723568438
 40
3.648592731494179
 40
4.050251407244465
 40
4.419359530240883
 40
4.788795533362125
 40
5.129427695244511
 40
5.470431443861154
 40
5.791245275238052
 40
6.112326586927338
 40
6.426088568165437
 40
6.739850547276228
 40
6.739850547276228
 40
6.739850547276228
 40
6.739850547276228
 10
135.9423414326718
 20
237.6377409482028
 30
0.0
 10
135.8608876541635
 20
237.6281649454386
 30
0.0
 10
135.6979165820629
 20
237.60900546154
 30
0.0
 10
135.3765279020787
 20
237.5601422999497
 30
0.0
 10
134.9797328656373
 20
237.4831297046185
 30
0.0
 10
134.5185464566204
 20
237.365558152215
 30
0.0
 10
134.0721857349772
 20
237.2223854946349
 30
0.0
 10
133.6510818418568
 20
237.0574179225616
 30
0.0
 10
133.2505270375101
 20
236.8682016936048
 30
0.0
 10
132.881830514388
 20
236.6606343058438
 30
0.0
 10
132.5392141208959
 20
236.430762578705
 30
0.0
 10
132.2336666099661
 20
236.1863793064209
 30
0.0
 10
131.9595130088717
 20
235.9223478952612
 30
0.0
 10
131.7262734008982
 20
235.6475911340109
 30
0.0
 10
131.5293803453748
 20
235.3568885615226
 30
0.0
 10
131.3763312654062
 20
235.058910175762
 30
0.0
 10
131.2636059730378
 20
234.7501839385795
 30
0.0
 10
131.1977050285314
 20
234.4377070238124
 30
0.0
 10
131.1718535305375
 20
234.1209656581233
 30
0.0
 10
131.1932665749439
 20
233.9125081034806
 30
0.0
 10
131.2039731035843
 20
233.8082793268941
 30
0.0
 11
135.9423414326718
 21
237.6377409482028
 31
0.0
 11
135.6981613153036
 21
237.6076370209973
 31
0.0
 11
135.4546993602283
 21
237.5708825222537
 31
0.0
 11
134.9807673327296
 21
237.4785832015876
 31
0.0
 11
134.5129214423288
 21
237.3589607070365
 31
0.0
 11
134.0738323538284
 21
237.2178291443663
 31
0.0
 11
133.6444990020892
 21
237.0490530829193
 31
0.0
 11
133.2529313328956
 21
236.8636327279683
 31
0.0
 11
132.8756029701774
 21
236.6503976551531
 31
0.0
 11
132.5425758509966
 21
236.4262767995598
 31
0.0
 11
132.2294144937749
 21
236.1747620758131
 31
0.0
 11
131.9640773646699
 21
235.9181748304328
 31
0.0
 11
131.7255840681146
 21
235.6360331850871
 31
0.0
 11
131.5353483440089
 21
235.3534723259042
 31
0.0
 11
131.3799234774316
 21
235.0499485745086
 31
0.0
 11
131.2709686452873
 21
234.7482030536387
 31
0.0
 11
131.2039731035844
 21
234.4341890300255
 31
0.0
 11
131.1814821217825
 21
234.1212341784598
 31
0.0
 11
131.2039731035843
 21
233.8082793268941
 31
0.0
  0
SPLINE
  5
99
330
47
100
AcDbEntity
  8
1
  6
Continuous
 62
     7
100
AcDbSpline
210
0.0
220
0.0
230
1.0
 70
     8
 71
     3
 72
    25
 73
    21
 74
    19
 42
0.000000001
 43
0.0000000001
 44
0.00000001
 40
0.0
 40
0.0
 40
0.0
 40
0.0
 40
0.2460288183679781
 40
0.4922494864240847
 40
0.9750856199400153
 40
1.457982418884415
 40
1.91919532588741
 40
2.380511362630794
 40
2.81376180695007
 40
3.247173723594441
 40
3.648592731520206
 40
4.05025140727047
 40
4.419359530266888
 40
4.788795533388075
 40
5.129427695270445
 40
5.470431443887113
 40
5.791245275264031
 40
6.112326586953317
 40
6.42608856819142
 40
6.739850547302212
 40
6.739850547302212
 40
6.739850547302212
 40
6.739850547302212
 10
151.9423414326703
 20
237.6377409482056
 30
0.0
 10
152.0237952111829
 20
237.6281649454411
 30
0.0
 10
152.1867662832922
 20
237.609005461542
 30
0.0
 10
152.5081549632849
 20
237.5601422999505
 30
0.0
 10
152.9049499997306
 20
237.4831297046185
 30
0.0
 10
153.3661364087476
 20
237.3655581522149
 30
0.0
 10
153.8124971303907
 20
237.222385494635
 30
0.0
 10
154.2336010235111
 20
237.0574179225616
 30
0.0
 10
154.6341558278579
 20
236.8682016936049
 30
0.0
 10
155.00285235098
 20
236.6606343058437
 30
0.0
 10
155.3454687444721
 20
236.430762578705
 30
0.0
 10
155.6510162554019
 20
236.1863793064209
 30
0.0
 10
155.9251698564962
 20
235.9223478952613
 30
0.0
 10
156.1584094644698
 20
235.6475911340109
 30
0.0
 10
156.3553025199931
 20
235.3568885615225
 30
0.0
 10
156.5083515999617
 20
235.058910175762
 30
0.0
 10
156.6210768923302
 20
234.7501839385795
 30
0.0
 10
156.6869778368364
 20
234.4377070238124
 30
0.0
 10
156.7128293348307
 20
234.1209656581232
 30
0.0
 10
156.691416290424
 20
233.9125081034807
 30
0.0
 10
156.6807097617837
 20
233.8082793268941
 30
0.0
 11
151.9423414326703
 21
237.6377409482056
 31
0.0
 11
152.1865215500514
 21
237.607637020999
 31
0.0
 11
152.4299835051396
 21
237.5708825222537
 31
0.0
 11
152.9039155326383
 21
237.4785832015876
 31
0.0
 11
153.3717614230391
 21
237.3589607070365
 31
0.0
 11
153.8108505115396
 21
237.2178291443663
 31
0.0
 11
154.2401838632788
 21
237.0490530829193
 31
0.0
 11
154.6317515324724
 21
236.8636327279683
 31
0.0
 11
155.0090798951906
 21
236.6503976551531
 31
0.0
 11
155.3421070143714
 21
236.4262767995598
 31
0.0
 11
155.6552683715931
 21
236.1747620758131
 31
0.0
 11
155.9206055006981
 21
235.9181748304328
 31
0.0
 11
156.1590987972533
 21
235.6360331850871
 31
0.0
 11
156.349334521359
 21
235.3534723259042
 31
0.0
 11
156.5047593879363
 21
235.0499485745086
 31
0.0
 11
156.6137142200807
 21
234.7482030536387
 31
0.0
 11
156.6807097617835
 21
234.4341890300255
 31
0.0
 11
156.7032007435855
 21
234.1212341784598
 31
0.0
 11
156.6807097617837
 21
233.8082793268941
 31
0.0
  0
SPLINE
  5
9A
330
47
100
AcDbEntity
  8
1
  6
Continuous
 62
     7
100
AcDbSpline
210
0.0
220
0.0
230
1.0
 70
     8
 71
     3
 72
    23
 73
    19
 74
    17
 42
0.000000001
 43
0.0000000001
 44
0.00000001
 40
0.0
 40
0.0
 40
0.0
 40
0.0
 40
0.3210813080881367
 40
0.6418951350895756
 40
0.9828988823333779
 40
1.323531044083477
 40
1.692967047346343
 40
2.062075170519139
 40
2.463733846442096
 40
2.865152854510114
 40
3.298564771277889
 40
3.731815215690124
 40
4.193131252504575
 40
4.65434415954732
 40
5.13724095850703
 40
5.62007709211691
 40
5.866297760569754
 40
6.112326579128614
 40
6.112326579128614
 40
6.112326579128614
 40
6.112326579128614
 10
156.6807097617837
 20
233.8082793268941
 30
0.0
 10
156.6614299108891
 20
233.7028182430335
 30
0.0
 10
156.6228862567357
 20
233.4919839341613
 30
0.0
 10
156.5078329572149
 20
233.1836443104842
 30
0.0
 10
156.3554444939564
 20
232.8855562174506
 30
0.0
 10
156.1583678524717
 20
232.5948841328452
 30
0.0
 10
155.9251813438945
 20
232.3201185530269
 30
0.0
 10
155.6510128775246
 20
232.0560896102088
 30
0.0
 10
155.3454696805584
 20
231.8117056212745
 30
0.0
 10
155.0028520797687
 20
231.5818340944785
 30
0.0
 10
154.6341559043944
 20
231.3742666488716
 30
0.0
 10
154.2336010031306
 20
231.1850504359743
 30
0.0
 10
153.8124971374656
 20
231.020082859353
 30
0.0
 10
153.3661364081368
 20
230.8769102031292
 30
0.0
 10
152.9049500011523
 20
230.7593386506171
 30
0.0
 10
152.5081549639272
 20
230.6823260556625
 30
0.0
 10
152.1867662835746
 20
230.633462895392
 30
0.0
 10
152.023795211268
 20
230.6143034114877
 30
0.0
 10
151.9423414326886
 20
230.6047274087162
 30
0.0
 11
156.6807097617837
 21
233.8082793268941
 31
0.0
 11
156.6137142200809
 21
233.494265303281
 31
0.0
 11
156.5047593879364
 21
233.1925197824111
 31
0.0
 11
156.3493345213591
 21
232.8889960310155
 31
0.0
 11
156.1590987972534
 21
232.6064351718326
 31
0.0
 11
155.9206055006981
 21
232.3242935264869
 31
0.0
 11
155.6552683715932
 21
232.0677062811066
 31
0.0
 11
155.3421070143715
 21
231.8161915573599
 31
0.0
 11
155.0090798951906
 21
231.5920707017665
 31
0.0
 11
154.6317515324722
 21
231.3788356289514
 31
0.0
 11
154.2401838632787
 21
231.1934152740005
 31
0.0
 11
153.8108505115395
 21
231.0246392125536
 31
0.0
 11
153.3717614230391
 21
230.8835076498833
 31
0.0
 11
152.9039155326383
 21
230.7638851553321
 31
0.0
 11
152.4299835051396
 21
230.6715858346661
 31
0.0
 11
152.1865215500605
 21
230.634831335922
 31
0.0
 11
151.9423414326886
 21
230.6047274087162
 31
0.0
  0
SPLINE
  5
9B
330
47
100
AcDbEntity
  8
1
  6
Continuous
 62
     7
100
AcDbSpline
210
0.0
220
0.0
230
1.0
 70
     8
 71
     3
 72
    23
 73
    19
 74
    17
 42
0.000000001
 43
0.0000000001
 44
0.00000001
 40
0.0
 40
0.0
 40
0.0
 40
0.0
 40
0.3210813080881071
 40
0.6418951350895363
 40
0.9828988823334033
 40
1.323531044083454
 40
1.692967047346265
 40
2.062075170519041
 40
2.463733846441954
 40
2.865152854509925
 40
3.2985647712777
 40
3.731815215689986
 40
4.193131252504569
 40
4.654344159547342
 40
5.137240958507045
 40
5.620077092116857
 40
5.866297760567481
 40
6.112326579124229
 40
6.112326579124229
 40
6.112326579124229
 40
6.112326579124229
 10
131.2039731035843
 20
233.8082793268941
 30
0.0
 10
131.2232529544789
 20
233.7028182430335
 30
0.0
 10
131.2617966086321
 20
233.4919839341613
 30
0.0
 10
131.3768499081529
 20
233.1836443104842
 30
0.0
 10
131.5292383714116
 20
232.8855562174506
 30
0.0
 10
131.7263150128962
 20
232.5948841328452
 30
0.0
 10
131.9595015214733
 20
232.3201185530269
 30
0.0
 10
132.2336699878432
 20
232.0560896102088
 30
0.0
 10
132.5392131848093
 20
231.8117056212745
 30
0.0
 10
132.881830785599
 20
231.5818340944785
 30
0.0
 10
133.2505269609733
 20
231.3742666488717
 30
0.0
 10
133.6510818622371
 20
231.1850504359743
 30
0.0
 10
134.0721857279022
 20
231.020082859353
 30
0.0
 10
134.5185464572311
 20
230.8769102031292
 30
0.0
 10
134.9797328642156
 20
230.7593386506171
 30
0.0
 10
135.37652790144
 20
230.6823260556627
 30
0.0
 10
135.697916581791
 20
230.6334628953923
 30
0.0
 10
135.8608876540963
 20
230.6143034114881
 30
0.0
 10
135.9423414326749
 20
230.6047274087167
 30
0.0
 11
131.2039731035843
 21
233.8082793268941
 31
0.0
 11
131.270968645287
 21
233.494265303281
 31
0.0
 11
131.3799234774314
 21
233.1925197824111
 31
0.0
 11
131.5353483440088
 21
232.8889960310155
 31
0.0
 11
131.7255840681145
 21
232.6064351718326
 31
0.0
 11
131.9640773646697
 21
232.3242935264869
 31
0.0
 11
132.2294144937746
 21
232.0677062811066
 31
0.0
 11
132.5425758509962
 21
231.8161915573599
 31
0.0
 11
132.8756029701771
 21
231.5920707017665
 31
0.0
 11
133.2529313328955
 21
231.3788356289514
 31
0.0
 11
133.644499002089
 21
231.1934152740005
 31
0.0
 11
134.0738323538283
 21
231.0246392125536
 31
0.0
 11
134.5129214423288
 21
230.8835076498833
 31
0.0
 11
134.9807673327296
 21
230.7638851553321
 31
0.0
 11
135.4546993602282
 21
230.671585834666
 31
0.0
 11
135.6981613153051
 21
230.6348313359223
 31
0.0
 11
135.9423414326749
 21
230.6047274087167
 31
0.0
  0
ARC
  5
9C
330
47
100
AcDbEntity
  8
1
  6
Continuous
 62
     7
100
AcDbCircle
 10
155.5003624944147
 20
230.2636972139014
 30
0.0
 40
1.0
100
AcDbArc
 50
270.0
 51
285.3375576695537
  0
ARC
  5
9D
330
47
100
AcDbEntity
  8
1
  6
Continuous
 62
     7
100
AcDbCircle
 10
153.7102906251151
 20
229.2636972139014
 30
0.0
 40
1.0
100
AcDbArc
 50
270.0
 51
330.0000000000019
  0
ARC
  5
9E
330
47
100
AcDbEntity
  8
1
  6
Continuous
 62
     7
100
AcDbCircle
 10
155.442341432684
 20
228.2636972139014
 30
0.0
 40
1.0
100
AcDbArc
 50
90.0
 51
149.9999999999987
  0
ARC
  5
9F
330
47
100
AcDbEntity
  8
1
  6
Continuous
 62
     7
100
AcDbCircle
 10
132.3843203709533
 20
230.2636972139014
 30
0.0
 40
0.9999999999999719
100
AcDbArc
 50
254.662442330429
 51
270.0
  0
ARC
  5
A0
330
47
100
AcDbEntity
  8
1
  6
Continuous
 62
     7
100
AcDbCircle
 10
134.1743922402526
 20
229.2636972139014
 30
0.0
 40
0.9999999999999589
100
AcDbArc
 50
210.0000000000013
 51
270.0
  0
ARC
  5
A1
330
47
100
AcDbEntity
  8
1
  6
Continuous
 62
     7
100
AcDbCircle
 10
132.4423414326839
 20
228.2636972139014
 30
0.0
 40
0.9999999999998851
100
AcDbArc
 50
30.0000000000038
 51
90.0
  0
ARC
  5
A2
330
47
100
AcDbEntity
  8
1
  6
Continuous
 62
     7
100
AcDbCircle
 10
449.5167174597092
 20
230.2636972139014
 30
0.0
 40
0.9999999999996021
100
AcDbArc
 50
270.0
 51
285.3375576695585
  0
ARC
  5
A3
330
47
100
AcDbEntity
  8
1
  6
Continuous
 62
     7
100
AcDbCircle
 10
447.7266455904098
 20
229.2636972139014
 30
0.0
 40
0.9999999999996021
100
AcDbArc
 50
270.0
 51
330.000000000016
  0
ARC
  5
A4
330
47
100
AcDbEntity
  8
1
  6
Continuous
 62
     7
100
AcDbCircle
 10
449.4586963979787
 20
228.2636972139018
 30
0.0
 40
0.9999999999996021
100
AcDbArc
 50
90.0
 51
150.0000000000044
  0
ARC
  5
A5
330
47
100
AcDbEntity
  8
1
  6
Continuous
 62
     7
100
AcDbCircle
 10
426.400675336248
 20
230.2636972139014
 30
0.0
 40
0.9999999999995878
100
AcDbArc
 50
254.6624423304415
 51
270.0
  0
ARC
  5
A6
330
47
100
AcDbEntity
  8
1
  6
Continuous
 62
     7
100
AcDbCircle
 10
428.1907472055475
 20
229.2636972139014
 30
0.0
 40
0.9999999999997846
100
AcDbArc
 50
209.9999999999808
 51
270.0
  0
ARC
  5
A7
330
47
100
AcDbEntity
  8
1
  6
Continuous
 62
     7
100
AcDbCircle
 10
426.4586963979787
 20
228.2636972139018
 30
0.0
 40
0.9999999999999344
100
AcDbArc
 50
30.00000000000217
 51
90.0
  0
ENDBLK
  5
49
330
47
100
AcDbEntity
  8
0
100
AcDbBlockEnd
  0
BLOCK
  5
4B
330
4A
100
AcDbEntity
  8
0
100
AcDbBlockBegin
  2
04-12-C4K
 70
     0
 10
1050.0
 20
297.0
 30
0.0
  3
04-12-C4K
  1

  0
LINE
  5
A8
330
4A
100
AcDbEntity
  8
1
  6
Continuous
 62
     7
100
AcDbLine
 10
407.9586963979787
 20
217.9611956494453
 30
0.0
 11
407.9586963979787
 21
199.9624464316734
 31
0.0
  0
LINE
  5
A9
330
4A
100
AcDbEntity
  8
1
  6
Continuous
 62
     7
100
AcDbLine
 10
445.9086963979785
 20
228.2636972139018
 30
0.0
 11
445.9086963979785
 21
227.9624464316734
 31
0.0
  0
LINE
  5
AA
330
4A
100
AcDbEntity
  8
1
  6
Continuous
 62
     7
100
AcDbLine
 10
430.0086963979784
 20
228.2636972139018
 30
0.0
 11
430.0086963979784
 21
227.9624464316734
 31
0.0
  0
LINE
  5
AB
330
4A
100
AcDbEntity
  8
1
  6
Continuous
 62
     7
100
AcDbLine
 10
427.9586963979787
 20
224.9624464316734
 30
0.0
 11
427.9586963979787
 21
227.9624464316734
 31
0.0
  0
LINE
  5
AC
330
4A
100
AcDbEntity
  8
1
  6
Continuous
 62
     7
100
AcDbLine
 10
447.9586963979784
 20
224.9624464316734
 30
0.0
 11
447.9586963979784
 21
227.9624464316734
 31
0.0
  0
LINE
  5
AD
330
4A
100
AcDbEntity
  8
1
  6
Continuous
 62
     7
100
AcDbLine
 10
445.9086963979785
 20
227.9624464316734
 30
0.0
 11
446.0086963979784
 21
227.9624464316734
 31
0.0
  0
LINE
  5
AE
330
4A
100
AcDbEntity
  8
1
  6
Continuous
 62
     7
100
AcDbLine
 10
427.9586963979787
 20
227.9624464316734
 30
0.0
 11
430.0086963979784
 21
227.9624464316734
 31
0.0
  0
LINE
  5
AF
330
4A
100
AcDbEntity
  8
1
  6
Continuous
 62
     7
100
AcDbLine
 10
422.9586963979787
 20
219.9624464316734
 30
0.0
 11
411.9586963979787
 21
219.9624464316734
 31
0.0
  0
LINE
  5
B0
330
4A
100
AcDbEntity
  8
1
  6
Continuous
 62
     7
100
AcDbLine
 10
422.9586963979787
 20
199.9624464316734
 30
0.0
 11
411.9586963979787
 21
199.9624464316734
 31
0.0
  0
LINE
  5
B1
330
4A
100
AcDbEntity
  8
1
  6
Continuous
 62
     7
100
AcDbLine
 10
430.0086963979784
 20
227.9624464316734
 30
0.0
 11
446.0086963979784
 21
227.9624464316734
 31
0.0
  0
LINE
  5
B2
330
4A
100
AcDbEntity
  8
1
  6
Continuous
 62
     7
100
AcDbLine
 10
446.0086963979784
 20
227.9624464316734
 30
0.0
 11
447.9586963979784
 21
227.9624464316734
 31
0.0
  0
LINE
  5
B3
330
4A
100
AcDbEntity
  8
1
  6
Continuous
 62
     7
100
AcDbLine
 10
407.9586963979787
 20
219.9624464316734
 30
0.0
 11
407.9586963979787
 21
217.9611956494453
 31
0.0
  0
LINE
  5
B4
330
4A
100
AcDbEntity
  8
1
  6
Continuous
 62
     7
100
AcDbLine
 10
411.9586963979787
 20
219.9624464316734
 30
0.0
 11
411.9586963979787
 21
199.9624464316734
 31
0.0
  0
LINE
  5
B5
330
4A
100
AcDbEntity
  8
1
  6
Continuous
 62
     7
100
AcDbLine
 10
153.942341432684
 20
228.2624464316734
 30
0.0
 11
153.942341432684
 21
214.9163284636955
 31
0.0
  0
LINE
  5
B6
330
4A
100
AcDbEntity
  8
1
  6
Continuous
 62
     7
100
AcDbLine
 10
133.942341432684
 20
215.1163284636961
 30
0.0
 11
133.942341432684
 21
228.2624464316734
 31
0.0
  0
LINE
  5
B7
330
4A
100
AcDbEntity
  8
1
  6
Continuous
 62
     7
100
AcDbLine
 10
153.942341432684
 20
650.3713923684882
 30
0.0
 11
153.942341432684
 21
634.7636972139014
 31
0.0
  0
LINE
  5
B8
330
4A
100
AcDbEntity
  8
1
  6
Continuous
 62
     7
100
AcDbLine
 10
133.9423414326842
 20
650.3713923684882
 30
0.0
 11
133.9423414326842
 21
634.7636972139014
 31
0.0
  0
LINE
  5
B9
330
4A
100
AcDbEntity
  8
1
  6
Continuous
 62
     7
100
AcDbLine
 10
153.942341432684
 20
634.7636972139014
 30
0.0
 11
133.9423414326842
 21
634.7636972139014
 31
0.0
  0
LINE
  5
BA
330
4A
100
AcDbEntity
  8
1
  6
Continuous
 62
     7
100
AcDbLine
 10
153.942341432684
 20
630.7636972139014
 30
0.0
 11
151.9280158839115
 21
630.7636972139014
 31
0.0
  0
LINE
  5
BB
330
4A
100
AcDbEntity
  8
1
  6
Continuous
 62
     7
100
AcDbLine
 10
135.9423414326842
 20
630.7636972139014
 30
0.0
 11
133.9423414326842
 21
630.7636972139014
 31
0.0
  0
LINE
  5
BC
330
4A
100
AcDbEntity
  8
1
  6
Continuous
 62
     7
100
AcDbLine
 10
135.9423414326842
 20
630.7636972139014
 30
0.0
 11
151.9280158839115
 21
630.7636972139014
 31
0.0
  0
ARC
  5
BD
330
4A
100
AcDbEntity
  8
1
  6
Continuous
 62
     7
100
AcDbCircle
 10
409.9586963979787
 20
218.9874464316734
 30
0.0
 40
2.22500000000001
100
AcDbArc
 50
25.98923358383353
 51
90.0
  0
ARC
  5
BE
330
4A
100
AcDbEntity
  8
1
  6
Continuous
 62
     7
100
AcDbCircle
 10
409.9586963979787
 20
200.9374464316734
 30
0.0
 40
2.224999999999997
100
AcDbArc
 50
205.9892335838329
 51
270.0
  0
ARC
  5
BF
330
4A
100
AcDbEntity
  8
1
  6
Continuous
 62
     7
100
AcDbCircle
 10
409.9586963979787
 20
218.9874464316734
 30
0.0
 40
2.225000000000023
100
AcDbArc
 50
90.0
 51
154.0107664161665
  0
ARC
  5
C0
330
4A
100
AcDbEntity
  8
1
  6
Continuous
 62
     7
100
AcDbCircle
 10
409.9586963979787
 20
200.9374464316734
 30
0.0
 40
2.224999999999994
100
AcDbArc
 50
270.0
 51
334.0107664161671
  0
ARC
  5
C1
330
4A
100
AcDbEntity
  8
1
  6
Continuous
 62
     7
100
AcDbCircle
 10
143.9423414326839
 20
209.9624464316736
 30
0.0
 40
11.25000000000009
100
AcDbArc
 50
152.733955549265
 51
0.0
  0
ARC
  5
C2
330
4A
100
AcDbEntity
  8
1
  6
Continuous
 62
     7
100
AcDbCircle
 10
143.9423414326839
 20
209.7624464316734
 30
0.0
 40
11.25000000000011
100
AcDbArc
 50
0.0
 51
27.26604445073265
  0
ARC
  5
C3
330
4A
100
AcDbEntity
  8
1
  6
Continuous
 62
     7
100
AcDbCircle
 10
143.9423414326839
 20
209.7624464316734
 30
0.0
 40
11.25000000000011
100
AcDbArc
 50
27.26604445073265
 51
44.67460956438397
  0
ARC
  5
C4
330
4A
100
AcDbEntity
  8
1
  6
Continuous
 62
     7
100
AcDbCircle
 10
143.9423414326839
 20
209.9624464316736
 30
0.0
 40
11.25
100
AcDbArc
 50
135.3253904356164
 51
152.733955549265
  0
ARC
  5
C5
330
4A
100
AcDbEntity
  8
1
  6
Continuous
 62
     7
100
AcDbCircle
 10
152.9673414326841
 20
632.7636972139014
 30
0.0
 40
2.22499999999996
100
AcDbArc
 50
295.9892335838309
 51
64.01076641616909
  0
ARC
  5
C6
330
4A
100
AcDbEntity
  8
1
  6
Continuous
 62
     7
100
AcDbCircle
 10
134.9173414326841
 20
632.7636972139014
 30
0.0
 40
2.22499999999996
100
AcDbArc
 50
115.9892335838309
 51
244.0107664161691
  0
ARC
  5
C7
330
4A
100
AcDbEntity
  8
1
  6
Continuous
 62
     7
100
AcDbCircle
 10
422.9586963979787
 20
224.9624464316734
 30
0.0
 40
25.0
100
AcDbArc
 50
270.0
 51
0.0
  0
ARC
  5
C8
330
4A
100
AcDbEntity
  8
1
  6
Continuous
 62
     7
100
AcDbCircle
 10
422.9586963979787
 20
224.9624464316734
 30
0.0
 40
5.0
100
AcDbArc
 50
270.0
 51
0.0
  0
ENDBLK
  5
4C
330
4A
100
AcDbEntity
  8
0
100
AcDbBlockEnd
  0
BLOCK
  5
4E
330
4D
100
AcDbEntity
  8
0
100
AcDbBlockBegin
  2
60-5
 70
     0
 10
897.144785290333
 20
173.5437011719772
 30
0.0
  3
60-5
  1

  0
LINE
  5
C9
330
4D
100
AcDbEntity
  8
1
  6
PHANTOM
 62
     4
100
AcDbLine
 10
152.1415210082713
 20
434.9611956494452
 30
0.0
 11
154.9202926449048
 21
434.9611956494452
 31
0.0
  0
LINE
  5
CA
330
4D
100
AcDbEntity
  8
0
  6
Continuous
 62
     7
100
AcDbLine
 10
151.9423414326839
 20
217.6720924414517
 30
0.0
 11
151.9423414326839
 21
384.9611956494452
 31
0.0
  0
LINE
  5
CB
330
4D
100
AcDbEntity
  8
1
  6
Continuous
 62
     7
100
AcDbLine
 10
407.9586963979768
 20
201.9611956494453
 30
0.0
 11
406.9586963979768
 21
201.9611956494453
 31
0.0
  0
LINE
  5
CC
330
4D
100
AcDbEntity
  8
1
  6
Continuous
 62
     7
100
AcDbLine
 10
407.9586963979787
 20
217.9611956494453
 30
0.0
 11
406.9586963979768
 21
217.9611956494453
 31
0.0
  0
LINE
  5
CD
330
4D
100
AcDbEntity
  8
1
  6
Continuous
 62
     7
100
AcDbLine
 10
269.5214497529879
 20
390.6938419201032
 30
0.0
 11
285.4675726320486
 21
389.1717120089202
 31
0.0
  0
LINE
  5
CE
330
4D
100
AcDbEntity
  8
1
  6
Continuous
 62
     7
100
AcDbLine
 10
284.3199914383188
 20
384.2585265774126
 30
0.0
 11
276.9586963979767
 21
384.9611956494453
 31
0.0
  0
LINE
  5
CF
330
4D
100
AcDbEntity
  8
1
  6
Continuous
 62
     7
100
AcDbLine
 10
276.9586963979767
 20
384.9611956494453
 30
0.0
 11
269.6113941692432
 21
385.6625290440061
 31
0.0
  0
LINE
  5
D0
330
4D
100
AcDbEntity
  8
1
  6
Continuous
 62
     7
100
AcDbLine
 10
389.9586963979787
 20
234.9611956494453
 30
0.0
 11
389.9586963979787
 21
382.4611956494453
 31
0.0
  0
LINE
  5
D1
330
4D
100
AcDbEntity
  8
1
  6
Continuous
 62
     7
100
AcDbLine
 10
373.9586963979787
 20
234.9611956494453
 30
0.0
 11
373.9586963979787
 21
382.4361123926838
 31
0.0
  0
LINE
  5
D2
330
4D
100
AcDbEntity
  8
0
  6
Continuous
 62
     7
100
AcDbLine
 10
135.9423414326839
 20
434.9611956494452
 30
0.0
 11
135.942341432684
 21
389.9329118964075
 31
0.0
  0
LINE
  5
D3
330
4D
100
AcDbEntity
  8
0
  6
Continuous
 62
     7
100
AcDbLine
 10
151.9423414326839
 20
209.9611956494453
 30
0.0
 11
151.9423414326839
 21
217.6720924414517
 31
0.0
  0
LINE
  5
D4
330
4D
100
AcDbEntity
  8
0
  6
Continuous
 62
     7
100
AcDbLine
 10
151.9423414326839
 20
389.9329118964075
 30
0.0
 11
151.942341432684
 21
434.9611956494452
 31
0.0
  0
LINE
  5
D5
330
4D
100
AcDbEntity
  8
0
  6
Continuous
 62
     7
100
AcDbLine
 10
135.942341432684
 20
384.9611956494452
 30
0.0
 11
135.9423414326839
 21
217.8720924414518
 31
0.0
  0
LINE
  5
D6
330
4D
100
AcDbEntity
  8
1
  6
PHANTOM
 62
     4
100
AcDbLine
 10
129.9643902204631
 20
209.9624464316736
 30
0.0
 11
158.3165636265463
 21
209.9624464316736
 31
0.0
  0
LINE
  5
D7
330
4D
100
AcDbEntity
  8
0
  6
Continuous
 62
     7
100
AcDbLine
 10
135.9423414326842
 20
630.7636972139014
 30
0.0
 11
135.9423414326842
 21
500.3014616234945
 31
0.0
  0
LINE
  5
D8
330
4D
100
AcDbEntity
  8
0
  6
Continuous
 62
     7
100
AcDbLine
 10
151.942341432684
 20
500.3014616234945
 30
0.0
 11
151.942341432684
 21
630.7636972139014
 31
0.0
  0
LINE
  5
D9
330
4D
100
AcDbEntity
  8
1
  6
PHANTOM
 62
     4
100
AcDbLine
 10
154.9202926449049
 20
499.7670604011943
 30
0.0
 11
132.5681192388217
 21
499.7670604011943
 31
0.0
  0
LINE
  5
DA
330
4D
100
AcDbEntity
  8
1
  6
PHANTOM
 62
     4
100
AcDbLine
 10
143.942341432684
 20
486.7110212168019
 30
0.0
 11
143.942341432684
 21
758.5328089346006
 31
0.0
  0
LINE
  5
DB
330
4D
100
AcDbEntity
  8
1
  6
PHANTOM
 62
     4
100
AcDbLine
 10
132.5681192388217
 20
604.7670604011944
 30
0.0
 11
154.9202926449049
 21
604.7670604011944
 31
0.0
  0
LINE
  5
DC
330
4D
100
AcDbEntity
  8
1
  6
PHANTOM
 62
     4
100
AcDbLine
 10
132.5681192388217
 20
434.9611956494452
 30
0.0
 11
135.9423414326839
 21
434.9611956494452
 31
0.0
  0
LINE
  5
DD
330
4D
100
AcDbEntity
  8
1
  6
PHANTOM
 62
     4
100
AcDbLine
 10
151.942341432684
 20
434.9611956494452
 30
0.0
 11
152.1415210082713
 21
434.9611956494452
 31
0.0
  0
LINE
  5
DE
330
4D
100
AcDbEntity
  8
1
  6
PHANTOM
 62
     4
100
AcDbLine
 10
135.9423414326839
 20
434.9611956494452
 30
0.0
 11
151.942341432684
 21
434.9611956494452
 31
0.0
  0
LINE
  5
DF
330
4D
100
AcDbEntity
  8
0
  6
Continuous
 62
     7
100
AcDbLine
 10
135.9423414326839
 20
217.8720924414518
 30
0.0
 11
135.9423414326839
 21
209.9611956494454
 31
0.0
  0
LINE
  5
E0
330
4D
100
AcDbEntity
  8
1
  6
PHANTOM
 62
     4
100
AcDbLine
 10
381.9586963979767
 20
234.9611956494453
 30
0.0
 11
381.9586963979787
 21
382.4611956494446
 31
0.0
  0
LINE
  5
E1
330
4D
100
AcDbEntity
  8
1
  6
PHANTOM
 62
     4
100
AcDbLine
 10
407.9586963979787
 20
209.9611956494455
 30
0.0
 11
406.9586963979766
 21
209.9611956494455
 31
0.0
  0
LINE
  5
E2
330
4D
100
AcDbEntity
  8
1
  6
PHANTOM
 62
     4
100
AcDbLine
 10
277.4985432438639
 20
389.9706885884615
 30
0.0
 11
276.7012836094125
 21
382.4744032338082
 31
0.0
  0
ARC
  5
E3
330
4D
100
AcDbEntity
  8
1
  6
Continuous
 62
     7
100
AcDbCircle
 10
281.8422791007282
 20
387.4278640957003
 30
0.0
 40
4.02290426590964
100
AcDbArc
 50
355.1801834052433
 51
25.68860336787555
  0
ARC
  5
E4
330
4D
100
AcDbEntity
  8
1
  6
Continuous
 62
     7
100
AcDbCircle
 10
281.8422791007282
 20
387.4278640957003
 30
0.0
 40
4.0229042659097
100
AcDbArc
 50
308.0174462760471
 51
355.1801834052433
  0
ARC
  5
E5
330
4D
100
AcDbEntity
  8
1
  6
Continuous
 62
     7
100
AcDbCircle
 10
272.3530531890363
 20
388.2280018868951
 30
0.0
 40
3.754776303378728
100
AcDbArc
 50
175.1801834052475
 51
223.0985928809431
  0
ARC
  5
E6
330
4D
100
AcDbEntity
  8
1
  6
Continuous
 62
     7
100
AcDbCircle
 10
272.3530531890363
 20
388.2280018868951
 30
0.0
 40
3.75477630337852
100
AcDbArc
 50
138.9497339427872
 51
175.1801834052475
  0
ARC
  5
E7
330
4D
100
AcDbEntity
  8
1
  6
Continuous
 62
     7
100
AcDbCircle
 10
329.4586963979767
 20
382.4611956494453
 30
0.0
 40
60.50000000000011
100
AcDbArc
 50
90.0
 51
172.1791095080492
  0
ARC
  5
E8
330
4D
100
AcDbEntity
  8
1
  6
Continuous
 62
     7
100
AcDbCircle
 10
329.4586963979767
 20
382.4611956494453
 30
0.0
 40
60.5
100
AcDbArc
 50
0.0
 51
90.0
  0
ARC
  5
E9
330
4D
100
AcDbEntity
  8
1
  6
Continuous
 62
     7
100
AcDbCircle
 10
329.4586963979767
 20
382.4611956494453
 30
0.0
 40
44.5
100
AcDbArc
 50
0.0
 51
171.326818373098
  0
ARC
  5
EA
330
4D
100
AcDbEntity
  8
1
  6
Continuous
 62
     7
100
AcDbCircle
 10
147.5138871172418
 20
387.4470537729264
 30
0.0
 40
5.078454315442351
100
AcDbArc
 50
330.6928623069618
 51
29.30713769303767
  0
ARC
  5
EB
330
4D
100
AcDbEntity
  8
1
  6
Continuous
 62
     7
100
AcDbCircle
 10
140.3707957481261
 20
387.4470537729264
 30
0.0
 40
5.078454315442348
100
AcDbArc
 50
150.6928623069625
 51
209.3071376930381
  0
ARC
  5
EC
330
4D
100
AcDbEntity
  8
1
  6
Continuous
 62
     7
100
AcDbCircle
 10
143.9423414326839
 20
209.9611956494453
 30
0.0
 40
8.0
100
AcDbArc
 50
179.9999999999994
 51
0.0
  0
ARC
  5
ED
330
4D
100
AcDbEntity
  8
1
  6
Continuous
 62
     7
100
AcDbCircle
 10
143.942341432684
 20
604.7670604011944
 30
0.0
 40
8.0
100
AcDbArc
 50
0.0
 51
180.0
  0
ARC
  5
EE
330
4D
100
AcDbEntity
  8
1
  6
Continuous
 62
     7
100
AcDbCircle
 10
143.9423414326844
 20
348.2595756341527
 30
0.0
 40
42.43426628595046
100
AcDbArc
 50
79.13317269142772
 51
100.8668273085735
  0
ARC
  5
EF
330
4D
100
AcDbEntity
  8
1
  6
Continuous
 62
     7
100
AcDbCircle
 10
143.9423414326839
 20
434.9611956494452
 30
0.0
 40
8.000000000000114
100
AcDbArc
 50
0.0
 51
180.0
  0
ARC
  5
F0
330
4D
100
AcDbEntity
  8
1
  6
PHANTOM
 62
     4
100
AcDbCircle
 10
406.9586963979768
 20
234.9611956494453
 30
0.0
 40
25.00000000000006
100
AcDbArc
 50
180.0
 51
269.9999999999996
  0
ARC
  5
F1
330
4D
100
AcDbEntity
  8
1
  6
PHANTOM
 62
     4
100
AcDbCircle
 10
329.4586963979767
 20
382.4611956494453
 30
0.0
 40
52.5
100
AcDbArc
 50
0.0
 51
171.776321697026
  0
SPLINE
  5
F2
330
4D
100
AcDbEntity
  8
1
  6
Continuous
 62
     7
100
AcDbSpline
210
0.0
220
0.0
230
1.0
 70
     8
 71
     3
 72
    45
 73
    41
 74
    39
 42
0.000000001
 43
0.0000000001
 44
0.00000001
 40
0.0
 40
0.0
 40
0.0
 40
0.0
 40
0.3474777492153674
 40
0.6956243059883906
 40
1.391155599719572
 40
2.086685749769218
 40
2.782428586252578
 40
3.478169275547097
 40
4.174235694351939
 40
4.870299227154676
 40
5.566762120372511
 40
6.263221741419336
 40
6.960106104115204
 40
7.656987204896931
 40
8.354267198862145
 40
9.051544332789637
 40
9.74914648036672
 40
10.44674651023507
 40
11.1445585968754
 40
11.84236955846914
 40
12.5402541516846
 40
13.23813874490009
 40
13.93594970649377
 40
14.63376179313418
 40
15.33136182300262
 40
16.02896397057966
 40
16.72624110450707
 40
17.42352109847216
 40
18.12040219925391
 40
18.81728656194984
 40
19.51374618299673
 40
20.21020907621463
 40
20.90627260901735
 40
21.60233902782215
 40
22.29807971711659
 40
22.99382255359999
 40
23.68935270364952
 40
24.38488399738075
 40
24.73303055416709
 40
25.08050830339586
 40
25.08050830339586
 40
25.08050830339586
 40
25.08050830339586
 10
135.9423414326842
 20
500.30146162347
 30
0.0
 10
135.9438165896033
 20
500.1856250451811
 30
0.0
 10
135.9467697547431
 20
499.9537289325141
 30
0.0
 10
135.9783267403049
 20
499.4908948459051
 30
0.0
 10
136.0536973286628
 20
498.9153286323275
 30
0.0
 10
136.2053065725875
 20
498.2355247109125
 30
0.0
 10
136.4152425221104
 20
497.5713618371143
 30
0.0
 10
136.6828718617232
 20
496.9280712503216
 30
0.0
 10
137.0053959923887
 20
496.3103583632756
 30
0.0
 10
137.3810515454409
 20
495.7231532351593
 30
0.0
 10
137.8063167309519
 20
495.1706515243432
 30
0.0
 10
138.2785860504557
 20
494.6573775045603
 30
0.0
 10
138.7936617301784
 20
494.1868676182978
 30
0.0
 10
139.3481872285001
 20
493.7631180277277
 30
0.0
 10
139.9374206607896
 20
493.3888874152537
 30
0.0
 10
140.5573470961627
 20
493.0675313279996
 30
0.0
 10
141.2028371337978
 20
492.8009421473389
 30
0.0
 10
141.8693260527712
 20
492.5917351675265
 30
0.0
 10
142.5514662099583
 20
492.4408813320425
 30
0.0
 10
143.2442689828483
 20
492.3501714779104
 30
0.0
 10
143.942341432684
 20
492.3196343733548
 30
0.0
 10
144.6404138825196
 20
492.3501714779106
 30
0.0
 10
145.3332166554097
 20
492.4408813320426
 30
0.0
 10
146.0153568125968
 20
492.5917351675266
 30
0.0
 10
146.6818457315703
 20
492.8009421473389
 30
0.0
 10
147.3273357692053
 20
493.0675313279995
 30
0.0
 10
147.9472622045784
 20
493.3888874152537
 30
0.0
 10
148.5364956368678
 20
493.7631180277276
 30
0.0
 10
149.0910211351894
 20
494.186867618298
 30
0.0
 10
149.6060968149121
 20
494.6573775045601
 30
0.0
 10
150.0783661344161
 20
495.1706515243435
 30
0.0
 10
150.5036313199271
 20
495.7231532351592
 30
0.0
 10
150.8792868729795
 20
496.3103583632758
 30
0.0
 10
151.201811003645
 20
496.9280712503214
 30
0.0
 10
151.4694403432577
 20
497.5713618371142
 30
0.0
 10
151.6793762927805
 20
498.2355247109123
 30
0.0
 10
151.8309855367053
 20
498.9153286323274
 30
0.0
 10
151.9063561250637
 20
499.4908948459093
 30
0.0
 10
151.9379131106257
 20
499.9537289325274
 30
0.0
 10
151.9408662757651
 20
500.1856250452033
 30
0.0
 10
151.942341432684
 20
500.3014616234966
 30
0.0
 11
135.9423414326842
 21
500.30146162347
 31
0.0
 11
135.9499673403353
 21
499.9540675590235
 31
0.0
 11
135.9728450632867
 21
499.606673494577
 31
0.0
 11
136.0638922156309
 21
498.9171271232737
 31
0.0
 11
136.2150062427203
 21
498.2382112661065
 31
0.0
 11
136.4248478447322
 21
497.574867767597
 31
0.0
 11
136.6919673999998
 21
496.9324487063289
 31
0.0
 11
137.0142314319268
 21
496.3154767836139
 31
0.0
 11
137.3892306881088
 21
495.7290639598733
 31
0.0
 11
137.8141220234296
 21
495.1772234801376
 31
0.0
 11
138.2856036531188
 21
494.6646212202053
 31
0.0
 11
138.8002025970823
 21
494.1946895846309
 31
0.0
 11
139.353844898569
 21
493.7714597760107
 31
0.0
 11
139.942502343253
 21
493.3977194877391
 31
0.0
 11
140.5614932828748
 21
493.0767122939853
 31
0.0
 11
141.2063097565118
 21
492.8105159906488
 31
0.0
 11
141.8718550637581
 21
492.6014819121914
 31
0.0
 11
142.5532281645529
 21
492.4509083220178
 31
0.0
 11
143.2451187885746
 21
492.3602027389726
 31
0.0
 11
143.942341432684
 21
492.3298137562054
 31
0.0
 11
144.6395640767933
 21
492.3602027389727
 31
0.0
 11
145.331454700815
 21
492.4509083220179
 31
0.0
 11
146.0128278016099
 21
492.6014819121914
 31
0.0
 11
146.6783731088563
 21
492.8105159906488
 31
0.0
 11
147.3231895824932
 21
493.0767122939853
 31
0.0
 11
147.942180522115
 21
493.3977194877391
 31
0.0
 11
148.5308379667988
 21
493.7714597760106
 31
0.0
 11
149.0844802682855
 21
494.1946895846309
 31
0.0
 11
149.5990792122491
 21
494.6646212202054
 31
0.0
 11
150.0705608419384
 21
495.1772234801376
 31
0.0
 11
150.4954521772593
 21
495.7290639598733
 31
0.0
 11
150.8704514334413
 21
496.3154767836139
 31
0.0
 11
151.1927154653684
 21
496.9324487063288
 31
0.0
 11
151.4598350206359
 21
497.5748677675969
 31
0.0
 11
151.6696766226477
 21
498.2382112661065
 31
0.0
 11
151.8207906497371
 21
498.9171271232735
 31
0.0
 11
151.9118378020814
 21
499.6066734945769
 31
0.0
 11
151.9347155250333
 21
499.9540675590367
 31
0.0
 11
151.942341432684
 21
500.3014616234966
 31
0.0
  0
SPLINE
  5
F3
330
4D
100
AcDbEntity
  8
1
  6
Continuous
 62
     7
100
AcDbSpline
210
0.0
220
0.0
230
1.0
 70
     8
 71
     3
 72
    31
 73
    27
 74
    25
 42
0.000000001
 43
0.0000000001
 44
0.00000001
 40
0.0
 40
0.0
 40
0.0
 40
0.0
 40
0.3769608704530716
 40
0.7546049190046281
 40
1.508470590470229
 40
2.262344586835099
 40
3.014578569008961
 40
3.766828372217504
 40
4.516558639857307
 40
5.26631059444797
 40
6.012960387939922
 40
6.7596353751719
 40
7.502995037392956
 40
8.24638047752142
 40
8.986637136557142
 40
9.72691696226071
 40
10.46463646341061
 40
11.2023734691801
 40
11.93843458657545
 40
12.67450512774068
 40
13.40999275446871
 40
14.14548038108622
 40
14.88155092184945
 40
15.61761203833054
 40
16.16008215765622
 40
16.70170257730521
 40
16.70170257730521
 40
16.70170257730521
 40
16.70170257730521
 10
143.9423414326633
 20
491.5759369658566
 30
0.0
 10
144.0680058968736
 20
491.577490123115
 30
0.0
 10
144.3195625706666
 20
491.5805992667299
 30
0.0
 10
144.8214841823284
 20
491.6137945028475
 30
0.0
 10
145.4456811243872
 20
491.6931541448569
 30
0.0
 10
146.182873751052
 20
491.8526626838858
 30
0.0
 10
146.9034188525476
 20
492.0737209080304
 30
0.0
 10
147.601048181412
 20
492.3553441056547
 30
0.0
 10
148.2713958259313
 20
492.6950267974838
 30
0.0
 10
148.9082955476071
 20
493.090403608997
 30
0.0
 10
149.5080676815551
 20
493.538414917484
 30
0.0
 10
150.064906368819
 20
494.0356086924631
 30
0.0
 10
150.5758336743758
 20
494.5783834611434
 30
0.0
 10
151.0356776795498
 20
495.1623574724929
 30
0.0
 10
151.4421698684417
 20
495.7834249063447
 30
0.0
 10
151.7909987473113
 20
496.436489275525
 30
0.0
 10
152.0806354883187
 20
497.1169636659382
 30
0.0
 10
152.3077800275307
 20
497.819297289589
 30
0.0
 10
152.4717084006608
 20
498.5384542529106
 30
0.0
 10
152.5701915040226
 20
499.2686985282843
 30
0.0
 10
152.6034223302404
 20
500.0046211909637
 30
0.0
 10
152.5701501513711
 20
500.7405184977767
 30
0.0
 10
152.4718739606498
 20
501.4708388997184
 30
0.0
 10
152.3217130659293
 20
502.126195511369
 30
0.0
 10
152.1436641777591
 20
502.7068468323496
 30
0.0
 10
152.0094139441052
 20
503.0424909388963
 30
0.0
 10
151.942341432684
 20
503.210181452334
 30
0.0
 11
143.9423414326633
 21
491.5759369658566
 31
0.0
 11
144.3192168211501
 21
491.5839644874933
 31
0.0
 11
144.6960922096369
 21
491.6080470524053
 31
0.0
 11
145.4438403320827
 21
491.7038917080898
 31
0.0
 11
146.1807151688508
 21
491.8630817782488
 31
0.0
 11
146.899810928934
 21
492.0838922230383
 31
0.0
 11
147.5973917274503
 21
492.3654251635317
 31
0.0
 11
148.2660854428013
 21
492.7044593650472
 31
0.0
 11
148.9031024312157
 21
493.0998545475904
 31
0.0
 11
149.5011803350758
 21
493.5468318797958
 31
0.0
 11
150.058176298776
 21
494.0441034690127
 31
0.0
 11
150.5675473332129
 21
494.5855134219622
 31
0.0
 11
151.0274945465608
 21
495.1695258139484
 31
0.0
 11
151.4327171469366
 21
495.7890212262508
 31
0.0
 11
151.7815624735085
 21
496.4419539631851
 31
0.0
 11
152.0703022146601
 21
497.1208202421857
 31
0.0
 11
152.2974165065627
 21
497.8227283477319
 31
0.0
 11
152.460825265093
 21
498.5404215598742
 31
0.0
 11
152.5593363505767
 21
499.2698702614608
 31
0.0
 11
152.5923414326842
 21
500.0046169622802
 31
0.0
 11
152.5593363505766
 21
500.7393636630996
 31
0.0
 11
152.460825265093
 21
501.4688123646864
 31
0.0
 11
152.2974165065628
 21
502.1865055768287
 31
0.0
 11
152.1365191340682
 21
502.7045652912518
 31
0.0
 11
151.942341432684
 21
503.210181452334
 31
0.0
  0
SPLINE
  5
F4
330
4D
100
AcDbEntity
  8
1
  6
Continuous
 62
     7
100
AcDbSpline
210
0.0
220
0.0
230
1.0
 70
     8
 71
     3
 72
    31
 73
    27
 74
    25
 42
0.000000001
 43
0.0000000001
 44
0.00000001
 40
0.0
 40
0.0
 40
0.0
 40
0.0
 40
0.3769608704531001
 40
0.7546049190046922
 40
1.5084705904703
 40
2.262344586835047
 40
3.014578569008784
 40
3.766828372217279
 40
4.516558639857083
 40
5.266310594447769
 40
6.012960387939743
 40
6.759635375171743
 40
7.502995037392856
 40
8.246380477521303
 40
8.986637136556993
 40
9.726916962260587
 40
10.46463646341051
 40
11.20237346918004
 40
11.93843458657541
 40
12.67450512774061
 40
13.40999275446864
 40
14.14548038108613
 40
14.88155092184937
 40
15.61761203833052
 40
16.16008215765624
 40
16.70170257730525
 40
16.70170257730525
 40
16.70170257730525
 40
16.70170257730525
 10
143.9423414327047
 20
491.5759369658566
 30
0.0
 10
143.8166769684944
 20
491.577490123115
 30
0.0
 10
143.5651202947015
 20
491.5805992667297
 30
0.0
 10
143.0631986830396
 20
491.6137945028478
 30
0.0
 10
142.4390017409808
 20
491.693154144857
 30
0.0
 10
141.7018091143162
 20
491.8526626838857
 30
0.0
 10
140.9812640128206
 20
492.0737209080306
 30
0.0
 10
140.2836346839562
 20
492.3553441056546
 30
0.0
 10
139.613287039437
 20
492.6950267974837
 30
0.0
 10
138.9763873177611
 20
493.0904036089971
 30
0.0
 10
138.376615183813
 20
493.5384149174839
 30
0.0
 10
137.8197764965493
 20
494.035608692463
 30
0.0
 10
137.3088491909921
 20
494.5783834611434
 30
0.0
 10
136.8490051858183
 20
495.1623574724929
 30
0.0
 10
136.4425129969264
 20
495.7834249063447
 30
0.0
 10
136.0936841180568
 20
496.436489275525
 30
0.0
 10
135.8040473770493
 20
497.1169636659382
 30
0.0
 10
135.5769028378372
 20
497.819297289589
 30
0.0
 10
135.4129744647069
 20
498.5384542529105
 30
0.0
 10
135.3144913613453
 20
499.2686985282844
 30
0.0
 10
135.2812605351278
 20
500.0046211909638
 30
0.0
 10
135.3145327139964
 20
500.7405184977766
 30
0.0
 10
135.4128089047179
 20
501.4708388997186
 30
0.0
 10
135.5629697994387
 20
502.1261955113689
 30
0.0
 10
135.741018687609
 20
502.7068468323496
 30
0.0
 10
135.875268921263
 20
503.0424909388963
 30
0.0
 10
135.9423414326842
 20
503.210181452334
 30
0.0
 11
143.9423414327047
 21
491.5759369658566
 31
0.0
 11
143.5654660442178
 21
491.5839644874933
 31
0.0
 11
143.188590655731
 21
491.6080470524054
 31
0.0
 11
142.4408425332853
 21
491.7038917080899
 31
0.0
 11
141.7039676965172
 21
491.8630817782489
 31
0.0
 11
140.9848719364342
 21
492.0838922230384
 31
0.0
 11
140.2872911379179
 21
492.3654251635317
 31
0.0
 11
139.6185974225669
 21
492.7044593650472
 31
0.0
 11
138.9815804341525
 21
493.0998545475904
 31
0.0
 11
138.3835025302924
 21
493.5468318797958
 31
0.0
 11
137.8265065665921
 21
494.0441034690127
 31
0.0
 11
137.3171355321551
 21
494.5855134219622
 31
0.0
 11
136.8571883188073
 21
495.1695258139484
 31
0.0
 11
136.4519657184315
 21
495.7890212262508
 31
0.0
 11
136.1031203918595
 21
496.4419539631851
 31
0.0
 11
135.8143806507079
 21
497.1208202421857
 31
0.0
 11
135.5872663588052
 21
497.8227283477319
 31
0.0
 11
135.4238576002749
 21
498.5404215598742
 31
0.0
 11
135.3253465147912
 21
499.2698702614608
 31
0.0
 11
135.2923414326839
 21
500.0046169622802
 31
0.0
 11
135.3253465147911
 21
500.7393636630996
 31
0.0
 11
135.4238576002748
 21
501.4688123646864
 31
0.0
 11
135.5872663588052
 21
502.1865055768287
 31
0.0
 11
135.7481637312999
 21
502.7045652912518
 31
0.0
 11
135.9423414326842
 21
503.210181452334
 31
0.0
  0
SPLINE
  5
F5
330
4D
100
AcDbEntity
  8
1
  6
Continuous
 62
     7
100
AcDbSpline
210
0.0
220
0.0
230
1.0
 70
    11
 71
     3
 72
    79
 73
    75
 74
    73
 42
0.000000001
 43
0.0000000001
 44
0.00000001
 40
0.0
 40
0.0
 40
0.0
 40
0.0
 40
0.1554883249594702
 40
0.2949080349667619
 40
0.5352746562136769
 40
0.7795950709221392
 40
1.132424253524118
 40
1.484060942159081
 40
1.93279192740878
 40
2.381744280512794
 40
2.915398469678805
 40
3.448988565467952
 40
4.051325565878936
 40
4.653666682892822
 40
5.306737913220343
 40
5.959804271569703
 40
6.643953732577394
 40
7.328102242740424
 40
8.022720919244144
 40
8.717339595772788
 40
9.40148810601106
 40
10.08563756714971
 40
10.73870392568439
 40
11.39177515626676
 40
11.99411627358881
 40
12.59645327438867
 40
13.13004337059814
 40
13.66369756025984
 40
14.11264991383734
 40
14.56138089959864
 40
14.91301758866514
 40
15.26584677173415
 40
15.5101671867141
 40
15.75053380763731
 40
15.88995351653319
 40
16.04544184344923
 40
16.12154185817131
 40
16.19764187289736
 40
16.35313019982056
 40
16.49254990871998
 40
16.73291652964491
 40
16.97723694462559
 40
17.3300661276938
 40
17.68170281675726
 40
18.13043380251224
 40
18.57938615608149
 40
19.11304034573127
 40
19.64663044192703
 40
20.24896744271014
 40
20.85130856001515
 40
21.5043797905802
 40
22.15744614910079
 40
22.84159561023098
 40
23.52574412047135
 40
24.22036279701814
 40
24.91498147356296
 40
25.59912998379756
 40
26.28327944491861
 40
26.93634580342762
 40
27.58941703397895
 40
28.19175815127038
 40
28.79409515204046
 40
29.327685248227
 40
29.8613394378728
 40
30.31029179144704
 40
30.7590227772227
 40
31.11065946632129
 40
31.4634886494589
 40
31.70780906454236
 40
31.94817568570826
 40
32.08759539489046
 40
32.24308372255137
 40
32.31918373760485
 40
32.39528375709718
 40
32.39528375709718
 40
32.39528375709718
 40
32.39528375709718
 10
151.9018608962442
 20
385.0249680032426
 30
0.0
 10
151.859832238409
 20
385.0558277483642
 30
0.0
 10
151.7801182937202
 20
385.1143581142398
 30
0.0
 10
151.6096107261866
 20
385.1726797008366
 30
0.0
 10
151.4054074549131
 20
385.2114785143063
 30
0.0
 10
151.1320497969201
 20
385.2685613678377
 30
0.0
 10
150.8201345760704
 20
385.3212918181001
 30
0.0
 10
150.4391174285206
 20
385.3725482911478
 30
0.0
 10
150.0250672611206
 20
385.4173781023594
 30
0.0
 10
149.5500602163659
 20
385.4622645636966
 30
0.0
 10
149.0462130187664
 20
385.5020993928305
 30
0.0
 10
148.4909042847099
 20
385.5390696819784
 30
0.0
 10
147.912341095775
 20
385.5708419185942
 30
0.0
 10
147.2937171559878
 20
385.59885830655
 30
0.0
 10
146.6579576598394
 20
385.6216693609484
 30
0.0
 10
145.9947720044482
 20
385.6399006613855
 30
0.0
 10
145.3211009268349
 20
385.6528489364404
 30
0.0
 10
144.6335011721553
 20
385.6607836043776
 30
0.0
 10
143.9423707662021
 20
385.6633938582968
 30
0.0
 10
143.2512401447229
 20
385.6608412991734
 30
0.0
 10
142.5636397300102
 20
385.6529640308148
 30
0.0
 10
141.8899675736215
 20
385.6400719945233
 30
0.0
 10
141.2267803987347
 20
385.6218960505618
 30
0.0
 10
140.5910189992045
 20
385.5991380881918
 30
0.0
 10
139.9723927263276
 20
385.571173274417
 30
0.0
 10
139.3938268731843
 20
385.5394495746198
 30
0.0
 10
138.8385150994922
 20
385.5025248463901
 30
0.0
 10
138.3346644226467
 20
385.4627348158147
 30
0.0
 10
137.8596541242521
 20
385.4178793223347
 30
0.0
 10
137.4455985771612
 20
385.3731129815644
 30
0.0
 10
137.064582029406
 20
385.3218022542646
 30
0.0
 10
136.7526469281839
 20
385.2693709507633
 30
0.0
 10
136.4793256333265
 20
385.2115852800067
 30
0.0
 10
136.275000513709
 20
385.1748962273939
 30
0.0
 10
136.1047682422635
 20
385.1116457720801
 30
0.0
 10
136.0036457016507
 20
385.0527091423512
 30
0.0
 10
135.9221980957028
 20
384.961196489676
 30
0.0
 10
136.00363806191
 20
384.8696770380859
 30
0.0
 10
136.1047556821484
 20
384.8107319668602
 30
0.0
 10
136.2749826728632
 20
384.7474673007917
 30
0.0
 10
136.4793047289716
 20
384.7107611912633
 30
0.0
 10
136.7526211989349
 20
384.6529527038719
 30
0.0
 10
137.0645519221087
 20
384.6004953602405
 30
0.0
 10
137.4455641851187
 20
384.5491528258975
 30
0.0
 10
137.8596159936719
 20
384.5043519199722
 30
0.0
 10
138.3346225458714
 20
384.4594567728481
 30
0.0
 10
138.8384698992837
 20
384.4196246810267
 30
0.0
 10
139.3937785885562
 20
384.3826535955876
 30
0.0
 10
139.9723417913793
 20
384.3508815973291
 30
0.0
 10
140.5909657275869
 20
384.3228651408629
 30
0.0
 10
141.2267252250567
 20
384.3000541053692
 30
0.0
 10
141.889910880297
 20
384.2818227987984
 30
0.0
 10
142.5635819581087
 20
384.2688745246323
 30
0.0
 10
143.2511817128388
 20
384.2609398556851
 30
0.0
 10
143.9423121188423
 20
384.258329601341
 30
0.0
 10
144.6334427403398
 20
384.260882159941
 30
0.0
 10
145.3210431550575
 20
384.2687594278904
 30
0.0
 10
145.9947153114339
 20
384.2816514637241
 30
0.0
 10
146.6579024863199
 20
384.2998274076069
 30
0.0
 10
147.2936638857786
 20
384.3225853687598
 30
0.0
 10
147.9122901588185
 20
384.3505501855046
 30
0.0
 10
148.4908560113013
 20
384.3822738737671
 30
0.0
 10
149.0461677871227
 20
384.4191986395761
 30
0.0
 10
149.5500184565913
 20
384.4589885401869
 30
0.0
 10
150.0250287783729
 20
384.5038444455371
 30
0.0
 10
150.4390842476567
 20
384.5486094153307
 30
0.0
 10
150.8201010271428
 20
384.5999242244753
 30
0.0
 10
151.1320353931346
 20
384.6523425748931
 30
0.0
 10
151.4053586416946
 20
384.7101626619994
 30
0.0
 10
151.6096781272933
 20
384.746752460086
 30
0.0
 10
151.7799237070963
 20
384.8102373619556
 30
0.0
 10
151.8810067011492
 20
384.8684773135022
 30
0.0
 10
151.9625362949214
 20
384.9614343086632
 30
0.0
 10
151.9220860257233
 20
385.0037901023571
 30
0.0
 10
151.9018608962442
 20
385.0249680032427
 30
0.0
 11
151.9018608962442
 21
385.0249680032426
 31
0.0
 11
151.7718201024905
 21
385.1102089075777
 31
0.0
 11
151.6413238218133
 21
385.1592861523943
 31
0.0
 11
151.4067967001002
 21
385.2119467793726
 31
0.0
 11
151.1672300583422
 21
385.2599081109963
 31
0.0
 11
150.8194511414328
 21
385.3193913638844
 31
0.0
 11
150.4710399308946
 21
385.3669096705039
 31
0.0
 11
150.0250414886611
 21
385.4163554701148
 31
0.0
 11
149.5780777506664
 21
385.4585648611549
 31
0.0
 11
149.0461133496139
 21
385.5009991650224
 31
0.0
 11
148.5137107773702
 21
385.5365785386889
 31
0.0
 11
147.9122949919958
 21
385.5698789234235
 31
0.0
 11
147.3105733182306
 21
385.5971891583168
 31
0.0
 11
146.6579275029717
 21
385.6207576125657
 31
0.0
 11
146.0051086958885
 21
385.6387374282698
 31
0.0
 11
145.3210872831086
 21
385.6519734417552
 31
0.0
 11
144.6369842880089
 21
385.6598649684195
 31
0.0
 11
143.9423707202223
 21
385.6625290427883
 31
0.0
 11
143.2477569324595
 21
385.6599229546598
 31
0.0
 11
142.5636532809601
 21
385.652088536833
 31
0.0
 11
141.8796307656233
 21
385.6389096253935
 31
0.0
 11
141.2268104598625
 21
385.6209843069632
 31
0.0
 11
140.5741626793869
 21
385.597470335566
 31
0.0
 11
139.9724387278644
 21
385.5702103323981
 31
0.0
 11
139.3710201646746
 21
385.5369601538745
 31
0.0
 11
138.8386146241256
 21
385.5014252252149
 31
0.0
 11
138.3066466825178
 21
385.4590353297993
 31
0.0
 11
137.8596794224471
 21
385.4168632513686
 31
0.0
 11
137.4136768540402
 21
385.3674546838097
 31
0.0
 11
137.0652616778953
 21
385.3199654626686
 31
0.0
 11
136.7174777965451
 21
385.2605112425169
 31
0.0
 11
136.4779071518175
 21
385.2125699100458
 31
0.0
 11
136.2433756348207
 21
385.1599288615379
 31
0.0
 11
136.1128752576376
 21
385.1108625107012
 31
0.0
 11
135.9828273484397
 21
385.0256324624481
 31
0.0
 11
135.942341432684
 21
384.9611956494483
 31
0.0
 11
135.9828219691236
 21
384.896755456915
 31
0.0
 11
136.1128627628773
 21
384.8115145525799
 31
0.0
 11
136.2433590435545
 21
384.7624373077632
 31
0.0
 11
136.4778861652677
 21
384.7097766807848
 31
0.0
 11
136.7174528070257
 21
384.6618153491612
 31
0.0
 11
137.0652317239351
 21
384.6023320962731
 31
0.0
 11
137.4136429344733
 21
384.5548137896537
 31
0.0
 11
137.8596413767068
 21
384.5053679900429
 31
0.0
 11
138.3066051147016
 21
384.4631585990028
 31
0.0
 11
138.8385695157541
 21
384.420724295135
 31
0.0
 11
139.3709720879977
 21
384.3851449214686
 31
0.0
 11
139.9723878733722
 21
384.351844536734
 31
0.0
 11
140.5741095471373
 21
384.3245343018407
 31
0.0
 11
141.2267553623962
 21
384.3009658475918
 31
0.0
 11
141.8795741694794
 21
384.2829860318878
 31
0.0
 11
142.5635955822593
 21
384.2697500184024
 31
0.0
 11
143.247698577359
 21
384.2618584917381
 31
0.0
 11
143.9423121451456
 21
384.2591944173693
 31
0.0
 11
144.6369259329084
 21
384.2618005054978
 31
0.0
 11
145.3210295844078
 21
384.2696349233245
 31
0.0
 11
146.0050520997445
 21
384.2828138347643
 31
0.0
 11
146.6578724055053
 21
384.3007391531946
 31
0.0
 11
147.3105201859809
 21
384.3242531245918
 31
0.0
 11
147.9122441375035
 21
384.3515131277596
 31
0.0
 11
148.5136627006931
 21
384.3847633062832
 31
0.0
 11
149.0460682412421
 21
384.4202982349428
 31
0.0
 11
149.57803618285
 21
384.4626881303583
 31
0.0
 11
150.0250034429207
 21
384.504860208789
 31
0.0
 11
150.4710060113277
 21
384.554268776348
 31
0.0
 11
150.8194211874728
 21
384.601757997489
 31
0.0
 11
151.1672050688229
 21
384.6612122176408
 31
0.0
 11
151.4067757135504
 21
384.709153550112
 31
0.0
 11
151.6413072305472
 21
384.7617945986196
 31
0.0
 11
151.7718076077303
 21
384.8108609494564
 31
0.0
 11
151.9018555169282
 21
384.8960909977094
 31
0.0
 11
151.9423414326839
 21
384.9605278107094
 31
0.0
 11
151.9018608962442
 21
385.0249680032427
 31
0.0
  0
ARC
  5
F6
330
4D
100
AcDbEntity
  8
1
  6
Continuous
 62
     7
100
AcDbCircle
 10
406.9586963979768
 20
234.9611956494453
 30
0.0
 40
33.00000000000006
100
AcDbArc
 50
249.173464468904
 51
270.0
  0
ARC
  5
F7
330
4D
100
AcDbEntity
  8
1
  6
Continuous
 62
     7
100
AcDbCircle
 10
406.9586963979768
 20
234.9611956494453
 30
0.0
 40
33.00000000000006
100
AcDbArc
 50
180.0
 51
249.173464468904
  0
ARC
  5
F8
330
4D
100
AcDbEntity
  8
1
  6
Continuous
 62
     7
100
AcDbCircle
 10
406.9586963979768
 20
234.9611956494453
 30
0.0
 40
17.00000000000006
100
AcDbArc
 50
180.0
 51
270.0
  0
ENDBLK
  5
4F
330
4D
100
AcDbEntity
  8
0
100
AcDbBlockEnd
  0
BLOCK
  5
53
330
50
100
AcDbEntity
  8
0
100
AcDbBlockBegin
  2
60-5X-M2
 70
     0
 10
1296.458696397979
 20
202.5124464316733
 30
0.0
  3
60-5X-M2
  1

  0
INSERT
  5
51
330
50
100
AcDbEntity
  8
1
100
AcDbBlockReference
  2
04-12-C4K
 10
1050.0
 20
297.0
 30
0.0
  0
INSERT
  5
52
330
50
100
AcDbEntity
  8
1
100
AcDbBlockReference
  2
60-5
 10
897.144785290333
 20
173.5437011719772
 30
0.0
  0
ENDBLK
  5
54
330
50
100
AcDbEntity
  8
0
100
AcDbBlockEnd
  0
BLOCK
  5
56
330
55
100
AcDbEntity
  8
0
100
AcDbBlockBegin
  2
37-1-13
 70
     0
 10
738.7599266147497
 20
142.7679913237569
 30
0.0
  3
37-1-13
  1

  0
LINE
  5
F9
330
55
100
AcDbEntity
  8
1
  6
Continuous
 62
     7
100
AcDbLine
 10
156.942341432684
 20
282.7636972139014
 30
0.0
 11
151.942341432684
 21
282.7636972139014
 31
0.0
  0
LINE
  5
FA
330
55
100
AcDbEntity
  8
1
  6
Continuous
 62
     7
100
AcDbLine
 10
156.942341432684
 20
289.8344114281729
 30
0.0
 11
156.942341432684
 21
282.7636972139014
 31
0.0
  0
LINE
  5
FB
330
55
100
AcDbEntity
  8
1
  6
Continuous
 62
     7
100
AcDbLine
 10
135.9423414326839
 20
282.7636972139014
 30
0.0
 11
130.9423414326839
 21
282.7636972139014
 31
0.0
  0
LINE
  5
FC
330
55
100
AcDbEntity
  8
1
  6
Continuous
 62
     7
100
AcDbLine
 10
130.9423414326839
 20
282.7636972139014
 30
0.0
 11
130.9423414326839
 21
289.8344114281729
 31
0.0
  0
LINE
  5
FD
330
55
100
AcDbEntity
  8
1
  6
Continuous
 62
     7
100
AcDbLine
 10
486.0294106122501
 20
282.7636972139014
 30
0.0
 11
459.8879821837072
 21
282.7636972139014
 31
0.0
  0
LINE
  5
FE
330
55
100
AcDbEntity
  8
1
  6
Continuous
 62
     7
100
AcDbLine
 10
478.9586963979787
 20
296.7636972139014
 30
0.0
 11
466.9586963979787
 21
296.7636972139014
 31
0.0
  0
LINE
  5
FF
330
55
100
AcDbEntity
  8
1
  6
Continuous
 62
     7
100
AcDbLine
 10
141.9667105969626
 20
709.6341732180088
 30
0.0
 11
143.0044902980058
 21
710.2333356077654
 31
0.0
  0
LINE
  5
100
330
55
100
AcDbEntity
  8
1
  6
Continuous
 62
     7
100
AcDbLine
 10
156.942341432684
 20
690.5394057040827
 30
0.0
 11
156.942341432684
 21
689.341080924569
 31
0.0
  0
LINE
  5
101
330
55
100
AcDbEntity
  8
1
  6
Continuous
 62
     7
100
AcDbLine
 10
132.9179722684056
 20
687.1175127196134
 30
0.0
 11
131.8801925673623
 21
687.7166751093703
 31
0.0
  0
LINE
  5
102
330
55
100
AcDbEntity
  8
1
  6
Continuous
 62
     7
100
AcDbLine
 10
130.942341432684
 20
689.341080924569
 30
0.0
 11
130.942341432684
 21
690.5394057040827
 31
0.0
  0
LINE
  5
103
330
55
100
AcDbEntity
  8
1
  6
Continuous
 62
     7
100
AcDbLine
 10
144.8801925673621
 20
710.2333356077654
 30
0.0
 11
145.9179722684054
 21
709.6341732180088
 31
0.0
  0
LINE
  5
104
330
55
100
AcDbEntity
  8
1
  6
Continuous
 62
     7
100
AcDbLine
 10
156.0044902980056
 20
687.7166751093703
 30
0.0
 11
154.9667105969626
 21
687.1175127196134
 31
0.0
  0
ARC
  5
105
330
55
100
AcDbEntity
  8
1
  6
Continuous
 62
     7
100
AcDbCircle
 10
169.8487966377987
 20
310.1701524190163
 30
0.0
 40
23.99999999999983
100
AcDbArc
 50
221.7461342698007
 51
236.0408074999024
  0
ARC
  5
106
330
55
100
AcDbEntity
  8
1
  6
Continuous
 62
     7
100
AcDbCircle
 10
153.442341432684
 20
286.2636972139014
 30
0.0
 40
5.000000000000057
100
AcDbArc
 50
45.57299599919494
 51
53.1301023541582
  0
ARC
  5
107
330
55
100
AcDbEntity
  8
1
  6
Continuous
 62
     7
100
AcDbCircle
 10
118.0358862275692
 20
310.1701524190163
 30
0.0
 40
23.99999999999995
100
AcDbArc
 50
303.9591925000979
 51
318.2538657301994
  0
ARC
  5
108
330
55
100
AcDbEntity
  8
1
  6
Continuous
 62
     7
100
AcDbCircle
 10
134.442341432684
 20
286.2636972139014
 30
0.0
 40
4.999999999999926
100
AcDbArc
 50
126.8698976458418
 51
134.427004000806
  0
ARC
  5
109
330
55
100
AcDbEntity
  8
1
  6
Continuous
 62
     7
100
AcDbCircle
 10
498.8651516030935
 20
310.1701524190163
 30
0.0
 40
23.99999999999988
100
AcDbArc
 50
213.9591925000975
 51
236.0408074999019
  0
ARC
  5
10A
330
55
100
AcDbEntity
  8
1
  6
Continuous
 62
     7
100
AcDbCircle
 10
482.4586963979787
 20
286.2636972139014
 30
0.0
 40
4.999999999999975
100
AcDbArc
 50
315.572995999194
 51
53.13010235415949
  0
ARC
  5
10B
330
55
100
AcDbEntity
  8
1
  6
Continuous
 62
     7
100
AcDbCircle
 10
447.0522411928637
 20
310.1701524190164
 30
0.0
 40
24.00000000000013
100
AcDbArc
 50
303.959192500098
 51
326.0408074999025
  0
ARC
  5
10C
330
55
100
AcDbEntity
  8
1
  6
Continuous
 62
     7
100
AcDbCircle
 10
463.4586963979787
 20
286.2636972139014
 30
0.0
 40
4.999999999999977
100
AcDbArc
 50
126.8698976458426
 51
224.4270040008051
  0
ARC
  5
10D
330
55
100
AcDbEntity
  8
1
  6
Continuous
 62
     7
100
AcDbCircle
 10
143.942341432684
 20
695.7636972139015
 30
0.0
 40
14.49999999999997
100
AcDbArc
 50
206.2915552747291
 51
213.7084447252702
  0
ARC
  5
10E
330
55
100
AcDbEntity
  8
1
  6
Continuous
 62
     7
100
AcDbCircle
 10
143.942341432684
 20
695.7636972139015
 30
0.0
 40
14.49999999999989
100
AcDbArc
 50
90.0
 51
93.70844472527044
  0
ARC
  5
10F
330
55
100
AcDbEntity
  8
1
  6
Continuous
 62
     7
100
AcDbCircle
 10
143.942341432684
 20
695.7636972139015
 30
0.0
 40
14.49999999999979
100
AcDbArc
 50
326.2915552747296
 51
333.7084447252709
  0
ARC
  5
110
330
55
100
AcDbEntity
  8
1
  6
Continuous
 62
     7
100
AcDbCircle
 10
143.942341432684
 20
695.7636972139015
 30
0.0
 40
14.49999999999988
100
AcDbArc
 50
86.29155527473002
 51
90.0
  0
SPLINE
  5
111
330
55
100
AcDbEntity
  8
1
  6
Continuous
 62
     7
100
AcDbSpline
210
0.0
220
0.0
230
1.0
 70
     8
 71
     3
 72
    29
 73
    25
 74
    23
 42
0.000000001
 43
0.0000000001
 44
0.00000001
 40
0.0
 40
0.0
 40
0.0
 40
0.0
 40
0.6069077071335492
 40
1.212222618922134
 40
1.842666699981029
 40
2.474631891987835
 40
3.102420163135043
 40
3.72933388162455
 40
4.271042929453274
 40
4.812985317241566
 40
5.340107969104274
 40
5.866248914948865
 40
6.263874824440482
 40
6.661485222726853
 40
7.280966483141259
 40
7.902596723210374
 40
8.549168899022987
 40
9.195896755585105
 40
9.7224159567122
 40
10.24911839923939
 40
11.07897535377107
 40
11.90732205839677
 40
12.67331707894466
 40
13.44191268485693
 40
13.44191268485693
 40
13.44191268485693
 40
13.44191268485693
 10
472.9586963979787
 20
289.7636972139014
 30
0.0
 10
472.7566365704329
 20
289.7538218405373
 30
0.0
 10
472.3530472107557
 20
289.7340969993247
 30
0.0
 10
471.741341662672
 20
289.6703066511034
 30
0.0
 10
471.1319246015299
 20
289.5361233533629
 30
0.0
 10
470.5335184265516
 20
289.3356677338364
 30
0.0
 10
469.9589558950779
 20
289.0771066176061
 30
0.0
 10
469.4440580977093
 20
288.7681772285018
 30
0.0
 10
468.9950392239533
 20
288.4143603045572
 30
0.0
 10
468.6210976216551
 20
288.0263356370405
 30
0.0
 10
468.3141317203483
 20
287.5894052339654
 30
0.0
 10
468.106823062909
 20
287.149191267529
 30
0.0
 10
467.9909204746889
 20
286.7224821474765
 30
0.0
 10
467.9402172698111
 20
286.2515667056743
 30
0.0
 10
468.0006735930522
 20
285.7025921134336
 30
0.0
 10
468.2136208246815
 20
285.1048460481117
 30
0.0
 10
468.560857761834
 20
284.5632438029712
 30
0.0
 10
468.982215487414
 20
284.1226358355811
 30
0.0
 10
469.4296289773947
 20
283.7727619126117
 30
0.0
 10
469.9654653629395
 20
283.4438515302702
 30
0.0
 10
470.6303564123255
 20
283.1401129098683
 30
0.0
 10
471.4100174729622
 20
282.9153430441518
 30
0.0
 10
472.1924230890663
 20
282.810956244761
 30
0.0
 10
472.7029835552402
 20
282.7795337542551
 30
0.0
 10
472.9586963979787
 20
282.7637958899884
 30
0.0
 11
472.9586963979787
 21
289.7636972139014
 31
0.0
 11
472.3528103762204
 21
289.7284963481391
 31
0.0
 11
471.751367556739
 21
289.6601393560549
 31
0.0
 11
471.1354763449979
 21
289.5254628702306
 31
0.0
 11
470.5360148834492
 21
289.3253979782855
 31
0.0
 11
469.9643161101292
 21
289.0660167400351
 31
0.0
 11
469.4277508931161
 21
288.7417967852571
 31
0.0
 11
469.003318354337
 21
288.4051876452761
 31
0.0
 11
468.6285693790563
 21
288.0136972139014
 31
0.0
 11
468.3270134930963
 21
287.5813520526829
 31
0.0
 11
468.1049931792627
 21
287.1043496670667
 31
0.0
 11
468.0012324621196
 21
286.720500636937
 31
0.0
 11
467.9594743642988
 21
286.3250890911227
 31
0.0
 11
468.0240679759202
 21
285.7089846369128
 31
0.0
 11
468.2316861460715
 21
285.123050466636
 31
0.0
 11
468.5770587469265
 21
284.576448832722
 31
0.0
 11
469.0213328735295
 21
284.1064728526417
 31
0.0
 11
469.4352032923042
 21
283.7809982050705
 31
0.0
 11
469.8832421395284
 21
283.5040927068909
 31
0.0
 11
470.6380028461659
 21
283.1591306187134
 31
0.0
 11
471.434159156554
 21
282.9304531289671
 31
0.0
 11
472.1921682871535
 21
282.8201329999524
 31
0.0
 11
472.9586963979787
 21
282.7637958899884
 31
0.0
  0
SPLINE
  5
112
330
55
100
AcDbEntity
  8
1
  6
Continuous
 62
     7
100
AcDbSpline
210
0.0
220
0.0
230
1.0
 70
    11
 71
     3
 72
    79
 73
    75
 74
    73
 42
0.000000001
 43
0.0000000001
 44
0.00000001
 40
0.0
 40
0.0
 40
0.0
 40
0.0
 40
0.2803981055170699
 40
0.5607977780794288
 40
0.842745476781596
 40
1.124697465942984
 40
1.409536444711938
 40
1.694381494092202
 40
1.983071303433846
 40
2.271767836809239
 40
2.564776135645514
 40
2.857790848031688
 40
3.155055692063534
 40
3.452325972452776
 40
3.753284820909563
 40
4.054247736388255
 40
4.357919800455175
 40
4.661594361771467
 40
4.966700742338086
 40
5.271807963175765
 40
5.576915184002982
 40
5.88202156453853
 40
6.185696125802654
 40
6.489368189796065
 40
6.790331105179858
 40
7.091289953518745
 40
7.388560233767548
 40
7.685825077633788
 40
7.978839789830591
 40
8.271848088449213
 40
8.56054462157983
 40
8.84923443064252
 40
9.134079479707347
 40
9.418918458106221
 40
9.700870446812822
 40
9.982818144856111
 40
10.26321781600897
 40
10.54361593035243
 40
10.82401404469588
 40
11.10441371584857
 40
11.38636141389203
 40
11.66831340259858
 40
11.95315238099742
 40
12.23799743006223
 40
12.52668723912495
 40
12.81538377225558
 40
13.10839207087424
 40
13.40140678307101
 40
13.69867162693726
 40
13.99594190718599
 40
14.29690075552497
 40
14.59786367090873
 40
14.90153573490208
 40
15.20521029616629
 40
15.51031667670182
 40
15.81542389752904
 40
16.12053111836671
 40
16.42563749893333
 40
16.72931206024956
 40
17.03298412431654
 40
17.33394703979522
 40
17.63490588825208
 40
17.93217616864127
 40
18.2294410126731
 40
18.52245572505931
 40
18.81546402389554
 40
19.1041605572709
 40
19.39285036661262
 40
19.67769541599284
 40
19.96253439476179
 40
20.24448638392325
 40
20.52643408262546
 40
20.8068337551877
 40
21.08723186070471
 40
21.08723186070471
 40
21.08723186070471
 40
21.08723186070471
 10
461.700366148781
 20
289.7636972139014
 30
0.0
 10
461.6068656087389
 20
289.7611158280953
 30
0.0
 10
461.4198640059366
 20
289.7559530473908
 30
0.0
 10
461.1413795947435
 20
289.7144806988274
 30
0.0
 10
460.8674373975911
 20
289.6485805389857
 30
0.0
 10
460.5995092318221
 20
289.5563484300284
 30
0.0
 10
460.3404634439518
 20
289.4392662408994
 30
0.0
 10
460.0913041495347
 20
289.2977899595004
 30
0.0
 10
459.8549941291206
 20
289.1335076136642
 30
0.0
 10
459.6322191349828
 20
288.9470474655854
 30
0.0
 10
459.425763102477
 20
288.7406229907725
 30
0.0
 10
459.2361503586368
 20
288.5149052964488
 30
0.0
 10
459.0657511825182
 20
288.272614498204
 30
0.0
 10
458.9150383747226
 20
288.0145570054601
 30
0.0
 10
458.7858152380134
 20
287.7437298020675
 30
0.0
 10
458.6785355646483
 20
287.4612129486542
 30
0.0
 10
458.5943810609151
 20
287.1700249781393
 30
0.0
 10
458.5337377869075
 20
286.871646205298
 30
0.0
 10
458.4972040244605
 20
286.5688852334869
 30
0.0
 10
458.4849849935491
 20
286.2636972233045
 30
0.0
 10
458.4972040241105
 20
285.9585092131196
 30
0.0
 10
458.5337377862063
 20
285.6557482412931
 30
0.0
 10
458.5943810598608
 20
285.3573694684503
 30
0.0
 10
458.6785355632377
 20
285.0661814978463
 30
0.0
 10
458.7858152362422
 20
284.7836646446302
 30
0.0
 10
458.9150383725856
 20
284.512837440334
 30
0.0
 10
459.0657511800091
 20
284.2547799507075
 30
0.0
 10
459.2361503557485
 20
284.0124891406512
 30
0.0
 10
459.4257630991993
 20
283.7867714894893
 30
0.0
 10
459.6322191313061
 20
283.5803468544952
 30
0.0
 10
459.8549941250299
 20
283.3938872953472
 30
0.0
 10
460.0913041450117
 20
283.2296027676616
 30
0.0
 10
460.340463438966
 20
283.0881345246136
 30
0.0
 10
460.5995092263266
 20
282.9710225210297
 30
0.0
 10
460.8674373914603
 20
282.8789006025707
 30
0.0
 10
461.1413795876603
 20
282.8125908370132
 30
0.0
 10
461.4198640006966
 20
282.772639171923
 30
0.0
 10
461.7003661487811
 20
282.7592262623024
 30
0.0
 10
461.980868296865
 20
282.7726391719231
 30
0.0
 10
462.2593527099017
 20
282.8125908370132
 30
0.0
 10
462.5332949061015
 20
282.8789006025706
 30
0.0
 10
462.8012230712355
 20
282.9710225210297
 30
0.0
 10
463.0602688585957
 20
283.0881345246135
 30
0.0
 10
463.3094281525501
 20
283.2296027676616
 30
0.0
 10
463.545738172532
 20
283.3938872953472
 30
0.0
 10
463.7685131662558
 20
283.5803468544953
 30
0.0
 10
463.9749691983625
 20
283.7867714894894
 30
0.0
 10
464.1645819418134
 20
284.0124891406512
 30
0.0
 10
464.3349811175528
 20
284.2547799507075
 30
0.0
 10
464.4856939249761
 20
284.5128374403342
 30
0.0
 10
464.6149170613198
 20
284.7836646446302
 30
0.0
 10
464.722196734324
 20
285.0661814978463
 30
0.0
 10
464.8063512377013
 20
285.3573694684502
 30
0.0
 10
464.8669945113556
 20
285.6557482412931
 30
0.0
 10
464.9035282734512
 20
285.9585092131197
 30
0.0
 10
464.9157473040129
 20
286.2636972233043
 30
0.0
 10
464.9035282731013
 20
286.5688852334869
 30
0.0
 10
464.8669945106544
 20
286.871646205298
 30
0.0
 10
464.8063512366469
 20
287.1700249781394
 30
0.0
 10
464.7221967329136
 20
287.4612129486543
 30
0.0
 10
464.6149170595482
 20
287.7437298020674
 30
0.0
 10
464.4856939228394
 20
288.0145570054601
 30
0.0
 10
464.3349811150435
 20
288.2726144982039
 30
0.0
 10
464.164581938925
 20
288.5149052964489
 30
0.0
 10
463.974969195085
 20
288.7406229907724
 30
0.0
 10
463.768513162579
 20
288.9470474655853
 30
0.0
 10
463.5457381684413
 20
289.1335076136642
 30
0.0
 10
463.3094281480272
 20
289.2977899595004
 30
0.0
 10
463.06026885361
 20
289.4392662408993
 30
0.0
 10
462.8012230657397
 20
289.5563484300285
 30
0.0
 10
462.5332948999709
 20
289.6485805389857
 30
0.0
 10
462.2593527028182
 20
289.7144806988275
 30
0.0
 10
461.9808682916252
 20
289.7559530473907
 30
0.0
 10
461.7938666888231
 20
289.7611158280952
 30
0.0
 10
461.700366148781
 20
289.7636972139014
 30
0.0
 11
461.700366148781
 21
289.7636972139014
 31
0.0
 11
461.4202861499114
 21
289.7503444286033
 31
0.0
 11
461.1427283415327
 21
289.7105243494442
 31
0.0
 11
460.8686769371537
 21
289.6442647667202
 31
0.0
 11
460.6020340768793
 21
289.5526213866521
 31
0.0
 11
460.3424456523434
 21
289.435373386367
 31
0.0
 11
460.0947120764478
 21
289.294786127147
 31
0.0
 11
459.8576115918388
 21
289.1300889317949
 31
0.0
 11
459.636177062504
 21
288.9448527648178
 31
0.0
 11
459.4288936731942
 21
288.7377598879026
 31
0.0
 11
459.2403613894167
 21
288.5134538478043
 31
0.0
 11
459.069272842843
 21
288.2703590171035
 31
0.0
 11
458.91929171612
 21
288.0136972139014
 31
0.0
 11
458.7896149362457
 21
287.7421089939303
 31
0.0
 11
458.6827235821684
 21
287.4607677155414
 31
0.0
 11
458.5983575208382
 21
287.169050231996
 31
0.0
 11
458.5378449906024
 21
286.8714658357357
 31
0.0
 11
458.5012660420393
 21
286.5685601012015
 31
0.0
 11
458.4890580041146
 21
286.2636972139014
 31
0.0
 11
458.5012660420394
 21
285.9588343266014
 31
0.0
 11
458.5378449906024
 21
285.6559285920672
 31
0.0
 11
458.5983575208382
 21
285.3583441958071
 31
0.0
 11
458.6827235821684
 21
285.0666267122616
 31
0.0
 11
458.7896149362457
 21
284.7852854338726
 31
0.0
 11
458.91929171612
 21
284.5136972139014
 31
0.0
 11
459.069272842843
 21
284.2570354106993
 31
0.0
 11
459.2403613894167
 21
284.0139405799986
 31
0.0
 11
459.4288936731943
 21
283.7896345399003
 31
0.0
 11
459.636177062504
 21
283.582541662985
 31
0.0
 11
459.8576115918388
 21
283.397305496008
 31
0.0
 11
460.0947120764478
 21
283.232608300656
 31
0.0
 11
460.3424456523434
 21
283.0920210414361
 31
0.0
 11
460.6020340768793
 21
282.9747730411509
 31
0.0
 11
460.8686769371538
 21
282.8831296610828
 31
0.0
 11
461.1427283415327
 21
282.8168700783588
 31
0.0
 11
461.4202861499114
 21
282.7770499991996
 31
0.0
 11
461.700366148781
 21
282.7636972139014
 31
0.0
 11
461.9804461476505
 21
282.7770499991996
 31
0.0
 11
462.2580039560291
 21
282.8168700783588
 31
0.0
 11
462.5320553604082
 21
282.8831296610828
 31
0.0
 11
462.7986982206826
 21
282.9747730411509
 31
0.0
 11
463.0582866452185
 21
283.0920210414361
 31
0.0
 11
463.306020221114
 21
283.232608300656
 31
0.0
 11
463.543120705723
 21
283.397305496008
 31
0.0
 11
463.7645552350579
 21
283.582541662985
 31
0.0
 11
463.9718386243676
 21
283.7896345399003
 31
0.0
 11
464.1603709081452
 21
284.0139405799986
 31
0.0
 11
464.3314594547189
 21
284.2570354106994
 31
0.0
 11
464.4814405814418
 21
284.5136972139014
 31
0.0
 11
464.6111173613162
 21
284.7852854338726
 31
0.0
 11
464.7180087153935
 21
285.0666267122616
 31
0.0
 11
464.8023747767239
 21
285.358344195807
 31
0.0
 11
464.8628873069595
 21
285.6559285920672
 31
0.0
 11
464.8994662555224
 21
285.9588343266014
 31
0.0
 11
464.9116742934472
 21
286.2636972139014
 31
0.0
 11
464.8994662555226
 21
286.5685601012015
 31
0.0
 11
464.8628873069595
 21
286.8714658357357
 31
0.0
 11
464.8023747767238
 21
287.1690502319959
 31
0.0
 11
464.7180087153935
 21
287.4607677155414
 31
0.0
 11
464.6111173613161
 21
287.7421089939303
 31
0.0
 11
464.4814405814418
 21
288.0136972139014
 31
0.0
 11
464.3314594547188
 21
288.2703590171035
 31
0.0
 11
464.1603709081452
 21
288.5134538478043
 31
0.0
 11
463.9718386243676
 21
288.7377598879026
 31
0.0
 11
463.7645552350579
 21
288.9448527648178
 31
0.0
 11
463.5431207057231
 21
289.1300889317949
 31
0.0
 11
463.306020221114
 21
289.294786127147
 31
0.0
 11
463.0582866452185
 21
289.435373386367
 31
0.0
 11
462.7986982206826
 21
289.5526213866521
 31
0.0
 11
462.5320553604081
 21
289.6442647667203
 31
0.0
 11
462.2580039560291
 21
289.7105243494442
 31
0.0
 11
461.9804461476505
 21
289.7503444286033
 31
0.0
 11
461.700366148781
 21
289.7636972139014
 31
0.0
  0
SPLINE
  5
113
330
55
100
AcDbEntity
  8
1
  6
Continuous
 62
     7
100
AcDbSpline
210
0.0
220
0.0
230
1.0
 70
     8
 71
     3
 72
    29
 73
    25
 74
    23
 42
0.000000001
 43
0.0000000001
 44
0.00000001
 40
0.0
 40
0.0
 40
0.0
 40
0.0
 40
0.606907707133379
 40
1.212222618921908
 40
1.842666699980802
 40
2.474631891987609
 40
3.10242016313492
 40
3.729333881624427
 40
4.27104292945315
 40
4.812985317241364
 40
5.340107969104105
 40
5.86624891494872
 40
6.263874824440337
 40
6.661485222726697
 40
7.280966483141103
 40
7.902596723210218
 40
8.549168899022801
 40
9.19589675558488
 40
9.722415956711886
 40
10.24911839923908
 40
11.0789753537708
 40
11.90732205839667
 40
12.67331707894456
 40
13.4419126848566
 40
13.4419126848566
 40
13.4419126848566
 40
13.4419126848566
 10
472.9586963979787
 20
289.7636972139014
 30
0.0
 10
473.1607562255244
 20
289.7538218405374
 30
0.0
 10
473.5643455852014
 20
289.7340969993247
 30
0.0
 10
474.1760511332852
 20
289.6703066511034
 30
0.0
 10
474.7854681944275
 20
289.536123353363
 30
0.0
 10
475.3838743694056
 20
289.3356677338365
 30
0.0
 10
475.9584369008794
 20
289.0771066176061
 30
0.0
 10
476.473334698248
 20
288.7681772285017
 30
0.0
 10
476.9223535720042
 20
288.4143603045574
 30
0.0
 10
477.296295174302
 20
288.0263356370403
 30
0.0
 10
477.603261075609
 20
287.5894052339654
 30
0.0
 10
477.8105697330479
 20
287.149191267529
 30
0.0
 10
477.9264723212687
 20
286.7224821474765
 30
0.0
 10
477.977175526146
 20
286.2515667056744
 30
0.0
 10
477.916719202905
 20
285.7025921134335
 30
0.0
 10
477.7037719712756
 20
285.1048460481117
 30
0.0
 10
477.3565350341233
 20
284.5632438029711
 30
0.0
 10
476.9351773085432
 20
284.1226358355813
 30
0.0
 10
476.4877638185628
 20
283.7727619126115
 30
0.0
 10
475.9519274330178
 20
283.4438515302702
 30
0.0
 10
475.2870363836319
 20
283.1401129098683
 30
0.0
 10
474.5073753229952
 20
282.9153430441518
 30
0.0
 10
473.7249697068909
 20
282.810956244761
 30
0.0
 10
473.214409240717
 20
282.7795337542549
 30
0.0
 10
472.9586963979787
 20
282.7637958899884
 30
0.0
 11
472.9586963979787
 21
289.7636972139014
 31
0.0
 11
473.5645824197368
 21
289.7284963481391
 31
0.0
 11
474.1660252392182
 21
289.6601393560549
 31
0.0
 11
474.7819164509593
 21
289.5254628702306
 31
0.0
 11
475.381377912508
 21
289.3253979782855
 31
0.0
 11
475.9530766858281
 21
289.0660167400351
 31
0.0
 11
476.4896419028412
 21
288.7417967852571
 31
0.0
 11
476.9140744416204
 21
288.4051876452761
 31
0.0
 11
477.2888234169009
 21
288.0136972139014
 31
0.0
 11
477.5903793028609
 21
287.5813520526829
 31
0.0
 11
477.8123996166946
 21
287.1043496670667
 31
0.0
 11
477.9161603338377
 21
286.720500636937
 31
0.0
 11
477.9579184316584
 21
286.3250890911227
 31
0.0
 11
477.893324820037
 21
285.7089846369128
 31
0.0
 11
477.6857066498857
 21
285.123050466636
 31
0.0
 11
477.3403340490307
 21
284.576448832722
 31
0.0
 11
476.8960599224278
 21
284.1064728526417
 31
0.0
 11
476.4821895036532
 21
283.7809982050705
 31
0.0
 11
476.034150656429
 21
283.5040927068909
 31
0.0
 11
475.2793899497914
 21
283.1591306187134
 31
0.0
 11
474.4832336394032
 21
282.9304531289671
 31
0.0
 11
473.7252245088036
 21
282.8201329999524
 31
0.0
 11
472.9586963979787
 21
282.7637958899884
 31
0.0
  0
SPLINE
  5
114
330
55
100
AcDbEntity
  8
1
  6
Continuous
 62
     7
100
AcDbSpline
210
0.0
220
0.0
230
1.0
 70
    11
 71
     3
 72
    79
 73
    75
 74
    73
 42
0.000000001
 43
0.0000000001
 44
0.00000001
 40
0.0
 40
0.0
 40
0.0
 40
0.0
 40
0.2803981055170699
 40
0.5607977780793725
 40
0.842745476781595
 40
1.124697465943037
 40
1.409536444711939
 40
1.694381494092154
 40
1.983071303433751
 40
2.271767836809188
 40
2.564776135645543
 40
2.85779084803179
 40
3.155055692063538
 40
3.452325972452751
 40
3.753284820909587
 40
4.054247736388319
 40
4.35791980045524
 40
4.661594361771532
 40
4.966700742338123
 40
5.271807963175798
 40
5.576915184003011
 40
5.882021564538531
 40
6.1856961258027
 40
6.489368189796073
 40
6.790331105179853
 40
7.091289953518841
 40
7.388560233767643
 40
7.685825077633752
 40
7.978839789830599
 40
8.271848088449342
 40
8.560544621579966
 40
8.849234430642642
 40
9.13407947970737
 40
9.418918458106244
 40
9.700870446812845
 40
9.982818144856244
 40
10.26321781600898
 40
10.5436159303525
 40
10.82401404469601
 40
11.1044137158487
 40
11.38636141389209
 40
11.6683134025987
 40
11.95315238099762
 40
12.23799743006245
 40
12.52668723912512
 40
12.8153837722557
 40
13.10839207087433
 40
13.40140678307113
 40
13.69867162693732
 40
13.99594190718604
 40
14.296900755525
 40
14.59786367090884
 40
14.90153573490221
 40
15.20521029616638
 40
15.51031667670198
 40
15.81542389752913
 40
16.12053111836681
 40
16.42563749893342
 40
16.72931206024964
 40
17.03298412431663
 40
17.33394703979544
 40
17.63490588825222
 40
17.93217616864142
 40
18.22944101267318
 40
18.52245572505935
 40
18.81546402389563
 40
19.10416055727102
 40
19.39285036661262
 40
19.67769541599283
 40
19.96253439476189
 40
20.24448638392328
 40
20.52643408262556
 40
20.8068337551878
 40
21.08723186070487
 40
21.08723186070487
 40
21.08723186070487
 40
21.08723186070487
 10
484.2170266471763
 20
289.7636972139014
 30
0.0
 10
484.3105271872186
 20
289.7611158280953
 30
0.0
 10
484.4975287900203
 20
289.7559530473907
 30
0.0
 10
484.7760132012137
 20
289.7144806988274
 30
0.0
 10
485.0499553983663
 20
289.6485805389857
 30
0.0
 10
485.3178835641351
 20
289.5563484300284
 30
0.0
 10
485.5769293520055
 20
289.4392662408994
 30
0.0
 10
485.8260886464225
 20
289.2977899595005
 30
0.0
 10
486.0623986668365
 20
289.1335076136641
 30
0.0
 10
486.2851736609744
 20
288.9470474655853
 30
0.0
 10
486.4916296934804
 20
288.7406229907724
 30
0.0
 10
486.6812424373204
 20
288.5149052964489
 30
0.0
 10
486.8516416134391
 20
288.272614498204
 30
0.0
 10
487.0023544212346
 20
288.0145570054601
 30
0.0
 10
487.1315775579439
 20
287.7437298020674
 30
0.0
 10
487.238857231309
 20
287.4612129486543
 30
0.0
 10
487.3230117350424
 20
287.1700249781393
 30
0.0
 10
487.38365500905
 20
286.871646205298
 30
0.0
 10
487.4201887714967
 20
286.568885233487
 30
0.0
 10
487.4324078024082
 20
286.2636972233043
 30
0.0
 10
487.4201887718465
 20
285.9585092131197
 30
0.0
 10
487.3836550097513
 20
285.6557482412931
 30
0.0
 10
487.3230117360968
 20
285.3573694684503
 30
0.0
 10
487.2388572327197
 20
285.0661814978463
 30
0.0
 10
487.1315775597152
 20
284.7836646446303
 30
0.0
 10
487.0023544233716
 20
284.512837440334
 30
0.0
 10
486.8516416159482
 20
284.2547799507075
 30
0.0
 10
486.6812424402089
 20
284.0124891406512
 30
0.0
 10
486.4916296967582
 20
283.7867714894892
 30
0.0
 10
486.285173664651
 20
283.5803468544954
 30
0.0
 10
486.0623986709275
 20
283.3938872953472
 30
0.0
 10
485.8260886509455
 20
283.2296027676616
 30
0.0
 10
485.5769293569913
 20
283.0881345246136
 30
0.0
 10
485.3178835696307
 20
282.9710225210297
 30
0.0
 10
485.049955404497
 20
282.8789006025706
 30
0.0
 10
484.7760132082971
 20
282.8125908370132
 30
0.0
 10
484.4975287952605
 20
282.7726391719232
 30
0.0
 10
484.2170266471762
 20
282.7592262623022
 30
0.0
 10
483.9365244990922
 20
282.7726391719233
 30
0.0
 10
483.6580400860555
 20
282.8125908370131
 30
0.0
 10
483.3840978898556
 20
282.8789006025707
 30
0.0
 10
483.1161697247218
 20
282.9710225210297
 30
0.0
 10
482.8571239373615
 20
283.0881345246136
 30
0.0
 10
482.6079646434069
 20
283.2296027676615
 30
0.0
 10
482.3716546234251
 20
283.3938872953473
 30
0.0
 10
482.1488796297013
 20
283.5803468544951
 30
0.0
 10
481.9424235975949
 20
283.7867714894894
 30
0.0
 10
481.7528108541437
 20
284.0124891406512
 30
0.0
 10
481.5824116784045
 20
284.2547799507075
 30
0.0
 10
481.4316988709812
 20
284.5128374403342
 30
0.0
 10
481.3024757346374
 20
284.7836646446301
 30
0.0
 10
481.195196061633
 20
285.0661814978463
 30
0.0
 10
481.1110415582559
 20
285.3573694684502
 30
0.0
 10
481.0503982846017
 20
285.6557482412932
 30
0.0
 10
481.0138645225059
 20
285.9585092131197
 30
0.0
 10
481.0016454919444
 20
286.2636972233043
 30
0.0
 10
481.0138645228559
 20
286.568885233487
 30
0.0
 10
481.0503982853028
 20
286.871646205298
 30
0.0
 10
481.1110415593102
 20
287.1700249781393
 30
0.0
 10
481.1951960630437
 20
287.4612129486544
 30
0.0
 10
481.3024757364087
 20
287.7437298020674
 30
0.0
 10
481.4316988731181
 20
288.0145570054601
 30
0.0
 10
481.5824116809139
 20
288.2726144982039
 30
0.0
 10
481.7528108570322
 20
288.5149052964489
 30
0.0
 10
481.942423600872
 20
288.7406229907724
 30
0.0
 10
482.1488796333783
 20
288.9470474655854
 30
0.0
 10
482.3716546275157
 20
289.1335076136641
 30
0.0
 10
482.6079646479301
 20
289.2977899595005
 30
0.0
 10
482.8571239423469
 20
289.4392662408994
 30
0.0
 10
483.1161697302175
 20
289.5563484300284
 30
0.0
 10
483.3840978959864
 20
289.6485805389856
 30
0.0
 10
483.6580400931389
 20
289.7144806988275
 30
0.0
 10
483.9365245043321
 20
289.7559530473907
 30
0.0
 10
484.1235261071342
 20
289.7611158280953
 30
0.0
 10
484.2170266471763
 20
289.7636972139014
 30
0.0
 11
484.2170266471763
 21
289.7636972139014
 31
0.0
 11
484.4971066460459
 21
289.7503444286033
 31
0.0
 11
484.7746644544245
 21
289.7105243494442
 31
0.0
 11
485.0487158588035
 21
289.6442647667202
 31
0.0
 11
485.315358719078
 21
289.5526213866521
 31
0.0
 11
485.5749471436139
 21
289.435373386367
 31
0.0
 11
485.8226807195094
 21
289.294786127147
 31
0.0
 11
486.0597812041183
 21
289.1300889317949
 31
0.0
 11
486.2812157334532
 21
288.9448527648178
 31
0.0
 11
486.4884991227631
 21
288.7377598879026
 31
0.0
 11
486.6770314065407
 21
288.5134538478043
 31
0.0
 11
486.8481199531143
 21
288.2703590171035
 31
0.0
 11
486.9981010798372
 21
288.0136972139014
 31
0.0
 11
487.1277778597116
 21
287.7421089939303
 31
0.0
 11
487.234669213789
 21
287.4607677155414
 31
0.0
 11
487.3190352751192
 21
287.169050231996
 31
0.0
 11
487.379547805355
 21
286.8714658357357
 31
0.0
 11
487.4161267539179
 21
286.5685601012015
 31
0.0
 11
487.4283347918425
 21
286.2636972139014
 31
0.0
 11
487.4161267539178
 21
285.9588343266014
 31
0.0
 11
487.379547805355
 21
285.6559285920672
 31
0.0
 11
487.3190352751192
 21
285.358344195807
 31
0.0
 11
487.234669213789
 21
285.0666267122616
 31
0.0
 11
487.1277778597116
 21
284.7852854338726
 31
0.0
 11
486.9981010798372
 21
284.5136972139014
 31
0.0
 11
486.8481199531142
 21
284.2570354106993
 31
0.0
 11
486.6770314065407
 21
284.0139405799986
 31
0.0
 11
486.4884991227631
 21
283.7896345399002
 31
0.0
 11
486.2812157334532
 21
283.582541662985
 31
0.0
 11
486.0597812041183
 21
283.397305496008
 31
0.0
 11
485.8226807195094
 21
283.232608300656
 31
0.0
 11
485.5749471436139
 21
283.0920210414361
 31
0.0
 11
485.315358719078
 21
282.9747730411509
 31
0.0
 11
485.0487158588035
 21
282.8831296610828
 31
0.0
 11
484.7746644544245
 21
282.8168700783588
 31
0.0
 11
484.4971066460459
 21
282.7770499991996
 31
0.0
 11
484.2170266471763
 21
282.7636972139014
 31
0.0
 11
483.9369466483067
 21
282.7770499991996
 31
0.0
 11
483.6593888399281
 21
282.8168700783588
 31
0.0
 11
483.3853374355491
 21
282.8831296610828
 31
0.0
 11
483.1186945752746
 21
282.9747730411509
 31
0.0
 11
482.8591061507386
 21
283.0920210414361
 31
0.0
 11
482.6113725748431
 21
283.232608300656
 31
0.0
 11
482.3742720902341
 21
283.397305496008
 31
0.0
 11
482.1528375608993
 21
283.582541662985
 31
0.0
 11
481.9455541715896
 21
283.7896345399003
 31
0.0
 11
481.757021887812
 21
284.0139405799986
 31
0.0
 11
481.5859333412384
 21
284.2570354106994
 31
0.0
 11
481.4359522145155
 21
284.5136972139014
 31
0.0
 11
481.3062754346411
 21
284.7852854338726
 31
0.0
 11
481.1993840805637
 21
285.0666267122616
 31
0.0
 11
481.1150180192334
 21
285.358344195807
 31
0.0
 11
481.0545054889977
 21
285.6559285920672
 31
0.0
 11
481.0179265404347
 21
285.9588343266015
 31
0.0
 11
481.00571850251
 21
286.2636972139014
 31
0.0
 11
481.0179265404347
 21
286.5685601012015
 31
0.0
 11
481.0545054889977
 21
286.8714658357357
 31
0.0
 11
481.1150180192334
 21
287.1690502319959
 31
0.0
 11
481.1993840805637
 21
287.4607677155414
 31
0.0
 11
481.3062754346411
 21
287.7421089939304
 31
0.0
 11
481.4359522145155
 21
288.0136972139014
 31
0.0
 11
481.5859333412385
 21
288.2703590171035
 31
0.0
 11
481.757021887812
 21
288.5134538478043
 31
0.0
 11
481.9455541715895
 21
288.7377598879026
 31
0.0
 11
482.1528375608993
 21
288.9448527648178
 31
0.0
 11
482.3742720902341
 21
289.1300889317949
 31
0.0
 11
482.6113725748431
 21
289.294786127147
 31
0.0
 11
482.8591061507386
 21
289.435373386367
 31
0.0
 11
483.1186945752746
 21
289.5526213866521
 31
0.0
 11
483.385337435549
 21
289.6442647667202
 31
0.0
 11
483.6593888399281
 21
289.7105243494442
 31
0.0
 11
483.9369466483067
 21
289.7503444286033
 31
0.0
 11
484.2170266471763
 21
289.7636972139014
 31
0.0
  0
SPLINE
  5
115
330
55
100
AcDbEntity
  8
1
  6
Continuous
 62
     7
100
AcDbSpline
210
0.0
220
0.0
230
1.0
 70
     8
 71
     3
 72
    23
 73
    19
 74
    17
 42
0.000000001
 43
0.0000000001
 44
0.00000001
 40
0.0
 40
0.0
 40
0.0
 40
0.0
 40
1.674047297974083
 40
3.348293525735796
 40
3.69038584616185
 40
4.032529324636537
 40
4.354266084436537
 40
4.675918430014354
 40
4.986217170583696
 40
5.296477183848207
 40
5.606736944610476
 40
5.917035908829866
 40
6.238689389878642
 40
6.56042514472693
 40
6.902564971011708
 40
7.244660379365604
 40
8.918972391303647
 40
10.59303948970601
 40
10.59303948970601
 40
10.59303948970601
 40
10.59303948970601
 10
151.942341432684
 20
289.6463521813063
 30
0.0
 10
152.4797990503878
 20
289.4888158321974
 30
0.0
 10
153.5547781483606
 20
289.1737244017105
 30
0.0
 10
154.5782152126867
 20
288.4185016671423
 30
0.0
 10
155.0666042107694
 20
287.8015706852764
 30
0.0
 10
155.2459281057425
 20
287.5172741191462
 30
0.0
 10
155.3881910856214
 20
287.2203695176922
 30
0.0
 10
155.4902274002922
 20
286.91838032032
 30
0.0
 10
155.551819530406
 20
286.6095363943293
 30
0.0
 10
155.5727856853149
 20
286.2990544035951
 30
0.0
 10
155.5518192728321
 20
285.9885723482417
 30
0.0
 10
155.4902271013685
 20
285.6797281167031
 30
0.0
 10
155.3881922523357
 20
285.3777382895496
 30
0.0
 10
155.2459294919604
 20
285.0808348123317
 30
0.0
 10
155.0665990914248
 20
284.7965420264574
 30
0.0
 10
154.5782003697986
 20
284.1796005835134
 30
0.0
 10
153.5549945602983
 20
283.423974013839
 30
0.0
 10
152.479866263661
 20
283.1091546320865
 30
0.0
 10
151.942341432684
 20
282.9517564607521
 30
0.0
 11
151.942341432684
 21
289.6463521813063
 31
0.0
 11
153.5181154233977
 21
289.0812232534296
 31
0.0
 11
154.8499974418694
 21
288.0667328746051
 31
0.0
 11
155.0616647093929
 21
287.7979874115732
 31
0.0
 11
155.2435868204827
 21
287.5082176655271
 31
0.0
 11
155.3821924401879
 21
287.217867833201
 31
0.0
 11
155.4846280540435
 21
286.9129626400931
 31
0.0
 11
155.5451742281623
 21
286.608628170242
 31
0.0
 11
155.5657972266424
 21
286.2990543210371
 31
0.0
 11
155.5451740390202
 21
285.9894807374944
 31
0.0
 11
155.4846280540435
 21
285.6851460019813
 31
0.0
 11
155.3821930359203
 21
285.3802394108961
 31
0.0
 11
155.2435868204826
 21
285.0898909765472
 31
0.0
 11
155.0616623207112
 21
284.8001270424954
 31
0.0
 11
154.8499974418693
 21
284.5313757674693
 31
0.0
 11
153.5182286830415
 21
283.5166281658355
 31
0.0
 11
151.942341432684
 21
282.9517564607521
 31
0.0
  0
SPLINE
  5
116
330
55
100
AcDbEntity
  8
1
  6
Continuous
 62
     7
100
AcDbSpline
210
0.0
220
0.0
230
1.0
 70
     8
 71
     3
 72
    23
 73
    19
 74
    17
 42
0.000000001
 43
0.0000000001
 44
0.00000001
 40
0.0
 40
0.0
 40
0.0
 40
0.0
 40
1.674047297974029
 40
3.348293525735675
 40
3.690385846161799
 40
4.032529324636425
 40
4.354266084436436
 40
4.675918430014263
 40
4.986217170583604
 40
5.296477183848117
 40
5.606736944610386
 40
5.917035908829776
 40
6.238689389878544
 40
6.560425144726806
 40
6.902564971011615
 40
7.244660379365511
 40
8.918972391303576
 40
10.59303948970588
 40
10.59303948970588
 40
10.59303948970588
 40
10.59303948970588
 10
135.9423414326839
 20
289.6463521813063
 30
0.0
 10
135.4048838149801
 20
289.4888158321975
 30
0.0
 10
134.3299047170073
 20
289.1737244017105
 30
0.0
 10
133.3064676526814
 20
288.4185016671423
 30
0.0
 10
132.8180786545985
 20
287.8015706852764
 30
0.0
 10
132.6387547596256
 20
287.5172741191462
 30
0.0
 10
132.4964917797466
 20
287.2203695176923
 30
0.0
 10
132.3944554650757
 20
286.91838032032
 30
0.0
 10
132.332863334962
 20
286.6095363943293
 30
0.0
 10
132.3118971800529
 20
286.2990544035949
 30
0.0
 10
132.3328635925358
 20
285.9885723482419
 30
0.0
 10
132.3944557639994
 20
285.679728116703
 30
0.0
 10
132.4964906130322
 20
285.3777382895497
 30
0.0
 10
132.6387533734074
 20
285.0808348123317
 30
0.0
 10
132.8180837739432
 20
284.7965420264574
 30
0.0
 10
133.3064824955692
 20
284.1796005835134
 30
0.0
 10
134.3296883050697
 20
283.423974013839
 30
0.0
 10
135.4048166017069
 20
283.1091546320864
 30
0.0
 10
135.9423414326839
 20
282.9517564607521
 30
0.0
 11
135.9423414326839
 21
289.6463521813063
 31
0.0
 11
134.3665674419703
 21
289.0812232534296
 31
0.0
 11
133.0346854234987
 21
288.0667328746051
 31
0.0
 11
132.823018155975
 21
287.7979874115732
 31
0.0
 11
132.6410960448854
 21
287.5082176655271
 31
0.0
 11
132.5024904251801
 21
287.217867833201
 31
0.0
 11
132.4000548113245
 21
286.9129626400931
 31
0.0
 11
132.3395086372057
 21
286.608628170242
 31
0.0
 11
132.3188856387256
 21
286.2990543210371
 31
0.0
 11
132.3395088263478
 21
285.9894807374944
 31
0.0
 11
132.4000548113244
 21
285.6851460019813
 31
0.0
 11
132.5024898294477
 21
285.3802394108961
 31
0.0
 11
132.6410960448853
 21
285.0898909765472
 31
0.0
 11
132.8230205446567
 21
284.8001270424954
 31
0.0
 11
133.0346854234986
 21
284.5313757674693
 31
0.0
 11
134.3664541823264
 21
283.5166281658355
 31
0.0
 11
135.9423414326839
 21
282.9517564607521
 31
0.0
  0
ENDBLK
  5
57
330
55
100
AcDbEntity
  8
0
100
AcDbBlockEnd
  0
BLOCK
  5
59
330
58
100
AcDbEntity
  8
0
100
AcDbBlockBegin
  2
36-1A-13
 70
     0
 10
578.2876795002934
 20
799.078198250864
 30
0.0
  3
36-1A-13
  1

  0
LINE
  5
117
330
58
100
AcDbEntity
  8
1
  6
Continuous
 62
     7
100
AcDbLine
 10
468.2086963979787
 20
296.7636972139014
 30
0.0
 11
468.2086963979787
 21
300.2636972139014
 31
0.0
  0
LINE
  5
118
330
58
100
AcDbEntity
  8
1
  6
Continuous
 62
     7
100
AcDbLine
 10
477.7086963979787
 20
296.7636972139014
 30
0.0
 11
477.7086963979787
 21
300.2636972139014
 31
0.0
  0
ENDBLK
  5
5A
330
58
100
AcDbEntity
  8
0
100
AcDbBlockEnd
  0
BLOCK
  5
5C
330
5B
100
AcDbEntity
  8
0
100
AcDbBlockBegin
  2
51-1
 70
     0
 10
701.1409162289164
 20
249.5496225653997
 30
0.0
  3
51-1
  1

  0
LINE
  5
119
330
5B
100
AcDbEntity
  8
1
  6
Continuous
 62
     7
100
AcDbLine
 10
151.9423414326839
 20
300.2636972139014
 30
0.0
 11
171.092976527295
 21
300.2636972139014
 31
0.0
  0
LINE
  5
11A
330
5B
100
AcDbEntity
  8
1
  6
Continuous
 62
     7
100
AcDbLine
 10
116.7484804026948
 20
304.0487769692521
 30
0.0
 11
116.2965723037024
 21
300.8332837643816
 31
0.0
  0
LINE
  5
11B
330
5B
100
AcDbEntity
  8
1
  6
Continuous
 62
     7
100
AcDbLine
 10
171.5881105616659
 20
300.8332837643816
 30
0.0
 11
171.1362024626735
 21
304.0487769692521
 31
0.0
  0
LINE
  5
11C
330
5B
100
AcDbEntity
  8
1
  6
Continuous
 62
     7
100
AcDbLine
 10
116.7917063380731
 20
300.2636972139014
 30
0.0
 11
135.9423414326839
 21
300.2636972139014
 31
0.0
  0
LINE
  5
11D
330
5B
100
AcDbEntity
  8
1
  6
Continuous
 62
     7
100
AcDbLine
 10
149.7378963904184
 20
669.2107829432864
 30
0.0
 11
153.3893056018889
 21
682.8380276397193
 31
0.0
  0
LINE
  5
11E
330
5B
100
AcDbEntity
  8
1
  6
Continuous
 62
     7
100
AcDbLine
 10
138.1467864749496
 20
669.2107829432864
 30
0.0
 11
134.495377263479
 21
682.8380276397193
 31
0.0
  0
LINE
  5
11F
330
5B
100
AcDbEntity
  8
1
  6
Continuous
 62
     7
100
AcDbLine
 10
118.0490656509537
 20
704.0210565267823
 30
0.0
 11
128.0249011359161
 21
694.0452210418199
 31
0.0
  0
LINE
  5
120
330
5B
100
AcDbEntity
  8
1
  6
Continuous
 62
     7
100
AcDbLine
 10
123.8446206086883
 20
714.059252171636
 30
0.0
 11
137.471865305121
 21
710.4078429601657
 31
0.0
  0
LINE
  5
121
330
5B
100
AcDbEntity
  8
1
  6
Continuous
 62
     7
100
AcDbLine
 10
164.0400622566797
 20
714.059252171636
 30
0.0
 11
150.4128175602469
 21
710.4078429601657
 31
0.0
  0
LINE
  5
122
330
5B
100
AcDbEntity
  8
1
  6
Continuous
 62
     7
100
AcDbLine
 10
169.8356172144142
 20
704.0210565267823
 30
0.0
 11
159.8597817294518
 21
694.0452210418199
 31
0.0
  0
LINE
  5
123
330
5B
100
AcDbEntity
  8
1
  6
Continuous
 62
     7
100
AcDbLine
 10
491.4586963979789
 20
303.2386466363111
 30
0.0
 11
491.4586963979789
 21
300.7636972139014
 31
0.0
  0
LINE
  5
124
330
5B
100
AcDbEntity
  8
1
  6
Continuous
 62
     7
100
AcDbLine
 10
441.958696397979
 20
303.6506061192688
 30
0.0
 11
441.958696397979
 21
300.7636972139014
 31
0.0
  0
LINE
  5
125
330
5B
100
AcDbEntity
  8
1
  6
Continuous
 62
     7
100
AcDbLine
 10
490.9586963979789
 20
300.2636972139014
 30
0.0
 11
442.458696397979
 21
300.2636972139014
 31
0.0
  0
ARC
  5
126
330
5B
100
AcDbEntity
  8
1
  6
Continuous
 62
     7
100
AcDbCircle
 10
138.8494480090776
 20
184.1435446735771
 30
0.0
 40
127.9436752841998
100
AcDbArc
 50
77.64920541038032
 51
84.12645411112516
  0
ARC
  5
127
330
5B
100
AcDbEntity
  8
1
  6
Continuous
 62
     7
100
AcDbCircle
 10
149.0352348562906
 20
184.1435446735773
 30
0.0
 40
127.9436752841996
100
AcDbArc
 50
95.87354588887503
 51
102.3507945896197
  0
ARC
  5
128
330
5B
100
AcDbEntity
  8
1
  6
Continuous
 62
     7
100
AcDbCircle
 10
143.942341432684
 20
670.7636972139017
 30
0.0
 40
6.000000000000019
100
AcDbArc
 50
195.0000000000011
 51
344.9999999999989
  0
ARC
  5
129
330
5B
100
AcDbEntity
  8
1
  6
Continuous
 62
     7
100
AcDbCircle
 10
122.291706338073
 20
708.2636972139017
 30
0.0
 40
5.999999999999978
100
AcDbArc
 50
74.99999999999818
 51
225.0000000000001
  0
ARC
  5
12A
330
5B
100
AcDbEntity
  8
1
  6
Continuous
 62
     7
100
AcDbCircle
 10
165.592976527295
 20
708.2636972139017
 30
0.0
 40
5.999999999999968
100
AcDbArc
 50
314.9999999999993
 51
105.0000000000018
  0
ARC
  5
12B
330
5B
100
AcDbEntity
  8
1
  6
Continuous
 62
     7
100
AcDbCircle
 10
474.9075782105892
 20
290.2035324489114
 30
0.0
 40
21.76119949013515
100
AcDbArc
 50
68.44320528903167
 51
82.20588758494789
  0
ARC
  5
12C
330
5B
100
AcDbEntity
  8
1
  6
Continuous
 62
     7
100
AcDbCircle
 10
472.8586963979789
 20
163.232031136481
 30
0.0
 40
148.6092050572047
100
AcDbArc
 50
91.85094579686891
 51
100.0532276375032
  0
ARC
  5
12D
330
5B
100
AcDbEntity
  8
1
  6
Continuous
 62
     7
100
AcDbCircle
 10
459.9546515394432
 20
233.0903639585199
 30
0.0
 40
80.64072525632035
100
AcDbArc
 50
70.0200832208879
 51
73.19210648524869
  0
ARC
  5
12E
330
5B
100
AcDbEntity
  8
1
  6
Continuous
 62
     7
100
AcDbCircle
 10
122.6900888151441
 20
303.2137383634919
 30
0.0
 40
5.999999999999907
100
AcDbArc
 50
99.80290179376799
 51
172.0000000000018
  0
ARC
  5
12F
330
5B
100
AcDbEntity
  8
1
  6
Continuous
 62
     7
100
AcDbCircle
 10
116.7917063380731
 20
300.7636972139014
 30
0.0
 40
0.4999999999999256
100
AcDbArc
 50
171.9999999999849
 51
270.0
  0
ARC
  5
130
330
5B
100
AcDbEntity
  8
1
  6
Continuous
 62
     7
100
AcDbCircle
 10
171.092976527295
 20
300.7636972139014
 30
0.0
 40
0.5
100
AcDbArc
 50
270.0
 51
8.00000000001196
  0
ARC
  5
131
330
5B
100
AcDbEntity
  8
1
  6
Continuous
 62
     7
100
AcDbCircle
 10
165.1945940502241
 20
303.2137383634919
 30
0.0
 40
5.999999999999948
100
AcDbArc
 50
7.99999999999811
 51
80.19709820623203
  0
ARC
  5
132
330
5B
100
AcDbEntity
  8
1
  6
Continuous
 62
     7
100
AcDbCircle
 10
177.5374512591155
 20
676.3675515121563
 30
0.0
 40
24.99999999999994
100
AcDbArc
 50
135.0000000000002
 51
165.0000000000001
  0
ARC
  5
133
330
5B
100
AcDbEntity
  8
1
  6
Continuous
 62
     7
100
AcDbCircle
 10
110.3472316062525
 20
676.3675515121563
 30
0.0
 40
24.99999999999979
100
AcDbArc
 50
14.99999999999999
 51
45.0
  0
ARC
  5
134
330
5B
100
AcDbEntity
  8
1
  6
Continuous
 62
     7
100
AcDbCircle
 10
143.942341432684
 20
734.5559886173924
 30
0.0
 40
24.99999999999996
100
AcDbArc
 50
255.0
 51
284.9999999999998
  0
ARC
  5
135
330
5B
100
AcDbEntity
  8
1
  6
Continuous
 62
     7
100
AcDbCircle
 10
485.4586963979789
 20
303.2386466363111
 30
0.0
 40
6.0
100
AcDbArc
 50
0.0
 51
70.02008322088795
  0
ARC
  5
136
330
5B
100
AcDbEntity
  8
1
  6
Continuous
 62
     7
100
AcDbCircle
 10
490.9586963979789
 20
300.7636972139014
 30
0.0
 40
0.5
100
AcDbArc
 50
270.0
 51
0.0
  0
ARC
  5
137
330
5B
100
AcDbEntity
  8
1
  6
Continuous
 62
     7
100
AcDbCircle
 10
480.7509878014696
 20
304.8418873508434
 30
0.0
 40
5.999999999999861
100
AcDbArc
 50
65.14402107788068
 51
68.98000123350863
  0
ARC
  5
138
330
5B
100
AcDbEntity
  8
1
  6
Continuous
 62
     7
100
AcDbCircle
 10
447.958696397979
 20
303.6506061192688
 30
0.0
 40
6.000000000000024
100
AcDbArc
 50
99.9978434875701
 51
180.0
  0
ARC
  5
139
330
5B
100
AcDbEntity
  8
1
  6
Continuous
 62
     7
100
AcDbCircle
 10
442.458696397979
 20
300.7636972139014
 30
0.0
 40
0.5
100
AcDbArc
 50
180.0
 51
270.0
  0
ENDBLK
  5
5D
330
5B
100
AcDbEntity
  8
0
100
AcDbBlockEnd
  0
BLOCK
  5
5F
330
5E
100
AcDbEntity
  8
0
100
AcDbBlockBegin
  2
42-1
 70
     0
 10
735.0629564845822
 20
106.9740482043166
 30
0.0
  3
42-1
  1

  0
LINE
  5
13A
330
5E
100
AcDbEntity
  8
1
  6
Continuous
 62
     2
100
AcDbLine
 10
471.9586963979787
 20
314.0060353160727
 30
0.0
 11
471.9586963979787
 21
312.7407962254622
 31
0.0
  0
LINE
  5
13B
330
5E
100
AcDbEntity
  8
1
  6
Continuous
 62
     2
100
AcDbLine
 10
470.9586963979787
 20
314.2493505258054
 30
0.0
 11
470.9586963979787
 21
312.4812600017472
 31
0.0
  0
LINE
  5
13C
330
5E
100
AcDbEntity
  8
1
  6
Continuous
 62
     2
100
AcDbLine
 10
469.9586963979787
 20
314.4602237075739
 30
0.0
 11
469.9586963979787
 21
312.1243976941393
 31
0.0
  0
LINE
  5
13D
330
5E
100
AcDbEntity
  8
1
  6
Continuous
 62
     2
100
AcDbLine
 10
468.9586963979787
 20
314.5737708054492
 30
0.0
 11
468.9586963979787
 21
311.9297455263529
 31
0.0
  0
LINE
  5
13E
330
5E
100
AcDbEntity
  8
1
  6
Continuous
 62
     2
100
AcDbLine
 10
467.9586963979787
 20
314.7636972139014
 30
0.0
 11
467.9586963979787
 21
311.7636972139014
 31
0.0
  0
LINE
  5
13F
330
5E
100
AcDbEntity
  8
1
  6
Continuous
 62
     2
100
AcDbLine
 10
466.9586963979787
 20
314.7636972139014
 30
0.0
 11
466.9586963979787
 21
311.7636972139014
 31
0.0
  0
LINE
  5
140
330
5E
100
AcDbEntity
  8
1
  6
Continuous
 62
     7
100
AcDbLine
 10
465.9586963979787
 20
314.7636972139014
 30
0.0
 11
466.9586963979785
 21
315.0330194129247
 31
0.0
  0
LINE
  5
141
330
5E
100
AcDbEntity
  8
1
  6
Continuous
 62
     7
100
AcDbLine
 10
465.9586963979787
 20
311.7636972139014
 30
0.0
 11
465.9586963979787
 21
314.7636972139014
 31
0.0
  0
LINE
  5
142
330
5E
100
AcDbEntity
  8
1
  6
Continuous
 62
     7
100
AcDbLine
 10
479.9586963979787
 20
314.7636972139014
 30
0.0
 11
479.9586963979787
 21
311.7636972139014
 31
0.0
  0
LINE
  5
143
330
5E
100
AcDbEntity
  8
1
  6
Continuous
 62
     7
100
AcDbLine
 10
478.9586963979788
 20
315.0330194129247
 30
0.0
 11
479.9586963979787
 21
314.7636972139014
 31
0.0
  0
LINE
  5
144
330
5E
100
AcDbEntity
  8
1
  6
Continuous
 62
     2
100
AcDbLine
 10
478.9586963979787
 20
311.7636972139014
 30
0.0
 11
478.9586963979787
 21
314.7636972139014
 31
0.0
  0
LINE
  5
145
330
5E
100
AcDbEntity
  8
1
  6
Continuous
 62
     7
100
AcDbLine
 10
465.9586963979787
 20
314.7636972139014
 30
0.0
 11
479.9586963979787
 21
314.7636972139014
 31
0.0
  0
LINE
  5
146
330
5E
100
AcDbEntity
  8
1
  6
Continuous
 62
     2
100
AcDbLine
 10
477.9586963979787
 20
311.7636972139014
 30
0.0
 11
477.9586963979787
 21
314.7636972139014
 31
0.0
  0
LINE
  5
147
330
5E
100
AcDbEntity
  8
1
  6
Continuous
 62
     7
100
AcDbLine
 10
465.9586963979787
 20
311.7636972139014
 30
0.0
 11
479.9586963979787
 21
311.7636972139014
 31
0.0
  0
LINE
  5
148
330
5E
100
AcDbEntity
  8
1
  6
Continuous
 62
     2
100
AcDbLine
 10
476.9586963979787
 20
311.9297455263529
 30
0.0
 11
476.9586963979787
 21
314.5737708054492
 31
0.0
  0
LINE
  5
149
330
5E
100
AcDbEntity
  8
1
  6
Continuous
 62
     2
100
AcDbLine
 10
475.9586963979787
 20
312.1243976941393
 30
0.0
 11
475.9586963979787
 21
314.4602237075739
 31
0.0
  0
LINE
  5
14A
330
5E
100
AcDbEntity
  8
1
  6
Continuous
 62
     2
100
AcDbLine
 10
474.9586963979787
 20
312.4812600017472
 30
0.0
 11
474.9586963979787
 21
314.2493505258054
 31
0.0
  0
LINE
  5
14B
330
5E
100
AcDbEntity
  8
1
  6
Continuous
 62
     2
100
AcDbLine
 10
473.9586963979787
 20
312.7407962254622
 30
0.0
 11
473.9586963979787
 21
314.0060353160727
 31
0.0
  0
LINE
  5
14C
330
5E
100
AcDbEntity
  8
1
  6
Continuous
 62
     7
100
AcDbLine
 10
467.2086963979787
 20
315.0934629341051
 30
0.0
 11
478.7086963979787
 21
315.0934629341051
 31
0.0
  0
ARC
  5
14D
330
5E
100
AcDbEntity
  8
1
  6
Continuous
 62
     7
100
AcDbCircle
 10
472.9586963979787
 20
290.7636972139014
 30
0.0
 40
25.00000000000012
100
AcDbArc
 50
76.11345963737081
 51
90.0
  0
ARC
  5
14E
330
5E
100
AcDbEntity
  8
1
  6
Continuous
 62
     7
100
AcDbCircle
 10
472.9586963979787
 20
290.7636972139014
 30
0.0
 40
25.0
100
AcDbArc
 50
90.0
 51
103.8865403626294
  0
CIRCLE
  5
14F
330
5E
100
AcDbEntity
  8
1
  6
Continuous
 62
     7
100
AcDbCircle
 10
143.942341432684
 20
695.7636972139015
 30
0.0
 40
5.75
  0
CIRCLE
  5
150
330
5E
100
AcDbEntity
  8
1
  6
Continuous
 62
     7
100
AcDbCircle
 10
143.942341432684
 20
695.7636972139015
 30
0.0
 40
7.0
  0
ENDBLK
  5
60
330
5E
100
AcDbEntity
  8
0
100
AcDbBlockEnd
  0
BLOCK
  5
66
330
61
100
AcDbEntity
  8
0
100
AcDbBlockBegin
  2
R10AK-13-B
 70
     0
 10
628.5339221100529
 20
302.7636972139014
 30
0.0
  3
R10AK-13-B
  1

  0
INSERT
  5
62
330
61
100
AcDbEntity
  8
0
100
AcDbBlockReference
  2
37-1-13
 10
738.7599266147497
 20
142.7679913237569
 30
0.0
  0
INSERT
  5
63
330
61
100
AcDbEntity
  8
0
100
AcDbBlockReference
  2
36-1A-13
 10
578.2876795002934
 20
799.078198250864
 30
0.0
  0
INSERT
  5
64
330
61
100
AcDbEntity
  8
1
100
AcDbBlockReference
  2
51-1
 10
701.1409162289164
 20
249.5496225653997
 30
0.0
  0
INSERT
  5
65
330
61
100
AcDbEntity
  8
0
100
AcDbBlockReference
  2
42-1
 10
735.0629564845822
 20
106.9740482043166
 30
0.0
  0
LINE
  5
151
330
61
100
AcDbEntity
  8
1
  6
PHANTOM
 62
     4
100
AcDbLine
 10
472.9586963979787
 20
257.2636972139014
 30
0.0
 11
472.9586963979787
 21
318.6280934142843
 31
0.0
  0
ENDBLK
  5
67
330
61
100
AcDbEntity
  8
0
100
AcDbBlockEnd
  0
BLOCK
  5
69
330
68
100
AcDbEntity
  8
0
100
AcDbBlockBegin
  2
A10-0A-13
 70
     0
 10
650.3956487421418
 20
260.2636972139014
 30
0.0
  3
A10-0A-13
  1

  0
LINE
  5
152
330
68
100
AcDbEntity
  8
1
  6
Continuous
 62
     7
100
AcDbLine
 10
135.9423414326839
 20
279.5316464063328
 30
0.0
 11
131.9423414326839
 21
279.5316464063328
 31
0.0
  0
LINE
  5
153
330
68
100
AcDbEntity
  8
1
  6
Continuous
 62
     7
100
AcDbLine
 10
135.9423414326839
 20
281.2636972139014
 30
0.0
 11
131.9423414326839
 21
281.2636972139014
 31
0.0
  0
LINE
  5
154
330
68
100
AcDbEntity
  8
1
  6
Continuous
 62
     7
100
AcDbLine
 10
135.9423414326839
 20
239.7636972139014
 30
0.0
 11
130.9423414326839
 21
239.7636972139014
 31
0.0
  0
LINE
  5
155
330
68
100
AcDbEntity
  8
1
  6
Continuous
 62
     7
100
AcDbLine
 10
156.942341432684
 20
241.6236422692613
 30
0.0
 11
155.963535715503
 21
245.0494622793942
 31
0.0
  0
LINE
  5
156
330
68
100
AcDbEntity
  8
1
  6
Continuous
 62
     2
100
AcDbLine
 10
155.942341432684
 20
239.7636972139014
 30
0.0
 11
156.942341432684
 21
241.4957480214703
 31
0.0
  0
LINE
  5
157
330
68
100
AcDbEntity
  8
1
  6
Continuous
 62
     7
100
AcDbLine
 10
156.942341432684
 20
241.4957480214703
 30
0.0
 11
156.942341432684
 21
238.2636972139018
 31
0.0
  0
LINE
  5
158
330
68
100
AcDbEntity
  8
1
  6
Continuous
 62
     2
100
AcDbLine
 10
155.942341432684
 20
239.7636972139014
 30
0.0
 11
155.942341432684
 21
238.2636972139018
 31
0.0
  0
LINE
  5
159
330
68
100
AcDbEntity
  8
1
  6
Continuous
 62
     7
100
AcDbLine
 10
156.942341432684
 20
241.6236422692613
 30
0.0
 11
156.942341432684
 21
241.4957480214703
 31
0.0
  0
LINE
  5
15A
330
68
100
AcDbEntity
  8
1
  6
Continuous
 62
     7
100
AcDbLine
 10
130.942350762853
 20
257.248122095624
 30
0.0
 11
131.6497642330349
 21
279.5316464063328
 31
0.0
  0
LINE
  5
15B
330
68
100
AcDbEntity
  8
1
  6
Continuous
 62
     7
100
AcDbLine
 10
155.9423414326839
 20
279.5316464063328
 30
0.0
 11
151.9423414326839
 21
279.5316464063328
 31
0.0
  0
LINE
  5
15C
330
68
100
AcDbEntity
  8
1
  6
Continuous
 62
     7
100
AcDbLine
 10
155.9423414326839
 20
281.2636972139014
 30
0.0
 11
151.9423414326839
 21
281.2636972139014
 31
0.0
  0
LINE
  5
15D
330
68
100
AcDbEntity
  8
1
  6
Continuous
 62
     7
100
AcDbLine
 10
156.9423414326839
 20
239.7636972139014
 30
0.0
 11
151.9423414326839
 21
239.7636972139014
 31
0.0
  0
LINE
  5
15E
330
68
100
AcDbEntity
  8
1
  6
Continuous
 62
     7
100
AcDbLine
 10
131.9211471498647
 20
245.0494622793942
 30
0.0
 11
130.9423414326839
 21
241.6236422692613
 31
0.0
  0
LINE
  5
15F
330
68
100
AcDbEntity
  8
1
  6
Continuous
 62
     7
100
AcDbLine
 10
156.234918632333
 20
279.5316464063328
 30
0.0
 11
156.9423321025149
 21
257.248122095624
 31
0.0
  0
LINE
  5
160
330
68
100
AcDbEntity
  8
1
  6
Continuous
 62
     2
100
AcDbLine
 10
154.9423414326839
 20
282.7636972139014
 30
0.0
 11
154.942341432684
 21
281.2636972139014
 31
0.0
  0
LINE
  5
161
330
68
100
AcDbEntity
  8
1
  6
Continuous
 62
     2
100
AcDbLine
 10
130.9423414326839
 20
241.4957480214703
 30
0.0
 11
131.9423414326839
 21
239.7636972139014
 31
0.0
  0
LINE
  5
162
330
68
100
AcDbEntity
  8
1
  6
Continuous
 62
     7
100
AcDbLine
 10
130.9423414326839
 20
238.2636972139018
 30
0.0
 11
130.9423414326839
 21
241.4957480214703
 31
0.0
  0
LINE
  5
163
330
68
100
AcDbEntity
  8
1
  6
Continuous
 62
     2
100
AcDbLine
 10
131.9423414326839
 20
238.2636972139018
 30
0.0
 11
131.9423414326839
 21
239.7636972139014
 31
0.0
  0
LINE
  5
164
330
68
100
AcDbEntity
  8
1
  6
Continuous
 62
     7
100
AcDbLine
 10
131.649764233036
 20
279.5316464063328
 30
0.0
 11
131.9423414326839
 21
279.5316464063328
 31
0.0
  0
LINE
  5
165
330
68
100
AcDbEntity
  8
1
  6
Continuous
 62
     7
100
AcDbLine
 10
155.9423414326839
 20
279.5316464063328
 30
0.0
 11
156.234918632333
 21
279.5316464063328
 31
0.0
  0
LINE
  5
166
330
68
100
AcDbEntity
  8
1
  6
Continuous
 62
     2
100
AcDbLine
 10
154.942341432684
 20
281.2636972139014
 30
0.0
 11
155.9423414326839
 21
279.5316464063328
 31
0.0
  0
LINE
  5
167
330
68
100
AcDbEntity
  8
1
  6
Continuous
 62
     7
100
AcDbLine
 10
155.9423414326839
 20
279.5316464063328
 30
0.0
 11
155.9423414326839
 21
282.7636972139014
 31
0.0
  0
LINE
  5
168
330
68
100
AcDbEntity
  8
1
  6
Continuous
 62
     2
100
AcDbLine
 10
131.9423414326839
 20
279.5316464063328
 30
0.0
 11
132.9423414326839
 21
281.2636972139014
 31
0.0
  0
LINE
  5
169
330
68
100
AcDbEntity
  8
1
  6
Continuous
 62
     2
100
AcDbLine
 10
132.9423414326839
 20
281.2636972139014
 30
0.0
 11
132.9423414326839
 21
282.7636972139014
 31
0.0
  0
LINE
  5
16A
330
68
100
AcDbEntity
  8
1
  6
Continuous
 62
     7
100
AcDbLine
 10
131.9423414326839
 20
282.7636972139014
 30
0.0
 11
131.9423414326839
 21
279.5316464063328
 31
0.0
  0
LINE
  5
16B
330
68
100
AcDbEntity
  8
1
  6
Continuous
 62
     7
100
AcDbLine
 10
130.9423414326839
 20
241.4957480214703
 30
0.0
 11
130.9423414326839
 21
241.6236422692613
 31
0.0
  0
LINE
  5
16C
330
68
100
AcDbEntity
  8
0
  6
PHANTOM
 62
     4
100
AcDbLine
 10
117.942341432684
 20
257.2636972139014
 30
0.0
 11
166.942341432684
 21
257.2636972139014
 31
0.0
  0
LINE
  5
16D
330
68
100
AcDbEntity
  8
1
  6
Continuous
 62
     7
100
AcDbLine
 10
530.9586963979785
 20
267.7636972139014
 30
0.0
 11
530.9586963979785
 21
246.7636972139014
 31
0.0
  0
LINE
  5
16E
330
68
100
AcDbEntity
  8
1
  6
Continuous
 62
     7
100
AcDbLine
 10
515.4586963979785
 20
270.0136972139014
 30
0.0
 11
515.4586963979785
 21
244.5136972139014
 31
0.0
  0
LINE
  5
16F
330
68
100
AcDbEntity
  8
1
  6
Continuous
 62
     7
100
AcDbLine
 10
517.9586963979785
 20
246.7636972139014
 30
0.0
 11
517.9586963979785
 21
267.7636972139014
 31
0.0
  0
LINE
  5
170
330
68
100
AcDbEntity
  8
1
  6
Continuous
 62
     7
100
AcDbLine
 10
519.6907472055475
 20
267.7636972139014
 30
0.0
 11
519.6907472055475
 21
246.7636972139014
 31
0.0
  0
LINE
  5
171
330
68
100
AcDbEntity
  8
1
  6
Continuous
 62
     7
100
AcDbLine
 10
484.9586963979785
 20
279.5316464063328
 30
0.0
 11
460.9586963979784
 21
279.5316464063328
 31
0.0
  0
LINE
  5
172
330
68
100
AcDbEntity
  8
1
  6
Continuous
 62
     7
100
AcDbLine
 10
484.9586963979785
 20
281.2636972139014
 30
0.0
 11
460.9586963979787
 21
281.2636972139014
 31
0.0
  0
LINE
  5
173
330
68
100
AcDbEntity
  8
1
  6
Continuous
 62
     7
100
AcDbLine
 10
450.9586963979787
 20
239.7636972139014
 30
0.0
 11
424.9586963979784
 21
239.7636972139014
 31
0.0
  0
LINE
  5
174
330
68
100
AcDbEntity
  8
1
  6
Continuous
 62
     7
100
AcDbLine
 10
460.5043401707135
 20
274.4356070364132
 30
0.0
 11
460.6661191983307
 21
279.5316464063328
 31
0.0
  0
LINE
  5
175
330
68
100
AcDbEntity
  8
1
  6
Continuous
 62
     7
100
AcDbLine
 10
425.9375021151594
 20
245.0494622793942
 30
0.0
 11
424.9586963979784
 21
241.6236422692613
 31
0.0
  0
LINE
  5
176
330
68
100
AcDbEntity
  8
1
  6
Continuous
 62
     7
100
AcDbLine
 10
511.4586963979785
 20
266.0136972139014
 30
0.0
 11
495.1383605072476
 21
266.0136972139017
 31
0.0
  0
LINE
  5
177
330
68
100
AcDbEntity
  8
1
  6
Continuous
 62
     7
100
AcDbLine
 10
485.2512735976277
 20
279.5316464063328
 30
0.0
 11
485.4033715901686
 21
274.7405596412946
 31
0.0
  0
LINE
  5
178
330
68
100
AcDbEntity
  8
1
  6
Continuous
 62
     7
100
AcDbLine
 10
495.1383605072466
 20
248.5136972139013
 30
0.0
 11
511.4586963979785
 21
248.5136972139014
 31
0.0
  0
LINE
  5
179
330
68
100
AcDbEntity
  8
1
  6
Continuous
 62
     7
100
AcDbLine
 10
454.5263878068117
 20
248.7636972139014
 30
0.0
 11
453.7001702880056
 21
248.7636972139014
 31
0.0
  0
LINE
  5
17A
330
68
100
AcDbEntity
  8
1
  6
Continuous
 62
     7
100
AcDbLine
 10
449.9398432150996
 20
245.1896284093393
 30
0.0
 11
450.9586963979784
 21
241.6236422692613
 31
0.0
  0
LINE
  5
17B
330
68
100
AcDbEntity
  8
1
  6
Continuous
 62
     2
100
AcDbLine
 10
483.9586963979784
 20
282.7636972139014
 30
0.0
 11
483.9586963979784
 21
281.2636972139014
 31
0.0
  0
LINE
  5
17C
330
68
100
AcDbEntity
  8
1
  6
Continuous
 62
     7
100
AcDbLine
 10
530.9586963979785
 20
246.7636972139014
 30
0.0
 11
517.9586963979785
 21
246.7636972139014
 31
0.0
  0
LINE
  5
17D
330
68
100
AcDbEntity
  8
1
  6
Continuous
 62
     2
100
AcDbLine
 10
519.6907472055475
 20
247.7636972139014
 30
0.0
 11
517.9586963979785
 21
246.7636972139014
 31
0.0
  0
LINE
  5
17E
330
68
100
AcDbEntity
  8
1
  6
Continuous
 62
     2
100
AcDbLine
 10
531.9586963979787
 20
247.7636972139014
 30
0.0
 11
519.6907472055475
 21
247.7636972139014
 31
0.0
  0
LINE
  5
17F
330
68
100
AcDbEntity
  8
1
  6
Continuous
 62
     7
100
AcDbLine
 10
530.9586963979785
 20
246.7636972139014
 30
0.0
 11
531.9586963979787
 21
247.7636972139014
 31
0.0
  0
LINE
  5
180
330
68
100
AcDbEntity
  8
1
  6
Continuous
 62
     7
100
AcDbLine
 10
515.4586963979785
 20
244.5136972139014
 30
0.0
 11
515.4586963979787
 21
234.7636972139014
 31
0.0
  0
LINE
  5
181
330
68
100
AcDbEntity
  8
1
  6
Continuous
 62
     7
100
AcDbLine
 10
517.9586963979787
 20
234.2636972139014
 30
0.0
 11
515.9586963979785
 21
234.2636972139014
 31
0.0
  0
LINE
  5
182
330
68
100
AcDbEntity
  8
1
  6
Continuous
 62
     7
100
AcDbLine
 10
517.9586963979785
 20
246.7636972139014
 30
0.0
 11
517.9586963979787
 21
234.2636972139014
 31
0.0
  0
LINE
  5
183
330
68
100
AcDbEntity
  8
1
  6
Continuous
 62
     2
100
AcDbLine
 10
519.6907472055475
 20
266.7636972139014
 30
0.0
 11
531.9586963979785
 21
266.7636972139014
 31
0.0
  0
LINE
  5
184
330
68
100
AcDbEntity
  8
1
  6
Continuous
 62
     7
100
AcDbLine
 10
517.9586963979785
 20
267.7636972139014
 30
0.0
 11
530.9586963979785
 21
267.7636972139014
 31
0.0
  0
LINE
  5
185
330
68
100
AcDbEntity
  8
1
  6
Continuous
 62
     7
100
AcDbLine
 10
531.9586963979785
 20
266.7636972139014
 30
0.0
 11
530.9586963979785
 21
267.7636972139014
 31
0.0
  0
LINE
  5
186
330
68
100
AcDbEntity
  8
1
  6
Continuous
 62
     2
100
AcDbLine
 10
517.9586963979785
 20
267.7636972139014
 30
0.0
 11
519.6907472055475
 21
266.7636972139014
 31
0.0
  0
LINE
  5
187
330
68
100
AcDbEntity
  8
1
  6
Continuous
 62
     7
100
AcDbLine
 10
517.9586963979787
 20
280.2636972139014
 30
0.0
 11
517.9586963979785
 21
267.7636972139014
 31
0.0
  0
LINE
  5
188
330
68
100
AcDbEntity
  8
1
  6
Continuous
 62
     7
100
AcDbLine
 10
517.9586963979787
 20
280.2636972139014
 30
0.0
 11
515.9586963979785
 21
280.2636972139014
 31
0.0
  0
LINE
  5
189
330
68
100
AcDbEntity
  8
1
  6
Continuous
 62
     7
100
AcDbLine
 10
515.4586963979785
 20
270.0136972139014
 30
0.0
 11
515.4586963979785
 21
279.7636972139014
 31
0.0
  0
LINE
  5
18A
330
68
100
AcDbEntity
  8
1
  6
Continuous
 62
     7
100
AcDbLine
 10
450.9586963979784
 20
241.6236422692613
 30
0.0
 11
450.9586963979784
 21
238.2636972139018
 31
0.0
  0
LINE
  5
18B
330
68
100
AcDbEntity
  8
1
  6
Continuous
 62
     2
100
AcDbLine
 10
424.9586963979784
 20
241.4957480214703
 30
0.0
 11
425.9586963979784
 21
239.7636972139014
 31
0.0
  0
LINE
  5
18C
330
68
100
AcDbEntity
  8
1
  6
Continuous
 62
     7
100
AcDbLine
 10
424.9586963979784
 20
238.2636972139018
 30
0.0
 11
424.9586963979784
 21
241.4957480214703
 31
0.0
  0
LINE
  5
18D
330
68
100
AcDbEntity
  8
1
  6
Continuous
 62
     2
100
AcDbLine
 10
449.9586963979784
 20
239.7636972139014
 30
0.0
 11
450.9586963979784
 21
241.4957480214703
 31
0.0
  0
LINE
  5
18E
330
68
100
AcDbEntity
  8
1
  6
Continuous
 62
     2
100
AcDbLine
 10
449.9586963979784
 20
239.7636972139014
 30
0.0
 11
449.9586963979784
 21
238.2636972139018
 31
0.0
  0
LINE
  5
18F
330
68
100
AcDbEntity
  8
1
  6
Continuous
 62
     2
100
AcDbLine
 10
425.9586963979784
 20
238.2636972139018
 30
0.0
 11
425.9586963979784
 21
239.7636972139014
 31
0.0
  0
LINE
  5
190
330
68
100
AcDbEntity
  8
1
  6
Continuous
 62
     7
100
AcDbLine
 10
460.6661191983307
 20
279.5316464063328
 30
0.0
 11
460.9586963979784
 21
279.5316464063328
 31
0.0
  0
LINE
  5
191
330
68
100
AcDbEntity
  8
1
  6
Continuous
 62
     7
100
AcDbLine
 10
484.9586963979785
 20
279.5316464063328
 30
0.0
 11
485.2512735976277
 21
279.5316464063328
 31
0.0
  0
LINE
  5
192
330
68
100
AcDbEntity
  8
1
  6
Continuous
 62
     2
100
AcDbLine
 10
483.9586963979784
 20
281.2636972139014
 30
0.0
 11
484.9586963979785
 21
279.5316464063328
 31
0.0
  0
LINE
  5
193
330
68
100
AcDbEntity
  8
1
  6
Continuous
 62
     7
100
AcDbLine
 10
484.9586963979785
 20
279.5316464063328
 30
0.0
 11
484.9586963979785
 21
282.7636972139014
 31
0.0
  0
LINE
  5
194
330
68
100
AcDbEntity
  8
1
  6
Continuous
 62
     2
100
AcDbLine
 10
460.9586963979784
 20
279.5316464063328
 30
0.0
 11
461.9586963979784
 21
281.2636972139014
 31
0.0
  0
LINE
  5
195
330
68
100
AcDbEntity
  8
1
  6
Continuous
 62
     2
100
AcDbLine
 10
461.9586963979784
 20
281.2636972139014
 30
0.0
 11
461.9586963979787
 21
282.7636972139014
 31
0.0
  0
LINE
  5
196
330
68
100
AcDbEntity
  8
1
  6
Continuous
 62
     7
100
AcDbLine
 10
460.9586963979784
 20
282.7636972139014
 30
0.0
 11
460.9586963979784
 21
279.5316464063328
 31
0.0
  0
LINE
  5
197
330
68
100
AcDbEntity
  8
1
  6
Continuous
 62
     7
100
AcDbLine
 10
424.9586963979784
 20
241.4957480214703
 30
0.0
 11
424.9586963979784
 21
241.6236422692613
 31
0.0
  0
LINE
  5
198
330
68
100
AcDbEntity
  8
1
  6
Continuous
 62
     7
100
AcDbLine
 10
531.9586963979787
 20
247.7636972139014
 30
0.0
 11
531.9586963979785
 21
266.7636972139014
 31
0.0
  0
LINE
  5
199
330
68
100
AcDbEntity
  8
1
  6
Continuous
 62
     7
100
AcDbLine
 10
152.4428612204172
 20
677.2244537829747
 30
0.0
 11
155.6470537114199
 21
662.0570045242797
 31
0.0
  0
LINE
  5
19A
330
68
100
AcDbEntity
  8
1
  6
Continuous
 62
     7
100
AcDbLine
 10
152.692341432684
 20
717.9433613231696
 30
0.0
 11
152.692341432684
 21
734.2636972139017
 31
0.0
  0
LINE
  5
19B
330
68
100
AcDbEntity
  8
1
  6
Continuous
 62
     7
100
AcDbLine
 10
132.237629153948
 20
662.0570045242797
 30
0.0
 11
135.4418216449506
 21
677.2244537829747
 31
0.0
  0
LINE
  5
19C
330
68
100
AcDbEntity
  8
1
  6
Continuous
 62
     7
100
AcDbLine
 10
135.192341432684
 20
734.2636972139017
 30
0.0
 11
135.192341432684
 21
717.9433613231696
 31
0.0
  0
LINE
  5
19D
330
68
100
AcDbEntity
  8
1
  6
Continuous
 62
     7
100
AcDbLine
 10
134.442341432684
 20
754.7636972139014
 30
0.0
 11
153.442341432684
 21
754.7636972139014
 31
0.0
  0
LINE
  5
19E
330
68
100
AcDbEntity
  8
1
  6
Continuous
 62
     7
100
AcDbLine
 10
166.442341432684
 20
738.2636972139014
 30
0.0
 11
121.4423414326839
 21
738.2636972139014
 31
0.0
  0
LINE
  5
19F
330
68
100
AcDbEntity
  8
1
  6
Continuous
 62
     7
100
AcDbLine
 10
120.9423414326839
 20
740.7636972139014
 30
0.0
 11
120.9423414326839
 21
738.7636972139014
 31
0.0
  0
LINE
  5
1A0
330
68
100
AcDbEntity
  8
1
  6
Continuous
 62
     7
100
AcDbLine
 10
120.9423414326839
 20
740.7636972139014
 30
0.0
 11
166.942341432684
 21
740.7636972139014
 31
0.0
  0
LINE
  5
1A1
330
68
100
AcDbEntity
  8
1
  6
Continuous
 62
     2
100
AcDbLine
 10
133.442341432684
 20
740.7636972139014
 30
0.0
 11
134.442341432684
 21
742.4957480214706
 31
0.0
  0
LINE
  5
1A2
330
68
100
AcDbEntity
  8
1
  6
Continuous
 62
     7
100
AcDbLine
 10
134.442341432684
 20
754.7636972139014
 30
0.0
 11
133.442341432684
 21
753.7636972139014
 31
0.0
  0
LINE
  5
1A3
330
68
100
AcDbEntity
  8
1
  6
Continuous
 62
     7
100
AcDbLine
 10
133.442341432684
 20
740.7636972139014
 30
0.0
 11
133.442341432684
 21
753.7636972139014
 31
0.0
  0
LINE
  5
1A4
330
68
100
AcDbEntity
  8
1
  6
Continuous
 62
     2
100
AcDbLine
 10
134.442341432684
 20
742.4957480214706
 30
0.0
 11
134.442341432684
 21
754.7636972139014
 31
0.0
  0
LINE
  5
1A5
330
68
100
AcDbEntity
  8
1
  6
Continuous
 62
     7
100
AcDbLine
 10
166.942341432684
 20
740.7636972139014
 30
0.0
 11
166.942341432684
 21
738.7636972139014
 31
0.0
  0
LINE
  5
1A6
330
68
100
AcDbEntity
  8
1
  6
Continuous
 62
     7
100
AcDbLine
 10
154.442341432684
 20
753.7636972139014
 30
0.0
 11
153.442341432684
 21
754.7636972139014
 31
0.0
  0
LINE
  5
1A7
330
68
100
AcDbEntity
  8
1
  6
Continuous
 62
     2
100
AcDbLine
 10
153.442341432684
 20
754.7636972139014
 30
0.0
 11
153.442341432684
 21
742.4957480214706
 31
0.0
  0
LINE
  5
1A8
330
68
100
AcDbEntity
  8
1
  6
Continuous
 62
     2
100
AcDbLine
 10
153.442341432684
 20
742.4957480214706
 30
0.0
 11
154.442341432684
 21
740.7636972139014
 31
0.0
  0
LINE
  5
1A9
330
68
100
AcDbEntity
  8
1
  6
Continuous
 62
     7
100
AcDbLine
 10
154.442341432684
 20
753.7636972139014
 30
0.0
 11
154.442341432684
 21
740.7636972139014
 31
0.0
  0
LINE
  5
1AA
330
68
100
AcDbEntity
  8
1
  6
Continuous
 62
     7
100
AcDbLine
 10
133.442341432684
 20
742.4957480214706
 30
0.0
 11
154.442341432684
 21
742.4957480214706
 31
0.0
  0
LINE
  5
1AB
330
68
100
AcDbEntity
  8
1
  6
Continuous
 62
     7
100
AcDbLine
 10
133.442341432684
 20
753.7636972139014
 30
0.0
 11
154.442341432684
 21
753.7636972139014
 31
0.0
  0
LINE
  5
1AC
330
68
100
AcDbEntity
  8
0
  6
PHANTOM
 62
     4
100
AcDbLine
 10
166.942341432684
 20
257.2636972139014
 30
0.0
 11
169.942341432684
 21
257.2636972139014
 31
0.0
  0
ARC
  5
1AD
330
68
100
AcDbEntity
  8
1
  6
Continuous
 62
     7
100
AcDbCircle
 10
143.942341432684
 20
257.2636972139014
 30
0.0
 40
8.351995935905956
100
AcDbArc
 50
0.19057502307833
 51
16.69354317840993
  0
ARC
  5
1AE
330
68
100
AcDbEntity
  8
1
  6
Continuous
 62
     7
100
AcDbCircle
 10
143.942341432684
 20
257.2636972139014
 30
0.0
 40
8.351995935906142
100
AcDbArc
 50
163.3064568215943
 51
179.8094249769217
  0
ARC
  5
1AF
330
68
100
AcDbEntity
  8
1
  6
Continuous
 62
     7
100
AcDbCircle
 10
143.942341432684
 20
257.2636972139014
 30
0.0
 40
13.00000000000009
100
AcDbArc
 50
180.0686452889387
 51
214.3100927933892
  0
ARC
  5
1B0
330
68
100
AcDbEntity
  8
1
  6
Continuous
 62
     7
100
AcDbCircle
 10
132.2379108586918
 20
241.4307988308365
 30
0.0
 40
24.00000000000136
100
AcDbArc
 50
8.67199482596322
 51
27.87011739414517
  0
ARC
  5
1B1
330
68
100
AcDbEntity
  8
1
  6
Continuous
 62
     7
100
AcDbCircle
 10
143.942341432684
 20
257.2636972139014
 30
0.0
 40
13.00000000000011
100
AcDbArc
 50
180.0
 51
180.0686452889387
  0
ARC
  5
1B2
330
68
100
AcDbEntity
  8
1
  6
Continuous
 62
     7
100
AcDbCircle
 10
143.942341432684
 20
257.2636972139014
 30
0.0
 40
13.00000000000006
100
AcDbArc
 50
325.6899072066108
 51
359.9313547110613
  0
ARC
  5
1B3
330
68
100
AcDbEntity
  8
1
  6
Continuous
 62
     7
100
AcDbCircle
 10
155.6467720066761
 20
241.4307988308365
 30
0.0
 40
24.00000000000146
100
AcDbArc
 50
152.1298826058547
 51
171.3280051740369
  0
ARC
  5
1B4
330
68
100
AcDbEntity
  8
1
  6
Continuous
 62
     7
100
AcDbCircle
 10
472.9586963979784
 20
273.2636972139014
 30
0.0
 40
28.99999999999995
100
AcDbArc
 50
242.5607598493192
 51
291.694716022386
  0
ARC
  5
1B5
330
68
100
AcDbEntity
  8
1
  6
Continuous
 62
     7
100
AcDbCircle
 10
453.9177310223997
 20
244.7696181802776
 30
0.0
 40
3.999999999997907
100
AcDbArc
 50
93.11786651757339
 51
173.9726861048951
  0
ARC
  5
1B6
330
68
100
AcDbEntity
  8
1
  6
Continuous
 62
     7
100
AcDbCircle
 10
511.4586963979785
 20
244.5136972139014
 30
0.0
 40
4.000000000000057
100
AcDbArc
 50
0.0
 51
90.0
  0
ARC
  5
1B7
330
68
100
AcDbEntity
  8
1
  6
Continuous
 62
     7
100
AcDbCircle
 10
511.4586963979785
 20
270.0136972139014
 30
0.0
 40
4.0
100
AcDbArc
 50
270.0
 51
0.0
  0
ARC
  5
1B8
330
68
100
AcDbEntity
  8
1
  6
Continuous
 62
     7
100
AcDbCircle
 10
449.6631269719709
 20
241.4307988308365
 30
0.0
 40
24.00000000000227
100
AcDbArc
 50
99.36066212030326
 51
171.3280051740369
  0
ARC
  5
1B9
330
68
100
AcDbEntity
  8
1
  6
Continuous
 62
     7
100
AcDbCircle
 10
453.7293411596398
 20
216.763697213442
 30
0.0
 40
49.00000000045973
100
AcDbArc
 50
92.19404509977879
 51
99.36066212030435
  0
ARC
  5
1BA
330
68
100
AcDbEntity
  8
1
  6
Continuous
 62
     7
100
AcDbCircle
 10
451.5088718930518
 20
274.7211774579274
 30
0.0
 40
9.000000000003894
100
AcDbArc
 50
272.1940450997746
 51
358.181697035541
  0
ARC
  5
1BB
330
68
100
AcDbEntity
  8
1
  6
Continuous
 62
     7
100
AcDbCircle
 10
127.942341432684
 20
695.7636972139015
 30
0.0
 40
28.99999999999995
100
AcDbArc
 50
332.5607598493186
 51
343.602818972704
  0
ARC
  5
1BC
330
68
100
AcDbEntity
  8
1
  6
Continuous
 62
     7
100
AcDbCircle
 10
131.192341432684
 20
734.2636972139014
 30
0.0
 40
4.0
100
AcDbArc
 50
0.00000000000326
 51
90.0
  0
ARC
  5
1BD
330
68
100
AcDbEntity
  8
1
  6
Continuous
 62
     7
100
AcDbCircle
 10
156.692341432684
 20
734.2636972139014
 30
0.0
 40
4.0
100
AcDbArc
 50
90.0
 51
179.9999999999967
  0
ARC
  5
1BE
330
68
100
AcDbEntity
  8
1
  6
Continuous
 62
     7
100
AcDbCircle
 10
143.942341432684
 20
660.7636972139014
 30
0.0
 40
13.00000000000015
100
AcDbArc
 50
142.4250638103308
 51
37.57493618966942
  0
ARC
  5
1BF
330
68
100
AcDbEntity
  8
1
  6
Continuous
 62
     7
100
AcDbCircle
 10
159.9423414326838
 20
695.7636972139015
 30
0.0
 40
28.99999999999989
100
AcDbArc
 50
196.3971810272961
 51
207.4392401506814
  0
ARC
  5
1C0
330
68
100
AcDbEntity
  8
1
  6
Continuous
 62
     7
100
AcDbCircle
 10
143.942341432684
 20
257.2636972139014
 30
0.0
 40
22.99999999999996
100
AcDbArc
 50
304.4173887104416
 51
0.0
  0
ARC
  5
1C1
330
68
100
AcDbEntity
  8
1
  6
Continuous
 62
     7
100
AcDbCircle
 10
143.942341432684
 20
257.2636972139014
 30
0.0
 40
23.0
100
AcDbArc
 50
0.0
 51
57.42219882713927
  0
ARC
  5
1C2
330
68
100
AcDbEntity
  8
1
  6
Continuous
 62
     7
100
AcDbCircle
 10
143.942341432684
 20
257.2636972139014
 30
0.0
 40
23.00000000000012
100
AcDbArc
 50
122.5778011728607
 51
235.5826112895582
  0
ARC
  5
1C3
330
68
100
AcDbEntity
  8
1
  6
Continuous
 62
     7
100
AcDbCircle
 10
162.2942358513959
 20
257.3247388059671
 30
0.0
 40
10.00000000000007
100
AcDbArc
 50
180.1905750230771
 51
207.8701173941454
  0
ARC
  5
1C4
330
68
100
AcDbEntity
  8
1
  6
Continuous
 62
     7
100
AcDbCircle
 10
125.590447013972
 20
257.3247388059671
 30
0.0
 40
10.00000000000006
100
AcDbArc
 50
332.1298826058548
 51
359.8094249769229
  0
ARC
  5
1C5
330
68
100
AcDbEntity
  8
1
  6
Continuous
 62
     7
100
AcDbCircle
 10
495.1383605072476
 20
297.0136972139017
 30
0.0
 40
30.99999999999999
100
AcDbArc
 50
268.0736638597934
 51
270.0
  0
ARC
  5
1C6
330
68
100
AcDbEntity
  8
1
  6
Continuous
 62
     7
100
AcDbCircle
 10
494.3988398678256
 20
275.0261300628076
 30
0.0
 40
8.999999999998678
100
AcDbArc
 50
181.8183029644523
 51
268.0736638597964
  0
ARC
  5
1C7
330
68
100
AcDbEntity
  8
1
  6
Continuous
 62
     7
100
AcDbCircle
 10
495.1383605072476
 20
217.5136972139013
 30
0.0
 40
31.0
100
AcDbArc
 50
90.0000000000019
 51
111.6947160223879
  0
ARC
  5
1C8
330
68
100
AcDbEntity
  8
1
  6
Continuous
 62
     7
100
AcDbCircle
 10
454.5263878068117
 20
237.7636972139014
 30
0.0
 40
11.00000000000003
100
AcDbArc
 50
62.56075984931883
 51
90.0
  0
ARC
  5
1C9
330
68
100
AcDbEntity
  8
1
  6
Continuous
 62
     7
100
AcDbCircle
 10
515.9586963979785
 20
234.7636972139014
 30
0.0
 40
0.4999999999998863
100
AcDbArc
 50
180.0
 51
270.0
  0
ARC
  5
1CA
330
68
100
AcDbEntity
  8
1
  6
Continuous
 62
     7
100
AcDbCircle
 10
515.9586963979785
 20
279.7636972139014
 30
0.0
 40
0.5
100
AcDbArc
 50
90.0
 51
180.0
  0
ARC
  5
1CB
330
68
100
AcDbEntity
  8
1
  6
Continuous
 62
     7
100
AcDbCircle
 10
163.4423414326839
 20
677.3313886227346
 30
0.0
 40
11.00000000000003
100
AcDbArc
 50
152.5607598493185
 51
180.5570010462629
  0
ARC
  5
1CC
330
68
100
AcDbEntity
  8
1
  6
Continuous
 62
     7
100
AcDbCircle
 10
183.692341432684
 20
717.9433613231705
 30
0.0
 40
31.0
100
AcDbArc
 50
180.0000000000017
 51
192.532519511488
  0
ARC
  5
1CD
330
68
100
AcDbEntity
  8
1
  6
Continuous
 62
     7
100
AcDbCircle
 10
124.4423414326839
 20
677.3313886227346
 30
0.0
 40
11.00000000000006
100
AcDbArc
 50
359.4429989537372
 51
27.43924015068147
  0
ARC
  5
1CE
330
68
100
AcDbEntity
  8
1
  6
Continuous
 62
     7
100
AcDbCircle
 10
121.4423414326839
 20
738.7636972139014
 30
0.0
 40
0.5
100
AcDbArc
 50
180.0
 51
270.0
  0
ARC
  5
1CF
330
68
100
AcDbEntity
  8
1
  6
Continuous
 62
     7
100
AcDbCircle
 10
166.442341432684
 20
738.7636972139014
 30
0.0
 40
0.5
100
AcDbArc
 50
270.0
 51
0.0
  0
ARC
  5
1D0
330
68
100
AcDbEntity
  8
1
  6
Continuous
 62
     7
100
AcDbCircle
 10
104.1923414326836
 20
717.9433613231705
 30
0.0
 40
31.0000000000003
100
AcDbArc
 50
347.4674804885121
 51
359.9999999999983
  0
ENDBLK
  5
6A
330
68
100
AcDbEntity
  8
0
100
AcDbBlockEnd
  0
BLOCK
  5
6C
330
6B
100
AcDbEntity
  8
0
100
AcDbBlockBegin
  2
開示A4
 70
     0
 10
0.0
 20
0.0
 30
0.0
  3
開示A4
  1

  0
POINT
  5
1D1
330
6B
100
AcDbEntity
  8
1
 62
     4
100
AcDbPoint
 10
34.0
 20
34.00000000000001
 30
0.0
  0
POINT
  5
1D2
330
6B
100
AcDbEntity
  8
1
 62
     4
100
AcDbPoint
 10
57.0
 20
12.25
 30
0.0
  0
POINT
  5
1D3
330
6B
100
AcDbEntity
  8
1
 62
     4
100
AcDbPoint
 10
57.0
 20
20.75000000000001
 30
0.0
  0
POINT
  5
1D4
330
6B
100
AcDbEntity
  8
1
 62
     4
100
AcDbPoint
 10
57.0
 20
24.75000000000001
 30
0.0
  0
POINT
  5
1D5
330
6B
100
AcDbEntity
  8
1
 62
     4
100
AcDbPoint
 10
57.0
 20
16.25
 30
0.0
  0
POINT
  5
1D6
330
6B
100
AcDbEntity
  8
1
 62
     4
100
AcDbPoint
 10
157.5
 20
19.00000000000001
 30
0.0
  0
POINT
  5
1D7
330
6B
100
AcDbEntity
  8
1
 62
     4
100
AcDbPoint
 10
47.5
 20
282.0000000000003
 30
0.0
  0
POINT
  5
1D8
330
6B
100
AcDbEntity
  8
1
 62
     4
100
AcDbPoint
 10
57.0
 20
22.75000000000001
 30
0.0
  0
POINT
  5
1D9
330
6B
100
AcDbEntity
  8
1
 62
     4
100
AcDbPoint
 10
57.0
 20
14.25
 30
0.0
  0
POINT
  5
1DA
330
6B
100
AcDbEntity
  8
1
 62
     4
100
AcDbPoint
 10
157.5
 20
12.5
 30
0.0
  0
POINT
  5
1DB
330
6B
100
AcDbEntity
  8
1
 62
     4
100
AcDbPoint
 10
163.25
 20
12.5
 30
0.0
  0
POINT
  5
1DC
330
6B
100
AcDbEntity
  8
1
 62
     4
100
AcDbPoint
 10
151.75
 20
12.5
 30
0.0
  0
POINT
  5
1DD
330
6B
100
AcDbEntity
  8
1
 62
     4
100
AcDbPoint
 10
134.75
 20
12.5
 30
0.0
  0
POINT
  5
1DE
330
6B
100
AcDbEntity
  8
1
 62
     4
100
AcDbPoint
 10
146.25
 20
12.5
 30
0.0
  0
POINT
  5
1DF
330
6B
100
AcDbEntity
  8
1
 62
     4
100
AcDbPoint
 10
140.5
 20
12.5
 30
0.0
  0
POINT
  5
1E0
330
6B
100
AcDbEntity
  8
1
 62
     4
100
AcDbPoint
 10
140.5
 20
19.00000000000001
 30
0.0
  0
POINT
  5
1E1
330
6B
100
AcDbEntity
  8
1
 62
     4
100
AcDbPoint
 10
117.75
 20
12.5
 30
0.0
  0
POINT
  5
1E2
330
6B
100
AcDbEntity
  8
1
 62
     4
100
AcDbPoint
 10
129.25
 20
12.5
 30
0.0
  0
POINT
  5
1E3
330
6B
100
AcDbEntity
  8
1
 62
     4
100
AcDbPoint
 10
123.5
 20
12.5
 30
0.0
  0
POINT
  5
1E4
330
6B
100
AcDbEntity
  8
1
 62
     4
100
AcDbPoint
 10
123.5
 20
19.00000000000001
 30
0.0
  0
POINT
  5
1E5
330
6B
100
AcDbEntity
  8
1
 62
     4
100
AcDbPoint
 10
100.75
 20
12.5
 30
0.0
  0
POINT
  5
1E6
330
6B
100
AcDbEntity
  8
1
 62
     4
100
AcDbPoint
 10
112.25
 20
12.5
 30
0.0
  0
POINT
  5
1E7
330
6B
100
AcDbEntity
  8
1
 62
     4
100
AcDbPoint
 10
106.5
 20
12.5
 30
0.0
  0
POINT
  5
1E8
330
6B
100
AcDbEntity
  8
1
 62
     4
100
AcDbPoint
 10
106.5
 20
19.00000000000001
 30
0.0
  0
POINT
  5
1E9
330
6B
100
AcDbEntity
  8
1
 62
     4
100
AcDbPoint
 10
85.25
 20
17.0
 30
0.0
  0
POINT
  5
1EA
330
6B
100
AcDbEntity
  8
1
 62
     4
100
AcDbPoint
 10
93.75
 20
17.0
 30
0.0
  0
LINE
  5
1EB
330
6B
100
AcDbEntity
  8
1
  6
Continuous
 62
     2
100
AcDbLine
 10
81.0
 20
27.00000000000001
 30
0.0
 11
81.0
 21
10.0
 31
0.0
  0
LINE
  5
1EC
330
6B
100
AcDbEntity
  8
1
  6
DOT_CENTER
 62
     2
100
AcDbLine
 10
187.0
 20
26.50000000000001
 30
0.0
 11
187.0
 21
20.50000000000001
 31
0.0
  0
LINE
  5
1ED
330
6B
100
AcDbEntity
  8
1
  6
DOT_CENTER
 62
     2
100
AcDbLine
 10
184.0
 20
23.50000000000001
 30
0.0
 11
197.0
 21
23.50000000000001
 31
0.0
  0
LINE
  5
1EE
330
6B
100
AcDbEntity
  8
1
  6
Continuous
 62
     7
100
AcDbLine
 10
196.0
 20
21.50000000000001
 30
0.0
 11
191.0
 21
22.30000000000001
 31
0.0
  0
LINE
  5
1EF
330
6B
100
AcDbEntity
  8
1
  6
Continuous
 62
     7
100
AcDbLine
 10
196.0
 20
25.50000000000001
 30
0.0
 11
196.0
 21
21.50000000000001
 31
0.0
  0
LINE
  5
1F0
330
6B
100
AcDbEntity
  8
1
  6
Continuous
 62
     7
100
AcDbLine
 10
191.0
 20
24.70000000000001
 30
0.0
 11
196.0
 21
25.50000000000001
 31
0.0
  0
LINE
  5
1F1
330
6B
100
AcDbEntity
  8
1
  6
Continuous
 62
     7
100
AcDbLine
 10
191.0
 20
24.70000000000001
 30
0.0
 11
191.0
 21
22.30000000000001
 31
0.0
  0
LINE
  5
1F2
330
6B
100
AcDbEntity
  8
1
  6
Continuous
 62
     2
100
AcDbLine
 10
33.0
 20
27.0
 30
0.0
 11
33.0
 21
10.0
 31
0.0
  0
LINE
  5
1F3
330
6B
100
AcDbEntity
  8
1
  6
Continuous
 62
     2
100
AcDbLine
 10
25.0
 20
18.50000000000001
 30
0.0
 11
81.0
 21
18.50000000000001
 31
0.0
  0
LINE
  5
1F4
330
6B
100
AcDbEntity
  8
1
  6
Continuous
 62
     7
100
AcDbLine
 10
200.0
 20
287.0000000000003
 30
0.0
 11
105.0
 21
287.0000000000003
 31
0.0
  0
LINE
  5
1F5
330
6B
100
AcDbEntity
  8
1
  6
Continuous
 62
     7
100
AcDbLine
 10
200.0
 20
10.0
 30
0.0
 11
200.0
 21
148.5
 31
0.0
  0
LINE
  5
1F6
330
6B
100
AcDbEntity
  8
1
  6
Continuous
 62
     7
100
AcDbLine
 10
25.0
 20
10.0
 30
0.0
 11
105.0
 21
10.0
 31
0.0
  0
LINE
  5
1F7
330
6B
100
AcDbEntity
  8
1
  6
PHANTOM
 62
     4
100
AcDbLine
 10
0.0
 20
297.0
 30
0.0
 11
0.0
 21
0.0
 31
0.0
  0
LINE
  5
1F8
330
6B
100
AcDbEntity
  8
1
  6
PHANTOM
 62
     4
100
AcDbLine
 10
210.0
 20
297.0
 30
0.0
 11
0.0
 21
297.0
 31
0.0
  0
LINE
  5
1F9
330
6B
100
AcDbEntity
  8
1
  6
PHANTOM
 62
     4
100
AcDbLine
 10
210.0
 20
0.0
 30
0.0
 11
210.0
 21
297.0
 31
0.0
  0
LINE
  5
1FA
330
6B
100
AcDbEntity
  8
1
  6
PHANTOM
 62
     4
100
AcDbLine
 10
0.0
 20
0.0
 30
0.0
 11
210.0
 21
0.0
 31
0.0
  0
LINE
  5
1FB
330
6B
100
AcDbEntity
  8
1
  6
Continuous
 62
     7
100
AcDbLine
 10
25.0
 20
41.0
 30
0.0
 11
200.0
 21
41.0
 31
0.0
  0
LINE
  5
1FC
330
6B
100
AcDbEntity
  8
1
  6
Continuous
 62
     7
100
AcDbLine
 10
200.0
 20
27.00000000000001
 30
0.0
 11
25.0
 21
27.00000000000001
 31
0.0
  0
LINE
  5
1FD
330
6B
100
AcDbEntity
  8
1
  6
Continuous
 62
     2
100
AcDbLine
 10
33.0
 20
41.00000000000001
 30
0.0
 11
33.0
 21
27.0
 31
0.0
  0
LINE
  5
1FE
330
6B
100
AcDbEntity
  8
1
  6
Continuous
 62
     2
100
AcDbLine
 10
55.0
 20
287.0000000000003
 30
0.0
 11
55.0
 21
277.0000000000003
 31
0.0
  0
LINE
  5
1FF
330
6B
100
AcDbEntity
  8
1
  6
Continuous
 62
     2
100
AcDbLine
 10
40.0
 20
287.0000000000003
 30
0.0
 11
40.0
 21
277.0000000000003
 31
0.0
  0
LINE
  5
200
330
6B
100
AcDbEntity
  8
1
  6
Continuous
 62
     7
100
AcDbLine
 10
25.0
 20
10.0
 30
0.0
 11
25.0
 21
148.5
 31
0.0
  0
LINE
  5
201
330
6B
100
AcDbEntity
  8
1
  6
Continuous
 62
     2
100
AcDbLine
 10
55.0
 20
277.0000000000003
 30
0.0
 11
25.0
 21
277.0000000000003
 31
0.0
  0
LINE
  5
202
330
6B
100
AcDbEntity
  8
1
  6
Continuous
 62
     2
100
AcDbLine
 10
166.0
 20
27.00000000000001
 30
0.0
 11
166.0
 21
10.0
 31
0.0
  0
LINE
  5
203
330
6B
100
AcDbEntity
  8
1
  6
Continuous
 62
     2
100
AcDbLine
 10
132.0
 20
27.00000000000001
 30
0.0
 11
132.0
 21
9.99999999999999
 31
0.0
  0
LINE
  5
204
330
6B
100
AcDbEntity
  8
1
  6
Continuous
 62
     2
100
AcDbLine
 10
149.0
 20
27.00000000000001
 30
0.0
 11
149.0
 21
10.0
 31
0.0
  0
LINE
  5
205
330
6B
100
AcDbEntity
  8
1
  6
Continuous
 62
     2
100
AcDbLine
 10
115.0
 20
27.00000000000001
 30
0.0
 11
115.0
 21
9.99999999999999
 31
0.0
  0
LINE
  5
206
330
6B
100
AcDbEntity
  8
1
  6
Continuous
 62
     2
100
AcDbLine
 10
98.0
 20
27.00000000000001
 30
0.0
 11
98.0
 21
9.99999999999999
 31
0.0
  0
LINE
  5
207
330
6B
100
AcDbEntity
  8
1
  6
Continuous
 62
     2
100
AcDbLine
 10
166.0
 20
20.00000000000001
 30
0.0
 11
200.0
 21
20.00000000000001
 31
0.0
  0
LINE
  5
208
330
6B
100
AcDbEntity
  8
1
  6
Continuous
 62
     2
100
AcDbLine
 10
105.0
 20
287.0000000000003
 30
0.0
 11
105.0
 21
292.0000000000003
 31
0.0
  0
LINE
  5
209
330
6B
100
AcDbEntity
  8
1
  6
Continuous
 62
     7
100
AcDbLine
 10
105.0
 20
287.0000000000003
 30
0.0
 11
25.0
 21
287.0000000000003
 31
0.0
  0
LINE
  5
20A
330
6B
100
AcDbEntity
  8
1
  6
Continuous
 62
     2
100
AcDbLine
 10
25.0
 20
148.5
 30
0.0
 11
20.0
 21
148.5
 31
0.0
  0
LINE
  5
20B
330
6B
100
AcDbEntity
  8
1
  6
Continuous
 62
     7
100
AcDbLine
 10
25.0
 20
148.5
 30
0.0
 11
25.0
 21
287.0000000000003
 31
0.0
  0
LINE
  5
20C
330
6B
100
AcDbEntity
  8
1
  6
Continuous
 62
     2
100
AcDbLine
 10
200.0
 20
148.5
 30
0.0
 11
205.0
 21
148.5
 31
0.0
  0
LINE
  5
20D
330
6B
100
AcDbEntity
  8
1
  6
Continuous
 62
     7
100
AcDbLine
 10
200.0
 20
148.5
 30
0.0
 11
200.0
 21
287.0000000000003
 31
0.0
  0
LINE
  5
20E
330
6B
100
AcDbEntity
  8
1
  6
Continuous
 62
     2
100
AcDbLine
 10
105.0
 20
10.0
 30
0.0
 11
105.0
 21
5.0
 31
0.0
  0
LINE
  5
20F
330
6B
100
AcDbEntity
  8
1
  6
Continuous
 62
     7
100
AcDbLine
 10
105.0
 20
10.0
 30
0.0
 11
200.0
 21
10.0
 31
0.0
  0
CIRCLE
  5
210
330
6B
100
AcDbEntity
  8
1
  6
DOT_CENTER
 62
     7
100
AcDbCircle
 10
89.5
 20
18.0
 30
0.0
 40
0.1000000000000227
  0
CIRCLE
  5
211
330
6B
100
AcDbEntity
  8
1
  6
DOT_CENTER
 62
     7
100
AcDbCircle
 10
89.5
 20
16.0
 30
0.0
 40
0.1000000000000227
  0
CIRCLE
  5
212
330
6B
100
AcDbEntity
  8
1
  6
Continuous
 62
     7
100
AcDbCircle
 10
187.0
 20
23.50000000000001
 30
0.0
 40
2.0
  0
CIRCLE
  5
213
330
6B
100
AcDbEntity
  8
1
  6
Continuous
 62
     7
100
AcDbCircle
 10
187.0
 20
23.50000000000001
 30
0.0
 40
1.200000000000102
  0
CIRCLE
  5
214
330
6B
100
AcDbEntity
  8
1
  6
Continuous
 62
     7
100
AcDbCircle
 10
154.5
 20
12.5
 30
0.0
 40
0.3000000000000114
  0
CIRCLE
  5
215
330
6B
100
AcDbEntity
  8
1
  6
Continuous
 62
     7
100
AcDbCircle
 10
160.5
 20
12.5
 30
0.0
 40
0.3000000000000114
  0
CIRCLE
  5
216
330
6B
100
AcDbEntity
  8
1
  6
Continuous
 62
     7
100
AcDbCircle
 10
143.5
 20
12.5
 30
0.0
 40
0.3000000000000114
  0
CIRCLE
  5
217
330
6B
100
AcDbEntity
  8
1
  6
Continuous
 62
     7
100
AcDbCircle
 10
137.5
 20
12.5
 30
0.0
 40
0.3000000000000114
  0
CIRCLE
  5
218
330
6B
100
AcDbEntity
  8
1
  6
Continuous
 62
     7
100
AcDbCircle
 10
126.5
 20
12.5
 30
0.0
 40
0.2999999999999972
  0
CIRCLE
  5
219
330
6B
100
AcDbEntity
  8
1
  6
Continuous
 62
     7
100
AcDbCircle
 10
120.5
 20
12.5
 30
0.0
 40
0.2999999999999972
  0
CIRCLE
  5
21A
330
6B
100
AcDbEntity
  8
1
  6
Continuous
 62
     7
100
AcDbCircle
 10
109.5
 20
12.5
 30
0.0
 40
0.2999999999999972
  0
CIRCLE
  5
21B
330
6B
100
AcDbEntity
  8
1
  6
Continuous
 62
     7
100
AcDbCircle
 10
103.5
 20
12.5
 30
0.0
 40
0.2999999999999972
  0
MTEXT
  5
21D
330
6B
100
AcDbEntity
  8
1
 62
   250
100
AcDbMText
 10
25.0
 20
5.0
 30
0.0
 40
3.5
 41
0.0
 71
     4
 72
     1
  1
備考欄の文字列 原点位置=4
  7
CONVERTER_11
 73
     1
 44
0.54545454545455
  0
MTEXT
  5
21E
330
6B
100
AcDbEntity
  8
1
 62
     2
100
AcDbMText
 10
89.5
 20
24.00000000000001
 30
0.0
 40
3.5
 41
0.0
 71
     5
 72
     1
  1
尺度
  7
CONVERTER_11
 73
     1
 44
0.54545454545455
  0
MTEXT
  5
21F
330
6B
100
AcDbEntity
  8
1
 62
     2
100
AcDbMText
 10
135.5
 20
25.00000000000001
 30
0.0
 40
3.0
 41
0.0
 71
     5
 72
     1
  1
製図
  7
CONVERTER_11
 73
     1
 44
0.59090909090909
  0
MTEXT
  5
220
330
6B
100
AcDbEntity
  8
1
 62
     2
100
AcDbMText
 10
152.5
 20
25.00000000000001
 30
0.0
 40
3.0
 41
0.0
 71
     5
 72
     1
  1
設計
  7
CONVERTER_11
 73
     1
 44
0.59090909090909
  0
MTEXT
  5
221
330
6B
100
AcDbEntity
  8
1
 62
     2
100
AcDbMText
 10
118.5
 20
25.00000000000001
 30
0.0
 40
3.0
 41
0.0
 71
     5
 72
     1
  1
検図
  7
CONVERTER_11
 73
     1
 44
0.59090909090909
  0
MTEXT
  5
222
330
6B
100
AcDbEntity
  8
1
 62
     2
100
AcDbMText
 10
175.0
 20
23.50000000000001
 30
0.0
 40
3.5
 41
0.0
 71
     5
 72
     1
  1
第三角法
  7
CONVERTER_11
 73
     1
 44
0.54545454545455
  0
MTEXT
  5
223
330
6B
100
AcDbEntity
  8
1
 62
     2
100
AcDbMText
 10
101.5
 20
25.00000000000001
 30
0.0
 40
3.0
 41
0.0
 71
     5
 72
     1
  1
承認
  7
CONVERTER_11
 73
     1
 44
0.59090909090909
  0
MTEXT
  5
224
330
6B
100
AcDbEntity
  8
1
 62
     2
100
AcDbMText
 10
29.0
 20
14.25
 30
0.0
 40
3.5
 41
0.0
 71
     5
 72
     1
  1
品番
  7
CONVERTER_11
 73
     1
 44
0.72727272727273
  0
MTEXT
  5
225
330
6B
100
AcDbEntity
  8
1
 62
     2
100
AcDbMText
 10
29.0
 20
22.75
 30
0.0
 40
3.5
 41
0.0
 71
     5
 72
     1
  1
品名
  7
CONVERTER_11
 73
     1
 44
0.72727272727273
  0
MTEXT
  5
226
330
6B
100
AcDbEntity
  8
1
 62
     2
100
AcDbMText
 10
29.0
 20
34.00000000000001
 30
0.0
 40
3.5
 41
0.0
 71
     5
 72
     1
  1
備考
  7
CONVERTER_11
 73
     1
 44
0.45454545454545
  0
MTEXT
  5
227
330
6B
100
AcDbEntity
  8
1
 62
     2
100
AcDbMText
 10
32.5
 20
282.0000000000003
 30
0.0
 40
5.0
 41
0.0
 71
     5
 72
     1
  1
図番
  7
CONVERTER_11
 73
     1
 44
0.45454545454545
  0
MTEXT
  5
228
330
6B
100
AcDbEntity
  8
1
 62
     7
100
AcDbMText
 10
171.5
 20
15.0
 30
0.0
 40
2.5
 41
0.0
 71
     5
 72
     1
  1
株式会社
  7
CONVERTER_11
 73
     1
 44
1.0
  0
MTEXT
  5
229
330
6B
100
AcDbEntity
  8
1
 62
     7
100
AcDbMText
 10
188.5
 20
15.0
 30
0.0
 40
3.0
 41
0.0
 71
     5
 72
     1
  1
三栄水栓製作所
  7
CONVERTER_11
 73
     1
 44
1.0
  0
ENDBLK
  5
6D
330
6B
100
AcDbEntity
  8
0
100
AcDbBlockEnd
  0
BLOCK
  5
251
330
249
100
AcDbEntity
  8
0
100
AcDbBlockBegin
  2
*D12
 70
     1
 10
0.0
 20
0.0
 30
0.0
  3
*D12
  1

  0
LINE
  5
24A
330
249
100
AcDbEntity
  8
1
  6
Continuous
 62
     2
100
AcDbLine
 10
585.9586963979788
 20
257.2636972139014
 30
0.0
 11
585.9586963979788
 21
209.9624465359748
 31
0.0
  0
LINE
  5
24B
330
249
100
AcDbEntity
  8
1
  6
Continuous
 62
     2
100
AcDbLine
 10
567.0
 20
257.2636972139014
 30
0.0
 11
588.9586963979788
 21
257.2636972139014
 31
0.0
  0
LINE
  5
24C
330
249
100
AcDbEntity
  8
1
  6
Continuous
 62
     2
100
AcDbLine
 10
534.9965029297317
 20
257.2636972139014
 30
0.0
 11
546.0
 21
257.2636972139014
 31
0.0
  0
LINE
  5
24D
330
249
100
AcDbEntity
  8
1
  6
Continuous
 62
     2
100
AcDbLine
 10
422.9599472323508
 20
209.9624465359748
 30
0.0
 11
588.9586963979788
 21
209.9624465359748
 31
0.0
  0
SOLID
  5
24E
330
249
100
AcDbEntity
  8
1
 62
     2
100
AcDbTrace
 10
587.3410476226464
 20
246.7636972139014
 30
0.0
 11
584.5763451733111
 21
246.7636972139014
 31
0.0
 12
585.9586963979788
 22
257.2636972139014
 32
0.0
 13
585.9586963979788
 23
257.2636972139014
 33
0.0
  0
SOLID
  5
24F
330
249
100
AcDbEntity
  8
1
 62
     2
100
AcDbTrace
 10
584.5763451733111
 20
220.4624465359748
 30
0.0
 11
587.3410476226464
 21
220.4624465359748
 31
0.0
 12
585.9586963979788
 22
209.9624465359748
 32
0.0
 13
585.9586963979788
 23
209.9624465359748
 33
0.0
  0
MTEXT
  5
250
330
249
100
AcDbEntity
  8
1
 62
     7
100
AcDbMText
 10
582.9586963979788
 20
225.7376132026372
 30
0.0
 40
10.5
 41
0.0
 71
     7
 72
     1
  1
47
  7
CONVERTER_12
 11
0.0
 21
1.0
 31
0.0
 73
     1
 44
0.60024009603842
  0
ENDBLK
  5
252
330
249
100
AcDbEntity
  8
0
100
AcDbBlockEnd
  0
BLOCK
  5
25C
330
255
100
AcDbEntity
  8
0
100
AcDbBlockBegin
  2
*D13
 70
     1
 10
0.0
 20
0.0
 30
0.0
  3
*D13
  1

  0
LINE
  5
256
330
255
100
AcDbEntity
  8
1
  6
Continuous
 62
     2
100
AcDbLine
 10
437.9586963979789
 20
168.7124464316734
 30
0.0
 11
517.9586963979787
 21
168.7124464316734
 31
0.0
  0
LINE
  5
257
330
255
100
AcDbEntity
  8
1
  6
Continuous
 62
     2
100
AcDbLine
 10
437.9586963979789
 20
224.9624464316734
 30
0.0
 11
437.9586963979789
 21
165.7124464316734
 31
0.0
  0
LINE
  5
258
330
255
100
AcDbEntity
  8
1
  6
Continuous
 62
     2
100
AcDbLine
 10
517.9586963979787
 20
234.2636972139014
 30
0.0
 11
517.9586963979787
 21
165.7124464316734
 31
0.0
  0
SOLID
  5
259
330
255
100
AcDbEntity
  8
1
 62
     2
100
AcDbTrace
 10
448.4586963979789
 20
170.0947976563411
 30
0.0
 11
448.4586963979789
 21
167.3300952070058
 31
0.0
 12
437.9586963979789
 22
168.7124464316734
 32
0.0
 13
437.9586963979789
 23
168.7124464316734
 33
0.0
  0
SOLID
  5
25A
330
255
100
AcDbEntity
  8
1
 62
     2
100
AcDbTrace
 10
507.4586963979787
 20
167.3300952070058
 30
0.0
 11
507.4586963979787
 21
170.0947976563411
 31
0.0
 12
517.9586963979787
 22
168.7124464316734
 32
0.0
 13
517.9586963979787
 23
168.7124464316734
 33
0.0
  0
MTEXT
  5
25B
330
255
100
AcDbEntity
  8
1
 62
     7
100
AcDbMText
 10
470.0836963979787
 20
171.7124464316734
 30
0.0
 40
10.5
 41
0.0
 71
     7
 72
     1
  1
80
  7
CONVERTER_12
 11
0.9999999999970619
 21
2.424068405545306E-6
 31
0.0
 73
     1
 44
0.60024009603842
  0
ENDBLK
  5
25D
330
255
100
AcDbEntity
  8
0
100
AcDbBlockEnd
  0
BLOCK
  5
267
330
260
100
AcDbEntity
  8
0
100
AcDbBlockBegin
  2
*D14
 70
     1
 10
0.0
 20
0.0
 30
0.0
  3
*D14
  1

  0
LINE
  5
261
330
260
100
AcDbEntity
  8
1
  6
Continuous
 62
     2
100
AcDbLine
 10
381.9586963979767
 20
168.7124464316734
 30
0.0
 11
437.9586963979788
 21
168.7124464316734
 31
0.0
  0
LINE
  5
262
330
260
100
AcDbEntity
  8
1
  6
Continuous
 62
     2
100
AcDbLine
 10
381.9586963979767
 20
234.9611956494453
 30
0.0
 11
381.9586963979767
 21
165.7124464316734
 31
0.0
  0
LINE
  5
263
330
260
100
AcDbEntity
  8
1
  6
Continuous
 62
     2
100
AcDbLine
 10
437.9586963979788
 20
224.9624464316734
 30
0.0
 11
437.9586963979788
 21
165.7124464316734
 31
0.0
  0
SOLID
  5
264
330
260
100
AcDbEntity
  8
1
 62
     2
100
AcDbTrace
 10
392.4586963979767
 20
170.0947976563411
 30
0.0
 11
392.4586963979767
 21
167.3300952070058
 31
0.0
 12
381.9586963979767
 22
168.7124464316734
 32
0.0
 13
381.9586963979767
 23
168.7124464316734
 33
0.0
  0
SOLID
  5
265
330
260
100
AcDbEntity
  8
1
 62
     2
100
AcDbTrace
 10
427.4586963979788
 20
167.3300952070058
 30
0.0
 11
427.4586963979788
 21
170.0947976563411
 31
0.0
 12
437.9586963979788
 22
168.7124464316734
 32
0.0
 13
437.9586963979788
 23
168.7124464316734
 33
0.0
  0
MTEXT
  5
266
330
260
100
AcDbEntity
  8
1
 62
     7
100
AcDbMText
 10
402.0836963979787
 20
171.7124464316734
 30
0.0
 40
10.5
 41
0.0
 71
     7
 72
     1
  1
56
  7
CONVERTER_12
 11
0.9999999999970619
 21
2.424068405545306E-6
 31
0.0
 73
     1
 44
0.60024009603842
  0
ENDBLK
  5
268
330
260
100
AcDbEntity
  8
0
100
AcDbBlockEnd
  0
BLOCK
  5
272
330
26B
100
AcDbEntity
  8
0
100
AcDbBlockBegin
  2
*D15
 70
     1
 10
0.0
 20
0.0
 30
0.0
  3
*D15
  1

  0
LINE
  5
26C
330
26B
100
AcDbEntity
  8
1
  6
Continuous
 62
     2
100
AcDbLine
 10
517.9586963979787
 20
168.7124464316734
 30
0.0
 11
531.9586963979787
 21
168.7124464316734
 31
0.0
  0
LINE
  5
26D
330
26B
100
AcDbEntity
  8
1
  6
Continuous
 62
     2
100
AcDbLine
 10
531.9586963979787
 20
168.7124464316734
 30
0.0
 11
559.2954234701299
 21
168.7124464316734
 31
0.0
  0
LINE
  5
26E
330
26B
100
AcDbEntity
  8
1
  6
Continuous
 62
     2
100
AcDbLine
 10
517.9586963979787
 20
234.2636972139014
 30
0.0
 11
517.9586963979787
 21
165.7124464316734
 31
0.0
  0
LINE
  5
26F
330
26B
100
AcDbEntity
  8
1
  6
Continuous
 62
     2
100
AcDbLine
 10
531.9586963979787
 20
247.7636972139014
 30
0.0
 11
531.9586963979787
 21
165.7124464316734
 31
0.0
  0
SOLID
  5
270
330
26B
100
AcDbEntity
  8
1
 62
     2
100
AcDbTrace
 10
542.4586963979787
 20
170.0947976563411
 30
0.0
 11
542.4586963979787
 21
167.3300952070058
 31
0.0
 12
531.9586963979787
 22
168.7124464316734
 32
0.0
 13
531.9586963979787
 23
168.7124464316734
 33
0.0
  0
MTEXT
  5
271
330
26B
100
AcDbEntity
  8
1
 62
     7
100
AcDbMText
 10
546.69542347013
 20
171.7124464316734
 30
0.0
 40
10.5
 41
0.0
 71
     7
 72
     1
  1
14
  7
CONVERTER_12
 11
0.9999999999970619
 21
2.424068405545306E-6
 31
0.0
 73
     1
 44
0.60024009603842
  0
ENDBLK
  5
273
330
26B
100
AcDbEntity
  8
0
100
AcDbBlockEnd
  0
BLOCK
  5
275
330
274
100
AcDbEntity
  8
0
100
AcDbBlockBegin
  2
_NONE
 70
     0
 10
0.0
 20
0.0
 30
0.0
  3
_NONE
  1

  0
ENDBLK
  5
276
330
274
100
AcDbEntity
  8
0
100
AcDbBlockEnd
  0
BLOCK
  5
282
330
279
100
AcDbEntity
  8
0
100
AcDbBlockBegin
  2
*D17
 70
     1
 10
0.0
 20
0.0
 30
0.0
  3
*D17
  1

  0
LINE
  5
27A
330
279
100
AcDbEntity
  8
1
  6
Continuous
 62
     2
100
AcDbLine
 10
585.9586963979784
 20
257.2636972139014
 30
0.0
 11
585.9586963979784
 21
315.7636972139014
 31
0.0
  0
LINE
  5
27B
330
279
100
AcDbEntity
  8
1
  6
Continuous
 62
     2
100
AcDbLine
 10
567.0
 20
257.2636972139014
 30
0.0
 11
588.9586963979784
 21
257.2636972139014
 31
0.0
  0
LINE
  5
27C
330
279
100
AcDbEntity
  8
1
  6
Continuous
 62
     2
100
AcDbLine
 10
534.9965029297317
 20
257.2636972139014
 30
0.0
 11
546.0
 21
257.2636972139014
 31
0.0
  0
LINE
  5
27D
330
279
100
AcDbEntity
  8
1
  6
Continuous
 62
     2
100
AcDbLine
 10
472.9586963979787
 20
315.7636972139014
 30
0.0
 11
588.9586963979784
 21
315.7636972139014
 31
0.0
  0
SOLID
  5
27E
330
279
100
AcDbEntity
  8
1
 62
     2
100
AcDbTrace
 10
584.5763451733108
 20
267.7636972139014
 30
0.0
 11
587.3410476226461
 21
267.7636972139014
 31
0.0
 12
585.9586963979784
 22
257.2636972139014
 32
0.0
 13
585.9586963979784
 23
257.2636972139014
 33
0.0
  0
SOLID
  5
27F
330
279
100
AcDbEntity
  8
1
 62
     2
100
AcDbTrace
 10
587.3410476226461
 20
305.2636972139014
 30
0.0
 11
584.5763451733108
 21
305.2636972139014
 31
0.0
 12
585.9586963979784
 22
315.7636972139014
 32
0.0
 13
585.9586963979784
 23
315.7636972139014
 33
0.0
  0
MTEXT
  5
281
330
279
100
AcDbEntity
  8
1
 62
     7
100
AcDbMText
 10
582.9586963979784
 20
260.9986972139015
 30
0.0
 40
10.5
 41
0.0
 71
     7
 72
     1
  1
58リフト5
  7
CONVERTER_13
 11
0.0
 21
1.0
 31
0.0
 73
     1
 44
0.45454545454545
  0
ENDBLK
  5
283
330
279
100
AcDbEntity
  8
0
100
AcDbBlockEnd
  0
BLOCK
  5
28D
330
286
100
AcDbEntity
  8
0
100
AcDbBlockBegin
  2
*D18
 70
     1
 10
0.0
 20
0.0
 30
0.0
  3
*D18
  1

  0
LINE
  5
287
330
286
100
AcDbEntity
  8
1
  6
Continuous
 62
     2
100
AcDbLine
 10
561.9586963979785
 20
234.2636972139014
 30
0.0
 11
561.9586963979785
 21
280.2636972139014
 31
0.0
  0
LINE
  5
288
330
286
100
AcDbEntity
  8
1
  6
Continuous
 62
     2
100
AcDbLine
 10
517.9586963979787
 20
234.2636972139014
 30
0.0
 11
564.9586963979785
 21
234.2636972139014
 31
0.0
  0
LINE
  5
289
330
286
100
AcDbEntity
  8
1
  6
Continuous
 62
     2
100
AcDbLine
 10
517.9586963979787
 20
280.2636972139014
 30
0.0
 11
564.9586963979785
 21
280.2636972139014
 31
0.0
  0
SOLID
  5
28A
330
286
100
AcDbEntity
  8
1
 62
     2
100
AcDbTrace
 10
560.5763451733109
 20
244.7636972139014
 30
0.0
 11
563.3410476226462
 21
244.7636972139014
 31
0.0
 12
561.9586963979785
 22
234.2636972139014
 32
0.0
 13
561.9586963979785
 23
234.2636972139014
 33
0.0
  0
SOLID
  5
28B
330
286
100
AcDbEntity
  8
1
 62
     2
100
AcDbTrace
 10
563.3410476226462
 20
269.7636972139014
 30
0.0
 11
560.5763451733109
 21
269.7636972139014
 31
0.0
 12
561.9586963979785
 22
280.2636972139014
 32
0.0
 13
561.9586963979785
 23
280.2636972139014
 33
0.0
  0
MTEXT
  5
28C
330
286
100
AcDbEntity
  8
1
 62
     7
100
AcDbMText
 10
558.9586963979785
 20
247.0786972139014
 30
0.0
 40
10.5
 41
0.0
 71
     7
 72
     1
  1
\C7;{\Fgdt;n}\C7;46
  7
CONVERTER_12
 11
0.0
 21
1.0
 31
0.0
 73
     1
 44
0.60024009603842
  0
ENDBLK
  5
28E
330
286
100
AcDbEntity
  8
0
100
AcDbBlockEnd
  0
BLOCK
  5
298
330
291
100
AcDbEntity
  8
0
100
AcDbBlockBegin
  2
*D19
 70
     1
 10
0.0
 20
0.0
 30
0.0
  3
*D19
  1

  0
LINE
  5
292
330
291
100
AcDbEntity
  8
1
  6
Continuous
 62
     2
100
AcDbLine
 10
214.6115543062451
 20
198.7124464316734
 30
0.0
 11
214.6115543062451
 21
442.9611956494455
 31
0.0
  0
LINE
  5
293
330
291
100
AcDbEntity
  8
1
  6
Continuous
 62
     2
100
AcDbLine
 10
329.4586963979767
 20
442.9611956494455
 30
0.0
 11
211.6115543062451
 21
442.9611956494455
 31
0.0
  0
LINE
  5
294
330
291
100
AcDbEntity
  8
1
  6
Continuous
 62
     2
100
AcDbLine
 10
409.9586963979787
 20
198.7124464316734
 30
0.0
 11
211.6115543062451
 21
198.7124464316734
 31
0.0
  0
SOLID
  5
295
330
291
100
AcDbEntity
  8
1
 62
     2
100
AcDbTrace
 10
213.2292030815775
 20
209.2124464316734
 30
0.0
 11
215.9939055309127
 21
209.2124464316734
 31
0.0
 12
214.6115543062451
 22
198.7124464316734
 32
0.0
 13
214.6115543062451
 23
198.7124464316734
 33
0.0
  0
SOLID
  5
296
330
291
100
AcDbEntity
  8
1
 62
     2
100
AcDbTrace
 10
215.9939055309127
 20
432.4611956494455
 30
0.0
 11
213.2292030815775
 21
432.4611956494455
 31
0.0
 12
214.6115543062451
 22
442.9611956494455
 32
0.0
 13
214.6115543062451
 23
442.9611956494455
 33
0.0
  0
MTEXT
  5
297
330
291
100
AcDbEntity
  8
1
 62
     7
100
AcDbMText
 10
211.6115543062451
 20
308.2368210405594
 30
0.0
 40
10.5
 41
0.0
 71
     7
 72
     1
  1
244
  7
CONVERTER_12
 11
0.0
 21
1.0
 31
0.0
 73
     1
 44
0.60024009603842
  0
ENDBLK
  5
299
330
291
100
AcDbEntity
  8
0
100
AcDbBlockEnd
  0
BLOCK
  5
2A3
330
29C
100
AcDbEntity
  8
0
100
AcDbBlockBegin
  2
*D20
 70
     1
 10
0.0
 20
0.0
 30
0.0
  3
*D20
  1

  0
LINE
  5
29D
330
29C
100
AcDbEntity
  8
1
  6
Continuous
 62
     2
100
AcDbLine
 10
276.9586963979767
 20
168.7124464316734
 30
0.0
 11
381.9586963979767
 21
168.7124464316734
 31
0.0
  0
LINE
  5
29E
330
29C
100
AcDbEntity
  8
1
  6
Continuous
 62
     2
100
AcDbLine
 10
276.9586963979767
 20
384.9611956494453
 30
0.0
 11
276.9586963979767
 21
165.7124464316734
 31
0.0
  0
LINE
  5
29F
330
29C
100
AcDbEntity
  8
1
  6
Continuous
 62
     2
100
AcDbLine
 10
381.9586963979767
 20
234.9611956494453
 30
0.0
 11
381.9586963979767
 21
165.7124464316734
 31
0.0
  0
SOLID
  5
2A0
330
29C
100
AcDbEntity
  8
1
 62
     2
100
AcDbTrace
 10
287.4586963979767
 20
170.0947976563411
 30
0.0
 11
287.4586963979767
 21
167.3300952070058
 31
0.0
 12
276.9586963979767
 22
168.7124464316734
 32
0.0
 13
276.9586963979767
 23
168.7124464316734
 33
0.0
  0
SOLID
  5
2A1
330
29C
100
AcDbEntity
  8
1
 62
     2
100
AcDbTrace
 10
371.4586963979767
 20
167.3300952070058
 30
0.0
 11
371.4586963979767
 21
170.0947976563411
 31
0.0
 12
381.9586963979767
 22
168.7124464316734
 32
0.0
 13
381.9586963979767
 23
168.7124464316734
 33
0.0
  0
MTEXT
  5
2A2
330
29C
100
AcDbEntity
  8
1
 62
     7
100
AcDbMText
 10
318.4371946008789
 20
171.7124464316734
 30
0.0
 40
10.5
 41
0.0
 71
     7
 72
     1
  1
105
  7
CONVERTER_12
 11
0.9999999999970619
 21
2.424068405545306E-6
 31
0.0
 73
     1
 44
0.60024009603842
  0
ENDBLK
  5
2A4
330
29C
100
AcDbEntity
  8
0
100
AcDbBlockEnd
  0
BLOCK
  5
2AE
330
2A7
100
AcDbEntity
  8
0
100
AcDbBlockBegin
  2
*D21
 70
     1
 10
0.0
 20
0.0
 30
0.0
  3
*D21
  1

  0
LINE
  5
2A8
330
2A7
100
AcDbEntity
  8
1
  6
Continuous
 62
     2
100
AcDbLine
 10
238.6115543062451
 20
257.2636972139014
 30
0.0
 11
238.6115543062451
 21
384.9611956494452
 31
0.0
  0
LINE
  5
2A9
330
2A7
100
AcDbEntity
  8
1
  6
Continuous
 62
     2
100
AcDbLine
 10
427.9586963979787
 20
257.2636972139014
 30
0.0
 11
235.6115543062451
 21
257.2636972139014
 31
0.0
  0
LINE
  5
2AA
330
2A7
100
AcDbEntity
  8
1
  6
Continuous
 62
     2
100
AcDbLine
 10
276.9586963979767
 20
384.9611956494452
 30
0.0
 11
235.6115543062451
 21
384.9611956494452
 31
0.0
  0
SOLID
  5
2AB
330
2A7
100
AcDbEntity
  8
1
 62
     2
100
AcDbTrace
 10
237.2292030815775
 20
267.7636972139014
 30
0.0
 11
239.9939055309127
 21
267.7636972139014
 31
0.0
 12
238.6115543062451
 22
257.2636972139014
 32
0.0
 13
238.6115543062451
 23
257.2636972139014
 33
0.0
  0
SOLID
  5
2AC
330
2A7
100
AcDbEntity
  8
1
 62
     2
100
AcDbTrace
 10
239.9939055309127
 20
374.4611956494452
 30
0.0
 11
237.2292030815775
 21
374.4611956494452
 31
0.0
 12
238.6115543062451
 22
384.9611956494452
 32
0.0
 13
238.6115543062451
 23
384.9611956494452
 33
0.0
  0
MTEXT
  5
2AD
330
2A7
100
AcDbEntity
  8
1
 62
     7
100
AcDbMText
 10
235.6115543062451
 20
310.0871125123054
 30
0.0
 40
10.5
 41
0.0
 71
     7
 72
     1
  1
128
  7
CONVERTER_12
 11
0.0
 21
1.0
 31
0.0
 73
     1
 44
0.60024009603842
  0
ENDBLK
  5
2AF
330
2A7
100
AcDbEntity
  8
0
100
AcDbBlockEnd
  0
ENDSEC
  0
SECTION
  2
ENTITIES
  0
INSERT
  5
6E
330
1F
100
AcDbEntity
  8
0
100
AcDbBlockReference
  2
32-1-16
 10
672.3059331461816
 20
352.5691148858407
 30
0.0
  0
INSERT
  5
6F
330
1F
100
AcDbEntity
  8
0
100
AcDbBlockReference
  2
60-5X-M2
 10
1296.458696397979
 20
202.5124464316733
 30
0.0
  0
INSERT
  5
70
330
1F
100
AcDbEntity
  8
0
100
AcDbBlockReference
  2
R10AK-13-B
 10
628.5339221100529
 20
302.7636972139014
 30
0.0
  0
INSERT
  5
71
330
1F
100
AcDbEntity
  8
1
100
AcDbBlockReference
  2
A10-0A-13
 10
650.3956487421418
 20
260.2636972139014
 30
0.0
  0
INSERT
  5
72
330
1F
100
AcDbEntity
  8
1
100
AcDbBlockReference
  2
開示A4
 10
0.0
 20
0.0
 30
0.0
 41
3.0
 42
3.0
 43
3.0
  0
LINE
  5
22A
330
1F
100
AcDbEntity
  8
1
  6
DASH_CENTER
 62
     2
100
AcDbLine
 10
437.9586963979788
 20
224.9624464316734
 30
0.0
 11
437.9586963979787
 21
260.2624464316733
 31
0.0
  0
LINE
  5
22B
330
1F
100
AcDbEntity
  8
1
  6
DASH_CENTER
 62
     2
100
AcDbLine
 10
422.9599472323508
 20
209.9624465359748
 30
0.0
 11
406.9586963979766
 21
209.9611122639636
 31
0.0
  0
LINE
  5
22C
330
1F
100
AcDbEntity
  8
1
  6
DASH_CENTER
 62
     2
100
AcDbLine
 10
381.9586963979767
 20
234.9611956494453
 30
0.0
 11
381.9586963979787
 21
382.4611956494446
 31
0.0
  0
LINE
  5
22D
330
1F
100
AcDbEntity
  8
1
  6
DASH_CENTER
 62
     2
100
AcDbLine
 10
277.4985432438639
 20
389.9706885884615
 30
0.0
 11
276.7012836094125
 21
382.4744032338082
 31
0.0
  0
LINE
  5
22E
330
1F
100
AcDbEntity
  8
1
  6
DASH_CENTER
 62
     2
100
AcDbLine
 10
120.9423414326842
 20
660.7636972139012
 30
0.0
 11
166.942341432684
 21
660.7636972139012
 31
0.0
  0
LINE
  5
22F
330
1F
100
AcDbEntity
  8
1
  6
DASH_CENTER
 62
     2
100
AcDbLine
 10
123.6924303237675
 20
210.002446826749
 30
0.0
 11
164.1918080883763
 21
209.8224460365981
 31
0.0
  0
LINE
  5
230
330
1F
100
AcDbEntity
  8
1
  6
DASH_CENTER
 62
     2
100
AcDbLine
 10
127.9423414325947
 20
384.9615252875992
 30
0.0
 11
159.9423414327732
 21
384.9601981725584
 31
0.0
  0
LINE
  5
231
330
1F
100
AcDbEntity
  8
1
  6
DASH_CENTER
 62
     2
100
AcDbLine
 10
127.9423414326838
 20
434.9611956494451
 30
0.0
 11
159.9423414326839
 21
434.9611956494451
 31
0.0
  0
LINE
  5
232
330
1F
100
AcDbEntity
  8
1
  6
DASH_CENTER
 62
     2
100
AcDbLine
 10
143.9423414326839
 20
451.9611956494452
 30
0.0
 11
143.9423414326839
 21
189.7124464316735
 31
0.0
  0
LINE
  5
233
330
1F
100
AcDbEntity
  8
1
  6
DASH_CENTER
 62
     2
100
AcDbLine
 10
126.6492417582732
 20
499.7670604011943
 30
0.0
 11
161.2354411070948
 21
499.7670604011943
 31
0.0
  0
LINE
  5
234
330
1F
100
AcDbEntity
  8
1
  6
DASH_CENTER
 62
     2
100
AcDbLine
 10
127.9423414326843
 20
604.7670604011944
 30
0.0
 11
159.9423414326839
 21
604.7670604011944
 31
0.0
  0
LINE
  5
235
330
1F
100
AcDbEntity
  8
1
  6
DASH_CENTER
 62
     2
100
AcDbLine
 10
472.9586963979787
 20
235.2636972139014
 30
0.0
 11
472.9586963979787
 21
324.7636972139016
 31
0.0
  0
LINE
  5
236
330
1F
100
AcDbEntity
  8
1
  6
Continuous
 62
     2
100
AcDbLine
 10
517.9586963979787
 20
234.7636972139014
 30
0.0
 11
517.9586963979787
 21
234.2636972139014
 31
0.0
  0
LINE
  5
237
330
1F
100
AcDbEntity
  8
1
  6
DASH_CENTER
 62
     2
100
AcDbLine
 10
427.9586963979787
 20
257.2636972139014
 30
0.0
 11
534.9965029297317
 21
257.2636972139014
 31
0.0
  0
LINE
  5
238
330
1F
100
AcDbEntity
  8
1
  6
DASH_CENTER
 62
     2
100
AcDbLine
 10
114.4686300652522
 20
712.7803524059054
 30
0.0
 11
159.6136458354745
 21
686.7158653983977
 31
0.0
  0
LINE
  5
239
330
1F
100
AcDbEntity
  8
1
  6
DASH_CENTER
 62
     2
100
AcDbLine
 10
130.1962449214427
 20
687.8273846928297
 30
0.0
 11
173.4078427459457
 21
712.7756123289205
 31
0.0
  0
LINE
  5
23A
330
1F
100
AcDbEntity
  8
1
  6
DASH_CENTER
 62
     2
100
AcDbLine
 10
122.7657871786428
 20
695.7636972139013
 30
0.0
 11
165.3562959143318
 21
695.7636972139013
 31
0.0
  0
LINE
  5
23B
330
1F
100
AcDbEntity
  8
1
  6
DASH_CENTER
 62
     2
100
AcDbLine
 10
143.942341432684
 20
486.7110212168019
 30
0.0
 11
143.942341432684
 21
763.7636972139014
 31
0.0
  0
LINE
  5
23C
330
1F
100
AcDbEntity
  8
0
  6
DASH_CENTER
 62
     2
100
AcDbLine
 10
117.942341432684
 20
257.2636972139014
 30
0.0
 11
169.942341432684
 21
257.2636972139014
 31
0.0
  0
ARC
  5
23D
330
1F
100
AcDbEntity
  8
1
  6
DASH_CENTER
 62
     2
100
AcDbCircle
 10
422.9586964501316
 20
224.9624464316734
 30
0.0
 40
14.99999994784715
100
AcDbArc
 50
270.0047776361724
 51
0.0
  0
ARC
  5
23E
330
1F
100
AcDbEntity
  8
1
  6
DASH_CENTER
 62
     2
100
AcDbCircle
 10
406.9586963979768
 20
234.9611956494453
 30
0.0
 40
25.00000000000006
100
AcDbArc
 50
180.0
 51
269.9999999999996
  0
ARC
  5
23F
330
1F
100
AcDbEntity
  8
1
  6
DASH_CENTER
 62
     2
100
AcDbCircle
 10
329.4586963979767
 20
382.4611956494453
 30
0.0
 40
52.5
100
AcDbArc
 50
0.0
 51
171.776321697026
  0
SOLID
  5
240
330
1F
100
AcDbEntity
  8
1
 62
     2
100
AcDbTrace
 10
158.4951901551694
 20
757.0481395659718
 30
0.0
 11
160.8894927101988
 21
755.6657883413042
 31
0.0
 12
154.442341432684
 22
747.2636972139014
 32
0.0
 13
154.442341432684
 23
747.2636972139014
 33
0.0
  0
LEADER
  5
241
330
1F
100
AcDbEntity
  8
1
  6
Continuous
 62
     2
100
AcDbLeader
  3
Standard
 71
     0
 76
     3
 10
154.442341432684
 20
747.2636972139014
 30
0.0
 10
176.4649185619966
 20
785.407919715475
 30
0.0
 10
222.298103872598
 20
785.407919715475
 30
0.0
  0
MTEXT
  5
243
330
1F
100
AcDbEntity
  8
1
 62
     7
100
AcDbMText
 10
281.25
 20
51.0
 30
0.0
 40
10.5
 41
0.0
 71
     5
 72
     1
  1
3
  7
CONVERTER_12
 73
     1
 44
0.7202881152461
  0
MTEXT
  5
244
330
1F
100
AcDbEntity
  8
1
 62
     7
100
AcDbMText
 10
255.75
 20
51.0
 30
0.0
 40
10.5
 41
0.0
 71
     5
 72
     1
  1
1
  7
CONVERTER_12
 73
     1
 44
0.7202881152461
  0
MTEXT
  5
245
330
1F
100
AcDbEntity
  8
0
 62
     7
100
AcDbMText
 10
102.0
 20
102.0
 30
0.0
 40
10.5
 41
0.0
 71
     4
 72
     1
  1
JIS
  7
CONVERTER_12
 73
     1
 44
1.32052821128451
  0
MTEXT
  5
246
330
1F
100
AcDbEntity
  8
0
 62
     7
100
AcDbMText
 10
171.0
 20
42.75
 30
0.0
 40
10.5
 41
0.0
 71
     5
 72
     1
  1
A16JK-13
  7
CONVERTER_12
 73
     1
 44
1.32052821128451
  0
MTEXT
  5
247
330
1F
100
AcDbEntity
  8
0
 62
     7
100
AcDbMText
 10
171.0
 20
68.25000000000003
 30
0.0
 40
10.5
 41
0.0
 71
     5
 72
     1
  1
ツル首自在水栓
  7
CONVERTER_11
 73
     1
 44
1.0
  0
MTEXT
  5
248
330
1F
100
AcDbEntity
  8
1
 62
     7
100
AcDbMText
 10
199.3815112172973
 20
794.407919715475
 30
0.0
 40
10.5
 41
0.0
 71
     5
 72
     1
  1
PJ1/2
  7
CONVERTER_12
 73
     1
 44
1.32052821128451
  0
DIMENSION
  5
254
330
1F
100
AcDbEntity
  8
1
100
AcDbDimension
  2
*D12
 10
585.9586963979788
 20
257.2636972139014
 30
0.0
 11
577.7086963979788
 21
233.6126132026372
 31
0.0
 70
    32
  1
47
 71
     5
 42
-1.0
 53
90.0
  3
ME10_DIM_10
100
AcDbAlignedDimension
 13
422.9599472323508
 23
209.9624465359748
 33
0.0
 14
534.9965029297317
 24
257.2636972139014
 34
0.0
 50
90.0
100
AcDbRotatedDimension
  0
DIMENSION
  5
25F
330
1F
100
AcDbEntity
  8
1
100
AcDbDimension
  2
*D13
 10
437.9586963979789
 20
168.7124464316734
 30
0.0
 11
477.9586963979787
 21
176.9624464316734
 31
0.0
 70
    32
  1
<>
 71
     5
 42
-1.0
 53
0.00013888888889
  3
ME10_DIM_11
100
AcDbAlignedDimension
 13
517.9586963979787
 23
234.2636972139014
 33
0.0
 14
437.9586963979788
 24
224.9624464316734
 34
0.0
100
AcDbRotatedDimension
  0
DIMENSION
  5
26A
330
1F
100
AcDbEntity
  8
1
100
AcDbDimension
  2
*D14
 10
381.9586963979767
 20
168.7124464316734
 30
0.0
 11
409.9586963979787
 21
176.9624464316734
 31
0.0
 70
    32
  1
<>
 71
     5
 42
-1.0
 53
0.00013888888889
  3
ME10_DIM_12
100
AcDbAlignedDimension
 13
437.9586963979788
 23
224.9624464316734
 33
0.0
 14
381.9586963979767
 24
234.9611956494453
 34
0.0
100
AcDbRotatedDimension
  0
DIMENSION
  5
278
330
1F
100
AcDbEntity
  8
1
100
AcDbDimension
  2
*D15
 10
517.9586963979787
 20
168.7124464316734
 30
0.0
 11
552.9954234701299
 21
176.9624464316734
 31
0.0
 70
    32
  1
<>
 71
     5
 42
-1.0
 53
0.00013888888889
  3
ME10_DIM_13
100
AcDbAlignedDimension
 13
531.9586963979787
 23
247.7636972139014
 33
0.0
 14
517.9586963979787
 24
234.2636972139014
 34
0.0
100
AcDbRotatedDimension
  0
DIMENSION
  5
285
330
1F
100
AcDbEntity
  8
1
100
AcDbDimension
  2
*D17
 10
585.9586963979784
 20
257.2636972139014
 30
0.0
 11
577.7086963979784
 21
286.5136972139015
 31
0.0
 70
    32
  1
58リフト5
 71
     5
 42
-1.0
 53
90.0
  3
ME10_DIM_14
100
AcDbAlignedDimension
 13
472.9586963979787
 23
315.7636972139014
 33
0.0
 14
534.9965029297317
 24
257.2636972139014
 34
0.0
 50
90.0
100
AcDbRotatedDimension
  0
DIMENSION
  5
290
330
1F
100
AcDbEntity
  8
1
100
AcDbDimension
  2
*D18
 10
561.9586963979785
 20
234.2636972139014
 30
0.0
 11
553.7086963979785
 21
257.2636972139014
 31
0.0
 70
    32
  1
<>
 71
     5
 42
-1.0
 53
90.0
  3
ME10_DIM_15
100
AcDbAlignedDimension
 13
517.9586963979787
 23
280.2636972139014
 33
0.0
 14
517.9586963979787
 24
234.2636972139014
 34
0.0
 50
90.0
100
AcDbRotatedDimension
  0
DIMENSION
  5
29B
330
1F
100
AcDbEntity
  8
1
100
AcDbDimension
  2
*D19
 10
214.6115543062451
 20
198.7124464316734
 30
0.0
 11
206.3615543062451
 21
320.8368210405594
 31
0.0
 70
    32
  1
244
 71
     5
 42
-1.0
 53
90.0
  3
ME10_DIM_16
100
AcDbAlignedDimension
 13
329.4586963979767
 23
442.9611956494454
 33
0.0
 14
409.9586963979787
 24
198.7124464316734
 34
0.0
 50
90.0
100
AcDbRotatedDimension
  0
DIMENSION
  5
2A6
330
1F
100
AcDbEntity
  8
1
100
AcDbDimension
  2
*D20
 10
276.9586963979767
 20
168.7124464316734
 30
0.0
 11
329.4621946008789
 21
176.9624464316734
 31
0.0
 70
    32
  1
<>
 71
     5
 42
-1.0
 53
0.00013888888889
  3
ME10_DIM_17
100
AcDbAlignedDimension
 13
381.9586963979767
 23
234.9611956494453
 33
0.0
 14
276.9586963979767
 24
384.9611956494452
 34
0.0
100
AcDbRotatedDimension
  0
DIMENSION
  5
2B1
330
1F
100
AcDbEntity
  8
1
100
AcDbDimension
  2
*D21
 10
238.6115543062451
 20
257.2636972139014
 30
0.0
 11
230.3615543062451
 21
321.1121125123054
 31
0.0
 70
    32
  1
128
 71
     5
 42
-1.0
 53
90.0
  3
ME10_DIM_18
100
AcDbAlignedDimension
 13
276.9586963979767
 23
384.9611956494452
 33
0.0
 14
427.9586963979787
 24
257.2636972139014
 34
0.0
 50
90.0
100
AcDbRotatedDimension
  0
ENDSEC
  0
SECTION
  2
OBJECTS
  0
DICTIONARY
  5
C
330
0
100
AcDbDictionary
281
     1
  3
ACAD_GROUP
350
D
  3
ACAD_LAYOUT
350
1A
  3
ACAD_MATERIAL
350
3B
  3
ACAD_MLEADERSTYLE
350
2B4
  3
ACAD_MLINESTYLE
350
17
  3
ACAD_PLOTSETTINGS
350
19
  3
ACAD_PLOTSTYLENAME
350
E
  3
ACAD_VISUALSTYLE
350
2A
  3
AcDbVariableDictionary
350
2B2
  0
DICTIONARY
  5
D
102
{ACAD_REACTORS
330
C
102
}
330
C
100
AcDbDictionary
281
     1
  0
DICTIONARY
  5
1A
102
{ACAD_REACTORS
330
C
102
}
330
C
100
AcDbDictionary
281
     1
  3
Layout1
350
1E
  3
Layout2
350
26
  3
Model
350
22
  0
DICTIONARY
  5
3B
102
{ACAD_REACTORS
330
C
102
}
330
C
100
AcDbDictionary
281
     1
  3
ByBlock
350
3D
  3
ByLayer
350
3C
  3
Global
350
3E
  0
DICTIONARY
  5
2B4
102
{ACAD_REACTORS
330
C
102
}
330
C
100
AcDbDictionary
281
     1
  0
DICTIONARY
  5
17
102
{ACAD_REACTORS
330
C
102
}
330
C
100
AcDbDictionary
281
     1
  3
Standard
350
18
  0
DICTIONARY
  5
19
102
{ACAD_REACTORS
330
C
102
}
330
C
100
AcDbDictionary
281
     1
  0
ACDBDICTIONARYWDFLT
  5
E
102
{ACAD_REACTORS
330
C
102
}
330
C
100
AcDbDictionary
281
     1
  3
Normal
350
F
100
AcDbDictionaryWithDefault
340
F
  0
DICTIONARY
  5
2A
102
{ACAD_REACTORS
330
C
102
}
330
C
100
AcDbDictionary
281
     1
  3
2dWireframe
350
2F
  3
3D Hidden
350
31
  3
3dWireframe
350
30
  3
Basic
350
32
  3
Brighten
350
36
  3
ColorChange
350
3A
  3
Conceptual
350
34
  3
Dim
350
35
  3
Facepattern
350
39
  3
Flat
350
2B
  3
FlatWithEdges
350
2C
  3
Gouraud
350
2D
  3
GouraudWithEdges
350
2E
  3
Linepattern
350
38
  3
Realistic
350
33
  3
Thicken
350
37
  0
DICTIONARY
  5
2B2
102
{ACAD_REACTORS
330
C
102
}
330
C
100
AcDbDictionary
281
     1
  3
DIMASSOC
350
2B5
  3
HIDETEXT
350
2B6
  0
LAYOUT
  5
1E
102
{ACAD_REACTORS
330
1A
102
}
330
1A
100
AcDbPlotSettings
  1

  2
none_device
  4

  6

 40
0.0
 41
0.0
 42
0.0
 43
0.0
 44
0.0
 45
0.0
 46
0.0
 47
0.0
 48
0.0
 49
0.0
140
0.0
141
0.0
142
1.0
143
1.0
 70
   688
 72
     0
 73
     0
 74
     5
  7

 75
    16
147
1.0
148
0.0
149
0.0
100
AcDbLayout
  1
Layout1
 70
     1
 71
     1
 10
0.0
 20
0.0
 11
12.0
 21
9.0
 12
0.0
 22
0.0
 32
0.0
 14
1.00000000000000E+20
 24
1.00000000000000E+20
 34
1.00000000000000E+20
 15
-1.00000000000000E+20
 25
-1.00000000000000E+20
 35
-1.00000000000000E+20
146
0.0
 13
0.0
 23
0.0
 33
0.0
 16
1.0
 26
0.0
 36
0.0
 17
0.0
 27
1.0
 37
0.0
 76
     0
330
1B
  0
LAYOUT
  5
26
102
{ACAD_REACTORS
330
1A
102
}
330
1A
100
AcDbPlotSettings
  1

  2
none_device
  4

  6

 40
0.0
 41
0.0
 42
0.0
 43
0.0
 44
0.0
 45
0.0
 46
0.0
 47
0.0
 48
0.0
 49
0.0
140
0.0
141
0.0
142
1.0
143
1.0
 70
   688
 72
     0
 73
     0
 74
     5
  7

 75
    16
147
1.0
148
0.0
149
0.0
100
AcDbLayout
  1
Layout2
 70
     1
 71
     2
 10
0.0
 20
0.0
 11
0.0
 21
0.0
 12
0.0
 22
0.0
 32
0.0
 14
0.0
 24
0.0
 34
0.0
 15
0.0
 25
0.0
 35
0.0
146
0.0
 13
0.0
 23
0.0
 33
0.0
 16
1.0
 26
0.0
 36
0.0
 17
0.0
 27
1.0
 37
0.0
 76
     0
330
23
  0
LAYOUT
  5
22
102
{ACAD_REACTORS
330
1A
102
}
330
1A
100
AcDbPlotSettings
  1

  2
none_device
  4

  6

 40
0.0
 41
0.0
 42
0.0
 43
0.0
 44
0.0
 45
0.0
 46
0.0
 47
0.0
 48
0.0
 49
0.0
140
0.0
141
0.0
142
1.0
143
1.0
 70
  1712
 72
     0
 73
     0
 74
     0
  7

 75
     0
147
1.0
148
0.0
149
0.0
100
AcDbLayout
  1
Model
 70
     1
 71
     0
 10
0.0
 20
0.0
 11
12.0
 21
9.0
 12
0.0
 22
0.0
 32
0.0
 14
0.0
 24
0.0
 34
0.0
 15
630.0
 25
891.0
 35
0.0
146
0.0
 13
0.0
 23
0.0
 33
0.0
 16
1.0
 26
0.0
 36
0.0
 17
0.0
 27
1.0
 37
0.0
 76
     0
330
1F
331
29
  0
MATERIAL
  5
3D
102
{ACAD_REACTORS
330
3B
102
}
102
{ACAD_XDICTIONARY
360
2D9
102
}
330
3B
100
AcDbMaterial
  1
ByBlock
  0
MATERIAL
  5
3C
102
{ACAD_REACTORS
330
3B
102
}
102
{ACAD_XDICTIONARY
360
2D7
102
}
330
3B
100
AcDbMaterial
  1
ByLayer
  0
MATERIAL
  5
3E
102
{ACAD_REACTORS
330
3B
102
}
102
{ACAD_XDICTIONARY
360
2DB
102
}
330
3B
100
AcDbMaterial
  1
Global
  0
MLINESTYLE
  5
18
102
{ACAD_REACTORS
330
17
102
}
330
17
100
AcDbMlineStyle
  2
Standard
 70
     0
  3

 62
   256
 51
90.0
 52
90.0
 71
     2
 49
0.5
 62
   256
  6
BYLAYER
 49
-0.5
 62
   256
  6
BYLAYER
  0
ACDBPLACEHOLDER
  5
F
102
{ACAD_REACTORS
330
E
102
}
330
E
  0
VISUALSTYLE
  5
2F
102
{ACAD_REACTORS
330
2A
102
}
102
{ACAD_XDICTIONARY
360
2BF
102
}
330
2A
100
AcDbVisualStyle
  2
2dWireframe
 70
     4
 71
     0
 72
     2
 73
     0
 90
        0
 40
-0.6
 41
-30.0
 62
     5
 63
     7
 74
     1
 91
        4
 64
     7
 65
   257
 75
     1
175
     1
 42
1.0
 92
        0
 66
   257
 43
1.0
 76
     1
 77
     6
 78
     2
 67
     7
 79
     5
170
     0
171
     0
290
     0
174
     0
 93
        1
 44
0.0
173
     0
291
     0
 45
0.0
1001
ACAD
1000
AcDbSavedByObjectVersion
1070
     0
  0
VISUALSTYLE
  5
31
102
{ACAD_REACTORS
330
2A
102
}
102
{ACAD_XDICTIONARY
360
2C3
102
}
330
2A
100
AcDbVisualStyle
  2
3D Hidden
 70
     6
 71
     1
 72
     2
 73
     2
 90
        0
 40
-0.6
 41
-30.0
 62
     5
 63
     7
 74
     2
 91
        2
 64
     7
 65
   257
 75
     2
175
     1
 42
40.0
 92
        0
 66
   257
 43
1.0
 76
     1
 77
     6
 78
     2
 67
     7
 79
     3
170
     0
171
     0
290
     0
174
     0
 93
        1
 44
0.0
173
     0
291
     0
 45
0.0
1001
ACAD
1000
AcDbSavedByObjectVersion
1070
     0
  0
VISUALSTYLE
  5
30
102
{ACAD_REACTORS
330
2A
102
}
102
{ACAD_XDICTIONARY
360
2C1
102
}
330
2A
100
AcDbVisualStyle
  2
3dWireframe
 70
     5
 71
     0
 72
     2
 73
     0
 90
        0
 40
-0.6
 41
-30.0
 62
     5
 63
     7
 74
     1
 91
        4
 64
     7
 65
   257
 75
     1
175
     1
 42
1.0
 92
        0
 66
   257
 43
1.0
 76
     1
 77
     6
 78
     2
 67
     7
 79
     5
170
     0
171
     0
290
     0
174
     0
 93
        1
 44
0.0
173
     0
291
     0
 45
0.0
1001
ACAD
1000
AcDbSavedByObjectVersion
1070
     0
  0
VISUALSTYLE
  5
32
102
{ACAD_REACTORS
330
2A
102
}
102
{ACAD_XDICTIONARY
360
2C5
102
}
330
2A
100
AcDbVisualStyle
  2
Basic
 70
     7
 71
     1
 72
     0
 73
     1
 90
        0
 40
-0.6
 41
-30.0
 62
     5
 63
     7
 74
     0
 91
        4
 64
     7
 65
   257
 75
     1
175
     1
 42
1.0
 92
        8
 66
     7
 43
1.0
 76
     1
 77
     6
 78
     2
 67
     7
 79
     5
170
     0
171
     0
290
     0
174
     0
 93
        1
 44
0.0
173
     0
291
     1
 45
0.0
1001
ACAD
1000
AcDbSavedByObjectVersion
1070
     0
  0
VISUALSTYLE
  5
36
102
{ACAD_REACTORS
330
2A
102
}
102
{ACAD_XDICTIONARY
360
2CD
102
}
330
2A
100
AcDbVisualStyle
  2
Brighten
 70
    12
 71
     2
 72
     2
 73
     0
 90
        0
 40
-0.6
 41
-30.0
 62
     5
 63
     7
 74
     1
 91
        4
 64
     7
 65
   257
 75
     1
175
     1
 42
1.0
 92
        8
 66
     7
 43
1.0
 76
     1
 77
     6
 78
     2
 67
     7
 79
     5
170
     0
171
     0
290
     0
174
     0
 93
        1
 44
50.0
173
     0
291
     1
 45
0.0
1001
ACAD
1000
AcDbSavedByObjectVersion
1070
     0
  0
VISUALSTYLE
  5
3A
102
{ACAD_REACTORS
330
2A
102
}
102
{ACAD_XDICTIONARY
360
2D5
102
}
330
2A
100
AcDbVisualStyle
  2
ColorChange
 70
    16
 71
     2
 72
     2
 73
     3
 90
        0
 40
-0.6
 41
-30.0
 62
     5
 63
     8
 74
     1
 91
        4
 64
     7
 65
   257
 75
     1
175
     1
 42
1.0
 92
        8
 66
     8
 43
1.0
 76
     1
 77
     6
 78
     2
 67
     7
 79
     5
170
     0
171
     0
290
     0
174
     0
 93
        1
 44
0.0
173
     0
291
     1
 45
0.0
1001
ACAD
1000
AcDbSavedByObjectVersion
1070
     0
  0
VISUALSTYLE
  5
34
102
{ACAD_REACTORS
330
2A
102
}
102
{ACAD_XDICTIONARY
360
2C9
102
}
330
2A
100
AcDbVisualStyle
  2
Conceptual
 70
     9
 71
     3
 72
     2
 73
     0
 90
        0
 40
-0.6
 41
-30.0
 62
     5
 63
     7
 74
     2
 91
        2
 64
     7
 65
   257
 75
     1
175
     1
 42
40.0
 92
        8
 66
     7
 43
1.0
 76
     1
 77
     6
 78
     2
 67
     7
 79
     3
170
     0
171
     0
290
     0
174
     0
 93
        1
 44
0.0
173
     0
291
     0
 45
0.0
1001
ACAD
1000
AcDbSavedByObjectVersion
1070
     0
  0
VISUALSTYLE
  5
35
102
{ACAD_REACTORS
330
2A
102
}
102
{ACAD_XDICTIONARY
360
2CB
102
}
330
2A
100
AcDbVisualStyle
  2
Dim
 70
    11
 71
     2
 72
     2
 73
     0
 90
        0
 40
-0.6
 41
-30.0
 62
     5
 63
     7
 74
     1
 91
        4
 64
     7
 65
   257
 75
     1
175
     1
 42
1.0
 92
        8
 66
     7
 43
1.0
 76
     1
 77
     6
 78
     2
 67
     7
 79
     5
170
     0
171
     0
290
     0
174
     0
 93
        1
 44
-50.0
173
     0
291
     1
 45
0.0
1001
ACAD
1000
AcDbSavedByObjectVersion
1070
     0
  0
VISUALSTYLE
  5
39
102
{ACAD_REACTORS
330
2A
102
}
102
{ACAD_XDICTIONARY
360
2D3
102
}
330
2A
100
AcDbVisualStyle
  2
Facepattern
 70
    15
 71
     2
 72
     2
 73
     0
 90
        0
 40
-0.6
 41
-30.0
 62
     5
 63
     7
 74
     1
 91
        4
 64
     7
 65
   257
 75
     1
175
     1
 42
1.0
 92
        8
 66
     7
 43
1.0
 76
     1
 77
     6
 78
     2
 67
     7
 79
     5
170
     0
171
     0
290
     0
174
     0
 93
        1
 44
0.0
173
     0
291
     1
 45
0.0
1001
ACAD
1000
AcDbSavedByObjectVersion
1070
     0
  0
VISUALSTYLE
  5
2B
102
{ACAD_REACTORS
330
2A
102
}
102
{ACAD_XDICTIONARY
360
2B7
102
}
330
2A
100
AcDbVisualStyle
  2
Flat
 70
     0
 71
     2
 72
     1
 73
     1
 90
        2
 40
-0.6
 41
30.0
 62
     5
 63
     7
 74
     0
 91
        4
 64
     7
 65
   257
 75
     1
175
     1
 42
1.0
 92
        8
 66
     7
 43
1.0
 76
     1
 77
     6
 78
     2
 67
     7
 79
     5
170
     0
171
     0
290
     0
174
     0
 93
       13
 44
0.0
173
     0
291
     1
 45
0.0
1001
ACAD
1000
AcDbSavedByObjectVersion
1070
     0
  0
VISUALSTYLE
  5
2C
102
{ACAD_REACTORS
330
2A
102
}
102
{ACAD_XDICTIONARY
360
2B9
102
}
330
2A
100
AcDbVisualStyle
  2
FlatWithEdges
 70
     1
 71
     2
 72
     1
 73
     1
 90
        2
 40
-0.6
 41
30.0
 62
     5
 63
     7
 74
     1
 91
        4
 64
     7
 65
   257
 75
     1
175
     1
 42
1.0
 92
        0
 66
   257
 43
1.0
 76
     1
 77
     6
 78
     2
 67
     7
 79
     5
170
     0
171
     0
290
     0
174
     0
 93
       13
 44
0.0
173
     0
291
     1
 45
0.0
1001
ACAD
1000
AcDbSavedByObjectVersion
1070
     0
  0
VISUALSTYLE
  5
2D
102
{ACAD_REACTORS
330
2A
102
}
102
{ACAD_XDICTIONARY
360
2BB
102
}
330
2A
100
AcDbVisualStyle
  2
Gouraud
 70
     2
 71
     2
 72
     2
 73
     1
 90
        2
 40
-0.6
 41
30.0
 62
     5
 63
     7
 74
     0
 91
        4
 64
     7
 65
   257
 75
     1
175
     1
 42
1.0
 92
        0
 66
     7
 43
1.0
 76
     1
 77
     6
 78
     2
 67
     7
 79
     5
170
     0
171
     0
290
     0
174
     0
 93
       13
 44
0.0
173
     0
291
     1
 45
0.0
1001
ACAD
1000
AcDbSavedByObjectVersion
1070
     0
  0
VISUALSTYLE
  5
2E
102
{ACAD_REACTORS
330
2A
102
}
102
{ACAD_XDICTIONARY
360
2BD
102
}
330
2A
100
AcDbVisualStyle
  2
GouraudWithEdges
 70
     3
 71
     2
 72
     2
 73
     1
 90
        2
 40
-0.6
 41
30.0
 62
     5
 63
     7
 74
     1
 91
        4
 64
     7
 65
   257
 75
     1
175
     1
 42
1.0
 92
        0
 66
   257
 43
1.0
 76
     1
 77
     6
 78
     2
 67
     7
 79
     5
170
     0
171
     0
290
     0
174
     0
 93
       13
 44
0.0
173
     0
291
     1
 45
0.0
1001
ACAD
1000
AcDbSavedByObjectVersion
1070
     0
  0
VISUALSTYLE
  5
38
102
{ACAD_REACTORS
330
2A
102
}
102
{ACAD_XDICTIONARY
360
2D1
102
}
330
2A
100
AcDbVisualStyle
  2
Linepattern
 70
    14
 71
     2
 72
     2
 73
     0
 90
        0
 40
-0.6
 41
-30.0
 62
     5
 63
     7
 74
     1
 91
        4
 64
     7
 65
   257
 75
     7
175
     7
 42
1.0
 92
        8
 66
     7
 43
1.0
 76
     1
 77
     6
 78
     2
 67
     7
 79
     5
170
     0
171
     0
290
     0
174
     0
 93
        1
 44
0.0
173
     0
291
     1
 45
0.0
1001
ACAD
1000
AcDbSavedByObjectVersion
1070
     0
  0
VISUALSTYLE
  5
33
102
{ACAD_REACTORS
330
2A
102
}
102
{ACAD_XDICTIONARY
360
2C7
102
}
330
2A
100
AcDbVisualStyle
  2
Realistic
 70
     8
 71
     2
 72
     2
 73
     0
 90
        0
 40
-0.6
 41
-30.0
 62
     5
 63
     7
 74
     1
 91
        0
 64
     7
 65
   257
 75
     1
175
     1
 42
1.0
 92
        8
 66
     8
 43
1.0
 76
     1
 77
     6
 78
     2
 67
     7
 79
     5
170
     0
171
     0
290
     0
174
     0
 93
       13
 44
0.0
173
     0
291
     0
 45
0.0
1001
ACAD
1000
AcDbSavedByObjectVersion
1070
     0
  0
VISUALSTYLE
  5
37
102
{ACAD_REACTORS
330
2A
102
}
102
{ACAD_XDICTIONARY
360
2CF
102
}
330
2A
100
AcDbVisualStyle
  2
Thicken
 70
    13
 71
     2
 72
     2
 73
     0
 90
        0
 40
-0.6
 41
-30.0
 62
     5
 63
     7
 74
     1
 91
        4
 64
     7
 65
   257
 75
     1
175
     1
 42
1.0
 92
       12
 66
     7
 43
1.0
 76
     1
 77
     6
 78
     2
 67
     7
 79
     5
170
     0
171
     0
290
     0
174
     0
 93
        1
 44
0.0
173
     0
291
     1
 45
0.0
1001
ACAD
1000
AcDbSavedByObjectVersion
1070
     0
  0
DICTIONARYVAR
  5
2B5
102
{ACAD_REACTORS
330
2B2
102
}
330
2B2
100
DictionaryVariables
280
     0
  1
2
  0
DICTIONARYVAR
  5
2B6
102
{ACAD_REACTORS
330
2B2
102
}
330
2B2
100
DictionaryVariables
280
     0
  1
1
  0
DICTIONARY
  5
2D9
330
3D
100
AcDbDictionary
280
     1
281
     1
  3
ACAD_XREC_ROUNDTRIP
360
2DA
  0
DICTIONARY
  5
2D7
330
3C
100
AcDbDictionary
280
     1
281
     1
  3
ACAD_XREC_ROUNDTRIP
360
2D8
  0
DICTIONARY
  5
2DB
330
3E
100
AcDbDictionary
280
     1
281
     1
  3
ACAD_XREC_ROUNDTRIP
360
2DC
  0
DICTIONARY
  5
2BF
330
2F
100
AcDbDictionary
280
     1
281
     1
  3
ACAD_XREC_ROUNDTRIP
360
2C0
  0
DICTIONARY
  5
2C3
330
31
100
AcDbDictionary
280
     1
281
     1
  3
ACAD_XREC_ROUNDTRIP
360
2C4
  0
DICTIONARY
  5
2C1
330
30
100
AcDbDictionary
280
     1
281
     1
  3
ACAD_XREC_ROUNDTRIP
360
2C2
  0
DICTIONARY
  5
2C5
330
32
100
AcDbDictionary
280
     1
281
     1
  3
ACAD_XREC_ROUNDTRIP
360
2C6
  0
DICTIONARY
  5
2CD
330
36
100
AcDbDictionary
280
     1
281
     1
  3
ACAD_XREC_ROUNDTRIP
360
2CE
  0
DICTIONARY
  5
2D5
330
3A
100
AcDbDictionary
280
     1
281
     1
  3
ACAD_XREC_ROUNDTRIP
360
2D6
  0
DICTIONARY
  5
2C9
330
34
100
AcDbDictionary
280
     1
281
     1
  3
ACAD_XREC_ROUNDTRIP
360
2CA
  0
DICTIONARY
  5
2CB
330
35
100
AcDbDictionary
280
     1
281
     1
  3
ACAD_XREC_ROUNDTRIP
360
2CC
  0
DICTIONARY
  5
2D3
330
39
100
AcDbDictionary
280
     1
281
     1
  3
ACAD_XREC_ROUNDTRIP
360
2D4
  0
DICTIONARY
  5
2B7
330
2B
100
AcDbDictionary
280
     1
281
     1
  3
ACAD_XREC_ROUNDTRIP
360
2B8
  0
DICTIONARY
  5
2B9
330
2C
100
AcDbDictionary
280
     1
281
     1
  3
ACAD_XREC_ROUNDTRIP
360
2BA
  0
DICTIONARY
  5
2BB
330
2D
100
AcDbDictionary
280
     1
281
     1
  3
ACAD_XREC_ROUNDTRIP
360
2BC
  0
DICTIONARY
  5
2BD
330
2E
100
AcDbDictionary
280
     1
281
     1
  3
ACAD_XREC_ROUNDTRIP
360
2BE
  0
DICTIONARY
  5
2D1
330
38
100
AcDbDictionary
280
     1
281
     1
  3
ACAD_XREC_ROUNDTRIP
360
2D2
  0
DICTIONARY
  5
2C7
330
33
100
AcDbDictionary
280
     1
281
     1
  3
ACAD_XREC_ROUNDTRIP
360
2C8
  0
DICTIONARY
  5
2CF
330
37
100
AcDbDictionary
280
     1
281
     1
  3
ACAD_XREC_ROUNDTRIP
360
2D0
  0
XRECORD
  5
2DA
102
{ACAD_REACTORS
330
2D9
102
}
330
2D9
100
AcDbXrecord
280
     1
102
MATERIAL
148
0.0
149
0.0
149
0.0
 93
        0
 94
      127
282
     0
 72
     1
 77
     1
171
     1
175
     1
179
     1
273
     0
  0
XRECORD
  5
2D8
102
{ACAD_REACTORS
330
2D7
102
}
330
2D7
100
AcDbXrecord
280
     1
102
MATERIAL
148
0.0
149
0.0
149
0.0
 93
        0
 94
      127
282
     0
 72
     1
 77
     1
171
     1
175
     1
179
     1
273
     0
  0
XRECORD
  5
2DC
102
{ACAD_REACTORS
330
2DB
102
}
330
2DB
100
AcDbXrecord
280
     1
102
MATERIAL
148
0.0
149
0.0
149
0.0
 93
        0
 94
      127
282
     0
 72
     1
 77
     1
171
     1
175
     1
179
     1
273
     0
  0
XRECORD
  5
2C0
102
{ACAD_REACTORS
330
2BF
102
}
330
2BF
100
AcDbXrecord
280
     1
102
RTVSPropertyOp0
 70
     1
102
RTVSPropertyOp1
 70
     1
102
RTVSPropertyOp2
 70
     1
102
RTVSPropertyOp3
 70
     1
102
RTVSPropertyOp4
 70
     1
102
RTVSPropertyOp5
 70
     1
102
RTVSPropertyOp6
 70
     1
102
RTVSPropertyOp7
 70
     1
102
RTVSPropertyOp8
 70
     1
102
RTVSPropertyOp9
 70
     1
102
RTVSPropertyOp10
 70
     1
102
RTVSPropertyOp11
 70
     1
102
RTVSPropertyOp12
 70
     1
102
RTVSPropertyOp13
 70
     1
102
RTVSPropertyOp14
 70
     1
102
RTVSPropertyOp15
 70
     1
102
RTVSPropertyOp16
 70
     1
102
RTVSPropertyOp17
 70
     1
102
RTVSPropertyOp18
 70
     1
102
RTVSPropertyOp19
 70
     1
102
RTVSPropertyOp20
 70
     1
102
RTVSPropertyOp21
 70
     1
102
RTVSPropertyOp22
 70
     1
102
RTVSPropertyOp23
 70
     1
102
RTVSPropertyOp24
 70
     1
102
RTVSPropertyOp25
 70
     1
102
RTVSPropertyOp26
 70
     1
102
RTVSPropertyOp27
 70
     1
102
RTVSPropertyOp28
 70
     1
102
RTVSPropertyOp29
 70
     1
102
RTVSPropertyOp30
 70
     1
102
RTVSPropertyOp31
 70
     1
102
RTVSPropertyOp32
 70
     1
  0
XRECORD
  5
2C4
102
{ACAD_REACTORS
330
2C3
102
}
330
2C3
100
AcDbXrecord
280
     1
102
RTVSPropertyOp0
 70
     1
102
RTVSPropertyOp1
 70
     1
102
RTVSPropertyOp2
 70
     1
102
RTVSPropertyOp3
 70
     1
102
RTVSPropertyOp4
 70
     1
102
RTVSPropertyOp5
 70
     1
102
RTVSPropertyOp6
 70
     1
102
RTVSPropertyOp7
 70
     1
102
RTVSPropertyOp8
 70
     1
102
RTVSPropertyOp9
 70
     1
102
RTVSPropertyOp10
 70
     1
102
RTVSPropertyOp11
 70
     1
102
RTVSPropertyOp12
 70
     1
102
RTVSPropertyOp13
 70
     1
102
RTVSPropertyOp14
 70
     1
102
RTVSPropertyOp15
 70
     1
102
RTVSPropertyOp16
 70
     1
102
RTVSPropertyOp17
 70
     1
102
RTVSPropertyOp18
 70
     1
102
RTVSPropertyOp19
 70
     1
102
RTVSPropertyOp20
 70
     1
102
RTVSPropertyOp21
 70
     1
102
RTVSPropertyOp22
 70
     1
102
RTVSPropertyOp23
 70
     1
102
RTVSPropertyOp24
 70
     1
102
RTVSPropertyOp25
 70
     1
102
RTVSPropertyOp26
 70
     1
102
RTVSPropertyOp27
 70
     1
102
RTVSPropertyOp28
 70
     1
102
RTVSPropertyOp29
 70
     1
102
RTVSPropertyOp30
 70
     1
102
RTVSPropertyOp31
 70
     1
102
RTVSPropertyOp32
 70
     1
  0
XRECORD
  5
2C2
102
{ACAD_REACTORS
330
2C1
102
}
330
2C1
100
AcDbXrecord
280
     1
102
RTVSPropertyOp0
 70
     1
102
RTVSPropertyOp1
 70
     1
102
RTVSPropertyOp2
 70
     1
102
RTVSPropertyOp3
 70
     1
102
RTVSPropertyOp4
 70
     1
102
RTVSPropertyOp5
 70
     1
102
RTVSPropertyOp6
 70
     1
102
RTVSPropertyOp7
 70
     1
102
RTVSPropertyOp8
 70
     1
102
RTVSPropertyOp9
 70
     1
102
RTVSPropertyOp10
 70
     1
102
RTVSPropertyOp11
 70
     1
102
RTVSPropertyOp12
 70
     1
102
RTVSPropertyOp13
 70
     1
102
RTVSPropertyOp14
 70
     1
102
RTVSPropertyOp15
 70
     1
102
RTVSPropertyOp16
 70
     1
102
RTVSPropertyOp17
 70
     1
102
RTVSPropertyOp18
 70
     1
102
RTVSPropertyOp19
 70
     1
102
RTVSPropertyOp20
 70
     1
102
RTVSPropertyOp21
 70
     1
102
RTVSPropertyOp22
 70
     1
102
RTVSPropertyOp23
 70
     1
102
RTVSPropertyOp24
 70
     1
102
RTVSPropertyOp25
 70
     1
102
RTVSPropertyOp26
 70
     1
102
RTVSPropertyOp27
 70
     1
102
RTVSPropertyOp28
 70
     1
102
RTVSPropertyOp29
 70
     1
102
RTVSPropertyOp30
 70
     1
102
RTVSPropertyOp31
 70
     1
102
RTVSPropertyOp32
 70
     1
  0
XRECORD
  5
2C6
102
{ACAD_REACTORS
330
2C5
102
}
330
2C5
100
AcDbXrecord
280
     1
102
RTVSPropertyOp0
 70
     1
102
RTVSPropertyOp1
 70
     1
102
RTVSPropertyOp2
 70
     1
102
RTVSPropertyOp3
 70
     1
102
RTVSPropertyOp4
 70
     1
102
RTVSPropertyOp5
 70
     1
102
RTVSPropertyOp6
 70
     1
102
RTVSPropertyOp7
 70
     1
102
RTVSPropertyOp8
 70
     1
102
RTVSPropertyOp9
 70
     1
102
RTVSPropertyOp10
 70
     1
102
RTVSPropertyOp11
 70
     1
102
RTVSPropertyOp12
 70
     1
102
RTVSPropertyOp13
 70
     1
102
RTVSPropertyOp14
 70
     1
102
RTVSPropertyOp15
 70
     1
102
RTVSPropertyOp16
 70
     1
102
RTVSPropertyOp17
 70
     1
102
RTVSPropertyOp18
 70
     1
102
RTVSPropertyOp19
 70
     1
102
RTVSPropertyOp20
 70
     1
102
RTVSPropertyOp21
 70
     1
102
RTVSPropertyOp22
 70
     1
102
RTVSPropertyOp23
 70
     1
102
RTVSPropertyOp24
 70
     1
102
RTVSPropertyOp25
 70
     1
102
RTVSPropertyOp26
 70
     1
102
RTVSPropertyOp27
 70
     1
102
RTVSPropertyOp28
 70
     1
102
RTVSPropertyOp29
 70
     1
102
RTVSPropertyOp30
 70
     1
102
RTVSPropertyOp31
 70
     1
102
RTVSPropertyOp32
 70
     1
  0
XRECORD
  5
2CE
102
{ACAD_REACTORS
330
2CD
102
}
330
2CD
100
AcDbXrecord
280
     1
102
RTVSPropertyOp0
 70
     1
102
RTVSPropertyOp1
 70
     1
102
RTVSPropertyOp2
 70
     1
102
RTVSPropertyOp3
 70
     1
102
RTVSPropertyOp4
 70
     1
102
RTVSPropertyOp5
 70
     1
102
RTVSPropertyOp6
 70
     1
102
RTVSPropertyOp7
 70
     1
102
RTVSPropertyOp8
 70
     1
102
RTVSPropertyOp9
 70
     1
102
RTVSPropertyOp10
 70
     1
102
RTVSPropertyOp11
 70
     1
102
RTVSPropertyOp12
 70
     1
102
RTVSPropertyOp13
 70
     1
102
RTVSPropertyOp14
 70
     1
102
RTVSPropertyOp15
 70
     1
102
RTVSPropertyOp16
 70
     1
102
RTVSPropertyOp17
 70
     1
102
RTVSPropertyOp18
 70
     1
102
RTVSPropertyOp19
 70
     1
102
RTVSPropertyOp20
 70
     1
102
RTVSPropertyOp21
 70
     1
102
RTVSPropertyOp22
 70
     1
102
RTVSPropertyOp23
 70
     1
102
RTVSPropertyOp24
 70
     1
102
RTVSPropertyOp25
 70
     1
102
RTVSPropertyOp26
 70
     1
102
RTVSPropertyOp27
 70
     1
102
RTVSPropertyOp28
 70
     1
102
RTVSPropertyOp29
 70
     1
102
RTVSPropertyOp30
 70
     1
102
RTVSPropertyOp31
 70
     1
102
RTVSPropertyOp32
 70
     1
  0
XRECORD
  5
2D6
102
{ACAD_REACTORS
330
2D5
102
}
330
2D5
100
AcDbXrecord
280
     1
102
RTVSPropertyOp0
 70
     1
102
RTVSPropertyOp1
 70
     1
102
RTVSPropertyOp2
 70
     1
102
RTVSPropertyOp3
 70
     1
102
RTVSPropertyOp4
 70
     1
102
RTVSPropertyOp5
 70
     1
102
RTVSPropertyOp6
 70
     1
102
RTVSPropertyOp7
 70
     1
102
RTVSPropertyOp8
 70
     1
102
RTVSPropertyOp9
 70
     1
102
RTVSPropertyOp10
 70
     1
102
RTVSPropertyOp11
 70
     1
102
RTVSPropertyOp12
 70
     1
102
RTVSPropertyOp13
 70
     1
102
RTVSPropertyOp14
 70
     1
102
RTVSPropertyOp15
 70
     1
102
RTVSPropertyOp16
 70
     1
102
RTVSPropertyOp17
 70
     1
102
RTVSPropertyOp18
 70
     1
102
RTVSPropertyOp19
 70
     1
102
RTVSPropertyOp20
 70
     1
102
RTVSPropertyOp21
 70
     1
102
RTVSPropertyOp22
 70
     1
102
RTVSPropertyOp23
 70
     1
102
RTVSPropertyOp24
 70
     1
102
RTVSPropertyOp25
 70
     1
102
RTVSPropertyOp26
 70
     1
102
RTVSPropertyOp27
 70
     1
102
RTVSPropertyOp28
 70
     1
102
RTVSPropertyOp29
 70
     1
102
RTVSPropertyOp30
 70
     1
102
RTVSPropertyOp31
 70
     1
102
RTVSPropertyOp32
 70
     1
  0
XRECORD
  5
2CA
102
{ACAD_REACTORS
330
2C9
102
}
330
2C9
100
AcDbXrecord
280
     1
102
RTVSPropertyOp0
 70
     1
102
RTVSPropertyOp1
 70
     1
102
RTVSPropertyOp2
 70
     1
102
RTVSPropertyOp3
 70
     1
102
RTVSPropertyOp4
 70
     1
102
RTVSPropertyOp5
 70
     1
102
RTVSPropertyOp6
 70
     1
102
RTVSPropertyOp7
 70
     1
102
RTVSPropertyOp8
 70
     1
102
RTVSPropertyOp9
 70
     1
102
RTVSPropertyOp10
 70
     1
102
RTVSPropertyOp11
 70
     1
102
RTVSPropertyOp12
 70
     1
102
RTVSPropertyOp13
 70
     1
102
RTVSPropertyOp14
 70
     1
102
RTVSPropertyOp15
 70
     1
102
RTVSPropertyOp16
 70
     1
102
RTVSPropertyOp17
 70
     1
102
RTVSPropertyOp18
 70
     1
102
RTVSPropertyOp19
 70
     1
102
RTVSPropertyOp20
 70
     1
102
RTVSPropertyOp21
 70
     1
102
RTVSPropertyOp22
 70
     1
102
RTVSPropertyOp23
 70
     1
102
RTVSPropertyOp24
 70
     1
102
RTVSPropertyOp25
 70
     1
102
RTVSPropertyOp26
 70
     1
102
RTVSPropertyOp27
 70
     1
102
RTVSPropertyOp28
 70
     1
102
RTVSPropertyOp29
 70
     1
102
RTVSPropertyOp30
 70
     1
102
RTVSPropertyOp31
 70
     1
102
RTVSPropertyOp32
 70
     1
  0
XRECORD
  5
2CC
102
{ACAD_REACTORS
330
2CB
102
}
330
2CB
100
AcDbXrecord
280
     1
102
RTVSPropertyOp0
 70
     1
102
RTVSPropertyOp1
 70
     1
102
RTVSPropertyOp2
 70
     1
102
RTVSPropertyOp3
 70
     1
102
RTVSPropertyOp4
 70
     1
102
RTVSPropertyOp5
 70
     1
102
RTVSPropertyOp6
 70
     1
102
RTVSPropertyOp7
 70
     1
102
RTVSPropertyOp8
 70
     1
102
RTVSPropertyOp9
 70
     1
102
RTVSPropertyOp10
 70
     1
102
RTVSPropertyOp11
 70
     1
102
RTVSPropertyOp12
 70
     1
102
RTVSPropertyOp13
 70
     1
102
RTVSPropertyOp14
 70
     1
102
RTVSPropertyOp15
 70
     1
102
RTVSPropertyOp16
 70
     1
102
RTVSPropertyOp17
 70
     1
102
RTVSPropertyOp18
 70
     1
102
RTVSPropertyOp19
 70
     1
102
RTVSPropertyOp20
 70
     1
102
RTVSPropertyOp21
 70
     1
102
RTVSPropertyOp22
 70
     1
102
RTVSPropertyOp23
 70
     1
102
RTVSPropertyOp24
 70
     1
102
RTVSPropertyOp25
 70
     1
102
RTVSPropertyOp26
 70
     1
102
RTVSPropertyOp27
 70
     1
102
RTVSPropertyOp28
 70
     1
102
RTVSPropertyOp29
 70
     1
102
RTVSPropertyOp30
 70
     1
102
RTVSPropertyOp31
 70
     1
102
RTVSPropertyOp32
 70
     1
  0
XRECORD
  5
2D4
102
{ACAD_REACTORS
330
2D3
102
}
330
2D3
100
AcDbXrecord
280
     1
102
RTVSPropertyOp0
 70
     1
102
RTVSPropertyOp1
 70
     1
102
RTVSPropertyOp2
 70
     1
102
RTVSPropertyOp3
 70
     1
102
RTVSPropertyOp4
 70
     1
102
RTVSPropertyOp5
 70
     1
102
RTVSPropertyOp6
 70
     1
102
RTVSPropertyOp7
 70
     1
102
RTVSPropertyOp8
 70
     1
102
RTVSPropertyOp9
 70
     1
102
RTVSPropertyOp10
 70
     1
102
RTVSPropertyOp11
 70
     1
102
RTVSPropertyOp12
 70
     1
102
RTVSPropertyOp13
 70
     1
102
RTVSPropertyOp14
 70
     1
102
RTVSPropertyOp15
 70
     1
102
RTVSPropertyOp16
 70
     1
102
RTVSPropertyOp17
 70
     1
102
RTVSPropertyOp18
 70
     1
102
RTVSPropertyOp19
 70
     1
102
RTVSPropertyOp20
 70
     1
102
RTVSPropertyOp21
 70
     1
102
RTVSPropertyOp22
 70
     1
102
RTVSPropertyOp23
 70
     1
102
RTVSPropertyOp24
 70
     1
102
RTVSPropertyOp25
 70
     1
102
RTVSPropertyOp26
 70
     1
102
RTVSPropertyOp27
 70
     1
102
RTVSPropertyOp28
 70
     1
102
RTVSPropertyOp29
 70
     1
102
RTVSPropertyOp30
 70
     1
102
RTVSPropertyOp31
 70
     1
102
RTVSPropertyOp32
 70
     1
  0
XRECORD
  5
2B8
102
{ACAD_REACTORS
330
2B7
102
}
330
2B7
100
AcDbXrecord
280
     1
102
RTVSPropertyOp0
 70
     1
102
RTVSPropertyOp1
 70
     1
102
RTVSPropertyOp2
 70
     1
102
RTVSPropertyOp3
 70
     1
102
RTVSPropertyOp4
 70
     1
102
RTVSPropertyOp5
 70
     1
102
RTVSPropertyOp6
 70
     1
102
RTVSPropertyOp7
 70
     1
102
RTVSPropertyOp8
 70
     1
102
RTVSPropertyOp9
 70
     1
102
RTVSPropertyOp10
 70
     1
102
RTVSPropertyOp11
 70
     1
102
RTVSPropertyOp12
 70
     1
102
RTVSPropertyOp13
 70
     1
102
RTVSPropertyOp14
 70
     1
102
RTVSPropertyOp15
 70
     1
102
RTVSPropertyOp16
 70
     1
102
RTVSPropertyOp17
 70
     1
102
RTVSPropertyOp18
 70
     1
102
RTVSPropertyOp19
 70
     1
102
RTVSPropertyOp20
 70
     1
102
RTVSPropertyOp21
 70
     1
102
RTVSPropertyOp22
 70
     1
102
RTVSPropertyOp23
 70
     1
102
RTVSPropertyOp24
 70
     1
102
RTVSPropertyOp25
 70
     1
102
RTVSPropertyOp26
 70
     1
102
RTVSPropertyOp27
 70
     1
102
RTVSPropertyOp28
 70
     1
102
RTVSPropertyOp29
 70
     1
102
RTVSPropertyOp30
 70
     1
102
RTVSPropertyOp31
 70
     1
102
RTVSPropertyOp32
 70
     1
  0
XRECORD
  5
2BA
102
{ACAD_REACTORS
330
2B9
102
}
330
2B9
100
AcDbXrecord
280
     1
102
RTVSPropertyOp0
 70
     1
102
RTVSPropertyOp1
 70
     1
102
RTVSPropertyOp2
 70
     1
102
RTVSPropertyOp3
 70
     1
102
RTVSPropertyOp4
 70
     1
102
RTVSPropertyOp5
 70
     1
102
RTVSPropertyOp6
 70
     1
102
RTVSPropertyOp7
 70
     1
102
RTVSPropertyOp8
 70
     1
102
RTVSPropertyOp9
 70
     1
102
RTVSPropertyOp10
 70
     1
102
RTVSPropertyOp11
 70
     1
102
RTVSPropertyOp12
 70
     1
102
RTVSPropertyOp13
 70
     1
102
RTVSPropertyOp14
 70
     1
102
RTVSPropertyOp15
 70
     1
102
RTVSPropertyOp16
 70
     1
102
RTVSPropertyOp17
 70
     1
102
RTVSPropertyOp18
 70
     1
102
RTVSPropertyOp19
 70
     1
102
RTVSPropertyOp20
 70
     1
102
RTVSPropertyOp21
 70
     1
102
RTVSPropertyOp22
 70
     1
102
RTVSPropertyOp23
 70
     1
102
RTVSPropertyOp24
 70
     1
102
RTVSPropertyOp25
 70
     1
102
RTVSPropertyOp26
 70
     1
102
RTVSPropertyOp27
 70
     1
102
RTVSPropertyOp28
 70
     1
102
RTVSPropertyOp29
 70
     1
102
RTVSPropertyOp30
 70
     1
102
RTVSPropertyOp31
 70
     1
102
RTVSPropertyOp32
 70
     1
  0
XRECORD
  5
2BC
102
{ACAD_REACTORS
330
2BB
102
}
330
2BB
100
AcDbXrecord
280
     1
102
RTVSPropertyOp0
 70
     1
102
RTVSPropertyOp1
 70
     1
102
RTVSPropertyOp2
 70
     1
102
RTVSPropertyOp3
 70
     1
102
RTVSPropertyOp4
 70
     1
102
RTVSPropertyOp5
 70
     1
102
RTVSPropertyOp6
 70
     1
102
RTVSPropertyOp7
 70
     1
102
RTVSPropertyOp8
 70
     1
102
RTVSPropertyOp9
 70
     1
102
RTVSPropertyOp10
 70
     1
102
RTVSPropertyOp11
 70
     1
102
RTVSPropertyOp12
 70
     1
102
RTVSPropertyOp13
 70
     1
102
RTVSPropertyOp14
 70
     1
102
RTVSPropertyOp15
 70
     1
102
RTVSPropertyOp16
 70
     1
102
RTVSPropertyOp17
 70
     1
102
RTVSPropertyOp18
 70
     1
102
RTVSPropertyOp19
 70
     1
102
RTVSPropertyOp20
 70
     1
102
RTVSPropertyOp21
 70
     1
102
RTVSPropertyOp22
 70
     1
102
RTVSPropertyOp23
 70
     1
102
RTVSPropertyOp24
 70
     1
102
RTVSPropertyOp25
 70
     1
102
RTVSPropertyOp26
 70
     1
102
RTVSPropertyOp27
 70
     1
102
RTVSPropertyOp28
 70
     1
102
RTVSPropertyOp29
 70
     1
102
RTVSPropertyOp30
 70
     1
102
RTVSPropertyOp31
 70
     1
102
RTVSPropertyOp32
 70
     1
  0
XRECORD
  5
2BE
102
{ACAD_REACTORS
330
2BD
102
}
330
2BD
100
AcDbXrecord
280
     1
102
RTVSPropertyOp0
 70
     1
102
RTVSPropertyOp1
 70
     1
102
RTVSPropertyOp2
 70
     1
102
RTVSPropertyOp3
 70
     1
102
RTVSPropertyOp4
 70
     1
102
RTVSPropertyOp5
 70
     1
102
RTVSPropertyOp6
 70
     1
102
RTVSPropertyOp7
 70
     1
102
RTVSPropertyOp8
 70
     1
102
RTVSPropertyOp9
 70
     1
102
RTVSPropertyOp10
 70
     1
102
RTVSPropertyOp11
 70
     1
102
RTVSPropertyOp12
 70
     1
102
RTVSPropertyOp13
 70
     1
102
RTVSPropertyOp14
 70
     1
102
RTVSPropertyOp15
 70
     1
102
RTVSPropertyOp16
 70
     1
102
RTVSPropertyOp17
 70
     1
102
RTVSPropertyOp18
 70
     1
102
RTVSPropertyOp19
 70
     1
102
RTVSPropertyOp20
 70
     1
102
RTVSPropertyOp21
 70
     1
102
RTVSPropertyOp22
 70
     1
102
RTVSPropertyOp23
 70
     1
102
RTVSPropertyOp24
 70
     1
102
RTVSPropertyOp25
 70
     1
102
RTVSPropertyOp26
 70
     1
102
RTVSPropertyOp27
 70
     1
102
RTVSPropertyOp28
 70
     1
102
RTVSPropertyOp29
 70
     1
102
RTVSPropertyOp30
 70
     1
102
RTVSPropertyOp31
 70
     1
102
RTVSPropertyOp32
 70
     1
  0
XRECORD
  5
2D2
102
{ACAD_REACTORS
330
2D1
102
}
330
2D1
100
AcDbXrecord
280
     1
102
RTVSPropertyOp0
 70
     1
102
RTVSPropertyOp1
 70
     1
102
RTVSPropertyOp2
 70
     1
102
RTVSPropertyOp3
 70
     1
102
RTVSPropertyOp4
 70
     1
102
RTVSPropertyOp5
 70
     1
102
RTVSPropertyOp6
 70
     1
102
RTVSPropertyOp7
 70
     1
102
RTVSPropertyOp8
 70
     1
102
RTVSPropertyOp9
 70
     1
102
RTVSPropertyOp10
 70
     1
102
RTVSPropertyOp11
 70
     1
102
RTVSPropertyOp12
 70
     1
102
RTVSPropertyOp13
 70
     1
102
RTVSPropertyOp14
 70
     1
102
RTVSPropertyOp15
 70
     1
102
RTVSPropertyOp16
 70
     1
102
RTVSPropertyOp17
 70
     1
102
RTVSPropertyOp18
 70
     1
102
RTVSPropertyOp19
 70
     1
102
RTVSPropertyOp20
 70
     1
102
RTVSPropertyOp21
 70
     1
102
RTVSPropertyOp22
 70
     1
102
RTVSPropertyOp23
 70
     1
102
RTVSPropertyOp24
 70
     1
102
RTVSPropertyOp25
 70
     1
102
RTVSPropertyOp26
 70
     1
102
RTVSPropertyOp27
 70
     1
102
RTVSPropertyOp28
 70
     1
102
RTVSPropertyOp29
 70
     1
102
RTVSPropertyOp30
 70
     1
102
RTVSPropertyOp31
 70
     1
102
RTVSPropertyOp32
 70
     1
  0
XRECORD
  5
2C8
102
{ACAD_REACTORS
330
2C7
102
}
330
2C7
100
AcDbXrecord
280
     1
102
RTVSPropertyOp0
 70
     1
102
RTVSPropertyOp1
 70
     1
102
RTVSPropertyOp2
 70
     1
102
RTVSPropertyOp3
 70
     1
102
RTVSPropertyOp4
 70
     1
102
RTVSPropertyOp5
 70
     1
102
RTVSPropertyOp6
 70
     1
102
RTVSPropertyOp7
 70
     1
102
RTVSPropertyOp8
 70
     1
102
RTVSPropertyOp9
 70
     1
102
RTVSPropertyOp10
 70
     1
102
RTVSPropertyOp11
 70
     1
102
RTVSPropertyOp12
 70
     1
102
RTVSPropertyOp13
 70
     1
102
RTVSPropertyOp14
 70
     1
102
RTVSPropertyOp15
 70
     1
102
RTVSPropertyOp16
 70
     1
102
RTVSPropertyOp17
 70
     1
102
RTVSPropertyOp18
 70
     1
102
RTVSPropertyOp19
 70
     1
102
RTVSPropertyOp20
 70
     1
102
RTVSPropertyOp21
 70
     1
102
RTVSPropertyOp22
 70
     1
102
RTVSPropertyOp23
 70
     1
102
RTVSPropertyOp24
 70
     1
102
RTVSPropertyOp25
 70
     1
102
RTVSPropertyOp26
 70
     1
102
RTVSPropertyOp27
 70
     1
102
RTVSPropertyOp28
 70
     1
102
RTVSPropertyOp29
 70
     1
102
RTVSPropertyOp30
 70
     1
102
RTVSPropertyOp31
 70
     1
102
RTVSPropertyOp32
 70
     1
  0
XRECORD
  5
2D0
102
{ACAD_REACTORS
330
2CF
102
}
330
2CF
100
AcDbXrecord
280
     1
102
RTVSPropertyOp0
 70
     1
102
RTVSPropertyOp1
 70
     1
102
RTVSPropertyOp2
 70
     1
102
RTVSPropertyOp3
 70
     1
102
RTVSPropertyOp4
 70
     1
102
RTVSPropertyOp5
 70
     1
102
RTVSPropertyOp6
 70
     1
102
RTVSPropertyOp7
 70
     1
102
RTVSPropertyOp8
 70
     1
102
RTVSPropertyOp9
 70
     1
102
RTVSPropertyOp10
 70
     1
102
RTVSPropertyOp11
 70
     1
102
RTVSPropertyOp12
 70
     1
102
RTVSPropertyOp13
 70
     1
102
RTVSPropertyOp14
 70
     1
102
RTVSPropertyOp15
 70
     1
102
RTVSPropertyOp16
 70
     1
102
RTVSPropertyOp17
 70
     1
102
RTVSPropertyOp18
 70
     1
102
RTVSPropertyOp19
 70
     1
102
RTVSPropertyOp20
 70
     1
102
RTVSPropertyOp21
 70
     1
102
RTVSPropertyOp22
 70
     1
102
RTVSPropertyOp23
 70
     1
102
RTVSPropertyOp24
 70
     1
102
RTVSPropertyOp25
 70
     1
102
RTVSPropertyOp26
 70
     1
102
RTVSPropertyOp27
 70
     1
102
RTVSPropertyOp28
 70
     1
102
RTVSPropertyOp29
 70
     1
102
RTVSPropertyOp30
 70
     1
102
RTVSPropertyOp31
 70
     1
102
RTVSPropertyOp32
 70
     1
  0
ENDSEC
  0
EOF
