  0
SECTION
  2
HEADER
  9
$ACADVER
  1
AC1015
  9
$ACADMAINTVER
 70
     6
  9
$DWGCODEPAGE
  3
DOS932
  9
$INSBASE
 10
0.0
 20
0.0
 30
0.0
  9
$EXTMIN
 10
0.0
 20
0.0
 30
0.0
  9
$EXTMAX
 10
525.0
 20
742.5
 30
0.0
  9
$LIMMIN
 10
0.0
 20
0.0
  9
$LIMMAX
 10
12.0
 20
9.0
  9
$ORTHOMODE
 70
     0
  9
$REGENMODE
 70
     1
  9
$FILLMODE
 70
     1
  9
$QTEXTMODE
 70
     0
  9
$MIRRTEXT
 70
     1
  9
$LTSCALE
 40
1.0
  9
$ATTMODE
 70
     1
  9
$TEXTSIZE
 40
0.2
  9
$TRACEWID
 40
0.05
  9
$TEXTSTYLE
  7
Standard
  9
$CLAYER
  8
0
  9
$CELTYPE
  6
ByLayer
  9
$CECOLOR
 62
   256
  9
$CELTSCALE
 40
1.0
  9
$DISPSILH
 70
     0
  9
$DIMSCALE
 40
1.0
  9
$DIMASZ
 40
0.18
  9
$DIMEXO
 40
0.0625
  9
$DIMDLI
 40
0.38
  9
$DIMRND
 40
0.0
  9
$DIMDLE
 40
0.0
  9
$DIMEXE
 40
0.18
  9
$DIMTP
 40
0.0
  9
$DIMTM
 40
0.0
  9
$DIMTXT
 40
0.18
  9
$DIMCEN
 40
0.09
  9
$DIMTSZ
 40
0.0
  9
$DIMTOL
 70
     0
  9
$DIMLIM
 70
     0
  9
$DIMTIH
 70
     1
  9
$DIMTOH
 70
     1
  9
$DIMSE1
 70
     0
  9
$DIMSE2
 70
     0
  9
$DIMTAD
 70
     0
  9
$DIMZIN
 70
     0
  9
$DIMBLK
  1

  9
$DIMASO
 70
     1
  9
$DIMSHO
 70
     1
  9
$DIMPOST
  1

  9
$DIMAPOST
  1

  9
$DIMALT
 70
     0
  9
$DIMALTD
 70
     2
  9
$DIMALTF
 40
25.4
  9
$DIMLFAC
 40
1.0
  9
$DIMTOFL
 70
     0
  9
$DIMTVP
 40
0.0
  9
$DIMTIX
 70
     0
  9
$DIMSOXD
 70
     0
  9
$DIMSAH
 70
     0
  9
$DIMBLK1
  1

  9
$DIMBLK2
  1

  9
$DIMSTYLE
  2
Standard
  9
$DIMCLRD
 70
     0
  9
$DIMCLRE
 70
     0
  9
$DIMCLRT
 70
     0
  9
$DIMTFAC
 40
1.0
  9
$DIMGAP
 40
0.09
  9
$DIMJUST
 70
     0
  9
$DIMSD1
 70
     0
  9
$DIMSD2
 70
     0
  9
$DIMTOLJ
 70
     1
  9
$DIMTZIN
 70
     0
  9
$DIMALTZ
 70
     0
  9
$DIMALTTZ
 70
     0
  9
$DIMUPT
 70
     0
  9
$DIMDEC
 70
     4
  9
$DIMTDEC
 70
     4
  9
$DIMALTU
 70
     2
  9
$DIMALTTD
 70
     2
  9
$DIMTXSTY
  7
Standard
  9
$DIMAUNIT
 70
     0
  9
$DIMADEC
 70
     0
  9
$DIMALTRND
 40
0.0
  9
$DIMAZIN
 70
     0
  9
$DIMDSEP
 70
    46
  9
$DIMATFIT
 70
     3
  9
$DIMFRAC
 70
     0
  9
$DIMLDRBLK
  1

  9
$DIMLUNIT
 70
     2
  9
$DIMLWD
 70
    -2
  9
$DIMLWE
 70
    -2
  9
$DIMTMOVE
 70
     0
  9
$LUNITS
 70
     2
  9
$LUPREC
 70
     4
  9
$SKETCHINC
 40
0.1
  9
$FILLETRAD
 40
0.5
  9
$AUNITS
 70
     0
  9
$AUPREC
 70
     0
  9
$MENU
  1
.
  9
$ELEVATION
 40
0.0
  9
$PELEVATION
 40
0.0
  9
$THICKNESS
 40
0.0
  9
$LIMCHECK
 70
     0
  9
$CHAMFERA
 40
0.5
  9
$CHAMFERB
 40
0.5
  9
$CHAMFERC
 40
1.0
  9
$CHAMFERD
 40
0.0
  9
$SKPOLY
 70
     0
  9
$TDCREATE
 40
2456184.55554434
  9
$TDUCREATE
 40
2456184.18054434
  9
$TDUPDATE
 40
2456184.555544352
  9
$TDUUPDATE
 40
2456184.180544352
  9
$TDINDWG
 40
0.0000000116
  9
$TDUSRTIMER
 40
0.0000000116
  9
$USRTIMER
 70
     1
  9
$ANGBASE
 50
0.0
  9
$ANGDIR
 70
     0
  9
$PDMODE
 70
     0
  9
$PDSIZE
 40
0.0
  9
$PLINEWID
 40
0.0
  9
$SPLFRAME
 70
     0
  9
$SPLINETYPE
 70
     6
  9
$SPLINESEGS
 70
     8
  9
$HANDSEED
  5
28C
  9
$SURFTAB1
 70
     6
  9
$SURFTAB2
 70
     6
  9
$SURFTYPE
 70
     6
  9
$SURFU
 70
     6
  9
$SURFV
 70
     6
  9
$UCSBASE
  2

  9
$UCSNAME
  2

  9
$UCSORG
 10
0.0
 20
0.0
 30
0.0
  9
$UCSXDIR
 10
1.0
 20
0.0
 30
0.0
  9
$UCSYDIR
 10
0.0
 20
1.0
 30
0.0
  9
$UCSORTHOREF
  2

  9
$UCSORTHOVIEW
 70
     0
  9
$UCSORGTOP
 10
0.0
 20
0.0
 30
0.0
  9
$UCSORGBOTTOM
 10
0.0
 20
0.0
 30
0.0
  9
$UCSORGLEFT
 10
0.0
 20
0.0
 30
0.0
  9
$UCSORGRIGHT
 10
0.0
 20
0.0
 30
0.0
  9
$UCSORGFRONT
 10
0.0
 20
0.0
 30
0.0
  9
$UCSORGBACK
 10
0.0
 20
0.0
 30
0.0
  9
$PUCSBASE
  2

  9
$PUCSNAME
  2

  9
$PUCSORG
 10
0.0
 20
0.0
 30
0.0
  9
$PUCSXDIR
 10
1.0
 20
0.0
 30
0.0
  9
$PUCSYDIR
 10
0.0
 20
1.0
 30
0.0
  9
$PUCSORTHOREF
  2

  9
$PUCSORTHOVIEW
 70
     0
  9
$PUCSORGTOP
 10
0.0
 20
0.0
 30
0.0
  9
$PUCSORGBOTTOM
 10
0.0
 20
0.0
 30
0.0
  9
$PUCSORGLEFT
 10
0.0
 20
0.0
 30
0.0
  9
$PUCSORGRIGHT
 10
0.0
 20
0.0
 30
0.0
  9
$PUCSORGFRONT
 10
0.0
 20
0.0
 30
0.0
  9
$PUCSORGBACK
 10
0.0
 20
0.0
 30
0.0
  9
$USERI1
 70
     0
  9
$USERI2
 70
     0
  9
$USERI3
 70
     0
  9
$USERI4
 70
     0
  9
$USERI5
 70
     0
  9
$USERR1
 40
13.2
  9
$USERR2
 40
0.0
  9
$USERR3
 40
0.0
  9
$USERR4
 40
0.0
  9
$USERR5
 40
0.0
  9
$WORLDVIEW
 70
     1
  9
$SHADEDGE
 70
     3
  9
$SHADEDIF
 70
    70
  9
$TILEMODE
 70
     1
  9
$MAXACTVP
 70
    64
  9
$PINSBASE
 10
0.0
 20
0.0
 30
0.0
  9
$PLIMCHECK
 70
     0
  9
$PEXTMIN
 10
1.00000000000000E+20
 20
1.00000000000000E+20
 30
1.00000000000000E+20
  9
$PEXTMAX
 10
-1.00000000000000E+20
 20
-1.00000000000000E+20
 30
-1.00000000000000E+20
  9
$PLIMMIN
 10
0.0
 20
0.0
  9
$PLIMMAX
 10
12.0
 20
9.0
  9
$UNITMODE
 70
     0
  9
$VISRETAIN
 70
     1
  9
$PLINEGEN
 70
     0
  9
$PSLTSCALE
 70
     1
  9
$TREEDEPTH
 70
  3020
  9
$CMLSTYLE
  2
Standard
  9
$CMLJUST
 70
     0
  9
$CMLSCALE
 40
1.0
  9
$PROXYGRAPHICS
 70
     1
  9
$MEASUREMENT
 70
     1
  9
$CELWEIGHT
370
    -1
  9
$ENDCAPS
280
     0
  9
$JOINSTYLE
280
     0
  9
$LWDISPLAY
290
     0
  9
$INSUNITS
 70
     1
  9
$HYPERLINKBASE
  1

  9
$STYLESHEET
  1

  9
$XEDIT
290
     1
  9
$CEPSNTYPE
380
     0
  9
$PSTYLEMODE
290
     0
  9
$FINGERPRINTGUID
  2
{FAEB1C30-E019-11D5-929B-00C0DF256EC4}
  9
$VERSIONGUID
  2
{FAEB1C32-E019-11D5-929B-00C0DF256EC4}
  9
$EXTNAMES
290
     1
  9
$PSVPSCALE
 40
0.0
  9
$OLESTARTUP
290
     0
  0
ENDSEC
  0
SECTION
  2
CLASSES
  0
CLASS
  1
ACDBDICTIONARYWDFLT
  2
AcDbDictionaryWithDefault
  3
ObjectDBX Classes
 90
        0
280
     0
281
     0
  0
CLASS
  1
TABLESTYLE
  2
AcDbTableStyle
  3
ObjectDBX Classes
 90
     2047
280
     0
281
     0
  0
CLASS
  1
DICTIONARYVAR
  2
AcDbDictionaryVar
  3
ObjectDBX Classes
 90
        0
280
     0
281
     0
  0
CLASS
  1

  2
exOdDbCircle
  3

 90
        0
280
     0
281
     1
  0
CLASS
  1

  2
exOdDbSpline
  3

 90
        0
280
     0
281
     1
  0
CLASS
  1
ACDBPLACEHOLDER
  2
AcDbPlaceHolder
  3
ObjectDBX Classes
 90
        0
280
     0
281
     0
  0
CLASS
  1
LAYOUT
  2
AcDbLayout
  3
ObjectDBX Classes
 90
        0
280
     0
281
     0
  0
ENDSEC
  0
SECTION
  2
TABLES
  0
TABLE
  2
VPORT
  5
8
330
0
100
AcDbSymbolTable
 70
     2
  0
VPORT
  5
29
330
8
100
AcDbSymbolTableRecord
100
AcDbViewportTableRecord
  2
*Active
 70
     0
 10
0.0
 20
0.0
 11
1.0
 21
1.0
 12
262.5
 22
371.25
 13
0.0
 23
0.0
 14
0.5
 24
0.5
 15
0.5
 25
0.5
 16
0.0
 26
0.0
 36
1.0
 17
0.0
 27
0.0
 37
0.0
 40
816.7500000000001
 41
1.60267857142857
 42
50.0
 43
0.0
 44
0.0
 50
0.0
 51
0.0
 71
     0
 72
   100
 73
     1
 74
     3
 75
     0
 76
     0
 77
     0
 78
     0
281
     0
 65
     1
110
0.0
120
0.0
130
0.0
111
1.0
121
0.0
131
0.0
112
0.0
122
1.0
132
0.0
 79
     0
146
0.0
  0
ENDTAB
  0
TABLE
  2
LTYPE
  5
5
330
0
100
AcDbSymbolTable
 70
     8
  0
LTYPE
  5
14
330
5
100
AcDbSymbolTableRecord
100
AcDbLinetypeTableRecord
  2
ByBlock
 70
     0
  3

 72
    65
 73
     0
 40
0.0
  0
LTYPE
  5
15
330
5
100
AcDbSymbolTableRecord
100
AcDbLinetypeTableRecord
  2
ByLayer
 70
     0
  3

 72
    65
 73
     0
 40
0.0
  0
LTYPE
  5
16
330
5
100
AcDbSymbolTableRecord
100
AcDbLinetypeTableRecord
  2
Continuous
 70
     0
  3
Solid line
 72
    65
 73
     0
 40
0.0
  0
LTYPE
  5
2E
330
5
100
AcDbSymbolTableRecord
100
AcDbLinetypeTableRecord
  2
DASHED
 70
     0
  3
Dashed
 72
    65
 73
     2
 40
15.0
 49
7.0
 74
     0
 49
-8.0
 74
     0
  0
LTYPE
  5
2F
330
5
100
AcDbSymbolTableRecord
100
AcDbLinetypeTableRecord
  2
DOTTED
 70
     0
  3
Dotted
 72
    65
 73
     2
 40
1.0
 49
0.0
 74
     0
 49
-1.0
 74
     0
  0
LTYPE
  5
30
330
5
100
AcDbSymbolTableRecord
100
AcDbLinetypeTableRecord
  2
DOT_CENTER
 70
     0
  3
Dot_Center
 72
    65
 73
     4
 40
14.0
 49
12.0
 74
     0
 49
-1.0
 74
     0
 49
0.0
 74
     0
 49
-1.0
 74
     0
  0
LTYPE
  5
31
330
5
100
AcDbSymbolTableRecord
100
AcDbLinetypeTableRecord
  2
LONG_DASHED
 70
     0
  3
Long_Dashed
 72
    65
 73
     2
 40
15.0
 49
10.0
 74
     0
 49
-5.0
 74
     0
  0
LTYPE
  5
32
330
5
100
AcDbSymbolTableRecord
100
AcDbLinetypeTableRecord
  2
DASH_CENTER
 70
     0
  3
Dash_Center
 72
    65
 73
     4
 40
14.0
 49
11.0
 74
     0
 49
-1.0
 74
     0
 49
1.0
 74
     0
 49
-1.0
 74
     0
  0
LTYPE
  5
33
330
5
100
AcDbSymbolTableRecord
100
AcDbLinetypeTableRecord
  2
PHANTOM
 70
     0
  3
Phantom
 72
    65
 73
     6
 40
13.0
 49
10.0
 74
     0
 49
-1.0
 74
     0
 49
0.0
 74
     0
 49
-1.0
 74
     0
 49
0.0
 74
     0
 49
-1.0
 74
     0
  0
LTYPE
  5
34
330
5
100
AcDbSymbolTableRecord
100
AcDbLinetypeTableRecord
  2
CENTER_DASH_DASH
 70
     0
  3
Center_Dash_Dash
 72
    65
 73
     6
 40
14.0
 49
9.0
 74
     0
 49
-1.0
 74
     0
 49
1.0
 74
     0
 49
-1.0
 74
     0
 49
1.0
 74
     0
 49
-1.0
 74
     0
  0
ENDTAB
  0
TABLE
  2
LAYER
  5
2
330
0
100
AcDbSymbolTable
 70
     2
  0
LAYER
  5
10
330
2
100
AcDbSymbolTableRecord
100
AcDbLayerTableRecord
  2
0
 70
     0
 62
     7
  6
Continuous
370
    -3
390
F
  0
LAYER
  5
35
330
2
100
AcDbSymbolTableRecord
100
AcDbLayerTableRecord
  2
1
 70
     0
 62
     7
  6
Continuous
370
    -3
390
F
  0
ENDTAB
  0
TABLE
  2
STYLE
  5
3
330
0
100
AcDbSymbolTable
 70
     3
  0
STYLE
  5
11
330
3
100
AcDbSymbolTableRecord
100
AcDbTextStyleTableRecord
  2
Standard
 70
     0
 40
0.0
 41
1.0
 50
0.0
 71
     0
 42
0.2
  3
txt
  4

  0
STYLE
  5
AD
330
3
100
AcDbSymbolTableRecord
100
AcDbTextStyleTableRecord
  2
CONVERTER_1
 70
     0
 40
0.0
 41
0.89
 50
0.0
 71
     0
 42
0.2
  3
msmincho.ttc
  4

1001
ACAD
1000
MS Mincho
1071
    32785
  0
STYLE
  5
233
330
3
100
AcDbSymbolTableRecord
100
AcDbTextStyleTableRecord
  2
CONVERTER_2
 70
     0
 40
0.0
 41
0.9
 50
0.0
 71
     0
 42
0.2
  3
txt.shx
  4

  0
ENDTAB
  0
TABLE
  2
VIEW
  5
6
330
0
100
AcDbSymbolTable
 70
     0
  0
ENDTAB
  0
TABLE
  2
UCS
  5
7
330
0
100
AcDbSymbolTable
 70
     0
  0
ENDTAB
  0
TABLE
  2
APPID
  5
9
330
0
100
AcDbSymbolTable
 70
     1
  0
APPID
  5
12
330
9
100
AcDbSymbolTableRecord
100
AcDbRegAppTableRecord
  2
ACAD
 70
     0
  0
ENDTAB
  0
TABLE
  2
DIMSTYLE
  5
A
330
0
100
AcDbSymbolTable
 70
     8
100
AcDbDimStyleTable
  0
DIMSTYLE
105
27
330
A
100
AcDbSymbolTableRecord
100
AcDbDimStyleTableRecord
  2
Standard
 70
     0
340
11
  0
DIMSTYLE
105
243
102
{ACAD_REACTORS
330
244
102
}
330
A
100
AcDbSymbolTableRecord
100
AcDbDimStyleTableRecord
  2
ME10_DIM_0
 70
     0
 41
8.75
 42
0.0
 44
2.5
 73
     0
 74
     0
 77
     1
 78
     8
140
8.75
147
0.625
172
     1
173
     1
176
     2
177
     2
178
     7
271
     2
340
233
  0
DIMSTYLE
105
250
102
{ACAD_REACTORS
330
251
102
}
330
A
100
AcDbSymbolTableRecord
100
AcDbDimStyleTableRecord
  2
ME10_DIM_1
 70
     0
 41
8.75
 42
0.0
 44
2.5
 73
     0
 74
     0
 77
     1
 78
     8
140
8.75
147
0.625
172
     1
173
     1
176
     2
177
     2
178
     7
271
     0
340
233
  0
DIMSTYLE
105
25B
102
{ACAD_REACTORS
330
25C
102
}
330
A
100
AcDbSymbolTableRecord
100
AcDbDimStyleTableRecord
  2
ME10_DIM_2
 70
     0
 41
8.75
 42
0.0
 44
2.5
 73
     0
 74
     0
 77
     1
 78
     8
140
8.75
147
0.625
172
     1
173
     1
176
     2
177
     2
178
     7
271
     2
340
233
  0
DIMSTYLE
105
266
102
{ACAD_REACTORS
330
267
102
}
330
A
100
AcDbSymbolTableRecord
100
AcDbDimStyleTableRecord
  2
ME10_DIM_3
 70
     0
 41
8.75
 42
0.0
 44
2.5
 73
     0
 74
     0
 77
     1
 78
     8
140
8.75
147
0.625
172
     1
173
     1
176
     2
177
     2
178
     7
271
     0
340
AD
  0
DIMSTYLE
105
271
102
{ACAD_REACTORS
330
272
102
}
330
A
100
AcDbSymbolTableRecord
100
AcDbDimStyleTableRecord
  2
ME10_DIM_4
 70
     0
  3
{\Fgdt;n}<>
 41
8.75
 42
0.0
 44
2.5
 73
     0
 74
     0
 77
     1
 78
     8
140
8.75
147
0.625
172
     1
173
     1
176
     2
177
     2
178
     7
271
     2
340
233
  0
DIMSTYLE
105
27C
102
{ACAD_REACTORS
330
27D
102
}
330
A
100
AcDbSymbolTableRecord
100
AcDbDimStyleTableRecord
  2
ME10_DIM_5
 70
     0
 41
8.75
 42
0.0
 44
2.5
 73
     0
 74
     0
 77
     1
 78
     8
140
8.75
147
0.625
172
     1
173
     1
176
     2
177
     2
178
     7
271
     2
340
233
  0
DIMSTYLE
105
28A
102
{ACAD_REACTORS
330
28B
102
}
330
A
100
AcDbSymbolTableRecord
100
AcDbDimStyleTableRecord
  2
ME10_DIM_6
 70
     0
 41
8.75
 42
0.0
 44
2.5
 73
     0
 74
     0
 77
     1
 78
     8
140
8.75
147
0.625
172
     1
173
     1
176
     2
177
     2
178
     7
271
     2
340
233
343
287
  0
ENDTAB
  0
TABLE
  2
BLOCK_RECORD
  5
1
330
0
100
AcDbSymbolTable
 70
    20
  0
BLOCK_RECORD
  5
1F
330
1
100
AcDbSymbolTableRecord
100
AcDbBlockTableRecord
  2
*Model_Space
340
22
  0
BLOCK_RECORD
  5
1B
330
1
100
AcDbSymbolTableRecord
100
AcDbBlockTableRecord
  2
*Paper_Space
340
1E
  0
BLOCK_RECORD
  5
23
330
1
100
AcDbSymbolTableRecord
100
AcDbBlockTableRecord
  2
*Paper_Space0
340
26
  0
BLOCK_RECORD
  5
36
330
1
100
AcDbSymbolTableRecord
100
AcDbBlockTableRecord
  2
_J__A4
340
0
102
{BLKREFS
331
5C
102
}
  0
BLOCK_RECORD
  5
39
330
1
100
AcDbSymbolTableRecord
100
AcDbBlockTableRecord
  2
32-1-16
340
0
102
{BLKREFS
331
43
102
}
  0
BLOCK_RECORD
  5
3C
330
1
100
AcDbSymbolTableRecord
100
AcDbBlockTableRecord
  2
61-2-170
340
0
102
{BLKREFS
331
44
102
}
  0
BLOCK_RECORD
  5
3F
330
1
100
AcDbSymbolTableRecord
100
AcDbBlockTableRecord
  2
30-1-13
340
0
102
{BLKREFS
331
45
102
}
  0
BLOCK_RECORD
  5
42
330
1
100
AcDbSymbolTableRecord
100
AcDbBlockTableRecord
  2
A20JH-60X
340
0
102
{BLKREFS
331
5D
102
}
  0
BLOCK_RECORD
  5
48
330
1
100
AcDbSymbolTableRecord
100
AcDbBlockTableRecord
  2
A20-0-13
340
0
102
{BLKREFS
331
5E
102
}
  0
BLOCK_RECORD
  5
4B
330
1
100
AcDbSymbolTableRecord
100
AcDbBlockTableRecord
  2
51-1
340
0
102
{BLKREFS
331
52
102
}
  0
BLOCK_RECORD
  5
4E
330
1
100
AcDbSymbolTableRecord
100
AcDbBlockTableRecord
  2
42-1
340
0
102
{BLKREFS
331
53
102
}
  0
BLOCK_RECORD
  5
51
330
1
100
AcDbSymbolTableRecord
100
AcDbBlockTableRecord
  2
R20F
340
0
102
{BLKREFS
331
5F
102
}
  0
BLOCK_RECORD
  5
56
330
1
100
AcDbSymbolTableRecord
100
AcDbBlockTableRecord
  2
37-1-13
340
0
102
{BLKREFS
331
60
102
}
  0
BLOCK_RECORD
  5
59
330
1
100
AcDbSymbolTableRecord
100
AcDbBlockTableRecord
  2
36-1A-13-M4
340
0
102
{BLKREFS
331
61
102
}
  0
BLOCK_RECORD
  5
23A
330
1
100
AcDbSymbolTableRecord
100
AcDbBlockTableRecord
  2
*D012
340
0
  0
BLOCK_RECORD
  5
245
330
1
100
AcDbSymbolTableRecord
100
AcDbBlockTableRecord
  2
*D113
340
0
  0
BLOCK_RECORD
  5
252
330
1
100
AcDbSymbolTableRecord
100
AcDbBlockTableRecord
  2
*D214
340
0
  0
BLOCK_RECORD
  5
25D
330
1
100
AcDbSymbolTableRecord
100
AcDbBlockTableRecord
  2
*D315
340
0
  0
BLOCK_RECORD
  5
268
330
1
100
AcDbSymbolTableRecord
100
AcDbBlockTableRecord
  2
*D416
340
0
  0
BLOCK_RECORD
  5
273
330
1
100
AcDbSymbolTableRecord
100
AcDbBlockTableRecord
  2
*D517
340
0
  0
BLOCK_RECORD
  5
27E
330
1
100
AcDbSymbolTableRecord
100
AcDbBlockTableRecord
  2
*D618
340
0
  0
BLOCK_RECORD
  5
287
330
1
100
AcDbSymbolTableRecord
100
AcDbBlockTableRecord
  2
_None
340
0
  0
ENDTAB
  0
ENDSEC
  0
SECTION
  2
BLOCKS
  0
BLOCK
  5
20
330
1F
100
AcDbEntity
  8
0
100
AcDbBlockBegin
  2
*Model_Space
 70
     0
 71
     0
 10
0.0
 20
0.0
 30
0.0
  3
*Model_Space
  1

  0
ENDBLK
  5
21
330
1F
100
AcDbEntity
  8
0
100
AcDbBlockEnd
  0
BLOCK
  5
1C
330
1B
100
AcDbEntity
 67
     1
  8
0
100
AcDbBlockBegin
  2
*Paper_Space
 70
     0
 71
     0
 10
0.0
 20
0.0
 30
0.0
  3
*Paper_Space
  1

  0
ENDBLK
  5
1D
330
1B
100
AcDbEntity
 67
     1
  8
0
100
AcDbBlockEnd
  0
BLOCK
  5
24
330
23
100
AcDbEntity
  8
0
100
AcDbBlockBegin
  2
*Paper_Space0
 70
     0
 71
     0
 10
0.0
 20
0.0
 30
0.0
  3
*Paper_Space0
  1

  0
ENDBLK
  5
25
330
23
100
AcDbEntity
  8
0
100
AcDbBlockEnd
  0
BLOCK
  5
37
330
36
100
AcDbEntity
  8
0
100
AcDbBlockBegin
  2
_J__A4
 70
     0
 71
     0
 10
0.0
 20
0.0
 30
0.0
  3
_J__A4
  1

  0
POINT
  5
62
330
36
100
AcDbEntity
  8
1
 62
     4
100
AcDbPoint
 10
34.0
 20
34.00000000000001
 30
0.0
  0
POINT
  5
63
330
36
100
AcDbEntity
  8
1
 62
     4
100
AcDbPoint
 10
57.0
 20
12.25
 30
0.0
  0
POINT
  5
64
330
36
100
AcDbEntity
  8
1
 62
     4
100
AcDbPoint
 10
57.0
 20
20.75000000000001
 30
0.0
  0
POINT
  5
65
330
36
100
AcDbEntity
  8
1
 62
     4
100
AcDbPoint
 10
57.0
 20
24.75000000000001
 30
0.0
  0
POINT
  5
66
330
36
100
AcDbEntity
  8
1
 62
     4
100
AcDbPoint
 10
57.0
 20
16.25
 30
0.0
  0
POINT
  5
67
330
36
100
AcDbEntity
  8
1
 62
     4
100
AcDbPoint
 10
157.5
 20
19.00000000000001
 30
0.0
  0
POINT
  5
68
330
36
100
AcDbEntity
  8
1
 62
     4
100
AcDbPoint
 10
47.5
 20
282.0000000000003
 30
0.0
  0
POINT
  5
69
330
36
100
AcDbEntity
  8
1
 62
     4
100
AcDbPoint
 10
57.0
 20
22.75000000000001
 30
0.0
  0
POINT
  5
6A
330
36
100
AcDbEntity
  8
1
 62
     4
100
AcDbPoint
 10
57.0
 20
14.25
 30
0.0
  0
POINT
  5
6B
330
36
100
AcDbEntity
  8
1
 62
     4
100
AcDbPoint
 10
157.5
 20
12.5
 30
0.0
  0
POINT
  5
6C
330
36
100
AcDbEntity
  8
1
 62
     4
100
AcDbPoint
 10
163.25
 20
12.5
 30
0.0
  0
POINT
  5
6D
330
36
100
AcDbEntity
  8
1
 62
     4
100
AcDbPoint
 10
151.75
 20
12.5
 30
0.0
  0
POINT
  5
6E
330
36
100
AcDbEntity
  8
1
 62
     4
100
AcDbPoint
 10
134.75
 20
12.5
 30
0.0
  0
POINT
  5
6F
330
36
100
AcDbEntity
  8
1
 62
     4
100
AcDbPoint
 10
146.25
 20
12.5
 30
0.0
  0
POINT
  5
70
330
36
100
AcDbEntity
  8
1
 62
     4
100
AcDbPoint
 10
140.5
 20
12.5
 30
0.0
  0
POINT
  5
71
330
36
100
AcDbEntity
  8
1
 62
     4
100
AcDbPoint
 10
140.5
 20
19.00000000000001
 30
0.0
  0
POINT
  5
72
330
36
100
AcDbEntity
  8
1
 62
     4
100
AcDbPoint
 10
117.75
 20
12.5
 30
0.0
  0
POINT
  5
73
330
36
100
AcDbEntity
  8
1
 62
     4
100
AcDbPoint
 10
129.25
 20
12.5
 30
0.0
  0
POINT
  5
74
330
36
100
AcDbEntity
  8
1
 62
     4
100
AcDbPoint
 10
123.5
 20
12.5
 30
0.0
  0
POINT
  5
75
330
36
100
AcDbEntity
  8
1
 62
     4
100
AcDbPoint
 10
123.5
 20
19.00000000000001
 30
0.0
  0
POINT
  5
76
330
36
100
AcDbEntity
  8
1
 62
     4
100
AcDbPoint
 10
100.75
 20
12.5
 30
0.0
  0
POINT
  5
77
330
36
100
AcDbEntity
  8
1
 62
     4
100
AcDbPoint
 10
112.25
 20
12.5
 30
0.0
  0
POINT
  5
78
330
36
100
AcDbEntity
  8
1
 62
     4
100
AcDbPoint
 10
106.5
 20
12.5
 30
0.0
  0
POINT
  5
79
330
36
100
AcDbEntity
  8
1
 62
     4
100
AcDbPoint
 10
106.5
 20
19.00000000000001
 30
0.0
  0
POINT
  5
7A
330
36
100
AcDbEntity
  8
1
 62
     4
100
AcDbPoint
 10
85.25
 20
17.0
 30
0.0
  0
POINT
  5
7B
330
36
100
AcDbEntity
  8
1
 62
     4
100
AcDbPoint
 10
93.75
 20
17.0
 30
0.0
  0
LINE
  5
7C
330
36
100
AcDbEntity
  8
1
  6
Continuous
 62
     2
100
AcDbLine
 10
81.0
 20
27.00000000000001
 30
0.0
 11
81.0
 21
10.0
 31
0.0
  0
LINE
  5
7D
330
36
100
AcDbEntity
  8
1
  6
DOT_CENTER
 62
     2
100
AcDbLine
 10
187.0
 20
26.50000000000001
 30
0.0
 11
187.0
 21
20.50000000000001
 31
0.0
  0
LINE
  5
7E
330
36
100
AcDbEntity
  8
1
  6
DOT_CENTER
 62
     2
100
AcDbLine
 10
184.0
 20
23.50000000000001
 30
0.0
 11
197.0
 21
23.50000000000001
 31
0.0
  0
LINE
  5
7F
330
36
100
AcDbEntity
  8
1
  6
Continuous
 62
     7
100
AcDbLine
 10
196.0
 20
21.50000000000001
 30
0.0
 11
191.0
 21
22.30000000000001
 31
0.0
  0
LINE
  5
80
330
36
100
AcDbEntity
  8
1
  6
Continuous
 62
     7
100
AcDbLine
 10
196.0
 20
25.50000000000001
 30
0.0
 11
196.0
 21
21.50000000000001
 31
0.0
  0
LINE
  5
81
330
36
100
AcDbEntity
  8
1
  6
Continuous
 62
     7
100
AcDbLine
 10
191.0
 20
24.70000000000001
 30
0.0
 11
196.0
 21
25.50000000000001
 31
0.0
  0
LINE
  5
82
330
36
100
AcDbEntity
  8
1
  6
Continuous
 62
     7
100
AcDbLine
 10
191.0
 20
24.70000000000001
 30
0.0
 11
191.0
 21
22.30000000000001
 31
0.0
  0
LINE
  5
83
330
36
100
AcDbEntity
  8
1
  6
Continuous
 62
     2
100
AcDbLine
 10
33.0
 20
27.0
 30
0.0
 11
33.0
 21
10.0
 31
0.0
  0
LINE
  5
84
330
36
100
AcDbEntity
  8
1
  6
Continuous
 62
     2
100
AcDbLine
 10
25.0
 20
18.50000000000001
 30
0.0
 11
81.0
 21
18.50000000000001
 31
0.0
  0
LINE
  5
85
330
36
100
AcDbEntity
  8
1
  6
Continuous
 62
     7
100
AcDbLine
 10
200.0
 20
287.0000000000003
 30
0.0
 11
105.0
 21
287.0000000000003
 31
0.0
  0
LINE
  5
86
330
36
100
AcDbEntity
  8
1
  6
Continuous
 62
     7
100
AcDbLine
 10
200.0
 20
10.0
 30
0.0
 11
200.0
 21
148.5
 31
0.0
  0
LINE
  5
87
330
36
100
AcDbEntity
  8
1
  6
Continuous
 62
     7
100
AcDbLine
 10
25.0
 20
10.0
 30
0.0
 11
105.0
 21
10.0
 31
0.0
  0
LINE
  5
88
330
36
100
AcDbEntity
  8
1
  6
PHANTOM
 62
     4
100
AcDbLine
 10
0.0
 20
297.0
 30
0.0
 11
0.0
 21
0.0
 31
0.0
  0
LINE
  5
89
330
36
100
AcDbEntity
  8
1
  6
PHANTOM
 62
     4
100
AcDbLine
 10
210.0
 20
297.0
 30
0.0
 11
0.0
 21
297.0
 31
0.0
  0
LINE
  5
8A
330
36
100
AcDbEntity
  8
1
  6
PHANTOM
 62
     4
100
AcDbLine
 10
210.0
 20
0.0
 30
0.0
 11
210.0
 21
297.0
 31
0.0
  0
LINE
  5
8B
330
36
100
AcDbEntity
  8
1
  6
PHANTOM
 62
     4
100
AcDbLine
 10
0.0
 20
0.0
 30
0.0
 11
210.0
 21
0.0
 31
0.0
  0
LINE
  5
8C
330
36
100
AcDbEntity
  8
1
  6
Continuous
 62
     7
100
AcDbLine
 10
25.0
 20
41.0
 30
0.0
 11
200.0
 21
41.0
 31
0.0
  0
LINE
  5
8D
330
36
100
AcDbEntity
  8
1
  6
Continuous
 62
     7
100
AcDbLine
 10
200.0
 20
27.00000000000001
 30
0.0
 11
25.0
 21
27.00000000000001
 31
0.0
  0
LINE
  5
8E
330
36
100
AcDbEntity
  8
1
  6
Continuous
 62
     2
100
AcDbLine
 10
33.0
 20
41.00000000000001
 30
0.0
 11
33.0
 21
27.0
 31
0.0
  0
LINE
  5
8F
330
36
100
AcDbEntity
  8
1
  6
Continuous
 62
     2
100
AcDbLine
 10
55.0
 20
287.0000000000003
 30
0.0
 11
55.0
 21
277.0000000000003
 31
0.0
  0
LINE
  5
90
330
36
100
AcDbEntity
  8
1
  6
Continuous
 62
     2
100
AcDbLine
 10
40.0
 20
287.0000000000003
 30
0.0
 11
40.0
 21
277.0000000000003
 31
0.0
  0
LINE
  5
91
330
36
100
AcDbEntity
  8
1
  6
Continuous
 62
     7
100
AcDbLine
 10
25.0
 20
10.0
 30
0.0
 11
25.0
 21
148.5
 31
0.0
  0
LINE
  5
92
330
36
100
AcDbEntity
  8
1
  6
Continuous
 62
     2
100
AcDbLine
 10
55.0
 20
277.0000000000003
 30
0.0
 11
25.0
 21
277.0000000000003
 31
0.0
  0
LINE
  5
93
330
36
100
AcDbEntity
  8
1
  6
Continuous
 62
     2
100
AcDbLine
 10
166.0
 20
27.00000000000001
 30
0.0
 11
166.0
 21
10.0
 31
0.0
  0
LINE
  5
94
330
36
100
AcDbEntity
  8
1
  6
Continuous
 62
     2
100
AcDbLine
 10
132.0
 20
27.00000000000001
 30
0.0
 11
132.0
 21
9.99999999999999
 31
0.0
  0
LINE
  5
95
330
36
100
AcDbEntity
  8
1
  6
Continuous
 62
     2
100
AcDbLine
 10
149.0
 20
27.00000000000001
 30
0.0
 11
149.0
 21
10.0
 31
0.0
  0
LINE
  5
96
330
36
100
AcDbEntity
  8
1
  6
Continuous
 62
     2
100
AcDbLine
 10
115.0
 20
27.00000000000001
 30
0.0
 11
115.0
 21
9.99999999999999
 31
0.0
  0
LINE
  5
97
330
36
100
AcDbEntity
  8
1
  6
Continuous
 62
     2
100
AcDbLine
 10
98.0
 20
27.00000000000001
 30
0.0
 11
98.0
 21
9.99999999999999
 31
0.0
  0
LINE
  5
98
330
36
100
AcDbEntity
  8
1
  6
Continuous
 62
     2
100
AcDbLine
 10
166.0
 20
20.00000000000001
 30
0.0
 11
200.0
 21
20.00000000000001
 31
0.0
  0
LINE
  5
99
330
36
100
AcDbEntity
  8
1
  6
Continuous
 62
     2
100
AcDbLine
 10
105.0
 20
287.0000000000003
 30
0.0
 11
105.0
 21
292.0000000000003
 31
0.0
  0
LINE
  5
9A
330
36
100
AcDbEntity
  8
1
  6
Continuous
 62
     7
100
AcDbLine
 10
105.0
 20
287.0000000000003
 30
0.0
 11
25.0
 21
287.0000000000003
 31
0.0
  0
LINE
  5
9B
330
36
100
AcDbEntity
  8
1
  6
Continuous
 62
     2
100
AcDbLine
 10
25.0
 20
148.5
 30
0.0
 11
20.0
 21
148.5
 31
0.0
  0
LINE
  5
9C
330
36
100
AcDbEntity
  8
1
  6
Continuous
 62
     7
100
AcDbLine
 10
25.0
 20
148.5
 30
0.0
 11
25.0
 21
287.0000000000003
 31
0.0
  0
LINE
  5
9D
330
36
100
AcDbEntity
  8
1
  6
Continuous
 62
     2
100
AcDbLine
 10
200.0
 20
148.5
 30
0.0
 11
205.0
 21
148.5
 31
0.0
  0
LINE
  5
9E
330
36
100
AcDbEntity
  8
1
  6
Continuous
 62
     7
100
AcDbLine
 10
200.0
 20
148.5
 30
0.0
 11
200.0
 21
287.0000000000003
 31
0.0
  0
LINE
  5
9F
330
36
100
AcDbEntity
  8
1
  6
Continuous
 62
     2
100
AcDbLine
 10
105.0
 20
10.0
 30
0.0
 11
105.0
 21
5.0
 31
0.0
  0
LINE
  5
A0
330
36
100
AcDbEntity
  8
1
  6
Continuous
 62
     7
100
AcDbLine
 10
105.0
 20
10.0
 30
0.0
 11
200.0
 21
10.0
 31
0.0
  0
CIRCLE
  5
A1
330
36
100
AcDbEntity
  8
1
  6
DOT_CENTER
 62
     7
100
AcDbCircle
 10
89.5
 20
18.0
 30
0.0
 40
0.1000000000000227
  0
CIRCLE
  5
A2
330
36
100
AcDbEntity
  8
1
  6
DOT_CENTER
 62
     7
100
AcDbCircle
 10
89.5
 20
16.0
 30
0.0
 40
0.1000000000000227
  0
CIRCLE
  5
A3
330
36
100
AcDbEntity
  8
1
  6
Continuous
 62
     7
100
AcDbCircle
 10
187.0
 20
23.50000000000001
 30
0.0
 40
2.0
  0
CIRCLE
  5
A4
330
36
100
AcDbEntity
  8
1
  6
Continuous
 62
     7
100
AcDbCircle
 10
187.0
 20
23.50000000000001
 30
0.0
 40
1.200000000000102
  0
CIRCLE
  5
A5
330
36
100
AcDbEntity
  8
1
  6
Continuous
 62
     7
100
AcDbCircle
 10
154.5
 20
12.5
 30
0.0
 40
0.3000000000000114
  0
CIRCLE
  5
A6
330
36
100
AcDbEntity
  8
1
  6
Continuous
 62
     7
100
AcDbCircle
 10
160.5
 20
12.5
 30
0.0
 40
0.3000000000000114
  0
CIRCLE
  5
A7
330
36
100
AcDbEntity
  8
1
  6
Continuous
 62
     7
100
AcDbCircle
 10
143.5
 20
12.5
 30
0.0
 40
0.3000000000000114
  0
CIRCLE
  5
A8
330
36
100
AcDbEntity
  8
1
  6
Continuous
 62
     7
100
AcDbCircle
 10
137.5
 20
12.5
 30
0.0
 40
0.3000000000000114
  0
CIRCLE
  5
A9
330
36
100
AcDbEntity
  8
1
  6
Continuous
 62
     7
100
AcDbCircle
 10
126.5
 20
12.5
 30
0.0
 40
0.2999999999999972
  0
CIRCLE
  5
AA
330
36
100
AcDbEntity
  8
1
  6
Continuous
 62
     7
100
AcDbCircle
 10
120.5
 20
12.5
 30
0.0
 40
0.2999999999999972
  0
CIRCLE
  5
AB
330
36
100
AcDbEntity
  8
1
  6
Continuous
 62
     7
100
AcDbCircle
 10
109.5
 20
12.5
 30
0.0
 40
0.2999999999999972
  0
CIRCLE
  5
AC
330
36
100
AcDbEntity
  8
1
  6
Continuous
 62
     7
100
AcDbCircle
 10
103.5
 20
12.5
 30
0.0
 40
0.2999999999999972
  0
MTEXT
  5
AE
330
36
100
AcDbEntity
  8
1
 62
   250
100
AcDbMText
 10
25.0
 20
5.0
 30
0.0
 40
3.5
 41
0.0
 71
     4
 72
     1
  1
備考欄の文字列 原点位置=4
  7
CONVERTER_1
 73
     1
 44
0.7202881152461
  0
MTEXT
  5
AF
330
36
100
AcDbEntity
  8
1
 62
     2
100
AcDbMText
 10
89.5
 20
24.00000000000001
 30
0.0
 40
3.5
 41
0.0
 71
     5
 72
     1
  1
尺度
  7
CONVERTER_1
 73
     1
 44
0.7202881152461
  0
MTEXT
  5
B0
330
36
100
AcDbEntity
  8
1
 62
     2
100
AcDbMText
 10
135.5
 20
25.00000000000001
 30
0.0
 40
3.0
 41
0.0
 71
     5
 72
     1
  1
製図
  7
CONVERTER_1
 73
     1
 44
0.78031212484994
  0
MTEXT
  5
B1
330
36
100
AcDbEntity
  8
1
 62
     2
100
AcDbMText
 10
152.5
 20
25.00000000000001
 30
0.0
 40
3.0
 41
0.0
 71
     5
 72
     1
  1
設計
  7
CONVERTER_1
 73
     1
 44
0.78031212484994
  0
MTEXT
  5
B2
330
36
100
AcDbEntity
  8
1
 62
     2
100
AcDbMText
 10
118.5
 20
25.00000000000001
 30
0.0
 40
3.0
 41
0.0
 71
     5
 72
     1
  1
検図
  7
CONVERTER_1
 73
     1
 44
0.78031212484994
  0
MTEXT
  5
B3
330
36
100
AcDbEntity
  8
1
 62
     2
100
AcDbMText
 10
175.0
 20
23.50000000000001
 30
0.0
 40
3.5
 41
0.0
 71
     5
 72
     1
  1
第三角法
  7
CONVERTER_1
 73
     1
 44
0.7202881152461
  0
MTEXT
  5
B4
330
36
100
AcDbEntity
  8
1
 62
     2
100
AcDbMText
 10
101.5
 20
25.00000000000001
 30
0.0
 40
3.0
 41
0.0
 71
     5
 72
     1
  1
承認
  7
CONVERTER_1
 73
     1
 44
0.78031212484994
  0
MTEXT
  5
B5
330
36
100
AcDbEntity
  8
1
 62
     2
100
AcDbMText
 10
29.0
 20
14.25
 30
0.0
 40
3.5
 41
0.0
 71
     5
 72
     1
  1
品番
  7
CONVERTER_1
 73
     1
 44
0.96038415366146
  0
MTEXT
  5
B6
330
36
100
AcDbEntity
  8
1
 62
     2
100
AcDbMText
 10
29.0
 20
22.75
 30
0.0
 40
3.5
 41
0.0
 71
     5
 72
     1
  1
品名
  7
CONVERTER_1
 73
     1
 44
0.96038415366146
  0
MTEXT
  5
B7
330
36
100
AcDbEntity
  8
1
 62
     2
100
AcDbMText
 10
29.0
 20
34.00000000000001
 30
0.0
 40
3.5
 41
0.0
 71
     5
 72
     1
  1
備考
  7
CONVERTER_1
 73
     1
 44
0.60024009603842
  0
MTEXT
  5
B8
330
36
100
AcDbEntity
  8
1
 62
     2
100
AcDbMText
 10
32.5
 20
282.0000000000003
 30
0.0
 40
5.0
 41
0.0
 71
     5
 72
     1
  1
図番
  7
CONVERTER_1
 73
     1
 44
0.60024009603842
  0
MTEXT
  5
B9
330
36
100
AcDbEntity
  8
1
 62
     7
100
AcDbMText
 10
171.5
 20
15.0
 30
0.0
 40
2.5
 41
0.0
 71
     5
 72
     1
  1
株式会社
  7
CONVERTER_1
 73
     1
 44
1.32052821128451
  0
MTEXT
  5
BA
330
36
100
AcDbEntity
  8
1
 62
     7
100
AcDbMText
 10
188.5
 20
15.0
 30
0.0
 40
3.0
 41
0.0
 71
     5
 72
     1
  1
三栄水栓製作所
  7
CONVERTER_1
 73
     1
 44
1.32052821128451
  0
ENDBLK
  5
38
330
36
100
AcDbEntity
  8
0
100
AcDbBlockEnd
  0
BLOCK
  5
3A
330
39
100
AcDbEntity
  8
0
100
AcDbBlockBegin
  2
32-1-16
 70
     0
 71
     0
 10
214.80048271263
 20
471.9536509086066
 30
0.0
  3
32-1-16
  1

  0
LINE
  5
BB
330
39
100
AcDbEntity
  8
1
  6
Continuous
 62
     7
100
AcDbLine
 10
92.71320460612139
 20
238.918739666003
 30
0.0
 11
94.3569593067237
 21
238.918739666003
 31
0.0
  0
LINE
  5
BC
330
39
100
AcDbEntity
  8
1
  6
Continuous
 62
     7
100
AcDbLine
 10
92.82620460612139
 20
238.918739666003
 30
0.0
 11
92.71320460612139
 21
238.918739666003
 31
0.0
  0
LINE
  5
BD
330
39
100
AcDbEntity
  8
1
  6
Continuous
 62
     7
100
AcDbLine
 10
117.6694499055191
 20
238.918739666003
 30
0.0
 11
119.3132046061214
 21
238.918739666003
 31
0.0
  0
LINE
  5
BE
330
39
100
AcDbEntity
  8
1
  6
Continuous
 62
     7
100
AcDbLine
 10
112.6652719539466
 20
537.9857999343956
 30
0.0
 11
99.3611372582964
 21
537.9857999343956
 31
0.0
  0
LINE
  5
BF
330
39
100
AcDbEntity
  8
1
  6
Continuous
 62
     7
100
AcDbLine
 10
121.4635939330161
 20
525.2249406234943
 30
0.0
 11
114.8115265851912
 21
536.746659245297
 31
0.0
  0
LINE
  5
C0
330
39
100
AcDbEntity
  8
1
  6
Continuous
 62
     7
100
AcDbLine
 10
114.8115265851912
 20
511.2249406234943
 30
0.0
 11
121.4635939330161
 21
522.746659245297
 31
0.0
  0
LINE
  5
C1
330
39
100
AcDbEntity
  8
1
  6
Continuous
 62
     7
100
AcDbLine
 10
97.21488262705211
 20
536.746659245297
 30
0.0
 11
90.5628152792271
 21
525.2249406234943
 31
0.0
  0
LINE
  5
C2
330
39
100
AcDbEntity
  8
1
  6
Continuous
 62
     7
100
AcDbLine
 10
90.5628152792271
 20
522.746659245297
 30
0.0
 11
97.21488262705211
 21
511.2249406234943
 31
0.0
  0
LINE
  5
C3
330
39
100
AcDbEntity
  8
1
  6
Continuous
 62
     7
100
AcDbLine
 10
119.3132046061214
 20
238.918739666003
 30
0.0
 11
119.2002046061214
 21
238.918739666003
 31
0.0
  0
LINE
  5
C4
330
39
100
AcDbEntity
  8
1
  6
Continuous
 62
     7
100
AcDbLine
 10
398.5195520892145
 20
247.9187396660032
 30
0.0
 11
419.7875012816456
 21
247.9187396660032
 31
0.0
  0
LINE
  5
C5
330
39
100
AcDbEntity
  8
1
  6
Continuous
 62
     7
100
AcDbLine
 10
423.15352668543
 20
246.6319169157162
 30
0.0
 11
423.15352668543
 21
239.4904884871733
 31
0.0
  0
LINE
  5
C6
330
39
100
AcDbEntity
  8
1
  6
Continuous
 62
     7
100
AcDbLine
 10
395.15352668543
 20
239.4904884871733
 30
0.0
 11
395.15352668543
 21
246.6319169157163
 31
0.0
  0
LINE
  5
C7
330
39
100
AcDbEntity
  8
1
  6
Continuous
 62
     7
100
AcDbLine
 10
418.9214758778611
 20
248.9187396660032
 30
0.0
 11
399.3855774929989
 21
248.9187396660032
 31
0.0
  0
LINE
  5
C8
330
39
100
AcDbEntity
  8
1
  6
Continuous
 62
     7
100
AcDbLine
 10
422.45352668543
 20
238.9187396660032
 30
0.0
 11
415.6331329603216
 21
238.9187396660032
 31
0.0
  0
LINE
  5
C9
330
39
100
AcDbEntity
  8
1
  6
Continuous
 62
     7
100
AcDbLine
 10
397.5955056236994
 20
247.9187396660032
 30
0.0
 11
397.65352668543
 21
247.9187396660032
 31
0.0
  0
LINE
  5
CA
330
39
100
AcDbEntity
  8
1
  6
Continuous
 62
     7
100
AcDbLine
 10
395.96652668543
 20
238.9187396660032
 30
0.0
 11
395.85352668543
 21
238.9187396660032
 31
0.0
  0
LINE
  5
CB
330
39
100
AcDbEntity
  8
1
  6
Continuous
 62
     7
100
AcDbLine
 10
420.65352668543
 20
247.9187396660032
 30
0.0
 11
420.7115477471606
 21
247.9187396660032
 31
0.0
  0
LINE
  5
CC
330
39
100
AcDbEntity
  8
1
  6
Continuous
 62
     7
100
AcDbLine
 10
402.6739204105384
 20
238.9187396660032
 30
0.0
 11
395.85352668543
 21
238.9187396660032
 31
0.0
  0
ARC
  5
CD
330
39
100
AcDbEntity
  8
1
  6
Continuous
 62
     7
100
AcDbCircle
 10
95.51320460612141
 20
243.0612027014445
 30
0.0
 40
4.999999999999962
100
AcDbArc
 50
105.3375576695532
 51
-124.0557977425687
  0
ARC
  5
CE
330
39
100
AcDbEntity
  8
1
  6
Continuous
 62
     7
100
AcDbCircle
 10
116.5132046061214
 20
243.0612027014445
 30
0.0
 40
4.999999999999914
100
AcDbArc
 50
-55.94420225743148
 51
74.66244233044698
  0
ARC
  5
CF
330
39
100
AcDbEntity
  8
1
  6
Continuous
 62
     7
100
AcDbCircle
 10
106.0132046061214
 20
523.9857999343956
 30
0.0
 40
15.50000000000007
100
AcDbArc
 50
55.41462091516038
 51
64.58537908483849
  0
ARC
  5
D0
330
39
100
AcDbEntity
  8
1
  6
Continuous
 62
     7
100
AcDbCircle
 10
106.0132046061214
 20
523.9857999343956
 30
0.0
 40
15.5
100
AcDbArc
 50
0.0
 51
4.58537908483955
  0
ARC
  5
D1
330
39
100
AcDbEntity
  8
1
  6
Continuous
 62
     7
100
AcDbCircle
 10
106.0132046061214
 20
523.9857999343956
 30
0.0
 40
15.50000000000005
100
AcDbArc
 50
-58.92704902784635
 51
-55.41462091516002
  0
ARC
  5
D2
330
39
100
AcDbEntity
  8
1
  6
Continuous
 62
     7
100
AcDbCircle
 10
106.0132046061214
 20
523.9857999343956
 30
0.0
 40
15.50000000000004
100
AcDbArc
 50
-4.58537908483913
 51
0.0
  0
ARC
  5
D3
330
39
100
AcDbEntity
  8
1
  6
Continuous
 62
     7
100
AcDbCircle
 10
106.0132046061214
 20
523.9857999343956
 30
0.0
 40
15.49999999999999
100
AcDbArc
 50
115.4146209151609
 51
124.5853790848381
  0
ARC
  5
D4
330
39
100
AcDbEntity
  8
1
  6
Continuous
 62
     7
100
AcDbCircle
 10
106.0132046061214
 20
523.9857999343956
 30
0.0
 40
15.49999999999966
100
AcDbArc
 50
175.4146209151603
 51
180.0
  0
ARC
  5
D5
330
39
100
AcDbEntity
  8
1
  6
Continuous
 62
     7
100
AcDbCircle
 10
106.0132046061214
 20
523.9857999343956
 30
0.0
 40
15.49999999999965
100
AcDbArc
 50
-124.5853790848385
 51
-121.0729509721527
  0
ARC
  5
D6
330
39
100
AcDbEntity
  8
1
  6
Continuous
 62
     7
100
AcDbCircle
 10
106.0132046061214
 20
523.9857999343956
 30
0.0
 40
15.4999999999996
100
AcDbArc
 50
180.0
 51
-175.4146209151608
  0
ARC
  5
D7
330
39
100
AcDbEntity
  8
1
  6
Continuous
 62
     7
100
AcDbCircle
 10
106.0132046061214
 20
523.9857999343956
 30
0.0
 40
10.7679491924311
100
AcDbArc
 50
-42.01706006464691
 51
89.99999999999947
  0
ARC
  5
D8
330
39
100
AcDbEntity
  8
1
  6
Continuous
 62
     7
100
AcDbCircle
 10
106.0132046061214
 20
523.9857999343956
 30
0.0
 40
10.76794919243105
100
AcDbArc
 50
89.99999999999947
 51
-137.9829399353524
  0
ARC
  5
D9
330
39
100
AcDbEntity
  8
1
  6
Continuous
 62
     7
100
AcDbCircle
 10
419.65352668543
 20
243.0612027014448
 30
0.0
 40
5.000000000000017
100
AcDbArc
 50
-55.94420225743207
 51
-45.57299599919494
  0
ARC
  5
DA
330
39
100
AcDbEntity
  8
1
  6
Continuous
 62
     7
100
AcDbCircle
 10
398.65352668543
 20
243.0612027014448
 30
0.0
 40
5.000000000000068
100
AcDbArc
 50
105.3375576695539
 51
134.4270040008053
  0
ARC
  5
DB
330
39
100
AcDbEntity
  8
1
  6
Continuous
 62
     7
100
AcDbCircle
 10
398.65352668543
 20
243.0612027014448
 30
0.0
 40
5.000000000000057
100
AcDbArc
 50
-134.4270040008051
 51
-124.0557977425679
  0
ARC
  5
DC
330
39
100
AcDbEntity
  8
1
  6
Continuous
 62
     7
100
AcDbCircle
 10
419.65352668543
 20
243.0612027014448
 30
0.0
 40
4.999999999999975
100
AcDbArc
 50
45.57299599919402
 51
74.66244233044614
  0
SPLINE
  5
DD
330
39
100
AcDbEntity
  8
1
  6
Continuous
 62
     7
100
AcDbSpline
210
0.0
220
0.0
230
1.0
 70
     8
 71
     3
 72
    35
 73
    31
 74
    29
 42
0.0000000001
 43
0.0000000001
 44
0.00000001
 40
0.0
 40
0.0
 40
0.0
 40
0.0
 40
0.8673459349151486
 40
1.728953126560637
 40
2.692183797234443
 40
3.660546091348634
 40
4.162115463309076
 40
4.662703892976638
 40
5.654540569831531
 40
6.647874872103574
 40
7.570089255249975
 40
8.491917096104141
 40
9.294242431892711
 40
10.09681760841134
 40
10.77964060721445
 40
11.45726237541939
 40
11.77113150185463
 40
12.08503392924574
 40
12.72312572077825
 40
13.36530103162716
 40
14.10211462481135
 40
14.84078219882395
 40
15.70714763623098
 40
16.57293386032129
 40
17.53816493973479
 40
18.50348933620008
 40
19.00491876307925
 40
19.50575789490897
 40
19.84605227129165
 40
20.18654343815171
 40
20.18654343815171
 40
20.18654343815171
 40
20.18654343815171
 10
411.7404524227238
 20
245.3564135561101
 30
0.0
 10
411.9893935982042
 20
245.50340297917
 30
0.0
 10
412.4856288445461
 20
245.7964092784335
 30
0.0
 10
413.2949985536926
 20
246.1902199926907
 30
0.0
 10
414.1941305937512
 20
246.4489715577898
 30
0.0
 10
414.9976609694788
 20
246.5690229709174
 30
0.0
 10
415.6525739824452
 20
246.6218152376667
 30
0.0
 10
416.3172266233411
 20
246.6412877730037
 30
0.0
 10
417.1464859477228
 20
246.5978544740178
 30
0.0
 10
418.1046221341088
 20
246.4393602676227
 30
0.0
 10
419.0165337661473
 20
246.1805382922578
 30
0.0
 10
419.8300492004091
 20
245.8323998462481
 30
0.0
 10
420.554240330809
 20
245.396695969586
 30
0.0
 10
421.1336426992621
 20
244.8929343753374
 30
0.0
 10
421.5747440512982
 20
244.3168471533713
 30
0.0
 10
421.8081475564152
 20
243.8020696631123
 30
0.0
 10
421.8999511086033
 20
243.375403550096
 30
0.0
 10
421.9300275375811
 20
242.9530799833581
 30
0.0
 10
421.8456283976122
 20
242.4206872178879
 30
0.0
 10
421.5757842966904
 20
241.7981716544932
 30
0.0
 10
421.1403711148802
 20
241.2336089115941
 30
0.0
 10
420.5448048456368
 20
240.7234004652322
 30
0.0
 10
419.8388192371746
 20
240.2924473288852
 30
0.0
 10
419.0090012455223
 20
239.9397877170162
 30
0.0
 10
418.1102289516692
 20
239.684055472724
 30
0.0
 10
417.3084651554683
 20
239.5534620782758
 30
0.0
 10
416.6547163548245
 20
239.4979279398239
 30
0.0
 10
416.2069977454706
 20
239.4863940969661
 30
0.0
 10
415.8132163348075
 20
239.4979310023065
 30
0.0
 10
415.5865882952986
 20
239.5096176366355
 30
0.0
 10
415.4732415205593
 20
239.5154626428916
 30
0.0
 11
411.7404524227238
 21
245.3564135561101
 31
0.0
 11
412.4932030529508
 21
245.7872911019473
 31
0.0
 11
413.2730970299793
 21
246.1535319206581
 31
0.0
 11
414.196485128707
 21
246.4276992857012
 31
0.0
 11
415.1531639642964
 21
246.5776697434501
 31
0.0
 11
415.6531439583081
 21
246.6175676190432
 31
0.0
 11
416.1535266854301
 21
246.6319169157163
 31
0.0
 11
417.1439786402311
 21
246.579524943188
 31
0.0
 11
418.1238566126236
 21
246.416576499531
 31
0.0
 11
419.0102084295831
 21
246.1619005779076
 31
0.0
 11
419.8565356716248
 21
245.7965284832534
 31
0.0
 11
420.5407935243863
 21
245.3775808309359
 31
0.0
 11
421.1425771962988
 21
244.8465598085804
 31
0.0
 11
421.5536905893961
 21
244.301368992709
 31
0.0
 11
421.8268655988183
 21
243.6812507177224
 31
0.0
 11
421.8926412239671
 21
243.3743510669153
 31
0.0
 11
421.9143859963315
 21
243.0612027014448
 31
0.0
 11
421.8201360929418
 21
242.4301099268608
 31
0.0
 11
421.5669636692699
 21
241.8399465141046
 31
0.0
 11
421.1228319958747
 21
241.2520338268898
 31
0.0
 11
420.5666009481363
 21
240.7659918467795
 31
0.0
 11
419.8291600329036
 21
240.3112721884468
 31
0.0
 11
419.0339563408808
 21
239.9688734822315
 31
0.0
 11
418.1062705027577
 21
239.7022838680085
 31
0.0
 11
417.1538894065637
 21
239.5447356594393
 31
0.0
 11
416.6542135741159
 21
239.502836582982
 31
0.0
 11
416.1535266854301
 21
239.4904884871733
 31
0.0
 11
415.8133435345274
 21
239.4991882825473
 31
0.0
 11
415.4732415205593
 21
239.5154626428916
 31
0.0
  0
SPLINE
  5
DE
330
39
100
AcDbEntity
  8
1
  6
Continuous
 62
     7
100
AcDbSpline
210
0.0
220
0.0
230
1.0
 70
     8
 71
     3
 72
    35
 73
    31
 74
    29
 42
0.0000000001
 43
0.0000000001
 44
0.00000001
 40
0.0
 40
0.0
 40
0.0
 40
0.0
 40
0.867345934915198
 40
1.728953126560738
 40
2.692183797234505
 40
3.660546091348687
 40
4.16211546330913
 40
4.662703892976635
 40
5.654540569831472
 40
6.647874872103571
 40
7.570089255249972
 40
8.491917096104242
 40
9.294242431892812
 40
10.09681760841144
 40
10.77964060721451
 40
11.45726237541943
 40
11.77113150185468
 40
12.0850339292458
 40
12.72312572077831
 40
13.36530103162721
 40
14.10211462481144
 40
14.840782198824
 40
15.70714763623112
 40
16.57293386032143
 40
17.53816493973488
 40
18.50348933620023
 40
19.00491876307934
 40
19.50575789490911
 40
19.8460522712918
 40
20.18654343815185
 40
20.18654343815185
 40
20.18654343815185
 40
20.18654343815185
 10
406.5666009481363
 20
245.3564135561101
 30
0.0
 10
406.317659772656
 20
245.50340297917
 30
0.0
 10
405.821424526314
 20
245.7964092784334
 30
0.0
 10
405.0120548171674
 20
246.1902199926906
 30
0.0
 10
404.1129227771089
 20
246.4489715577899
 30
0.0
 10
403.3093924013813
 20
246.5690229709174
 30
0.0
 10
402.654479388415
 20
246.6218152376668
 30
0.0
 10
401.9898267475188
 20
246.6412877730037
 30
0.0
 10
401.1605674231375
 20
246.5978544740177
 30
0.0
 10
400.2024312367512
 20
246.4393602676227
 30
0.0
 10
399.2905196047129
 20
246.180538292258
 30
0.0
 10
398.4770041704509
 20
245.8323998462481
 30
0.0
 10
397.7528130400511
 20
245.396695969586
 30
0.0
 10
397.1734106715978
 20
244.8929343753374
 30
0.0
 10
396.7323093195619
 20
244.3168471533712
 30
0.0
 10
396.4989058144452
 20
243.8020696631123
 30
0.0
 10
396.4071022622566
 20
243.375403550096
 30
0.0
 10
396.3770258332791
 20
242.9530799833581
 30
0.0
 10
396.4614249732476
 20
242.4206872178879
 30
0.0
 10
396.7312690741696
 20
241.7981716544933
 30
0.0
 10
397.1666822559799
 20
241.2336089115941
 30
0.0
 10
397.7622485252231
 20
240.7234004652321
 30
0.0
 10
398.4682341336855
 20
240.2924473288853
 30
0.0
 10
399.2980521253378
 20
239.9397877170162
 30
0.0
 10
400.196824419191
 20
239.684055472724
 30
0.0
 10
400.9985882153917
 20
239.5534620782759
 30
0.0
 10
401.6523370160355
 20
239.4979279398238
 30
0.0
 10
402.1000556253895
 20
239.4863940969662
 30
0.0
 10
402.4938370360526
 20
239.4979310023065
 30
0.0
 10
402.7204650755617
 20
239.5096176366355
 30
0.0
 10
402.8338118503008
 20
239.5154626428916
 30
0.0
 11
406.5666009481363
 21
245.3564135561101
 31
0.0
 11
405.8138503179092
 21
245.7872911019473
 31
0.0
 11
405.0339563408807
 21
246.1535319206581
 31
0.0
 11
404.110568242153
 21
246.4276992857013
 31
0.0
 11
403.1538894065636
 21
246.5776697434501
 31
0.0
 11
402.6539094125519
 21
246.6175676190432
 31
0.0
 11
402.15352668543
 21
246.6319169157163
 31
0.0
 11
401.163074730629
 21
246.579524943188
 31
0.0
 11
400.1831967582365
 21
246.416576499531
 31
0.0
 11
399.296844941277
 21
246.1619005779076
 31
0.0
 11
398.4505176992352
 21
245.7965284832534
 31
0.0
 11
397.7662598464736
 21
245.3775808309359
 31
0.0
 11
397.1644761745612
 21
244.8465598085804
 31
0.0
 11
396.7533627814639
 21
244.301368992709
 31
0.0
 11
396.4801877720418
 21
243.6812507177224
 31
0.0
 11
396.414412146893
 21
243.3743510669153
 31
0.0
 11
396.3926673745285
 21
243.0612027014448
 31
0.0
 11
396.4869172779182
 21
242.4301099268608
 31
0.0
 11
396.7400897015901
 21
241.8399465141046
 31
0.0
 11
397.1842213749854
 21
241.2520338268898
 31
0.0
 11
397.7404524227237
 21
240.7659918467795
 31
0.0
 11
398.4778933379565
 21
240.3112721884468
 31
0.0
 11
399.2730970299793
 21
239.9688734822315
 31
0.0
 11
400.2007828681024
 21
239.7022838680085
 31
0.0
 11
401.1531639642964
 21
239.5447356594393
 31
0.0
 11
401.6528397967442
 21
239.502836582982
 31
0.0
 11
402.15352668543
 21
239.4904884871733
 31
0.0
 11
402.4937098363328
 21
239.4991882825473
 31
0.0
 11
402.8338118503008
 21
239.5154626428916
 31
0.0
  0
SPLINE
  5
DF
330
39
100
AcDbEntity
  8
1
  6
Continuous
 62
     7
100
AcDbSpline
210
0.0
220
0.0
230
1.0
 70
     8
 71
     3
 72
    49
 73
    45
 74
    43
 42
0.0000000001
 43
0.0000000001
 44
0.00000001
 40
0.0
 40
0.0
 40
0.0
 40
0.0
 40
0.0423779557433179
 40
0.0848020568811269
 40
0.3751662948124672
 40
0.6655305327438811
 40
0.9565534481493456
 40
1.247564760664893
 40
1.540464466248896
 40
1.83334308035318
 40
2.129091721619159
 40
2.424813339334742
 40
2.724018344024632
 40
3.023194418503824
 40
3.326033874255394
 40
3.628846158112271
 40
3.935061359200108
 40
4.241254001773292
 40
4.550193277123769
 40
4.859116560854236
 40
5.169819618546732
 40
5.480514414952294
 40
5.791824963908356
 40
6.103135512864446
 40
6.413830309270037
 40
6.724533366962558
 40
7.033456650693026
 40
7.342395926043502
 40
7.648588568616712
 40
7.954803769704556
 40
8.257616053561401
 40
8.560455509312863
 40
8.859631583792096
 40
9.158836588481986
 40
9.454558206197589
 40
9.750306847463516
 40
10.0431854615678
 40
10.33608516715185
 40
10.62709647966741
 40
10.9181193950729
 40
11.20848363300433
 40
11.49884787093574
 40
11.541271972073
 40
11.58364992781678
 40
11.58364992781678
 40
11.58364992781678
 40
11.58364992781678
 10
94.26320460612141
 20
239.5132171208441
 30
0.0
 10
94.24917474463486
 20
239.5115693022507
 30
0.0
 10
94.22109974453285
 20
239.5082718707529
 30
0.0
 10
94.09666754759742
 20
239.4957914834118
 30
0.0
 10
93.88883662053389
 20
239.4858832554521
 30
0.0
 10
93.59816823188794
 20
239.4996745494839
 30
0.0
 10
93.30979655035392
 20
239.540362663745
 30
0.0
 10
93.02571732481013
 20
239.6081914088752
 30
0.0
 10
92.74849153499227
 20
239.7020459100488
 30
0.0
 10
92.4797287988992
 20
239.8218421138904
 30
0.0
 10
92.2220862150697
 20
239.9659175796159
 30
0.0
 10
91.97685851341649
 20
240.1339761074289
 30
0.0
 10
91.74659536174664
 20
240.3238130279231
 30
0.0
 10
91.53236309809296
 20
240.5349485667406
 30
0.0
 10
91.33640868425472
 20
240.7647283302691
 30
0.0
 10
91.15965133658999
 20
241.012456819379
 30
0.0
 10
91.00388050370042
 20
241.2751890708895
 30
0.0
 10
90.86991208602574
 20
241.5519400793854
 30
0.0
 10
90.75898905481004
 20
241.8396720579996
 30
0.0
 10
90.67181226240973
 20
242.1370255041938
 30
0.0
 10
90.60906425231697
 20
242.4410715003988
 30
0.0
 10
90.57126387310004
 20
242.7500130961369
 30
0.0
 10
90.55858679961099
 20
243.0612027014444
 30
0.0
 10
90.57126387310001
 20
243.372392306752
 30
0.0
 10
90.60906425231704
 20
243.68133390249
 30
0.0
 10
90.67181226240973
 20
243.9853798986952
 30
0.0
 10
90.75898905481006
 20
244.2827333448893
 30
0.0
 10
90.86991208602576
 20
244.5704653235037
 30
0.0
 10
91.0038805037004
 20
244.8472163319994
 30
0.0
 10
91.15965133659005
 20
245.10994858351
 30
0.0
 10
91.33640868425466
 20
245.3576770726198
 30
0.0
 10
91.53236309809304
 20
245.5874568361483
 30
0.0
 10
91.74659536174663
 20
245.7985923749658
 30
0.0
 10
91.97685851341649
 20
245.98842929546
 30
0.0
 10
92.22208621506967
 20
246.156487823273
 30
0.0
 10
92.47972879889917
 20
246.3005632889984
 30
0.0
 10
92.74849153499218
 20
246.4203594928401
 30
0.0
 10
93.0257173248101
 20
246.5142139940137
 30
0.0
 10
93.30979655035387
 20
246.5820427391439
 30
0.0
 10
93.59816823188803
 20
246.6227308534049
 30
0.0
 10
93.88883662053385
 20
246.6365221474368
 30
0.0
 10
94.09666754759726
 20
246.6266139194771
 30
0.0
 10
94.22109974453272
 20
246.614133532136
 30
0.0
 10
94.24917474463469
 20
246.6108361006382
 30
0.0
 10
94.26320460612141
 20
246.6091882820448
 30
0.0
 11
94.26320460612141
 21
239.5132171208441
 31
0.0
 11
94.22110216638578
 21
239.5083926311001
 31
0.0
 11
94.17889240763172
 21
239.5041334500432
 31
0.0
 11
93.88884895285689
 21
239.490488487173
 31
0.0
 11
93.59880549808199
 21
239.5041334500432
 31
0.0
 11
93.31064600178323
 21
239.5448574231296
 31
0.0
 11
93.02756379537645
 21
239.6123262931949
 31
0.0
 11
92.75013975280999
 21
239.7062738218334
 31
0.0
 11
92.48257800066925
 21
239.8253896956329
 31
0.0
 11
92.22444563193304
 21
239.9697328250895
 31
0.0
 11
91.9804329793003
 21
240.1367929955056
 31
0.0
 11
91.74955347375065
 21
240.3271040271055
 31
0.0
 11
91.53637817878042
 21
240.5370150014616
 31
0.0
 11
91.33984385475603
 21
240.7674189845873
 31
0.0
 11
91.16387031894068
 21
241.0138507072759
 31
0.0
 11
91.00767317845488
 21
241.277232944113
 31
0.0
 11
90.87417749047879
 21
241.5527920768917
 31
0.0
 11
90.76302756491235
 21
241.8410439977884
 31
0.0
 11
90.67605091087836
 21
242.1374704758295
 31
0.0
 11
90.61324583655147
 21
242.4417596683722
 31
0.0
 11
90.5754704748766
 21
242.7501494842933
 31
0.0
 11
90.56281527866192
 21
243.0612027014444
 31
0.0
 11
90.5754704748766
 21
243.3722559185956
 31
0.0
 11
90.61324583655149
 21
243.6806457345167
 31
0.0
 11
90.67605091087836
 21
243.9849349270594
 31
0.0
 11
90.76302756491235
 21
244.2813614051005
 31
0.0
 11
90.87417749047879
 21
244.5696133259972
 31
0.0
 11
91.00767317845488
 21
244.845172458776
 31
0.0
 11
91.1638703189407
 21
245.1085546956131
 31
0.0
 11
91.33984385475603
 21
245.3549864183016
 31
0.0
 11
91.53637817878042
 21
245.5853904014272
 31
0.0
 11
91.74955347375065
 21
245.7953013757833
 31
0.0
 11
91.9804329793003
 21
245.9856124073833
 31
0.0
 11
92.22444563193302
 21
246.1526725777994
 31
0.0
 11
92.48257800066919
 21
246.2970157072559
 31
0.0
 11
92.75013975280989
 21
246.4161315810555
 31
0.0
 11
93.02756379537641
 21
246.510079109694
 31
0.0
 11
93.3106460017832
 21
246.5775479797593
 31
0.0
 11
93.59880549808199
 21
246.6182719528457
 31
0.0
 11
93.8888489528569
 21
246.6319169157159
 31
0.0
 11
94.17889240763181
 21
246.6182719528458
 31
0.0
 11
94.22110216638531
 21
246.6140127717889
 31
0.0
 11
94.26320460612141
 21
246.6091882820448
 31
0.0
  0
SPLINE
  5
E0
330
39
100
AcDbEntity
  8
1
  6
Continuous
 62
     7
100
AcDbSpline
210
0.0
220
0.0
230
1.0
 70
     8
 71
     3
 72
    49
 73
    45
 74
    43
 42
0.0000000001
 43
0.0000000001
 44
0.00000001
 40
0.0
 40
0.0
 40
0.0
 40
0.0
 40
0.0423779557432897
 40
0.0848020568811128
 40
0.3751662948125524
 40
0.6655305327439379
 40
0.9565534481493743
 40
1.247564760664935
 40
1.540464466248992
 40
1.833343080353276
 40
2.129091721619231
 40
2.424813339334791
 40
2.72401834402468
 40
3.023194418503832
 40
3.326033874255411
 40
3.62884615811228
 40
3.935061359200131
 40
4.241254001773303
 40
4.550193277123789
 40
4.859116560854269
 40
5.169819618546765
 40
5.480514414952332
 40
5.791824963908394
 40
6.103135512864485
 40
6.413830309270078
 40
6.724533366962599
 40
7.033456650693067
 40
7.342395926043569
 40
7.648588568616779
 40
7.954803769704609
 40
8.257616053561437
 40
8.56045550931289
 40
8.859631583792112
 40
9.158836588482057
 40
9.454558206197685
 40
9.750306847463637
 40
10.04318546156792
 40
10.33608516715191
 40
10.62709647966746
 40
10.91811939507295
 40
11.20848363300441
 40
11.49884787093585
 40
11.54127197207306
 40
11.58364992781689
 40
11.58364992781689
 40
11.58364992781689
 40
11.58364992781689
 10
117.7632046061214
 20
239.5132171208441
 30
0.0
 10
117.7772344676079
 20
239.5115693022507
 30
0.0
 10
117.80530946771
 20
239.5082718707528
 30
0.0
 10
117.9297416646455
 20
239.4957914834122
 30
0.0
 10
118.137572591709
 20
239.4858832554519
 30
0.0
 10
118.4282409803549
 20
239.4996745494841
 30
0.0
 10
118.7166126618889
 20
239.540362663745
 30
0.0
 10
119.0006918874327
 20
239.6081914088753
 30
0.0
 10
119.2779176772506
 20
239.7020459100488
 30
0.0
 10
119.5466804133437
 20
239.8218421138905
 30
0.0
 10
119.8043229971732
 20
239.965917579616
 30
0.0
 10
120.0495506988264
 20
240.1339761074287
 30
0.0
 10
120.2798138504962
 20
240.3238130279231
 30
0.0
 10
120.4940461141498
 20
240.5349485667406
 30
0.0
 10
120.6900005279881
 20
240.7647283302691
 30
0.0
 10
120.8667578756528
 20
241.0124568193791
 30
0.0
 10
121.0225287085424
 20
241.2751890708895
 30
0.0
 10
121.1564971262171
 20
241.5519400793854
 30
0.0
 10
121.2674201574327
 20
241.8396720579996
 30
0.0
 10
121.3545969498331
 20
242.1370255041937
 30
0.0
 10
121.4173449599259
 20
242.4410715003989
 30
0.0
 10
121.4551453391429
 20
242.7500130961369
 30
0.0
 10
121.467822412632
 20
243.0612027014444
 30
0.0
 10
121.4551453391429
 20
243.372392306752
 30
0.0
 10
121.4173449599259
 20
243.68133390249
 30
0.0
 10
121.3545969498332
 20
243.9853798986951
 30
0.0
 10
121.2674201574329
 20
244.2827333448894
 30
0.0
 10
121.1564971262171
 20
244.5704653235036
 30
0.0
 10
121.0225287085424
 20
244.8472163319994
 30
0.0
 10
120.8667578756529
 20
245.10994858351
 30
0.0
 10
120.6900005279883
 20
245.3576770726199
 30
0.0
 10
120.4940461141498
 20
245.5874568361481
 30
0.0
 10
120.2798138504963
 20
245.7985923749658
 30
0.0
 10
120.0495506988264
 20
245.98842929546
 30
0.0
 10
119.8043229971731
 20
246.156487823273
 30
0.0
 10
119.5466804133436
 20
246.3005632889984
 30
0.0
 10
119.2779176772506
 20
246.4203594928401
 30
0.0
 10
119.0006918874328
 20
246.5142139940137
 30
0.0
 10
118.7166126618889
 20
246.5820427391439
 30
0.0
 10
118.4282409803549
 20
246.6227308534049
 30
0.0
 10
118.137572591709
 20
246.6365221474368
 30
0.0
 10
117.9297416646455
 20
246.6266139194772
 30
0.0
 10
117.8053094677101
 20
246.614133532136
 30
0.0
 10
117.7772344676081
 20
246.6108361006382
 30
0.0
 10
117.7632046061214
 20
246.6091882820448
 30
0.0
 11
117.7632046061214
 21
239.5132171208441
 31
0.0
 11
117.805307045857
 21
239.5083926311001
 31
0.0
 11
117.8475168046111
 21
239.5041334500432
 31
0.0
 11
118.137560259386
 21
239.490488487173
 31
0.0
 11
118.4276037141609
 21
239.5041334500432
 31
0.0
 11
118.7157632104596
 21
239.5448574231296
 31
0.0
 11
118.9988454168664
 21
239.6123262931949
 31
0.0
 11
119.2762694594329
 21
239.7062738218334
 31
0.0
 11
119.5438312115737
 21
239.8253896956329
 31
0.0
 11
119.8019635803099
 21
239.9697328250895
 31
0.0
 11
120.0459762329426
 21
240.1367929955056
 31
0.0
 11
120.2768557384922
 21
240.3271040271055
 31
0.0
 11
120.4900310334624
 21
240.5370150014616
 31
0.0
 11
120.6865653574868
 21
240.7674189845873
 31
0.0
 11
120.8625388933021
 21
241.0138507072759
 31
0.0
 11
121.018736033788
 21
241.277232944113
 31
0.0
 11
121.152231721764
 21
241.5527920768917
 31
0.0
 11
121.2633816473305
 21
241.8410439977884
 31
0.0
 11
121.3503583013645
 21
242.1374704758295
 31
0.0
 11
121.4131633756914
 21
242.4417596683722
 31
0.0
 11
121.4509387373663
 21
242.7501494842933
 31
0.0
 11
121.463593933581
 21
243.0612027014444
 31
0.0
 11
121.4509387373663
 21
243.3722559185956
 31
0.0
 11
121.4131633756914
 21
243.6806457345167
 31
0.0
 11
121.3503583013646
 21
243.9849349270594
 31
0.0
 11
121.2633816473306
 21
244.2813614051005
 31
0.0
 11
121.1522317217641
 21
244.5696133259972
 31
0.0
 11
121.018736033788
 21
244.845172458776
 31
0.0
 11
120.8625388933022
 21
245.1085546956131
 31
0.0
 11
120.6865653574869
 21
245.3549864183016
 31
0.0
 11
120.4900310334625
 21
245.5853904014272
 31
0.0
 11
120.2768557384923
 21
245.7953013757833
 31
0.0
 11
120.0459762329426
 21
245.9856124073833
 31
0.0
 11
119.8019635803098
 21
246.1526725777994
 31
0.0
 11
119.5438312115736
 21
246.2970157072559
 31
0.0
 11
119.2762694594329
 21
246.4161315810555
 31
0.0
 11
118.9988454168665
 21
246.510079109694
 31
0.0
 11
118.7157632104597
 21
246.5775479797593
 31
0.0
 11
118.4276037141609
 21
246.6182719528457
 31
0.0
 11
118.1375602593859
 21
246.6319169157159
 31
0.0
 11
117.847516804611
 21
246.6182719528458
 31
0.0
 11
117.8053070458576
 21
246.6140127717889
 31
0.0
 11
117.7632046061214
 21
246.6091882820448
 31
0.0
  0
ARC
  5
E1
330
39
100
AcDbEntity
  8
1
  6
Continuous
 62
     7
100
AcDbCircle
 10
399.3855774929989
 20
247.9187396660032
 30
0.0
 40
1.000000000000011
100
AcDbArc
 50
137.058597135121
 51
149.9999999999978
  0
ARC
  5
E2
330
39
100
AcDbEntity
  8
1
  6
Continuous
 62
     7
100
AcDbCircle
 10
397.65352668543
 20
248.9187396660032
 30
0.0
 40
1.0
100
AcDbArc
 50
-90.0
 51
-29.99999999999729
  0
ARC
  5
E3
330
39
100
AcDbEntity
  8
1
  6
Continuous
 62
     7
100
AcDbCircle
 10
399.3855774929989
 20
247.9187396660032
 30
0.0
 40
1.0
100
AcDbArc
 50
90.0
 51
137.058597135121
  0
ARC
  5
E4
330
39
100
AcDbEntity
  8
1
  6
Continuous
 62
     7
100
AcDbCircle
 10
397.5955056236994
 20
246.9187396660032
 30
0.0
 40
1.0
100
AcDbArc
 50
90.0
 51
105.3375576695508
  0
ARC
  5
E5
330
39
100
AcDbEntity
  8
1
  6
Continuous
 62
     7
100
AcDbCircle
 10
418.9214758778611
 20
247.9187396660032
 30
0.0
 40
1.000000000000033
100
AcDbArc
 50
29.99999999999892
 51
42.94140286487899
  0
ARC
  5
E6
330
39
100
AcDbEntity
  8
1
  6
Continuous
 62
     7
100
AcDbCircle
 10
420.65352668543
 20
248.9187396660032
 30
0.0
 40
0.9999999999999836
100
AcDbArc
 50
-149.9999999999995
 51
-90.0
  0
ARC
  5
E7
330
39
100
AcDbEntity
  8
1
  6
Continuous
 62
     7
100
AcDbCircle
 10
418.9214758778611
 20
247.9187396660032
 30
0.0
 40
1.000000000000011
100
AcDbArc
 50
42.94140286487899
 51
90.0
  0
ARC
  5
E8
330
39
100
AcDbEntity
  8
1
  6
Continuous
 62
     7
100
AcDbCircle
 10
420.7115477471606
 20
246.9187396660032
 30
0.0
 40
1.000000000000081
100
AcDbArc
 50
74.66244233044924
 51
90.0
  0
ENDBLK
  5
3B
330
39
100
AcDbEntity
  8
0
100
AcDbBlockEnd
  0
BLOCK
  5
3D
330
3C
100
AcDbEntity
  8
0
100
AcDbBlockBegin
  2
61-2-170
 70
     0
 71
     0
 10
123.1788421641323
 20
154.2303432765748
 30
0.0
  3
61-2-170
  1

  0
LINE
  5
E9
330
3C
100
AcDbEntity
  8
1
  6
Continuous
 62
     7
100
AcDbLine
 10
95.6902046061215
 20
254.4187396660032
 30
0.0
 11
116.3362046061214
 21
254.4187396660032
 31
0.0
  0
LINE
  5
EA
330
3C
100
AcDbEntity
  8
1
  6
Continuous
 62
     7
100
AcDbLine
 10
114.3383552091385
 20
257.9187396660032
 30
0.0
 11
98.18864430738969
 21
257.9187396660032
 31
0.0
  0
LINE
  5
EB
330
3C
100
AcDbEntity
  8
1
  6
Continuous
 62
     7
100
AcDbLine
 10
115.0132046061214
 20
257.9187396660032
 30
0.0
 11
114.3383552091385
 21
257.9187396660032
 31
0.0
  0
LINE
  5
EC
330
3C
100
AcDbEntity
  8
1
  6
Continuous
 62
     7
100
AcDbLine
 10
117.0132046061215
 20
254.1187396660031
 30
0.0
 11
117.0132046061214
 21
254.4187396660032
 31
0.0
  0
LINE
  5
ED
330
3C
100
AcDbEntity
  8
1
  6
Continuous
 62
     7
100
AcDbLine
 10
95.01320460612141
 20
254.4187396660032
 30
0.0
 11
95.01320460612151
 21
254.1187396660031
 31
0.0
  0
LINE
  5
EE
330
3C
100
AcDbEntity
  8
1
  6
Continuous
 62
     7
100
AcDbLine
 10
98.18864430738969
 20
257.9187396660032
 30
0.0
 11
97.01320460612141
 21
257.9187396660032
 31
0.0
  0
LINE
  5
EF
330
3C
100
AcDbEntity
  8
1
  6
Continuous
 62
     7
100
AcDbLine
 10
117.0132046061214
 20
254.4187396660032
 30
0.0
 11
116.3362046061214
 21
254.4187396660032
 31
0.0
  0
LINE
  5
F0
330
3C
100
AcDbEntity
  8
1
  6
Continuous
 62
     2
100
AcDbLine
 10
116.3362046061213
 20
254.1187396660031
 30
0.0
 11
116.3362046061214
 21
254.9106402422065
 31
0.0
  0
LINE
  5
F1
330
3C
100
AcDbEntity
  8
1
  6
Continuous
 62
     7
100
AcDbLine
 10
95.01320460612141
 20
254.4187396660032
 30
0.0
 11
95.6902046061215
 21
254.4187396660032
 31
0.0
  0
LINE
  5
F2
330
3C
100
AcDbEntity
  8
1
  6
Continuous
 62
     2
100
AcDbLine
 10
95.6902046061215
 20
254.9106402422065
 30
0.0
 11
95.6902046061214
 21
254.1187396660031
 31
0.0
  0
LINE
  5
F3
330
3C
100
AcDbEntity
  8
1
  6
PHANTOM
 62
     4
100
AcDbLine
 10
95.4999841967623
 20
281.4187396660033
 30
0.0
 11
116.905920614549
 21
281.4187396660033
 31
0.0
  0
LINE
  5
F4
330
3C
100
AcDbEntity
  8
1
  6
Continuous
 62
     7
100
AcDbLine
 10
98.01320460612141
 20
257.9187396660033
 30
0.0
 11
98.01320460612141
 21
281.4187396660032
 31
0.0
  0
LINE
  5
F5
330
3C
100
AcDbEntity
  8
1
  6
Continuous
 62
     7
100
AcDbLine
 10
114.0132046061214
 20
257.9187396660032
 30
0.0
 11
114.0132046061214
 21
281.4187396660032
 31
0.0
  0
LINE
  5
F6
330
3C
100
AcDbEntity
  8
1
  6
PHANTOM
 62
     4
100
AcDbLine
 10
119.5390106313683
 20
353.9857999343955
 30
0.0
 11
92.9586294342693
 21
353.9857999343955
 31
0.0
  0
LINE
  5
F7
330
3C
100
AcDbEntity
  8
1
  6
Continuous
 62
     7
100
AcDbLine
 10
98.01320460612151
 20
523.9857999343956
 30
0.0
 11
98.01320460612151
 21
353.9857999343955
 31
0.0
  0
LINE
  5
F8
330
3C
100
AcDbEntity
  8
1
  6
Continuous
 62
     7
100
AcDbLine
 10
114.0132046061215
 20
523.9857999343956
 30
0.0
 11
114.0132046061215
 21
353.9857999343955
 31
0.0
  0
LINE
  5
F9
330
3C
100
AcDbEntity
  8
1
  6
Continuous
 62
     7
100
AcDbLine
 10
228.8305266854301
 20
254.4187396660032
 30
0.0
 11
249.47652668543
 21
254.4187396660032
 31
0.0
  0
LINE
  5
FA
330
3C
100
AcDbEntity
  8
1
  6
Continuous
 62
     7
100
AcDbLine
 10
247.4786772884471
 20
257.9187396660032
 30
0.0
 11
231.3289663866983
 21
257.9187396660032
 31
0.0
  0
LINE
  5
FB
330
3C
100
AcDbEntity
  8
1
  6
Continuous
 62
     7
100
AcDbLine
 10
401.15352668543
 20
248.9187396660032
 30
0.0
 11
401.15352668543
 21
254.4187396660032
 31
0.0
  0
LINE
  5
FC
330
3C
100
AcDbEntity
  8
1
  6
Continuous
 62
     7
100
AcDbLine
 10
417.15352668543
 20
254.4187396660032
 30
0.0
 11
417.15352668543
 21
248.9187396660032
 31
0.0
  0
LINE
  5
FD
330
3C
100
AcDbEntity
  8
1
  6
Continuous
 62
     7
100
AcDbLine
 10
266.1535266854301
 20
273.4187396660033
 30
0.0
 11
382.15352668543
 21
273.4187396660033
 31
0.0
  0
LINE
  5
FE
330
3C
100
AcDbEntity
  8
1
  6
Continuous
 62
     7
100
AcDbLine
 10
266.1535266854301
 20
289.4187396660029
 30
0.0
 11
382.15352668543
 21
289.4187396660033
 31
0.0
  0
LINE
  5
FF
330
3C
100
AcDbEntity
  8
1
  6
Continuous
 62
     7
100
AcDbLine
 10
248.15352668543
 20
257.9187396660032
 30
0.0
 11
247.4786772884471
 21
257.9187396660032
 31
0.0
  0
LINE
  5
100
330
3C
100
AcDbEntity
  8
1
  6
Continuous
 62
     7
100
AcDbLine
 10
250.1535266854301
 20
254.1187396660031
 30
0.0
 11
250.15352668543
 21
254.4187396660032
 31
0.0
  0
LINE
  5
101
330
3C
100
AcDbEntity
  8
1
  6
Continuous
 62
     7
100
AcDbLine
 10
228.15352668543
 20
254.4187396660032
 30
0.0
 11
228.1535266854301
 21
254.1187396660031
 31
0.0
  0
LINE
  5
102
330
3C
100
AcDbEntity
  8
1
  6
Continuous
 62
     7
100
AcDbLine
 10
231.3289663866983
 20
257.9187396660032
 30
0.0
 11
230.15352668543
 21
257.9187396660032
 31
0.0
  0
LINE
  5
103
330
3C
100
AcDbEntity
  8
1
  6
Continuous
 62
     7
100
AcDbLine
 10
250.15352668543
 20
254.4187396660032
 30
0.0
 11
249.47652668543
 21
254.4187396660032
 31
0.0
  0
LINE
  5
104
330
3C
100
AcDbEntity
  8
1
  6
Continuous
 62
     2
100
AcDbLine
 10
249.4765266854299
 20
254.1187396660031
 30
0.0
 11
249.47652668543
 21
254.9106402422065
 31
0.0
  0
LINE
  5
105
330
3C
100
AcDbEntity
  8
1
  6
Continuous
 62
     7
100
AcDbLine
 10
228.15352668543
 20
254.4187396660032
 30
0.0
 11
228.8305266854301
 21
254.4187396660032
 31
0.0
  0
LINE
  5
106
330
3C
100
AcDbEntity
  8
1
  6
Continuous
 62
     2
100
AcDbLine
 10
228.8305266854301
 20
254.9106402422065
 30
0.0
 11
228.83052668543
 21
254.1187396660031
 31
0.0
  0
ARC
  5
107
330
3C
100
AcDbEntity
  8
1
  6
Continuous
 62
     2
100
AcDbCircle
 10
106.0132046061215
 20
353.9857999343955
 30
0.0
 40
10.32299999999977
100
AcDbArc
 50
140.80217829541
 51
39.19782170458995
  0
ARC
  5
108
330
3C
100
AcDbEntity
  8
1
  6
Continuous
 62
     7
100
AcDbCircle
 10
106.0132046061215
 20
353.9857999343955
 30
0.0
 40
8.999999999999815
100
AcDbArc
 50
152.7339555492695
 51
27.26604445073053
  0
ARC
  5
109
330
3C
100
AcDbEntity
  8
1
  6
Continuous
 62
     7
100
AcDbCircle
 10
119.0130443454306
 20
257.8829338027513
 30
0.0
 40
4.000000000000139
100
AcDbArc
 50
-132.0061164455981
 51
-119.9973493449087
  0
ARC
  5
10A
330
3C
100
AcDbEntity
  8
1
  6
Continuous
 62
     7
100
AcDbCircle
 10
93.0133648668123
 20
257.8829338027513
 30
0.0
 40
3.999999999999997
100
AcDbArc
 50
-60.00265065509239
 51
-47.99388355440194
  0
ARC
  5
10B
330
3C
100
AcDbEntity
  8
1
  6
Continuous
 62
     7
100
AcDbCircle
 10
119.9974084416784
 20
258.315869525897
 30
0.0
 40
5.000000000000036
100
AcDbArc
 50
-175.4444286404425
 51
-137.0745758663644
  0
ARC
  5
10C
330
3C
100
AcDbEntity
  8
1
  6
Continuous
 62
     7
100
AcDbCircle
 10
92.02900077056449
 20
258.315869525897
 30
0.0
 40
5.000000000000075
100
AcDbArc
 50
-42.92542413363563
 51
-4.55557135955753
  0
ARC
  5
10D
330
3C
100
AcDbEntity
  8
1
  6
Continuous
 62
     7
100
AcDbCircle
 10
106.0132046061214
 20
523.9857999343956
 30
0.0
 40
8.0000000000001
100
AcDbArc
 50
0.0
 51
180.0
  0
ARC
  5
10E
330
3C
100
AcDbEntity
  8
1
  6
Continuous
 62
     7
100
AcDbCircle
 10
106.0132046061214
 20
281.4187396660032
 30
0.0
 40
8.0
100
AcDbArc
 50
0.0
 51
180.0
  0
ARC
  5
10F
330
3C
100
AcDbEntity
  8
1
  6
Continuous
 62
     7
100
AcDbCircle
 10
106.0132046061215
 20
353.9857999343955
 30
0.0
 40
8.0
100
AcDbArc
 50
180.0
 51
0.0
  0
ARC
  5
110
330
3C
100
AcDbEntity
  8
1
  6
Continuous
 62
     7
100
AcDbCircle
 10
382.15352668543
 20
254.4187396660032
 30
0.0
 40
35.0
100
AcDbArc
 50
0.0
 51
90.0
  0
ARC
  5
111
330
3C
100
AcDbEntity
  8
1
  6
Continuous
 62
     7
100
AcDbCircle
 10
382.15352668543
 20
254.4187396660032
 30
0.0
 40
19.0
100
AcDbArc
 50
0.0
 51
90.0
  0
ARC
  5
112
330
3C
100
AcDbEntity
  8
1
  6
Continuous
 62
     7
100
AcDbCircle
 10
266.1535266854301
 20
254.4187396660032
 30
0.0
 40
34.99999999999972
100
AcDbArc
 50
90.0
 51
174.2608295227333
  0
ARC
  5
113
330
3C
100
AcDbEntity
  8
1
  6
Continuous
 62
     7
100
AcDbCircle
 10
266.1535266854301
 20
254.4187396660032
 30
0.0
 40
19.00000000000011
100
AcDbArc
 50
90.0
 51
169.384892149292
  0
ARC
  5
114
330
3C
100
AcDbEntity
  8
1
  6
Continuous
 62
     7
100
AcDbCircle
 10
252.1533664247392
 20
257.8829338027513
 30
0.0
 40
4.000000000000139
100
AcDbArc
 50
-132.0061164455981
 51
-119.9973493449089
  0
ARC
  5
115
330
3C
100
AcDbEntity
  8
1
  6
Continuous
 62
     7
100
AcDbCircle
 10
226.1536869461209
 20
257.8829338027513
 30
0.0
 40
3.99999999999999
100
AcDbArc
 50
-60.00265065509257
 51
-47.99388355440194
  0
ARC
  5
116
330
3C
100
AcDbEntity
  8
1
  6
Continuous
 62
     7
100
AcDbCircle
 10
253.137730520987
 20
258.315869525897
 30
0.0
 40
5.000000000000036
100
AcDbArc
 50
-175.4444286404425
 51
-137.0745758663643
  0
ARC
  5
117
330
3C
100
AcDbEntity
  8
1
  6
Continuous
 62
     7
100
AcDbCircle
 10
225.1693228498731
 20
258.315869525897
 30
0.0
 40
5.000000000000064
100
AcDbArc
 50
-42.92542413363574
 51
-4.55557135955756
  0
ENDBLK
  5
3E
330
3C
100
AcDbEntity
  8
0
100
AcDbBlockEnd
  0
BLOCK
  5
40
330
3F
100
AcDbEntity
  8
0
100
AcDbBlockBegin
  2
30-1-13
 70
     0
 71
     0
 10
50.37930677142032
 20
355.7060101918871
 30
0.0
  3
30-1-13
  1

  0
LINE
  5
118
330
3F
100
AcDbEntity
  8
1
  6
Continuous
 62
     7
100
AcDbLine
 10
94.26320460612141
 20
239.1187396660031
 30
0.0
 11
117.7632046061214
 21
239.1187396660031
 31
0.0
  0
LINE
  5
119
330
3F
100
AcDbEntity
  8
1
  6
Continuous
 62
     7
100
AcDbLine
 10
94.26320460612131
 20
253.918739666003
 30
0.0
 11
94.46320460612139
 21
254.1187396660031
 31
0.0
  0
LINE
  5
11A
330
3F
100
AcDbEntity
  8
1
  6
Continuous
 62
     7
100
AcDbLine
 10
94.26320460612131
 20
253.918739666003
 30
0.0
 11
94.26320460612141
 21
239.1187396660031
 31
0.0
  0
LINE
  5
11B
330
3F
100
AcDbEntity
  8
1
  6
Continuous
 62
     7
100
AcDbLine
 10
94.46320460612139
 20
254.1187396660031
 30
0.0
 11
117.5632046061214
 21
254.1187396660031
 31
0.0
  0
LINE
  5
11C
330
3F
100
AcDbEntity
  8
1
  6
Continuous
 62
     7
100
AcDbLine
 10
117.5632046061214
 20
254.1187396660031
 30
0.0
 11
117.7632046061214
 21
253.9187396660032
 31
0.0
  0
LINE
  5
11D
330
3F
100
AcDbEntity
  8
1
  6
Continuous
 62
     7
100
AcDbLine
 10
117.7632046061214
 20
239.1187396660031
 30
0.0
 11
117.7632046061214
 21
253.9187396660032
 31
0.0
  0
LINE
  5
11E
330
3F
100
AcDbEntity
  8
1
  6
Continuous
 62
     7
100
AcDbLine
 10
95.3632046061215
 20
237.1187396660031
 30
0.0
 11
116.6632046061214
 21
237.1187396660033
 31
0.0
  0
LINE
  5
11F
330
3F
100
AcDbEntity
  8
1
  6
Continuous
 62
     7
100
AcDbLine
 10
227.40352668543
 20
239.1187396660031
 30
0.0
 11
250.90352668543
 21
239.1187396660031
 31
0.0
  0
LINE
  5
120
330
3F
100
AcDbEntity
  8
1
  6
Continuous
 62
     7
100
AcDbLine
 10
227.4035266854299
 20
253.918739666003
 30
0.0
 11
227.60352668543
 21
254.1187396660031
 31
0.0
  0
LINE
  5
121
330
3F
100
AcDbEntity
  8
1
  6
Continuous
 62
     7
100
AcDbLine
 10
227.4035266854299
 20
253.918739666003
 30
0.0
 11
227.40352668543
 21
239.1187396660031
 31
0.0
  0
LINE
  5
122
330
3F
100
AcDbEntity
  8
1
  6
Continuous
 62
     7
100
AcDbLine
 10
227.60352668543
 20
254.1187396660031
 30
0.0
 11
250.70352668543
 21
254.1187396660031
 31
0.0
  0
LINE
  5
123
330
3F
100
AcDbEntity
  8
1
  6
Continuous
 62
     7
100
AcDbLine
 10
250.70352668543
 20
254.1187396660031
 30
0.0
 11
250.90352668543
 21
253.9187396660032
 31
0.0
  0
LINE
  5
124
330
3F
100
AcDbEntity
  8
1
  6
Continuous
 62
     7
100
AcDbLine
 10
250.90352668543
 20
239.1187396660031
 30
0.0
 11
250.90352668543
 21
253.9187396660032
 31
0.0
  0
LINE
  5
125
330
3F
100
AcDbEntity
  8
1
  6
Continuous
 62
     7
100
AcDbLine
 10
228.5035266854301
 20
237.1187396660031
 30
0.0
 11
249.80352668543
 21
237.1187396660033
 31
0.0
  0
ARC
  5
126
330
3F
100
AcDbEntity
  8
1
  6
Continuous
 62
     7
100
AcDbCircle
 10
106.0132046061215
 20
353.9857999343955
 30
0.0
 40
11.74999999999982
100
AcDbArc
 50
132.9101840216768
 51
47.08981597832324
  0
ARC
  5
127
330
3F
100
AcDbEntity
  8
1
  6
Continuous
 62
     7
100
AcDbCircle
 10
108.7969489389608
 20
245.8097990490647
 30
0.0
 40
15.99999999999993
100
AcDbArc
 50
-155.2795563279593
 51
-147.0988561860948
  0
ARC
  5
128
330
3F
100
AcDbEntity
  8
1
  6
Continuous
 62
     7
100
AcDbCircle
 10
103.2294602732819
 20
245.8097990490647
 30
0.0
 40
15.9999999999999
100
AcDbArc
 50
-32.90114381390423
 51
-24.72044367204051
  0
ARC
  5
129
330
3F
100
AcDbEntity
  8
1
  6
Continuous
 62
     7
100
AcDbCircle
 10
241.9372710182694
 20
245.8097990490647
 30
0.0
 40
15.99999999999994
100
AcDbArc
 50
-155.2795563279593
 51
-147.0988561860948
  0
ARC
  5
12A
330
3F
100
AcDbEntity
  8
1
  6
Continuous
 62
     7
100
AcDbCircle
 10
236.3697823525905
 20
245.8097990490647
 30
0.0
 40
15.9999999999999
100
AcDbArc
 50
-32.90114381390423
 51
-24.72044367204053
  0
ENDBLK
  5
41
330
3F
100
AcDbEntity
  8
0
100
AcDbBlockEnd
  0
BLOCK
  5
46
330
42
100
AcDbEntity
  8
0
100
AcDbBlockBegin
  2
A20JH-60X
 70
     0
 71
     0
 10
-77.05443145944082
 20
184.0575356313725
 30
0.0
  3
A20JH-60X
  1

  0
INSERT
  5
43
330
42
100
AcDbEntity
  8
0
100
AcDbBlockReference
  2
32-1-16
 10
214.80048271263
 20
471.9536509086066
 30
0.0
  0
INSERT
  5
44
330
42
100
AcDbEntity
  8
1
100
AcDbBlockReference
  2
61-2-170
 10
123.1788421641323
 20
154.2303432765748
 30
0.0
  0
INSERT
  5
45
330
42
100
AcDbEntity
  8
1
100
AcDbBlockReference
  2
30-1-13
 10
50.37930677142032
 20
355.7060101918871
 30
0.0
  0
LINE
  5
12B
330
42
100
AcDbEntity
  8
1
  6
PHANTOM
 62
     4
100
AcDbLine
 10
409.1535266854299
 20
253.4187396660032
 30
0.0
 11
409.15352668543
 21
254.4187396660032
 31
0.0
  0
LINE
  5
12C
330
42
100
AcDbEntity
  8
1
  6
PHANTOM
 62
     4
100
AcDbLine
 10
266.1535266854301
 20
281.4187396660033
 30
0.0
 11
382.15352668543
 21
281.4187396660033
 31
0.0
  0
LINE
  5
12D
330
42
100
AcDbEntity
  8
1
  6
PHANTOM
 62
     4
100
AcDbLine
 10
106.0132046061214
 20
292.5702206587234
 30
0.0
 11
106.0132046061214
 21
231.418739666003
 31
0.0
  0
LINE
  5
12E
330
42
100
AcDbEntity
  8
1
  6
PHANTOM
 62
     4
100
AcDbLine
 10
239.15352668543
 20
235.3498678684771
 30
0.0
 11
239.15352668543
 21
254.4187396660032
 31
0.0
  0
ARC
  5
12F
330
42
100
AcDbEntity
  8
1
  6
PHANTOM
 62
     4
100
AcDbCircle
 10
382.15352668543
 20
254.4187396660032
 30
0.0
 40
27.0
100
AcDbArc
 50
0.0
 51
90.0
  0
ARC
  5
130
330
42
100
AcDbEntity
  8
1
  6
PHANTOM
 62
     4
100
AcDbCircle
 10
266.1535266854301
 20
254.4187396660032
 30
0.0
 40
27.00000000000011
100
AcDbArc
 50
90.0
 51
180.0
  0
ENDBLK
  5
47
330
42
100
AcDbEntity
  8
0
100
AcDbBlockEnd
  0
BLOCK
  5
49
330
48
100
AcDbEntity
  8
0
100
AcDbBlockBegin
  2
A20-0-13
 70
     0
 71
     0
 10
149.0132046061214
 20
190.9187396660029
 30
0.0
  3
A20-0-13
  1

  0
LINE
  5
131
330
48
100
AcDbEntity
  8
1
  6
Continuous
 62
     7
100
AcDbLine
 10
447.6535266854299
 20
205.1687396660032
 30
0.0
 11
435.4655717422572
 21
205.1687396660032
 31
0.0
  0
LINE
  5
132
330
48
100
AcDbEntity
  8
1
  6
Continuous
 62
     7
100
AcDbLine
 10
402.5399458143228
 20
237.4187396660032
 30
0.0
 11
396.1535266854299
 21
237.4187396660032
 31
0.0
  0
LINE
  5
133
330
48
100
AcDbEntity
  8
1
  6
Continuous
 62
     7
100
AcDbLine
 10
455.8855774929988
 20
203.4187396660032
 30
0.0
 11
455.8855774929988
 21
204.4187396660032
 31
0.0
  0
LINE
  5
134
330
48
100
AcDbEntity
  8
1
  6
Continuous
 62
     7
100
AcDbLine
 10
467.1535266854299
 20
203.4187396660032
 30
0.0
 11
454.1535266854299
 21
203.4187396660031
 31
0.0
  0
LINE
  5
135
330
48
100
AcDbEntity
  8
1
  6
Continuous
 62
     7
100
AcDbLine
 10
454.1535266854299
 20
224.4187396660032
 30
0.0
 11
467.1535266854299
 21
224.4187396660032
 31
0.0
  0
LINE
  5
136
330
48
100
AcDbEntity
  8
1
  6
Continuous
 62
     7
100
AcDbLine
 10
468.1535266854299
 20
223.4187396660032
 30
0.0
 11
467.1535266854299
 21
224.4187396660032
 31
0.0
  0
LINE
  5
137
330
48
100
AcDbEntity
  8
1
  6
Continuous
 62
     7
100
AcDbLine
 10
455.8855774929988
 20
223.4187396660032
 30
0.0
 11
455.8855774929988
 21
224.4187396660032
 31
0.0
  0
LINE
  5
138
330
48
100
AcDbEntity
  8
1
  6
Continuous
 62
     7
100
AcDbLine
 10
467.1535266854299
 20
224.4187396660032
 30
0.0
 11
467.1535266854299
 21
223.4187396660032
 31
0.0
  0
LINE
  5
139
330
48
100
AcDbEntity
  8
1
  6
Continuous
 62
     7
100
AcDbLine
 10
467.1535266854299
 20
204.4187396660032
 30
0.0
 11
467.1535266854299
 21
203.4187396660032
 31
0.0
  0
LINE
  5
13A
330
48
100
AcDbEntity
  8
1
  6
Continuous
 62
     7
100
AcDbLine
 10
467.1535266854299
 20
203.4187396660032
 30
0.0
 11
468.1535266854299
 21
204.4187396660032
 31
0.0
  0
LINE
  5
13B
330
48
100
AcDbEntity
  8
1
  6
Continuous
 62
     7
100
AcDbLine
 10
468.1535266854299
 20
223.4187396660032
 30
0.0
 11
468.1535266854299
 21
204.4187396660032
 31
0.0
  0
LINE
  5
13C
330
48
100
AcDbEntity
  8
1
  6
Continuous
 62
     7
100
AcDbLine
 10
422.1535266854299
 20
235.6866888584343
 30
0.0
 11
422.1535266854299
 21
238.9187396660032
 31
0.0
  0
LINE
  5
13D
330
48
100
AcDbEntity
  8
1
  6
Continuous
 62
     7
100
AcDbLine
 10
422.1535266854299
 20
237.4187396660032
 30
0.0
 11
415.7671075565371
 21
237.4187396660032
 31
0.0
  0
LINE
  5
13E
330
48
100
AcDbEntity
  8
1
  6
Continuous
 62
     7
100
AcDbLine
 10
396.1535266854299
 20
238.9187396660032
 30
0.0
 11
396.1535266854299
 21
223.246118719092
 31
0.0
  0
LINE
  5
13F
330
48
100
AcDbEntity
  8
1
  6
Continuous
 62
     7
100
AcDbLine
 10
422.1535266854299
 20
235.6866888584343
 30
0.0
 11
422.1535266854299
 21
234.6687396660032
 31
0.0
  0
LINE
  5
140
330
48
100
AcDbEntity
  8
1
  6
Continuous
 62
     2
100
AcDbLine
 10
397.1535266854299
 20
237.4187396660032
 30
0.0
 11
397.1535266854299
 21
238.9187396660033
 31
0.0
  0
LINE
  5
141
330
48
100
AcDbEntity
  8
1
  6
Continuous
 62
     2
100
AcDbLine
 10
397.1535266854299
 20
237.4187396660032
 30
0.0
 11
396.1535266854299
 21
235.6866888584343
 31
0.0
  0
LINE
  5
142
330
48
100
AcDbEntity
  8
1
  6
Continuous
 62
     2
100
AcDbLine
 10
422.1535266854299
 20
235.6866888584343
 30
0.0
 11
421.1535266854299
 21
237.4187396660032
 31
0.0
  0
LINE
  5
143
330
48
100
AcDbEntity
  8
1
  6
Continuous
 62
     7
100
AcDbLine
 10
451.6535266854299
 20
226.6687396660032
 30
0.0
 11
451.6535266854299
 21
236.4187396660032
 31
0.0
  0
LINE
  5
144
330
48
100
AcDbEntity
  8
1
  6
Continuous
 62
     7
100
AcDbLine
 10
447.6535266854299
 20
222.6687396660032
 30
0.0
 11
434.1535266854299
 21
222.6687396660032
 31
0.0
  0
LINE
  5
145
330
48
100
AcDbEntity
  8
1
  6
Continuous
 62
     2
100
AcDbLine
 10
455.8855774929988
 20
223.4187396660032
 30
0.0
 11
468.1535266854299
 21
223.4187396660032
 31
0.0
  0
LINE
  5
146
330
48
100
AcDbEntity
  8
1
  6
Continuous
 62
     2
100
AcDbLine
 10
454.1535266854299
 20
224.4187396660032
 30
0.0
 11
455.8855774929988
 21
223.4187396660032
 31
0.0
  0
LINE
  5
147
330
48
100
AcDbEntity
  8
1
  6
Continuous
 62
     7
100
AcDbLine
 10
454.1535266854299
 20
236.9187396660032
 30
0.0
 11
454.1535266854299
 21
224.4187396660032
 31
0.0
  0
LINE
  5
148
330
48
100
AcDbEntity
  8
1
  6
Continuous
 62
     7
100
AcDbLine
 10
454.1535266854299
 20
236.9187396660032
 30
0.0
 11
452.1535266854299
 21
236.9187396660032
 31
0.0
  0
LINE
  5
149
330
48
100
AcDbEntity
  8
1
  6
Continuous
 62
     2
100
AcDbLine
 10
468.1535266854299
 20
204.4187396660032
 30
0.0
 11
455.8855774929988
 21
204.4187396660032
 31
0.0
  0
LINE
  5
14A
330
48
100
AcDbEntity
  8
1
  6
Continuous
 62
     7
100
AcDbLine
 10
451.6535266854299
 20
191.4187396660032
 30
0.0
 11
451.6535266854299
 21
201.1687396660032
 31
0.0
  0
LINE
  5
14B
330
48
100
AcDbEntity
  8
1
  6
Continuous
 62
     7
100
AcDbLine
 10
452.1535266854299
 20
190.9187396660032
 30
0.0
 11
454.1535266854299
 21
190.9187396660032
 31
0.0
  0
LINE
  5
14C
330
48
100
AcDbEntity
  8
1
  6
Continuous
 62
     7
100
AcDbLine
 10
454.1535266854299
 20
203.4187396660031
 30
0.0
 11
454.1535266854299
 21
190.9187396660032
 31
0.0
  0
LINE
  5
14D
330
48
100
AcDbEntity
  8
1
  6
Continuous
 62
     2
100
AcDbLine
 10
455.8855774929988
 20
204.4187396660032
 30
0.0
 11
454.1535266854299
 21
203.4187396660031
 31
0.0
  0
LINE
  5
14E
330
48
100
AcDbEntity
  8
1
  6
Continuous
 62
     2
100
AcDbLine
 10
421.1535266854299
 20
238.9187396660032
 30
0.0
 11
421.1535266854299
 21
237.4187396660032
 31
0.0
  0
LINE
  5
14F
330
48
100
AcDbEntity
  8
1
  6
Continuous
 62
     7
100
AcDbLine
 10
451.6535266854299
 20
226.6687396660032
 30
0.0
 11
451.6535266854299
 21
201.1687396660032
 31
0.0
  0
LINE
  5
150
330
48
100
AcDbEntity
  8
1
  6
Continuous
 62
     7
100
AcDbLine
 10
454.1535266854299
 20
224.4187396660032
 30
0.0
 11
454.1535266854299
 21
203.4187396660031
 31
0.0
  0
LINE
  5
151
330
48
100
AcDbEntity
  8
1
  6
Continuous
 62
     7
100
AcDbLine
 10
455.8855774929988
 20
204.4187396660032
 30
0.0
 11
455.8855774929988
 21
223.4187396660032
 31
0.0
  0
LINE
  5
152
330
48
100
AcDbEntity
  8
1
  6
Continuous
 62
     7
100
AcDbLine
 10
467.1535266854299
 20
223.4187396660032
 30
0.0
 11
467.1535266854299
 21
204.4187396660032
 31
0.0
  0
LINE
  5
153
330
48
100
AcDbEntity
  8
1
  6
Continuous
 62
     2
100
AcDbLine
 10
96.513204606122
 20
570.717850741964
 30
0.0
 11
96.513204606122
 21
582.9857999343951
 31
0.0
  0
LINE
  5
154
330
48
100
AcDbEntity
  8
1
  6
Continuous
 62
     2
100
AcDbLine
 10
95.513204606122
 20
568.9857999343951
 30
0.0
 11
96.513204606122
 21
570.717850741964
 31
0.0
  0
LINE
  5
155
330
48
100
AcDbEntity
  8
1
  6
Continuous
 62
     7
100
AcDbLine
 10
83.013204606122
 20
568.9857999343951
 30
0.0
 11
129.013204606122
 21
568.9857999343951
 31
0.0
  0
LINE
  5
156
330
48
100
AcDbEntity
  8
1
  6
Continuous
 62
     7
100
AcDbLine
 10
83.013204606122
 20
568.9857999343951
 30
0.0
 11
83.013204606122
 21
566.9857999343951
 31
0.0
  0
LINE
  5
157
330
48
100
AcDbEntity
  8
1
  6
Continuous
 62
     7
100
AcDbLine
 10
128.513204606122
 20
566.4857999343951
 30
0.0
 11
83.513204606122
 21
566.4857999343951
 31
0.0
  0
LINE
  5
158
330
48
100
AcDbEntity
  8
1
  6
Continuous
 62
     7
100
AcDbLine
 10
97.263204606122
 20
542.8521058791223
 30
0.0
 11
97.263204606122
 21
562.4857999343951
 31
0.0
  0
LINE
  5
159
330
48
100
AcDbEntity
  8
1
  6
Continuous
 62
     7
100
AcDbLine
 10
129.013204606122
 20
566.9857999343951
 30
0.0
 11
129.013204606122
 21
568.9857999343951
 31
0.0
  0
LINE
  5
15A
330
48
100
AcDbEntity
  8
1
  6
Continuous
 62
     2
100
AcDbLine
 10
115.513204606122
 20
570.717850741964
 30
0.0
 11
116.513204606122
 21
568.9857999343951
 31
0.0
  0
LINE
  5
15B
330
48
100
AcDbEntity
  8
1
  6
Continuous
 62
     2
100
AcDbLine
 10
115.513204606122
 20
582.9857999343951
 30
0.0
 11
115.513204606122
 21
570.717850741964
 31
0.0
  0
LINE
  5
15C
330
48
100
AcDbEntity
  8
1
  6
Continuous
 62
     7
100
AcDbLine
 10
114.763204606122
 20
548.6139826926881
 30
0.0
 11
114.763204606122
 21
562.4857999343951
 31
0.0
  0
LINE
  5
15D
330
48
100
AcDbEntity
  8
1
  6
Continuous
 62
     7
100
AcDbLine
 10
116.513204606122
 20
581.9857999343951
 30
0.0
 11
116.513204606122
 21
568.9857999343951
 31
0.0
  0
LINE
  5
15E
330
48
100
AcDbEntity
  8
1
  6
Continuous
 62
     7
100
AcDbLine
 10
116.513204606122
 20
581.9857999343951
 30
0.0
 11
115.513204606122
 21
582.9857999343951
 31
0.0
  0
LINE
  5
15F
330
48
100
AcDbEntity
  8
1
  6
Continuous
 62
     7
100
AcDbLine
 10
116.513204606122
 20
570.717850741964
 30
0.0
 11
95.513204606122
 21
570.717850741964
 31
0.0
  0
LINE
  5
160
330
48
100
AcDbEntity
  8
1
  6
Continuous
 62
     7
100
AcDbLine
 10
95.513204606122
 20
581.9857999343951
 30
0.0
 11
116.513204606122
 21
581.9857999343951
 31
0.0
  0
LINE
  5
161
330
48
100
AcDbEntity
  8
1
  6
Continuous
 62
     7
100
AcDbLine
 10
95.513204606122
 20
568.9857999343951
 30
0.0
 11
95.513204606122
 21
581.9857999343951
 31
0.0
  0
LINE
  5
162
330
48
100
AcDbEntity
  8
1
  6
Continuous
 62
     7
100
AcDbLine
 10
96.513204606122
 20
582.9857999343951
 30
0.0
 11
95.513204606122
 21
581.9857999343951
 31
0.0
  0
LINE
  5
163
330
48
100
AcDbEntity
  8
1
  6
Continuous
 62
     7
100
AcDbLine
 10
96.513204606122
 20
582.9857999343951
 30
0.0
 11
115.513204606122
 21
582.9857999343951
 31
0.0
  0
LINE
  5
164
330
48
100
AcDbEntity
  8
1
  6
Continuous
 62
     7
100
AcDbLine
 10
128.0132046061215
 20
535.9857999343956
 30
0.0
 11
128.0132046061215
 21
536.4950496872184
 31
0.0
  0
LINE
  5
165
330
48
100
AcDbEntity
  8
1
  6
Continuous
 62
     7
100
AcDbLine
 10
128.2811537985527
 20
535.9857999343956
 30
0.0
 11
128.0132046061215
 21
535.9857999343956
 31
0.0
  0
LINE
  5
166
330
48
100
AcDbEntity
  8
1
  6
Continuous
 62
     7
100
AcDbLine
 10
130.0132046061215
 20
535.9857999343956
 30
0.0
 11
128.2811537985527
 21
535.9857999343956
 31
0.0
  0
LINE
  5
167
330
48
100
AcDbEntity
  8
1
  6
Continuous
 62
     2
100
AcDbLine
 10
130.0132046061216
 20
534.9857999343956
 30
0.0
 11
131.5132046061215
 21
534.9857999343956
 31
0.0
  0
LINE
  5
168
330
48
100
AcDbEntity
  8
1
  6
Continuous
 62
     2
100
AcDbLine
 10
130.0132046061216
 20
534.9857999343956
 30
0.0
 11
128.2811537985527
 21
535.9857999343956
 31
0.0
  0
LINE
  5
169
330
48
100
AcDbEntity
  8
1
  6
Continuous
 62
     7
100
AcDbLine
 10
130.0132046061215
 20
511.9857999343955
 30
0.0
 11
130.0132046061215
 21
535.9857999343956
 31
0.0
  0
LINE
  5
16A
330
48
100
AcDbEntity
  8
1
  6
Continuous
 62
     2
100
AcDbLine
 10
128.2811537985527
 20
511.9857999343955
 30
0.0
 11
130.0132046061216
 21
512.9857999343956
 31
0.0
  0
LINE
  5
16B
330
48
100
AcDbEntity
  8
1
  6
Continuous
 62
     2
100
AcDbLine
 10
130.0132046061216
 20
512.9857999343956
 30
0.0
 11
131.5132046061215
 21
512.9857999343956
 31
0.0
  0
LINE
  5
16C
330
48
100
AcDbEntity
  8
1
  6
Continuous
 62
     7
100
AcDbLine
 10
130.0132046061215
 20
511.9857999343955
 30
0.0
 11
131.5132046061215
 21
511.9857999343955
 31
0.0
  0
LINE
  5
16D
330
48
100
AcDbEntity
  8
1
  6
Continuous
 62
     7
100
AcDbLine
 10
128.2811537985527
 20
511.9857999343955
 30
0.0
 11
130.0132046061215
 21
511.9857999343955
 31
0.0
  0
LINE
  5
16E
330
48
100
AcDbEntity
  8
1
  6
Continuous
 62
     7
100
AcDbLine
 10
128.0132046061215
 20
511.9857999343955
 30
0.0
 11
128.2811537985527
 21
511.9857999343955
 31
0.0
  0
LINE
  5
16F
330
48
100
AcDbEntity
  8
1
  6
Continuous
 62
     7
100
AcDbLine
 10
128.0132046061215
 20
511.4765501815728
 30
0.0
 11
128.0132046061215
 21
511.9857999343955
 31
0.0
  0
LINE
  5
170
330
48
100
AcDbEntity
  8
1
  6
Continuous
 62
     7
100
AcDbLine
 10
128.0132046061215
 20
535.9857999343956
 30
0.0
 11
128.0132046061215
 21
511.9857999343955
 31
0.0
  0
LINE
  5
171
330
48
100
AcDbEntity
  8
1
  6
Continuous
 62
     7
100
AcDbLine
 10
128.0132046061215
 20
536.4950496872184
 30
0.0
 11
125.9134856307382
 21
536.6441047625308
 31
0.0
  0
LINE
  5
172
330
48
100
AcDbEntity
  8
1
  6
Continuous
 62
     7
100
AcDbLine
 10
125.1821996978412
 20
511.2755825022023
 30
0.0
 11
128.0132046061215
 21
511.4765501815728
 31
0.0
  0
LINE
  5
173
330
48
100
AcDbEntity
  8
1
  6
PHANTOM
 62
     4
100
AcDbLine
 10
86.35371735613531
 20
523.9857999343956
 30
0.0
 11
168.3823401466233
 21
523.9857999343956
 31
0.0
  0
LINE
  5
174
330
48
100
AcDbEntity
  8
1
  6
Continuous
 62
     7
100
AcDbLine
 10
131.5132046061215
 20
535.9857999343956
 30
0.0
 11
130.0132046061215
 21
535.9857999343956
 31
0.0
  0
LINE
  5
175
330
48
100
AcDbEntity
  8
1
  6
Continuous
 62
     7
100
AcDbLine
 10
114.0132046061215
 20
510.4827166834547
 30
0.0
 11
125.1821996978412
 21
511.2755825022023
 31
0.0
  0
LINE
  5
176
330
48
100
AcDbEntity
  8
1
  6
Continuous
 62
     2
100
AcDbLine
 10
118.0132046061214
 20
237.418739666003
 30
0.0
 11
118.0132046061214
 21
238.918739666003
 31
0.0
  0
LINE
  5
177
330
48
100
AcDbEntity
  8
1
  6
Continuous
 62
     2
100
AcDbLine
 10
119.0132046061214
 20
235.6866888584339
 30
0.0
 11
118.0132046061214
 21
237.418739666003
 31
0.0
  0
LINE
  5
178
330
48
100
AcDbEntity
  8
1
  6
Continuous
 62
     7
100
AcDbLine
 10
119.0132046061214
 20
235.6866888584339
 30
0.0
 11
119.0132046061214
 21
234.668739666003
 31
0.0
  0
LINE
  5
179
330
48
100
AcDbEntity
  8
1
  6
Continuous
 62
     2
100
AcDbLine
 10
94.01320460612141
 20
237.418739666003
 30
0.0
 11
93.01320460612141
 21
235.6866888584339
 31
0.0
  0
LINE
  5
17A
330
48
100
AcDbEntity
  8
1
  6
Continuous
 62
     2
100
AcDbLine
 10
94.01320460612141
 20
237.418739666003
 30
0.0
 11
94.01320460612141
 21
238.918739666003
 31
0.0
  0
LINE
  5
17B
330
48
100
AcDbEntity
  8
1
  6
Continuous
 62
     7
100
AcDbLine
 10
93.01320460612141
 20
235.6866888584339
 30
0.0
 11
93.01320460612141
 21
232.8924056270133
 31
0.0
  0
LINE
  5
17C
330
48
100
AcDbEntity
  8
1
  6
Continuous
 62
     7
100
AcDbLine
 10
93.01320460612141
 20
235.6866888584339
 30
0.0
 11
93.01320460612141
 21
237.418739666003
 31
0.0
  0
LINE
  5
17D
330
48
100
AcDbEntity
  8
1
  6
Continuous
 62
     7
100
AcDbLine
 10
93.01320460612141
 20
237.418739666003
 30
0.0
 11
93.01320460612141
 21
238.918739666003
 31
0.0
  0
LINE
  5
17E
330
48
100
AcDbEntity
  8
1
  6
Continuous
 62
     7
100
AcDbLine
 10
119.0132046061214
 20
237.418739666003
 30
0.0
 11
119.0132046061214
 21
235.6866888584339
 31
0.0
  0
LINE
  5
17F
330
48
100
AcDbEntity
  8
1
  6
Continuous
 62
     7
100
AcDbLine
 10
119.0132046061214
 20
237.418739666003
 30
0.0
 11
116.8329993829072
 21
237.418739666003
 31
0.0
  0
LINE
  5
180
330
48
100
AcDbEntity
  8
1
  6
Continuous
 62
     7
100
AcDbLine
 10
128.0132046061214
 20
226.4279894188258
 30
0.0
 11
125.1821996978411
 21
226.6289570981961
 31
0.0
  0
LINE
  5
181
330
48
100
AcDbEntity
  8
1
  6
Continuous
 62
     7
100
AcDbLine
 10
128.0132046061214
 20
225.918739666003
 30
0.0
 11
128.0132046061214
 21
226.4279894188258
 31
0.0
  0
LINE
  5
182
330
48
100
AcDbEntity
  8
1
  6
Continuous
 62
     7
100
AcDbLine
 10
128.2811537985525
 20
225.918739666003
 30
0.0
 11
128.0132046061214
 21
225.918739666003
 31
0.0
  0
LINE
  5
183
330
48
100
AcDbEntity
  8
1
  6
Continuous
 62
     7
100
AcDbLine
 10
130.0132046061214
 20
225.918739666003
 30
0.0
 11
128.2811537985525
 21
225.918739666003
 31
0.0
  0
LINE
  5
184
330
48
100
AcDbEntity
  8
1
  6
Continuous
 62
     7
100
AcDbLine
 10
131.5132046061214
 20
225.918739666003
 30
0.0
 11
130.0132046061214
 21
225.918739666003
 31
0.0
  0
LINE
  5
185
330
48
100
AcDbEntity
  8
1
  6
Continuous
 62
     2
100
AcDbLine
 10
130.0132046061214
 20
224.918739666003
 30
0.0
 11
131.5132046061214
 21
224.918739666003
 31
0.0
  0
LINE
  5
186
330
48
100
AcDbEntity
  8
1
  6
Continuous
 62
     2
100
AcDbLine
 10
130.0132046061214
 20
224.918739666003
 30
0.0
 11
128.2811537985525
 21
225.918739666003
 31
0.0
  0
LINE
  5
187
330
48
100
AcDbEntity
  8
1
  6
Continuous
 62
     7
100
AcDbLine
 10
130.0132046061214
 20
201.9187396660029
 30
0.0
 11
130.0132046061214
 21
225.918739666003
 31
0.0
  0
LINE
  5
188
330
48
100
AcDbEntity
  8
1
  6
Continuous
 62
     2
100
AcDbLine
 10
128.2811537985525
 20
201.9187396660029
 30
0.0
 11
130.0132046061214
 21
202.9187396660029
 31
0.0
  0
LINE
  5
189
330
48
100
AcDbEntity
  8
1
  6
Continuous
 62
     2
100
AcDbLine
 10
130.0132046061214
 20
202.9187396660029
 30
0.0
 11
131.5132046061214
 21
202.9187396660029
 31
0.0
  0
LINE
  5
18A
330
48
100
AcDbEntity
  8
1
  6
Continuous
 62
     7
100
AcDbLine
 10
130.0132046061214
 20
201.9187396660029
 30
0.0
 11
131.5132046061214
 21
201.9187396660029
 31
0.0
  0
LINE
  5
18B
330
48
100
AcDbEntity
  8
1
  6
Continuous
 62
     7
100
AcDbLine
 10
128.2811537985525
 20
201.9187396660029
 30
0.0
 11
130.0132046061214
 21
201.9187396660029
 31
0.0
  0
LINE
  5
18C
330
48
100
AcDbEntity
  8
1
  6
Continuous
 62
     7
100
AcDbLine
 10
128.0132046061214
 20
201.9187396660029
 30
0.0
 11
128.2811537985525
 21
201.9187396660029
 31
0.0
  0
LINE
  5
18D
330
48
100
AcDbEntity
  8
1
  6
Continuous
 62
     7
100
AcDbLine
 10
128.0132046061214
 20
201.40948991318
 30
0.0
 11
128.0132046061214
 21
201.9187396660029
 31
0.0
  0
LINE
  5
18E
330
48
100
AcDbEntity
  8
1
  6
Continuous
 62
     7
100
AcDbLine
 10
107.0132046061214
 20
199.9187396660029
 30
0.0
 11
125.1821996978411
 21
201.2085222338096
 31
0.0
  0
LINE
  5
18F
330
48
100
AcDbEntity
  8
1
  6
Continuous
 62
     7
100
AcDbLine
 10
119.0132046061214
 20
234.668739666003
 30
0.0
 11
119.0132046061214
 21
232.8924056270133
 31
0.0
  0
LINE
  5
190
330
48
100
AcDbEntity
  8
1
  6
Continuous
 62
     7
100
AcDbLine
 10
125.1821996978411
 20
201.2085222338096
 30
0.0
 11
128.0132046061214
 21
201.40948991318
 31
0.0
  0
LINE
  5
191
330
48
100
AcDbEntity
  8
1
  6
Continuous
 62
     7
100
AcDbLine
 10
128.0132046061214
 20
225.918739666003
 30
0.0
 11
128.0132046061214
 21
201.9187396660029
 31
0.0
  0
LINE
  5
192
330
48
100
AcDbEntity
  8
1
  6
Continuous
 62
     7
100
AcDbLine
 10
125.1821996978411
 20
226.6289570981961
 30
0.0
 11
124.5883451184295
 21
226.6711137106269
 31
0.0
  0
LINE
  5
193
330
48
100
AcDbEntity
  8
1
  6
Continuous
 62
     7
100
AcDbLine
 10
93.01320460612141
 20
232.8924056270133
 30
0.0
 11
93.01320460612141
 21
213.9187396660029
 31
0.0
  0
LINE
  5
194
330
48
100
AcDbEntity
  8
1
  6
Continuous
 62
     7
100
AcDbLine
 10
119.0132046061214
 20
232.8924056270133
 30
0.0
 11
119.0132046061214
 21
232.6560526757056
 31
0.0
  0
LINE
  5
195
330
48
100
AcDbEntity
  8
1
  6
Continuous
 62
     7
100
AcDbLine
 10
119.7041058134868
 20
227.420355524283
 30
0.0
 11
107.9196325691991
 21
215.7988100594049
 31
0.0
  0
LINE
  5
196
330
48
100
AcDbEntity
  8
1
  6
Continuous
 62
     7
100
AcDbLine
 10
119.0132046061214
 20
238.918739666003
 30
0.0
 11
119.0132046061214
 21
237.418739666003
 31
0.0
  0
LINE
  5
197
330
48
100
AcDbEntity
  8
1
  6
Continuous
 62
     7
100
AcDbLine
 10
95.15518715149921
 20
237.418739666003
 30
0.0
 11
93.01320460612141
 21
237.418739666003
 31
0.0
  0
ARC
  5
198
330
48
100
AcDbEntity
  8
1
  6
Continuous
 62
     7
100
AcDbCircle
 10
409.1535266854299
 20
213.9187396660032
 30
0.0
 40
14.0
100
AcDbArc
 50
-97.13387664333072
 51
-82.87117407847887
  0
ARC
  5
199
330
48
100
AcDbEntity
  8
1
  6
Continuous
 62
     7
100
AcDbCircle
 10
434.1535266854299
 20
234.6687396660032
 30
0.0
 40
12.0
100
AcDbArc
 50
180.0
 51
-90.0
  0
ARC
  5
19A
330
48
100
AcDbEntity
  8
1
  6
Continuous
 62
     7
100
AcDbCircle
 10
366.1535266854299
 20
223.246118719092
 30
0.0
 40
30.00000000000005
100
AcDbArc
 50
-8.8331983696778
 51
0.0
  0
ARC
  5
19B
330
48
100
AcDbEntity
  8
1
  6
Continuous
 62
     7
100
AcDbCircle
 10
106.0132046061214
 20
213.9187396660029
 30
0.0
 40
23.0000000000001
100
AcDbArc
 50
124.4173887104414
 51
-33.54681501581418
  0
ARC
  5
19C
330
48
100
AcDbEntity
  8
1
  6
Continuous
 62
     7
100
AcDbCircle
 10
107.0132046061214
 20
213.9187396660029
 30
0.0
 40
14.0
100
AcDbArc
 50
180.0
 51
-90.0
  0
ARC
  5
19D
330
48
100
AcDbEntity
  8
1
  6
Continuous
 62
     7
100
AcDbCircle
 10
106.0132046061214
 20
213.9187396660029
 30
0.0
 40
23.00000000000005
100
AcDbArc
 50
33.54681501581401
 51
55.58261128955861
  0
ARC
  5
19E
330
48
100
AcDbEntity
  8
1
  6
Continuous
 62
     7
100
AcDbCircle
 10
452.1535266854299
 20
236.4187396660032
 30
0.0
 40
0.5
100
AcDbArc
 50
90.0
 51
180.0
  0
ARC
  5
19F
330
48
100
AcDbEntity
  8
1
  6
Continuous
 62
     7
100
AcDbCircle
 10
447.6535266854299
 20
226.6687396660032
 30
0.0
 40
4.0
100
AcDbArc
 50
-90.0
 51
0.0
  0
ARC
  5
1A0
330
48
100
AcDbEntity
  8
1
  6
Continuous
 62
     7
100
AcDbCircle
 10
452.1535266854299
 20
191.4187396660032
 30
0.0
 40
0.5
100
AcDbArc
 50
180.0
 51
-90.0
  0
ARC
  5
1A1
330
48
100
AcDbEntity
  8
1
  6
Continuous
 62
     7
100
AcDbCircle
 10
447.6535266854299
 20
201.1687396660032
 30
0.0
 40
4.0
100
AcDbArc
 50
0.0
 51
90.0
  0
ARC
  5
1A2
330
48
100
AcDbEntity
  8
1
  6
Continuous
 62
     7
100
AcDbCircle
 10
93.263204606122
 20
562.4857999343951
 30
0.0
 40
4.0
100
AcDbArc
 50
0.0
 51
90.0
  0
ARC
  5
1A3
330
48
100
AcDbEntity
  8
1
  6
Continuous
 62
     7
100
AcDbCircle
 10
118.763204606122
 20
562.4857999343951
 30
0.0
 40
4.0
100
AcDbArc
 50
90.0
 51
180.0
  0
ARC
  5
1A4
330
48
100
AcDbEntity
  8
1
  6
Continuous
 62
     7
100
AcDbCircle
 10
128.513204606122
 20
566.9857999343951
 30
0.0
 40
0.5
100
AcDbArc
 50
-90.0
 51
0.0
  0
ARC
  5
1A5
330
48
100
AcDbEntity
  8
1
  6
Continuous
 62
     7
100
AcDbCircle
 10
83.513204606122
 20
566.9857999343951
 30
0.0
 40
0.5
100
AcDbArc
 50
180.0
 51
-90.0
  0
ARC
  5
1A6
330
48
100
AcDbEntity
  8
1
  6
Continuous
 62
     7
100
AcDbCircle
 10
67.263204606122
 20
542.8521058791225
 30
0.0
 40
29.99999999999993
100
AcDbArc
 50
-15.10263691918632
 51
-0.00000000000043
  0
ARC
  5
1A7
330
48
100
AcDbEntity
  8
1
  6
Continuous
 62
     7
100
AcDbCircle
 10
126.763204606122
 20
548.6139826926881
 30
0.0
 40
12.0
100
AcDbArc
 50
180.0
 51
-94.06050734864753
  0
ARC
  5
1A8
330
48
100
AcDbEntity
  8
1
  6
Continuous
 62
     7
100
AcDbCircle
 10
125.0132046061214
 20
232.6560526757057
 30
0.0
 40
6.0
100
AcDbArc
 50
-179.9999999999992
 51
-94.06050734864742
  0
ENDBLK
  5
4A
330
48
100
AcDbEntity
  8
0
100
AcDbBlockEnd
  0
BLOCK
  5
4C
330
4B
100
AcDbEntity
  8
0
100
AcDbBlockBegin
  2
51-1
 70
     0
 71
     0
 10
922.0066891443405
 20
385.7876293075491
 30
0.0
  3
51-1
  1

  0
LINE
  5
1A9
330
4B
100
AcDbEntity
  8
1
  6
Continuous
 62
     7
100
AcDbLine
 10
149.5132046061215
 20
551.1364350290064
 30
0.0
 11
149.5132046061215
 21
496.8351648397845
 31
0.0
  0
LINE
  5
1AA
330
4B
100
AcDbEntity
  8
1
  6
Continuous
 62
     7
100
AcDbLine
 10
150.0827911566018
 20
496.3400308054136
 30
0.0
 11
153.2982843614722
 21
496.7919389044059
 31
0.0
  0
LINE
  5
1AB
330
4B
100
AcDbEntity
  8
1
  6
Continuous
 62
     7
100
AcDbLine
 10
153.2982843614722
 20
551.1796609643847
 30
0.0
 11
150.0827911566017
 21
551.631569063377
 31
0.0
  0
LINE
  5
1AC
330
4B
100
AcDbEntity
  8
1
  6
PHANTOM
 62
     4
100
AcDbLine
 10
377.111744392339
 20
195.4194080337717
 30
0.0
 11
427.6648832973496
 21
224.6062763889601
 31
0.0
  0
LINE
  5
1AD
330
4B
100
AcDbEntity
  8
1
  6
PHANTOM
 62
     4
100
AcDbLine
 10
441.1953089785209
 20
195.4194080337717
 30
0.0
 11
390.007495556024
 21
224.9727058924786
 31
0.0
  0
LINE
  5
1AE
330
4B
100
AcDbEntity
  8
1
  6
Continuous
 62
     7
100
AcDbLine
 10
414.9490816431643
 20
240.4716539366182
 30
0.0
 11
418.6004908546348
 21
226.8444092401854
 31
0.0
  0
LINE
  5
1AF
330
4B
100
AcDbEntity
  8
1
  6
Continuous
 62
     7
100
AcDbLine
 10
435.0468024671602
 20
205.6613803531225
 30
0.0
 11
425.0709669821978
 21
215.6372158380847
 31
0.0
  0
LINE
  5
1B0
330
4B
100
AcDbEntity
  8
1
  6
Continuous
 62
     7
100
AcDbLine
 10
429.2512475094258
 20
195.6231847082688
 30
0.0
 11
415.624002812993
 21
199.2745939197392
 31
0.0
  0
LINE
  5
1B1
330
4B
100
AcDbEntity
  8
1
  6
Continuous
 62
     7
100
AcDbLine
 10
403.3579717276956
 20
240.4716539366182
 30
0.0
 11
399.7065625162251
 21
226.8444092401854
 31
0.0
  0
LINE
  5
1B2
330
4B
100
AcDbEntity
  8
1
  6
Continuous
 62
     7
100
AcDbLine
 10
388.2953009588136
 20
195.4194080337717
 30
0.0
 11
402.6830505578669
 21
199.2745939197392
 31
0.0
  0
LINE
  5
1B3
330
4B
100
AcDbEntity
  8
1
  6
Continuous
 62
     7
100
AcDbLine
 10
383.2602509036997
 20
205.6613803531225
 30
0.0
 11
393.2360863886621
 21
215.6372158380847
 31
0.0
  0
LINE
  5
1B4
330
4B
100
AcDbEntity
  8
1
  6
Continuous
 62
     7
100
AcDbLine
 10
149.0132046061212
 20
195.9187396660029
 30
0.0
 11
149.0132046061212
 21
244.418739666003
 31
0.0
  0
LINE
  5
1B5
330
4B
100
AcDbEntity
  8
1
  6
Continuous
 62
     7
100
AcDbLine
 10
152.4001135114885
 20
244.918739666003
 30
0.0
 11
149.5132046061212
 21
244.918739666003
 31
0.0
  0
LINE
  5
1B6
330
4B
100
AcDbEntity
  8
1
  6
Continuous
 62
     7
100
AcDbLine
 10
151.9881540285308
 20
195.4187396660029
 30
0.0
 11
149.5132046061212
 21
195.4187396660029
 31
0.0
  0
ARC
  5
1B7
330
4B
100
AcDbEntity
  8
1
  6
Continuous
 62
     7
100
AcDbCircle
 10
33.14305206579721
 20
525.6228902852847
 30
0.0
 40
127.494833408141
100
AcDbArc
 50
-10.80949324635224
 51
-2.53411689479737
  0
ARC
  5
1B8
330
4B
100
AcDbEntity
  8
1
  6
Continuous
 62
     7
100
AcDbCircle
 10
33.14305206579721
 20
522.3487095835062
 30
0.0
 40
127.4948334081408
100
AcDbArc
 50
2.53411689479737
 51
10.80949324635217
  0
ARC
  5
1B9
330
4B
100
AcDbEntity
  8
1
  6
Continuous
 62
     7
100
AcDbCircle
 10
409.1535266854299
 20
238.9187396660032
 30
0.0
 40
5.999999999999952
100
AcDbArc
 50
14.99999999999881
 51
90.0
  0
ARC
  5
1BA
330
4B
100
AcDbEntity
  8
1
  6
Continuous
 62
     7
100
AcDbCircle
 10
430.8041617800409
 20
201.4187396660032
 30
0.0
 40
5.999999999999974
100
AcDbArc
 50
-104.9999999999996
 51
44.99999999999981
  0
ARC
  5
1BB
330
4B
100
AcDbEntity
  8
1
  6
Continuous
 62
     7
100
AcDbCircle
 10
409.1535266854299
 20
238.9187396660032
 30
0.0
 40
6.0
100
AcDbArc
 50
90.0
 51
165.0000000000009
  0
ARC
  5
1BC
330
4B
100
AcDbEntity
  8
1
  6
Continuous
 62
     7
100
AcDbCircle
 10
387.502891590819
 20
201.4187396660032
 30
0.0
 40
5.999999999999989
100
AcDbArc
 50
134.9999999999998
 51
-82.47575892105979
  0
ARC
  5
1BD
330
4B
100
AcDbEntity
  8
1
  6
Continuous
 62
     7
100
AcDbCircle
 10
11.98153852870081
 20
214.0187396660029
 30
0.0
 40
148.6092050572047
100
AcDbArc
 50
1.85094579686891
 51
10.05322763750315
  0
ARC
  5
1BE
330
4B
100
AcDbEntity
  8
1
  6
Continuous
 62
     7
100
AcDbCircle
 10
138.953039841131
 20
211.9698578533927
 30
0.0
 40
21.76119949013533
100
AcDbArc
 50
-21.55679471096808
 51
-7.79411241505211
  0
ARC
  5
1BF
330
4B
100
AcDbEntity
  8
1
  6
Continuous
 62
     7
100
AcDbCircle
 10
81.8398713507396
 20
226.9227845245387
 30
0.0
 40
80.64072525632048
100
AcDbArc
 50
-19.97991677911216
 51
-16.80789351475126
  0
ARC
  5
1C0
330
4B
100
AcDbEntity
  8
1
  6
Continuous
 62
     7
100
AcDbCircle
 10
152.4632457557121
 20
502.7335473168554
 30
0.0
 40
5.999999999999992
100
AcDbArc
 50
-82.00000000000277
 51
-9.80290179376785
  0
ARC
  5
1C1
330
4B
100
AcDbEntity
  8
1
  6
Continuous
 62
     7
100
AcDbCircle
 10
150.0132046061215
 20
496.8351648397845
 30
0.0
 40
0.5
100
AcDbArc
 50
180.0
 51
-81.99999999997191
  0
ARC
  5
1C2
330
4B
100
AcDbEntity
  8
1
  6
Continuous
 62
     7
100
AcDbCircle
 10
150.0132046061215
 20
551.1364350290064
 30
0.0
 40
0.4999999999998491
100
AcDbArc
 50
81.99999999997706
 51
180.0
  0
ARC
  5
1C3
330
4B
100
AcDbEntity
  8
1
  6
Continuous
 62
     7
100
AcDbCircle
 10
152.463245755712
 20
545.2380525519354
 30
0.0
 40
5.99999999999992
100
AcDbArc
 50
9.80290179376713
 51
82.00000000000141
  0
ARC
  5
1C4
330
4B
100
AcDbEntity
  8
1
  6
Continuous
 62
     7
100
AcDbCircle
 10
442.7486365118616
 20
233.3148853677485
 30
0.0
 40
25.0000000000001
100
AcDbArc
 50
-164.9999999999999
 51
-135.0000000000001
  0
ARC
  5
1C5
330
4B
100
AcDbEntity
  8
1
  6
Continuous
 62
     7
100
AcDbCircle
 10
409.1535266854299
 20
175.1264482625125
 30
0.0
 40
25.00000000000003
100
AcDbArc
 50
74.99999999999974
 51
104.9999999999999
  0
ARC
  5
1C6
330
4B
100
AcDbEntity
  8
1
  6
Continuous
 62
     7
100
AcDbCircle
 10
375.5584168589983
 20
233.3148853677485
 30
0.0
 40
25.00000000000014
100
AcDbArc
 50
-45.00000000000005
 51
-15.00000000000014
  0
ARC
  5
1C7
330
4B
100
AcDbEntity
  8
1
  6
Continuous
 62
     7
100
AcDbCircle
 10
149.5132046061212
 20
244.418739666003
 30
0.0
 40
0.5
100
AcDbArc
 50
90.0
 51
180.0
  0
ARC
  5
1C8
330
4B
100
AcDbEntity
  8
1
  6
Continuous
 62
     7
100
AcDbCircle
 10
152.4001135114885
 20
238.918739666003
 30
0.0
 40
5.99999999999997
100
AcDbArc
 50
9.99784348756716
 51
90.0
  0
ARC
  5
1C9
330
4B
100
AcDbEntity
  8
1
  6
Continuous
 62
     7
100
AcDbCircle
 10
153.5913947430632
 20
206.1264482625123
 30
0.0
 40
5.999999999999735
100
AcDbArc
 50
-24.85597892211868
 51
-21.01999876649112
  0
ARC
  5
1CA
330
4B
100
AcDbEntity
  8
1
  6
Continuous
 62
     7
100
AcDbCircle
 10
149.5132046061212
 20
195.9187396660029
 30
0.0
 40
0.5
100
AcDbArc
 50
180.0
 51
-90.0
  0
ARC
  5
1CB
330
4B
100
AcDbEntity
  8
1
  6
Continuous
 62
     7
100
AcDbCircle
 10
151.9881540285308
 20
201.4187396660029
 30
0.0
 40
6.0
100
AcDbArc
 50
-90.0
 51
-19.97991677911152
  0
ENDBLK
  5
4D
330
4B
100
AcDbEntity
  8
0
100
AcDbBlockEnd
  0
BLOCK
  5
4F
330
4E
100
AcDbEntity
  8
0
100
AcDbBlockBegin
  2
42-1
 70
     0
 71
     0
 10
-11.27644440346339
 20
302.0229997526066
 30
0.0
  3
42-1
  1

  0
LINE
  5
1CC
330
4E
100
AcDbEntity
  8
1
  6
Continuous
 62
     7
100
AcDbLine
 10
163.5132046061212
 20
218.9187396660029
 30
0.0
 11
163.5132046061212
 21
208.918739666003
 31
0.0
  0
LINE
  5
1CD
330
4E
100
AcDbEntity
  8
1
  6
Continuous
 62
     7
100
AcDbLine
 10
163.842970326325
 20
219.6687396660029
 30
0.0
 11
163.842970326325
 21
213.9187396660029
 31
0.0
  0
LINE
  5
1CE
330
4E
100
AcDbEntity
  8
1
  6
Continuous
 62
     2
100
AcDbLine
 10
162.7555427082925
 20
214.9187396660029
 30
0.0
 11
161.490303617682
 21
214.9187396660029
 31
0.0
  0
LINE
  5
1CF
330
4E
100
AcDbEntity
  8
1
  6
Continuous
 62
     2
100
AcDbLine
 10
162.9988579180252
 20
215.9187396660029
 30
0.0
 11
161.2307673939671
 21
215.9187396660029
 31
0.0
  0
LINE
  5
1D0
330
4E
100
AcDbEntity
  8
1
  6
Continuous
 62
     2
100
AcDbLine
 10
163.2097310997936
 20
216.9187396660029
 30
0.0
 11
160.8739050863589
 21
216.9187396660029
 31
0.0
  0
LINE
  5
1D1
330
4E
100
AcDbEntity
  8
1
  6
Continuous
 62
     2
100
AcDbLine
 10
163.3232781976689
 20
217.9187396660029
 30
0.0
 11
160.6792529185728
 21
217.9187396660029
 31
0.0
  0
LINE
  5
1D2
330
4E
100
AcDbEntity
  8
1
  6
Continuous
 62
     2
100
AcDbLine
 10
163.5132046061212
 20
218.9187396660029
 30
0.0
 11
160.5132046061212
 21
218.9187396660029
 31
0.0
  0
LINE
  5
1D3
330
4E
100
AcDbEntity
  8
1
  6
Continuous
 62
     7
100
AcDbLine
 10
160.5132046061212
 20
220.9187396660029
 30
0.0
 11
160.5132046061212
 21
206.9187396660029
 31
0.0
  0
LINE
  5
1D4
330
4E
100
AcDbEntity
  8
1
  6
Continuous
 62
     7
100
AcDbLine
 10
163.5132046061212
 20
219.9187396660029
 30
0.0
 11
163.5132046061212
 21
218.9187396660029
 31
0.0
  0
LINE
  5
1D5
330
4E
100
AcDbEntity
  8
1
  6
Continuous
 62
     2
100
AcDbLine
 10
163.5132046061212
 20
219.9187396660029
 30
0.0
 11
160.5132046061212
 21
219.9187396660029
 31
0.0
  0
LINE
  5
1D6
330
4E
100
AcDbEntity
  8
1
  6
Continuous
 62
     7
100
AcDbLine
 10
163.5132046061212
 20
220.9187396660029
 30
0.0
 11
163.5132046061212
 21
219.9187396660029
 31
0.0
  0
LINE
  5
1D7
330
4E
100
AcDbEntity
  8
1
  6
Continuous
 62
     7
100
AcDbLine
 10
163.5132046061212
 20
220.9187396660029
 30
0.0
 11
163.7825268051444
 21
219.918739666003
 31
0.0
  0
LINE
  5
1D8
330
4E
100
AcDbEntity
  8
1
  6
Continuous
 62
     7
100
AcDbLine
 10
160.5132046061212
 20
220.9187396660029
 30
0.0
 11
163.5132046061212
 21
220.9187396660029
 31
0.0
  0
LINE
  5
1D9
330
4E
100
AcDbEntity
  8
1
  6
Continuous
 62
     7
100
AcDbLine
 10
163.5132046061212
 20
206.9187396660029
 30
0.0
 11
160.5132046061212
 21
206.9187396660029
 31
0.0
  0
LINE
  5
1DA
330
4E
100
AcDbEntity
  8
1
  6
Continuous
 62
     7
100
AcDbLine
 10
163.7825268051444
 20
207.9187396660029
 30
0.0
 11
163.5132046061212
 21
206.9187396660029
 31
0.0
  0
LINE
  5
1DB
330
4E
100
AcDbEntity
  8
1
  6
Continuous
 62
     7
100
AcDbLine
 10
163.5132046061212
 20
207.9187396660029
 30
0.0
 11
163.5132046061212
 21
206.9187396660029
 31
0.0
  0
LINE
  5
1DC
330
4E
100
AcDbEntity
  8
1
  6
Continuous
 62
     2
100
AcDbLine
 10
160.5132046061212
 20
207.9187396660029
 30
0.0
 11
163.5132046061212
 21
207.9187396660029
 31
0.0
  0
LINE
  5
1DD
330
4E
100
AcDbEntity
  8
1
  6
Continuous
 62
     7
100
AcDbLine
 10
163.5132046061212
 20
208.918739666003
 30
0.0
 11
163.5132046061212
 21
207.9187396660029
 31
0.0
  0
LINE
  5
1DE
330
4E
100
AcDbEntity
  8
1
  6
Continuous
 62
     2
100
AcDbLine
 10
160.5132046061212
 20
208.918739666003
 30
0.0
 11
163.5132046061212
 21
208.918739666003
 31
0.0
  0
LINE
  5
1DF
330
4E
100
AcDbEntity
  8
1
  6
Continuous
 62
     2
100
AcDbLine
 10
160.6792529185728
 20
209.918739666003
 30
0.0
 11
163.3232781976689
 21
209.918739666003
 31
0.0
  0
LINE
  5
1E0
330
4E
100
AcDbEntity
  8
1
  6
Continuous
 62
     2
100
AcDbLine
 10
160.873905086359
 20
210.918739666003
 30
0.0
 11
163.2097310997936
 21
210.918739666003
 31
0.0
  0
LINE
  5
1E1
330
4E
100
AcDbEntity
  8
1
  6
Continuous
 62
     2
100
AcDbLine
 10
161.2307673939671
 20
211.918739666003
 30
0.0
 11
162.9988579180252
 21
211.918739666003
 31
0.0
  0
LINE
  5
1E2
330
4E
100
AcDbEntity
  8
1
  6
Continuous
 62
     2
100
AcDbLine
 10
161.490303617682
 20
212.918739666003
 30
0.0
 11
162.7555427082925
 21
212.918739666003
 31
0.0
  0
LINE
  5
1E3
330
4E
100
AcDbEntity
  8
1
  6
Continuous
 62
     7
100
AcDbLine
 10
163.842970326325
 20
213.9187396660029
 30
0.0
 11
163.842970326325
 21
208.168739666003
 31
0.0
  0
LINE
  5
1E4
330
4E
100
AcDbEntity
  8
1
  6
Continuous
 62
     2
100
AcDbLine
 10
161.4903036176823
 20
522.9857999343956
 30
0.0
 11
162.7555427082928
 21
522.9857999343956
 31
0.0
  0
LINE
  5
1E5
330
4E
100
AcDbEntity
  8
1
  6
Continuous
 62
     2
100
AcDbLine
 10
161.2307673939674
 20
521.9857999343956
 30
0.0
 11
162.9988579180255
 21
521.9857999343956
 31
0.0
  0
LINE
  5
1E6
330
4E
100
AcDbEntity
  8
1
  6
Continuous
 62
     2
100
AcDbLine
 10
160.8739050863593
 20
520.9857999343956
 30
0.0
 11
163.2097310997939
 21
520.9857999343956
 31
0.0
  0
LINE
  5
1E7
330
4E
100
AcDbEntity
  8
1
  6
Continuous
 62
     2
100
AcDbLine
 10
160.6792529185731
 20
519.9857999343956
 30
0.0
 11
163.3232781976693
 21
519.9857999343956
 31
0.0
  0
LINE
  5
1E8
330
4E
100
AcDbEntity
  8
1
  6
Continuous
 62
     2
100
AcDbLine
 10
160.5132046061215
 20
518.9857999343956
 30
0.0
 11
163.5132046061215
 21
518.9857999343956
 31
0.0
  0
LINE
  5
1E9
330
4E
100
AcDbEntity
  8
1
  6
Continuous
 62
     2
100
AcDbLine
 10
160.5132046061215
 20
517.9857999343955
 30
0.0
 11
163.5132046061215
 21
517.9857999343955
 31
0.0
  0
LINE
  5
1EA
330
4E
100
AcDbEntity
  8
1
  6
Continuous
 62
     7
100
AcDbLine
 10
163.7825268051449
 20
517.9857999343955
 30
0.0
 11
163.5132046061215
 21
516.9857999343955
 31
0.0
  0
LINE
  5
1EB
330
4E
100
AcDbEntity
  8
1
  6
Continuous
 62
     7
100
AcDbLine
 10
163.5132046061215
 20
516.9857999343955
 30
0.0
 11
160.5132046061215
 21
516.9857999343955
 31
0.0
  0
LINE
  5
1EC
330
4E
100
AcDbEntity
  8
1
  6
Continuous
 62
     7
100
AcDbLine
 10
160.5132046061215
 20
530.9857999343955
 30
0.0
 11
163.5132046061215
 21
530.9857999343955
 31
0.0
  0
LINE
  5
1ED
330
4E
100
AcDbEntity
  8
1
  6
Continuous
 62
     7
100
AcDbLine
 10
163.5132046061215
 20
530.9857999343955
 30
0.0
 11
163.7825268051448
 21
529.9857999343956
 31
0.0
  0
LINE
  5
1EE
330
4E
100
AcDbEntity
  8
1
  6
Continuous
 62
     2
100
AcDbLine
 10
163.5132046061215
 20
529.9857999343955
 30
0.0
 11
160.5132046061215
 21
529.9857999343955
 31
0.0
  0
LINE
  5
1EF
330
4E
100
AcDbEntity
  8
1
  6
Continuous
 62
     7
100
AcDbLine
 10
160.5132046061215
 20
530.9857999343955
 30
0.0
 11
160.5132046061215
 21
516.9857999343955
 31
0.0
  0
LINE
  5
1F0
330
4E
100
AcDbEntity
  8
1
  6
Continuous
 62
     2
100
AcDbLine
 10
163.5132046061215
 20
528.9857999343955
 30
0.0
 11
160.5132046061215
 21
528.9857999343955
 31
0.0
  0
LINE
  5
1F1
330
4E
100
AcDbEntity
  8
1
  6
Continuous
 62
     2
100
AcDbLine
 10
163.3232781976693
 20
527.9857999343955
 30
0.0
 11
160.6792529185731
 21
527.9857999343955
 31
0.0
  0
LINE
  5
1F2
330
4E
100
AcDbEntity
  8
1
  6
Continuous
 62
     2
100
AcDbLine
 10
163.2097310997939
 20
526.9857999343955
 30
0.0
 11
160.8739050863593
 21
526.9857999343955
 31
0.0
  0
LINE
  5
1F3
330
4E
100
AcDbEntity
  8
1
  6
Continuous
 62
     2
100
AcDbLine
 10
162.9988579180255
 20
525.9857999343955
 30
0.0
 11
161.2307673939674
 21
525.9857999343955
 31
0.0
  0
LINE
  5
1F4
330
4E
100
AcDbEntity
  8
1
  6
Continuous
 62
     2
100
AcDbLine
 10
162.7555427082928
 20
524.9857999343955
 30
0.0
 11
161.4903036176823
 21
524.9857999343955
 31
0.0
  0
LINE
  5
1F5
330
4E
100
AcDbEntity
  8
1
  6
Continuous
 62
     7
100
AcDbLine
 10
163.8429703263253
 20
529.7357999343955
 30
0.0
 11
163.8429703263253
 21
518.2357999343956
 31
0.0
  0
LINE
  5
1F6
330
4E
100
AcDbEntity
  8
1
  6
Continuous
 62
     7
100
AcDbLine
 10
163.5132046061215
 20
530.9857999343955
 30
0.0
 11
163.5132046061215
 21
516.9857999343955
 31
0.0
  0
ARC
  5
1F7
330
4E
100
AcDbEntity
  8
1
  6
Continuous
 62
     7
100
AcDbCircle
 10
139.5132046061212
 20
213.9187396660029
 30
0.0
 40
25.0
100
AcDbArc
 50
0.0
 51
13.29707174720902
  0
ARC
  5
1F8
330
4E
100
AcDbEntity
  8
1
  6
Continuous
 62
     7
100
AcDbCircle
 10
139.5132046061212
 20
213.9187396660029
 30
0.0
 40
25.00000000000008
100
AcDbArc
 50
13.29707174720902
 51
13.88654036262924
  0
ARC
  5
1F9
330
4E
100
AcDbEntity
  8
1
  6
Continuous
 62
     7
100
AcDbCircle
 10
139.5132046061212
 20
213.9187396660029
 30
0.0
 40
25.00000000000001
100
AcDbArc
 50
-13.88654036262899
 51
-13.29707174720877
  0
ARC
  5
1FA
330
4E
100
AcDbEntity
  8
1
  6
Continuous
 62
     7
100
AcDbCircle
 10
139.5132046061212
 20
213.9187396660029
 30
0.0
 40
25.00000000000005
100
AcDbArc
 50
-13.29707174720877
 51
0.0
  0
ARC
  5
1FB
330
4E
100
AcDbEntity
  8
1
  6
Continuous
 62
     7
100
AcDbCircle
 10
139.5132046061215
 20
523.9857999343955
 30
0.0
 40
25.00000000000021
100
AcDbArc
 50
-13.88654036262888
 51
0.0
  0
ARC
  5
1FC
330
4E
100
AcDbEntity
  8
1
  6
Continuous
 62
     7
100
AcDbCircle
 10
139.5132046061215
 20
523.9857999343955
 30
0.0
 40
25.0
100
AcDbArc
 50
0.0
 51
13.88654036262918
  0
CIRCLE
  5
1FD
330
4E
100
AcDbEntity
  8
0
  6
Continuous
 62
     7
100
AcDbCircle
 10
409.1535266854306
 20
213.9187396660028
 30
0.0
 40
5.749999999999261
  0
CIRCLE
  5
1FE
330
4E
100
AcDbEntity
  8
0
  6
Continuous
 62
     7
100
AcDbCircle
 10
409.1535266854306
 20
213.9187396660028
 30
0.0
 40
6.999999999999801
  0
ENDBLK
  5
50
330
4E
100
AcDbEntity
  8
0
100
AcDbBlockEnd
  0
BLOCK
  5
54
330
51
100
AcDbEntity
  8
0
100
AcDbBlockBegin
  2
R20F
 70
     0
 71
     0
 10
181.111744392339
 20
195.4939653780772
 30
0.0
  3
R20F
  1

  0
INSERT
  5
52
330
51
100
AcDbEntity
  8
1
100
AcDbBlockReference
  2
51-1
 10
922.0066891443405
 20
385.7876293075491
 30
0.0
  0
INSERT
  5
53
330
51
100
AcDbEntity
  8
0
100
AcDbBlockReference
  2
42-1
 10
-11.27644440346339
 20
302.0229997526066
 30
0.0
  0
LINE
  5
1FF
330
51
100
AcDbEntity
  8
1
  6
PHANTOM
 62
     4
100
AcDbLine
 10
144.5132046061214
 20
213.9187396660029
 30
0.0
 11
166.4428283984772
 21
213.9187396660029
 31
0.0
  0
ENDBLK
  5
55
330
51
100
AcDbEntity
  8
0
100
AcDbBlockEnd
  0
BLOCK
  5
57
330
56
100
AcDbEntity
  8
0
100
AcDbBlockBegin
  2
37-1-13
 70
     0
 71
     0
 10
9.5174987159769
 20
305.719969882774
 30
0.0
  3
37-1-13
  1

  0
LINE
  5
200
330
56
100
AcDbEntity
  8
1
  6
Continuous
 62
     7
100
AcDbLine
 10
139.0132046061214
 20
213.9187396660029
 30
0.0
 11
139.0132046061215
 21
201.4187396660031
 31
0.0
  0
LINE
  5
201
330
56
100
AcDbEntity
  8
1
  6
Continuous
 62
     7
100
AcDbLine
 10
139.0132046061215
 20
226.4187396660028
 30
0.0
 11
139.0132046061214
 21
213.9187396660029
 31
0.0
  0
LINE
  5
202
330
56
100
AcDbEntity
  8
1
  6
Continuous
 62
     7
100
AcDbLine
 10
131.5132046061214
 20
200.8480254517316
 30
0.0
 11
131.5132046061214
 21
226.9894538802744
 31
0.0
  0
LINE
  5
203
330
56
100
AcDbEntity
  8
1
  6
Continuous
 62
     7
100
AcDbLine
 10
145.5132046061214
 20
207.9187396660029
 30
0.0
 11
145.5132046061214
 21
219.9187396660029
 31
0.0
  0
LINE
  5
204
330
56
100
AcDbEntity
  8
1
  6
Continuous
 62
     7
100
AcDbLine
 10
139.0132046061215
 20
523.9857999343955
 30
0.0
 11
139.0132046061216
 21
511.4857999343956
 31
0.0
  0
LINE
  5
205
330
56
100
AcDbEntity
  8
1
  6
Continuous
 62
     7
100
AcDbLine
 10
131.5132046061215
 20
510.9857999343955
 30
0.0
 11
131.5132046061215
 21
523.9857999343955
 31
0.0
  0
LINE
  5
206
330
56
100
AcDbEntity
  8
1
  6
Continuous
 62
     7
100
AcDbLine
 10
145.5132046061215
 20
517.9857999343955
 30
0.0
 11
145.5132046061215
 21
523.9857999343955
 31
0.0
  0
LINE
  5
207
330
56
100
AcDbEntity
  8
1
  6
Continuous
 62
     7
100
AcDbLine
 10
131.5132046061215
 20
510.9857999343955
 30
0.0
 11
138.5839188203931
 21
510.9857999343955
 31
0.0
  0
LINE
  5
208
330
56
100
AcDbEntity
  8
1
  6
Continuous
 62
     7
100
AcDbLine
 10
139.0132046061216
 20
536.4857999343951
 30
0.0
 11
139.0132046061215
 21
523.9857999343955
 31
0.0
  0
LINE
  5
209
330
56
100
AcDbEntity
  8
1
  6
Continuous
 62
     7
100
AcDbLine
 10
131.5132046061215
 20
523.9857999343955
 30
0.0
 11
131.5132046061215
 21
536.9857999343954
 31
0.0
  0
LINE
  5
20A
330
56
100
AcDbEntity
  8
1
  6
Continuous
 62
     7
100
AcDbLine
 10
145.5132046061215
 20
523.9857999343955
 30
0.0
 11
145.5132046061215
 21
529.9857999343954
 31
0.0
  0
LINE
  5
20B
330
56
100
AcDbEntity
  8
1
  6
Continuous
 62
     7
100
AcDbLine
 10
138.5839188203931
 20
536.9857999343954
 30
0.0
 11
131.5132046061215
 21
536.9857999343954
 31
0.0
  0
ARC
  5
20C
330
56
100
AcDbEntity
  8
1
  6
Continuous
 62
     7
100
AcDbCircle
 10
158.9196598112364
 20
188.012284460888
 30
0.0
 40
24.00000000000001
100
AcDbArc
 50
123.9591925000977
 51
146.0408074999021
  0
ARC
  5
20D
330
56
100
AcDbEntity
  8
1
  6
Continuous
 62
     7
100
AcDbCircle
 10
135.0132046061214
 20
204.4187396660029
 30
0.0
 40
4.999999999999915
100
AcDbArc
 50
-134.4270040008067
 51
-36.86989764584161
  0
ARC
  5
20E
330
56
100
AcDbEntity
  8
1
  6
Continuous
 62
     7
100
AcDbCircle
 10
158.9196598112363
 20
239.8251948711178
 30
0.0
 40
23.99999999999994
100
AcDbArc
 50
-146.0408074999022
 51
-123.9591925000975
  0
ARC
  5
20F
330
56
100
AcDbEntity
  8
1
  6
Continuous
 62
     7
100
AcDbCircle
 10
135.0132046061214
 20
223.418739666003
 30
0.0
 40
4.999999999999949
100
AcDbArc
 50
36.86989764584161
 51
134.427004000806
  0
ARC
  5
210
330
56
100
AcDbEntity
  8
1
  6
Continuous
 62
     7
100
AcDbCircle
 10
158.9196598112364
 20
498.0793447292807
 30
0.0
 40
23.99999999999984
100
AcDbArc
 50
123.9591925000977
 51
146.0408074999024
  0
ARC
  5
211
330
56
100
AcDbEntity
  8
1
  6
Continuous
 62
     7
100
AcDbCircle
 10
135.0132046061215
 20
514.4857999343955
 30
0.0
 40
5.000000000000098
100
AcDbArc
 50
-44.42700400080369
 51
-36.86989764584219
  0
ARC
  5
212
330
56
100
AcDbEntity
  8
1
  6
Continuous
 62
     7
100
AcDbCircle
 10
158.9196598112364
 20
549.8922551395103
 30
0.0
 40
24.00000000000004
100
AcDbArc
 50
-146.0408074999018
 51
-123.9591925000974
  0
ARC
  5
213
330
56
100
AcDbEntity
  8
1
  6
Continuous
 62
     7
100
AcDbCircle
 10
135.0132046061215
 20
533.4857999343954
 30
0.0
 40
4.999999999999955
100
AcDbArc
 50
36.86989764584116
 51
44.42700400080416
  0
SPLINE
  5
214
330
56
100
AcDbEntity
  8
1
  6
Continuous
 62
     7
100
AcDbSpline
210
0.0
220
0.0
230
1.0
 70
     8
 71
     3
 72
    29
 73
    25
 74
    23
 42
0.0000000001
 43
0.0000000001
 44
0.00000001
 40
0.0
 40
0.0
 40
0.0
 40
0.0
 40
0.6069077131759039
 40
1.212222625822739
 40
1.842666707826842
 40
2.474631900595413
 40
3.102420172365413
 40
3.729333891456421
 40
4.27104293983321
 40
4.81298532822124
 40
5.340107980728456
 40
5.866248927280144
 40
6.263874837343264
 40
6.661485236222367
 40
7.280966497568988
 40
7.902596738528091
 40
8.549168915178703
 40
9.195896772489173
 40
9.722415974179254
 40
10.24911841725699
 40
11.07897537274011
 40
11.90732207846634
 40
12.67331709995026
 40
13.44191271185825
 40
13.44191271185825
 40
13.44191271185825
 40
13.44191271185825
 10
138.5132046061214
 20
213.9187396660029
 30
0.0
 10
138.5033292326591
 20
214.1207994955604
 30
0.0
 10
138.4836044031841
 20
214.5243888582291
 30
0.0
 10
138.419814049131
 20
215.1360944085678
 30
0.0
 10
138.2856307518138
 20
215.7455114704577
 30
0.0
 10
138.0851751311294
 20
216.343917645963
 30
0.0
 10
137.8266140143113
 20
216.9184801778586
 30
0.0
 10
137.51768462454
 20
217.4333779755302
 30
0.0
 10
137.1638676999651
 20
217.8823968495284
 30
0.0
 10
136.7758430318021
 20
218.2563384520196
 30
0.0
 10
136.3389126280394
 20
218.5633043534796
 30
0.0
 10
135.8986986609393
 20
218.7706130110135
 30
0.0
 10
135.4719895402546
 20
218.8865155992842
 30
0.0
 10
135.0010740977524
 20
218.9372188041786
 30
0.0
 10
134.4520995047084
 20
218.8767624809008
 30
0.0
 10
133.8543534384884
 20
218.663815249154
 30
0.0
 10
133.3127511924899
 20
218.3165783118078
 30
0.0
 10
132.8721432243522
 20
217.8952205859754
 30
0.0
 10
132.5222693007153
 20
217.4478070957183
 30
0.0
 10
132.1933589177262
 20
216.9119707097957
 30
0.0
 10
131.8896202960991
 20
216.2470796598823
 30
0.0
 10
131.6648504307563
 20
215.4674185984083
 30
0.0
 10
131.5604636253468
 20
214.6850129800987
 30
0.0
 10
131.5290411465979
 20
214.1744525107362
 30
0.0
 10
131.5133032822084
 20
213.9187396660029
 30
0.0
 11
138.5132046061214
 21
213.9187396660029
 31
0.0
 11
138.4780037403591
 21
214.5246256877611
 31
0.0
 11
138.4096467482749
 21
215.1260685072426
 31
0.0
 11
138.2749702624506
 21
215.7419597189838
 31
0.0
 11
138.0749053705055
 21
216.3414211805324
 31
0.0
 11
137.8155241322551
 21
216.9131199538525
 31
0.0
 11
137.4913041774771
 21
217.4496851708655
 31
0.0
 11
137.154695037496
 21
217.8741177096446
 31
0.0
 11
136.7632046061214
 21
218.2488666849252
 31
0.0
 11
136.3308594449028
 21
218.5504225708852
 31
0.0
 11
135.8538570592867
 21
218.7724428847189
 31
0.0
 11
135.470008029157
 21
218.8762036018619
 31
0.0
 11
135.0745964833428
 21
218.9179616996826
 31
0.0
 11
134.4584920291329
 21
218.8533680880613
 31
0.0
 11
133.8725578588561
 21
218.64574991791
 31
0.0
 11
133.3259562249422
 21
218.3003773170551
 31
0.0
 11
132.8559802448617
 21
217.8561031904521
 31
0.0
 11
132.5305055972905
 21
217.4422327716774
 31
0.0
 11
132.2536000991109
 21
216.9941939244532
 31
0.0
 11
131.9086380109334
 21
216.2394332178157
 31
0.0
 11
131.6799605211871
 21
215.4432769074276
 31
0.0
 11
131.5696403921725
 21
214.685267776828
 31
0.0
 11
131.5133032822084
 21
213.9187396660029
 31
0.0
  0
SPLINE
  5
215
330
56
100
AcDbEntity
  8
1
  6
Continuous
 62
     7
100
AcDbSpline
210
0.0
220
0.0
230
1.0
 70
    11
 71
     3
 72
    79
 73
    75
 74
    73
 42
0.0000000001
 43
0.0000000001
 44
0.00000001
 40
0.0
 40
0.0
 40
0.0
 40
0.0
 40
0.2803981145479015
 40
0.5607977859032033
 40
0.842745484146682
 40
1.124697473048471
 40
1.409536451638082
 40
1.694381500885872
 40
1.983071310125245
 40
2.271767843423044
 40
2.564776142200929
 40
2.857790854546428
 40
3.155055698552866
 40
3.452325978930965
 40
3.753284827389769
 40
4.054247742882742
 40
4.357919806975685
 40
4.661594368328889
 40
4.966700748943435
 40
5.271807969839442
 40
5.576915190735392
 40
5.882021571349913
 40
6.185696132703122
 40
6.489368196796058
 40
6.790331112289031
 40
7.091289960747912
 40
7.388560241126
 40
7.685825085132375
 40
7.978839797477918
 40
8.271848096255821
 40
8.56054462955353
 40
8.84923443879287
 40
9.13407948804065
 40
9.418918466630274
 40
9.700870455532009
 40
9.98281815377557
 40
10.26321782513088
 40
10.54361593967879
 40
10.82401405422669
 40
11.104413725582
 40
11.38636142382547
 40
11.66831341272719
 40
11.95315239131679
 40
12.23799744056451
 40
12.52668724980384
 40
12.81538378310149
 40
13.10839208187955
 40
13.40140679422521
 40
13.69867163823148
 40
13.99594191860951
 40
14.29690076706837
 40
14.59786368256139
 40
14.90153574665433
 40
15.20521030800753
 40
15.51031668862205
 40
15.815423909518
 40
16.120531130414
 40
16.42563751102854
 40
16.72931207238176
 40
17.0329841364747
 40
17.33394705196772
 40
17.6349059004265
 40
17.93217618080454
 40
18.22944102481087
 40
18.5224557371565
 40
18.81546403593453
 40
19.10416056923225
 40
19.39285037847163
 40
19.67769542771939
 40
19.96253440630895
 40
20.24448639521066
 40
20.52643409345411
 40
20.80683376480941
 40
21.08723187935731
 40
21.08723187935731
 40
21.08723187935731
 40
21.08723187935731
 10
138.5132046061214
 20
225.1770699152006
 30
0.0
 10
138.5106232202322
 20
225.2705704582541
 30
0.0
 10
138.5054604341216
 20
225.4575720634886
 30
0.0
 10
138.4639880840727
 20
225.7360564767285
 30
0.0
 10
138.39808792368
 20
226.0099986731308
 30
0.0
 10
138.305855814446
 20
226.2779268384662
 30
0.0
 10
138.1887736250871
 20
226.5369726260268
 30
0.0
 10
138.0472973435078
 20
226.7861319201795
 30
0.0
 10
137.8830149975148
 20
227.0224419403575
 30
0.0
 10
137.6965548492982
 20
227.2452169342753
 30
0.0
 10
137.490130374361
 20
227.4516729665733
 30
0.0
 10
137.2644126799245
 20
227.6412857102138
 30
0.0
 10
137.0221218815757
 20
227.8116848861395
 30
0.0
 10
136.7640643887358
 20
227.9623976937474
 30
0.0
 10
136.4932371852539
 20
228.0916208302731
 30
0.0
 10
136.2107203317572
 20
228.1989005034573
 30
0.0
 10
135.919532361164
 20
228.2830550070124
 30
0.0
 10
135.6211535882493
 20
228.3436982808436
 30
0.0
 10
135.3183926163691
 20
228.380232043115
 30
0.0
 10
135.0132046061212
 20
228.3924510738516
 30
0.0
 10
134.7080165958748
 20
228.380232043115
 30
0.0
 10
134.40525562399
 20
228.3436982808436
 30
0.0
 10
134.1068768510922
 20
228.2830550070125
 30
0.0
 10
133.8156888804363
 20
228.1989005034572
 30
0.0
 10
133.5331720271714
 20
228.091620830273
 30
0.0
 10
133.2623448228297
 20
227.9623976937475
 30
0.0
 10
133.0042873331607
 20
227.8116848861395
 30
0.0
 10
132.7619965230651
 20
227.6412857102137
 30
0.0
 10
132.5362788718672
 20
227.4516729665734
 30
0.0
 10
132.3298542368406
 20
227.2452169342755
 30
0.0
 10
132.1433946776634
 20
227.0224419403574
 30
0.0
 10
131.9791101499524
 20
226.7861319201795
 30
0.0
 10
131.8376419068825
 20
226.5369726260267
 30
0.0
 10
131.7205299032809
 20
226.2779268384663
 30
0.0
 10
131.6284079848081
 20
226.0099986731308
 30
0.0
 10
131.5620982192403
 20
225.7360564767286
 30
0.0
 10
131.5221465541445
 20
225.4575720634885
 30
0.0
 10
131.5087336445216
 20
225.1770699152006
 30
0.0
 10
131.5221465541444
 20
224.8965677669127
 30
0.0
 10
131.5620982192403
 20
224.6180833536727
 30
0.0
 10
131.628407984808
 20
224.3441411572703
 30
0.0
 10
131.720529903281
 20
224.0762129919351
 30
0.0
 10
131.8376419068826
 20
223.8171672043747
 30
0.0
 10
131.9791101499524
 20
223.5680079102218
 30
0.0
 10
132.1433946776635
 20
223.331697890044
 30
0.0
 10
132.3298542368406
 20
223.1089228961261
 30
0.0
 10
132.5362788718672
 20
222.9024668638279
 30
0.0
 10
132.761996523065
 20
222.7128541201874
 30
0.0
 10
133.0042873331606
 20
222.5424549442618
 30
0.0
 10
133.2623448228297
 20
222.3917421366539
 30
0.0
 10
133.5331720271714
 20
222.2625190001285
 30
0.0
 10
133.8156888804363
 20
222.155239326944
 30
0.0
 10
134.1068768510921
 20
222.0710848233889
 30
0.0
 10
134.40525562399
 20
222.0104415495576
 30
0.0
 10
134.7080165958749
 20
221.9739077872865
 30
0.0
 10
135.0132046061211
 20
221.9616887565497
 30
0.0
 10
135.3183926163691
 20
221.9739077872865
 30
0.0
 10
135.6211535882493
 20
222.0104415495576
 30
0.0
 10
135.9195323611641
 20
222.0710848233889
 30
0.0
 10
136.2107203317572
 20
222.155239326944
 30
0.0
 10
136.4932371852539
 20
222.2625190001286
 30
0.0
 10
136.7640643887357
 20
222.3917421366539
 30
0.0
 10
137.0221218815757
 20
222.5424549442617
 30
0.0
 10
137.2644126799245
 20
222.7128541201873
 30
0.0
 10
137.4901303743611
 20
222.9024668638279
 30
0.0
 10
137.6965548492982
 20
223.1089228961262
 30
0.0
 10
137.8830149975147
 20
223.331697890044
 30
0.0
 10
138.0472973435079
 20
223.5680079102219
 30
0.0
 10
138.188773625087
 20
223.8171672043747
 30
0.0
 10
138.3058558144461
 20
224.0762129919351
 30
0.0
 10
138.39808792368
 20
224.3441411572704
 30
0.0
 10
138.4639880840727
 20
224.6180833536727
 30
0.0
 10
138.5054604341216
 20
224.8965677669127
 30
0.0
 10
138.5106232202322
 20
225.0835693721471
 30
0.0
 10
138.5132046061214
 20
225.1770699152006
 30
0.0
 11
138.5132046061214
 21
225.1770699152006
 31
0.0
 11
138.4998518208233
 21
225.4571499140702
 31
0.0
 11
138.4600317416642
 21
225.7347077224488
 31
0.0
 11
138.3937721589403
 21
226.0087591268277
 31
0.0
 11
138.3021287788722
 21
226.2754019871022
 31
0.0
 11
138.1848807785871
 21
226.5349904116383
 31
0.0
 11
138.0442935193671
 21
226.7827239875338
 31
0.0
 11
137.879596324015
 21
227.0198244721428
 31
0.0
 11
137.6943601570378
 21
227.2412590014777
 31
0.0
 11
137.4872672801226
 21
227.4485423907873
 31
0.0
 11
137.2629612400243
 21
227.6370746745648
 31
0.0
 11
137.0198664093235
 21
227.8081632211385
 31
0.0
 11
136.7632046061214
 21
227.9581443478616
 31
0.0
 11
136.4916163861503
 21
228.087821127736
 31
0.0
 11
136.2102751077613
 21
228.1947124818132
 31
0.0
 11
135.9185576242159
 21
228.2790785431434
 31
0.0
 11
135.6209732279557
 21
228.3395910733792
 31
0.0
 11
135.3180674934214
 21
228.3761700219422
 31
0.0
 11
135.0132046061214
 21
228.388378059867
 31
0.0
 11
134.7083417188214
 21
228.3761700219422
 31
0.0
 11
134.4054359842872
 21
228.3395910733792
 31
0.0
 11
134.1078515880271
 21
228.2790785431434
 31
0.0
 11
133.8161341044816
 21
228.1947124818132
 31
0.0
 11
133.5347928260926
 21
228.087821127736
 31
0.0
 11
133.2632046061214
 21
227.9581443478616
 31
0.0
 11
133.0065428029193
 21
227.8081632211385
 31
0.0
 11
132.7634479722186
 21
227.6370746745648
 31
0.0
 11
132.5391419321203
 21
227.4485423907873
 31
0.0
 11
132.332049055205
 21
227.2412590014777
 31
0.0
 11
132.1468128882279
 21
227.0198244721428
 31
0.0
 11
131.9821156928759
 21
226.7827239875338
 31
0.0
 11
131.8415284336559
 21
226.5349904116383
 31
0.0
 11
131.7242804333708
 21
226.2754019871022
 31
0.0
 11
131.6326370533027
 21
226.0087591268278
 31
0.0
 11
131.5663774705787
 21
225.7347077224488
 31
0.0
 11
131.5265573914195
 21
225.4571499140702
 31
0.0
 11
131.5132046061214
 21
225.1770699152006
 31
0.0
 11
131.5265573914195
 21
224.896989916331
 31
0.0
 11
131.5663774705787
 21
224.6194321079524
 31
0.0
 11
131.6326370533027
 21
224.3453807035735
 31
0.0
 11
131.7242804333708
 21
224.0787378432991
 31
0.0
 11
131.841528433656
 21
223.8191494187631
 31
0.0
 11
131.9821156928759
 21
223.5714158428676
 31
0.0
 11
132.146812888228
 21
223.3343153582586
 31
0.0
 11
132.332049055205
 21
223.1128808289238
 31
0.0
 11
132.5391419321203
 21
222.905597439614
 31
0.0
 11
132.7634479722186
 21
222.7170651558363
 31
0.0
 11
133.0065428029193
 21
222.5459766092627
 31
0.0
 11
133.2632046061214
 21
222.3959954825398
 31
0.0
 11
133.5347928260926
 21
222.2663187026654
 31
0.0
 11
133.8161341044816
 21
222.1594273485881
 31
0.0
 11
134.1078515880271
 21
222.0750612872579
 31
0.0
 11
134.4054359842872
 21
222.0145487570221
 31
0.0
 11
134.7083417188214
 21
221.9779698084591
 31
0.0
 11
135.0132046061214
 21
221.9657617705344
 31
0.0
 11
135.3180674934214
 21
221.9779698084591
 31
0.0
 11
135.6209732279557
 21
222.0145487570221
 31
0.0
 11
135.9185576242159
 21
222.0750612872578
 31
0.0
 11
136.2102751077613
 21
222.1594273485881
 31
0.0
 11
136.4916163861503
 21
222.2663187026655
 31
0.0
 11
136.7632046061214
 21
222.3959954825398
 31
0.0
 11
137.0198664093235
 21
222.5459766092627
 31
0.0
 11
137.2629612400243
 21
222.7170651558363
 31
0.0
 11
137.4872672801226
 21
222.905597439614
 31
0.0
 11
137.6943601570378
 21
223.1128808289238
 31
0.0
 11
137.879596324015
 21
223.3343153582586
 31
0.0
 11
138.0442935193671
 21
223.5714158428676
 31
0.0
 11
138.1848807785871
 21
223.8191494187631
 31
0.0
 11
138.3021287788722
 21
224.0787378432991
 31
0.0
 11
138.3937721589403
 21
224.3453807035735
 31
0.0
 11
138.4600317416642
 21
224.6194321079524
 31
0.0
 11
138.4998518208233
 21
224.896989916331
 31
0.0
 11
138.5132046061214
 21
225.1770699152006
 31
0.0
  0
SPLINE
  5
216
330
56
100
AcDbEntity
  8
1
  6
Continuous
 62
     7
100
AcDbSpline
210
0.0
220
0.0
230
1.0
 70
     8
 71
     3
 72
    29
 73
    25
 74
    23
 42
0.0000000001
 43
0.0000000001
 44
0.00000001
 40
0.0
 40
0.0
 40
0.0
 40
0.0
 40
0.6069077131758472
 40
1.212222625822626
 40
1.842666707826645
 40
2.474631900595298
 40
3.102420172365246
 40
3.729333891456204
 40
4.271042939833038
 40
4.812985328221048
 40
5.340107980728264
 40
5.866248927279976
 40
6.263874837343134
 40
6.661485236222245
 40
7.280966497568825
 40
7.902596738528001
 40
8.549168915178658
 40
9.195896772489069
 40
9.722415974179022
 40
10.24911841725672
 40
11.07897537273996
 40
11.90732207846627
 40
12.67331709995018
 40
13.44191271185806
 40
13.44191271185806
 40
13.44191271185806
 40
13.44191271185806
 10
138.5132046061214
 20
213.9187396660029
 30
0.0
 10
138.5033292326591
 20
213.7166798364454
 30
0.0
 10
138.4836044031841
 20
213.3130904737767
 30
0.0
 10
138.419814049131
 20
212.7013849234381
 30
0.0
 10
138.2856307518138
 20
212.0919678615482
 30
0.0
 10
138.0851751311293
 20
211.4935616860429
 30
0.0
 10
137.8266140143113
 20
210.9189991541473
 30
0.0
 10
137.5176846245399
 20
210.4041013564758
 30
0.0
 10
137.1638676999651
 20
209.9550824824776
 30
0.0
 10
136.7758430318021
 20
209.5811408799865
 30
0.0
 10
136.3389126280394
 20
209.2741749785264
 30
0.0
 10
135.8986986609392
 20
209.0668663209925
 30
0.0
 10
135.4719895402546
 20
208.9509637327216
 30
0.0
 10
135.0010740977524
 20
208.900260527827
 30
0.0
 10
134.4520995047084
 20
208.9607168511051
 30
0.0
 10
133.8543534384884
 20
209.1736640828518
 30
0.0
 10
133.3127511924899
 20
209.5209010201981
 30
0.0
 10
132.8721432243522
 20
209.9422587460306
 30
0.0
 10
132.5222693007154
 20
210.3896722362876
 30
0.0
 10
132.1933589177262
 20
210.9255086222101
 30
0.0
 10
131.8896202960991
 20
211.5903996721236
 30
0.0
 10
131.6648504307562
 20
212.3700607335975
 30
0.0
 10
131.5604636253468
 20
213.1524663519072
 30
0.0
 10
131.5290411465979
 20
213.6630268212696
 30
0.0
 10
131.5133032822084
 20
213.9187396660029
 30
0.0
 11
138.5132046061214
 21
213.9187396660029
 31
0.0
 11
138.4780037403591
 21
213.3128536442447
 31
0.0
 11
138.4096467482749
 21
212.7114108247633
 31
0.0
 11
138.2749702624506
 21
212.0955196130222
 31
0.0
 11
138.0749053705055
 21
211.4960581514735
 31
0.0
 11
137.8155241322551
 21
210.9243593781535
 31
0.0
 11
137.4913041774771
 21
210.3877941611405
 31
0.0
 11
137.154695037496
 21
209.9633616223613
 31
0.0
 11
136.7632046061214
 21
209.5886126470808
 31
0.0
 11
136.3308594449028
 21
209.2870567611208
 31
0.0
 11
135.8538570592867
 21
209.065036447287
 31
0.0
 11
135.470008029157
 21
208.9612757301439
 31
0.0
 11
135.0745964833428
 21
208.9195176323231
 31
0.0
 11
134.4584920291329
 21
208.9841112439445
 31
0.0
 11
133.8725578588561
 21
209.1917294140959
 31
0.0
 11
133.3259562249422
 21
209.5371020149509
 31
0.0
 11
132.8559802448617
 21
209.9813761415538
 31
0.0
 11
132.5305055972906
 21
210.3952465603284
 31
0.0
 11
132.2536000991109
 21
210.8432854075525
 31
0.0
 11
131.9086380109334
 21
211.5980461141901
 31
0.0
 11
131.6799605211871
 21
212.3942024245783
 31
0.0
 11
131.5696403921725
 21
213.1522115551779
 31
0.0
 11
131.5133032822084
 21
213.9187396660029
 31
0.0
  0
SPLINE
  5
217
330
56
100
AcDbEntity
  8
1
  6
Continuous
 62
     7
100
AcDbSpline
210
0.0
220
0.0
230
1.0
 70
    11
 71
     3
 72
    79
 73
    75
 74
    73
 42
0.0000000001
 43
0.0000000001
 44
0.00000001
 40
0.0
 40
0.0
 40
0.0
 40
0.0
 40
0.2803981145479015
 40
0.5607977859032033
 40
0.8427454841467097
 40
1.124697473048472
 40
1.409536451638056
 40
1.694381500885773
 40
1.983071310125148
 40
2.271767843422892
 40
2.564776142200877
 40
2.857790854546471
 40
3.155055698552771
 40
3.452325978930837
 40
3.753284827389667
 40
4.054247742882684
 40
4.357919806975636
 40
4.661594368328833
 40
4.966700748943369
 40
5.271807969839373
 40
5.576915190735264
 40
5.882021571349828
 40
6.18569613270302
 40
6.489368196795979
 40
6.790331112289024
 40
7.091289960747905
 40
7.388560241125971
 40
7.685825085132201
 40
7.978839797477821
 40
8.271848096255845
 40
8.560544629553512
 40
8.849234438792845
 40
9.134079488040547
 40
9.418918466630142
 40
9.700870455531923
 40
9.982818153775444
 40
10.26321782513076
 40
10.54361593967866
 40
10.82401405422656
 40
11.10441372558196
 40
11.38636142382549
 40
11.66831341272726
 40
11.9531523913168
 40
12.23799744056456
 40
12.52668724980392
 40
12.81538378310156
 40
13.10839208187955
 40
13.40140679422515
 40
13.69867163823148
 40
13.99594191860955
 40
14.29690076706842
 40
14.59786368256139
 40
14.90153574665434
 40
15.20521030800754
 40
15.51031668862211
 40
15.815423909518
 40
16.12053113041401
 40
16.42563751102855
 40
16.72931207238178
 40
17.0329841364747
 40
17.33394705196769
 40
17.63490590042645
 40
17.93217618080457
 40
18.22944102481093
 40
18.52245573715653
 40
18.81546403593445
 40
19.10416056923218
 40
19.39285037847158
 40
19.67769542771929
 40
19.96253440630888
 40
20.24448639521065
 40
20.52643409345415
 40
20.80683376480953
 40
21.08723187935743
 40
21.08723187935743
 40
21.08723187935743
 40
21.08723187935743
 10
138.5132046061214
 20
202.6604094168052
 30
0.0
 10
138.5106232202322
 20
202.5669088737517
 30
0.0
 10
138.5054604341216
 20
202.3799072685173
 30
0.0
 10
138.4639880840727
 20
202.1014228552773
 30
0.0
 10
138.39808792368
 20
201.827480658875
 30
0.0
 10
138.3058558144461
 20
201.5595524935395
 30
0.0
 10
138.1887736250871
 20
201.3005067059792
 30
0.0
 10
138.0472973435079
 20
201.0513474118264
 30
0.0
 10
137.8830149975146
 20
200.8150373916485
 30
0.0
 10
137.6965548492982
 20
200.5922623977306
 30
0.0
 10
137.490130374361
 20
200.3858063654325
 30
0.0
 10
137.2644126799245
 20
200.1961936217919
 30
0.0
 10
137.0221218815757
 20
200.0257944458664
 30
0.0
 10
136.7640643887357
 20
199.8750816382586
 30
0.0
 10
136.4932371852539
 20
199.745858501733
 30
0.0
 10
136.2107203317572
 20
199.6385788285485
 30
0.0
 10
135.919532361164
 20
199.5544243249933
 30
0.0
 10
135.6211535882493
 20
199.4937810511622
 30
0.0
 10
135.3183926163691
 20
199.457247288891
 30
0.0
 10
135.0132046061212
 20
199.4450282581544
 30
0.0
 10
134.7080165958749
 20
199.457247288891
 30
0.0
 10
134.40525562399
 20
199.4937810511622
 30
0.0
 10
134.1068768510921
 20
199.5544243249933
 30
0.0
 10
133.8156888804363
 20
199.6385788285485
 30
0.0
 10
133.5331720271714
 20
199.745858501733
 30
0.0
 10
133.2623448228297
 20
199.8750816382586
 30
0.0
 10
133.0042873331606
 20
200.0257944458664
 30
0.0
 10
132.761996523065
 20
200.196193621792
 30
0.0
 10
132.5362788718672
 20
200.3858063654324
 30
0.0
 10
132.3298542368406
 20
200.5922623977306
 30
0.0
 10
132.1433946776634
 20
200.8150373916485
 30
0.0
 10
131.9791101499524
 20
201.0513474118264
 30
0.0
 10
131.8376419068825
 20
201.3005067059792
 30
0.0
 10
131.720529903281
 20
201.5595524935395
 30
0.0
 10
131.628407984808
 20
201.827480658875
 30
0.0
 10
131.5620982192403
 20
202.1014228552773
 30
0.0
 10
131.5221465541445
 20
202.3799072685173
 30
0.0
 10
131.5087336445216
 20
202.6604094168052
 30
0.0
 10
131.5221465541445
 20
202.9409115650931
 30
0.0
 10
131.5620982192403
 20
203.2193959783333
 30
0.0
 10
131.6284079848081
 20
203.4933381747355
 30
0.0
 10
131.720529903281
 20
203.761266340071
 30
0.0
 10
131.8376419068825
 20
204.0203121276313
 30
0.0
 10
131.9791101499525
 20
204.2694714217842
 30
0.0
 10
132.1433946776634
 20
204.505781441962
 30
0.0
 10
132.3298542368406
 20
204.7285564358799
 30
0.0
 10
132.5362788718672
 20
204.935012468178
 30
0.0
 10
132.7619965230651
 20
205.1246252118184
 30
0.0
 10
133.0042873331606
 20
205.2950243877442
 30
0.0
 10
133.2623448228297
 20
205.4457371953521
 30
0.0
 10
133.5331720271714
 20
205.5749603318776
 30
0.0
 10
133.8156888804363
 20
205.6822400050618
 30
0.0
 10
134.1068768510921
 20
205.766394508617
 30
0.0
 10
134.4052556239901
 20
205.8270377824483
 30
0.0
 10
134.7080165958748
 20
205.8635715447194
 30
0.0
 10
135.0132046061212
 20
205.8757905754562
 30
0.0
 10
135.3183926163691
 20
205.8635715447194
 30
0.0
 10
135.6211535882493
 20
205.8270377824483
 30
0.0
 10
135.919532361164
 20
205.766394508617
 30
0.0
 10
136.2107203317572
 20
205.6822400050619
 30
0.0
 10
136.4932371852539
 20
205.5749603318776
 30
0.0
 10
136.7640643887358
 20
205.445737195352
 30
0.0
 10
137.0221218815758
 20
205.2950243877441
 30
0.0
 10
137.2644126799245
 20
205.1246252118185
 30
0.0
 10
137.4901303743611
 20
204.935012468178
 30
0.0
 10
137.6965548492981
 20
204.7285564358799
 30
0.0
 10
137.8830149975147
 20
204.505781441962
 30
0.0
 10
138.0472973435078
 20
204.2694714217842
 30
0.0
 10
138.1887736250871
 20
204.0203121276314
 30
0.0
 10
138.305855814446
 20
203.7612663400709
 30
0.0
 10
138.39808792368
 20
203.4933381747356
 30
0.0
 10
138.4639880840727
 20
203.2193959783332
 30
0.0
 10
138.5054604341216
 20
202.9409115650932
 30
0.0
 10
138.5106232202321
 20
202.7539099598587
 30
0.0
 10
138.5132046061214
 20
202.6604094168052
 30
0.0
 11
138.5132046061214
 21
202.6604094168052
 31
0.0
 11
138.4998518208233
 21
202.3803294179356
 31
0.0
 11
138.4600317416642
 21
202.102771609557
 31
0.0
 11
138.3937721589403
 21
201.8287202051781
 31
0.0
 11
138.3021287788722
 21
201.5620773449036
 31
0.0
 11
138.1848807785871
 21
201.3024889203676
 31
0.0
 11
138.0442935193671
 21
201.0547553444721
 31
0.0
 11
137.879596324015
 21
200.8176548598632
 31
0.0
 11
137.6943601570378
 21
200.5962203305283
 31
0.0
 11
137.4872672801226
 21
200.3889369412185
 31
0.0
 11
137.2629612400243
 21
200.2004046574409
 31
0.0
 11
137.0198664093235
 21
200.0293161108674
 31
0.0
 11
136.7632046061214
 21
199.8793349841444
 31
0.0
 11
136.4916163861503
 21
199.74965820427
 31
0.0
 11
136.2102751077613
 21
199.6427668501926
 31
0.0
 11
135.9185576242159
 21
199.5584007888623
 31
0.0
 11
135.6209732279557
 21
199.4978882586266
 31
0.0
 11
135.3180674934214
 21
199.4613093100637
 31
0.0
 11
135.0132046061214
 21
199.449101272139
 31
0.0
 11
134.7083417188215
 21
199.4613093100637
 31
0.0
 11
134.4054359842872
 21
199.4978882586266
 31
0.0
 11
134.1078515880271
 21
199.5584007888623
 31
0.0
 11
133.8161341044816
 21
199.6427668501926
 31
0.0
 11
133.5347928260926
 21
199.74965820427
 31
0.0
 11
133.2632046061214
 21
199.8793349841444
 31
0.0
 11
133.0065428029193
 21
200.0293161108674
 31
0.0
 11
132.7634479722186
 21
200.2004046574409
 31
0.0
 11
132.5391419321203
 21
200.3889369412185
 31
0.0
 11
132.332049055205
 21
200.5962203305283
 31
0.0
 11
132.1468128882279
 21
200.8176548598631
 31
0.0
 11
131.9821156928759
 21
201.0547553444721
 31
0.0
 11
131.841528433656
 21
201.3024889203676
 31
0.0
 11
131.7242804333708
 21
201.5620773449036
 31
0.0
 11
131.6326370533027
 21
201.8287202051781
 31
0.0
 11
131.5663774705787
 21
202.102771609557
 31
0.0
 11
131.5265573914195
 21
202.3803294179356
 31
0.0
 11
131.5132046061214
 21
202.6604094168052
 31
0.0
 11
131.5265573914195
 21
202.9404894156748
 31
0.0
 11
131.5663774705787
 21
203.2180472240535
 31
0.0
 11
131.6326370533027
 21
203.4920986284324
 31
0.0
 11
131.7242804333708
 21
203.7587414887069
 31
0.0
 11
131.8415284336559
 21
204.0183299132429
 31
0.0
 11
131.9821156928759
 21
204.2660634891384
 31
0.0
 11
132.1468128882279
 21
204.5031639737474
 31
0.0
 11
132.332049055205
 21
204.7245985030822
 31
0.0
 11
132.5391419321203
 21
204.9318818923919
 31
0.0
 11
132.7634479722186
 21
205.1204141761695
 31
0.0
 11
133.0065428029193
 21
205.2915027227432
 31
0.0
 11
133.2632046061214
 21
205.4414838494662
 31
0.0
 11
133.5347928260926
 21
205.5711606293406
 31
0.0
 11
133.8161341044816
 21
205.6780519834178
 31
0.0
 11
134.1078515880271
 21
205.762418044748
 31
0.0
 11
134.4054359842872
 21
205.8229305749838
 31
0.0
 11
134.7083417188215
 21
205.8595095235468
 31
0.0
 11
135.0132046061214
 21
205.8717175614715
 31
0.0
 11
135.3180674934214
 21
205.8595095235468
 31
0.0
 11
135.6209732279557
 21
205.8229305749838
 31
0.0
 11
135.9185576242159
 21
205.762418044748
 31
0.0
 11
136.2102751077613
 21
205.6780519834178
 31
0.0
 11
136.4916163861503
 21
205.5711606293405
 31
0.0
 11
136.7632046061214
 21
205.4414838494662
 31
0.0
 11
137.0198664093236
 21
205.2915027227432
 31
0.0
 11
137.2629612400243
 21
205.1204141761695
 31
0.0
 11
137.4872672801226
 21
204.9318818923919
 31
0.0
 11
137.6943601570378
 21
204.7245985030822
 31
0.0
 11
137.879596324015
 21
204.5031639737474
 31
0.0
 11
138.0442935193671
 21
204.2660634891384
 31
0.0
 11
138.1848807785871
 21
204.0183299132429
 31
0.0
 11
138.3021287788722
 21
203.7587414887069
 31
0.0
 11
138.3937721589403
 21
203.4920986284324
 31
0.0
 11
138.4600317416642
 21
203.2180472240535
 31
0.0
 11
138.4998518208233
 21
202.9404894156748
 31
0.0
 11
138.5132046061214
 21
202.6604094168052
 31
0.0
  0
SPLINE
  5
218
330
56
100
AcDbEntity
  8
1
  6
Continuous
 62
     7
100
AcDbSpline
210
0.0
220
0.0
230
1.0
 70
    11
 71
     3
 72
    79
 73
    75
 74
    73
 42
0.0000000001
 43
0.0000000001
 44
0.00000001
 40
0.0
 40
0.0
 40
0.0
 40
0.0
 40
0.3171598656884933
 40
0.6340856861075392
 40
0.9694901489363421
 40
1.304562820901282
 40
1.666124796939026
 40
2.02738586650489
 40
2.418724079015779
 40
2.809836934323259
 40
3.230628787512666
 40
3.651266058867686
 40
4.098016897819017
 40
4.544667758504513
 40
5.011536287768368
 40
5.478345522146668
 40
5.957894801974934
 40
6.437416541840489
 40
6.921284920564521
 40
7.405153299288666
 40
7.884675039154108
 40
8.364224318982487
 40
8.831033553360681
 40
9.297902082624765
 40
9.744552943310261
 40
10.19130378226169
 40
10.61194105361659
 40
11.03273290680589
 40
11.42384576211338
 40
11.81518397462429
 40
12.17644504419013
 40
12.53800702022793
 40
12.87307969219289
 40
13.20848415502164
 40
13.52540997544073
 40
13.84256984112923
 40
14.15305257372693
 40
14.46353530632468
 40
14.78069517201327
 40
15.09762099243226
 40
15.43302545526099
 40
15.768098127226
 40
16.12966010326376
 40
16.49092117282971
 40
16.8822593853406
 40
17.27337224064808
 40
17.69416409383724
 40
18.11480136519226
 40
18.56155220414371
 40
19.0082030648292
 40
19.47507159409317
 40
19.94188082847147
 40
20.42143010829985
 40
20.9009518481653
 40
21.38482022688933
 40
21.86868860561348
 40
22.34821034547904
 40
22.82775962530742
 40
23.29456885968561
 40
23.76143738894959
 40
24.208088249635
 40
24.65483908858651
 40
25.07547635994139
 40
25.49626821313067
 40
25.88738106843807
 40
26.27871928094896
 40
26.63998035051482
 40
27.00154232655266
 40
27.33661499851773
 40
27.67201946134646
 40
27.98894528176545
 40
28.30610514745398
 40
28.61658788005174
 40
28.92707061264942
 40
28.92707061264942
 40
28.92707061264942
 40
28.92707061264942
 10
134.7388365013467
 20
511.9453264087088
 30
0.0
 10
134.6345881118477
 20
511.9639043398177
 30
0.0
 10
134.426168262011
 20
512.001046492618
 30
0.0
 10
134.1211309582346
 20
512.1119015655808
 30
0.0
 10
133.8259793130719
 20
512.2589218747887
 30
0.0
 10
133.5382896869385
 20
512.4489929839093
 30
0.0
 10
133.2660508599525
 20
512.674120931649
 30
0.0
 10
133.0046420844594
 20
512.9387051882652
 30
0.0
 10
132.7624545192518
 20
513.2338016133203
 30
0.0
 10
132.5348275441332
 20
513.5645439691311
 30
0.0
 10
132.3291355982392
 20
513.9206699698682
 30
0.0
 10
132.141754298088
 20
514.3073988174268
 30
0.0
 10
131.9783006997874
 20
514.714135499167
 30
0.0
 10
131.8365020664861
 20
515.1451210274568
 30
0.0
 10
131.7200651426238
 20
515.5905528877189
 30
0.0
 10
131.6278810513977
 20
516.052785875052
 30
0.0
 10
131.5619998129851
 20
516.5237537972828
 30
0.0
 10
131.5220061624702
 20
517.0033151604748
 30
0.0
 10
131.5087839724466
 20
517.485799934393
 30
0.0
 10
131.5220061624689
 20
517.9682847083255
 30
0.0
 10
131.5619998129899
 20
518.4478460714734
 30
0.0
 10
131.6278810513798
 20
518.9188139938657
 30
0.0
 10
131.7200651426883
 20
519.3810469806126
 30
0.0
 10
131.83650206625
 20
519.8264788430183
 30
0.0
 10
131.9783007006267
 20
520.2574643636397
 30
0.0
 10
132.1417542950285
 20
520.6642010731837
 30
0.0
 10
132.3291356089198
 20
521.0509298227526
 30
0.0
 10
132.5348275053665
 20
521.4070561761305
 30
0.0
 10
132.7624546526687
 20
521.7377973039883
 30
0.0
 10
133.0046416012162
 20
522.0328981268478
 30
0.0
 10
133.2660525106724
 20
522.2974671647841
 30
0.0
 10
133.5382836954637
 20
522.5226496139882
 30
0.0
 10
133.8259998696563
 20
522.7125313916176
 30
0.0
 10
134.1210557513942
 20
522.8602346521423
 30
0.0
 10
134.4264318998508
 20
522.9686732031288
 30
0.0
 10
134.7356639537883
 20
523.0328557921289
 30
0.0
 10
135.0485617132572
 20
523.0554150205444
 30
0.0
 10
135.3614594727262
 20
523.0328557921289
 30
0.0
 10
135.6706915266638
 20
522.9686732031287
 30
0.0
 10
135.9760676751203
 20
522.8602346521424
 30
0.0
 10
136.2711235568582
 20
522.7125313916177
 30
0.0
 10
136.5588397310508
 20
522.5226496139877
 30
0.0
 10
136.8310709158423
 20
522.2974671647844
 30
0.0
 10
137.0924818252983
 20
522.0328981268478
 30
0.0
 10
137.3346687738459
 20
521.7377973039882
 30
0.0
 10
137.562295921148
 20
521.4070561761307
 30
0.0
 10
137.7679878175948
 20
521.0509298227526
 30
0.0
 10
137.955369131486
 20
520.6642010731838
 30
0.0
 10
138.1188227258879
 20
520.2574643636397
 30
0.0
 10
138.2606213602645
 20
519.8264788430182
 30
0.0
 10
138.3770582838263
 20
519.3810469806128
 30
0.0
 10
138.4692423751347
 20
518.9188139938657
 30
0.0
 10
138.5351236135246
 20
518.4478460714736
 30
0.0
 10
138.5751172640457
 20
517.968284708325
 30
0.0
 10
138.5883394540676
 20
517.4857999343955
 30
0.0
 10
138.5751172640458
 20
517.0033151604662
 30
0.0
 10
138.5351236135242
 20
516.5237537973147
 30
0.0
 10
138.469242375136
 20
516.0527858749342
 30
0.0
 10
138.3770582838217
 20
515.5905528881453
 30
0.0
 10
138.2606213602813
 20
515.1451210258923
 30
0.0
 10
138.1188227258282
 20
514.7141355047263
 30
0.0
 10
137.9553691317034
 20
514.3073987971568
 30
0.0
 10
137.7679878168361
 20
513.9206700406282
 30
0.0
 10
137.5622959239016
 20
513.5645437122976
 30
0.0
 10
137.3346687643695
 20
513.2338024972207
 30
0.0
 10
137.0924818596224
 20
512.9387019867293
 30
0.0
 10
136.8310707985944
 20
512.6741318678367
 30
0.0
 10
136.5588401566149
 20
512.4489532897771
 30
0.0
 10
136.2711220967597
 20
512.2590580642604
 30
0.0
 10
135.9760730169316
 20
512.111403312582
 30
0.0
 10
135.6706728009256
 20
512.0027931202349
 30
0.0
 10
135.3615289253876
 20
511.9392393887998
 30
0.0
 10
135.0483085518787
 20
511.914379389667
 30
0.0
 10
134.841993851524
 20
511.9350107356948
 30
0.0
 10
134.7388365013467
 20
511.9453264087088
 30
0.0
 11
134.7388365013467
 21
511.9453264087088
 31
0.0
 11
134.4283212635626
 21
512.0099071140892
 31
0.0
 11
134.1293654478656
 21
512.1151088056595
 31
0.0
 11
133.8292624610349
 21
512.2648898157402
 31
0.0
 11
133.5491257356501
 21
512.4487297205171
 31
0.0
 11
133.2700817771798
 21
512.6786460786944
 31
0.0
 11
133.0156645001673
 21
512.9351249463257
 31
0.0
 11
132.7668258480766
 21
513.2371595830761
 31
0.0
 11
132.5446424400496
 21
513.5590350229348
 31
0.0
 11
132.3336177896988
 21
513.9230877397972
 31
0.0
 11
132.1498512061578
 21
514.301459986172
 31
0.0
 11
131.9827891637444
 21
514.715798719684
 31
0.0
 11
131.842952923018
 21
515.139995392385
 31
0.0
 11
131.7245248538337
 21
515.5915936829556
 31
0.0
 11
131.6330929581367
 21
516.0493611673296
 31
0.0
 11
131.56643140923
 21
516.524254576087
 31
0.0
 11
131.5265614781964
 21
517.0021159446899
 31
0.0
 11
131.5132046061216
 21
517.4857999343954
 31
0.0
 11
131.5265614781964
 21
517.9694839241009
 31
0.0
 11
131.56643140923
 21
518.4473452927037
 31
0.0
 11
131.6330929581367
 21
518.9222387014612
 31
0.0
 11
131.7245248538337
 21
519.3800061858351
 31
0.0
 11
131.842952923018
 21
519.8316044764059
 31
0.0
 11
131.9827891637445
 21
520.2558011491069
 31
0.0
 11
132.1498512061578
 21
520.6701398826191
 31
0.0
 11
132.3336177896988
 21
521.0485121289937
 31
0.0
 11
132.5446424400496
 21
521.412564845856
 31
0.0
 11
132.7668258480766
 21
521.7344402857148
 31
0.0
 11
133.0156645001673
 21
522.0364749224651
 31
0.0
 11
133.2700817771798
 21
522.2929537900964
 31
0.0
 11
133.5491257356501
 21
522.5228701482738
 31
0.0
 11
133.8292624610349
 21
522.7067100530508
 31
0.0
 11
134.1293654478656
 21
522.8564910631313
 31
0.0
 11
134.4283212635626
 21
522.9616927547017
 31
0.0
 11
134.7388365013467
 21
523.0262734600822
 31
0.0
 11
135.0485617132572
 21
523.0479487997174
 31
0.0
 11
135.3582869251678
 21
523.0262734600822
 31
0.0
 11
135.668802162952
 21
522.9616927547016
 31
0.0
 11
135.9677579786489
 21
522.8564910631313
 31
0.0
 11
136.2678609654795
 21
522.7067100530508
 31
0.0
 11
136.5479976908644
 21
522.5228701482738
 31
0.0
 11
136.8270416493348
 21
522.2929537900965
 31
0.0
 11
137.0814589263473
 21
522.0364749224651
 31
0.0
 11
137.330297578438
 21
521.7344402857148
 31
0.0
 11
137.5524809864649
 21
521.412564845856
 31
0.0
 11
137.7635056368157
 21
521.0485121289938
 31
0.0
 11
137.9472722203567
 21
520.6701398826191
 31
0.0
 11
138.1143342627701
 21
520.2558011491069
 31
0.0
 11
138.2541705034965
 21
519.8316044764059
 31
0.0
 11
138.3725985726808
 21
519.3800061858352
 31
0.0
 11
138.4640304683778
 21
518.9222387014612
 31
0.0
 11
138.5306920172845
 21
518.4473452927037
 31
0.0
 11
138.5705619483182
 21
517.9694839241009
 31
0.0
 11
138.583918820393
 21
517.4857999343955
 31
0.0
 11
138.5705619483182
 21
517.0021159446899
 31
0.0
 11
138.5306920172845
 21
516.524254576087
 31
0.0
 11
138.4640304683778
 21
516.0493611673295
 31
0.0
 11
138.3725985726808
 21
515.5915936829556
 31
0.0
 11
138.2541705034965
 21
515.1399953923849
 31
0.0
 11
138.11433426277
 21
514.715798719684
 31
0.0
 11
137.9472722203567
 21
514.3014599861717
 31
0.0
 11
137.7635056368158
 21
513.9230877397971
 31
0.0
 11
137.552480986465
 21
513.5590350229348
 31
0.0
 11
137.330297578438
 21
513.2371595830762
 31
0.0
 11
137.0814589263473
 21
512.9351249463258
 31
0.0
 11
136.8270416493348
 21
512.6786460786946
 31
0.0
 11
136.5479976908644
 21
512.4487297205171
 31
0.0
 11
136.2678609654795
 21
512.2648898157401
 31
0.0
 11
135.9677579786489
 21
512.1151088056595
 31
0.0
 11
135.668802162952
 21
512.0099071140892
 31
0.0
 11
135.3582869251678
 21
511.9453264087089
 31
0.0
 11
135.0485617132572
 21
511.9236510690737
 31
0.0
 11
134.7388365013467
 21
511.9453264087088
 31
0.0
  0
SPLINE
  5
219
330
56
100
AcDbEntity
  8
1
  6
Continuous
 62
     7
100
AcDbSpline
210
0.0
220
0.0
230
1.0
 70
    11
 71
     3
 72
    79
 73
    75
 74
    73
 42
0.0000000001
 43
0.0000000001
 44
0.00000001
 40
0.0
 40
0.0
 40
0.0
 40
0.0
 40
0.3171598656885049
 40
0.634085686107513
 40
0.9694901489362652
 40
1.304562820901206
 40
1.666124796939022
 40
2.027385866504885
 40
2.418724079015862
 40
2.809836934323436
 40
3.230628787512744
 40
3.65126605886756
 40
4.098016897818892
 40
4.544667758504496
 40
5.011536287768461
 40
5.478345522146761
 40
5.957894801974915
 40
6.437416541840356
 40
6.921284920564502
 40
7.405153299288648
 40
7.884675039154202
 40
8.364224318982467
 40
8.831033553360662
 40
9.297902082624525
 40
9.744552943310129
 40
10.19130378226166
 40
10.61194105361657
 40
11.03273290680586
 40
11.42384576211327
 40
11.81518397462426
 40
12.17644504419018
 40
12.53800702022791
 40
12.87307969219293
 40
13.20848415502163
 40
13.52540997544072
 40
13.84256984112922
 40
14.15305257372691
 40
14.46353530632466
 40
14.78069517201323
 40
15.09762099243222
 40
15.43302545526094
 40
15.76809812722602
 40
16.12966010326386
 40
16.49092117282972
 40
16.88225938534061
 40
17.27337224064799
 40
17.69416409383726
 40
18.11480136519218
 40
18.56155220414373
 40
19.00820306482911
 40
19.47507159409296
 40
19.94188082847127
 40
20.42143010829965
 40
20.90095184816521
 40
21.38482022688936
 40
21.86868860561339
 40
22.34821034547884
 40
22.8277596253071
 40
23.29456885968552
 40
23.76143738894939
 40
24.2080882496348
 40
24.6548390885863
 40
25.07547635994129
 40
25.49626821313057
 40
25.88738106843797
 40
26.27871928094886
 40
26.63998035051472
 40
27.00154232655256
 40
27.33661499851763
 40
27.67201946134636
 40
27.98894528176535
 40
28.30610514745391
 40
28.61658788005166
 40
28.92707061264937
 40
28.92707061264937
 40
28.92707061264937
 40
28.92707061264937
 10
134.7388365013467
 20
536.0262734600819
 30
0.0
 10
134.6345881118477
 20
536.0076955289732
 30
0.0
 10
134.426168262011
 20
535.9705533761727
 30
0.0
 10
134.1211309582346
 20
535.8596983032099
 30
0.0
 10
133.8259793130718
 20
535.7126779940022
 30
0.0
 10
133.5382896869384
 20
535.5226068848816
 30
0.0
 10
133.2660508599525
 20
535.2974789371419
 30
0.0
 10
133.0046420844594
 20
535.0328946805254
 30
0.0
 10
132.7624545192519
 20
534.7377982554708
 30
0.0
 10
132.5348275441333
 20
534.4070558996593
 30
0.0
 10
132.3291355982393
 20
534.050929898923
 30
0.0
 10
132.141754298088
 20
533.664201051364
 30
0.0
 10
131.9783006997874
 20
533.2574643696239
 30
0.0
 10
131.8365020664862
 20
532.8264788413342
 30
0.0
 10
131.7200651426238
 20
532.3810469810718
 30
0.0
 10
131.6278810513977
 20
531.918813993739
 30
0.0
 10
131.5619998129851
 20
531.4478460715078
 30
0.0
 10
131.5220061624702
 20
530.968284708316
 30
0.0
 10
131.5087839724466
 20
530.4857999343979
 30
0.0
 10
131.522006162469
 20
530.003315160465
 30
0.0
 10
131.5619998129899
 20
529.5237537973175
 30
0.0
 10
131.6278810513799
 20
529.0527858749251
 30
0.0
 10
131.7200651426882
 20
528.5905528881781
 30
0.0
 10
131.83650206625
 20
528.1451210257726
 30
0.0
 10
131.9783007006267
 20
527.7141355051513
 30
0.0
 10
132.1417542950284
 20
527.3073987956072
 30
0.0
 10
132.3291356089198
 20
526.9206700460384
 30
0.0
 10
132.5348275053665
 20
526.5645436926603
 30
0.0
 10
132.7624546526687
 20
526.2338025648027
 30
0.0
 10
133.0046416012162
 20
525.9387017419431
 30
0.0
 10
133.2660525106723
 20
525.6741327040065
 30
0.0
 10
133.5382836954638
 20
525.4489502548028
 30
0.0
 10
133.8259998696562
 20
525.2590684771731
 30
0.0
 10
134.1210557513943
 20
525.1113652166486
 30
0.0
 10
134.4264318998507
 20
525.0029266656619
 30
0.0
 10
134.7356639537883
 20
524.9387440766618
 30
0.0
 10
135.0485617132572
 20
524.9161848482466
 30
0.0
 10
135.3614594727262
 20
524.9387440766619
 30
0.0
 10
135.6706915266637
 20
525.0029266656622
 30
0.0
 10
135.9760676751203
 20
525.1113652166483
 30
0.0
 10
136.2711235568582
 20
525.2590684771732
 30
0.0
 10
136.5588397310508
 20
525.4489502548029
 30
0.0
 10
136.8310709158422
 20
525.6741327040068
 30
0.0
 10
137.0924818252984
 20
525.9387017419431
 30
0.0
 10
137.3346687738458
 20
526.2338025648028
 30
0.0
 10
137.5622959211481
 20
526.5645436926602
 30
0.0
 10
137.7679878175947
 20
526.9206700460386
 30
0.0
 10
137.9553691314861
 20
527.3073987956071
 30
0.0
 10
138.1188227258879
 20
527.7141355051512
 30
0.0
 10
138.2606213602645
 20
528.1451210257725
 30
0.0
 10
138.3770582838264
 20
528.5905528881781
 30
0.0
 10
138.4692423751347
 20
529.0527858749249
 30
0.0
 10
138.5351236135246
 20
529.5237537973173
 30
0.0
 10
138.5751172640457
 20
530.0033151604656
 30
0.0
 10
138.5883394540676
 20
530.4857999343957
 30
0.0
 10
138.5751172640458
 20
530.9682847083244
 30
0.0
 10
138.5351236135242
 20
531.4478460714759
 30
0.0
 10
138.4692423751359
 20
531.9188139938567
 30
0.0
 10
138.3770582838218
 20
532.3810469806452
 30
0.0
 10
138.2606213602812
 20
532.8264788428985
 30
0.0
 10
138.1188227258281
 20
533.2574643640646
 30
0.0
 10
137.9553691317033
 20
533.6642010716338
 30
0.0
 10
137.7679878168362
 20
534.0509298281626
 30
0.0
 10
137.5622959239016
 20
534.4070561564934
 30
0.0
 10
137.3346687643695
 20
534.7377973715702
 30
0.0
 10
137.0924818596223
 20
535.0328978820613
 30
0.0
 10
136.8310707985944
 20
535.2974680009542
 30
0.0
 10
136.5588401566149
 20
535.5226465790137
 30
0.0
 10
136.2711220967597
 20
535.7125418045306
 30
0.0
 10
135.9760730169316
 20
535.8601965562087
 30
0.0
 10
135.6706728009256
 20
535.9688067485561
 30
0.0
 10
135.3615289253876
 20
536.0323604799912
 30
0.0
 10
135.0483085518787
 20
536.0572204791241
 30
0.0
 10
134.841993851524
 20
536.036589133096
 30
0.0
 10
134.7388365013467
 20
536.0262734600819
 30
0.0
 11
134.7388365013467
 21
536.0262734600819
 31
0.0
 11
134.4283212635626
 21
535.9616927547015
 31
0.0
 11
134.1293654478656
 21
535.8564910631313
 31
0.0
 11
133.8292624610349
 21
535.7067100530508
 31
0.0
 11
133.5491257356501
 21
535.5228701482738
 31
0.0
 11
133.2700817771798
 21
535.2929537900964
 31
0.0
 11
133.0156645001673
 21
535.0364749224651
 31
0.0
 11
132.7668258480766
 21
534.7344402857146
 31
0.0
 11
132.5446424400496
 21
534.4125648458557
 31
0.0
 11
132.3336177896988
 21
534.0485121289935
 31
0.0
 11
132.1498512061578
 21
533.670139882619
 31
0.0
 11
131.9827891637444
 21
533.2558011491069
 31
0.0
 11
131.842952923018
 21
532.8316044764058
 31
0.0
 11
131.7245248538337
 21
532.3800061858351
 31
0.0
 11
131.6330929581367
 21
531.9222387014611
 31
0.0
 11
131.56643140923
 21
531.4473452927039
 31
0.0
 11
131.5265614781964
 21
530.969483924101
 31
0.0
 11
131.5132046061216
 21
530.4857999343955
 31
0.0
 11
131.5265614781964
 21
530.0021159446899
 31
0.0
 11
131.56643140923
 21
529.524254576087
 31
0.0
 11
131.6330929581367
 21
529.0493611673296
 31
0.0
 11
131.7245248538337
 21
528.5915936829557
 31
0.0
 11
131.842952923018
 21
528.1399953923851
 31
0.0
 11
131.9827891637445
 21
527.715798719684
 31
0.0
 11
132.1498512061578
 21
527.3014599861717
 31
0.0
 11
132.3336177896988
 21
526.9230877397971
 31
0.0
 11
132.5446424400496
 21
526.5590350229348
 31
0.0
 11
132.7668258480766
 21
526.2371595830762
 31
0.0
 11
133.0156645001673
 21
525.9351249463257
 31
0.0
 11
133.2700817771798
 21
525.6786460786943
 31
0.0
 11
133.5491257356501
 21
525.448729720517
 31
0.0
 11
133.8292624610349
 21
525.2648898157399
 31
0.0
 11
134.1293654478656
 21
525.1151088056595
 31
0.0
 11
134.4283212635626
 21
525.0099071140891
 31
0.0
 11
134.7388365013467
 21
524.9453264087086
 31
0.0
 11
135.0485617132572
 21
524.9236510690736
 31
0.0
 11
135.3582869251678
 21
524.9453264087088
 31
0.0
 11
135.668802162952
 21
525.0099071140892
 31
0.0
 11
135.9677579786489
 21
525.1151088056595
 31
0.0
 11
136.2678609654795
 21
525.2648898157401
 31
0.0
 11
136.5479976908644
 21
525.4487297205171
 31
0.0
 11
136.8270416493348
 21
525.6786460786946
 31
0.0
 11
137.0814589263473
 21
525.9351249463258
 31
0.0
 11
137.330297578438
 21
526.2371595830762
 31
0.0
 11
137.5524809864649
 21
526.5590350229348
 31
0.0
 11
137.7635056368157
 21
526.9230877397971
 31
0.0
 11
137.9472722203567
 21
527.3014599861717
 31
0.0
 11
138.1143342627701
 21
527.715798719684
 31
0.0
 11
138.2541705034965
 21
528.1399953923849
 31
0.0
 11
138.3725985726808
 21
528.5915936829555
 31
0.0
 11
138.4640304683778
 21
529.0493611673295
 31
0.0
 11
138.5306920172845
 21
529.524254576087
 31
0.0
 11
138.5705619483182
 21
530.0021159446899
 31
0.0
 11
138.583918820393
 21
530.4857999343955
 31
0.0
 11
138.5705619483182
 21
530.9694839241009
 31
0.0
 11
138.5306920172845
 21
531.4473452927037
 31
0.0
 11
138.4640304683778
 21
531.9222387014611
 31
0.0
 11
138.3725985726808
 21
532.3800061858352
 31
0.0
 11
138.2541705034965
 21
532.8316044764058
 31
0.0
 11
138.11433426277
 21
533.2558011491067
 31
0.0
 11
137.9472722203567
 21
533.670139882619
 31
0.0
 11
137.7635056368158
 21
534.0485121289937
 31
0.0
 11
137.552480986465
 21
534.412564845856
 31
0.0
 11
137.330297578438
 21
534.7344402857146
 31
0.0
 11
137.0814589263473
 21
535.036474922465
 31
0.0
 11
136.8270416493348
 21
535.2929537900963
 31
0.0
 11
136.5479976908644
 21
535.5228701482737
 31
0.0
 11
136.2678609654795
 21
535.7067100530508
 31
0.0
 11
135.9677579786489
 21
535.8564910631313
 31
0.0
 11
135.668802162952
 21
535.9616927547016
 31
0.0
 11
135.3582869251678
 21
536.0262734600821
 31
0.0
 11
135.0485617132572
 21
536.0479487997172
 31
0.0
 11
134.7388365013467
 21
536.0262734600819
 31
0.0
  0
ENDBLK
  5
58
330
56
100
AcDbEntity
  8
0
100
AcDbBlockEnd
  0
BLOCK
  5
5A
330
59
100
AcDbEntity
  8
0
100
AcDbBlockBegin
  2
36-1A-13-M4
 70
     0
 71
     0
 10
28.44407859668522
 20
316.3008656754391
 30
0.0
  3
36-1A-13-M4
  1

  0
LINE
  5
21A
330
59
100
AcDbEntity
  8
1
  6
Continuous
 62
     7
100
AcDbLine
 10
149.0132046061212
 20
209.1687396660029
 30
0.0
 11
145.5132046061214
 21
209.1687396660029
 31
0.0
  0
LINE
  5
21B
330
59
100
AcDbEntity
  8
1
  6
Continuous
 62
     7
100
AcDbLine
 10
145.5132046061214
 20
218.668739666003
 30
0.0
 11
149.0132046061212
 21
218.668739666003
 31
0.0
  0
LINE
  5
21C
330
59
100
AcDbEntity
  8
1
  6
Continuous
 62
     7
100
AcDbLine
 10
149.5132046061215
 20
519.2357999343955
 30
0.0
 11
145.5132046061215
 21
519.2357999343955
 31
0.0
  0
LINE
  5
21D
330
59
100
AcDbEntity
  8
1
  6
Continuous
 62
     7
100
AcDbLine
 10
145.5132046061215
 20
528.7357999343955
 30
0.0
 11
149.5132046061215
 21
528.7357999343955
 31
0.0
  0
ENDBLK
  5
5B
330
59
100
AcDbEntity
  8
0
100
AcDbBlockEnd
  0
BLOCK
  5
241
330
23A
100
AcDbEntity
  8
0
100
AcDbBlockBegin
  2
*D012
 70
     1
 71
     0
 10
0.0
 20
0.0
 30
0.0
  3
*D012
  1

  0
LINE
  5
23B
330
23A
100
AcDbEntity
  8
1
  6
Continuous
 62
     2
100
AcDbLine
 10
182.40352668543
 20
213.9187396660026
 30
0.0
 11
182.40352668543
 21
281.4187396660033
 31
0.0
  0
LINE
  5
23C
330
23A
100
AcDbEntity
  8
1
  6
Continuous
 62
     2
100
AcDbLine
 10
382.213055187195
 20
213.9187396660026
 30
0.0
 11
179.90352668543
 21
213.9187396660026
 31
0.0
  0
LINE
  5
23D
330
23A
100
AcDbEntity
  8
1
  6
Continuous
 62
     2
100
AcDbLine
 10
266.1535266854301
 20
281.4187396660033
 30
0.0
 11
179.90352668543
 21
281.4187396660033
 31
0.0
  0
SOLID
  5
23E
330
23A
100
AcDbEntity
  8
1
 62
     2
100
AcDbTrace
 10
181.2515673315403
 20
222.6687396660026
 30
0.0
 11
183.5554860393197
 21
222.6687396660026
 31
0.0
 12
182.40352668543
 22
213.9187396660026
 32
0.0
 13
182.40352668543
 23
213.9187396660026
 33
0.0
  0
SOLID
  5
23F
330
23A
100
AcDbEntity
  8
1
 62
     2
100
AcDbTrace
 10
183.5554860393197
 20
272.6687396660033
 30
0.0
 11
181.2515673315403
 21
272.6687396660033
 31
0.0
 12
182.40352668543
 22
281.4187396660033
 32
0.0
 13
182.40352668543
 23
281.4187396660033
 33
0.0
  0
MTEXT
  5
240
330
23A
100
AcDbEntity
  8
1
 62
     7
100
AcDbMText
 10
179.90352668543
 20
241.106239666003
 30
0.0
 40
8.75
 41
0.0
 71
     7
 72
     1
  1
68
  7
CONVERTER_2
 11
0.0
 21
1.0
 31
0.0
 73
     1
 44
0.60024009603842
  0
ENDBLK
  5
242
330
23A
100
AcDbEntity
  8
0
100
AcDbBlockEnd
  0
BLOCK
  5
24E
330
245
100
AcDbEntity
  8
0
100
AcDbBlockBegin
  2
*D113
 70
     1
 71
     0
 10
0.0
 20
0.0
 30
0.0
  3
*D113
  1

  0
LINE
  5
246
330
245
100
AcDbEntity
  8
1
  6
Continuous
 62
     2
100
AcDbLine
 10
202.40352668543
 20
237.1187396660031
 30
0.0
 11
202.40352668543
 21
254.6187396660031
 31
0.0
  0
LINE
  5
247
330
245
100
AcDbEntity
  8
1
  6
Continuous
 62
     2
100
AcDbLine
 10
202.40352668543
 20
213.9187396660026
 30
0.0
 11
202.40352668543
 21
237.1187396660031
 31
0.0
  0
LINE
  5
248
330
245
100
AcDbEntity
  8
1
  6
Continuous
 62
     2
100
AcDbLine
 10
202.40352668543
 20
196.4187396660026
 30
0.0
 11
202.40352668543
 21
213.9187396660026
 31
0.0
  0
LINE
  5
249
330
245
100
AcDbEntity
  8
1
  6
Continuous
 62
     2
100
AcDbLine
 10
382.213055187195
 20
213.9187396660026
 30
0.0
 11
199.90352668543
 21
213.9187396660026
 31
0.0
  0
LINE
  5
24A
330
245
100
AcDbEntity
  8
1
  6
Continuous
 62
     2
100
AcDbLine
 10
228.5035266854301
 20
237.1187396660031
 30
0.0
 11
199.90352668543
 21
237.1187396660031
 31
0.0
  0
SOLID
  5
24B
330
245
100
AcDbEntity
  8
1
 62
     2
100
AcDbTrace
 10
203.5554860393197
 20
205.1687396660026
 30
0.0
 11
201.2515673315403
 21
205.1687396660026
 31
0.0
 12
202.40352668543
 22
213.9187396660026
 32
0.0
 13
202.40352668543
 23
213.9187396660026
 33
0.0
  0
SOLID
  5
24C
330
245
100
AcDbEntity
  8
1
 62
     2
100
AcDbTrace
 10
201.2515673315403
 20
245.8687396660031
 30
0.0
 11
203.5554860393197
 21
245.8687396660031
 31
0.0
 12
202.40352668543
 22
237.1187396660031
 32
0.0
 13
202.40352668543
 23
237.1187396660031
 33
0.0
  0
MTEXT
  5
24D
330
245
100
AcDbEntity
  8
1
 62
     7
100
AcDbMText
 10
199.90352668543
 20
218.9562396660029
 30
0.0
 40
8.75
 41
0.0
 71
     7
 72
     1
  1
23
  7
CONVERTER_2
 11
0.0
 21
1.0
 31
0.0
 73
     1
 44
0.60024009603842
  0
ENDBLK
  5
24F
330
245
100
AcDbEntity
  8
0
100
AcDbBlockEnd
  0
BLOCK
  5
259
330
252
100
AcDbEntity
  8
0
100
AcDbBlockBegin
  2
*D214
 70
     1
 71
     0
 10
0.0
 20
0.0
 30
0.0
  3
*D214
  1

  0
LINE
  5
253
330
252
100
AcDbEntity
  8
1
  6
Continuous
 62
     2
100
AcDbLine
 10
239.1535266854299
 20
165.9187396660032
 30
0.0
 11
409.1535266854298
 21
165.9187396660032
 31
0.0
  0
LINE
  5
254
330
252
100
AcDbEntity
  8
1
  6
Continuous
 62
     2
100
AcDbLine
 10
409.1535266854298
 20
196.9187396660032
 30
0.0
 11
409.1535266854298
 21
163.4187396660032
 31
0.0
  0
LINE
  5
255
330
252
100
AcDbEntity
  8
1
  6
Continuous
 62
     2
100
AcDbLine
 10
239.1535266854299
 20
235.3498678684771
 30
0.0
 11
239.1535266854299
 21
163.4187396660032
 31
0.0
  0
SOLID
  5
256
330
252
100
AcDbEntity
  8
1
 62
     2
100
AcDbTrace
 10
247.9035266854299
 20
167.0706990198929
 30
0.0
 11
247.9035266854299
 21
164.7667803121135
 31
0.0
 12
239.1535266854299
 22
165.9187396660032
 32
0.0
 13
239.1535266854299
 23
165.9187396660032
 33
0.0
  0
SOLID
  5
257
330
252
100
AcDbEntity
  8
1
 62
     2
100
AcDbTrace
 10
400.4035266854298
 20
164.7667803121135
 30
0.0
 11
400.4035266854298
 21
167.0706990198929
 31
0.0
 12
409.1535266854298
 22
165.9187396660032
 32
0.0
 13
409.1535266854298
 23
165.9187396660032
 33
0.0
  0
MTEXT
  5
258
330
252
100
AcDbEntity
  8
1
 62
     7
100
AcDbMText
 10
314.9660266854299
 20
168.4187396660032
 30
0.0
 40
8.75
 41
0.0
 71
     7
 72
     1
  1
170
  7
CONVERTER_2
 11
0.9999999999970621
 21
2.424068405545307E-6
 31
0.0
 73
     1
 44
0.60024009603842
  0
ENDBLK
  5
25A
330
252
100
AcDbEntity
  8
0
100
AcDbBlockEnd
  0
BLOCK
  5
264
330
25D
100
AcDbEntity
  8
0
100
AcDbBlockBegin
  2
*D315
 70
     1
 71
     0
 10
0.0
 20
0.0
 30
0.0
  3
*D315
  1

  0
LINE
  5
25E
330
25D
100
AcDbEntity
  8
0
  6
Continuous
 62
     2
100
AcDbLine
 10
164.5132046061213
 20
165.9187396660028
 30
0.0
 11
106.0132046061215
 21
165.9187396660028
 31
0.0
  0
LINE
  5
25F
330
25D
100
AcDbEntity
  8
0
  6
Continuous
 62
     2
100
AcDbLine
 10
164.5132046061213
 20
213.9187396660029
 30
0.0
 11
164.5132046061213
 21
163.4187396660028
 31
0.0
  0
LINE
  5
260
330
25D
100
AcDbEntity
  8
0
  6
Continuous
 62
     2
100
AcDbLine
 10
106.0132046061215
 20
187.9187396660029
 30
0.0
 11
106.0132046061215
 21
163.4187396660028
 31
0.0
  0
SOLID
  5
261
330
25D
100
AcDbEntity
  8
0
 62
     2
100
AcDbTrace
 10
155.7632046061213
 20
164.7667803121131
 30
0.0
 11
155.7632046061213
 21
167.0706990198925
 31
0.0
 12
164.5132046061213
 22
165.9187396660028
 32
0.0
 13
164.5132046061213
 23
165.9187396660028
 33
0.0
  0
SOLID
  5
262
330
25D
100
AcDbEntity
  8
0
 62
     2
100
AcDbTrace
 10
114.7632046061215
 20
167.0706990198925
 30
0.0
 11
114.7632046061215
 21
164.7667803121131
 31
0.0
 12
106.0132046061215
 22
165.9187396660028
 32
0.0
 13
106.0132046061215
 23
165.9187396660028
 33
0.0
  0
MTEXT
  5
263
330
25D
100
AcDbEntity
  8
0
 62
     7
100
AcDbMText
 10
111.6382046061214
 20
168.4187396660028
 30
0.0
 40
8.75
 41
0.0
 71
     7
 72
     1
  1
59リフト5
  7
CONVERTER_1
 11
0.9999999999970621
 21
2.424068405545307E-6
 31
0.0
 73
     1
 44
0.60024009603842
  0
ENDBLK
  5
265
330
25D
100
AcDbEntity
  8
0
100
AcDbBlockEnd
  0
BLOCK
  5
26F
330
268
100
AcDbEntity
  8
0
100
AcDbBlockBegin
  2
*D416
 70
     1
 71
     0
 10
0.0
 20
0.0
 30
0.0
  3
*D416
  1

  0
LINE
  5
269
330
268
100
AcDbEntity
  8
1
  6
Continuous
 62
     2
100
AcDbLine
 10
493.15352668543
 20
236.9187396660032
 30
0.0
 11
493.15352668543
 21
190.9187396660032
 31
0.0
  0
LINE
  5
26A
330
268
100
AcDbEntity
  8
1
  6
Continuous
 62
     2
100
AcDbLine
 10
454.1535266854299
 20
236.9187396660032
 30
0.0
 11
495.65352668543
 21
236.9187396660032
 31
0.0
  0
LINE
  5
26B
330
268
100
AcDbEntity
  8
1
  6
Continuous
 62
     2
100
AcDbLine
 10
454.1535266854299
 20
190.9187396660032
 30
0.0
 11
495.65352668543
 21
190.9187396660032
 31
0.0
  0
SOLID
  5
26C
330
268
100
AcDbEntity
  8
1
 62
     2
100
AcDbTrace
 10
494.3054860393197
 20
228.1687396660032
 30
0.0
 11
492.0015673315403
 21
228.1687396660032
 31
0.0
 12
493.15352668543
 22
236.9187396660032
 32
0.0
 13
493.15352668543
 23
236.9187396660032
 33
0.0
  0
SOLID
  5
26D
330
268
100
AcDbEntity
  8
1
 62
     2
100
AcDbTrace
 10
492.0015673315403
 20
199.6687396660032
 30
0.0
 11
494.3054860393197
 21
199.6687396660032
 31
0.0
 12
493.15352668543
 22
190.9187396660032
 32
0.0
 13
493.15352668543
 23
190.9187396660032
 33
0.0
  0
MTEXT
  5
26E
330
268
100
AcDbEntity
  8
1
 62
     7
100
AcDbMText
 10
490.65352668543
 20
198.2562396660032
 30
0.0
 40
8.75
 41
0.0
 71
     7
 72
     1
  1
\C7;{\Fgdt;n}\C7;46
  7
CONVERTER_2
 11
0.0
 21
1.0
 31
0.0
 73
     1
 44
0.60024009603842
  0
ENDBLK
  5
270
330
268
100
AcDbEntity
  8
0
100
AcDbBlockEnd
  0
BLOCK
  5
27A
330
273
100
AcDbEntity
  8
0
100
AcDbBlockBegin
  2
*D517
 70
     1
 71
     0
 10
0.0
 20
0.0
 30
0.0
  3
*D517
  1

  0
LINE
  5
274
330
273
100
AcDbEntity
  8
1
  6
Continuous
 62
     2
100
AcDbLine
 10
409.1535266854298
 20
165.9187396660032
 30
0.0
 11
454.1535266854298
 21
165.9187396660032
 31
0.0
  0
LINE
  5
275
330
273
100
AcDbEntity
  8
1
  6
Continuous
 62
     2
100
AcDbLine
 10
454.1535266854298
 20
190.9187396660032
 30
0.0
 11
454.1535266854298
 21
163.4187396660032
 31
0.0
  0
LINE
  5
276
330
273
100
AcDbEntity
  8
1
  6
Continuous
 62
     2
100
AcDbLine
 10
409.1535266854298
 20
196.9187396660032
 30
0.0
 11
409.1535266854298
 21
163.4187396660032
 31
0.0
  0
SOLID
  5
277
330
273
100
AcDbEntity
  8
1
 62
     2
100
AcDbTrace
 10
417.9035266854298
 20
167.0706990198929
 30
0.0
 11
417.9035266854298
 21
164.7667803121135
 31
0.0
 12
409.1535266854298
 22
165.9187396660032
 32
0.0
 13
409.1535266854298
 23
165.9187396660032
 33
0.0
  0
SOLID
  5
278
330
273
100
AcDbEntity
  8
1
 62
     2
100
AcDbTrace
 10
445.4035266854298
 20
164.7667803121135
 30
0.0
 11
445.4035266854298
 21
167.0706990198929
 31
0.0
 12
454.1535266854298
 22
165.9187396660032
 32
0.0
 13
454.1535266854298
 23
165.9187396660032
 33
0.0
  0
MTEXT
  5
279
330
273
100
AcDbEntity
  8
1
 62
     7
100
AcDbMText
 10
425.0910266854299
 20
168.4187396660032
 30
0.0
 40
8.75
 41
0.0
 71
     7
 72
     1
  1
45
  7
CONVERTER_2
 11
0.9999999999970621
 21
2.424068405545307E-6
 31
0.0
 73
     1
 44
0.60024009603842
  0
ENDBLK
  5
27B
330
273
100
AcDbEntity
  8
0
100
AcDbBlockEnd
  0
BLOCK
  5
285
330
27E
100
AcDbEntity
  8
0
100
AcDbBlockBegin
  2
*D618
 70
     1
 71
     0
 10
0.0
 20
0.0
 30
0.0
  3
*D618
  1

  0
LINE
  5
27F
330
27E
100
AcDbEntity
  8
1
  6
Continuous
 62
     2
100
AcDbLine
 10
487.6118259308071
 20
165.9187396660032
 30
0.0
 11
468.1535266854298
 21
165.9187396660032
 31
0.0
  0
LINE
  5
280
330
27E
100
AcDbEntity
  8
1
  6
Continuous
 62
     2
100
AcDbLine
 10
468.1535266854298
 20
165.9187396660032
 30
0.0
 11
454.1535266854298
 21
165.9187396660032
 31
0.0
  0
LINE
  5
281
330
27E
100
AcDbEntity
  8
1
  6
Continuous
 62
     2
100
AcDbLine
 10
454.1535266854298
 20
190.9187396660032
 30
0.0
 11
454.1535266854298
 21
163.4187396660032
 31
0.0
  0
LINE
  5
282
330
27E
100
AcDbEntity
  8
1
  6
Continuous
 62
     2
100
AcDbLine
 10
468.1535266854298
 20
204.4187396660032
 30
0.0
 11
468.1535266854298
 21
163.4187396660032
 31
0.0
  0
SOLID
  5
283
330
27E
100
AcDbEntity
  8
1
 62
     2
100
AcDbTrace
 10
476.9035266854298
 20
167.0706990198929
 30
0.0
 11
476.9035266854298
 21
164.7667803121135
 31
0.0
 12
468.1535266854298
 22
165.9187396660032
 32
0.0
 13
468.1535266854298
 23
165.9187396660032
 33
0.0
  0
MTEXT
  5
284
330
27E
100
AcDbEntity
  8
1
 62
     7
100
AcDbMText
 10
477.1118259308071
 20
168.4187396660032
 30
0.0
 40
8.75
 41
0.0
 71
     7
 72
     1
  1
14
  7
CONVERTER_2
 11
0.9999999999970621
 21
2.424068405545307E-6
 31
0.0
 73
     1
 44
0.60024009603842
  0
ENDBLK
  5
286
330
27E
100
AcDbEntity
  8
0
100
AcDbBlockEnd
  0
BLOCK
  5
288
330
287
100
AcDbEntity
  8
0
100
AcDbBlockBegin
  2
_None
 70
     0
 71
     0
 10
0.0
 20
0.0
 30
0.0
  3
_None
  1

  0
ENDBLK
  5
289
330
287
100
AcDbEntity
  8
0
100
AcDbBlockEnd
  0
ENDSEC
  0
SECTION
  2
ENTITIES
  0
INSERT
  5
5C
330
1F
100
AcDbEntity
  8
1
100
AcDbBlockReference
  2
_J__A4
 10
0.0
 20
0.0
 30
0.0
 41
2.5
 42
2.5
 43
2.5
  0
INSERT
  5
5D
330
1F
100
AcDbEntity
  8
0
100
AcDbBlockReference
  2
A20JH-60X
 10
-77.05443145944082
 20
184.0575356313725
 30
0.0
  0
INSERT
  5
5E
330
1F
100
AcDbEntity
  8
1
100
AcDbBlockReference
  2
A20-0-13
 10
149.0132046061214
 20
190.9187396660029
 30
0.0
  0
INSERT
  5
5F
330
1F
100
AcDbEntity
  8
0
100
AcDbBlockReference
  2
R20F
 10
181.111744392339
 20
195.4939653780772
 30
0.0
  0
INSERT
  5
60
330
1F
100
AcDbEntity
  8
0
100
AcDbBlockReference
  2
37-1-13
 10
9.5174987159769
 20
305.719969882774
 30
0.0
  0
INSERT
  5
61
330
1F
100
AcDbEntity
  8
0
100
AcDbBlockReference
  2
36-1A-13-M4
 10
28.44407859668522
 20
316.3008656754391
 30
0.0
  0
LINE
  5
21E
330
1F
100
AcDbEntity
  8
1
  6
DASH_CENTER
 62
     2
100
AcDbLine
 10
239.15352668543
 20
254.4187396660032
 30
0.0
 11
239.15352668543
 21
235.3498678684771
 31
0.0
  0
LINE
  5
21F
330
1F
100
AcDbEntity
  8
1
  6
DASH_CENTER
 62
     2
100
AcDbLine
 10
382.15352668543
 20
281.4187396660033
 30
0.0
 11
266.1535266854301
 21
281.4187396660033
 31
0.0
  0
LINE
  5
220
330
1F
100
AcDbEntity
  8
1
  6
DASH_CENTER
 62
     2
100
AcDbLine
 10
409.1535266854299
 20
253.4187396660032
 30
0.0
 11
409.15352668543
 21
254.4187396660032
 31
0.0
  0
LINE
  5
221
330
1F
100
AcDbEntity
  8
0
  6
DASH_CENTER
 62
     2
100
AcDbLine
 10
143.5132046061214
 20
213.9187396660029
 30
0.0
 11
80.01320460612141
 21
213.9187396660029
 31
0.0
  0
LINE
  5
222
330
1F
100
AcDbEntity
  8
1
  6
DASH_CENTER
 62
     2
100
AcDbLine
 10
143.5132046061214
 20
213.9187396660029
 30
0.0
 11
166.4428283984772
 21
213.9187396660029
 31
0.0
  0
LINE
  5
223
330
1F
100
AcDbEntity
  8
1
  6
DASH_CENTER
 62
     2
100
AcDbLine
 10
106.0132046061214
 20
231.418739666003
 30
0.0
 11
106.0132046061214
 21
292.5702206587234
 31
0.0
  0
LINE
  5
224
330
1F
100
AcDbEntity
  8
1
  6
DASH_CENTER
 62
     2
100
AcDbLine
 10
95.4999841967623
 20
281.4187396660033
 30
0.0
 11
116.905920614549
 21
281.4187396660033
 31
0.0
  0
LINE
  5
225
330
1F
100
AcDbEntity
  8
1
  6
DASH_CENTER
 62
     2
100
AcDbLine
 10
92.95862943426931
 20
353.9857999343956
 30
0.0
 11
119.5390106313683
 21
353.9857999343956
 31
0.0
  0
LINE
  5
226
330
1F
100
AcDbEntity
  8
1
  6
DASH_CENTER
 62
     2
100
AcDbLine
 10
86.35371735613531
 20
523.9857999343956
 30
0.0
 11
168.3823401466233
 21
523.9857999343956
 31
0.0
  0
LINE
  5
227
330
1F
100
AcDbEntity
  8
0
  6
DASH_CENTER
 62
     2
100
AcDbLine
 10
149.3905415497921
 20
213.9187396660029
 30
0.0
 11
143.5132046061214
 21
213.9187396660029
 31
0.0
  0
LINE
  5
228
330
1F
100
AcDbEntity
  8
1
  6
DASH_CENTER
 62
     2
100
AcDbLine
 10
106.0132046061214
 20
231.418739666003
 30
0.0
 11
106.0132046061214
 21
187.9187396660029
 31
0.0
  0
LINE
  5
229
330
1F
100
AcDbEntity
  8
1
  6
DASH_CENTER
 62
     2
100
AcDbLine
 10
471.1535266854299
 20
213.9187396660032
 30
0.0
 11
382.213055187195
 21
213.9187396660026
 31
0.0
  0
LINE
  5
22A
330
1F
100
AcDbEntity
  8
1
  6
DASH_CENTER
 62
     2
100
AcDbLine
 10
409.1535266854299
 20
196.9187396660032
 30
0.0
 11
409.1535266854299
 21
253.4187396660032
 31
0.0
  0
LINE
  5
22B
330
1F
100
AcDbEntity
  8
1
  6
DASH_CENTER
 62
     2
100
AcDbLine
 10
106.0132046061214
 20
588.7094175329501
 30
0.0
 11
106.0132046061214
 21
339.009602668841
 31
0.0
  0
LINE
  5
22C
330
1F
100
AcDbEntity
  8
1
  6
DASH_CENTER
 62
     2
100
AcDbLine
 10
390.007495556024
 20
224.9727058924786
 30
0.0
 11
441.1953089785209
 21
195.4194080337717
 31
0.0
  0
LINE
  5
22D
330
1F
100
AcDbEntity
  8
1
  6
DASH_CENTER
 62
     2
100
AcDbLine
 10
377.111744392339
 20
195.4194080337717
 30
0.0
 11
427.6648832973496
 21
224.6062763889601
 31
0.0
  0
LINE
  5
22E
330
1F
100
AcDbEntity
  8
1
  6
DASH_CENTER
 62
     2
100
AcDbLine
 10
143.5132046061214
 20
213.9187396660029
 30
0.0
 11
154.5132046061214
 21
213.9187396660029
 31
0.0
  0
ARC
  5
22F
330
1F
100
AcDbEntity
  8
1
  6
DASH_CENTER
 62
     2
100
AcDbCircle
 10
266.1535266854301
 20
254.4187396660032
 30
0.0
 40
27.00000000000011
100
AcDbArc
 50
90.0
 51
180.0
  0
ARC
  5
230
330
1F
100
AcDbEntity
  8
1
  6
DASH_CENTER
 62
     2
100
AcDbCircle
 10
382.15352668543
 20
254.4187396660032
 30
0.0
 40
27.0
100
AcDbArc
 50
0.0
 51
90.0
  0
SOLID
  5
231
330
1F
100
AcDbEntity
  8
1
 62
     2
100
AcDbTrace
 10
119.8905785415265
 20
583.6395018944538
 30
0.0
 11
121.8858306707177
 21
582.4875425405641
 31
0.0
 12
116.513204606122
 22
575.4857999343951
 32
0.0
 13
116.513204606122
 23
575.4857999343951
 33
0.0
  0
LEADER
  5
232
330
1F
100
AcDbEntity
  8
1
  6
Continuous
 62
     2
100
AcDbLeader
  3
Standard
 71
     0
 76
     3
 10
116.513204606122
 20
575.4857999343951
 30
0.0
 10
130.910147379082
 20
600.4220362908234
 30
0.0
 10
172.543871972291
 20
600.4220362908234
 30
0.0
  0
MTEXT
  5
234
330
1F
100
AcDbEntity
  8
1
 62
     7
100
AcDbMText
 10
151.7270096756865
 20
607.9220362908234
 30
0.0
 40
8.75
 41
0.0
 71
     5
 72
     1
  1
PJ1/2
  7
CONVERTER_2
 73
     1
 44
1.32052821128451
  0
MTEXT
  5
235
330
1F
100
AcDbEntity
  8
0
 62
     7
100
AcDbMText
 10
142.5
 20
56.87500000000004
 30
0.0
 40
8.75
 41
0.0
 71
     5
 72
     1
  1
泡沫横形自在水栓
  7
CONVERTER_1
 73
     1
 44
1.32052821128451
  0
MTEXT
  5
236
330
1F
100
AcDbEntity
  8
0
 62
     7
100
AcDbMText
 10
142.5
 20
35.625
 30
0.0
 40
8.75
 41
0.0
 71
     5
 72
     1
  1
A20JHK-13
  7
CONVERTER_2
 73
     1
 44
0.7202881152461
  0
MTEXT
  5
237
330
1F
100
AcDbEntity
  8
0
 62
     7
100
AcDbMText
 10
234.375
 20
42.5
 30
0.0
 40
8.75
 41
0.0
 71
     5
 72
     1
  1
2,5
  7
CONVERTER_2
 73
     1
 44
1.32052821128451
  0
MTEXT
  5
238
330
1F
100
AcDbEntity
  8
0
 62
     7
100
AcDbMText
 10
213.125
 20
42.5
 30
0.0
 40
8.75
 41
0.0
 71
     5
 72
     1
  1
1
  7
CONVERTER_2
 73
     1
 44
1.32052821128451
  0
MTEXT
  5
239
330
1F
100
AcDbEntity
  8
0
 62
     7
100
AcDbMText
 10
85.0
 20
85.00000000000001
 30
0.0
 40
8.75
 41
0.0
 71
     4
 72
     1
  1
JIS
  7
CONVERTER_2
 73
     1
 44
1.32052821128451
  0
DIMENSION
  5
244
330
1F
100
AcDbEntity
  8
1
100
AcDbDimension
  2
*D012
 10
182.40352668543
 20
213.9187396660026
 30
0.0
 11
175.52852668543
 21
247.668739666003
 31
0.0
  1
68
 71
     5
 42
0.0
 53
90.0
  3
ME10_DIM_0
100
AcDbAlignedDimension
 13
266.1535266854301
 23
281.4187396660033
 33
0.0
 14
382.213055187195
 24
213.9187396660026
 34
0.0
 50
90.0
100
AcDbRotatedDimension
  0
DIMENSION
  5
251
330
1F
100
AcDbEntity
  8
1
100
AcDbDimension
  2
*D113
 10
202.40352668543
 20
213.9187396660026
 30
0.0
 11
195.52852668543
 21
225.5187396660029
 31
0.0
  1
<>
 71
     5
 42
0.0
 53
90.0
  3
ME10_DIM_1
100
AcDbAlignedDimension
 13
228.5035266854301
 23
237.1187396660031
 33
0.0
 14
382.213055187195
 24
213.9187396660026
 34
0.0
 50
90.0
100
AcDbRotatedDimension
  0
DIMENSION
  5
25C
330
1F
100
AcDbEntity
  8
1
100
AcDbDimension
  2
*D214
 10
239.1535266854299
 20
165.9187396660032
 30
0.0
 11
324.1535266854299
 21
172.7937396660032
 31
0.0
  1
<>
 71
     5
 42
0.0
 53
0.00013888888889
  3
ME10_DIM_2
100
AcDbAlignedDimension
 13
409.1535266854299
 23
196.9187396660032
 33
0.0
 14
239.15352668543
 24
235.3498678684771
 34
0.0
100
AcDbRotatedDimension
  0
DIMENSION
  5
267
330
1F
100
AcDbEntity
  8
0
100
AcDbDimension
  2
*D315
 10
164.5132046061213
 20
165.9187396660028
 30
0.0
 11
135.2632046061214
 21
172.7937396660028
 31
0.0
  1
59リフト5
 71
     5
 42
0.0
 53
0.00013888888889
  3
ME10_DIM_3
100
AcDbAlignedDimension
 13
106.0132046061214
 23
187.9187396660029
 33
0.0
 14
164.5132046061212
 24
213.9187396660029
 34
0.0
100
AcDbRotatedDimension
  0
DIMENSION
  5
272
330
1F
100
AcDbEntity
  8
1
100
AcDbDimension
  2
*D416
 10
493.15352668543
 20
236.9187396660032
 30
0.0
 11
486.27852668543
 21
213.9187396660032
 31
0.0
  1
<>
 71
     5
 42
0.0
 53
90.0
  3
ME10_DIM_4
100
AcDbAlignedDimension
 13
454.1535266854299
 23
190.9187396660032
 33
0.0
 14
454.1535266854299
 24
236.9187396660032
 34
0.0
 50
90.0
100
AcDbRotatedDimension
  0
DIMENSION
  5
27D
330
1F
100
AcDbEntity
  8
1
100
AcDbDimension
  2
*D517
 10
409.1535266854298
 20
165.9187396660032
 30
0.0
 11
431.6535266854299
 21
172.7937396660032
 31
0.0
  1
<>
 71
     5
 42
0.0
 53
0.00013888888889
  3
ME10_DIM_5
100
AcDbAlignedDimension
 13
454.1535266854299
 23
190.9187396660032
 33
0.0
 14
409.1535266854299
 24
196.9187396660032
 34
0.0
100
AcDbRotatedDimension
  0
DIMENSION
  5
28B
330
1F
100
AcDbEntity
  8
1
100
AcDbDimension
  2
*D618
 10
468.1535266854298
 20
165.9187396660032
 30
0.0
 11
482.3618259308071
 21
172.7937396660032
 31
0.0
  1
<>
 71
     5
 42
0.0
 53
0.00013888888889
  3
ME10_DIM_6
100
AcDbAlignedDimension
 13
454.1535266854299
 23
190.9187396660032
 33
0.0
 14
468.1535266854299
 24
204.4187396660032
 34
0.0
100
AcDbRotatedDimension
  0
ENDSEC
  0
SECTION
  2
OBJECTS
  0
DICTIONARY
  5
C
330
0
100
AcDbDictionary
281
     1
  3
ACAD_GROUP
350
D
  3
ACAD_LAYOUT
350
1A
  3
ACAD_MLINESTYLE
350
17
  3
ACAD_PLOTSETTINGS
350
19
  3
ACAD_PLOTSTYLENAME
350
E
  3
ACAD_TABLESTYLE
350
2A
  3
AcDbVariableDictionary
350
2C
  0
DICTIONARY
  5
D
102
{ACAD_REACTORS
330
C
102
}
330
C
100
AcDbDictionary
281
     1
  0
DICTIONARY
  5
1A
102
{ACAD_REACTORS
330
C
102
}
330
C
100
AcDbDictionary
281
     1
  3
Layout1
350
1E
  3
Layout2
350
26
  3
Model
350
22
  0
DICTIONARY
  5
17
102
{ACAD_REACTORS
330
C
102
}
330
C
100
AcDbDictionary
281
     1
  3
Standard
350
18
  0
DICTIONARY
  5
19
102
{ACAD_REACTORS
330
C
102
}
330
C
100
AcDbDictionary
281
     1
  0
ACDBDICTIONARYWDFLT
  5
E
102
{ACAD_REACTORS
330
C
102
}
330
C
100
AcDbDictionary
281
     1
  3
Normal
350
F
100
AcDbDictionaryWithDefault
340
F
  0
DICTIONARY
  5
2A
102
{ACAD_REACTORS
330
C
102
}
330
C
100
AcDbDictionary
281
     1
  3
Standard
350
2B
  0
DICTIONARY
  5
2C
102
{ACAD_REACTORS
330
C
102
}
330
C
100
AcDbDictionary
281
     1
  3
CTABLESTYLE
350
2D
  0
LAYOUT
  5
1E
102
{ACAD_REACTORS
330
1A
102
}
330
1A
100
AcDbPlotSettings
  1

  2

  4

  6

 40
0.0
 41
0.0
 42
0.0
 43
0.0
 44
0.0
 45
0.0
 46
0.0
 47
0.0
 48
0.0
 49
0.0
140
0.0
141
0.0
142
1.0
143
1.0
 70
   688
 72
     0
 73
     0
 74
     5
  7

 75
    16
147
1.0
148
0.0
149
0.0
100
AcDbLayout
  1
Layout1
 70
     1
 71
     1
 10
0.0
 20
0.0
 11
12.0
 21
9.0
 12
0.0
 22
0.0
 32
0.0
 14
1.00000000000000E+20
 24
1.00000000000000E+20
 34
1.00000000000000E+20
 15
-1.00000000000000E+20
 25
-1.00000000000000E+20
 35
-1.00000000000000E+20
146
0.0
 13
0.0
 23
0.0
 33
0.0
 16
1.0
 26
0.0
 36
0.0
 17
0.0
 27
1.0
 37
0.0
 76
     0
330
1B
  0
LAYOUT
  5
26
102
{ACAD_REACTORS
330
1A
102
}
330
1A
100
AcDbPlotSettings
  1

  2

  4

  6

 40
0.0
 41
0.0
 42
0.0
 43
0.0
 44
0.0
 45
0.0
 46
0.0
 47
0.0
 48
0.0
 49
0.0
140
0.0
141
0.0
142
1.0
143
1.0
 70
   688
 72
     0
 73
     0
 74
     5
  7

 75
    16
147
1.0
148
0.0
149
0.0
100
AcDbLayout
  1
Layout2
 70
     1
 71
     2
 10
0.0
 20
0.0
 11
0.0
 21
0.0
 12
0.0
 22
0.0
 32
0.0
 14
0.0
 24
0.0
 34
0.0
 15
0.0
 25
0.0
 35
0.0
146
0.0
 13
0.0
 23
0.0
 33
0.0
 16
1.0
 26
0.0
 36
0.0
 17
0.0
 27
1.0
 37
0.0
 76
     0
330
23
  0
LAYOUT
  5
22
102
{ACAD_REACTORS
330
1A
102
}
330
1A
100
AcDbPlotSettings
  1

  2

  4

  6

 40
0.0
 41
0.0
 42
0.0
 43
0.0
 44
0.0
 45
0.0
 46
0.0
 47
0.0
 48
0.0
 49
0.0
140
0.0
141
0.0
142
1.0
143
1.0
 70
  1712
 72
     0
 73
     0
 74
     0
  7

 75
     0
147
1.0
148
0.0
149
0.0
100
AcDbLayout
  1
Model
 70
     1
 71
     0
 10
0.0
 20
0.0
 11
0.0
 21
0.0
 12
0.0
 22
0.0
 32
0.0
 14
0.0
 24
0.0
 34
0.0
 15
525.0
 25
742.5
 35
0.0
146
0.0
 13
0.0
 23
0.0
 33
0.0
 16
1.0
 26
0.0
 36
0.0
 17
0.0
 27
1.0
 37
0.0
 76
     0
330
1F
  0
MLINESTYLE
  5
18
102
{ACAD_REACTORS
330
17
102
}
330
17
100
AcDbMlineStyle
  2
Standard
 70
     0
  3

 62
   256
 51
90.0
 52
90.0
 71
     2
 49
0.5
 62
   256
  6
BYLAYER
 49
-0.5
 62
   256
  6
BYLAYER
  0
ACDBPLACEHOLDER
  5
F
102
{ACAD_REACTORS
330
E
102
}
330
E
  0
TABLESTYLE
  5
2B
102
{ACAD_REACTORS
330
2A
102
}
330
2A
100
AcDbTableStyle
  3
Standard
 70
     0
 71
     0
 40
0.06
 41
0.06
280
     0
281
     0
  7
Standard
140
0.18
170
     2
 62
     0
 63
     7
283
     0
274
    -2
284
     1
 64
     0
275
    -2
285
     1
 65
     0
276
    -2
286
     1
 66
     0
277
    -2
287
     1
 67
     0
278
    -2
288
     1
 68
     0
279
    -2
289
     1
 69
     0
  7
Standard
140
0.25
170
     5
 62
     0
 63
     7
283
     0
274
    -2
284
     1
 64
     0
275
    -2
285
     1
 65
     0
276
    -2
286
     1
 66
     0
277
    -2
287
     1
 67
     0
278
    -2
288
     1
 68
     0
279
    -2
289
     1
 69
     0
  7
Standard
140
0.18
170
     5
 62
     0
 63
     7
283
     0
274
    -2
284
     1
 64
     0
275
    -2
285
     1
 65
     0
276
    -2
286
     1
 66
     0
277
    -2
287
     1
 67
     0
278
    -2
288
     1
 68
     0
279
    -2
289
     1
 69
     0
  0
DICTIONARYVAR
  5
2D
102
{ACAD_REACTORS
330
2C
102
}
330
2C
100
DictionaryVariables
280
     0
  1
Standard
  0
ENDSEC
  0
EOF
