  0
SECTION
  2
HEADER
  9
$ACADVER
  1
AC1015
  9
$ACADMAINTVER
 70
     6
  9
$DWGCODEPAGE
  3
DOS932
  9
$INSBASE
 10
0.0
 20
0.0
 30
0.0
  9
$EXTMIN
 10
0.0
 20
0.0
 30
0.0
  9
$EXTMAX
 10
630.0
 20
891.0
 30
0.0
  9
$LIMMIN
 10
0.0
 20
0.0
  9
$LIMMAX
 10
12.0
 20
9.0
  9
$ORTHOMODE
 70
     0
  9
$REGENMODE
 70
     1
  9
$FILLMODE
 70
     1
  9
$QTEXTMODE
 70
     0
  9
$MIRRTEXT
 70
     1
  9
$LTSCALE
 40
1.0
  9
$ATTMODE
 70
     1
  9
$TEXTSIZE
 40
0.2
  9
$TRACEWID
 40
0.05
  9
$TEXTSTYLE
  7
Standard
  9
$CLAYER
  8
0
  9
$CELTYPE
  6
ByLayer
  9
$CECOLOR
 62
   256
  9
$CELTSCALE
 40
1.0
  9
$DISPSILH
 70
     0
  9
$DIMSCALE
 40
1.0
  9
$DIMASZ
 40
0.18
  9
$DIMEXO
 40
0.0625
  9
$DIMDLI
 40
0.38
  9
$DIMRND
 40
0.0
  9
$DIMDLE
 40
0.0
  9
$DIMEXE
 40
0.18
  9
$DIMTP
 40
0.0
  9
$DIMTM
 40
0.0
  9
$DIMTXT
 40
0.18
  9
$DIMCEN
 40
0.09
  9
$DIMTSZ
 40
0.0
  9
$DIMTOL
 70
     0
  9
$DIMLIM
 70
     0
  9
$DIMTIH
 70
     1
  9
$DIMTOH
 70
     1
  9
$DIMSE1
 70
     0
  9
$DIMSE2
 70
     0
  9
$DIMTAD
 70
     0
  9
$DIMZIN
 70
     0
  9
$DIMBLK
  1

  9
$DIMASO
 70
     1
  9
$DIMSHO
 70
     1
  9
$DIMPOST
  1

  9
$DIMAPOST
  1

  9
$DIMALT
 70
     0
  9
$DIMALTD
 70
     2
  9
$DIMALTF
 40
25.4
  9
$DIMLFAC
 40
1.0
  9
$DIMTOFL
 70
     0
  9
$DIMTVP
 40
0.0
  9
$DIMTIX
 70
     0
  9
$DIMSOXD
 70
     0
  9
$DIMSAH
 70
     0
  9
$DIMBLK1
  1

  9
$DIMBLK2
  1

  9
$DIMSTYLE
  2
Standard
  9
$DIMCLRD
 70
     0
  9
$DIMCLRE
 70
     0
  9
$DIMCLRT
 70
     0
  9
$DIMTFAC
 40
1.0
  9
$DIMGAP
 40
0.09
  9
$DIMJUST
 70
     0
  9
$DIMSD1
 70
     0
  9
$DIMSD2
 70
     0
  9
$DIMTOLJ
 70
     1
  9
$DIMTZIN
 70
     0
  9
$DIMALTZ
 70
     0
  9
$DIMALTTZ
 70
     0
  9
$DIMUPT
 70
     0
  9
$DIMDEC
 70
     4
  9
$DIMTDEC
 70
     4
  9
$DIMALTU
 70
     2
  9
$DIMALTTD
 70
     2
  9
$DIMTXSTY
  7
Standard
  9
$DIMAUNIT
 70
     0
  9
$DIMADEC
 70
     0
  9
$DIMALTRND
 40
0.0
  9
$DIMAZIN
 70
     0
  9
$DIMDSEP
 70
    46
  9
$DIMATFIT
 70
     3
  9
$DIMFRAC
 70
     0
  9
$DIMLDRBLK
  1

  9
$DIMLUNIT
 70
     2
  9
$DIMLWD
 70
    -2
  9
$DIMLWE
 70
    -2
  9
$DIMTMOVE
 70
     0
  9
$LUNITS
 70
     2
  9
$LUPREC
 70
     4
  9
$SKETCHINC
 40
0.1
  9
$FILLETRAD
 40
0.5
  9
$AUNITS
 70
     0
  9
$AUPREC
 70
     0
  9
$MENU
  1
.
  9
$ELEVATION
 40
0.0
  9
$PELEVATION
 40
0.0
  9
$THICKNESS
 40
0.0
  9
$LIMCHECK
 70
     0
  9
$CHAMFERA
 40
0.5
  9
$CHAMFERB
 40
0.5
  9
$CHAMFERC
 40
1.0
  9
$CHAMFERD
 40
0.0
  9
$SKPOLY
 70
     0
  9
$TDCREATE
 40
2456184.556739537
  9
$TDUCREATE
 40
2456184.181739537
  9
$TDUPDATE
 40
2456184.556739549
  9
$TDUUPDATE
 40
2456184.181739549
  9
$TDINDWG
 40
0.0000000116
  9
$TDUSRTIMER
 40
0.0000000116
  9
$USRTIMER
 70
     1
  9
$ANGBASE
 50
0.0
  9
$ANGDIR
 70
     0
  9
$PDMODE
 70
     0
  9
$PDSIZE
 40
0.0
  9
$PLINEWID
 40
0.0
  9
$SPLFRAME
 70
     0
  9
$SPLINETYPE
 70
     6
  9
$SPLINESEGS
 70
     8
  9
$HANDSEED
  5
271
  9
$SURFTAB1
 70
     6
  9
$SURFTAB2
 70
     6
  9
$SURFTYPE
 70
     6
  9
$SURFU
 70
     6
  9
$SURFV
 70
     6
  9
$UCSBASE
  2

  9
$UCSNAME
  2

  9
$UCSORG
 10
0.0
 20
0.0
 30
0.0
  9
$UCSXDIR
 10
1.0
 20
0.0
 30
0.0
  9
$UCSYDIR
 10
0.0
 20
1.0
 30
0.0
  9
$UCSORTHOREF
  2

  9
$UCSORTHOVIEW
 70
     0
  9
$UCSORGTOP
 10
0.0
 20
0.0
 30
0.0
  9
$UCSORGBOTTOM
 10
0.0
 20
0.0
 30
0.0
  9
$UCSORGLEFT
 10
0.0
 20
0.0
 30
0.0
  9
$UCSORGRIGHT
 10
0.0
 20
0.0
 30
0.0
  9
$UCSORGFRONT
 10
0.0
 20
0.0
 30
0.0
  9
$UCSORGBACK
 10
0.0
 20
0.0
 30
0.0
  9
$PUCSBASE
  2

  9
$PUCSNAME
  2

  9
$PUCSORG
 10
0.0
 20
0.0
 30
0.0
  9
$PUCSXDIR
 10
1.0
 20
0.0
 30
0.0
  9
$PUCSYDIR
 10
0.0
 20
1.0
 30
0.0
  9
$PUCSORTHOREF
  2

  9
$PUCSORTHOVIEW
 70
     0
  9
$PUCSORGTOP
 10
0.0
 20
0.0
 30
0.0
  9
$PUCSORGBOTTOM
 10
0.0
 20
0.0
 30
0.0
  9
$PUCSORGLEFT
 10
0.0
 20
0.0
 30
0.0
  9
$PUCSORGRIGHT
 10
0.0
 20
0.0
 30
0.0
  9
$PUCSORGFRONT
 10
0.0
 20
0.0
 30
0.0
  9
$PUCSORGBACK
 10
0.0
 20
0.0
 30
0.0
  9
$USERI1
 70
     0
  9
$USERI2
 70
     0
  9
$USERI3
 70
     0
  9
$USERI4
 70
     0
  9
$USERI5
 70
     0
  9
$USERR1
 40
13.2
  9
$USERR2
 40
0.0
  9
$USERR3
 40
0.0
  9
$USERR4
 40
0.0
  9
$USERR5
 40
0.0
  9
$WORLDVIEW
 70
     1
  9
$SHADEDGE
 70
     3
  9
$SHADEDIF
 70
    70
  9
$TILEMODE
 70
     1
  9
$MAXACTVP
 70
    64
  9
$PINSBASE
 10
0.0
 20
0.0
 30
0.0
  9
$PLIMCHECK
 70
     0
  9
$PEXTMIN
 10
1.00000000000000E+20
 20
1.00000000000000E+20
 30
1.00000000000000E+20
  9
$PEXTMAX
 10
-1.00000000000000E+20
 20
-1.00000000000000E+20
 30
-1.00000000000000E+20
  9
$PLIMMIN
 10
0.0
 20
0.0
  9
$PLIMMAX
 10
12.0
 20
9.0
  9
$UNITMODE
 70
     0
  9
$VISRETAIN
 70
     1
  9
$PLINEGEN
 70
     0
  9
$PSLTSCALE
 70
     1
  9
$TREEDEPTH
 70
  3020
  9
$CMLSTYLE
  2
Standard
  9
$CMLJUST
 70
     0
  9
$CMLSCALE
 40
1.0
  9
$PROXYGRAPHICS
 70
     1
  9
$MEASUREMENT
 70
     1
  9
$CELWEIGHT
370
    -1
  9
$ENDCAPS
280
     0
  9
$JOINSTYLE
280
     0
  9
$LWDISPLAY
290
     0
  9
$INSUNITS
 70
     1
  9
$HYPERLINKBASE
  1

  9
$STYLESHEET
  1

  9
$XEDIT
290
     1
  9
$CEPSNTYPE
380
     0
  9
$PSTYLEMODE
290
     0
  9
$FINGERPRINTGUID
  2
{FAEB1C30-E019-11D5-929B-00C0DF256EC4}
  9
$VERSIONGUID
  2
{FAEB1C32-E019-11D5-929B-00C0DF256EC4}
  9
$EXTNAMES
290
     1
  9
$PSVPSCALE
 40
0.0
  9
$OLESTARTUP
290
     0
  0
ENDSEC
  0
SECTION
  2
CLASSES
  0
CLASS
  1
ACDBDICTIONARYWDFLT
  2
AcDbDictionaryWithDefault
  3
ObjectDBX Classes
 90
        0
280
     0
281
     0
  0
CLASS
  1
TABLESTYLE
  2
AcDbTableStyle
  3
ObjectDBX Classes
 90
     2047
280
     0
281
     0
  0
CLASS
  1
DICTIONARYVAR
  2
AcDbDictionaryVar
  3
ObjectDBX Classes
 90
        0
280
     0
281
     0
  0
CLASS
  1

  2
exOdDbCircle
  3

 90
        0
280
     0
281
     1
  0
CLASS
  1

  2
exOdDbSpline
  3

 90
        0
280
     0
281
     1
  0
CLASS
  1
ACDBPLACEHOLDER
  2
AcDbPlaceHolder
  3
ObjectDBX Classes
 90
        0
280
     0
281
     0
  0
CLASS
  1
LAYOUT
  2
AcDbLayout
  3
ObjectDBX Classes
 90
        0
280
     0
281
     0
  0
ENDSEC
  0
SECTION
  2
TABLES
  0
TABLE
  2
VPORT
  5
8
330
0
100
AcDbSymbolTable
 70
     2
  0
VPORT
  5
29
330
8
100
AcDbSymbolTableRecord
100
AcDbViewportTableRecord
  2
*Active
 70
     0
 10
0.0
 20
0.0
 11
1.0
 21
1.0
 12
315.0
 22
445.5
 13
0.0
 23
0.0
 14
0.5
 24
0.5
 15
0.5
 25
0.5
 16
0.0
 26
0.0
 36
1.0
 17
0.0
 27
0.0
 37
0.0
 40
980.1
 41
1.60267857142857
 42
50.0
 43
0.0
 44
0.0
 50
0.0
 51
0.0
 71
     0
 72
   100
 73
     1
 74
     3
 75
     0
 76
     0
 77
     0
 78
     0
281
     0
 65
     1
110
0.0
120
0.0
130
0.0
111
1.0
121
0.0
131
0.0
112
0.0
122
1.0
132
0.0
 79
     0
146
0.0
  0
ENDTAB
  0
TABLE
  2
LTYPE
  5
5
330
0
100
AcDbSymbolTable
 70
     8
  0
LTYPE
  5
14
330
5
100
AcDbSymbolTableRecord
100
AcDbLinetypeTableRecord
  2
ByBlock
 70
     0
  3

 72
    65
 73
     0
 40
0.0
  0
LTYPE
  5
15
330
5
100
AcDbSymbolTableRecord
100
AcDbLinetypeTableRecord
  2
ByLayer
 70
     0
  3

 72
    65
 73
     0
 40
0.0
  0
LTYPE
  5
16
330
5
100
AcDbSymbolTableRecord
100
AcDbLinetypeTableRecord
  2
Continuous
 70
     0
  3
Solid line
 72
    65
 73
     0
 40
0.0
  0
LTYPE
  5
2E
330
5
100
AcDbSymbolTableRecord
100
AcDbLinetypeTableRecord
  2
DASHED
 70
     0
  3
Dashed
 72
    65
 73
     2
 40
15.0
 49
7.0
 74
     0
 49
-8.0
 74
     0
  0
LTYPE
  5
2F
330
5
100
AcDbSymbolTableRecord
100
AcDbLinetypeTableRecord
  2
DOTTED
 70
     0
  3
Dotted
 72
    65
 73
     2
 40
1.0
 49
0.0
 74
     0
 49
-1.0
 74
     0
  0
LTYPE
  5
30
330
5
100
AcDbSymbolTableRecord
100
AcDbLinetypeTableRecord
  2
DOT_CENTER
 70
     0
  3
Dot_Center
 72
    65
 73
     4
 40
14.0
 49
12.0
 74
     0
 49
-1.0
 74
     0
 49
0.0
 74
     0
 49
-1.0
 74
     0
  0
LTYPE
  5
31
330
5
100
AcDbSymbolTableRecord
100
AcDbLinetypeTableRecord
  2
LONG_DASHED
 70
     0
  3
Long_Dashed
 72
    65
 73
     2
 40
15.0
 49
10.0
 74
     0
 49
-5.0
 74
     0
  0
LTYPE
  5
32
330
5
100
AcDbSymbolTableRecord
100
AcDbLinetypeTableRecord
  2
DASH_CENTER
 70
     0
  3
Dash_Center
 72
    65
 73
     4
 40
14.0
 49
11.0
 74
     0
 49
-1.0
 74
     0
 49
1.0
 74
     0
 49
-1.0
 74
     0
  0
LTYPE
  5
33
330
5
100
AcDbSymbolTableRecord
100
AcDbLinetypeTableRecord
  2
PHANTOM
 70
     0
  3
Phantom
 72
    65
 73
     6
 40
13.0
 49
10.0
 74
     0
 49
-1.0
 74
     0
 49
0.0
 74
     0
 49
-1.0
 74
     0
 49
0.0
 74
     0
 49
-1.0
 74
     0
  0
LTYPE
  5
34
330
5
100
AcDbSymbolTableRecord
100
AcDbLinetypeTableRecord
  2
CENTER_DASH_DASH
 70
     0
  3
Center_Dash_Dash
 72
    65
 73
     6
 40
14.0
 49
9.0
 74
     0
 49
-1.0
 74
     0
 49
1.0
 74
     0
 49
-1.0
 74
     0
 49
1.0
 74
     0
 49
-1.0
 74
     0
  0
ENDTAB
  0
TABLE
  2
LAYER
  5
2
330
0
100
AcDbSymbolTable
 70
     2
  0
LAYER
  5
10
330
2
100
AcDbSymbolTableRecord
100
AcDbLayerTableRecord
  2
0
 70
     0
 62
     7
  6
Continuous
370
    -3
390
F
  0
LAYER
  5
35
330
2
100
AcDbSymbolTableRecord
100
AcDbLayerTableRecord
  2
1
 70
     0
 62
     7
  6
Continuous
370
    -3
390
F
  0
ENDTAB
  0
TABLE
  2
STYLE
  5
3
330
0
100
AcDbSymbolTable
 70
     3
  0
STYLE
  5
11
330
3
100
AcDbSymbolTableRecord
100
AcDbTextStyleTableRecord
  2
Standard
 70
     0
 40
0.0
 41
1.0
 50
0.0
 71
     0
 42
0.2
  3
txt
  4

  0
STYLE
  5
AD
330
3
100
AcDbSymbolTableRecord
100
AcDbTextStyleTableRecord
  2
CONVERTER_1
 70
     0
 40
0.0
 41
0.89
 50
0.0
 71
     0
 42
0.2
  3
msmincho.ttc
  4

1001
ACAD
1000
MS Mincho
1071
    32785
  0
STYLE
  5
219
330
3
100
AcDbSymbolTableRecord
100
AcDbTextStyleTableRecord
  2
CONVERTER_2
 70
     0
 40
0.0
 41
0.9
 50
0.0
 71
     0
 42
0.2
  3
txt.shx
  4

  0
ENDTAB
  0
TABLE
  2
VIEW
  5
6
330
0
100
AcDbSymbolTable
 70
     0
  0
ENDTAB
  0
TABLE
  2
UCS
  5
7
330
0
100
AcDbSymbolTable
 70
     0
  0
ENDTAB
  0
TABLE
  2
APPID
  5
9
330
0
100
AcDbSymbolTable
 70
     1
  0
APPID
  5
12
330
9
100
AcDbSymbolTableRecord
100
AcDbRegAppTableRecord
  2
ACAD
 70
     0
  0
ENDTAB
  0
TABLE
  2
DIMSTYLE
  5
A
330
0
100
AcDbSymbolTable
 70
     8
100
AcDbDimStyleTable
  0
DIMSTYLE
105
27
330
A
100
AcDbSymbolTableRecord
100
AcDbDimStyleTableRecord
  2
Standard
 70
     0
340
11
  0
DIMSTYLE
105
22A
102
{ACAD_REACTORS
330
22B
102
}
330
A
100
AcDbSymbolTableRecord
100
AcDbDimStyleTableRecord
  2
ME10_DIM_0
 70
     0
 41
10.5
 42
0.0
 44
3.0
 73
     0
 74
     0
 77
     1
 78
     8
140
10.5
147
0.625
172
     1
173
     1
176
     2
177
     2
178
     7
271
     2
340
AD
  0
DIMSTYLE
105
235
102
{ACAD_REACTORS
330
236
102
}
330
A
100
AcDbSymbolTableRecord
100
AcDbDimStyleTableRecord
  2
ME10_DIM_1
 70
     0
 41
10.5
 42
0.0
 44
3.0
 73
     0
 74
     0
 77
     1
 78
     8
140
10.5
147
0.625
172
     1
173
     1
176
     2
177
     2
178
     7
271
     2
340
219
  0
DIMSTYLE
105
240
102
{ACAD_REACTORS
330
241
102
}
330
A
100
AcDbSymbolTableRecord
100
AcDbDimStyleTableRecord
  2
ME10_DIM_2
 70
     0
 41
10.5
 42
0.0
 44
3.0
 73
     0
 74
     0
 77
     1
 78
     8
140
10.5
147
0.625
172
     1
173
     1
176
     2
177
     2
178
     7
271
     2
340
219
  0
DIMSTYLE
105
24B
102
{ACAD_REACTORS
330
24C
102
}
330
A
100
AcDbSymbolTableRecord
100
AcDbDimStyleTableRecord
  2
ME10_DIM_3
 70
     0
 41
10.5
 42
0.0
 44
3.0
 73
     0
 74
     0
 77
     1
 78
     8
140
10.5
147
0.625
172
     1
173
     1
176
     2
177
     2
178
     7
271
     2
340
219
  0
DIMSTYLE
105
256
102
{ACAD_REACTORS
330
257
102
}
330
A
100
AcDbSymbolTableRecord
100
AcDbDimStyleTableRecord
  2
ME10_DIM_4
 70
     0
 41
10.5
 42
0.0
 44
3.0
 73
     0
 74
     0
 77
     1
 78
     8
140
10.5
147
0.625
172
     1
173
     1
176
     2
177
     2
178
     7
271
     2
340
219
  0
DIMSTYLE
105
261
102
{ACAD_REACTORS
330
262
102
}
330
A
100
AcDbSymbolTableRecord
100
AcDbDimStyleTableRecord
  2
ME10_DIM_5
 70
     0
  3
{\Fgdt;n}<>
 41
10.5
 42
0.0
 44
3.0
 73
     0
 74
     0
 77
     1
 78
     8
140
10.5
147
0.625
172
     1
173
     1
176
     2
177
     2
178
     7
271
     2
340
219
  0
DIMSTYLE
105
26F
102
{ACAD_REACTORS
330
270
102
}
330
A
100
AcDbSymbolTableRecord
100
AcDbDimStyleTableRecord
  2
ME10_DIM_6
 70
     0
 41
10.5
 42
0.0
 44
3.0
 73
     0
 74
     0
 77
     1
 78
     8
140
10.5
147
0.625
172
     1
173
     1
176
     2
177
     2
178
     7
271
     2
340
219
343
26C
  0
ENDTAB
  0
TABLE
  2
BLOCK_RECORD
  5
1
330
0
100
AcDbSymbolTable
 70
    20
  0
BLOCK_RECORD
  5
1F
330
1
100
AcDbSymbolTableRecord
100
AcDbBlockTableRecord
  2
*Model_Space
340
22
  0
BLOCK_RECORD
  5
1B
330
1
100
AcDbSymbolTableRecord
100
AcDbBlockTableRecord
  2
*Paper_Space
340
1E
  0
BLOCK_RECORD
  5
23
330
1
100
AcDbSymbolTableRecord
100
AcDbBlockTableRecord
  2
*Paper_Space0
340
26
  0
BLOCK_RECORD
  5
36
330
1
100
AcDbSymbolTableRecord
100
AcDbBlockTableRecord
  2
_J__A4
340
0
102
{BLKREFS
331
5E
102
}
  0
BLOCK_RECORD
  5
39
330
1
100
AcDbSymbolTableRecord
100
AcDbBlockTableRecord
  2
32-1-16
340
0
102
{BLKREFS
331
40
102
}
  0
BLOCK_RECORD
  5
3C
330
1
100
AcDbSymbolTableRecord
100
AcDbBlockTableRecord
  2
61-1-16-170
340
0
102
{BLKREFS
331
41
102
}
  0
BLOCK_RECORD
  5
3F
330
1
100
AcDbSymbolTableRecord
100
AcDbBlockTableRecord
  2
A20J-60X-16
340
0
102
{BLKREFS
331
5F
102
}
  0
BLOCK_RECORD
  5
44
330
1
100
AcDbSymbolTableRecord
100
AcDbBlockTableRecord
  2
A20-0-13
340
0
102
{BLKREFS
331
60
102
}
  0
BLOCK_RECORD
  5
47
330
1
100
AcDbSymbolTableRecord
100
AcDbBlockTableRecord
  2
51-1
340
0
102
{BLKREFS
331
4E
102
}
  0
BLOCK_RECORD
  5
4A
330
1
100
AcDbSymbolTableRecord
100
AcDbBlockTableRecord
  2
42-1
340
0
102
{BLKREFS
331
4F
102
}
  0
BLOCK_RECORD
  5
4D
330
1
100
AcDbSymbolTableRecord
100
AcDbBlockTableRecord
  2
R20F
340
0
102
{BLKREFS
331
59
102
}
  0
BLOCK_RECORD
  5
52
330
1
100
AcDbSymbolTableRecord
100
AcDbBlockTableRecord
  2
37-1-13
340
0
102
{BLKREFS
331
5A
102
}
  0
BLOCK_RECORD
  5
55
330
1
100
AcDbSymbolTableRecord
100
AcDbBlockTableRecord
  2
36-1A-13-M4
340
0
102
{BLKREFS
331
5B
102
}
  0
BLOCK_RECORD
  5
58
330
1
100
AcDbSymbolTableRecord
100
AcDbBlockTableRecord
  2
R10A-13
340
0
102
{BLKREFS
331
61
102
}
  0
BLOCK_RECORD
  5
220
330
1
100
AcDbSymbolTableRecord
100
AcDbBlockTableRecord
  2
*D012
340
0
  0
BLOCK_RECORD
  5
22C
330
1
100
AcDbSymbolTableRecord
100
AcDbBlockTableRecord
  2
*D113
340
0
  0
BLOCK_RECORD
  5
237
330
1
100
AcDbSymbolTableRecord
100
AcDbBlockTableRecord
  2
*D214
340
0
  0
BLOCK_RECORD
  5
242
330
1
100
AcDbSymbolTableRecord
100
AcDbBlockTableRecord
  2
*D315
340
0
  0
BLOCK_RECORD
  5
24D
330
1
100
AcDbSymbolTableRecord
100
AcDbBlockTableRecord
  2
*D416
340
0
  0
BLOCK_RECORD
  5
258
330
1
100
AcDbSymbolTableRecord
100
AcDbBlockTableRecord
  2
*D517
340
0
  0
BLOCK_RECORD
  5
263
330
1
100
AcDbSymbolTableRecord
100
AcDbBlockTableRecord
  2
*D618
340
0
  0
BLOCK_RECORD
  5
26C
330
1
100
AcDbSymbolTableRecord
100
AcDbBlockTableRecord
  2
_None
340
0
  0
ENDTAB
  0
ENDSEC
  0
SECTION
  2
BLOCKS
  0
BLOCK
  5
20
330
1F
100
AcDbEntity
  8
0
100
AcDbBlockBegin
  2
*Model_Space
 70
     0
 71
     0
 10
0.0
 20
0.0
 30
0.0
  3
*Model_Space
  1

  0
ENDBLK
  5
21
330
1F
100
AcDbEntity
  8
0
100
AcDbBlockEnd
  0
BLOCK
  5
1C
330
1B
100
AcDbEntity
 67
     1
  8
0
100
AcDbBlockBegin
  2
*Paper_Space
 70
     0
 71
     0
 10
0.0
 20
0.0
 30
0.0
  3
*Paper_Space
  1

  0
ENDBLK
  5
1D
330
1B
100
AcDbEntity
 67
     1
  8
0
100
AcDbBlockEnd
  0
BLOCK
  5
24
330
23
100
AcDbEntity
  8
0
100
AcDbBlockBegin
  2
*Paper_Space0
 70
     0
 71
     0
 10
0.0
 20
0.0
 30
0.0
  3
*Paper_Space0
  1

  0
ENDBLK
  5
25
330
23
100
AcDbEntity
  8
0
100
AcDbBlockEnd
  0
BLOCK
  5
37
330
36
100
AcDbEntity
  8
0
100
AcDbBlockBegin
  2
_J__A4
 70
     0
 71
     0
 10
0.0
 20
0.0
 30
0.0
  3
_J__A4
  1

  0
POINT
  5
62
330
36
100
AcDbEntity
  8
1
 62
     4
100
AcDbPoint
 10
34.0
 20
34.00000000000001
 30
0.0
  0
POINT
  5
63
330
36
100
AcDbEntity
  8
1
 62
     4
100
AcDbPoint
 10
57.0
 20
12.25
 30
0.0
  0
POINT
  5
64
330
36
100
AcDbEntity
  8
1
 62
     4
100
AcDbPoint
 10
57.0
 20
20.75000000000001
 30
0.0
  0
POINT
  5
65
330
36
100
AcDbEntity
  8
1
 62
     4
100
AcDbPoint
 10
57.0
 20
24.75000000000001
 30
0.0
  0
POINT
  5
66
330
36
100
AcDbEntity
  8
1
 62
     4
100
AcDbPoint
 10
57.0
 20
16.25
 30
0.0
  0
POINT
  5
67
330
36
100
AcDbEntity
  8
1
 62
     4
100
AcDbPoint
 10
157.5
 20
19.00000000000001
 30
0.0
  0
POINT
  5
68
330
36
100
AcDbEntity
  8
1
 62
     4
100
AcDbPoint
 10
47.5
 20
282.0000000000003
 30
0.0
  0
POINT
  5
69
330
36
100
AcDbEntity
  8
1
 62
     4
100
AcDbPoint
 10
57.0
 20
22.75000000000001
 30
0.0
  0
POINT
  5
6A
330
36
100
AcDbEntity
  8
1
 62
     4
100
AcDbPoint
 10
57.0
 20
14.25
 30
0.0
  0
POINT
  5
6B
330
36
100
AcDbEntity
  8
1
 62
     4
100
AcDbPoint
 10
157.5
 20
12.5
 30
0.0
  0
POINT
  5
6C
330
36
100
AcDbEntity
  8
1
 62
     4
100
AcDbPoint
 10
163.25
 20
12.5
 30
0.0
  0
POINT
  5
6D
330
36
100
AcDbEntity
  8
1
 62
     4
100
AcDbPoint
 10
151.75
 20
12.5
 30
0.0
  0
POINT
  5
6E
330
36
100
AcDbEntity
  8
1
 62
     4
100
AcDbPoint
 10
134.75
 20
12.5
 30
0.0
  0
POINT
  5
6F
330
36
100
AcDbEntity
  8
1
 62
     4
100
AcDbPoint
 10
146.25
 20
12.5
 30
0.0
  0
POINT
  5
70
330
36
100
AcDbEntity
  8
1
 62
     4
100
AcDbPoint
 10
140.5
 20
12.5
 30
0.0
  0
POINT
  5
71
330
36
100
AcDbEntity
  8
1
 62
     4
100
AcDbPoint
 10
140.5
 20
19.00000000000001
 30
0.0
  0
POINT
  5
72
330
36
100
AcDbEntity
  8
1
 62
     4
100
AcDbPoint
 10
117.75
 20
12.5
 30
0.0
  0
POINT
  5
73
330
36
100
AcDbEntity
  8
1
 62
     4
100
AcDbPoint
 10
129.25
 20
12.5
 30
0.0
  0
POINT
  5
74
330
36
100
AcDbEntity
  8
1
 62
     4
100
AcDbPoint
 10
123.5
 20
12.5
 30
0.0
  0
POINT
  5
75
330
36
100
AcDbEntity
  8
1
 62
     4
100
AcDbPoint
 10
123.5
 20
19.00000000000001
 30
0.0
  0
POINT
  5
76
330
36
100
AcDbEntity
  8
1
 62
     4
100
AcDbPoint
 10
100.75
 20
12.5
 30
0.0
  0
POINT
  5
77
330
36
100
AcDbEntity
  8
1
 62
     4
100
AcDbPoint
 10
112.25
 20
12.5
 30
0.0
  0
POINT
  5
78
330
36
100
AcDbEntity
  8
1
 62
     4
100
AcDbPoint
 10
106.5
 20
12.5
 30
0.0
  0
POINT
  5
79
330
36
100
AcDbEntity
  8
1
 62
     4
100
AcDbPoint
 10
106.5
 20
19.00000000000001
 30
0.0
  0
POINT
  5
7A
330
36
100
AcDbEntity
  8
1
 62
     4
100
AcDbPoint
 10
85.25
 20
17.0
 30
0.0
  0
POINT
  5
7B
330
36
100
AcDbEntity
  8
1
 62
     4
100
AcDbPoint
 10
93.75
 20
17.0
 30
0.0
  0
LINE
  5
7C
330
36
100
AcDbEntity
  8
1
  6
Continuous
 62
     2
100
AcDbLine
 10
81.0
 20
27.00000000000001
 30
0.0
 11
81.0
 21
10.0
 31
0.0
  0
LINE
  5
7D
330
36
100
AcDbEntity
  8
1
  6
DOT_CENTER
 62
     2
100
AcDbLine
 10
187.0
 20
26.50000000000001
 30
0.0
 11
187.0
 21
20.50000000000001
 31
0.0
  0
LINE
  5
7E
330
36
100
AcDbEntity
  8
1
  6
DOT_CENTER
 62
     2
100
AcDbLine
 10
184.0
 20
23.50000000000001
 30
0.0
 11
197.0
 21
23.50000000000001
 31
0.0
  0
LINE
  5
7F
330
36
100
AcDbEntity
  8
1
  6
Continuous
 62
     7
100
AcDbLine
 10
196.0
 20
21.50000000000001
 30
0.0
 11
191.0
 21
22.30000000000001
 31
0.0
  0
LINE
  5
80
330
36
100
AcDbEntity
  8
1
  6
Continuous
 62
     7
100
AcDbLine
 10
196.0
 20
25.50000000000001
 30
0.0
 11
196.0
 21
21.50000000000001
 31
0.0
  0
LINE
  5
81
330
36
100
AcDbEntity
  8
1
  6
Continuous
 62
     7
100
AcDbLine
 10
191.0
 20
24.70000000000001
 30
0.0
 11
196.0
 21
25.50000000000001
 31
0.0
  0
LINE
  5
82
330
36
100
AcDbEntity
  8
1
  6
Continuous
 62
     7
100
AcDbLine
 10
191.0
 20
24.70000000000001
 30
0.0
 11
191.0
 21
22.30000000000001
 31
0.0
  0
LINE
  5
83
330
36
100
AcDbEntity
  8
1
  6
Continuous
 62
     2
100
AcDbLine
 10
33.0
 20
27.0
 30
0.0
 11
33.0
 21
10.0
 31
0.0
  0
LINE
  5
84
330
36
100
AcDbEntity
  8
1
  6
Continuous
 62
     2
100
AcDbLine
 10
25.0
 20
18.50000000000001
 30
0.0
 11
81.0
 21
18.50000000000001
 31
0.0
  0
LINE
  5
85
330
36
100
AcDbEntity
  8
1
  6
Continuous
 62
     7
100
AcDbLine
 10
200.0
 20
287.0000000000003
 30
0.0
 11
105.0
 21
287.0000000000003
 31
0.0
  0
LINE
  5
86
330
36
100
AcDbEntity
  8
1
  6
Continuous
 62
     7
100
AcDbLine
 10
200.0
 20
10.0
 30
0.0
 11
200.0
 21
148.5
 31
0.0
  0
LINE
  5
87
330
36
100
AcDbEntity
  8
1
  6
Continuous
 62
     7
100
AcDbLine
 10
25.0
 20
10.0
 30
0.0
 11
105.0
 21
10.0
 31
0.0
  0
LINE
  5
88
330
36
100
AcDbEntity
  8
1
  6
PHANTOM
 62
     4
100
AcDbLine
 10
0.0
 20
297.0
 30
0.0
 11
0.0
 21
0.0
 31
0.0
  0
LINE
  5
89
330
36
100
AcDbEntity
  8
1
  6
PHANTOM
 62
     4
100
AcDbLine
 10
210.0
 20
297.0
 30
0.0
 11
0.0
 21
297.0
 31
0.0
  0
LINE
  5
8A
330
36
100
AcDbEntity
  8
1
  6
PHANTOM
 62
     4
100
AcDbLine
 10
210.0
 20
0.0
 30
0.0
 11
210.0
 21
297.0
 31
0.0
  0
LINE
  5
8B
330
36
100
AcDbEntity
  8
1
  6
PHANTOM
 62
     4
100
AcDbLine
 10
0.0
 20
0.0
 30
0.0
 11
210.0
 21
0.0
 31
0.0
  0
LINE
  5
8C
330
36
100
AcDbEntity
  8
1
  6
Continuous
 62
     7
100
AcDbLine
 10
25.0
 20
41.0
 30
0.0
 11
200.0
 21
41.0
 31
0.0
  0
LINE
  5
8D
330
36
100
AcDbEntity
  8
1
  6
Continuous
 62
     7
100
AcDbLine
 10
200.0
 20
27.00000000000001
 30
0.0
 11
25.0
 21
27.00000000000001
 31
0.0
  0
LINE
  5
8E
330
36
100
AcDbEntity
  8
1
  6
Continuous
 62
     2
100
AcDbLine
 10
33.0
 20
41.00000000000001
 30
0.0
 11
33.0
 21
27.0
 31
0.0
  0
LINE
  5
8F
330
36
100
AcDbEntity
  8
1
  6
Continuous
 62
     2
100
AcDbLine
 10
55.0
 20
287.0000000000003
 30
0.0
 11
55.0
 21
277.0000000000003
 31
0.0
  0
LINE
  5
90
330
36
100
AcDbEntity
  8
1
  6
Continuous
 62
     2
100
AcDbLine
 10
40.0
 20
287.0000000000003
 30
0.0
 11
40.0
 21
277.0000000000003
 31
0.0
  0
LINE
  5
91
330
36
100
AcDbEntity
  8
1
  6
Continuous
 62
     7
100
AcDbLine
 10
25.0
 20
10.0
 30
0.0
 11
25.0
 21
148.5
 31
0.0
  0
LINE
  5
92
330
36
100
AcDbEntity
  8
1
  6
Continuous
 62
     2
100
AcDbLine
 10
55.0
 20
277.0000000000003
 30
0.0
 11
25.0
 21
277.0000000000003
 31
0.0
  0
LINE
  5
93
330
36
100
AcDbEntity
  8
1
  6
Continuous
 62
     2
100
AcDbLine
 10
166.0
 20
27.00000000000001
 30
0.0
 11
166.0
 21
10.0
 31
0.0
  0
LINE
  5
94
330
36
100
AcDbEntity
  8
1
  6
Continuous
 62
     2
100
AcDbLine
 10
132.0
 20
27.00000000000001
 30
0.0
 11
132.0
 21
9.99999999999999
 31
0.0
  0
LINE
  5
95
330
36
100
AcDbEntity
  8
1
  6
Continuous
 62
     2
100
AcDbLine
 10
149.0
 20
27.00000000000001
 30
0.0
 11
149.0
 21
10.0
 31
0.0
  0
LINE
  5
96
330
36
100
AcDbEntity
  8
1
  6
Continuous
 62
     2
100
AcDbLine
 10
115.0
 20
27.00000000000001
 30
0.0
 11
115.0
 21
9.99999999999999
 31
0.0
  0
LINE
  5
97
330
36
100
AcDbEntity
  8
1
  6
Continuous
 62
     2
100
AcDbLine
 10
98.0
 20
27.00000000000001
 30
0.0
 11
98.0
 21
9.99999999999999
 31
0.0
  0
LINE
  5
98
330
36
100
AcDbEntity
  8
1
  6
Continuous
 62
     2
100
AcDbLine
 10
166.0
 20
20.00000000000001
 30
0.0
 11
200.0
 21
20.00000000000001
 31
0.0
  0
LINE
  5
99
330
36
100
AcDbEntity
  8
1
  6
Continuous
 62
     2
100
AcDbLine
 10
105.0
 20
287.0000000000003
 30
0.0
 11
105.0
 21
292.0000000000003
 31
0.0
  0
LINE
  5
9A
330
36
100
AcDbEntity
  8
1
  6
Continuous
 62
     7
100
AcDbLine
 10
105.0
 20
287.0000000000003
 30
0.0
 11
25.0
 21
287.0000000000003
 31
0.0
  0
LINE
  5
9B
330
36
100
AcDbEntity
  8
1
  6
Continuous
 62
     2
100
AcDbLine
 10
25.0
 20
148.5
 30
0.0
 11
20.0
 21
148.5
 31
0.0
  0
LINE
  5
9C
330
36
100
AcDbEntity
  8
1
  6
Continuous
 62
     7
100
AcDbLine
 10
25.0
 20
148.5
 30
0.0
 11
25.0
 21
287.0000000000003
 31
0.0
  0
LINE
  5
9D
330
36
100
AcDbEntity
  8
1
  6
Continuous
 62
     2
100
AcDbLine
 10
200.0
 20
148.5
 30
0.0
 11
205.0
 21
148.5
 31
0.0
  0
LINE
  5
9E
330
36
100
AcDbEntity
  8
1
  6
Continuous
 62
     7
100
AcDbLine
 10
200.0
 20
148.5
 30
0.0
 11
200.0
 21
287.0000000000003
 31
0.0
  0
LINE
  5
9F
330
36
100
AcDbEntity
  8
1
  6
Continuous
 62
     2
100
AcDbLine
 10
105.0
 20
10.0
 30
0.0
 11
105.0
 21
5.0
 31
0.0
  0
LINE
  5
A0
330
36
100
AcDbEntity
  8
1
  6
Continuous
 62
     7
100
AcDbLine
 10
105.0
 20
10.0
 30
0.0
 11
200.0
 21
10.0
 31
0.0
  0
CIRCLE
  5
A1
330
36
100
AcDbEntity
  8
1
  6
DOT_CENTER
 62
     7
100
AcDbCircle
 10
89.5
 20
18.0
 30
0.0
 40
0.1000000000000227
  0
CIRCLE
  5
A2
330
36
100
AcDbEntity
  8
1
  6
DOT_CENTER
 62
     7
100
AcDbCircle
 10
89.5
 20
16.0
 30
0.0
 40
0.1000000000000227
  0
CIRCLE
  5
A3
330
36
100
AcDbEntity
  8
1
  6
Continuous
 62
     7
100
AcDbCircle
 10
187.0
 20
23.50000000000001
 30
0.0
 40
2.0
  0
CIRCLE
  5
A4
330
36
100
AcDbEntity
  8
1
  6
Continuous
 62
     7
100
AcDbCircle
 10
187.0
 20
23.50000000000001
 30
0.0
 40
1.200000000000102
  0
CIRCLE
  5
A5
330
36
100
AcDbEntity
  8
1
  6
Continuous
 62
     7
100
AcDbCircle
 10
154.5
 20
12.5
 30
0.0
 40
0.3000000000000114
  0
CIRCLE
  5
A6
330
36
100
AcDbEntity
  8
1
  6
Continuous
 62
     7
100
AcDbCircle
 10
160.5
 20
12.5
 30
0.0
 40
0.3000000000000114
  0
CIRCLE
  5
A7
330
36
100
AcDbEntity
  8
1
  6
Continuous
 62
     7
100
AcDbCircle
 10
143.5
 20
12.5
 30
0.0
 40
0.3000000000000114
  0
CIRCLE
  5
A8
330
36
100
AcDbEntity
  8
1
  6
Continuous
 62
     7
100
AcDbCircle
 10
137.5
 20
12.5
 30
0.0
 40
0.3000000000000114
  0
CIRCLE
  5
A9
330
36
100
AcDbEntity
  8
1
  6
Continuous
 62
     7
100
AcDbCircle
 10
126.5
 20
12.5
 30
0.0
 40
0.2999999999999972
  0
CIRCLE
  5
AA
330
36
100
AcDbEntity
  8
1
  6
Continuous
 62
     7
100
AcDbCircle
 10
120.5
 20
12.5
 30
0.0
 40
0.2999999999999972
  0
CIRCLE
  5
AB
330
36
100
AcDbEntity
  8
1
  6
Continuous
 62
     7
100
AcDbCircle
 10
109.5
 20
12.5
 30
0.0
 40
0.2999999999999972
  0
CIRCLE
  5
AC
330
36
100
AcDbEntity
  8
1
  6
Continuous
 62
     7
100
AcDbCircle
 10
103.5
 20
12.5
 30
0.0
 40
0.2999999999999972
  0
MTEXT
  5
AE
330
36
100
AcDbEntity
  8
1
 62
   250
100
AcDbMText
 10
25.0
 20
5.0
 30
0.0
 40
3.5
 41
0.0
 71
     4
 72
     1
  1
備考欄の文字列 原点位置=4
  7
CONVERTER_1
 73
     1
 44
0.7202881152461
  0
MTEXT
  5
AF
330
36
100
AcDbEntity
  8
1
 62
     2
100
AcDbMText
 10
89.5
 20
24.00000000000001
 30
0.0
 40
3.5
 41
0.0
 71
     5
 72
     1
  1
尺度
  7
CONVERTER_1
 73
     1
 44
0.7202881152461
  0
MTEXT
  5
B0
330
36
100
AcDbEntity
  8
1
 62
     2
100
AcDbMText
 10
135.5
 20
25.00000000000001
 30
0.0
 40
3.0
 41
0.0
 71
     5
 72
     1
  1
製図
  7
CONVERTER_1
 73
     1
 44
0.78031212484994
  0
MTEXT
  5
B1
330
36
100
AcDbEntity
  8
1
 62
     2
100
AcDbMText
 10
152.5
 20
25.00000000000001
 30
0.0
 40
3.0
 41
0.0
 71
     5
 72
     1
  1
設計
  7
CONVERTER_1
 73
     1
 44
0.78031212484994
  0
MTEXT
  5
B2
330
36
100
AcDbEntity
  8
1
 62
     2
100
AcDbMText
 10
118.5
 20
25.00000000000001
 30
0.0
 40
3.0
 41
0.0
 71
     5
 72
     1
  1
検図
  7
CONVERTER_1
 73
     1
 44
0.78031212484994
  0
MTEXT
  5
B3
330
36
100
AcDbEntity
  8
1
 62
     2
100
AcDbMText
 10
175.0
 20
23.50000000000001
 30
0.0
 40
3.5
 41
0.0
 71
     5
 72
     1
  1
第三角法
  7
CONVERTER_1
 73
     1
 44
0.7202881152461
  0
MTEXT
  5
B4
330
36
100
AcDbEntity
  8
1
 62
     2
100
AcDbMText
 10
101.5
 20
25.00000000000001
 30
0.0
 40
3.0
 41
0.0
 71
     5
 72
     1
  1
承認
  7
CONVERTER_1
 73
     1
 44
0.78031212484994
  0
MTEXT
  5
B5
330
36
100
AcDbEntity
  8
1
 62
     2
100
AcDbMText
 10
29.0
 20
14.25
 30
0.0
 40
3.5
 41
0.0
 71
     5
 72
     1
  1
品番
  7
CONVERTER_1
 73
     1
 44
0.96038415366146
  0
MTEXT
  5
B6
330
36
100
AcDbEntity
  8
1
 62
     2
100
AcDbMText
 10
29.0
 20
22.75
 30
0.0
 40
3.5
 41
0.0
 71
     5
 72
     1
  1
品名
  7
CONVERTER_1
 73
     1
 44
0.96038415366146
  0
MTEXT
  5
B7
330
36
100
AcDbEntity
  8
1
 62
     2
100
AcDbMText
 10
29.0
 20
34.00000000000001
 30
0.0
 40
3.5
 41
0.0
 71
     5
 72
     1
  1
備考
  7
CONVERTER_1
 73
     1
 44
0.60024009603842
  0
MTEXT
  5
B8
330
36
100
AcDbEntity
  8
1
 62
     2
100
AcDbMText
 10
32.5
 20
282.0000000000003
 30
0.0
 40
5.0
 41
0.0
 71
     5
 72
     1
  1
図番
  7
CONVERTER_1
 73
     1
 44
0.60024009603842
  0
MTEXT
  5
B9
330
36
100
AcDbEntity
  8
1
 62
     7
100
AcDbMText
 10
171.5
 20
15.0
 30
0.0
 40
2.5
 41
0.0
 71
     5
 72
     1
  1
株式会社
  7
CONVERTER_1
 73
     1
 44
1.32052821128451
  0
MTEXT
  5
BA
330
36
100
AcDbEntity
  8
1
 62
     7
100
AcDbMText
 10
188.5
 20
15.0
 30
0.0
 40
3.0
 41
0.0
 71
     5
 72
     1
  1
三栄水栓製作所
  7
CONVERTER_1
 73
     1
 44
1.32052821128451
  0
ENDBLK
  5
38
330
36
100
AcDbEntity
  8
0
100
AcDbBlockEnd
  0
BLOCK
  5
3A
330
39
100
AcDbEntity
  8
0
100
AcDbBlockBegin
  2
32-1-16
 70
     0
 71
     0
 10
280.4019112083785
 20
490.8491420378471
 30
0.0
  3
32-1-16
  1

  0
LINE
  5
BB
330
39
100
AcDbEntity
  8
1
  6
Continuous
 62
     7
100
AcDbLine
 10
120.1642437749755
 20
636.9167954885164
 30
0.0
 11
126.8163111228004
 21
625.3950768667137
 31
0.0
  0
LINE
  5
BC
330
39
100
AcDbEntity
  8
1
  6
Continuous
 62
     7
100
AcDbLine
 10
126.8163111228004
 20
650.9167954885164
 30
0.0
 11
120.1642437749755
 21
639.3950768667137
 31
0.0
  0
LINE
  5
BD
330
39
100
AcDbEntity
  8
1
  6
Continuous
 62
     7
100
AcDbLine
 10
127.7690504522836
 20
267.8142307952434
 30
0.0
 11
125.8466839094386
 21
267.8142307952434
 31
0.0
  0
LINE
  5
BE
330
39
100
AcDbEntity
  8
1
  6
Continuous
 62
     7
100
AcDbLine
 10
135.6146331018699
 20
257.8142307952434
 30
0.0
 11
148.9146331018699
 21
257.8142307952434
 31
0.0
  0
LINE
  5
BF
330
39
100
AcDbEntity
  8
1
  6
Continuous
 62
     7
100
AcDbLine
 10
148.9146331018699
 20
257.8142307952434
 30
0.0
 11
148.8016331018699
 21
257.8142307952434
 31
0.0
  0
LINE
  5
C0
330
39
100
AcDbEntity
  8
1
  6
Continuous
 62
     7
100
AcDbLine
 10
147.1146331018699
 20
266.8142307952434
 30
0.0
 11
147.1726541636004
 21
266.8142307952434
 31
0.0
  0
LINE
  5
C1
330
39
100
AcDbEntity
  8
1
  6
Continuous
 62
     7
100
AcDbLine
 10
145.382582294301
 20
267.8142307952434
 30
0.0
 11
143.4093810563912
 21
267.8142307952434
 31
0.0
  0
LINE
  5
C2
330
39
100
AcDbEntity
  8
1
  6
Continuous
 62
     7
100
AcDbLine
 10
144.4129550809395
 20
625.3950768667137
 30
0.0
 11
151.0650224287643
 21
636.9167954885164
 31
0.0
  0
LINE
  5
C3
330
39
100
AcDbEntity
  8
1
  6
Continuous
 62
     7
100
AcDbLine
 10
151.0650224287643
 20
639.3950768667137
 30
0.0
 11
144.4129550809395
 21
650.9167954885164
 31
0.0
  0
LINE
  5
C4
330
39
100
AcDbEntity
  8
1
  6
Continuous
 62
     7
100
AcDbLine
 10
142.2667004496949
 20
652.155936177615
 30
0.0
 11
128.9625657540448
 21
652.155936177615
 31
0.0
  0
LINE
  5
C5
330
39
100
AcDbEntity
  8
1
  6
Continuous
 62
     7
100
AcDbLine
 10
122.3146331018698
 20
257.8142307952434
 30
0.0
 11
135.6146331018699
 21
257.8142307952434
 31
0.0
  0
LINE
  5
C6
330
39
100
AcDbEntity
  8
1
  6
Continuous
 62
     7
100
AcDbLine
 10
122.4276331018699
 20
257.8142307952434
 30
0.0
 11
122.3146331018698
 21
257.8142307952434
 31
0.0
  0
LINE
  5
C7
330
39
100
AcDbEntity
  8
1
  6
Continuous
 62
     7
100
AcDbLine
 10
124.0566120401393
 20
266.8142307952434
 30
0.0
 11
124.1146331018699
 21
266.8142307952434
 31
0.0
  0
LINE
  5
C8
330
39
100
AcDbEntity
  8
1
  6
Continuous
 62
     7
100
AcDbLine
 10
488.1209805849629
 20
266.8142307952426
 30
0.0
 11
509.388929777394
 21
266.8142307952426
 31
0.0
  0
LINE
  5
C9
330
39
100
AcDbEntity
  8
1
  6
Continuous
 62
     7
100
AcDbLine
 10
512.7549551811784
 20
265.5274080449556
 30
0.0
 11
512.7549551811784
 21
258.3859796164128
 31
0.0
  0
LINE
  5
CA
330
39
100
AcDbEntity
  8
1
  6
Continuous
 62
     7
100
AcDbLine
 10
484.7549551811784
 20
258.3859796164128
 30
0.0
 11
484.7549551811784
 21
265.5274080449557
 31
0.0
  0
LINE
  5
CB
330
39
100
AcDbEntity
  8
1
  6
Continuous
 62
     7
100
AcDbLine
 10
508.5229043736096
 20
267.8142307952426
 30
0.0
 11
488.9870059887473
 21
267.8142307952426
 31
0.0
  0
LINE
  5
CC
330
39
100
AcDbEntity
  8
1
  6
Continuous
 62
     7
100
AcDbLine
 10
512.0549551811785
 20
257.8142307952426
 30
0.0
 11
504.9595333380829
 21
257.8142307952426
 31
0.0
  0
LINE
  5
CD
330
39
100
AcDbEntity
  8
1
  6
Continuous
 62
     7
100
AcDbLine
 10
487.1969341194478
 20
266.8142307952426
 30
0.0
 11
487.2549551811784
 21
266.8142307952426
 31
0.0
  0
LINE
  5
CE
330
39
100
AcDbEntity
  8
1
  6
Continuous
 62
     7
100
AcDbLine
 10
485.5679551811784
 20
257.8142307952426
 30
0.0
 11
485.4549551811784
 21
257.8142307952426
 31
0.0
  0
LINE
  5
CF
330
39
100
AcDbEntity
  8
1
  6
Continuous
 62
     7
100
AcDbLine
 10
510.2549551811784
 20
266.8142307952426
 30
0.0
 11
510.312976242909
 21
266.8142307952426
 31
0.0
  0
LINE
  5
D0
330
39
100
AcDbEntity
  8
1
  6
Continuous
 62
     7
100
AcDbLine
 10
492.5621974920214
 20
257.8142307952426
 30
0.0
 11
485.4549551811784
 21
257.8142307952426
 31
0.0
  0
ARC
  5
D1
330
39
100
AcDbEntity
  8
1
  6
Continuous
 62
     7
100
AcDbCircle
 10
135.6146331018698
 20
638.155936177615
 30
0.0
 40
10.76794919243116
100
AcDbArc
 50
89.9999999999994
 51
-137.9829399353524
  0
ARC
  5
D2
330
39
100
AcDbEntity
  8
1
  6
Continuous
 62
     7
100
AcDbCircle
 10
135.6146331018698
 20
638.155936177615
 30
0.0
 40
10.76794919243111
100
AcDbArc
 50
-42.01706006464686
 51
89.9999999999994
  0
ARC
  5
D3
330
39
100
AcDbEntity
  8
1
  6
Continuous
 62
     7
100
AcDbCircle
 10
135.6146331018698
 20
638.155936177615
 30
0.0
 40
15.4999999999997
100
AcDbArc
 50
180.0
 51
-175.4146209151608
  0
ARC
  5
D4
330
39
100
AcDbEntity
  8
1
  6
Continuous
 62
     7
100
AcDbCircle
 10
135.6146331018698
 20
638.155936177615
 30
0.0
 40
15.49999999999975
100
AcDbArc
 50
-124.5853790848387
 51
-121.0729509721535
  0
ARC
  5
D5
330
39
100
AcDbEntity
  8
1
  6
Continuous
 62
     7
100
AcDbCircle
 10
135.6146331018698
 20
638.155936177615
 30
0.0
 40
15.49999999999965
100
AcDbArc
 50
175.4146209151603
 51
180.0
  0
ARC
  5
D6
330
39
100
AcDbEntity
  8
1
  6
Continuous
 62
     7
100
AcDbCircle
 10
135.6146331018698
 20
638.155936177615
 30
0.0
 40
15.49999999999999
100
AcDbArc
 50
115.4146209151609
 51
124.5853790848384
  0
ARC
  5
D7
330
39
100
AcDbEntity
  8
1
  6
Continuous
 62
     7
100
AcDbCircle
 10
146.1146331018699
 20
261.956693830685
 30
0.0
 40
5.000000000000001
100
AcDbArc
 50
-55.94420225743234
 51
74.66244233044571
  0
ARC
  5
D8
330
39
100
AcDbEntity
  8
1
  6
Continuous
 62
     7
100
AcDbCircle
 10
135.6146331018698
 20
638.155936177615
 30
0.0
 40
15.49999999999985
100
AcDbArc
 50
-4.58537908483919
 51
0.0
  0
ARC
  5
D9
330
39
100
AcDbEntity
  8
1
  6
Continuous
 62
     7
100
AcDbCircle
 10
135.6146331018698
 20
638.155936177615
 30
0.0
 40
15.49999999999986
100
AcDbArc
 50
-58.92704902784588
 51
-55.41462091516044
  0
ARC
  5
DA
330
39
100
AcDbEntity
  8
1
  6
Continuous
 62
     7
100
AcDbCircle
 10
135.6146331018698
 20
638.155936177615
 30
0.0
 40
15.49999999999992
100
AcDbArc
 50
0.0
 51
4.58537908483961
  0
ARC
  5
DB
330
39
100
AcDbEntity
  8
1
  6
Continuous
 62
     7
100
AcDbCircle
 10
135.6146331018698
 20
638.155936177615
 30
0.0
 40
15.50000000000002
100
AcDbArc
 50
55.41462091516068
 51
64.58537908483883
  0
ARC
  5
DC
330
39
100
AcDbEntity
  8
1
  6
Continuous
 62
     7
100
AcDbCircle
 10
125.1146331018699
 20
261.956693830685
 30
0.0
 40
5.000000000000044
100
AcDbArc
 50
105.3375576695541
 51
-124.0557977425687
  0
ARC
  5
DD
330
39
100
AcDbEntity
  8
1
  6
Continuous
 62
     7
100
AcDbCircle
 10
509.2549551811784
 20
261.9566938306842
 30
0.0
 40
5.000000000000002
100
AcDbArc
 50
-55.94420225743117
 51
-45.57299599919402
  0
ARC
  5
DE
330
39
100
AcDbEntity
  8
1
  6
Continuous
 62
     7
100
AcDbCircle
 10
488.2549551811784
 20
261.9566938306842
 30
0.0
 40
4.999999999999985
100
AcDbArc
 50
105.3375576695541
 51
134.4270040008051
  0
ARC
  5
DF
330
39
100
AcDbEntity
  8
1
  6
Continuous
 62
     7
100
AcDbCircle
 10
488.2549551811784
 20
261.9566938306842
 30
0.0
 40
4.999999999999975
100
AcDbArc
 50
-134.427004000806
 51
-124.0557977425683
  0
ARC
  5
E0
330
39
100
AcDbEntity
  8
1
  6
Continuous
 62
     7
100
AcDbCircle
 10
509.2549551811784
 20
261.9566938306842
 30
0.0
 40
5.000000000000016
100
AcDbArc
 50
45.57299599919448
 51
74.66244233044588
  0
SPLINE
  5
E1
330
39
100
AcDbEntity
  8
0
  6
Continuous
 62
     7
100
AcDbSpline
210
0.0
220
0.0
230
1.0
 70
    11
 71
     3
 72
    79
 73
    75
 74
    73
 42
0.0000000001
 43
0.0000000001
 44
0.00000001
 40
0.0
 40
0.0
 40
0.0
 40
0.0
 40
0.2910229153818512
 40
0.5820342278737456
 40
0.8749339334363894
 40
1.167812547519283
 40
1.463561188767211
 40
1.759282806464761
 40
2.058487811140679
 40
2.357663885605783
 40
2.660503341347433
 40
2.963315625194497
 40
3.269530826276324
 40
3.57572346884365
 40
3.884662744191345
 40
4.193586027918962
 40
4.504289085610504
 40
4.814983882015184
 40
5.126294430970946
 40
5.437604979926821
 40
5.748299776331447
 40
6.059002834023053
 40
6.367926117750678
 40
6.67686539309831
 40
6.98305803566556
 40
7.289273236747492
 40
7.59208552059451
 40
7.894924976336193
 40
8.194101050801317
 40
8.493306055477188
 40
8.789027673174735
 40
9.084776314422728
 40
9.37765492850567
 40
9.67055463406831
 40
9.961565946560192
 40
10.25258886194203
 40
10.54295309984897
 40
10.83331733775595
 40
11.12434025313778
 40
11.41535156562967
 40
11.70825127119232
 40
12.00112988527524
 40
12.29687852652324
 40
12.59260014422078
 40
12.89180514889669
 40
13.19098122336181
 40
13.49382067910352
 40
13.79663296295056
 40
14.10284816403241
 40
14.40904080659968
 40
14.7179800819473
 40
15.02690336567486
 40
15.33760642336658
 40
15.64830121977121
 40
15.95961176872702
 40
16.27092231768284
 40
16.58161711408753
 40
16.89232017177924
 40
17.20124345550686
 40
17.51018273085449
 40
17.81637537342164
 40
18.12259057450349
 40
18.42540285835048
 40
18.72824231409216
 40
19.02741838855732
 40
19.32662339323327
 40
19.6223450109308
 40
19.91809365217872
 40
20.21097226626164
 40
20.50387197182428
 40
20.79488328431624
 40
21.08590619969807
 40
21.37627043760503
 40
21.66663467551198
 40
21.66663467551198
 40
21.66663467551198
 40
21.66663467551198
 10
123.7803209036381
 20
265.5137630820861
 30
0.0
 10
123.8766959623551
 20
265.5020874142847
 30
0.0
 10
124.0694422373795
 20
265.4787365441832
 30
0.0
 10
124.3533787466444
 20
265.4093805507325
 30
0.0
 10
124.6306430125032
 20
265.3159377931571
 30
0.0
 10
124.8993953963532
 20
265.1960308071798
 30
0.0
 10
125.157040779873
 20
265.0519853019928
 30
0.0
 10
125.4022677271078
 20
264.8839187011473
 30
0.0
 10
125.6325310831649
 20
264.6940839680734
 30
0.0
 10
125.8467632916808
 20
264.4829478394062
 30
0.0
 10
126.0427177204437
 20
264.2531682357723
 30
0.0
 10
126.2194750640642
 20
264.0054397035479
 30
0.0
 10
126.3752458980314
 20
263.742707463714
 30
0.0
 10
126.5092143154005
 20
263.4659564520723
 30
0.0
 10
126.6201373466859
 20
263.1782244743086
 30
0.0
 10
126.7073141390573
 20
262.8808710278858
 30
0.0
 10
126.7700621491502
 20
262.5768250317427
 30
0.0
 10
126.8078625283623
 20
262.2678834359887
 30
0.0
 10
126.8205396018506
 20
261.956693830686
 30
0.0
 10
126.8078625283627
 20
261.6455042253777
 30
0.0
 10
126.7700621491489
 20
261.3365626296405
 30
0.0
 10
126.7073141390618
 20
261.0325166334357
 30
0.0
 10
126.6201373466689
 20
260.7351631872419
 30
0.0
 10
126.5092143154636
 20
260.447431208627
 30
0.0
 10
126.3752458977982
 20
260.1706802001349
 30
0.0
 10
126.2194750649308
 20
259.9079479486107
 30
0.0
 10
126.0427177172494
 20
259.6602194595524
 30
0.0
 10
125.8467633035464
 20
259.4304396958318
 30
0.0
 10
125.6325310394753
 20
259.2193041577237
 30
0.0
 10
125.4022678894409
 20
259.0294672345964
 30
0.0
 10
125.1570401818458
 20
258.8614087165014
 30
0.0
 10
124.8993976201663
 20
258.7173332147086
 30
0.0
 10
124.630634802275
 20
258.5975371442287
 30
0.0
 10
124.3534093165827
 20
258.5036821473876
 30
0.0
 10
124.0693289630801
 20
258.4358552407978
 30
0.0
 10
123.7809614825672
 20
258.395160279174
 30
0.0
 10
123.4902774488877
 20
258.3813944856091
 30
0.0
 10
123.1995934152082
 20
258.395160279174
 30
0.0
 10
122.9112259346953
 20
258.4358552407977
 30
0.0
 10
122.6271455811927
 20
258.5036821473876
 30
0.0
 10
122.3499200955004
 20
258.5975371442287
 30
0.0
 10
122.0811572776092
 20
258.7173332147085
 30
0.0
 10
121.8235147159296
 20
258.8614087165014
 30
0.0
 10
121.5782870083345
 20
259.0294672345963
 30
0.0
 10
121.3480238583001
 20
259.2193041577239
 30
0.0
 10
121.1337915942289
 20
259.4304396958316
 30
0.0
 10
120.9378371805259
 20
259.6602194595524
 30
0.0
 10
120.7610798328444
 20
259.9079479486106
 30
0.0
 10
120.6053089999772
 20
260.1706802001348
 30
0.0
 10
120.4713405823117
 20
260.4474312086269
 30
0.0
 10
120.3604175511065
 20
260.7351631872418
 30
0.0
 10
120.2732407587135
 20
261.0325166334357
 30
0.0
 10
120.2104927486265
 20
261.3365626296403
 30
0.0
 10
120.1726923694126
 20
261.6455042253779
 30
0.0
 10
120.1600152959248
 20
261.9566938306851
 30
0.0
 10
120.1726923694126
 20
262.2678834359919
 30
0.0
 10
120.2104927486266
 20
262.5768250317307
 30
0.0
 10
120.2732407587132
 20
262.8808710279311
 30
0.0
 10
120.3604175511076
 20
263.1782244741413
 30
0.0
 10
120.4713405823072
 20
263.4659564526951
 30
0.0
 10
120.6053089999939
 20
263.7427074614129
 30
0.0
 10
120.7610798327823
 20
264.0054397120988
 30
0.0
 10
120.9378371807549
 20
264.2531682042525
 30
0.0
 10
121.1337915933781
 20
264.4829479564927
 30
0.0
 10
121.3480238614333
 20
264.6940835369525
 30
0.0
 10
121.5782869966928
 20
264.8839203030208
 30
0.0
 10
121.823514758817
 20
265.0519794007682
 30
0.0
 10
122.0811571181289
 20
265.1960527513619
 30
0.0
 10
122.3499206842948
 20
265.315856776119
 30
0.0
 10
122.6271433888772
 20
265.4096822093242
 30
0.0
 10
122.9112340581333
 20
265.4776187739961
 30
0.0
 10
123.1995631192044
 20
265.5179053309129
 30
0.0
 10
123.4903902318703
 20
265.533192076597
 30
0.0
 10
123.6836773463822
 20
265.5202394135898
 30
0.0
 10
123.7803209036381
 20
265.5137630820861
 30
0.0
 11
123.7803209036381
 21
265.5137630820861
 31
0.0
 11
124.068480399913
 21
265.4730391089997
 31
0.0
 11
124.3515626062955
 21
265.4055702389343
 31
0.0
 11
124.6289866488393
 21
265.3116227102955
 31
0.0
 11
124.8965484009566
 21
265.192506836496
 31
0.0
 11
125.1546807696718
 21
265.0481637070388
 31
0.0
 11
125.398693422283
 21
264.8811035366232
 31
0.0
 11
125.6295729278138
 21
264.6907925050224
 31
0.0
 11
125.842748222765
 21
264.480881530667
 31
0.0
 11
126.0392825467732
 21
264.2504775475406
 31
0.0
 11
126.2152560825728
 21
264.0040458248528
 31
0.0
 11
126.3714532230457
 21
263.740663588015
 31
0.0
 11
126.5049489110099
 21
263.4651044552371
 31
0.0
 11
126.6160988365671
 21
263.1768525343398
 31
0.0
 11
126.7030754905934
 21
262.8804260562994
 31
0.0
 11
126.7658805649149
 21
262.5761368637566
 31
0.0
 11
126.8036559265864
 21
262.267747047836
 31
0.0
 11
126.8163111228
 21
261.9566938306851
 31
0.0
 11
126.8036559265864
 21
261.6456406135341
 31
0.0
 11
126.7658805649148
 21
261.3372507976135
 31
0.0
 11
126.7030754905933
 21
261.0329616050707
 31
0.0
 11
126.616098836567
 21
260.7365351270303
 31
0.0
 11
126.5049489110099
 21
260.448283206133
 31
0.0
 11
126.3714532230457
 21
260.1727240733551
 31
0.0
 11
126.2152560825728
 21
259.9093418365172
 31
0.0
 11
126.0392825467732
 21
259.6629101138295
 31
0.0
 11
125.842748222765
 21
259.432506130703
 31
0.0
 11
125.6295729278139
 21
259.2225951563476
 31
0.0
 11
125.398693422283
 21
259.0322841247469
 31
0.0
 11
125.1546807696719
 21
258.8652239543312
 31
0.0
 11
124.8965484009567
 21
258.7208808248739
 31
0.0
 11
124.6289866488393
 21
258.6017649510744
 31
0.0
 11
124.3515626062955
 21
258.5078174224357
 31
0.0
 11
124.068480399913
 21
258.4403485523704
 31
0.0
 11
123.7803209036381
 21
258.3996245792839
 31
0.0
 11
123.4902774488877
 21
258.3859796164136
 31
0.0
 11
123.2002339941373
 21
258.3996245792839
 31
0.0
 11
122.9120744978624
 21
258.4403485523703
 31
0.0
 11
122.6289922914799
 21
258.5078174224357
 31
0.0
 11
122.3515682489361
 21
258.6017649510744
 31
0.0
 11
122.0840064968187
 21
258.7208808248739
 31
0.0
 11
121.8258741281035
 21
258.8652239543312
 31
0.0
 11
121.5818614754924
 21
259.0322841247469
 31
0.0
 11
121.3509819699615
 21
259.2225951563476
 31
0.0
 11
121.1378066750104
 21
259.432506130703
 31
0.0
 11
120.9412723510021
 21
259.6629101138295
 31
0.0
 11
120.7652988152025
 21
259.9093418365172
 31
0.0
 11
120.6091016747296
 21
260.1727240733551
 31
0.0
 11
120.4756059867654
 21
260.4482832061329
 31
0.0
 11
120.3644560612083
 21
260.7365351270302
 31
0.0
 11
120.277479407182
 21
261.0329616050706
 31
0.0
 11
120.2146743328605
 21
261.3372507976135
 31
0.0
 11
120.1768989711889
 21
261.6456406135341
 31
0.0
 11
120.1642437749753
 21
261.956693830685
 31
0.0
 11
120.1768989711889
 21
262.267747047836
 31
0.0
 11
120.2146743328605
 21
262.5761368637566
 31
0.0
 11
120.277479407182
 21
262.8804260562995
 31
0.0
 11
120.3644560612083
 21
263.17685253434
 31
0.0
 11
120.4756059867654
 21
263.4651044552372
 31
0.0
 11
120.6091016747296
 21
263.740663588015
 31
0.0
 11
120.7652988152025
 21
264.0040458248528
 31
0.0
 11
120.9412723510021
 21
264.2504775475405
 31
0.0
 11
121.1378066750104
 21
264.4808815306669
 31
0.0
 11
121.3509819699615
 21
264.6907925050224
 31
0.0
 11
121.5818614754924
 21
264.8811035366232
 31
0.0
 11
121.8258741281035
 21
265.0481637070389
 31
0.0
 11
122.0840064968187
 21
265.1925068364961
 31
0.0
 11
122.3515682489361
 21
265.3116227102955
 31
0.0
 11
122.6289922914799
 21
265.4055702389343
 31
0.0
 11
122.9120744978624
 21
265.4730391089996
 31
0.0
 11
123.2002339941373
 21
265.5137630820861
 31
0.0
 11
123.4902774488877
 21
265.5274080449564
 31
0.0
 11
123.7803209036381
 21
265.5137630820861
 31
0.0
  0
SPLINE
  5
E2
330
39
100
AcDbEntity
  8
0
  6
Continuous
 62
     7
100
AcDbSpline
210
0.0
220
0.0
230
1.0
 70
    11
 71
     3
 72
    79
 73
    75
 74
    73
 42
0.0000000001
 43
0.0000000001
 44
0.00000001
 40
0.0
 40
0.0
 40
0.0
 40
0.0
 40
0.3261189881638217
 40
0.651724227366268
 40
1.007570734071834
 40
1.362786578155798
 40
1.759886314710423
 40
2.156516714717081
 40
2.59921000826885
 40
3.041603627004199
 40
3.528307206464687
 40
4.014826849024929
 40
4.539616314403927
 40
5.064295509496606
 40
5.618233632287901
 40
6.172109437578934
 40
6.744280968665841
 40
7.316424323670525
 40
7.894787044418025
 40
8.473149765165555
 40
9.0452931201703
 40
9.617464651257228
 40
10.17134045654822
 40
10.72527857933946
 40
11.24995777443211
 40
11.77474723981115
 40
12.26126688237144
 40
12.7479704618319
 40
13.19036408056722
 40
13.63305737411901
 40
14.02968777412569
 40
14.42678751068034
 40
14.78200335476429
 40
15.13784986146982
 40
15.46345510067228
 40
15.78957408883621
 40
16.10448972240905
 40
16.419405355982
 40
16.74552434414589
 40
17.07112958334834
 40
17.42697609005387
 40
17.78219193413782
 40
18.17929167069237
 40
18.57592207069905
 40
19.01861536425082
 40
19.46100898298616
 40
19.94771256244668
 40
20.43423220500694
 40
20.95902167038597
 40
21.48370086547862
 40
22.03763898826989
 40
22.59151479356095
 40
23.16368632464788
 40
23.7358296796526
 40
24.3141924004001
 40
24.8925551211476
 40
25.46469847615231
 40
26.03687000723919
 40
26.59074581253017
 40
27.14468393532151
 40
27.66936313041423
 40
28.19415259579327
 40
28.68067223835354
 40
29.16737581781398
 40
29.6097694365493
 40
30.05246273010105
 40
30.44909313010769
 40
30.84619286666231
 40
31.20140871074632
 40
31.55725521745183
 40
31.88286045665427
 40
32.20897944481815
 40
32.5238950783911
 40
32.83881071196399
 40
32.83881071196399
 40
32.83881071196399
 40
32.83881071196399
 10
142.2404122587595
 20
261.6428773440467
 30
0.0
 10
142.2178549847646
 20
261.5362875857747
 30
0.0
 10
142.1727759721976
 20
261.3232759845611
 30
0.0
 10
142.0382482006262
 20
261.0134574898456
 30
0.0
 10
141.8615041104426
 20
260.7156736439624
 30
0.0
 10
141.6326226976874
 20
260.4245276003738
 30
0.0
 10
141.3634047879063
 20
260.1511353832871
 30
0.0
 10
141.0461346719835
 20
259.8871756561758
 30
0.0
 10
140.6940822512942
 20
259.6441694550916
 30
0.0
 10
140.2982088835038
 20
259.4145152044641
 30
0.0
 10
139.8735004688463
 20
259.2079642453625
 30
0.0
 10
139.4109830954994
 20
259.0189614901848
 30
0.0
 10
138.9257425937164
 20
258.8546476955445
 30
0.0
 10
138.4105011056881
 20
258.7116321937065
 30
0.0
 10
137.8788358449303
 20
258.5944797580622
 30
0.0
 10
137.3263867953311
 20
258.501505867035
 30
0.0
 10
136.763995955396
 20
258.4351868080703
 30
0.0
 10
136.1909793051473
 20
258.3948405500262
 30
0.0
 10
135.6146331018735
 20
258.3815502182482
 30
0.0
 10
135.0382868985774
 20
258.394840550024
 30
0.0
 10
134.4652702483952
 20
258.435186808079
 30
0.0
 10
133.9028794082194
 20
258.5015058670034
 30
0.0
 10
133.3504303594896
 20
258.5944797581769
 30
0.0
 10
132.8187650955661
 20
258.7116321932874
 30
0.0
 10
132.3035236187567
 20
258.8546476970171
 30
0.0
 10
131.8182830765858
 20
259.0189614848478
 30
0.0
 10
131.3557658435105
 20
259.2079642636755
 30
0.0
 10
130.9310569293067
 20
259.4145151385528
 30
0.0
 10
130.535185264946
 20
259.6441696763815
 30
0.0
 10
130.1831268301787
 20
259.887174863482
 30
0.0
 10
129.8658769534914
 20
260.1511380029621
 30
0.0
 10
129.5965878243278
 20
260.4245182123423
 30
0.0
 10
129.3679458322084
 20
260.7157046226495
 30
0.0
 10
129.1903531069603
 20
261.0133453872443
 30
0.0
 10
129.0587400353259
 20
261.323655305235
 30
0.0
 10
128.9813150592493
 20
261.6378138822611
 30
0.0
 10
128.9533549421365
 20
261.9566938306851
 30
0.0
 10
128.9813150592493
 20
262.275573779109
 30
0.0
 10
129.058740035326
 20
262.5897323561352
 30
0.0
 10
129.1903531069604
 20
262.9000422741258
 30
0.0
 10
129.3679458322083
 20
263.1976830387206
 30
0.0
 10
129.5965878243277
 20
263.488869449028
 30
0.0
 10
129.8658769534914
 20
263.7622496584079
 30
0.0
 10
130.1831268301786
 20
264.0262127978881
 30
0.0
 10
130.5351852649459
 20
264.2692179849886
 30
0.0
 10
130.9310569293067
 20
264.4988725228172
 30
0.0
 10
131.3557658435104
 20
264.7054233976945
 30
0.0
 10
131.8182830765858
 20
264.8944261765222
 30
0.0
 10
132.3035236187566
 20
265.058739964353
 30
0.0
 10
132.8187650955661
 20
265.2017554680828
 30
0.0
 10
133.3504303594895
 20
265.318907903193
 30
0.0
 10
133.9028794082194
 20
265.4118817943669
 30
0.0
 10
134.465270248395
 20
265.4782008532911
 30
0.0
 10
135.0382868985783
 20
265.5185471113463
 30
0.0
 10
135.6146331018701
 20
265.5318374431212
 30
0.0
 10
136.1909793051602
 20
265.5185471113464
 30
0.0
 10
136.7639959553482
 20
265.4782008532903
 30
0.0
 10
137.3263867955068
 20
265.4118817943692
 30
0.0
 10
137.878835844298
 20
265.3189079031852
 30
0.0
 10
138.4105011079982
 20
265.2017554681123
 30
0.0
 10
138.925742585599
 20
265.0587399642492
 30
0.0
 10
139.410983124921
 20
264.8944261768986
 30
0.0
 10
139.8735003678905
 20
264.7054233964028
 30
0.0
 10
140.2982092468584
 20
264.4988725274664
 30
0.0
 10
140.6940810313721
 20
264.2692179693797
 30
0.0
 10
141.0461390419306
 20
264.0262128538014
 30
0.0
 10
141.3633903462117
 20
263.7622494736266
 30
0.0
 10
141.6326744518482
 20
263.4888701112218
 30
0.0
 10
141.861333331731
 20
263.1976808536093
 30
0.0
 10
142.0388661976932
 20
262.90005018139
 30
0.0
 10
142.170684860475
 20
262.5897056003886
 30
0.0
 10
142.2473647220334
 20
262.2756726509143
 30
0.0
 10
142.2780166223413
 20
261.9563388633497
 30
0.0
 10
142.2529470466202
 20
261.7473645171478
 30
0.0
 10
142.2404122587595
 20
261.6428773440468
 30
0.0
 11
142.2404122587595
 21
261.6428773440467
 31
0.0
 11
142.1622395962058
 21
261.3262661798875
 31
0.0
 11
142.0365333411292
 21
261.0259052149958
 31
0.0
 11
141.8549769576941
 21
260.7198594406931
 31
0.0
 11
141.6366148977991
 21
260.4396875172484
 31
0.0
 11
141.3588673484239
 21
260.1558838886814
 31
0.0
 11
141.0545677962445
 21
259.9014876293676
 31
0.0
 11
140.6909201709255
 21
259.6490242523095
 31
0.0
 11
140.3085871640464
 21
259.4264628321384
 31
0.0
 11
139.8713186032713
 21
259.2127420329229
 31
0.0
 11
139.4211231755722
 21
259.0282821742116
 31
0.0
 11
138.9242834539577
 21
258.8593020747953
 31
0.0
 11
138.4187967860383
 21
258.718690957458
 31
0.0
 11
137.8779389790311
 21
258.5990235998329
 31
0.0
 11
137.3317686709143
 21
258.5069562211456
 31
0.0
 11
136.7635687038751
 21
258.4396579415025
 31
0.0
 11
136.1928390258244
 21
258.3994627518877
 31
0.0
 11
135.6146331018698
 21
258.3859962655491
 31
0.0
 11
135.0364271779152
 21
258.3994627518878
 31
0.0
 11
134.4656974998645
 21
258.4396579415026
 31
0.0
 11
133.8974975328252
 21
258.5069562211457
 31
0.0
 11
133.3513272247084
 21
258.5990235998329
 31
0.0
 11
132.8104694177013
 21
258.718690957458
 31
0.0
 11
132.3049827497819
 21
258.8593020747953
 31
0.0
 11
131.8081430281673
 21
259.0282821742115
 31
0.0
 11
131.3579476004682
 21
259.2127420329229
 31
0.0
 11
130.9206790396931
 21
259.4264628321384
 31
0.0
 11
130.5383460328141
 21
259.6490242523095
 31
0.0
 11
130.1746984074951
 21
259.9014876293676
 31
0.0
 11
129.8703988553156
 21
260.1558838886814
 31
0.0
 11
129.5926513059404
 21
260.4396875172484
 31
0.0
 11
129.3742892460455
 21
260.7198594406931
 31
0.0
 11
129.1927328626103
 21
261.0259052149958
 31
0.0
 11
129.0670266075337
 21
261.3262661798875
 31
0.0
 11
128.98885394498
 21
261.6428773440468
 31
0.0
 11
128.9625657540448
 21
261.956693830685
 31
0.0
 11
128.98885394498
 21
262.2705103173233
 31
0.0
 11
129.0670266075338
 21
262.5871214814826
 31
0.0
 11
129.1927328626104
 21
262.8874824463744
 31
0.0
 11
129.3742892460454
 21
263.193528220677
 31
0.0
 11
129.5926513059404
 21
263.4737001441217
 31
0.0
 11
129.8703988553156
 21
263.7575037726887
 31
0.0
 11
130.174698407495
 21
264.0119000320025
 31
0.0
 11
130.538346032814
 21
264.2643634090605
 31
0.0
 11
130.9206790396931
 21
264.4869248292316
 31
0.0
 11
131.3579476004682
 21
264.7006456284472
 31
0.0
 11
131.8081430281673
 21
264.8851054871585
 31
0.0
 11
132.3049827497819
 21
265.0540855865748
 31
0.0
 11
132.8104694177013
 21
265.1946967039121
 31
0.0
 11
133.3513272247084
 21
265.3143640615372
 31
0.0
 11
133.8974975328252
 21
265.4064314402244
 31
0.0
 11
134.4656974998645
 21
265.4737297198676
 31
0.0
 11
135.0364271779152
 21
265.5139249094824
 31
0.0
 11
135.6146331018698
 21
265.527391395821
 31
0.0
 11
136.1928390258244
 21
265.5139249094824
 31
0.0
 11
136.7635687038751
 21
265.4737297198676
 31
0.0
 11
137.3317686709143
 21
265.4064314402244
 31
0.0
 11
137.8779389790311
 21
265.3143640615373
 31
0.0
 11
138.4187967860383
 21
265.1946967039121
 31
0.0
 11
138.9242834539577
 21
265.0540855865748
 31
0.0
 11
139.4211231755723
 21
264.8851054871584
 31
0.0
 11
139.8713186032714
 21
264.7006456284471
 31
0.0
 11
140.3085871640465
 21
264.4869248292317
 31
0.0
 11
140.6909201709255
 21
264.2643634090605
 31
0.0
 11
141.0545677962445
 21
264.0119000320025
 31
0.0
 11
141.3588673484239
 21
263.7575037726887
 31
0.0
 11
141.6366148977992
 21
263.4737001441217
 31
0.0
 11
141.8549769576941
 21
263.193528220677
 31
0.0
 11
142.0365333411292
 21
262.8874824463744
 31
0.0
 11
142.1622395962058
 21
262.5871214814826
 31
0.0
 11
142.2404122587595
 21
262.2705103173233
 31
0.0
 11
142.2667004496948
 21
261.956693830685
 31
0.0
 11
142.2404122587595
 21
261.6428773440468
 31
0.0
  0
SPLINE
  5
E3
330
39
100
AcDbEntity
  8
0
  6
Continuous
 62
     7
100
AcDbSpline
210
0.0
220
0.0
230
1.0
 70
    11
 71
     3
 72
    79
 73
    75
 74
    73
 42
0.0000000001
 43
0.0000000001
 44
0.00000001
 40
0.0
 40
0.0
 40
0.0
 40
0.0
 40
0.2910229153818371
 40
0.5820342278738006
 40
0.8749339334364261
 40
1.16781254751927
 40
1.463561188767199
 40
1.759282806464813
 40
2.058487811140741
 40
2.357663885605906
 40
2.660503341347636
 40
2.963315625194607
 40
3.269530826276419
 40
3.575723468843688
 40
3.884662744191319
 40
4.193586027918941
 40
4.504289085610608
 40
4.814983882015288
 40
5.126294430971107
 40
5.437604979926925
 40
5.748299776331553
 40
6.05900283402327
 40
6.367926117750899
 40
6.676865393098466
 40
6.983058035665735
 40
7.289273236747596
 40
7.592085520594631
 40
7.894924976336342
 40
8.194101050801487
 40
8.493306055477394
 40
8.789027673174976
 40
9.084776314422907
 40
9.3776549285058
 40
9.670554634068498
 40
9.961565946560421
 40
10.25258886194227
 40
10.54295309984925
 40
10.83331733775623
 40
11.12434025313813
 40
11.41535156563002
 40
11.70825127119269
 40
12.00112988527561
 40
12.29687852652356
 40
12.59260014422108
 40
12.89180514889698
 40
13.19098122336211
 40
13.49382067910382
 40
13.79663296295091
 40
14.10284816403274
 40
14.40904080659999
 40
14.71798008194756
 40
15.02690336567514
 40
15.33760642336681
 40
15.64830121977154
 40
15.95961176872736
 40
16.27092231768318
 40
16.58161711408787
 40
16.89232017177952
 40
17.20124345550714
 40
17.51018273085477
 40
17.81637537342192
 40
18.12259057450373
 40
18.42540285835081
 40
18.72824231409253
 40
19.02741838855769
 40
19.32662339323364
 40
19.62234501093123
 40
19.91809365217921
 40
20.21097226626206
 40
20.5038719718247
 40
20.79488328431657
 40
21.08590619969845
 40
21.37627043760543
 40
21.66663467551248
 40
21.66663467551248
 40
21.66663467551248
 40
21.66663467551248
 10
147.4489453001015
 20
265.5137630820861
 30
0.0
 10
147.3525702413846
 20
265.5020874142849
 30
0.0
 10
147.1598239663601
 20
265.4787365441833
 30
0.0
 10
146.8758874570952
 20
265.4093805507324
 30
0.0
 10
146.5986231912365
 20
265.3159377931572
 30
0.0
 10
146.3298708073863
 20
265.19603080718
 30
0.0
 10
146.0722254238666
 20
265.0519853019928
 30
0.0
 10
145.8269984766319
 20
264.8839187011473
 30
0.0
 10
145.5967351205747
 20
264.6940839680734
 30
0.0
 10
145.3825029120587
 20
264.4829478394061
 30
0.0
 10
145.1865484832959
 20
264.2531682357722
 30
0.0
 10
145.0097911396752
 20
264.0054397035478
 30
0.0
 10
144.8540203057082
 20
263.7427074637142
 30
0.0
 10
144.720051888339
 20
263.4659564520722
 30
0.0
 10
144.6091288570537
 20
263.1782244743088
 30
0.0
 10
144.5219520646822
 20
262.8808710278858
 30
0.0
 10
144.4592040545893
 20
262.5768250317428
 30
0.0
 10
144.4214036753772
 20
262.2678834359887
 30
0.0
 10
144.4087266018888
 20
261.956693830686
 30
0.0
 10
144.4214036753768
 20
261.6455042253776
 30
0.0
 10
144.4592040545906
 20
261.3365626296405
 30
0.0
 10
144.5219520646776
 20
261.0325166334355
 30
0.0
 10
144.6091288570706
 20
260.7351631872418
 30
0.0
 10
144.7200518882759
 20
260.447431208627
 30
0.0
 10
144.8540203059413
 20
260.1706802001348
 30
0.0
 10
145.0097911388087
 20
259.9079479486107
 30
0.0
 10
145.1865484864901
 20
259.6602194595524
 30
0.0
 10
145.3825029001932
 20
259.4304396958316
 30
0.0
 10
145.5967351642644
 20
259.2193041577239
 30
0.0
 10
145.8269983142987
 20
259.0294672345963
 30
0.0
 10
146.072226021894
 20
258.8614087165016
 30
0.0
 10
146.3298685835733
 20
258.7173332147085
 30
0.0
 10
146.5986314014646
 20
258.5975371442287
 30
0.0
 10
146.875856887157
 20
258.5036821473875
 30
0.0
 10
147.1599372406596
 20
258.4358552407978
 30
0.0
 10
147.4483047211725
 20
258.395160279174
 30
0.0
 10
147.738988754852
 20
258.3813944856092
 30
0.0
 10
148.0296727885315
 20
258.395160279174
 30
0.0
 10
148.3180402690446
 20
258.4358552407978
 30
0.0
 10
148.6021206225471
 20
258.5036821473876
 30
0.0
 10
148.8793461082394
 20
258.5975371442288
 30
0.0
 10
149.1481089261307
 20
258.7173332147085
 30
0.0
 10
149.4057514878102
 20
258.8614087165015
 30
0.0
 10
149.6509791954053
 20
259.0294672345964
 30
0.0
 10
149.8812423454396
 20
259.2193041577238
 30
0.0
 10
150.0954746095108
 20
259.4304396958317
 30
0.0
 10
150.2914290232139
 20
259.6602194595525
 30
0.0
 10
150.4681863708953
 20
259.9079479486106
 30
0.0
 10
150.6239572037628
 20
260.170680200135
 30
0.0
 10
150.757925621428
 20
260.4474312086269
 30
0.0
 10
150.8688486526334
 20
260.7351631872418
 30
0.0
 10
150.9560254450263
 20
261.0325166334355
 30
0.0
 10
151.0187734551136
 20
261.3365626296404
 30
0.0
 10
151.0565738343271
 20
261.6455042253778
 30
0.0
 10
151.0692509078151
 20
261.9566938306851
 30
0.0
 10
151.0565738343271
 20
262.2678834359919
 30
0.0
 10
151.0187734551133
 20
262.5768250317307
 30
0.0
 10
150.9560254450266
 20
262.880871027931
 30
0.0
 10
150.8688486526321
 20
263.1782244741413
 30
0.0
 10
150.7579256214326
 20
263.465956452695
 30
0.0
 10
150.6239572037459
 20
263.7427074614128
 30
0.0
 10
150.4681863709575
 20
264.0054397120987
 30
0.0
 10
150.2914290229849
 20
264.2531682042526
 30
0.0
 10
150.0954746103618
 20
264.4829479564928
 30
0.0
 10
149.8812423423066
 20
264.6940835369526
 30
0.0
 10
149.6509792070469
 20
264.8839203030208
 30
0.0
 10
149.4057514449227
 20
265.0519794007684
 30
0.0
 10
149.1481090856107
 20
265.196052751362
 30
0.0
 10
148.8793455194449
 20
265.315856776119
 30
0.0
 10
148.6021228148624
 20
265.4096822093241
 30
0.0
 10
148.3180321456064
 20
265.4776187739963
 30
0.0
 10
148.0297030845353
 20
265.5179053309128
 30
0.0
 10
147.7388759718695
 20
265.5331920765971
 30
0.0
 10
147.5455888573574
 20
265.5202394135897
 30
0.0
 10
147.4489453001015
 20
265.5137630820861
 30
0.0
 11
147.4489453001015
 21
265.5137630820861
 31
0.0
 11
147.1607858038266
 21
265.4730391089997
 31
0.0
 11
146.8777035974441
 21
265.4055702389343
 31
0.0
 11
146.6002795549003
 21
265.3116227102955
 31
0.0
 11
146.332717802783
 21
265.1925068364961
 31
0.0
 11
146.0745854340678
 21
265.048163707039
 31
0.0
 11
145.8305727814566
 21
264.8811035366232
 31
0.0
 11
145.5996932759257
 21
264.6907925050224
 31
0.0
 11
145.3865179809746
 21
264.480881530667
 31
0.0
 11
145.1899836569663
 21
264.2504775475405
 31
0.0
 11
145.0140101211667
 21
264.0040458248528
 31
0.0
 11
144.8578129806938
 21
263.740663588015
 31
0.0
 11
144.7243172927296
 21
263.4651044552372
 31
0.0
 11
144.6131673671725
 21
263.1768525343399
 31
0.0
 11
144.5261907131462
 21
262.8804260562995
 31
0.0
 11
144.4633856388246
 21
262.5761368637566
 31
0.0
 11
144.4256102771531
 21
262.267747047836
 31
0.0
 11
144.4129550809395
 21
261.956693830685
 31
0.0
 11
144.4256102771531
 21
261.6456406135341
 31
0.0
 11
144.4633856388247
 21
261.3372507976135
 31
0.0
 11
144.5261907131462
 21
261.0329616050706
 31
0.0
 11
144.6131673671725
 21
260.7365351270302
 31
0.0
 11
144.7243172927296
 21
260.4482832061329
 31
0.0
 11
144.8578129806938
 21
260.1727240733551
 31
0.0
 11
145.0140101211667
 21
259.9093418365172
 31
0.0
 11
145.1899836569663
 21
259.6629101138295
 31
0.0
 11
145.3865179809746
 21
259.432506130703
 31
0.0
 11
145.5996932759258
 21
259.2225951563476
 31
0.0
 11
145.8305727814566
 21
259.0322841247469
 31
0.0
 11
146.0745854340678
 21
258.8652239543312
 31
0.0
 11
146.332717802783
 21
258.7208808248739
 31
0.0
 11
146.6002795549003
 21
258.6017649510745
 31
0.0
 11
146.8777035974442
 21
258.5078174224357
 31
0.0
 11
147.1607858038267
 21
258.4403485523704
 31
0.0
 11
147.4489453001016
 21
258.3996245792839
 31
0.0
 11
147.738988754852
 21
258.3859796164137
 31
0.0
 11
148.0290322096025
 21
258.3996245792839
 31
0.0
 11
148.3171917058774
 21
258.4403485523704
 31
0.0
 11
148.6002739122599
 21
258.5078174224357
 31
0.0
 11
148.8776979548037
 21
258.6017649510745
 31
0.0
 11
149.1452597069211
 21
258.720880824874
 31
0.0
 11
149.4033920756363
 21
258.8652239543312
 31
0.0
 11
149.6474047282474
 21
259.0322841247469
 31
0.0
 11
149.8782842337782
 21
259.2225951563476
 31
0.0
 11
150.0914595287294
 21
259.432506130703
 31
0.0
 11
150.2879938527377
 21
259.6629101138295
 31
0.0
 11
150.4639673885373
 21
259.9093418365173
 31
0.0
 11
150.6201645290102
 21
260.1727240733551
 31
0.0
 11
150.7536602169744
 21
260.4482832061329
 31
0.0
 11
150.8648101425315
 21
260.7365351270302
 31
0.0
 11
150.9517867965578
 21
261.0329616050705
 31
0.0
 11
151.0145918708794
 21
261.3372507976134
 31
0.0
 11
151.0523672325509
 21
261.6456406135341
 31
0.0
 11
151.0650224287645
 21
261.956693830685
 31
0.0
 11
151.0523672325509
 21
262.267747047836
 31
0.0
 11
151.0145918708793
 21
262.5761368637566
 31
0.0
 11
150.9517867965578
 21
262.8804260562995
 31
0.0
 11
150.8648101425315
 21
263.1768525343399
 31
0.0
 11
150.7536602169744
 21
263.4651044552372
 31
0.0
 11
150.6201645290102
 21
263.7406635880149
 31
0.0
 11
150.4639673885373
 21
264.0040458248527
 31
0.0
 11
150.2879938527377
 21
264.2504775475405
 31
0.0
 11
150.0914595287294
 21
264.480881530667
 31
0.0
 11
149.8782842337783
 21
264.6907925050224
 31
0.0
 11
149.6474047282474
 21
264.8811035366232
 31
0.0
 11
149.4033920756362
 21
265.048163707039
 31
0.0
 11
149.145259706921
 21
265.1925068364961
 31
0.0
 11
148.8776979548036
 21
265.3116227102955
 31
0.0
 11
148.6002739122598
 21
265.4055702389343
 31
0.0
 11
148.3171917058774
 21
265.4730391089996
 31
0.0
 11
148.0290322096025
 21
265.5137630820861
 31
0.0
 11
147.738988754852
 21
265.5274080449565
 31
0.0
 11
147.4489453001015
 21
265.5137630820861
 31
0.0
  0
SPLINE
  5
E4
330
39
100
AcDbEntity
  8
1
  6
Continuous
 62
     7
100
AcDbSpline
210
0.0
220
0.0
230
1.0
 70
     8
 71
     3
 72
    59
 73
    55
 74
    53
 42
0.0000000001
 43
0.0000000001
 44
0.00000001
 40
0.0
 40
0.0
 40
0.0
 40
0.0
 40
0.332865192323367
 40
0.6657611143602131
 40
1.067419790250942
 40
1.46883879829835
 40
1.90225071505912
 40
2.335501159476332
 40
2.796817196302676
 40
3.258030103344391
 40
3.740926902223344
 40
4.223763035175967
 40
4.720245461020074
 40
5.216699839315888
 40
5.717807166076097
 40
6.21891449283636
 40
6.715368871132112
 40
7.211851296976227
 40
7.694687429928704
 40
8.177584228807588
 40
8.638797135849249
 40
9.100113172675645
 40
9.533363617092833
 40
9.966775533853554
 40
10.3681945419009
 40
10.76985321779174
 40
11.13896134093933
 40
11.50839734424734
 40
11.84902950636386
 40
12.19003325533412
 40
12.51084708734985
 40
12.83192840046827
 40
13.14569038570705
 40
13.45945237094577
 40
13.78053368406402
 40
14.10134751607976
 40
14.44235126505017
 40
14.7829834271667
 40
15.15241943047473
 40
15.52152755362228
 40
15.92318622951314
 40
16.32460523756053
 40
16.75801715432114
 40
17.19126759873843
 40
17.65258363556472
 40
18.11379654260647
 40
18.5966933414855
 40
19.07952947443786
 40
19.5760119002818
 40
20.07246627857766
 40
20.57357360533792
 40
21.07468093209813
 40
21.3024117285362
 40
21.5299785024741
 40
21.5299785024741
 40
21.5299785024741
 40
21.5299785024741
 10
496.926943677652
 20
263.5289813534906
 30
0.0
 10
496.8556713336234
 20
263.614129260075
 30
0.0
 10
496.7131200657892
 20
263.7844329339956
 30
0.0
 10
496.4537741722418
 20
264.0290373160343
 30
0.0
 10
496.1582024204418
 20
264.2663233860496
 30
0.0
 10
495.8154311135273
 20
264.4960644942047
 30
0.0
 10
495.4467791878764
 20
264.7036693383254
 30
0.0
 10
495.0462121176826
 20
264.8928758344962
 30
0.0
 10
494.6251111269115
 20
265.0578434256825
 30
0.0
 10
494.1787518527333
 20
265.201026625542
 30
0.0
 10
493.7175562659602
 20
265.3185540825409
 30
0.0
 10
493.238861095443
 20
265.4116378260981
 30
0.0
 10
492.751193806856
 20
265.4781406419819
 30
0.0
 10
492.2545759955751
 20
265.5185261997461
 30
0.0
 10
491.7549551814989
 20
265.5318696812178
 30
0.0
 10
491.2553343655102
 20
265.5185262006763
 30
0.0
 10
490.7587165599132
 20
265.4781406383023
 30
0.0
 10
490.2710492507155
 20
265.4116378397422
 30
0.0
 10
489.792354154994
 20
265.3185540331564
 30
0.0
 10
489.3311582948677
 20
265.2010268065478
 30
0.0
 10
488.8847999970914
 20
265.0578427837376
 30
0.0
 10
488.463695470298
 20
264.8928781728544
 30
0.0
 10
488.0631408323701
 20
264.7036611982656
 30
0.0
 10
487.6944442411824
 20
264.4960940000714
 30
0.0
 10
487.351827949705
 20
264.2662222386168
 30
0.0
 10
487.0462801060659
 20
264.0218389316789
 30
0.0
 10
486.7721276403877
 20
263.7578076815757
 30
0.0
 10
486.5388839754058
 20
263.4830503373244
 30
0.0
 10
486.3420049419374
 20
263.1923497853792
 30
0.0
 10
486.1889053997224
 20
262.8943641305725
 30
0.0
 10
486.0763579292125
 20
262.5856635110598
 30
0.0
 10
486.0098064188512
 20
262.2730928738231
 30
0.0
 10
485.9863311621642
 20
261.9566938306842
 30
0.0
 10
486.0098064188512
 20
261.6402947875454
 30
0.0
 10
486.0763579292125
 20
261.3277241503089
 30
0.0
 10
486.1889053997223
 20
261.0190235307963
 30
0.0
 10
486.3420049419375
 20
260.7210378759889
 30
0.0
 10
486.5388839754056
 20
260.4303373240455
 30
0.0
 10
486.7721276403879
 20
260.1555799797872
 30
0.0
 10
487.0462801060652
 20
259.8915487297116
 30
0.0
 10
487.3518279497072
 20
259.6471654226614
 30
0.0
 10
487.6944442411739
 20
259.4172936616451
 30
0.0
 10
488.0631408324055
 20
259.2097264616893
 30
0.0
 10
488.4636954701629
 20
259.0205094939194
 30
0.0
 10
488.8847999976325
 20
258.8555448560045
 30
0.0
 10
489.3311582928137
 20
258.712360936943
 30
0.0
 10
489.7923541630597
 20
258.5948333057078
 30
0.0
 10
490.2710492203054
 20
258.5017510375675
 30
0.0
 10
490.7587166769664
 20
258.4352423427187
 30
0.0
 10
491.2553339273682
 20
258.3948789796893
 30
0.0
 10
491.7549568336275
 20
258.3814519201569
 30
0.0
 10
492.1649851657127
 20
258.3926584965464
 30
0.0
 10
492.4831566861528
 20
258.4133554651318
 30
0.0
 10
492.6342212249193
 20
258.4280197405517
 30
0.0
 10
492.7097262835453
 20
258.4353492368341
 30
0.0
 11
496.926943677652
 21
263.5289813534906
 31
0.0
 11
496.7083257053853
 21
263.7799901550544
 31
0.0
 11
496.4678821200884
 21
264.0102217280376
 31
0.0
 11
496.1547207628667
 21
264.2617364517842
 31
0.0
 11
495.8216936436859
 21
264.4858573073776
 31
0.0
 11
495.4443652809675
 21
264.6990923801929
 31
0.0
 11
495.0527976117741
 21
264.8845127351437
 31
0.0
 11
494.6234642600348
 21
265.0532887965907
 31
0.0
 11
494.1843751715344
 21
265.1944203592608
 31
0.0
 11
493.7165292811336
 21
265.3140428538119
 31
0.0
 11
493.2425972536347
 21
265.406342174478
 31
0.0
 11
492.7507005469411
 21
265.4736654922513
 31
0.0
 11
492.2558809949587
 21
265.5139216806585
 31
0.0
 11
491.7549551811791
 21
265.5274080449559
 31
0.0
 11
491.2540293673994
 21
265.5139216806585
 31
0.0
 11
490.7592098154171
 21
265.4736654922514
 31
0.0
 11
490.2673131087234
 21
265.4063421744781
 31
0.0
 11
489.7933810812247
 21
265.3140428538119
 31
0.0
 11
489.325535190824
 21
265.1944203592608
 31
0.0
 11
488.8864461023236
 21
265.0532887965907
 31
0.0
 11
488.4571127505843
 21
264.8845127351437
 31
0.0
 11
488.0655450813908
 21
264.699092380193
 31
0.0
 11
487.6882167186726
 21
264.4858573073777
 31
0.0
 11
487.3551895994918
 21
264.2617364517844
 31
0.0
 11
487.04202824227
 21
264.0102217280376
 31
0.0
 11
486.776691113165
 21
263.7536344826573
 31
0.0
 11
486.5381978166098
 21
263.4714928373115
 31
0.0
 11
486.3479620925042
 21
263.1889319781286
 31
0.0
 11
486.1925372259269
 21
262.8854082267331
 31
0.0
 11
486.0835823937825
 21
262.5836627058633
 31
0.0
 11
486.0165868520796
 21
262.26964868225
 31
0.0
 11
485.9940958702777
 21
261.9566938306842
 31
0.0
 11
486.0165868520796
 21
261.6437389791185
 31
0.0
 11
486.0835823937825
 21
261.3297249555054
 31
0.0
 11
486.1925372259268
 21
261.0279794346355
 31
0.0
 11
486.3479620925041
 21
260.7244556832399
 31
0.0
 11
486.5381978166097
 21
260.4418948240569
 31
0.0
 11
486.776691113165
 21
260.1597531787112
 31
0.0
 11
487.04202824227
 21
259.9031659333309
 31
0.0
 11
487.3551895994918
 21
259.6516512095842
 31
0.0
 11
487.6882167186726
 21
259.4275303539909
 31
0.0
 11
488.0655450813908
 21
259.2142952811757
 31
0.0
 11
488.4571127505844
 21
259.0288749262248
 31
0.0
 11
488.8864461023235
 21
258.8600988647779
 31
0.0
 11
489.325535190824
 21
258.7189673021077
 31
0.0
 11
489.7933810812249
 21
258.5993448075566
 31
0.0
 11
490.2673131087235
 21
258.5070454868905
 31
0.0
 11
490.759209815417
 21
258.4397221691172
 31
0.0
 11
491.2540293673994
 21
258.3994659807101
 31
0.0
 11
491.7549551811791
 21
258.3859796164128
 31
0.0
 11
492.2558809949587
 21
258.3994659807101
 31
0.0
 11
492.4831108418072
 21
258.4145627468382
 31
0.0
 11
492.7097262835453
 21
258.4353492368341
 31
0.0
  0
SPLINE
  5
E5
330
39
100
AcDbEntity
  8
1
  6
Continuous
 62
     7
100
AcDbSpline
210
0.0
220
0.0
230
1.0
 70
     8
 71
     3
 72
    59
 73
    55
 74
    53
 42
0.0000000001
 43
0.0000000001
 44
0.00000001
 40
0.0
 40
0.0
 40
0.0
 40
0.0
 40
0.3328651923267796
 40
0.6657611143671209
 40
1.067419790257885
 40
1.468838798305294
 40
1.902250715065964
 40
2.335501159483279
 40
2.79681719630957
 40
3.258030103351339
 40
3.740926902230347
 40
4.223763035182691
 40
4.720245461026742
 40
5.216699839322613
 40
5.717807166082878
 40
6.218914492843085
 40
6.715368871138837
 40
7.211851296982839
 40
7.694687429935317
 40
8.177584228814311
 40
8.638797135856189
 40
9.100113172682534
 40
9.533363617099825
 40
9.966775533860496
 40
10.36819454190793
 40
10.76985321779869
 40
11.1389613409462
 40
11.50839734425421
 40
11.84902950637073
 40
12.19003325534099
 40
12.5108470873567
 40
12.8319284004751
 40
13.14569038571389
 40
13.45945237095262
 40
13.78053368407084
 40
14.10134751608662
 40
14.44235126505701
 40
14.78298342717356
 40
15.15241943048156
 40
15.52152755362915
 40
15.92318622951978
 40
16.32460523756732
 40
16.75801715432798
 40
17.19126759874527
 40
17.65258363557167
 40
18.11379654261336
 40
18.59669334149223
 40
19.07952947444475
 40
19.57601190028897
 40
20.07246627858467
 40
20.57357360534493
 40
21.07468093210514
 40
21.30241172854281
 40
21.52997850248041
 40
21.52997850248041
 40
21.52997850248041
 40
21.52997850248041
 10
500.582966684702
 20
263.5289813534852
 30
0.0
 10
500.6542390287312
 20
263.6141292600705
 30
0.0
 10
500.7967902965667
 20
263.7844329339932
 30
0.0
 10
501.0561361901156
 20
264.0290373160335
 30
0.0
 10
501.3517079419166
 20
264.2663233860495
 30
0.0
 10
501.694479248831
 20
264.4960644942047
 30
0.0
 10
502.0631311744818
 20
264.7036693383255
 30
0.0
 10
502.4636982446758
 20
264.8928758344961
 30
0.0
 10
502.8847992354469
 20
265.0578434256824
 30
0.0
 10
503.3311585096252
 20
265.2010266255421
 30
0.0
 10
503.7923540963982
 20
265.3185540825408
 30
0.0
 10
504.2710492669152
 20
265.4116378260981
 30
0.0
 10
504.758716555502
 20
265.478140641982
 30
0.0
 10
505.2553343667831
 20
265.5185261997461
 30
0.0
 10
505.7549551808594
 20
265.5318696812178
 30
0.0
 10
506.2545759968481
 20
265.5185262006762
 30
0.0
 10
506.7511938024449
 20
265.4781406383024
 30
0.0
 10
507.2388611116426
 20
265.4116378397421
 30
0.0
 10
507.7175562073642
 20
265.3185540331564
 30
0.0
 10
508.1787520674906
 20
265.2010268065477
 30
0.0
 10
508.6251103652667
 20
265.0578427837377
 30
0.0
 10
509.0462148920604
 20
264.8928781728542
 30
0.0
 10
509.4467695299883
 20
264.7036611982657
 30
0.0
 10
509.8154661211759
 20
264.4960940000713
 30
0.0
 10
510.1580824126535
 20
264.2662222386168
 30
0.0
 10
510.4636302562926
 20
264.021838931679
 30
0.0
 10
510.7377827219706
 20
263.7578076815756
 30
0.0
 10
510.9710263869524
 20
263.4830503373244
 30
0.0
 10
511.1679054204204
 20
263.1923497853792
 30
0.0
 10
511.321004962636
 20
262.8943641305724
 30
0.0
 10
511.4335524331457
 20
262.5856635110598
 30
0.0
 10
511.5001039435068
 20
262.2730928738231
 30
0.0
 10
511.5235792001943
 20
261.9566938306842
 30
0.0
 10
511.5001039435069
 20
261.6402947875455
 30
0.0
 10
511.4335524331458
 20
261.3277241503087
 30
0.0
 10
511.3210049626359
 20
261.0190235307964
 30
0.0
 10
511.167905420421
 20
260.7210378759888
 30
0.0
 10
510.9710263869525
 20
260.4303373240455
 30
0.0
 10
510.7377827219706
 20
260.1555799797872
 30
0.0
 10
510.4636302562928
 20
259.8915487297116
 30
0.0
 10
510.1580824126512
 20
259.6471654226613
 30
0.0
 10
509.8154661211845
 20
259.4172936616451
 30
0.0
 10
509.4467695299529
 20
259.2097264616893
 30
0.0
 10
509.0462148921953
 20
259.0205094939193
 30
0.0
 10
508.6251103647257
 20
258.8555448560046
 30
0.0
 10
508.1787520695447
 20
258.712360936943
 30
0.0
 10
507.7175561992985
 20
258.5948333057077
 30
0.0
 10
507.2388611420528
 20
258.5017510375675
 30
0.0
 10
506.7511936853917
 20
258.4352423427187
 30
0.0
 10
506.2545764349899
 20
258.3948789796893
 30
0.0
 10
505.7549535287306
 20
258.3814519201569
 30
0.0
 10
505.344925196646
 20
258.3926584965464
 30
0.0
 10
505.0267536762056
 20
258.4133554651318
 30
0.0
 10
504.8756891374393
 20
258.4280197405516
 30
0.0
 10
504.8001840788135
 20
258.435349236834
 30
0.0
 11
500.582966684702
 21
263.5289813534852
 31
0.0
 11
500.8015846569706
 21
263.7799901550519
 31
0.0
 11
501.04202824227
 21
264.0102217280375
 31
0.0
 11
501.3551895994917
 21
264.2617364517842
 31
0.0
 11
501.6882167186725
 21
264.4858573073776
 31
0.0
 11
502.0655450813907
 21
264.6990923801929
 31
0.0
 11
502.4571127505843
 21
264.8845127351437
 31
0.0
 11
502.8864461023235
 21
265.0532887965907
 31
0.0
 11
503.325535190824
 21
265.1944203592608
 31
0.0
 11
503.7933810812248
 21
265.3140428538119
 31
0.0
 11
504.2673131087234
 21
265.406342174478
 31
0.0
 11
504.759209815417
 21
265.4736654922513
 31
0.0
 11
505.2540293673994
 21
265.5139216806585
 31
0.0
 11
505.7549551811791
 21
265.5274080449559
 31
0.0
 11
506.2558809949588
 21
265.5139216806585
 31
0.0
 11
506.7507005469411
 21
265.4736654922514
 31
0.0
 11
507.2425972536346
 21
265.4063421744781
 31
0.0
 11
507.7165292811333
 21
265.3140428538119
 31
0.0
 11
508.1843751715342
 21
265.1944203592608
 31
0.0
 11
508.6234642600348
 21
265.0532887965907
 31
0.0
 11
509.052797611774
 21
264.8845127351437
 31
0.0
 11
509.4443652809676
 21
264.699092380193
 31
0.0
 11
509.8216936436858
 21
264.4858573073777
 31
0.0
 11
510.1547207628667
 21
264.2617364517844
 31
0.0
 11
510.4678821200884
 21
264.0102217280376
 31
0.0
 11
510.7332192491932
 21
263.7536344826573
 31
0.0
 11
510.9717125457485
 21
263.4714928373115
 31
0.0
 11
511.1619482698541
 21
263.1889319781286
 31
0.0
 11
511.3173731364313
 21
262.8854082267331
 31
0.0
 11
511.4263279685757
 21
262.5836627058633
 31
0.0
 11
511.4933235102785
 21
262.26964868225
 31
0.0
 11
511.5158144920806
 21
261.9566938306842
 31
0.0
 11
511.4933235102786
 21
261.6437389791185
 31
0.0
 11
511.4263279685759
 21
261.3297249555054
 31
0.0
 11
511.3173731364315
 21
261.0279794346355
 31
0.0
 11
511.1619482698542
 21
260.7244556832399
 31
0.0
 11
510.9717125457486
 21
260.4418948240569
 31
0.0
 11
510.7332192491933
 21
260.1597531787112
 31
0.0
 11
510.4678821200883
 21
259.9031659333309
 31
0.0
 11
510.1547207628668
 21
259.6516512095842
 31
0.0
 11
509.8216936436858
 21
259.4275303539909
 31
0.0
 11
509.4443652809675
 21
259.2142952811757
 31
0.0
 11
509.0527976117739
 21
259.0288749262248
 31
0.0
 11
508.6234642600347
 21
258.8600988647779
 31
0.0
 11
508.1843751715343
 21
258.7189673021077
 31
0.0
 11
507.7165292811336
 21
258.5993448075566
 31
0.0
 11
507.2425972536348
 21
258.5070454868905
 31
0.0
 11
506.750700546941
 21
258.4397221691172
 31
0.0
 11
506.2558809949588
 21
258.3994659807101
 31
0.0
 11
505.7549551811791
 21
258.3859796164128
 31
0.0
 11
505.2540293673994
 21
258.3994659807101
 31
0.0
 11
505.0267995205513
 21
258.4145627468381
 31
0.0
 11
504.8001840788135
 21
258.435349236834
 31
0.0
  0
ARC
  5
E6
330
39
100
AcDbEntity
  8
1
  6
Continuous
 62
     7
100
AcDbCircle
 10
147.1726541636004
 20
265.8142307952434
 30
0.0
 40
0.9999999999999666
100
AcDbArc
 50
74.66244233044237
 51
90.0
  0
ARC
  5
E7
330
39
100
AcDbEntity
  8
1
  6
Continuous
 62
     7
100
AcDbCircle
 10
145.382582294301
 20
266.8142307952434
 30
0.0
 40
0.9999999999999836
100
AcDbArc
 50
30.00000000000054
 51
90.0
  0
ARC
  5
E8
330
39
100
AcDbEntity
  8
1
  6
Continuous
 62
     7
100
AcDbCircle
 10
147.1146331018699
 20
267.8142307952434
 30
0.0
 40
1.000000000000058
100
AcDbArc
 50
-150.0000000000019
 51
-90.0
  0
ARC
  5
E9
330
39
100
AcDbEntity
  8
1
  6
Continuous
 62
     7
100
AcDbCircle
 10
124.0566120401393
 20
265.8142307952434
 30
0.0
 40
1.0
100
AcDbArc
 50
90.0
 51
105.3375576695512
  0
ARC
  5
EA
330
39
100
AcDbEntity
  8
1
  6
Continuous
 62
     7
100
AcDbCircle
 10
125.8466839094386
 20
266.8142307952434
 30
0.0
 40
1.0
100
AcDbArc
 50
90.0
 51
149.9999999999958
  0
ARC
  5
EB
330
39
100
AcDbEntity
  8
1
  6
Continuous
 62
     7
100
AcDbCircle
 10
124.1146331018699
 20
267.8142307952434
 30
0.0
 40
1.0
100
AcDbArc
 50
-90.0
 51
-30.00000000000095
  0
ARC
  5
EC
330
39
100
AcDbEntity
  8
1
  6
Continuous
 62
     7
100
AcDbCircle
 10
488.9870059887473
 20
266.8142307952426
 30
0.0
 40
0.9999999999999722
100
AcDbArc
 50
137.0585971351234
 51
149.9999999999978
  0
ARC
  5
ED
330
39
100
AcDbEntity
  8
1
  6
Continuous
 62
     7
100
AcDbCircle
 10
487.2549551811784
 20
267.8142307952426
 30
0.0
 40
1.0
100
AcDbArc
 50
-90.0
 51
-29.99999999999729
  0
ARC
  5
EE
330
39
100
AcDbEntity
  8
1
  6
Continuous
 62
     7
100
AcDbCircle
 10
488.9870059887473
 20
266.8142307952426
 30
0.0
 40
1.0
100
AcDbArc
 50
90.0
 51
137.0585971351234
  0
ARC
  5
EF
330
39
100
AcDbEntity
  8
1
  6
Continuous
 62
     7
100
AcDbCircle
 10
487.1969341194478
 20
265.8142307952426
 30
0.0
 40
1.0
100
AcDbArc
 50
90.0
 51
105.3375576695529
  0
ARC
  5
F0
330
39
100
AcDbEntity
  8
1
  6
Continuous
 62
     7
100
AcDbCircle
 10
508.5229043736096
 20
266.8142307952426
 30
0.0
 40
0.9999999999999836
100
AcDbArc
 50
30.00000000000054
 51
42.94140286488104
  0
ARC
  5
F1
330
39
100
AcDbEntity
  8
1
  6
Continuous
 62
     7
100
AcDbCircle
 10
510.2549551811784
 20
267.8142307952426
 30
0.0
 40
0.9999999999999344
100
AcDbArc
 50
-149.9999999999978
 51
-90.0
  0
ARC
  5
F2
330
39
100
AcDbEntity
  8
1
  6
Continuous
 62
     7
100
AcDbCircle
 10
508.5229043736096
 20
266.8142307952426
 30
0.0
 40
0.999999999999889
100
AcDbArc
 50
42.94140286488104
 51
90.0
  0
ARC
  5
F3
330
39
100
AcDbEntity
  8
1
  6
Continuous
 62
     7
100
AcDbCircle
 10
510.312976242909
 20
265.8142307952426
 30
0.0
 40
0.999999999999944
100
AcDbArc
 50
74.66244233044709
 51
90.0
  0
ENDBLK
  5
3B
330
39
100
AcDbEntity
  8
0
100
AcDbBlockEnd
  0
BLOCK
  5
3D
330
3C
100
AcDbEntity
  8
0
100
AcDbBlockBegin
  2
61-1-16-170
 70
     0
 71
     0
 10
-85.71582803369762
 20
309.2100281160253
 30
0.0
  3
61-1-16-170
  1

  0
LINE
  5
F4
330
3C
100
AcDbEntity
  8
1
  6
PHANTOM
 62
     4
100
AcDbLine
 10
125.1014126925109
 20
300.3142307952437
 30
0.0
 11
146.5073491102975
 21
300.3142307952437
 31
0.0
  0
LINE
  5
F5
330
3C
100
AcDbEntity
  8
1
  6
Continuous
 62
     7
100
AcDbLine
 10
127.6146331018699
 20
272.3142307952437
 30
0.0
 11
127.6146331018699
 21
300.3142307952437
 31
0.0
  0
LINE
  5
F6
330
3C
100
AcDbEntity
  8
1
  6
Continuous
 62
     7
100
AcDbLine
 10
143.6146331018699
 20
272.3142307952436
 30
0.0
 11
143.6146331018699
 21
300.3142307952437
 31
0.0
  0
LINE
  5
F7
330
3C
100
AcDbEntity
  8
1
  6
Continuous
 62
     7
100
AcDbLine
 10
128.2282260958838
 20
267.3142307952436
 30
0.0
 11
143.001040107856
 21
267.3142307952436
 31
0.0
  0
LINE
  5
F8
330
3C
100
AcDbEntity
  8
1
  6
Continuous
 62
     7
100
AcDbLine
 10
143.6146331018699
 20
272.3142307952436
 30
0.0
 11
127.6146331018699
 21
272.3142307952437
 31
0.0
  0
LINE
  5
F9
330
3C
100
AcDbEntity
  8
1
  6
PHANTOM
 62
     4
100
AcDbLine
 10
146.9888552957319
 20
398.1559361776149
 30
0.0
 11
124.636681889649
 21
398.1559361776149
 31
0.0
  0
LINE
  5
FA
330
3C
100
AcDbEntity
  8
1
  6
Continuous
 62
     7
100
AcDbLine
 10
127.6146331018699
 20
638.155936177615
 30
0.0
 11
127.6146331018699
 21
398.1559361776149
 31
0.0
  0
LINE
  5
FB
330
3C
100
AcDbEntity
  8
1
  6
Continuous
 62
     7
100
AcDbLine
 10
143.6146331018699
 20
638.155936177615
 30
0.0
 11
143.6146331018699
 21
398.1559361776149
 31
0.0
  0
LINE
  5
FC
330
3C
100
AcDbEntity
  8
1
  6
Continuous
 62
     7
100
AcDbLine
 10
266.7549551811784
 20
272.3142307952436
 30
0.0
 11
250.7549551811784
 21
272.3142307952437
 31
0.0
  0
LINE
  5
FD
330
3C
100
AcDbEntity
  8
1
  6
Continuous
 62
     7
100
AcDbLine
 10
258.7549551811784
 20
267.3142307952436
 30
0.0
 11
251.3685481751923
 21
267.3142307952436
 31
0.0
  0
LINE
  5
FE
330
3C
100
AcDbEntity
  8
1
  6
Continuous
 62
     7
100
AcDbLine
 10
266.1413621871645
 20
267.3142307952436
 30
0.0
 11
258.7549551811784
 21
267.3142307952436
 31
0.0
  0
LINE
  5
FF
330
3C
100
AcDbEntity
  8
1
  6
Continuous
 62
     7
100
AcDbLine
 10
471.7549551811784
 20
308.3142307952437
 30
0.0
 11
285.7549551811784
 21
308.3142307952437
 31
0.0
  0
LINE
  5
100
330
3C
100
AcDbEntity
  8
1
  6
Continuous
 62
     7
100
AcDbLine
 10
490.7549551811784
 20
267.8142307952437
 30
0.0
 11
490.7549551811784
 21
273.3142307952437
 31
0.0
  0
LINE
  5
101
330
3C
100
AcDbEntity
  8
1
  6
Continuous
 62
     7
100
AcDbLine
 10
506.7549551811784
 20
273.3142307952437
 30
0.0
 11
506.7549551811784
 21
267.8142307952437
 31
0.0
  0
LINE
  5
102
330
3C
100
AcDbEntity
  8
1
  6
Continuous
 62
     7
100
AcDbLine
 10
471.7549551811784
 20
292.3142307952437
 30
0.0
 11
285.7549551811784
 21
292.3142307952437
 31
0.0
  0
LINE
  5
103
330
3C
100
AcDbEntity
  8
1
  6
Continuous
 62
     7
100
AcDbLine
 10
250.7549551811784
 20
272.3142307952437
 30
0.0
 11
250.7549551811784
 21
273.3142307952437
 31
0.0
  0
LINE
  5
104
330
3C
100
AcDbEntity
  8
1
  6
Continuous
 62
     7
100
AcDbLine
 10
266.7549551811784
 20
272.3142307952436
 30
0.0
 11
266.7549551811784
 21
273.3142307952436
 31
0.0
  0
ARC
  5
105
330
3C
100
AcDbEntity
  8
1
  6
Continuous
 62
     7
100
AcDbCircle
 10
135.6146331018698
 20
638.155936177615
 30
0.0
 40
8.000000000000114
100
AcDbArc
 50
0.0
 51
180.0
  0
ARC
  5
106
330
3C
100
AcDbEntity
  8
1
  6
Continuous
 62
     7
100
AcDbCircle
 10
135.6146331018699
 20
300.3142307952437
 30
0.0
 40
8.0
100
AcDbArc
 50
0.0
 51
180.0
  0
ARC
  5
107
330
3C
100
AcDbEntity
  8
1
  6
Continuous
 62
     7
100
AcDbCircle
 10
140.4046068071517
 20
270.1705110880213
 30
0.0
 40
3.860026294718298
100
AcDbArc
 50
-47.72834450358248
 51
0.0
  0
ARC
  5
108
330
3C
100
AcDbEntity
  8
1
  6
Continuous
 62
     7
100
AcDbCircle
 10
130.8246593965882
 20
270.1705110880213
 30
0.0
 40
3.860026294718276
100
AcDbArc
 50
146.2642089999716
 51
180.0
  0
ARC
  5
109
330
3C
100
AcDbEntity
  8
1
  6
Continuous
 62
     7
100
AcDbCircle
 10
130.8246593965882
 20
270.1705110880213
 30
0.0
 40
3.86002629471831
100
AcDbArc
 50
180.0
 51
-132.2716554964188
  0
ARC
  5
10A
330
3C
100
AcDbEntity
  8
1
  6
Continuous
 62
     7
100
AcDbCircle
 10
140.4046068071517
 20
270.1705110880213
 30
0.0
 40
3.860026294718182
100
AcDbArc
 50
0.0
 51
33.73579100002785
  0
ARC
  5
10B
330
3C
100
AcDbEntity
  8
1
  6
Continuous
 62
     7
100
AcDbCircle
 10
135.6146331018699
 20
398.1559361776149
 30
0.0
 40
8.650000000000128
100
AcDbArc
 50
157.646574400667
 51
-90.0
  0
ARC
  5
10C
330
3C
100
AcDbEntity
  8
1
  6
Continuous
 62
     7
100
AcDbCircle
 10
135.6146331018699
 20
398.1559361776149
 30
0.0
 40
8.650000000000091
100
AcDbArc
 50
-90.0
 51
22.35342559933306
  0
ARC
  5
10D
330
3C
100
AcDbEntity
  8
1
  6
Continuous
 62
     7
100
AcDbCircle
 10
135.6146331018699
 20
398.1559361776149
 30
0.0
 40
8.000000000000014
100
AcDbArc
 50
180.0
 51
0.0
  0
ARC
  5
10E
330
3C
100
AcDbEntity
  8
1
  6
Continuous
 62
     7
100
AcDbCircle
 10
471.7549551811784
 20
273.3142307952437
 30
0.0
 40
35.0
100
AcDbArc
 50
0.0
 51
90.0
  0
ARC
  5
10F
330
3C
100
AcDbEntity
  8
1
  6
Continuous
 62
     7
100
AcDbCircle
 10
471.7549551811784
 20
273.3142307952437
 30
0.0
 40
19.0
100
AcDbArc
 50
0.0
 51
90.0
  0
ARC
  5
110
330
3C
100
AcDbEntity
  8
1
  6
Continuous
 62
     7
100
AcDbCircle
 10
285.7549551811784
 20
273.3142307952436
 30
0.0
 40
35.00000000000011
100
AcDbArc
 50
90.0
 51
179.9999999999998
  0
ARC
  5
111
330
3C
100
AcDbEntity
  8
1
  6
Continuous
 62
     7
100
AcDbCircle
 10
285.7549551811784
 20
273.3142307952436
 30
0.0
 40
19.00000000000011
100
AcDbArc
 50
90.0
 51
180.0
  0
ARC
  5
112
330
3C
100
AcDbEntity
  8
1
  6
Continuous
 62
     7
100
AcDbCircle
 10
263.5449288864602
 20
270.1705110880213
 30
0.0
 40
3.860026294718298
100
AcDbArc
 50
-47.72834450358248
 51
0.0
  0
ARC
  5
113
330
3C
100
AcDbEntity
  8
1
  6
Continuous
 62
     7
100
AcDbCircle
 10
253.9649814758967
 20
270.1705110880213
 30
0.0
 40
3.860026294718288
100
AcDbArc
 50
146.2642089999717
 51
180.0
  0
ARC
  5
114
330
3C
100
AcDbEntity
  8
1
  6
Continuous
 62
     7
100
AcDbCircle
 10
253.9649814758967
 20
270.1705110880213
 30
0.0
 40
3.860026294718296
100
AcDbArc
 50
180.0
 51
-132.2716554964188
  0
ARC
  5
115
330
3C
100
AcDbEntity
  8
1
  6
Continuous
 62
     7
100
AcDbCircle
 10
263.5449288864602
 20
270.1705110880213
 30
0.0
 40
3.860026294718239
100
AcDbArc
 50
0.0
 51
33.73579100002785
  0
ENDBLK
  5
3E
330
3C
100
AcDbEntity
  8
0
100
AcDbBlockEnd
  0
BLOCK
  5
42
330
3F
100
AcDbEntity
  8
0
100
AcDbBlockBegin
  2
A20J-60X-16
 70
     0
 71
     0
 10
162.7231557767677
 20
250.3142307952434
 30
0.0
  3
A20J-60X-16
  1

  0
INSERT
  5
40
330
3F
100
AcDbEntity
  8
0
100
AcDbBlockReference
  2
32-1-16
 10
280.4019112083785
 20
490.8491420378471
 30
0.0
  0
INSERT
  5
41
330
3F
100
AcDbEntity
  8
0
100
AcDbBlockReference
  2
61-1-16-170
 10
-85.71582803369762
 20
309.2100281160253
 30
0.0
  0
LINE
  5
116
330
3F
100
AcDbEntity
  8
1
  6
PHANTOM
 62
     4
100
AcDbLine
 10
258.7549551811784
 20
264.3142307952436
 30
0.0
 11
258.7549551811784
 21
273.3142307952436
 31
0.0
  0
LINE
  5
117
330
3F
100
AcDbEntity
  8
1
  6
PHANTOM
 62
     4
100
AcDbLine
 10
285.7549551811784
 20
300.3142307952437
 30
0.0
 11
471.7549551811784
 21
300.3142307952437
 31
0.0
  0
LINE
  5
118
330
3F
100
AcDbEntity
  8
1
  6
PHANTOM
 62
     4
100
AcDbLine
 10
135.6146331018699
 20
312.4657117879639
 30
0.0
 11
135.6146331018699
 21
251.3142307952434
 31
0.0
  0
ARC
  5
119
330
3F
100
AcDbEntity
  8
1
  6
PHANTOM
 62
     4
100
AcDbCircle
 10
285.7549551811784
 20
273.3142307952436
 30
0.0
 40
27.00000000000011
100
AcDbArc
 50
90.0
 51
180.0
  0
ARC
  5
11A
330
3F
100
AcDbEntity
  8
1
  6
PHANTOM
 62
     4
100
AcDbCircle
 10
471.7549551811784
 20
273.3142307952437
 30
0.0
 40
27.0
100
AcDbArc
 50
0.0
 51
90.0
  0
ENDBLK
  5
43
330
3F
100
AcDbEntity
  8
0
100
AcDbBlockEnd
  0
BLOCK
  5
45
330
44
100
AcDbEntity
  8
0
100
AcDbBlockBegin
  2
A20-0-13
 70
     0
 71
     0
 10
238.6146331018699
 20
209.8142307952434
 30
0.0
  3
A20-0-13
  1

  0
LINE
  5
11B
330
44
100
AcDbEntity
  8
1
  6
Continuous
 62
     7
100
AcDbLine
 10
148.6146331018699
 20
257.8142307952434
 30
0.0
 11
148.6146331018699
 21
256.3142307952434
 31
0.0
  0
LINE
  5
11C
330
44
100
AcDbEntity
  8
1
  6
Continuous
 62
     7
100
AcDbLine
 10
149.3055343092353
 20
246.3158466535236
 30
0.0
 11
137.5210610649476
 21
234.6943011886454
 31
0.0
  0
LINE
  5
11D
330
44
100
AcDbEntity
  8
1
  6
Continuous
 62
     7
100
AcDbLine
 10
148.6146331018699
 20
251.7878967562537
 30
0.0
 11
148.6146331018699
 21
251.5515438049462
 31
0.0
  0
LINE
  5
11E
330
44
100
AcDbEntity
  8
1
  6
Continuous
 62
     7
100
AcDbLine
 10
122.6146331018699
 20
251.7878967562538
 30
0.0
 11
122.6146331018699
 21
232.8142307952434
 31
0.0
  0
LINE
  5
11F
330
44
100
AcDbEntity
  8
1
  6
Continuous
 62
     7
100
AcDbLine
 10
154.7836281935896
 20
245.5244482274367
 30
0.0
 11
154.189773614178
 21
245.5666048398674
 31
0.0
  0
LINE
  5
120
330
44
100
AcDbEntity
  8
1
  6
Continuous
 62
     7
100
AcDbLine
 10
157.6146331018699
 20
244.8142307952434
 30
0.0
 11
157.6146331018699
 21
220.8142307952434
 31
0.0
  0
LINE
  5
121
330
44
100
AcDbEntity
  8
1
  6
Continuous
 62
     7
100
AcDbLine
 10
154.7836281935896
 20
220.1040133630501
 30
0.0
 11
157.6146331018699
 21
220.3049810424205
 31
0.0
  0
LINE
  5
122
330
44
100
AcDbEntity
  8
1
  6
Continuous
 62
     7
100
AcDbLine
 10
148.6146331018699
 20
253.5642307952434
 30
0.0
 11
148.6146331018699
 21
251.7878967562537
 31
0.0
  0
LINE
  5
123
330
44
100
AcDbEntity
  8
1
  6
Continuous
 62
     7
100
AcDbLine
 10
136.6146331018699
 20
218.8142307952435
 30
0.0
 11
154.7836281935896
 21
220.1040133630501
 31
0.0
  0
LINE
  5
124
330
44
100
AcDbEntity
  8
1
  6
Continuous
 62
     7
100
AcDbLine
 10
157.6146331018699
 20
220.3049810424205
 30
0.0
 11
157.6146331018699
 21
220.8142307952434
 31
0.0
  0
LINE
  5
125
330
44
100
AcDbEntity
  8
1
  6
Continuous
 62
     7
100
AcDbLine
 10
157.6146331018699
 20
220.8142307952434
 30
0.0
 11
157.882582294301
 21
220.8142307952434
 31
0.0
  0
LINE
  5
126
330
44
100
AcDbEntity
  8
1
  6
Continuous
 62
     7
100
AcDbLine
 10
157.882582294301
 20
220.8142307952434
 30
0.0
 11
159.6146331018699
 21
220.8142307952434
 31
0.0
  0
LINE
  5
127
330
44
100
AcDbEntity
  8
1
  6
Continuous
 62
     7
100
AcDbLine
 10
159.6146331018699
 20
220.8142307952434
 30
0.0
 11
161.1146331018699
 21
220.8142307952434
 31
0.0
  0
LINE
  5
128
330
44
100
AcDbEntity
  8
1
  6
Continuous
 62
     2
100
AcDbLine
 10
159.6146331018699
 20
221.8142307952434
 30
0.0
 11
161.1146331018699
 21
221.8142307952435
 31
0.0
  0
LINE
  5
129
330
44
100
AcDbEntity
  8
1
  6
Continuous
 62
     2
100
AcDbLine
 10
157.882582294301
 20
220.8142307952434
 30
0.0
 11
159.6146331018699
 21
221.8142307952434
 31
0.0
  0
LINE
  5
12A
330
44
100
AcDbEntity
  8
1
  6
Continuous
 62
     7
100
AcDbLine
 10
159.6146331018699
 20
220.8142307952434
 30
0.0
 11
159.6146331018699
 21
244.8142307952434
 31
0.0
  0
LINE
  5
12B
330
44
100
AcDbEntity
  8
1
  6
Continuous
 62
     2
100
AcDbLine
 10
159.6146331018699
 20
243.8142307952434
 30
0.0
 11
157.882582294301
 21
244.8142307952434
 31
0.0
  0
LINE
  5
12C
330
44
100
AcDbEntity
  8
1
  6
Continuous
 62
     2
100
AcDbLine
 10
159.6146331018699
 20
243.8142307952434
 30
0.0
 11
161.1146331018699
 21
243.8142307952434
 31
0.0
  0
LINE
  5
12D
330
44
100
AcDbEntity
  8
1
  6
Continuous
 62
     7
100
AcDbLine
 10
161.1146331018699
 20
244.8142307952434
 30
0.0
 11
159.6146331018699
 21
244.8142307952434
 31
0.0
  0
LINE
  5
12E
330
44
100
AcDbEntity
  8
1
  6
Continuous
 62
     7
100
AcDbLine
 10
159.6146331018699
 20
244.8142307952434
 30
0.0
 11
157.882582294301
 21
244.8142307952434
 31
0.0
  0
LINE
  5
12F
330
44
100
AcDbEntity
  8
1
  6
Continuous
 62
     7
100
AcDbLine
 10
157.882582294301
 20
244.8142307952434
 30
0.0
 11
157.6146331018699
 21
244.8142307952434
 31
0.0
  0
LINE
  5
130
330
44
100
AcDbEntity
  8
1
  6
Continuous
 62
     7
100
AcDbLine
 10
157.6146331018699
 20
244.8142307952434
 30
0.0
 11
157.6146331018699
 21
245.3234805480663
 31
0.0
  0
LINE
  5
131
330
44
100
AcDbEntity
  8
1
  6
Continuous
 62
     7
100
AcDbLine
 10
157.6146331018699
 20
245.3234805480663
 30
0.0
 11
154.7836281935896
 21
245.5244482274367
 31
0.0
  0
LINE
  5
132
330
44
100
AcDbEntity
  8
1
  6
Continuous
 62
     7
100
AcDbLine
 10
148.6146331018699
 20
256.3142307952434
 30
0.0
 11
122.6146331018699
 21
256.3142307952434
 31
0.0
  0
LINE
  5
133
330
44
100
AcDbEntity
  8
1
  6
Continuous
 62
     7
100
AcDbLine
 10
148.6146331018699
 20
256.3142307952434
 30
0.0
 11
148.6146331018699
 21
254.5821799876744
 31
0.0
  0
LINE
  5
134
330
44
100
AcDbEntity
  8
1
  6
Continuous
 62
     7
100
AcDbLine
 10
122.6146331018699
 20
256.3142307952434
 30
0.0
 11
122.6146331018699
 21
257.8142307952434
 31
0.0
  0
LINE
  5
135
330
44
100
AcDbEntity
  8
1
  6
Continuous
 62
     7
100
AcDbLine
 10
122.6146331018699
 20
254.5821799876744
 30
0.0
 11
122.6146331018699
 21
256.3142307952434
 31
0.0
  0
LINE
  5
136
330
44
100
AcDbEntity
  8
1
  6
Continuous
 62
     7
100
AcDbLine
 10
122.6146331018699
 20
254.5821799876744
 30
0.0
 11
122.6146331018699
 21
251.7878967562538
 31
0.0
  0
LINE
  5
137
330
44
100
AcDbEntity
  8
1
  6
Continuous
 62
     2
100
AcDbLine
 10
123.6146331018699
 20
256.3142307952434
 30
0.0
 11
123.6146331018699
 21
257.8142307952434
 31
0.0
  0
LINE
  5
138
330
44
100
AcDbEntity
  8
1
  6
Continuous
 62
     2
100
AcDbLine
 10
123.6146331018699
 20
256.3142307952434
 30
0.0
 11
122.6146331018699
 21
254.5821799876744
 31
0.0
  0
LINE
  5
139
330
44
100
AcDbEntity
  8
1
  6
Continuous
 62
     7
100
AcDbLine
 10
148.6146331018699
 20
254.5821799876744
 30
0.0
 11
148.6146331018699
 21
253.5642307952434
 31
0.0
  0
LINE
  5
13A
330
44
100
AcDbEntity
  8
1
  6
Continuous
 62
     2
100
AcDbLine
 10
148.6146331018699
 20
254.5821799876744
 30
0.0
 11
147.6146331018699
 21
256.3142307952434
 31
0.0
  0
LINE
  5
13B
330
44
100
AcDbEntity
  8
1
  6
Continuous
 62
     2
100
AcDbLine
 10
147.6146331018699
 20
256.3142307952434
 30
0.0
 11
147.6146331018699
 21
257.8142307952434
 31
0.0
  0
LINE
  5
13C
330
44
100
AcDbEntity
  8
1
  6
Continuous
 62
     7
100
AcDbLine
 10
143.6146331018699
 20
624.6528529266741
 30
0.0
 11
154.7836281935896
 21
625.4457187454217
 31
0.0
  0
LINE
  5
13D
330
44
100
AcDbEntity
  8
1
  6
Continuous
 62
     7
100
AcDbLine
 10
161.1146331018699
 20
650.155936177615
 30
0.0
 11
159.6146331018699
 21
650.155936177615
 31
0.0
  0
LINE
  5
13E
330
44
100
AcDbEntity
  8
1
  6
PHANTOM
 62
     4
100
AcDbLine
 10
115.9551458518837
 20
638.1559361776151
 30
0.0
 11
197.9837686423716
 21
638.1559361776151
 31
0.0
  0
LINE
  5
13F
330
44
100
AcDbEntity
  8
1
  6
Continuous
 62
     7
100
AcDbLine
 10
154.7836281935896
 20
625.4457187454217
 30
0.0
 11
157.6146331018699
 21
625.6466864247922
 31
0.0
  0
LINE
  5
140
330
44
100
AcDbEntity
  8
1
  6
Continuous
 62
     7
100
AcDbLine
 10
157.6146331018699
 20
650.6651859304378
 30
0.0
 11
155.5149141264866
 21
650.8142410057501
 31
0.0
  0
LINE
  5
141
330
44
100
AcDbEntity
  8
1
  6
Continuous
 62
     7
100
AcDbLine
 10
157.6146331018699
 20
650.155936177615
 30
0.0
 11
157.6146331018699
 21
626.155936177615
 31
0.0
  0
LINE
  5
142
330
44
100
AcDbEntity
  8
1
  6
Continuous
 62
     7
100
AcDbLine
 10
157.6146331018699
 20
625.6466864247922
 30
0.0
 11
157.6146331018699
 21
626.155936177615
 31
0.0
  0
LINE
  5
143
330
44
100
AcDbEntity
  8
1
  6
Continuous
 62
     7
100
AcDbLine
 10
157.6146331018699
 20
626.155936177615
 30
0.0
 11
157.8825822943011
 21
626.155936177615
 31
0.0
  0
LINE
  5
144
330
44
100
AcDbEntity
  8
1
  6
Continuous
 62
     7
100
AcDbLine
 10
157.8825822943011
 20
626.155936177615
 30
0.0
 11
159.6146331018699
 21
626.155936177615
 31
0.0
  0
LINE
  5
145
330
44
100
AcDbEntity
  8
1
  6
Continuous
 62
     7
100
AcDbLine
 10
159.6146331018699
 20
626.155936177615
 30
0.0
 11
161.1146331018699
 21
626.155936177615
 31
0.0
  0
LINE
  5
146
330
44
100
AcDbEntity
  8
1
  6
Continuous
 62
     2
100
AcDbLine
 10
159.6146331018699
 20
627.155936177615
 30
0.0
 11
161.1146331018699
 21
627.155936177615
 31
0.0
  0
LINE
  5
147
330
44
100
AcDbEntity
  8
1
  6
Continuous
 62
     2
100
AcDbLine
 10
157.8825822943011
 20
626.155936177615
 30
0.0
 11
159.6146331018699
 21
627.155936177615
 31
0.0
  0
LINE
  5
148
330
44
100
AcDbEntity
  8
1
  6
Continuous
 62
     7
100
AcDbLine
 10
159.6146331018699
 20
626.155936177615
 30
0.0
 11
159.6146331018699
 21
650.155936177615
 31
0.0
  0
LINE
  5
149
330
44
100
AcDbEntity
  8
1
  6
Continuous
 62
     2
100
AcDbLine
 10
159.6146331018699
 20
649.155936177615
 30
0.0
 11
157.8825822943011
 21
650.155936177615
 31
0.0
  0
LINE
  5
14A
330
44
100
AcDbEntity
  8
1
  6
Continuous
 62
     2
100
AcDbLine
 10
159.6146331018699
 20
649.155936177615
 30
0.0
 11
161.1146331018699
 21
649.155936177615
 31
0.0
  0
LINE
  5
14B
330
44
100
AcDbEntity
  8
1
  6
Continuous
 62
     7
100
AcDbLine
 10
159.6146331018699
 20
650.155936177615
 30
0.0
 11
157.8825822943011
 21
650.155936177615
 31
0.0
  0
LINE
  5
14C
330
44
100
AcDbEntity
  8
1
  6
Continuous
 62
     7
100
AcDbLine
 10
157.8825822943011
 20
650.155936177615
 30
0.0
 11
157.6146331018699
 21
650.155936177615
 31
0.0
  0
LINE
  5
14D
330
44
100
AcDbEntity
  8
1
  6
Continuous
 62
     7
100
AcDbLine
 10
157.6146331018699
 20
650.155936177615
 30
0.0
 11
157.6146331018699
 21
650.6651859304378
 31
0.0
  0
LINE
  5
14E
330
44
100
AcDbEntity
  8
1
  6
Continuous
 62
     7
100
AcDbLine
 10
126.1146331018704
 20
697.1559361776145
 30
0.0
 11
145.1146331018704
 21
697.1559361776145
 31
0.0
  0
LINE
  5
14F
330
44
100
AcDbEntity
  8
1
  6
Continuous
 62
     7
100
AcDbLine
 10
126.1146331018704
 20
697.1559361776145
 30
0.0
 11
125.1146331018704
 21
696.1559361776145
 31
0.0
  0
LINE
  5
150
330
44
100
AcDbEntity
  8
1
  6
Continuous
 62
     7
100
AcDbLine
 10
125.1146331018704
 20
683.1559361776145
 30
0.0
 11
125.1146331018704
 21
696.1559361776145
 31
0.0
  0
LINE
  5
151
330
44
100
AcDbEntity
  8
1
  6
Continuous
 62
     7
100
AcDbLine
 10
125.1146331018704
 20
696.1559361776145
 30
0.0
 11
146.1146331018704
 21
696.1559361776145
 31
0.0
  0
LINE
  5
152
330
44
100
AcDbEntity
  8
1
  6
Continuous
 62
     7
100
AcDbLine
 10
146.1146331018704
 20
684.8879869851834
 30
0.0
 11
125.1146331018704
 21
684.8879869851834
 31
0.0
  0
LINE
  5
153
330
44
100
AcDbEntity
  8
1
  6
Continuous
 62
     7
100
AcDbLine
 10
146.1146331018704
 20
696.1559361776145
 30
0.0
 11
145.1146331018704
 21
697.1559361776145
 31
0.0
  0
LINE
  5
154
330
44
100
AcDbEntity
  8
1
  6
Continuous
 62
     7
100
AcDbLine
 10
146.1146331018704
 20
696.1559361776145
 30
0.0
 11
146.1146331018704
 21
683.1559361776145
 31
0.0
  0
LINE
  5
155
330
44
100
AcDbEntity
  8
1
  6
Continuous
 62
     7
100
AcDbLine
 10
144.3646331018704
 20
662.7841189359076
 30
0.0
 11
144.3646331018704
 21
676.6559361776145
 31
0.0
  0
LINE
  5
156
330
44
100
AcDbEntity
  8
1
  6
Continuous
 62
     2
100
AcDbLine
 10
145.1146331018704
 20
697.1559361776145
 30
0.0
 11
145.1146331018704
 21
684.8879869851834
 31
0.0
  0
LINE
  5
157
330
44
100
AcDbEntity
  8
1
  6
Continuous
 62
     2
100
AcDbLine
 10
145.1146331018704
 20
684.8879869851834
 30
0.0
 11
146.1146331018704
 21
683.1559361776145
 31
0.0
  0
LINE
  5
158
330
44
100
AcDbEntity
  8
1
  6
Continuous
 62
     7
100
AcDbLine
 10
158.6146331018704
 20
681.1559361776145
 30
0.0
 11
158.6146331018704
 21
683.1559361776145
 31
0.0
  0
LINE
  5
159
330
44
100
AcDbEntity
  8
1
  6
Continuous
 62
     7
100
AcDbLine
 10
126.8646331018704
 20
657.0222421223417
 30
0.0
 11
126.8646331018704
 21
676.6559361776145
 31
0.0
  0
LINE
  5
15A
330
44
100
AcDbEntity
  8
1
  6
Continuous
 62
     7
100
AcDbLine
 10
158.1146331018704
 20
680.6559361776145
 30
0.0
 11
113.1146331018704
 21
680.6559361776145
 31
0.0
  0
LINE
  5
15B
330
44
100
AcDbEntity
  8
1
  6
Continuous
 62
     7
100
AcDbLine
 10
112.6146331018704
 20
683.1559361776145
 30
0.0
 11
112.6146331018704
 21
681.1559361776145
 31
0.0
  0
LINE
  5
15C
330
44
100
AcDbEntity
  8
1
  6
Continuous
 62
     7
100
AcDbLine
 10
112.6146331018704
 20
683.1559361776145
 30
0.0
 11
158.6146331018704
 21
683.1559361776145
 31
0.0
  0
LINE
  5
15D
330
44
100
AcDbEntity
  8
1
  6
Continuous
 62
     2
100
AcDbLine
 10
125.1146331018704
 20
683.1559361776145
 30
0.0
 11
126.1146331018704
 21
684.8879869851834
 31
0.0
  0
LINE
  5
15E
330
44
100
AcDbEntity
  8
1
  6
Continuous
 62
     2
100
AcDbLine
 10
126.1146331018704
 20
684.8879869851834
 30
0.0
 11
126.1146331018704
 21
697.1559361776145
 31
0.0
  0
LINE
  5
15F
330
44
100
AcDbEntity
  8
1
  6
Continuous
 62
     7
100
AcDbLine
 10
556.7549551811784
 20
242.3142307952437
 30
0.0
 11
556.7549551811784
 21
223.3142307952437
 31
0.0
  0
LINE
  5
160
330
44
100
AcDbEntity
  8
1
  6
Continuous
 62
     7
100
AcDbLine
 10
545.4870059887473
 20
223.3142307952437
 30
0.0
 11
545.4870059887473
 21
242.3142307952437
 31
0.0
  0
LINE
  5
161
330
44
100
AcDbEntity
  8
1
  6
Continuous
 62
     7
100
AcDbLine
 10
543.7549551811784
 20
243.3142307952437
 30
0.0
 11
543.7549551811784
 21
222.3142307952437
 31
0.0
  0
LINE
  5
162
330
44
100
AcDbEntity
  8
1
  6
Continuous
 62
     7
100
AcDbLine
 10
541.2549551811784
 20
245.5642307952437
 30
0.0
 11
541.2549551811784
 21
220.0642307952437
 31
0.0
  0
LINE
  5
163
330
44
100
AcDbEntity
  8
1
  6
Continuous
 62
     2
100
AcDbLine
 10
510.7549551811784
 20
257.8142307952436
 30
0.0
 11
510.7549551811784
 21
256.3142307952436
 31
0.0
  0
LINE
  5
164
330
44
100
AcDbEntity
  8
1
  6
Continuous
 62
     2
100
AcDbLine
 10
545.4870059887473
 20
223.3142307952437
 30
0.0
 11
543.7549551811784
 21
222.3142307952437
 31
0.0
  0
LINE
  5
165
330
44
100
AcDbEntity
  8
1
  6
Continuous
 62
     7
100
AcDbLine
 10
543.7549551811784
 20
222.3142307952437
 30
0.0
 11
543.7549551811784
 21
209.8142307952437
 31
0.0
  0
LINE
  5
166
330
44
100
AcDbEntity
  8
1
  6
Continuous
 62
     7
100
AcDbLine
 10
541.7549551811784
 20
209.8142307952437
 30
0.0
 11
543.7549551811784
 21
209.8142307952437
 31
0.0
  0
LINE
  5
167
330
44
100
AcDbEntity
  8
1
  6
Continuous
 62
     7
100
AcDbLine
 10
541.2549551811784
 20
210.3142307952437
 30
0.0
 11
541.2549551811784
 21
220.0642307952437
 31
0.0
  0
LINE
  5
168
330
44
100
AcDbEntity
  8
1
  6
Continuous
 62
     2
100
AcDbLine
 10
557.7549551811784
 20
223.3142307952437
 30
0.0
 11
545.4870059887473
 21
223.3142307952437
 31
0.0
  0
LINE
  5
169
330
44
100
AcDbEntity
  8
1
  6
Continuous
 62
     7
100
AcDbLine
 10
543.7549551811784
 20
255.8142307952436
 30
0.0
 11
541.7549551811784
 21
255.8142307952436
 31
0.0
  0
LINE
  5
16A
330
44
100
AcDbEntity
  8
1
  6
Continuous
 62
     7
100
AcDbLine
 10
543.7549551811784
 20
255.8142307952436
 30
0.0
 11
543.7549551811784
 21
243.3142307952437
 31
0.0
  0
LINE
  5
16B
330
44
100
AcDbEntity
  8
1
  6
Continuous
 62
     2
100
AcDbLine
 10
543.7549551811784
 20
243.3142307952437
 30
0.0
 11
545.4870059887473
 21
242.3142307952437
 31
0.0
  0
LINE
  5
16C
330
44
100
AcDbEntity
  8
1
  6
Continuous
 62
     2
100
AcDbLine
 10
545.4870059887473
 20
242.3142307952437
 30
0.0
 11
557.7549551811784
 21
242.3142307952437
 31
0.0
  0
LINE
  5
16D
330
44
100
AcDbEntity
  8
1
  6
Continuous
 62
     7
100
AcDbLine
 10
537.2549551811784
 20
241.5642307952437
 30
0.0
 11
523.7549551811784
 21
241.5642307952437
 31
0.0
  0
LINE
  5
16E
330
44
100
AcDbEntity
  8
1
  6
Continuous
 62
     7
100
AcDbLine
 10
541.2549551811784
 20
245.5642307952437
 30
0.0
 11
541.2549551811784
 21
255.3142307952436
 31
0.0
  0
LINE
  5
16F
330
44
100
AcDbEntity
  8
1
  6
Continuous
 62
     2
100
AcDbLine
 10
511.7549551811784
 20
254.5821799876748
 30
0.0
 11
510.7549551811784
 21
256.3142307952436
 31
0.0
  0
LINE
  5
170
330
44
100
AcDbEntity
  8
1
  6
Continuous
 62
     2
100
AcDbLine
 10
486.7549551811784
 20
256.3142307952436
 30
0.0
 11
485.7549551811784
 21
254.5821799876748
 31
0.0
  0
LINE
  5
171
330
44
100
AcDbEntity
  8
1
  6
Continuous
 62
     2
100
AcDbLine
 10
486.7549551811784
 20
256.3142307952436
 30
0.0
 11
486.7549551811784
 21
257.8142307952436
 31
0.0
  0
LINE
  5
172
330
44
100
AcDbEntity
  8
1
  6
Continuous
 62
     7
100
AcDbLine
 10
511.7549551811784
 20
254.5821799876748
 30
0.0
 11
511.7549551811784
 21
253.5642307952437
 31
0.0
  0
LINE
  5
173
330
44
100
AcDbEntity
  8
1
  6
Continuous
 62
     7
100
AcDbLine
 10
485.7549551811784
 20
257.8142307952436
 30
0.0
 11
485.7549551811784
 21
242.1416098483325
 31
0.0
  0
LINE
  5
174
330
44
100
AcDbEntity
  8
1
  6
Continuous
 62
     7
100
AcDbLine
 10
511.7549551811784
 20
256.3142307952436
 30
0.0
 11
505.3685360522856
 21
256.3142307952436
 31
0.0
  0
LINE
  5
175
330
44
100
AcDbEntity
  8
1
  6
Continuous
 62
     7
100
AcDbLine
 10
511.7549551811784
 20
254.5821799876748
 30
0.0
 11
511.7549551811784
 21
257.8142307952436
 31
0.0
  0
LINE
  5
176
330
44
100
AcDbEntity
  8
1
  6
Continuous
 62
     7
100
AcDbLine
 10
557.7549551811784
 20
242.3142307952437
 30
0.0
 11
557.7549551811784
 21
223.3142307952437
 31
0.0
  0
LINE
  5
177
330
44
100
AcDbEntity
  8
1
  6
Continuous
 62
     7
100
AcDbLine
 10
556.7549551811784
 20
222.3142307952437
 30
0.0
 11
557.7549551811784
 21
223.3142307952437
 31
0.0
  0
LINE
  5
178
330
44
100
AcDbEntity
  8
1
  6
Continuous
 62
     7
100
AcDbLine
 10
556.7549551811784
 20
223.3142307952437
 30
0.0
 11
556.7549551811784
 21
222.3142307952437
 31
0.0
  0
LINE
  5
179
330
44
100
AcDbEntity
  8
1
  6
Continuous
 62
     7
100
AcDbLine
 10
556.7549551811784
 20
243.3142307952437
 30
0.0
 11
556.7549551811784
 21
242.3142307952437
 31
0.0
  0
LINE
  5
17A
330
44
100
AcDbEntity
  8
1
  6
Continuous
 62
     7
100
AcDbLine
 10
545.4870059887473
 20
242.3142307952437
 30
0.0
 11
545.4870059887473
 21
243.3142307952437
 31
0.0
  0
LINE
  5
17B
330
44
100
AcDbEntity
  8
1
  6
Continuous
 62
     7
100
AcDbLine
 10
557.7549551811784
 20
242.3142307952437
 30
0.0
 11
556.7549551811784
 21
243.3142307952437
 31
0.0
  0
LINE
  5
17C
330
44
100
AcDbEntity
  8
1
  6
Continuous
 62
     7
100
AcDbLine
 10
543.7549551811784
 20
243.3142307952437
 30
0.0
 11
556.7549551811784
 21
243.3142307952437
 31
0.0
  0
LINE
  5
17D
330
44
100
AcDbEntity
  8
1
  6
Continuous
 62
     7
100
AcDbLine
 10
556.7549551811784
 20
222.3142307952437
 30
0.0
 11
543.7549551811784
 21
222.3142307952437
 31
0.0
  0
LINE
  5
17E
330
44
100
AcDbEntity
  8
1
  6
Continuous
 62
     7
100
AcDbLine
 10
545.4870059887473
 20
222.3142307952437
 30
0.0
 11
545.4870059887473
 21
223.3142307952437
 31
0.0
  0
LINE
  5
17F
330
44
100
AcDbEntity
  8
1
  6
Continuous
 62
     7
100
AcDbLine
 10
492.1413743100712
 20
256.3142307952436
 30
0.0
 11
485.7549551811784
 21
256.3142307952436
 31
0.0
  0
LINE
  5
180
330
44
100
AcDbEntity
  8
1
  6
Continuous
 62
     7
100
AcDbLine
 10
537.2549551811784
 20
224.0642307952437
 30
0.0
 11
525.0670002380057
 21
224.0642307952437
 31
0.0
  0
ARC
  5
181
330
44
100
AcDbEntity
  8
1
  6
Continuous
 62
     7
100
AcDbCircle
 10
135.6146331018699
 20
232.8142307952434
 30
0.0
 40
23.00000000000009
100
AcDbArc
 50
33.54681501581418
 51
55.58261128955849
  0
ARC
  5
182
330
44
100
AcDbEntity
  8
1
  6
Continuous
 62
     7
100
AcDbCircle
 10
136.6146331018699
 20
232.8142307952434
 30
0.0
 40
14.00000000000001
100
AcDbArc
 50
180.0
 51
-90.0
  0
ARC
  5
183
330
44
100
AcDbEntity
  8
1
  6
Continuous
 62
     7
100
AcDbCircle
 10
135.6146331018699
 20
232.8142307952434
 30
0.0
 40
23.00000000000011
100
AcDbArc
 50
124.4173887104414
 51
-33.54681501581418
  0
ARC
  5
184
330
44
100
AcDbEntity
  8
1
  6
Continuous
 62
     7
100
AcDbCircle
 10
455.7549551811784
 20
242.1416098483325
 30
0.0
 40
30.00000000000005
100
AcDbArc
 50
-8.8331983696778
 51
0.0
  0
ARC
  5
185
330
44
100
AcDbEntity
  8
1
  6
Continuous
 62
     7
100
AcDbCircle
 10
523.7549551811784
 20
253.5642307952437
 30
0.0
 40
12.0
100
AcDbArc
 50
180.0
 51
-90.0
  0
ARC
  5
186
330
44
100
AcDbEntity
  8
1
  6
Continuous
 62
     7
100
AcDbCircle
 10
498.7549551811784
 20
232.8142307952437
 30
0.0
 40
14.0
100
AcDbArc
 50
-97.13387664333072
 51
-82.87117407847887
  0
ARC
  5
187
330
44
100
AcDbEntity
  8
1
  6
Continuous
 62
     7
100
AcDbCircle
 10
154.6146331018699
 20
251.5515438049462
 30
0.0
 40
6.0
100
AcDbArc
 50
180.0
 51
-94.06050734864756
  0
ARC
  5
188
330
44
100
AcDbEntity
  8
1
  6
Continuous
 62
     7
100
AcDbCircle
 10
156.3646331018704
 20
662.7841189359076
 30
0.0
 40
12.0
100
AcDbArc
 50
180.0
 51
-94.06050734864745
  0
ARC
  5
189
330
44
100
AcDbEntity
  8
1
  6
Continuous
 62
     7
100
AcDbCircle
 10
96.8646331018704
 20
657.0222421223418
 30
0.0
 40
29.99999999999999
100
AcDbArc
 50
-15.10263691918606
 51
-0.00000000000022
  0
ARC
  5
18A
330
44
100
AcDbEntity
  8
1
  6
Continuous
 62
     7
100
AcDbCircle
 10
113.1146331018704
 20
681.1559361776145
 30
0.0
 40
0.5
100
AcDbArc
 50
180.0
 51
-90.0
  0
ARC
  5
18B
330
44
100
AcDbEntity
  8
1
  6
Continuous
 62
     7
100
AcDbCircle
 10
158.1146331018704
 20
681.1559361776145
 30
0.0
 40
0.5
100
AcDbArc
 50
-90.0
 51
0.0
  0
ARC
  5
18C
330
44
100
AcDbEntity
  8
1
  6
Continuous
 62
     7
100
AcDbCircle
 10
148.3646331018704
 20
676.6559361776144
 30
0.0
 40
4.000000000000114
100
AcDbArc
 50
90.0
 51
179.9999999999984
  0
ARC
  5
18D
330
44
100
AcDbEntity
  8
1
  6
Continuous
 62
     7
100
AcDbCircle
 10
122.8646331018704
 20
676.6559361776144
 30
0.0
 40
4.0
100
AcDbArc
 50
0.00000000000163
 51
90.0
  0
ARC
  5
18E
330
44
100
AcDbEntity
  8
1
  6
Continuous
 62
     7
100
AcDbCircle
 10
537.2549551811784
 20
220.0642307952437
 30
0.0
 40
4.0
100
AcDbArc
 50
0.0
 51
90.0
  0
ARC
  5
18F
330
44
100
AcDbEntity
  8
1
  6
Continuous
 62
     7
100
AcDbCircle
 10
541.7549551811784
 20
210.3142307952437
 30
0.0
 40
0.5
100
AcDbArc
 50
180.0
 51
-90.0
  0
ARC
  5
190
330
44
100
AcDbEntity
  8
1
  6
Continuous
 62
     7
100
AcDbCircle
 10
537.2549551811784
 20
245.5642307952437
 30
0.0
 40
4.0
100
AcDbArc
 50
-90.0
 51
0.0
  0
ARC
  5
191
330
44
100
AcDbEntity
  8
1
  6
Continuous
 62
     7
100
AcDbCircle
 10
541.7549551811784
 20
255.3142307952436
 30
0.0
 40
0.5
100
AcDbArc
 50
90.0
 51
180.0
  0
ENDBLK
  5
46
330
44
100
AcDbEntity
  8
0
100
AcDbBlockEnd
  0
BLOCK
  5
48
330
47
100
AcDbEntity
  8
0
100
AcDbBlockBegin
  2
51-1
 70
     0
 71
     0
 10
1588.692513375861
 20
380.7502971535208
 30
0.0
  3
51-1
  1

  0
LINE
  5
192
330
47
100
AcDbEntity
  8
1
  6
Continuous
 62
     7
100
AcDbLine
 10
178.6146331018697
 20
214.8142307952435
 30
0.0
 11
178.6146331018697
 21
263.3142307952434
 31
0.0
  0
LINE
  5
193
330
47
100
AcDbEntity
  8
1
  6
Continuous
 62
     7
100
AcDbLine
 10
182.0015420072371
 20
263.8142307952434
 30
0.0
 11
179.1146331018697
 21
263.8142307952434
 31
0.0
  0
LINE
  5
194
330
47
100
AcDbEntity
  8
1
  6
Continuous
 62
     7
100
AcDbLine
 10
181.5895825242793
 20
214.3142307952435
 30
0.0
 11
179.1146331018697
 21
214.3142307952435
 31
0.0
  0
LINE
  5
195
330
47
100
AcDbEntity
  8
1
  6
Continuous
 62
     7
100
AcDbLine
 10
472.8616793994482
 20
224.556871482363
 30
0.0
 11
482.8375148844106
 21
234.5327069673253
 31
0.0
  0
LINE
  5
196
330
47
100
AcDbEntity
  8
1
  6
Continuous
 62
     7
100
AcDbLine
 10
477.8967294545621
 20
214.3148991630122
 30
0.0
 11
492.2844790536154
 21
218.1700850489798
 31
0.0
  0
LINE
  5
197
330
47
100
AcDbEntity
  8
1
  6
Continuous
 62
     7
100
AcDbLine
 10
492.9594002234441
 20
259.3671450658588
 30
0.0
 11
489.3079910119736
 21
245.739900369426
 31
0.0
  0
LINE
  5
198
330
47
100
AcDbEntity
  8
1
  6
Continuous
 62
     7
100
AcDbLine
 10
518.8526760051743
 20
214.5186758375093
 30
0.0
 11
505.2254313087415
 21
218.1700850489798
 31
0.0
  0
LINE
  5
199
330
47
100
AcDbEntity
  8
1
  6
Continuous
 62
     7
100
AcDbLine
 10
524.6482309629087
 20
224.556871482363
 30
0.0
 11
514.6723954779463
 21
234.5327069673253
 31
0.0
  0
LINE
  5
19A
330
47
100
AcDbEntity
  8
1
  6
Continuous
 62
     7
100
AcDbLine
 10
504.5505101389128
 20
259.3671450658588
 30
0.0
 11
508.2019193503833
 21
245.739900369426
 31
0.0
  0
LINE
  5
19B
330
47
100
AcDbEntity
  8
1
  6
PHANTOM
 62
     4
100
AcDbLine
 10
530.7967374742693
 20
214.3148991630122
 30
0.0
 11
479.6089240517725
 21
243.8681970217192
 31
0.0
  0
LINE
  5
19C
330
47
100
AcDbEntity
  8
1
  6
PHANTOM
 62
     4
100
AcDbLine
 10
466.7131728880875
 20
214.3148991630122
 30
0.0
 11
517.2663117930981
 21
243.5017675182007
 31
0.0
  0
LINE
  5
19D
330
47
100
AcDbEntity
  8
1
  6
Continuous
 62
     7
100
AcDbLine
 10
182.3997128572204
 20
665.3497972076042
 30
0.0
 11
179.1842196523498
 21
665.8017053065966
 31
0.0
  0
LINE
  5
19E
330
47
100
AcDbEntity
  8
1
  6
Continuous
 62
     7
100
AcDbLine
 10
179.18421965235
 20
610.510167048633
 30
0.0
 11
182.3997128572204
 21
610.9620751476255
 31
0.0
  0
LINE
  5
19F
330
47
100
AcDbEntity
  8
1
  6
Continuous
 62
     7
100
AcDbLine
 10
178.6146331018697
 20
665.3065712722258
 30
0.0
 11
178.6146331018697
 21
611.0053010830039
 31
0.0
  0
ARC
  5
1A0
330
47
100
AcDbEntity
  8
1
  6
Continuous
 62
     7
100
AcDbCircle
 10
41.58296702444932
 20
232.9142307952434
 30
0.0
 40
148.6092050572047
100
AcDbArc
 50
1.8509457968689
 51
10.05322763750309
  0
ARC
  5
1A1
330
47
100
AcDbEntity
  8
1
  6
Continuous
 62
     7
100
AcDbCircle
 10
168.5544683368795
 20
230.8653489826332
 30
0.0
 40
21.76119949013533
100
AcDbArc
 50
-21.55679471096808
 51
-7.79411241505203
  0
ARC
  5
1A2
330
47
100
AcDbEntity
  8
1
  6
Continuous
 62
     7
100
AcDbCircle
 10
111.4412998464881
 20
245.8182756537791
 30
0.0
 40
80.64072525632044
100
AcDbArc
 50
-19.97991677911209
 51
-16.80789351475115
  0
ARC
  5
1A3
330
47
100
AcDbEntity
  8
1
  6
Continuous
 62
     7
100
AcDbCircle
 10
477.1043200865675
 20
220.3142307952437
 30
0.0
 40
6.000000000000028
100
AcDbArc
 50
135.0000000000002
 51
-82.47575892105965
  0
ARC
  5
1A4
330
47
100
AcDbEntity
  8
1
  6
Continuous
 62
     7
100
AcDbCircle
 10
498.7549551811784
 20
257.8142307952437
 30
0.0
 40
6.0
100
AcDbArc
 50
90.0
 51
165.0000000000001
  0
ARC
  5
1A5
330
47
100
AcDbEntity
  8
1
  6
Continuous
 62
     7
100
AcDbCircle
 10
520.4055902757893
 20
220.3142307952437
 30
0.0
 40
5.999999999999959
100
AcDbArc
 50
-104.9999999999991
 51
44.99999999999981
  0
ARC
  5
1A6
330
47
100
AcDbEntity
  8
1
  6
Continuous
 62
     7
100
AcDbCircle
 10
498.7549551811784
 20
257.8142307952437
 30
0.0
 40
5.999999999999974
100
AcDbArc
 50
14.99999999999959
 51
90.0
  0
ARC
  5
1A7
330
47
100
AcDbEntity
  8
1
  6
Continuous
 62
     7
100
AcDbCircle
 10
62.48514982365759
 20
633.1920235246615
 30
0.0
 40
127.9252655699529
100
AcDbArc
 50
4.01809278602666
 51
12.29346913758145
  0
ARC
  5
1A8
330
47
100
AcDbEntity
  8
1
  6
Continuous
 62
     7
100
AcDbCircle
 10
62.48514982365731
 20
643.1198488305682
 30
0.0
 40
127.9252655699534
100
AcDbArc
 50
-12.29346913758152
 51
-4.01809278602665
  0
ARC
  5
1A9
330
47
100
AcDbEntity
  8
1
  6
Continuous
 62
     7
100
AcDbCircle
 10
179.1146331018697
 20
263.3142307952434
 30
0.0
 40
0.5
100
AcDbArc
 50
90.0
 51
180.0
  0
ARC
  5
1AA
330
47
100
AcDbEntity
  8
1
  6
Continuous
 62
     7
100
AcDbCircle
 10
182.0015420072371
 20
257.8142307952434
 30
0.0
 40
5.99999999999988
100
AcDbArc
 50
9.99784348756703
 51
90.0
  0
ARC
  5
1AB
330
47
100
AcDbEntity
  8
1
  6
Continuous
 62
     7
100
AcDbCircle
 10
183.1928232388117
 20
225.0219393917528
 30
0.0
 40
5.999999999999838
100
AcDbArc
 50
-24.85597892211822
 51
-21.01999876649112
  0
ARC
  5
1AC
330
47
100
AcDbEntity
  8
1
  6
Continuous
 62
     7
100
AcDbCircle
 10
179.1146331018697
 20
214.8142307952435
 30
0.0
 40
0.5
100
AcDbArc
 50
180.0
 51
-90.0
  0
ARC
  5
1AD
330
47
100
AcDbEntity
  8
1
  6
Continuous
 62
     7
100
AcDbCircle
 10
181.5895825242793
 20
220.3142307952435
 30
0.0
 40
6.0
100
AcDbArc
 50
-90.0
 51
-19.97991677911255
  0
ARC
  5
1AE
330
47
100
AcDbEntity
  8
1
  6
Continuous
 62
     7
100
AcDbCircle
 10
465.1598453547468
 20
252.210376496989
 30
0.0
 40
25.0000000000001
100
AcDbArc
 50
-44.99999999999977
 51
-14.99999999999985
  0
ARC
  5
1AF
330
47
100
AcDbEntity
  8
1
  6
Continuous
 62
     7
100
AcDbCircle
 10
498.7549551811784
 20
194.0219393917531
 30
0.0
 40
25.0
100
AcDbArc
 50
74.99999999999973
 51
104.9999999999999
  0
ARC
  5
1B0
330
47
100
AcDbEntity
  8
1
  6
Continuous
 62
     7
100
AcDbCircle
 10
532.3500650076101
 20
252.210376496989
 30
0.0
 40
25.00000000000002
100
AcDbArc
 50
-165.0000000000001
 51
-135.0000000000001
  0
ARC
  5
1B1
330
47
100
AcDbEntity
  8
1
  6
Continuous
 62
     7
100
AcDbCircle
 10
181.5646742514601
 20
659.4081887951548
 30
0.0
 40
6.000000000000004
100
AcDbArc
 50
9.80290179376699
 51
82.00000000000074
  0
ARC
  5
1B2
330
47
100
AcDbEntity
  8
1
  6
Continuous
 62
     7
100
AcDbCircle
 10
179.1146331018697
 20
665.3065712722258
 30
0.0
 40
0.4999999999999459
100
AcDbArc
 50
81.99999999999177
 51
180.0
  0
ARC
  5
1B3
330
47
100
AcDbEntity
  8
1
  6
Continuous
 62
     7
100
AcDbCircle
 10
179.1146331018697
 20
611.0053010830039
 30
0.0
 40
0.5
100
AcDbArc
 50
180.0
 51
-81.99999999997283
  0
ARC
  5
1B4
330
47
100
AcDbEntity
  8
1
  6
Continuous
 62
     7
100
AcDbCircle
 10
181.5646742514603
 20
616.9036835600749
 30
0.0
 40
5.999999999999992
100
AcDbArc
 50
-82.00000000000277
 51
-9.80290179376945
  0
ENDBLK
  5
49
330
47
100
AcDbEntity
  8
0
100
AcDbBlockEnd
  0
BLOCK
  5
4B
330
4A
100
AcDbEntity
  8
0
100
AcDbBlockBegin
  2
42-1
 70
     0
 71
     0
 10
78.32498409228509
 20
320.918490881847
 30
0.0
  3
42-1
  1

  0
LINE
  5
1B5
330
4A
100
AcDbEntity
  8
1
  6
Continuous
 62
     7
100
AcDbLine
 10
193.0959716260941
 20
645.155936177615
 30
0.0
 11
193.0959716260941
 21
631.155936177615
 31
0.0
  0
LINE
  5
1B6
330
4A
100
AcDbEntity
  8
1
  6
Continuous
 62
     7
100
AcDbLine
 10
193.4257373462979
 20
643.905936177615
 30
0.0
 11
193.4257373462979
 21
632.4059361776152
 31
0.0
  0
LINE
  5
1B7
330
4A
100
AcDbEntity
  8
1
  6
Continuous
 62
     2
100
AcDbLine
 10
192.3383097282655
 20
639.155936177615
 30
0.0
 11
191.073070637655
 21
639.155936177615
 31
0.0
  0
LINE
  5
1B8
330
4A
100
AcDbEntity
  8
1
  6
Continuous
 62
     2
100
AcDbLine
 10
192.5816249379981
 20
640.155936177615
 30
0.0
 11
190.81353441394
 21
640.155936177615
 31
0.0
  0
LINE
  5
1B9
330
4A
100
AcDbEntity
  8
1
  6
Continuous
 62
     2
100
AcDbLine
 10
192.7924981197666
 20
641.155936177615
 30
0.0
 11
190.456672106332
 21
641.155936177615
 31
0.0
  0
LINE
  5
1BA
330
4A
100
AcDbEntity
  8
1
  6
Continuous
 62
     2
100
AcDbLine
 10
192.9060452176419
 20
642.155936177615
 30
0.0
 11
190.2620199385457
 21
642.155936177615
 31
0.0
  0
LINE
  5
1BB
330
4A
100
AcDbEntity
  8
1
  6
Continuous
 62
     2
100
AcDbLine
 10
193.0959716260941
 20
643.155936177615
 30
0.0
 11
190.0959716260941
 21
643.155936177615
 31
0.0
  0
LINE
  5
1BC
330
4A
100
AcDbEntity
  8
1
  6
Continuous
 62
     7
100
AcDbLine
 10
190.0959716260941
 20
645.155936177615
 30
0.0
 11
190.0959716260941
 21
631.155936177615
 31
0.0
  0
LINE
  5
1BD
330
4A
100
AcDbEntity
  8
1
  6
Continuous
 62
     2
100
AcDbLine
 10
193.0959716260941
 20
644.155936177615
 30
0.0
 11
190.0959716260941
 21
644.155936177615
 31
0.0
  0
LINE
  5
1BE
330
4A
100
AcDbEntity
  8
1
  6
Continuous
 62
     7
100
AcDbLine
 10
193.0959716260941
 20
645.155936177615
 30
0.0
 11
193.3652938251174
 21
644.1559361776152
 31
0.0
  0
LINE
  5
1BF
330
4A
100
AcDbEntity
  8
1
  6
Continuous
 62
     7
100
AcDbLine
 10
190.0959716260941
 20
645.155936177615
 30
0.0
 11
193.0959716260941
 21
645.155936177615
 31
0.0
  0
LINE
  5
1C0
330
4A
100
AcDbEntity
  8
1
  6
Continuous
 62
     7
100
AcDbLine
 10
193.0959716260941
 20
631.155936177615
 30
0.0
 11
190.0959716260941
 21
631.155936177615
 31
0.0
  0
LINE
  5
1C1
330
4A
100
AcDbEntity
  8
1
  6
Continuous
 62
     7
100
AcDbLine
 10
193.3652938251174
 20
632.1559361776152
 30
0.0
 11
193.0959716260941
 21
631.155936177615
 31
0.0
  0
LINE
  5
1C2
330
4A
100
AcDbEntity
  8
1
  6
Continuous
 62
     2
100
AcDbLine
 10
190.0959716260941
 20
632.155936177615
 30
0.0
 11
193.0959716260941
 21
632.155936177615
 31
0.0
  0
LINE
  5
1C3
330
4A
100
AcDbEntity
  8
1
  6
Continuous
 62
     2
100
AcDbLine
 10
190.0959716260941
 20
633.1559361776152
 30
0.0
 11
193.0959716260941
 21
633.155936177615
 31
0.0
  0
LINE
  5
1C4
330
4A
100
AcDbEntity
  8
1
  6
Continuous
 62
     2
100
AcDbLine
 10
190.2620199385457
 20
634.1559361776152
 30
0.0
 11
192.9060452176419
 21
634.1559361776152
 31
0.0
  0
LINE
  5
1C5
330
4A
100
AcDbEntity
  8
1
  6
Continuous
 62
     2
100
AcDbLine
 10
190.456672106332
 20
635.1559361776152
 30
0.0
 11
192.7924981197666
 21
635.1559361776152
 31
0.0
  0
LINE
  5
1C6
330
4A
100
AcDbEntity
  8
1
  6
Continuous
 62
     2
100
AcDbLine
 10
190.81353441394
 20
636.1559361776149
 30
0.0
 11
192.5816249379981
 21
636.1559361776149
 31
0.0
  0
LINE
  5
1C7
330
4A
100
AcDbEntity
  8
1
  6
Continuous
 62
     2
100
AcDbLine
 10
191.073070637655
 20
637.1559361776152
 30
0.0
 11
192.3383097282655
 21
637.1559361776152
 31
0.0
  0
LINE
  5
1C8
330
4A
100
AcDbEntity
  8
1
  6
Continuous
 62
     7
100
AcDbLine
 10
193.4443988220736
 20
232.8142307952435
 30
0.0
 11
193.4443988220736
 21
227.0642307952435
 31
0.0
  0
LINE
  5
1C9
330
4A
100
AcDbEntity
  8
1
  6
Continuous
 62
     2
100
AcDbLine
 10
191.0917321134307
 20
231.8142307952435
 30
0.0
 11
192.3569712040411
 21
231.8142307952435
 31
0.0
  0
LINE
  5
1CA
330
4A
100
AcDbEntity
  8
1
  6
Continuous
 62
     2
100
AcDbLine
 10
190.8321958897158
 20
230.8142307952435
 30
0.0
 11
192.6002864137739
 21
230.8142307952435
 31
0.0
  0
LINE
  5
1CB
330
4A
100
AcDbEntity
  8
1
  6
Continuous
 62
     2
100
AcDbLine
 10
190.4753335821077
 20
229.8142307952435
 30
0.0
 11
192.8111595955423
 21
229.8142307952435
 31
0.0
  0
LINE
  5
1CC
330
4A
100
AcDbEntity
  8
1
  6
Continuous
 62
     2
100
AcDbLine
 10
190.2806814143215
 20
228.8142307952435
 30
0.0
 11
192.9247066934176
 21
228.8142307952435
 31
0.0
  0
LINE
  5
1CD
330
4A
100
AcDbEntity
  8
1
  6
Continuous
 62
     2
100
AcDbLine
 10
190.1146331018699
 20
227.8142307952435
 30
0.0
 11
193.1146331018699
 21
227.8142307952435
 31
0.0
  0
LINE
  5
1CE
330
4A
100
AcDbEntity
  8
1
  6
Continuous
 62
     7
100
AcDbLine
 10
193.1146331018699
 20
227.8142307952435
 30
0.0
 11
193.1146331018699
 21
226.8142307952435
 31
0.0
  0
LINE
  5
1CF
330
4A
100
AcDbEntity
  8
1
  6
Continuous
 62
     2
100
AcDbLine
 10
190.1146331018699
 20
226.8142307952435
 30
0.0
 11
193.1146331018699
 21
226.8142307952435
 31
0.0
  0
LINE
  5
1D0
330
4A
100
AcDbEntity
  8
1
  6
Continuous
 62
     7
100
AcDbLine
 10
193.1146331018699
 20
226.8142307952435
 30
0.0
 11
193.1146331018699
 21
225.8142307952435
 31
0.0
  0
LINE
  5
1D1
330
4A
100
AcDbEntity
  8
1
  6
Continuous
 62
     7
100
AcDbLine
 10
193.3839553008931
 20
226.8142307952435
 30
0.0
 11
193.1146331018699
 21
225.8142307952435
 31
0.0
  0
LINE
  5
1D2
330
4A
100
AcDbEntity
  8
1
  6
Continuous
 62
     7
100
AcDbLine
 10
193.1146331018699
 20
225.8142307952435
 30
0.0
 11
190.1146331018699
 21
225.8142307952435
 31
0.0
  0
LINE
  5
1D3
330
4A
100
AcDbEntity
  8
1
  6
Continuous
 62
     7
100
AcDbLine
 10
190.1146331018699
 20
239.8142307952435
 30
0.0
 11
193.1146331018699
 21
239.8142307952435
 31
0.0
  0
LINE
  5
1D4
330
4A
100
AcDbEntity
  8
1
  6
Continuous
 62
     7
100
AcDbLine
 10
193.1146331018699
 20
239.8142307952435
 30
0.0
 11
193.3839553008931
 21
238.8142307952435
 31
0.0
  0
LINE
  5
1D5
330
4A
100
AcDbEntity
  8
1
  6
Continuous
 62
     7
100
AcDbLine
 10
193.1146331018699
 20
239.8142307952435
 30
0.0
 11
193.1146331018699
 21
238.8142307952435
 31
0.0
  0
LINE
  5
1D6
330
4A
100
AcDbEntity
  8
1
  6
Continuous
 62
     2
100
AcDbLine
 10
193.1146331018699
 20
238.8142307952435
 30
0.0
 11
190.1146331018699
 21
238.8142307952435
 31
0.0
  0
LINE
  5
1D7
330
4A
100
AcDbEntity
  8
1
  6
Continuous
 62
     7
100
AcDbLine
 10
193.1146331018699
 20
238.8142307952435
 30
0.0
 11
193.1146331018699
 21
237.8142307952435
 31
0.0
  0
LINE
  5
1D8
330
4A
100
AcDbEntity
  8
1
  6
Continuous
 62
     7
100
AcDbLine
 10
190.1146331018699
 20
239.8142307952435
 30
0.0
 11
190.1146331018699
 21
225.8142307952435
 31
0.0
  0
LINE
  5
1D9
330
4A
100
AcDbEntity
  8
1
  6
Continuous
 62
     2
100
AcDbLine
 10
193.1146331018699
 20
237.8142307952435
 30
0.0
 11
190.1146331018699
 21
237.8142307952435
 31
0.0
  0
LINE
  5
1DA
330
4A
100
AcDbEntity
  8
1
  6
Continuous
 62
     2
100
AcDbLine
 10
192.9247066934176
 20
236.8142307952435
 30
0.0
 11
190.2806814143215
 21
236.8142307952435
 31
0.0
  0
LINE
  5
1DB
330
4A
100
AcDbEntity
  8
1
  6
Continuous
 62
     2
100
AcDbLine
 10
192.8111595955423
 20
235.8142307952435
 30
0.0
 11
190.4753335821077
 21
235.8142307952435
 31
0.0
  0
LINE
  5
1DC
330
4A
100
AcDbEntity
  8
1
  6
Continuous
 62
     2
100
AcDbLine
 10
192.6002864137739
 20
234.8142307952435
 30
0.0
 11
190.8321958897158
 21
234.8142307952435
 31
0.0
  0
LINE
  5
1DD
330
4A
100
AcDbEntity
  8
1
  6
Continuous
 62
     2
100
AcDbLine
 10
192.3569712040411
 20
233.8142307952435
 30
0.0
 11
191.0917321134307
 21
233.8142307952435
 31
0.0
  0
LINE
  5
1DE
330
4A
100
AcDbEntity
  8
1
  6
Continuous
 62
     7
100
AcDbLine
 10
193.4443988220736
 20
238.5642307952434
 30
0.0
 11
193.4443988220736
 21
232.8142307952435
 31
0.0
  0
LINE
  5
1DF
330
4A
100
AcDbEntity
  8
1
  6
Continuous
 62
     7
100
AcDbLine
 10
193.1146331018699
 20
237.8142307952435
 30
0.0
 11
193.1146331018699
 21
227.8142307952435
 31
0.0
  0
ARC
  5
1E0
330
4A
100
AcDbEntity
  8
1
  6
Continuous
 62
     7
100
AcDbCircle
 10
169.0959716260941
 20
638.155936177615
 30
0.0
 40
25.0
100
AcDbArc
 50
0.0
 51
13.88654036262944
  0
ARC
  5
1E1
330
4A
100
AcDbEntity
  8
1
  6
Continuous
 62
     7
100
AcDbCircle
 10
169.0959716260941
 20
638.155936177615
 30
0.0
 40
25.00000000000004
100
AcDbArc
 50
-13.88654036262843
 51
0.0
  0
ARC
  5
1E2
330
4A
100
AcDbEntity
  8
1
  6
Continuous
 62
     7
100
AcDbCircle
 10
169.1146331018699
 20
232.8142307952434
 30
0.0
 40
24.99999999999994
100
AcDbArc
 50
-13.29707174720883
 51
0.00000000000026
  0
ARC
  5
1E3
330
4A
100
AcDbEntity
  8
1
  6
Continuous
 62
     7
100
AcDbCircle
 10
169.1146331018699
 20
232.8142307952434
 30
0.0
 40
24.99999999999996
100
AcDbArc
 50
-13.88654036262875
 51
-13.29707174720883
  0
ARC
  5
1E4
330
4A
100
AcDbEntity
  8
1
  6
Continuous
 62
     7
100
AcDbCircle
 10
169.1146331018699
 20
232.8142307952434
 30
0.0
 40
24.99999999999996
100
AcDbArc
 50
13.29707174720908
 51
13.88654036262925
  0
ARC
  5
1E5
330
4A
100
AcDbEntity
  8
1
  6
Continuous
 62
     7
100
AcDbCircle
 10
169.1146331018699
 20
232.8142307952434
 30
0.0
 40
25.0
100
AcDbArc
 50
0.00000000000026
 51
13.29707174720908
  0
CIRCLE
  5
1E6
330
4A
100
AcDbEntity
  8
0
  6
Continuous
 62
     7
100
AcDbCircle
 10
498.7549551811791
 20
232.8142307952433
 30
0.0
 40
6.999999999999801
  0
CIRCLE
  5
1E7
330
4A
100
AcDbEntity
  8
0
  6
Continuous
 62
     7
100
AcDbCircle
 10
498.7549551811791
 20
232.8142307952433
 30
0.0
 40
5.749999999999261
  0
ENDBLK
  5
4C
330
4A
100
AcDbEntity
  8
0
100
AcDbBlockEnd
  0
BLOCK
  5
50
330
4D
100
AcDbEntity
  8
0
100
AcDbBlockBegin
  2
R20F
 70
     0
 71
     0
 10
270.7131728880874
 20
214.3894565073178
 30
0.0
  3
R20F
  1

  0
INSERT
  5
4E
330
4D
100
AcDbEntity
  8
1
100
AcDbBlockReference
  2
51-1
 10
1588.692513375861
 20
380.7502971535208
 30
0.0
  0
INSERT
  5
4F
330
4D
100
AcDbEntity
  8
0
100
AcDbBlockReference
  2
42-1
 10
78.32498409228509
 20
320.918490881847
 30
0.0
  0
LINE
  5
1E8
330
4D
100
AcDbEntity
  8
1
  6
PHANTOM
 62
     4
100
AcDbLine
 10
174.1146331018699
 20
232.8142307952435
 30
0.0
 11
195.0442568942257
 21
232.8142307952435
 31
0.0
  0
ENDBLK
  5
51
330
4D
100
AcDbEntity
  8
0
100
AcDbBlockEnd
  0
BLOCK
  5
53
330
52
100
AcDbEntity
  8
0
100
AcDbBlockBegin
  2
37-1-13
 70
     0
 71
     0
 10
99.11892721172538
 20
324.6154610120145
 30
0.0
  3
37-1-13
  1

  0
LINE
  5
1E9
330
52
100
AcDbEntity
  8
1
  6
Continuous
 62
     7
100
AcDbLine
 10
168.1853473161414
 20
651.1559361776148
 30
0.0
 11
161.1146331018699
 21
651.1559361776148
 31
0.0
  0
LINE
  5
1EA
330
52
100
AcDbEntity
  8
1
  6
Continuous
 62
     7
100
AcDbLine
 10
175.1146331018699
 20
638.1559361776149
 30
0.0
 11
175.1146331018699
 21
644.1559361776148
 31
0.0
  0
LINE
  5
1EB
330
52
100
AcDbEntity
  8
1
  6
Continuous
 62
     7
100
AcDbLine
 10
161.1146331018699
 20
638.1559361776149
 30
0.0
 11
161.1146331018699
 21
651.1559361776148
 31
0.0
  0
LINE
  5
1EC
330
52
100
AcDbEntity
  8
1
  6
Continuous
 62
     7
100
AcDbLine
 10
168.6146331018699
 20
650.6559361776145
 30
0.0
 11
168.6146331018699
 21
638.1559361776149
 31
0.0
  0
LINE
  5
1ED
330
52
100
AcDbEntity
  8
1
  6
Continuous
 62
     7
100
AcDbLine
 10
161.1146331018699
 20
625.1559361776149
 30
0.0
 11
168.1853473161413
 21
625.1559361776149
 31
0.0
  0
LINE
  5
1EE
330
52
100
AcDbEntity
  8
1
  6
Continuous
 62
     7
100
AcDbLine
 10
175.1146331018699
 20
632.1559361776149
 30
0.0
 11
175.1146331018699
 21
638.1559361776149
 31
0.0
  0
LINE
  5
1EF
330
52
100
AcDbEntity
  8
1
  6
Continuous
 62
     7
100
AcDbLine
 10
161.1146331018699
 20
625.1559361776149
 30
0.0
 11
161.1146331018699
 21
638.1559361776149
 31
0.0
  0
LINE
  5
1F0
330
52
100
AcDbEntity
  8
1
  6
Continuous
 62
     7
100
AcDbLine
 10
168.6146331018699
 20
638.1559361776149
 30
0.0
 11
168.6146331018699
 21
625.6559361776151
 31
0.0
  0
LINE
  5
1F1
330
52
100
AcDbEntity
  8
1
  6
Continuous
 62
     7
100
AcDbLine
 10
175.1146331018699
 20
226.8142307952435
 30
0.0
 11
175.1146331018699
 21
238.8142307952434
 31
0.0
  0
LINE
  5
1F2
330
52
100
AcDbEntity
  8
1
  6
Continuous
 62
     7
100
AcDbLine
 10
161.1146331018699
 20
219.7435165809721
 30
0.0
 11
161.1146331018699
 21
245.884945009515
 31
0.0
  0
LINE
  5
1F3
330
52
100
AcDbEntity
  8
1
  6
Continuous
 62
     7
100
AcDbLine
 10
168.61463310187
 20
245.3142307952433
 30
0.0
 11
168.6146331018699
 21
232.8142307952434
 31
0.0
  0
LINE
  5
1F4
330
52
100
AcDbEntity
  8
1
  6
Continuous
 62
     7
100
AcDbLine
 10
168.6146331018699
 20
232.8142307952434
 30
0.0
 11
168.61463310187
 21
220.3142307952437
 31
0.0
  0
ARC
  5
1F5
330
52
100
AcDbEntity
  8
1
  6
Continuous
 62
     7
100
AcDbCircle
 10
164.6146331018699
 20
647.6559361776148
 30
0.0
 40
4.999999999999863
100
AcDbArc
 50
36.86989764584194
 51
44.4270040008053
  0
ARC
  5
1F6
330
52
100
AcDbEntity
  8
1
  6
Continuous
 62
     7
100
AcDbCircle
 10
188.5210883069848
 20
664.0623913827297
 30
0.0
 40
24.00000000000014
100
AcDbArc
 50
-146.0408074999019
 51
-123.9591925000974
  0
ARC
  5
1F7
330
52
100
AcDbEntity
  8
1
  6
Continuous
 62
     7
100
AcDbCircle
 10
164.6146331018699
 20
628.6559361776149
 30
0.0
 40
4.999999999999975
100
AcDbArc
 50
-44.42700400080598
 51
-36.86989764584194
  0
ARC
  5
1F8
330
52
100
AcDbEntity
  8
1
  6
Continuous
 62
     7
100
AcDbCircle
 10
188.5210883069848
 20
612.2494809725001
 30
0.0
 40
23.99999999999984
100
AcDbArc
 50
123.9591925000977
 51
146.0408074999024
  0
ARC
  5
1F9
330
52
100
AcDbEntity
  8
1
  6
Continuous
 62
     7
100
AcDbCircle
 10
164.6146331018699
 20
242.3142307952434
 30
0.0
 40
5.000000000000017
100
AcDbArc
 50
36.86989764584266
 51
134.4270040008042
  0
ARC
  5
1FA
330
52
100
AcDbEntity
  8
1
  6
Continuous
 62
     7
100
AcDbCircle
 10
188.5210883069848
 20
258.7206860003585
 30
0.0
 40
24.00000000000007
100
AcDbArc
 50
-146.0408074999018
 51
-123.9591925000972
  0
ARC
  5
1FB
330
52
100
AcDbEntity
  8
1
  6
Continuous
 62
     7
100
AcDbCircle
 10
164.6146331018699
 20
223.3142307952435
 30
0.0
 40
4.999999999999975
100
AcDbArc
 50
-134.427004000806
 51
-36.86989764584161
  0
ARC
  5
1FC
330
52
100
AcDbEntity
  8
1
  6
Continuous
 62
     7
100
AcDbCircle
 10
188.5210883069849
 20
206.9077755901286
 30
0.0
 40
24.00000000000001
100
AcDbArc
 50
123.9591925000977
 51
146.0408074999021
  0
SPLINE
  5
1FD
330
52
100
AcDbEntity
  8
0
  6
Continuous
 62
     7
100
AcDbSpline
210
0.0
220
0.0
230
1.0
 70
    11
 71
     3
 72
    79
 73
    75
 74
    73
 42
0.0000000001
 43
0.0000000001
 44
0.00000001
 40
0.0
 40
0.0
 40
0.0
 40
0.0
 40
0.2811775426109088
 40
0.5623408931992998
 40
0.8457466631368504
 40
1.129126830422941
 40
1.415908903032452
 40
1.702658539054697
 40
1.993527432940305
 40
2.284362055943414
 40
2.57951780056436
 40
2.874641782101904
 40
3.173769982296788
 40
3.472872122788168
 40
3.775199692337429
 40
4.077508957859715
 40
4.381905225139494
 40
4.686292091405542
 40
4.991400459519196
 40
5.296508827632736
 40
5.600895693898724
 40
5.905291961178459
 40
6.207601226700745
 40
6.509928796250006
 40
6.809030936741438
 40
7.108159136936308
 40
7.403283118473829
 40
7.698438863094796
 40
7.989273486097925
 40
8.280142379983534
 40
8.566892016005802
 40
8.853674088615327
 40
9.137054255901454
 40
9.420460025838931
 40
9.701623376427246
 40
9.982800919038159
 40
10.26319552186839
 40
10.54359012469861
 40
10.82476766730952
 40
11.10593101789787
 40
11.38933678783542
 40
11.67271695512155
 40
11.95949902773109
 40
12.24624866375332
 40
12.53711755763889
 40
12.82795218064201
 40
13.12310792526302
 40
13.41823190680049
 40
13.71736010699532
 40
14.01646224748678
 40
14.31878981703604
 40
14.62109908255836
 40
14.92549534983809
 40
15.22988221610408
 40
15.53499058421765
 40
15.84009895233128
 40
16.1444858185973
 40
16.44888208587712
 40
16.75119135139942
 40
17.05351892094867
 40
17.35262106144
 40
17.65174926163492
 40
17.94687324317241
 40
18.24202898779338
 40
18.5328636107965
 40
18.82373250468209
 40
19.11048214070438
 40
19.39726421331395
 40
19.6806443806
 40
19.96405015053759
 40
20.24521350112597
 40
20.52639104373688
 40
20.80678564656708
 40
21.08718024939724
 40
21.08718024939724
 40
21.08718024939724
 40
21.08718024939724
 10
168.1012512229884
 20
221.8359756406435
 30
0.0
 10
168.0898001008985
 20
221.929071715734
 30
0.0
 10
168.0668984346973
 20
222.1152591670277
 30
0.0
 10
167.9988611436484
 20
222.3894966203336
 30
0.0
 10
167.9072390146747
 20
222.6572232876407
 30
0.0
 10
167.7896280268902
 20
222.916783775809
 30
0.0
 10
167.648409703671
 20
223.1655180681761
 30
0.0
 10
167.4835877329263
 20
223.4023321729666
 30
0.0
 10
167.2975104357615
 20
223.6245905370336
 30
0.0
 10
167.0904855861503
 20
223.8314459241686
 30
0.0
 10
166.8652867884362
 20
224.0205597276819
 30
0.0
 10
166.6224218829068
 20
224.1912081118328
 30
0.0
 10
166.3649532518966
 20
224.3415254290826
 30
0.0
 10
166.0936753546252
 20
224.4708487644433
 30
0.0
 10
165.8117222007177
 20
224.5778816918817
 30
0.0
 10
165.5202850473481
 20
224.6620288295437
 30
0.0
 10
165.2223471038904
 20
224.7225733382515
 30
0.0
 10
164.91958143909
 20
224.7590605349906
 30
0.0
 10
164.6146331018707
 20
224.7712875913416
 30
0.0
 10
164.3096847646459
 20
224.7590605349909
 30
0.0
 10
164.0069190998624
 20
224.7225733382502
 30
0.0
 10
163.708981156343
 20
224.6620288295483
 30
0.0
 10
163.4175440032023
 20
224.5778816918643
 30
0.0
 10
163.1355908484448
 20
224.4708487645073
 30
0.0
 10
162.8643129543135
 20
224.3415254288465
 30
0.0
 10
162.6068443116615
 20
224.1912081127091
 30
0.0
 10
162.3639794490247
 20
224.0205597244602
 30
0.0
 10
162.1387804924477
 20
223.8314459361245
 30
0.0
 10
161.9317562274442
 20
223.6245904931365
 30
0.0
 10
161.7456767652602
 20
223.402332335914
 30
0.0
 10
161.5808627655064
 20
223.1655174695809
 30
0.0
 10
161.4396148970924
 20
222.916785999939
 30
0.0
 10
161.3221129296385
 20
222.6572150960525
 30
0.0
 10
161.2300859822686
 20
222.3895271047822
 30
0.0
 10
161.1635481546485
 20
222.1151463938991
 30
0.0
 10
161.1236453710361
 20
221.8366553824358
 30
0.0
 10
161.1101332497067
 20
221.5559005460457
 30
0.0
 10
161.123645371036
 20
221.2751457096559
 30
0.0
 10
161.1635481546485
 20
220.9966546981924
 30
0.0
 10
161.2300859822686
 20
220.7222739873093
 30
0.0
 10
161.3221129296384
 20
220.4545859960389
 30
0.0
 10
161.4396148970926
 20
220.1950150921525
 30
0.0
 10
161.5808627655065
 20
219.9462836225106
 30
0.0
 10
161.7456767652602
 20
219.7094687561776
 30
0.0
 10
161.9317562274444
 20
219.4872105989552
 30
0.0
 10
162.1387804924477
 20
219.2803551559668
 30
0.0
 10
162.3639794490247
 20
219.0912413676313
 30
0.0
 10
162.6068443116614
 20
218.9205929793825
 30
0.0
 10
162.8643129543135
 20
218.770275663245
 30
0.0
 10
163.1355908484448
 20
218.6409523275844
 30
0.0
 10
163.4175440032023
 20
218.533919400227
 30
0.0
 10
163.7089811563429
 20
218.4497722625432
 30
0.0
 10
164.0069190998624
 20
218.3892277538413
 30
0.0
 10
164.3096847646461
 20
218.3527405571006
 30
0.0
 10
164.6146331018699
 20
218.3405135007498
 30
0.0
 10
164.9195814390933
 20
218.3527405571005
 30
0.0
 10
165.2223471038782
 20
218.3892277538413
 30
0.0
 10
165.5202850473933
 20
218.449772262543
 30
0.0
 10
165.8117222005504
 20
218.5339194002283
 30
0.0
 10
166.093675355247
 20
218.6409523275797
 30
0.0
 10
166.3649532496034
 20
218.7702756632619
 30
0.0
 10
166.6224218914207
 20
218.9205929793196
 30
0.0
 10
166.8652867571327
 20
219.0912413678623
 30
0.0
 10
167.0904857023199
 20
219.2803551551097
 30
0.0
 10
167.2975100092372
 20
219.4872106021023
 30
0.0
 10
167.4835893161985
 20
219.709468744495
 30
0.0
 10
167.6484038874391
 20
219.9462836654274
 30
0.0
 10
167.7896496375855
 20
220.1950149326917
 30
0.0
 10
167.9071594213439
 20
220.4545865833417
 30
0.0
 10
167.9991573449176
 20
220.7222718017011
 30
0.0
 10
168.0658026778326
 20
220.9966627835569
 30
0.0
 10
168.1053052637793
 20
221.2751155604447
 30
0.0
 10
168.1203070435968
 20
221.5560127176553
 30
0.0
 10
168.1076031631912
 20
221.742654666314
 30
0.0
 10
168.1012512229884
 20
221.8359756406435
 30
0.0
 11
168.1012512229884
 21
221.8359756406435
 31
0.0
 11
168.0613134135245
 21
222.1143023943772
 31
0.0
 11
167.9951761943854
 21
222.3875764289261
 31
0.0
 11
167.9030223727195
 21
222.6555810997553
 31
0.0
 11
167.7862923214449
 21
222.9138027377729
 31
0.0
 11
167.6446933832829
 21
223.1631893811234
 31
0.0
 11
167.4810157827588
 21
223.3986357589795
 31
0.0
 11
167.2943273091823
 21
223.6216876078037
 31
0.0
 11
167.0886930989115
 21
223.8273556643989
 31
0.0
 11
166.8626989447851
 21
224.0172070691434
 31
0.0
 11
166.6212961356628
 21
224.1869800005148
 31
0.0
 11
166.3629970204394
 21
224.3378416829482
 31
0.0
 11
166.0930476090214
 21
224.4666415498798
 31
0.0
 11
165.810414010027
 21
224.5739737818934
 31
0.0
 11
165.5199884959666
 21
224.6579018034558
 31
0.0
 11
165.2216924573256
 21
224.7185364541514
 31
0.0
 11
164.9194969030834
 21
224.7549948050675
 31
0.0
 11
164.6146331018698
 21
224.767208690712
 31
0.0
 11
164.3097693006562
 21
224.7549948050675
 31
0.0
 11
164.0075737464141
 21
224.7185364541515
 31
0.0
 11
163.7092777077732
 21
224.6579018034558
 31
0.0
 11
163.4188521937128
 21
224.5739737818934
 31
0.0
 11
163.1362185947184
 21
224.4666415498797
 31
0.0
 11
162.8662691833003
 21
224.3378416829482
 31
0.0
 11
162.6079700680769
 21
224.1869800005148
 31
0.0
 11
162.3665672589547
 21
224.0172070691434
 31
0.0
 11
162.1405731048283
 21
223.8273556643989
 31
0.0
 11
161.9349388945574
 21
223.6216876078037
 31
0.0
 11
161.7482504209809
 21
223.3986357589795
 31
0.0
 11
161.5845728204568
 21
223.1631893811233
 31
0.0
 11
161.4429738822948
 21
222.9138027377729
 31
0.0
 11
161.3262438310201
 21
222.6555810997552
 31
0.0
 11
161.2340900093543
 21
222.3875764289261
 31
0.0
 11
161.1679527902153
 21
222.1143023943772
 31
0.0
 11
161.1280149807514
 21
221.8359756406435
 31
0.0
 11
161.1146331018699
 21
221.5559005460458
 31
0.0
 11
161.1280149807514
 21
221.2758254514481
 31
0.0
 11
161.1679527902153
 21
220.9974986977144
 31
0.0
 11
161.2340900093543
 21
220.7242246631655
 31
0.0
 11
161.3262438310201
 21
220.4562199923363
 31
0.0
 11
161.4429738822948
 21
220.1979983543186
 31
0.0
 11
161.5845728204569
 21
219.9486117109682
 31
0.0
 11
161.7482504209809
 21
219.713165333112
 31
0.0
 11
161.9349388945575
 21
219.4901134842879
 31
0.0
 11
162.1405731048283
 21
219.2844454276926
 31
0.0
 11
162.3665672589547
 21
219.0945940229481
 31
0.0
 11
162.6079700680769
 21
218.9248210915767
 31
0.0
 11
162.8662691833003
 21
218.7739594091434
 31
0.0
 11
163.1362185947184
 21
218.6451595422118
 31
0.0
 11
163.4188521937128
 21
218.5378273101981
 31
0.0
 11
163.7092777077732
 21
218.4538992886357
 31
0.0
 11
164.0075737464141
 21
218.39326463794
 31
0.0
 11
164.3097693006562
 21
218.356806287024
 31
0.0
 11
164.6146331018698
 21
218.3445924013794
 31
0.0
 11
164.9194969030834
 21
218.356806287024
 31
0.0
 11
165.2216924573256
 21
218.3932646379401
 31
0.0
 11
165.5199884959666
 21
218.4538992886357
 31
0.0
 11
165.810414010027
 21
218.5378273101981
 31
0.0
 11
166.0930476090214
 21
218.6451595422118
 31
0.0
 11
166.3629970204394
 21
218.7739594091433
 31
0.0
 11
166.6212961356628
 21
218.9248210915767
 31
0.0
 11
166.862698944785
 21
219.0945940229481
 31
0.0
 11
167.0886930989115
 21
219.2844454276926
 31
0.0
 11
167.2943273091823
 21
219.4901134842878
 31
0.0
 11
167.4810157827588
 21
219.713165333112
 31
0.0
 11
167.6446933832829
 21
219.9486117109682
 31
0.0
 11
167.7862923214449
 21
220.1979983543187
 31
0.0
 11
167.9030223727196
 21
220.4562199923362
 31
0.0
 11
167.9951761943854
 21
220.7242246631655
 31
0.0
 11
168.0613134135245
 21
220.9974986977144
 31
0.0
 11
168.1012512229884
 21
221.2758254514481
 31
0.0
 11
168.1146331018698
 21
221.5559005460458
 31
0.0
 11
168.1012512229884
 21
221.8359756406435
 31
0.0
  0
SPLINE
  5
1FE
330
52
100
AcDbEntity
  8
0
  6
Continuous
 62
     7
100
AcDbSpline
210
0.0
220
0.0
230
1.0
 70
    11
 71
     3
 72
    79
 73
    75
 74
    73
 42
0.0000000001
 43
0.0000000001
 44
0.00000001
 40
0.0
 40
0.0
 40
0.0
 40
0.0
 40
0.3165105491713322
 40
0.6328929319855412
 40
0.9617431660633147
 40
1.290395356804408
 40
1.637286321305562
 40
1.983975457781543
 40
2.351816485593238
 40
2.719488759026632
 40
3.10842240952199
 40
3.497229809231734
 40
3.905017581393861
 40
4.312718388939217
 40
4.735267628544457
 40
5.157763077150527
 40
5.589677248610242
 40
6.021565830284172
 40
6.4566781857704
 40
6.891790541256571
 40
7.323679122930468
 40
7.75559329439016
 40
8.178088742996245
 40
8.600637982601493
 40
9.008338790146841
 40
9.416126562308916
 40
9.804933962018636
 40
10.19386761251397
 40
10.5615398859474
 40
10.92938091375906
 40
11.27607005023504
 40
11.62296101473623
 40
11.95161320547732
 40
12.2804634395551
 40
12.59684582236934
 40
12.91335637154067
 40
13.22542041382614
 40
13.53748445611156
 40
13.8539950052829
 40
14.1703773880971
 40
14.4992276221749
 40
14.82787981291599
 40
15.17477077741716
 40
15.52145991389312
 40
15.88930094170478
 40
16.25697321513819
 40
16.6459068656335
 40
17.03471426534322
 40
17.4425020375053
 40
17.85020284505069
 40
18.2727520846559
 40
18.695247533262
 40
19.12716170472172
 40
19.55905028639559
 40
19.99416264188176
 40
20.42927499736799
 40
20.86116357904189
 40
21.29307775050166
 40
21.71557319910776
 40
22.13812243871301
 40
22.54582324625844
 40
22.9536110184205
 40
23.34241841813014
 40
23.7313520686255
 40
24.09902434205885
 40
24.46686536987053
 40
24.81355450634649
 40
25.16044547084766
 40
25.4890976615888
 40
25.81794789566661
 40
26.13433027848078
 40
26.45084082765206
 40
26.76290486993751
 40
27.07496891222299
 40
27.07496891222299
 40
27.07496891222299
 40
27.07496891222299
 10
164.3645607265623
 20
237.7941141142781
 30
0.0
 10
164.2602284418714
 20
237.7775487830641
 30
0.0
 10
164.0516061203353
 20
237.7444248285268
 30
0.0
 10
163.7454220222573
 20
237.6456656923197
 30
0.0
 10
163.4481332659561
 20
237.5139634945334
 30
0.0
 10
163.1588733536522
 20
237.3440060687513
 30
0.0
 10
162.883905164398
 20
237.1417847585578
 30
0.0
 10
162.6206752196021
 20
236.9045843398855
 30
0.0
 10
162.3757652685153
 20
236.6390481404845
 30
0.0
 10
162.1463561304494
 20
236.3420939249862
 30
0.0
 10
161.9383319647826
 20
236.0214348944857
 30
0.0
 10
161.7494037727452
 20
235.6739317777287
 30
0.0
 10
161.5841581340744
 20
235.3076932982268
 30
0.0
 10
161.441158696931
 20
234.9202414501552
 30
0.0
 10
161.3234971360964
 20
234.5192481736361
 30
0.0
 10
161.2305231423171
 20
234.1035742754975
 30
0.0
 10
161.1639671545074
 20
233.6797106179502
 30
0.0
 10
161.1236381602014
 20
233.2483411810832
 30
0.0
 10
161.1102620285125
 20
232.8142307952454
 30
0.0
 10
161.1236381602006
 20
232.3801204093959
 30
0.0
 10
161.1639671545106
 20
231.9487509725632
 30
0.0
 10
161.2305231423049
 20
231.5248873148914
 30
0.0
 10
161.3234971361405
 20
231.1092134172072
 30
0.0
 10
161.441158696768
 20
230.7082201390199
 30
0.0
 10
161.5841581346589
 20
230.3207682969651
 30
0.0
 10
161.7494037706036
 20
229.9545297955193
 30
0.0
 10
161.9383319723637
 20
229.6070267570266
 30
0.0
 10
162.1463561027555
 20
229.2863674425755
 30
0.0
 10
162.3757653656295
 20
228.9894142317348
 30
0.0
 10
162.6206748651248
 20
228.7238743971945
 30
0.0
 10
162.8839064033766
 20
228.4866868052327
 30
0.0
 10
163.1588688205199
 20
228.2844190317557
 30
0.0
 10
163.4481492026423
 20
228.1146263801781
 30
0.0
 10
163.7453633530868
 20
227.9823236337974
 30
0.0
 10
164.0518159142297
 20
227.8857255225214
 30
0.0
 10
164.3623153364868
 20
227.8283041077801
 30
0.0
 10
164.6760249790913
 20
227.8084081137802
 30
0.0
 10
164.9897346216958
 20
227.8283041077801
 30
0.0
 10
165.3002340439529
 20
227.8857255225215
 30
0.0
 10
165.6066866050957
 20
227.9823236337975
 30
0.0
 10
165.9039007555403
 20
228.114626380178
 30
0.0
 10
166.1931811376626
 20
228.2844190317557
 30
0.0
 10
166.468143554806
 20
228.4866868052326
 30
0.0
 10
166.7313750930577
 20
228.7238743971945
 30
0.0
 10
166.9762845925529
 20
228.9894142317348
 30
0.0
 10
167.2056938554269
 20
229.2863674425755
 30
0.0
 10
167.4137179858188
 20
229.6070267570266
 30
0.0
 10
167.6026461875788
 20
229.9545297955192
 30
0.0
 10
167.7678918235235
 20
230.3207682969652
 30
0.0
 10
167.9108912614145
 20
230.7082201390199
 30
0.0
 10
168.0285528220418
 20
231.1092134172072
 30
0.0
 10
168.1215268158776
 20
231.5248873148915
 30
0.0
 10
168.1880828036718
 20
231.9487509725631
 30
0.0
 10
168.2284117979821
 20
232.3801204093965
 30
0.0
 10
168.2417879296697
 20
232.8142307952435
 30
0.0
 10
168.2284117979821
 20
233.2483411810898
 30
0.0
 10
168.1880828036715
 20
233.6797106179257
 30
0.0
 10
168.1215268158785
 20
234.1035742755884
 30
0.0
 10
168.0285528220387
 20
234.5192481733052
 30
0.0
 10
167.9108912614262
 20
234.9202414513735
 30
0.0
 10
167.7678918234818
 20
235.3076932938571
 30
0.0
 10
167.6026461877315
 20
235.6739317937389
 30
0.0
 10
167.4137179852783
 20
236.0214348378105
 30
0.0
 10
167.2056938574011
 20
236.34209413202
 30
0.0
 10
166.9762845856302
 20
236.6390474144781
 30
0.0
 10
166.7313751183267
 20
236.9045869898862
 30
0.0
 10
166.468143466485
 20
237.1417754962049
 30
0.0
 10
166.1931814608086
 20
237.3440399575296
 30
0.0
 10
165.9038996194879
 20
237.5138443550964
 30
0.0
 10
165.6066907873488
 20
237.6461042911524
 30
0.0
 10
165.300219088719
 20
237.7428564518745
 30
0.0
 10
164.9897902011247
 20
237.7997100895737
 30
0.0
 10
164.6758207790971
 20
237.8216972085127
 30
0.0
 10
164.4683140774073
 20
237.803308479023
 30
0.0
 10
164.3645607265623
 20
237.7941141142781
 30
0.0
 11
164.3645607265623
 21
237.7941141142781
 31
0.0
 11
164.0533476436517
 21
237.7364483119166
 31
0.0
 11
163.7514240580377
 21
237.6418969470128
 31
0.0
 11
163.4509126399008
 21
237.508347839856
 31
0.0
 11
163.1671649897582
 21
237.3425180068419
 31
0.0
 11
162.8874926108506
 21
237.1372944659683
 31
0.0
 11
162.6295694965836
 21
236.9056287057074
 31
0.0
 11
162.3798271356234
 21
236.6355624640488
 31
0.0
 11
162.1546968991598
 21
236.3448748700901
 31
0.0
 11
161.9426372042981
 21
236.0188379545378
 31
0.0
 11
161.7566316758189
 21
235.6774098692194
 31
0.0
 11
161.5885729190695
 21
235.3058629389336
 31
0.0
 11
161.4471945702089
 21
234.9234598650095
 31
0.0
 11
161.3279532281748
 21
234.5180842833067
 31
0.0
 11
161.2356101327068
 21
234.1058038486361
 31
0.0
 11
161.1684349906695
 21
233.6791454937431
 31
0.0
 11
161.1282079390977
 21
233.2491344109764
 31
0.0
 11
161.1147317779569
 21
232.8142307952434
 31
0.0
 11
161.1282079390977
 21
232.3793271795104
 31
0.0
 11
161.1684349906694
 21
231.9493160967437
 31
0.0
 11
161.2356101327068
 21
231.5226577418508
 31
0.0
 11
161.3279532281747
 21
231.1103773071801
 31
0.0
 11
161.4471945702088
 21
230.7050017254773
 31
0.0
 11
161.5885729190695
 21
230.3225986515532
 31
0.0
 11
161.7566316758189
 21
229.9510517212675
 31
0.0
 11
161.9426372042981
 21
229.6096236359491
 31
0.0
 11
162.1546968991598
 21
229.2835867203968
 31
0.0
 11
162.3798271356234
 21
228.9928991264381
 31
0.0
 11
162.6295694965836
 21
228.7228328847796
 31
0.0
 11
162.8874926108506
 21
228.4911671245187
 31
0.0
 11
163.1671649897582
 21
228.285943583645
 31
0.0
 11
163.4509126399008
 21
228.1201137506309
 31
0.0
 11
163.7514240580377
 21
227.9865646434741
 31
0.0
 11
164.0533476436517
 21
227.8920132785703
 31
0.0
 11
164.3645607265623
 21
227.8343474762087
 31
0.0
 11
164.6760249790913
 21
227.8150087615637
 31
0.0
 11
164.9874892316202
 21
227.8343474762087
 31
0.0
 11
165.2987023145308
 21
227.8920132785703
 31
0.0
 11
165.6006259001449
 21
227.9865646434741
 31
0.0
 11
165.9011373182817
 21
228.1201137506309
 31
0.0
 11
166.1848849684243
 21
228.285943583645
 31
0.0
 11
166.4645573473319
 21
228.4911671245186
 31
0.0
 11
166.7224804615989
 21
228.7228328847796
 31
0.0
 11
166.9722228225591
 21
228.9928991264381
 31
0.0
 11
167.1973530590227
 21
229.2835867203968
 31
0.0
 11
167.4094127538843
 21
229.6096236359491
 31
0.0
 11
167.5954182823635
 21
229.9510517212675
 31
0.0
 11
167.7634770391129
 21
230.3225986515532
 31
0.0
 11
167.9048553879736
 21
230.7050017254773
 31
0.0
 11
168.0240967300077
 21
231.1103773071801
 31
0.0
 11
168.1164398254757
 21
231.5226577418508
 31
0.0
 11
168.1836149675131
 21
231.9493160967438
 31
0.0
 11
168.2238420190848
 21
232.3793271795104
 31
0.0
 11
168.2373181802256
 21
232.8142307952434
 31
0.0
 11
168.2238420190848
 21
233.2491344109764
 31
0.0
 11
168.1836149675131
 21
233.6791454937431
 31
0.0
 11
168.1164398254757
 21
234.1058038486361
 31
0.0
 11
168.0240967300077
 21
234.5180842833068
 31
0.0
 11
167.9048553879736
 21
234.9234598650096
 31
0.0
 11
167.7634770391129
 21
235.3058629389337
 31
0.0
 11
167.5954182823635
 21
235.6774098692195
 31
0.0
 11
167.4094127538843
 21
236.0188379545378
 31
0.0
 11
167.1973530590227
 21
236.3448748700901
 31
0.0
 11
166.9722228225591
 21
236.6355624640488
 31
0.0
 11
166.7224804615989
 21
236.9056287057073
 31
0.0
 11
166.4645573473319
 21
237.1372944659682
 31
0.0
 11
166.1848849684243
 21
237.3425180068419
 31
0.0
 11
165.9011373182817
 21
237.508347839856
 31
0.0
 11
165.6006259001448
 21
237.6418969470128
 31
0.0
 11
165.2987023145308
 21
237.7364483119165
 31
0.0
 11
164.9874892316202
 21
237.7941141142781
 31
0.0
 11
164.6760249790913
 21
237.8134528289233
 31
0.0
 11
164.3645607265623
 21
237.7941141142781
 31
0.0
  0
SPLINE
  5
1FF
330
52
100
AcDbEntity
  8
0
  6
Continuous
 62
     7
100
AcDbSpline
210
0.0
220
0.0
230
1.0
 70
    11
 71
     3
 72
    79
 73
    75
 74
    73
 42
0.0000000001
 43
0.0000000001
 44
0.00000001
 40
0.0
 40
0.0
 40
0.0
 40
0.0
 40
0.2811775426109088
 40
0.5623408931992655
 40
0.84574666313678
 40
1.129126830422804
 40
1.415908903032343
 40
1.702658539054556
 40
1.993527432940182
 40
2.284362055943271
 40
2.579517800564275
 40
2.874641782101763
 40
3.173769982296672
 40
3.472872122788015
 40
3.775199692337286
 40
4.077508957859556
 40
4.381905225139347
 40
4.686292091405398
 40
4.991400459519053
 40
5.296508827632596
 40
5.600895693898591
 40
5.90529196117832
 40
6.207601226700618
 40
6.509928796249863
 40
6.809030936741283
 40
7.108159136936167
 40
7.403283118473671
 40
7.698438863094657
 40
7.989273486097745
 40
8.28014237998331
 40
8.5668920160055
 40
8.853674088615049
 40
9.137054255901175
 40
9.42046002583869
 40
9.70162337642706
 40
9.982800919037965
 40
10.26319552186813
 40
10.54359012469836
 40
10.82476766730924
 40
11.10593101789763
 40
11.3893367878351
 40
11.6727169551212
 40
11.95949902773071
 40
12.24624866375299
 40
12.53711755763856
 40
12.82795218064162
 40
13.12310792526253
 40
13.4182319068001
 40
13.71736010699497
 40
14.01646224748641
 40
14.31878981703569
 40
14.62109908255798
 40
14.9254953498377
 40
15.22988221610376
 40
15.53499058421736
 40
15.84009895233098
 40
16.14448581859696
 40
16.44888208587674
 40
16.75119135139904
 40
17.05351892094825
 40
17.35262106143967
 40
17.65174926163453
 40
17.94687324317204
 40
18.24202898779305
 40
18.53286361079618
 40
18.82373250468178
 40
19.11048214070399
 40
19.39726421331355
 40
19.68064438059965
 40
19.96405015053711
 40
20.24521350112549
 40
20.52639104373634
 40
20.80678564656659
 40
21.08718024939682
 40
21.08718024939682
 40
21.08718024939682
 40
21.08718024939682
 10
168.1012512229884
 20
243.7924859498434
 30
0.0
 10
168.0898001008985
 20
243.6993898747529
 30
0.0
 10
168.0668984346973
 20
243.5132024234592
 30
0.0
 10
167.9988611436484
 20
243.2389649701532
 30
0.0
 10
167.9072390146748
 20
242.9712383028463
 30
0.0
 10
167.7896280268902
 20
242.711677814678
 30
0.0
 10
167.648409703671
 20
242.462943522311
 30
0.0
 10
167.4835877329263
 20
242.2261294175203
 30
0.0
 10
167.2975104357615
 20
242.0038710534535
 30
0.0
 10
167.0904855861503
 20
241.7970156663184
 30
0.0
 10
166.8652867884362
 20
241.607901862805
 30
0.0
 10
166.6224218829068
 20
241.4372534786542
 30
0.0
 10
166.3649532518965
 20
241.2869361614044
 30
0.0
 10
166.0936753546252
 20
241.1576128260438
 30
0.0
 10
165.8117222007177
 20
241.0505798986053
 30
0.0
 10
165.5202850473481
 20
240.9664327609435
 30
0.0
 10
165.2223471038904
 20
240.9058882522356
 30
0.0
 10
164.91958143909
 20
240.8694010554963
 30
0.0
 10
164.6146331018708
 20
240.8571739991453
 30
0.0
 10
164.3096847646459
 20
240.8694010554961
 30
0.0
 10
164.0069190998624
 20
240.9058882522369
 30
0.0
 10
163.708981156343
 20
240.9664327609388
 30
0.0
 10
163.4175440032023
 20
241.0505798986226
 30
0.0
 10
163.1355908484448
 20
241.1576128259798
 30
0.0
 10
162.8643129543135
 20
241.2869361616404
 30
0.0
 10
162.6068443116614
 20
241.437253477778
 30
0.0
 10
162.3639794490246
 20
241.6079018660267
 30
0.0
 10
162.1387804924477
 20
241.7970156543624
 30
0.0
 10
161.9317562274443
 20
242.0038710973505
 30
0.0
 10
161.7456767652602
 20
242.2261292545731
 30
0.0
 10
161.5808627655065
 20
242.462944120906
 30
0.0
 10
161.4396148970926
 20
242.7116755905479
 30
0.0
 10
161.3221129296385
 20
242.9712464944344
 30
0.0
 10
161.2300859822687
 20
243.2389344857047
 30
0.0
 10
161.1635481546484
 20
243.5133151965878
 30
0.0
 10
161.123645371036
 20
243.7918062080512
 30
0.0
 10
161.1101332497067
 20
244.0725610444412
 30
0.0
 10
161.123645371036
 20
244.353315880831
 30
0.0
 10
161.1635481546486
 20
244.6318068922946
 30
0.0
 10
161.2300859822687
 20
244.9061876031775
 30
0.0
 10
161.3221129296385
 20
245.1738755944479
 30
0.0
 10
161.4396148970926
 20
245.4334464983343
 30
0.0
 10
161.5808627655065
 20
245.6821779679761
 30
0.0
 10
161.7456767652602
 20
245.9189928343092
 30
0.0
 10
161.9317562274442
 20
246.1412509915317
 30
0.0
 10
162.1387804924477
 20
246.3481064345198
 30
0.0
 10
162.3639794490246
 20
246.5372202228554
 30
0.0
 10
162.6068443116614
 20
246.7078686111042
 30
0.0
 10
162.8643129543135
 20
246.8581859272416
 30
0.0
 10
163.1355908484448
 20
246.9875092629026
 30
0.0
 10
163.4175440032023
 20
247.0945421902596
 30
0.0
 10
163.708981156343
 20
247.1786893279436
 30
0.0
 10
164.0069190998624
 20
247.2392338366454
 30
0.0
 10
164.3096847646461
 20
247.2757210333863
 30
0.0
 10
164.6146331018699
 20
247.2879480897369
 30
0.0
 10
164.9195814390934
 20
247.2757210333865
 30
0.0
 10
165.2223471038783
 20
247.2392338366454
 30
0.0
 10
165.5202850473933
 20
247.1786893279437
 30
0.0
 10
165.8117222005504
 20
247.0945421902585
 30
0.0
 10
166.0936753552469
 20
246.9875092629071
 30
0.0
 10
166.3649532496034
 20
246.858185927225
 30
0.0
 10
166.6224218914207
 20
246.7078686111672
 30
0.0
 10
166.8652867571327
 20
246.5372202226245
 30
0.0
 10
167.0904857023199
 20
246.348106435377
 30
0.0
 10
167.2975100092372
 20
246.1412509883845
 30
0.0
 10
167.4835893161986
 20
245.9189928459919
 30
0.0
 10
167.6484038874391
 20
245.6821779250594
 30
0.0
 10
167.7896496375854
 20
245.4334466577951
 30
0.0
 10
167.907159421344
 20
245.1738750071451
 30
0.0
 10
167.9991573449175
 20
244.9061897887858
 30
0.0
 10
168.0658026778326
 20
244.63179880693
 30
0.0
 10
168.1053052637793
 20
244.3533460300421
 30
0.0
 10
168.1203070435967
 20
244.0724488728317
 30
0.0
 10
168.1076031631912
 20
243.8858069241728
 30
0.0
 10
168.1012512229884
 20
243.7924859498434
 30
0.0
 11
168.1012512229884
 21
243.7924859498434
 31
0.0
 11
168.0613134135245
 21
243.5141591961097
 31
0.0
 11
167.9951761943854
 21
243.2408851615608
 31
0.0
 11
167.9030223727196
 21
242.9728804907316
 31
0.0
 11
167.7862923214449
 21
242.7146588527141
 31
0.0
 11
167.6446933832829
 21
242.4652722093636
 31
0.0
 11
167.4810157827589
 21
242.2298258315075
 31
0.0
 11
167.2943273091823
 21
242.0067739826833
 31
0.0
 11
167.0886930989115
 21
241.8011059260881
 31
0.0
 11
166.862698944785
 21
241.6112545213436
 31
0.0
 11
166.6212961356628
 21
241.4414815899722
 31
0.0
 11
166.3629970204394
 21
241.2906199075388
 31
0.0
 11
166.0930476090214
 21
241.1618200406073
 31
0.0
 11
165.810414010027
 21
241.0544878085936
 31
0.0
 11
165.5199884959666
 21
240.9705597870312
 31
0.0
 11
165.2216924573256
 21
240.9099251363356
 31
0.0
 11
164.9194969030834
 21
240.8734667854195
 31
0.0
 11
164.6146331018698
 21
240.8612528997749
 31
0.0
 11
164.3097693006562
 21
240.8734667854195
 31
0.0
 11
164.0075737464141
 21
240.9099251363356
 31
0.0
 11
163.7092777077732
 21
240.9705597870312
 31
0.0
 11
163.4188521937128
 21
241.0544878085936
 31
0.0
 11
163.1362185947184
 21
241.1618200406073
 31
0.0
 11
162.8662691833003
 21
241.2906199075388
 31
0.0
 11
162.6079700680769
 21
241.4414815899722
 31
0.0
 11
162.3665672589547
 21
241.6112545213436
 31
0.0
 11
162.1405731048283
 21
241.8011059260881
 31
0.0
 11
161.9349388945575
 21
242.0067739826833
 31
0.0
 11
161.7482504209809
 21
242.2298258315075
 31
0.0
 11
161.5845728204569
 21
242.4652722093636
 31
0.0
 11
161.4429738822949
 21
242.7146588527141
 31
0.0
 11
161.3262438310202
 21
242.9728804907317
 31
0.0
 11
161.2340900093543
 21
243.2408851615609
 31
0.0
 11
161.1679527902152
 21
243.5141591961097
 31
0.0
 11
161.1280149807514
 21
243.7924859498434
 31
0.0
 11
161.1146331018699
 21
244.0725610444411
 31
0.0
 11
161.1280149807514
 21
244.3526361390388
 31
0.0
 11
161.1679527902153
 21
244.6309628927725
 31
0.0
 11
161.2340900093544
 21
244.9042369273214
 31
0.0
 11
161.3262438310202
 21
245.1722415981506
 31
0.0
 11
161.4429738822949
 21
245.4304632361682
 31
0.0
 11
161.5845728204569
 21
245.6798498795186
 31
0.0
 11
161.7482504209809
 21
245.9152962573748
 31
0.0
 11
161.9349388945574
 21
246.138348106199
 31
0.0
 11
162.1405731048283
 21
246.3440161627941
 31
0.0
 11
162.3665672589546
 21
246.5338675675386
 31
0.0
 11
162.6079700680769
 21
246.70364049891
 31
0.0
 11
162.8662691833003
 21
246.8545021813434
 31
0.0
 11
163.1362185947184
 21
246.983302048275
 31
0.0
 11
163.4188521937128
 21
247.0906342802887
 31
0.0
 11
163.7092777077732
 21
247.1745623018511
 31
0.0
 11
164.0075737464141
 21
247.2351969525467
 31
0.0
 11
164.3097693006563
 21
247.2716553034629
 31
0.0
 11
164.6146331018699
 21
247.2838691891074
 31
0.0
 11
164.9194969030835
 21
247.2716553034629
 31
0.0
 11
165.2216924573256
 21
247.2351969525467
 31
0.0
 11
165.5199884959666
 21
247.1745623018511
 31
0.0
 11
165.810414010027
 21
247.0906342802887
 31
0.0
 11
166.0930476090213
 21
246.983302048275
 31
0.0
 11
166.3629970204394
 21
246.8545021813435
 31
0.0
 11
166.6212961356628
 21
246.7036404989102
 31
0.0
 11
166.862698944785
 21
246.5338675675386
 31
0.0
 11
167.0886930989115
 21
246.3440161627942
 31
0.0
 11
167.2943273091823
 21
246.1383481061989
 31
0.0
 11
167.4810157827589
 21
245.9152962573747
 31
0.0
 11
167.6446933832829
 21
245.6798498795186
 31
0.0
 11
167.7862923214449
 21
245.4304632361681
 31
0.0
 11
167.9030223727196
 21
245.1722415981505
 31
0.0
 11
167.9951761943854
 21
244.9042369273214
 31
0.0
 11
168.0613134135245
 21
244.6309628927725
 31
0.0
 11
168.1012512229884
 21
244.3526361390389
 31
0.0
 11
168.1146331018698
 21
244.0725610444411
 31
0.0
 11
168.1012512229884
 21
243.7924859498434
 31
0.0
  0
SPLINE
  5
200
330
52
100
AcDbEntity
  8
1
  6
Continuous
 62
     7
100
AcDbSpline
210
0.0
220
0.0
230
1.0
 70
    11
 71
     3
 72
    79
 73
    75
 74
    73
 42
0.0000000001
 43
0.0000000001
 44
0.00000001
 40
0.0
 40
0.0
 40
0.0
 40
0.0
 40
0.317159865688477
 40
0.6340856861074962
 40
0.9694901489361976
 40
1.304562820901224
 40
1.66612479693904
 40
2.027385866504904
 40
2.418724079015898
 40
2.809836934323411
 40
3.230628787512691
 40
3.651266058867609
 40
4.09801689781893
 40
4.544667758504435
 40
5.011536287768517
 40
5.4783455221467
 40
5.957894801974962
 40
6.437416541840515
 40
6.921284920564547
 40
7.405153299288693
 40
7.884675039154021
 40
8.364224318982396
 40
8.83103355336069
 40
9.297902082624663
 40
9.744552943310159
 40
10.19130378226159
 40
10.61194105361659
 40
11.03273290680589
 40
11.42384576211331
 40
11.81518397462422
 40
12.17644504419024
 40
12.53800702022796
 40
12.87307969219293
 40
13.2084841550217
 40
13.52540997544075
 40
13.8425698411292
 40
14.15305257372687
 40
14.46353530632459
 40
14.78069517201315
 40
15.09762099243226
 40
15.43302545526094
 40
15.76809812722599
 40
16.12966010326383
 40
16.49092117282971
 40
16.88225938534071
 40
17.27337224064811
 40
17.69416409383726
 40
18.11480136519226
 40
18.56155220414368
 40
19.00820306482907
 40
19.47507159409305
 40
19.94188082847125
 40
20.42143010829973
 40
20.90095184816517
 40
21.38482022688932
 40
21.86868860561335
 40
22.34821034547868
 40
22.82775962530717
 40
23.29456885968558
 40
23.76143738894946
 40
24.20808824963476
 40
24.65483908858626
 40
25.07547635994122
 40
25.4962682131304
 40
25.8873810684379
 40
26.27871928094881
 40
26.63998035051477
 40
27.00154232655254
 40
27.33661499851752
 40
27.6720194613463
 40
27.98894528176531
 40
28.30610514745389
 40
28.61658788005161
 40
28.9270706126493
 40
28.9270706126493
 40
28.9270706126493
 40
28.9270706126493
 10
164.340264997095
 20
650.1964097033015
 30
0.0
 10
164.2360166075961
 20
650.1778317721927
 30
0.0
 10
164.0275967577593
 20
650.1406896193922
 30
0.0
 10
163.722559453983
 20
650.0298345464294
 30
0.0
 10
163.4274078088201
 20
649.8828142372217
 30
0.0
 10
163.1397181826869
 20
649.692743128101
 30
0.0
 10
162.8674793557009
 20
649.4676151803614
 30
0.0
 10
162.6060705802078
 20
649.203030923745
 30
0.0
 10
162.3638830150002
 20
648.9079344986899
 30
0.0
 10
162.1362560398815
 20
648.577192142879
 30
0.0
 10
161.9305640939875
 20
648.221066142142
 30
0.0
 10
161.7431827938364
 20
647.8343372945836
 30
0.0
 10
161.5797291955358
 20
647.4276006128432
 30
0.0
 10
161.4379305622345
 20
646.9966150845537
 30
0.0
 10
161.3214936383721
 20
646.5511832242912
 30
0.0
 10
161.229309547146
 20
646.0889502369585
 30
0.0
 10
161.1634283087335
 20
645.6179823147271
 30
0.0
 10
161.1234346582186
 20
645.1384209515354
 30
0.0
 10
161.110212468195
 20
644.6559361776173
 30
0.0
 10
161.1234346582173
 20
644.1734514036846
 30
0.0
 10
161.1634283087384
 20
643.6938900405371
 30
0.0
 10
161.2293095471282
 20
643.2229221181444
 30
0.0
 10
161.3214936384366
 20
642.7606891313978
 30
0.0
 10
161.4379305619983
 20
642.3152572689919
 30
0.0
 10
161.579729196375
 20
641.8842717483707
 30
0.0
 10
161.7431827907768
 20
641.4775350388266
 30
0.0
 10
161.930564104668
 20
641.0908062892577
 30
0.0
 10
162.1362560011148
 20
640.7346799358797
 30
0.0
 10
162.363883148417
 20
640.4039388080221
 30
0.0
 10
162.6060700969646
 20
640.1088379851626
 30
0.0
 10
162.8674810064207
 20
639.8442689472262
 30
0.0
 10
163.1397121912121
 20
639.6190864980222
 30
0.0
 10
163.4274283654047
 20
639.4292047203927
 30
0.0
 10
163.7224842471426
 20
639.2815014598677
 30
0.0
 10
164.0278603955992
 20
639.1730629088817
 30
0.0
 10
164.3370924495367
 20
639.1088803198813
 30
0.0
 10
164.6499902090056
 20
639.0863210914663
 30
0.0
 10
164.9628879684744
 20
639.1088803198815
 30
0.0
 10
165.2721200224121
 20
639.1730629088816
 30
0.0
 10
165.5774961708686
 20
639.281501459868
 30
0.0
 10
165.8725520526066
 20
639.4292047203926
 30
0.0
 10
166.1602682267992
 20
639.6190864980224
 30
0.0
 10
166.4324994115905
 20
639.8442689472262
 30
0.0
 10
166.6939103210468
 20
640.1088379851624
 30
0.0
 10
166.9360972695942
 20
640.4039388080223
 30
0.0
 10
167.1637244168965
 20
640.7346799358797
 30
0.0
 10
167.3694163133432
 20
641.0908062892578
 30
0.0
 10
167.5567976272344
 20
641.4775350388266
 30
0.0
 10
167.7202512216362
 20
641.8842717483706
 30
0.0
 10
167.8620498560129
 20
642.315257268992
 30
0.0
 10
167.9784867795746
 20
642.7606891313974
 30
0.0
 10
168.0706708708831
 20
643.2229221181444
 30
0.0
 10
168.1365521092728
 20
643.6938900405366
 30
0.0
 10
168.176545759794
 20
644.1734514036851
 30
0.0
 10
168.189767949816
 20
644.655936177615
 30
0.0
 10
168.1765457597941
 20
645.1384209515438
 30
0.0
 10
168.1365521092725
 20
645.6179823146953
 30
0.0
 10
168.0706708708842
 20
646.0889502370762
 30
0.0
 10
167.9784867795701
 20
646.5511832238647
 30
0.0
 10
167.8620498560296
 20
646.9966150861181
 30
0.0
 10
167.7202512215764
 20
647.4276006072839
 30
0.0
 10
167.5567976274517
 20
647.8343373148532
 30
0.0
 10
167.3694163125846
 20
648.221066071382
 30
0.0
 10
167.16372441965
 20
648.5771923997127
 30
0.0
 10
166.9360972601179
 20
648.9079336147897
 30
0.0
 10
166.6939103553706
 20
649.2030341252807
 30
0.0
 10
166.4324992943429
 20
649.4676042441737
 30
0.0
 10
166.1602686523632
 20
649.6927828222331
 30
0.0
 10
165.872550592508
 20
649.8826780477498
 30
0.0
 10
165.57750151268
 20
650.0303327994282
 30
0.0
 10
165.2721012966739
 20
650.1389429917753
 30
0.0
 10
164.962957421136
 20
650.2024967232106
 30
0.0
 10
164.649737047627
 20
650.2273567223433
 30
0.0
 10
164.4434223472723
 20
650.2067253763154
 30
0.0
 10
164.340264997095
 20
650.1964097033015
 30
0.0
 11
164.340264997095
 21
650.1964097033015
 31
0.0
 11
164.0297497593109
 21
650.1318289979211
 31
0.0
 11
163.730793943614
 21
650.0266273063508
 31
0.0
 11
163.4306909567833
 21
649.8768462962703
 31
0.0
 11
163.1505542313985
 21
649.6930063914932
 31
0.0
 11
162.8715102729282
 21
649.4630900333158
 31
0.0
 11
162.6170929959156
 21
649.2066111656845
 31
0.0
 11
162.368254343825
 21
648.9045765289341
 31
0.0
 11
162.1460709357979
 21
648.5827010890753
 31
0.0
 11
161.9350462854471
 21
648.218648372213
 31
0.0
 11
161.7512797019061
 21
647.8402761258384
 31
0.0
 11
161.5842176594928
 21
647.4259373923263
 31
0.0
 11
161.4443814187663
 21
647.0017407196253
 31
0.0
 11
161.325953349582
 21
646.5501424290545
 31
0.0
 11
161.234521453885
 21
646.0923749446806
 31
0.0
 11
161.1678599049783
 21
645.6174815359233
 31
0.0
 11
161.1279899739448
 21
645.1396201673203
 31
0.0
 11
161.1146331018699
 21
644.6559361776149
 31
0.0
 11
161.1279899739448
 21
644.1722521879093
 31
0.0
 11
161.1678599049784
 21
643.6943908193066
 31
0.0
 11
161.2345214538851
 21
643.2194974105491
 31
0.0
 11
161.325953349582
 21
642.7617299261751
 31
0.0
 11
161.4443814187663
 21
642.3101316356044
 31
0.0
 11
161.5842176594928
 21
641.8859349629034
 31
0.0
 11
161.7512797019061
 21
641.4715962293913
 31
0.0
 11
161.9350462854471
 21
641.0932239830165
 31
0.0
 11
162.1460709357979
 21
640.7291712661543
 31
0.0
 11
162.368254343825
 21
640.4072958262956
 31
0.0
 11
162.6170929959156
 21
640.1052611895452
 31
0.0
 11
162.8715102729282
 21
639.8487823219138
 31
0.0
 11
163.1505542313985
 21
639.6188659637364
 31
0.0
 11
163.4306909567833
 21
639.4350260589595
 31
0.0
 11
163.730793943614
 21
639.2852450488789
 31
0.0
 11
164.029749759311
 21
639.1800433573086
 31
0.0
 11
164.340264997095
 21
639.1154626519282
 31
0.0
 11
164.6499902090055
 21
639.093787312293
 31
0.0
 11
164.9597154209161
 21
639.1154626519282
 31
0.0
 11
165.2702306587003
 21
639.1800433573086
 31
0.0
 11
165.5691864743972
 21
639.285245048879
 31
0.0
 11
165.8692894612279
 21
639.4350260589595
 31
0.0
 11
166.1494261866127
 21
639.6188659637365
 31
0.0
 11
166.4284701450831
 21
639.848782321914
 31
0.0
 11
166.6828874220957
 21
640.1052611895452
 31
0.0
 11
166.9317260741863
 21
640.4072958262957
 31
0.0
 11
167.1539094822134
 21
640.7291712661544
 31
0.0
 11
167.3649341325641
 21
641.0932239830165
 31
0.0
 11
167.548700716105
 21
641.4715962293913
 31
0.0
 11
167.7157627585184
 21
641.8859349629034
 31
0.0
 11
167.8555989992449
 21
642.3101316356043
 31
0.0
 11
167.9740270684292
 21
642.761729926175
 31
0.0
 11
168.0654589641262
 21
643.2194974105489
 31
0.0
 11
168.1321205130329
 21
643.6943908193065
 31
0.0
 11
168.1719904440665
 21
644.1722521879093
 31
0.0
 11
168.1853473161414
 21
644.6559361776149
 31
0.0
 11
168.1719904440665
 21
645.1396201673203
 31
0.0
 11
168.1321205130329
 21
645.6174815359231
 31
0.0
 11
168.0654589641262
 21
646.0923749446806
 31
0.0
 11
167.9740270684292
 21
646.5501424290547
 31
0.0
 11
167.8555989992448
 21
647.0017407196253
 31
0.0
 11
167.7157627585183
 21
647.4259373923261
 31
0.0
 11
167.548700716105
 21
647.8402761258384
 31
0.0
 11
167.3649341325641
 21
648.2186483722131
 31
0.0
 11
167.1539094822134
 21
648.5827010890753
 31
0.0
 11
166.9317260741863
 21
648.9045765289341
 31
0.0
 11
166.6828874220957
 21
649.2066111656844
 31
0.0
 11
166.4284701450831
 21
649.4630900333158
 31
0.0
 11
166.1494261866127
 21
649.6930063914931
 31
0.0
 11
165.8692894612279
 21
649.8768462962701
 31
0.0
 11
165.5691864743972
 21
650.0266273063508
 31
0.0
 11
165.2702306587003
 21
650.1318289979209
 31
0.0
 11
164.9597154209161
 21
650.1964097033015
 31
0.0
 11
164.6499902090056
 21
650.2180850429365
 31
0.0
 11
164.340264997095
 21
650.1964097033015
 31
0.0
  0
SPLINE
  5
201
330
52
100
AcDbEntity
  8
1
  6
Continuous
 62
     7
100
AcDbSpline
210
0.0
220
0.0
230
1.0
 70
    11
 71
     3
 72
    79
 73
    75
 74
    73
 42
0.0000000001
 43
0.0000000001
 44
0.00000001
 40
0.0
 40
0.0
 40
0.0
 40
0.0
 40
0.3171598656884539
 40
0.6340856861075106
 40
0.9694901489362627
 40
1.304562820901289
 40
1.666124796939033
 40
2.027385866504897
 40
2.418724079015804
 40
2.80983693432341
 40
3.23062878751269
 40
3.651266058867608
 40
4.098016897819035
 40
4.544667758504431
 40
5.011536287768403
 40
5.478345522146698
 40
5.957894801975073
 40
6.437416541840399
 40
6.921284920564545
 40
7.40515329928869
 40
7.884675039154018
 40
8.364224318982393
 40
8.831033553360687
 40
9.29790208262466
 40
9.744552943310264
 40
10.19130378226159
 40
10.61194105361649
 40
11.03273290680569
 40
11.42384576211329
 40
11.8151839746242
 40
12.17644504419006
 40
12.53800702022786
 40
12.87307969219282
 40
13.2084841550216
 40
13.52540997544068
 40
13.84256984112915
 40
14.15305257372681
 40
14.46353530632454
 40
14.7806951720131
 40
15.09762099243221
 40
15.43302545526089
 40
15.76809812722587
 40
16.12966010326371
 40
16.49092117282967
 40
16.88225938534049
 40
17.27337224064799
 40
17.69416409383724
 40
18.11480136519224
 40
18.56155220414366
 40
19.00820306482916
 40
19.47507159409303
 40
19.94188082847133
 40
20.42143010829982
 40
20.90095184816515
 40
21.38482022688918
 40
21.86868860561344
 40
22.34821034547888
 40
22.82775962530726
 40
23.29456885968533
 40
23.76143738894943
 40
24.20808824963496
 40
24.65483908858635
 40
25.07547635994121
 40
25.49626821313058
 40
25.88738106843799
 40
26.27871928094889
 40
26.63998035051469
 40
27.00154232655253
 40
27.33661499851764
 40
27.67201946134632
 40
27.9889452817654
 40
28.30610514745394
 40
28.61658788005166
 40
28.92707061264935
 40
28.92707061264935
 40
28.92707061264935
 40
28.92707061264935
 10
164.340264997095
 20
626.1154626519283
 30
0.0
 10
164.2360166075961
 20
626.134040583037
 30
0.0
 10
164.0275967577593
 20
626.1711827358372
 30
0.0
 10
163.722559453983
 20
626.2820378088006
 30
0.0
 10
163.4274078088202
 20
626.4290581180081
 30
0.0
 10
163.1397181826868
 20
626.6191292271287
 30
0.0
 10
162.8674793557009
 20
626.8442571748685
 30
0.0
 10
162.6060705802078
 20
627.1088414314847
 30
0.0
 10
162.3638830150002
 20
627.4039378565399
 30
0.0
 10
162.1362560398816
 20
627.7346802123508
 30
0.0
 10
161.9305640939875
 20
628.0908062130876
 30
0.0
 10
161.7431827938363
 20
628.4775350606464
 30
0.0
 10
161.5797291955359
 20
628.8842717423866
 30
0.0
 10
161.4379305622344
 20
629.3152572706761
 30
0.0
 10
161.3214936383721
 20
629.7606891309385
 30
0.0
 10
161.229309547146
 20
630.2229221182713
 30
0.0
 10
161.1634283087335
 20
630.6938900405024
 30
0.0
 10
161.1234346582186
 20
631.1734514036946
 30
0.0
 10
161.110212468195
 20
631.6559361776123
 30
0.0
 10
161.1234346582174
 20
632.1384209515454
 30
0.0
 10
161.1634283087383
 20
632.6179823146927
 30
0.0
 10
161.2293095471283
 20
633.0889502370852
 30
0.0
 10
161.3214936384365
 20
633.5511832238321
 30
0.0
 10
161.4379305619984
 20
633.9966150862379
 30
0.0
 10
161.5797291963749
 20
634.4276006068592
 30
0.0
 10
161.7431827907768
 20
634.8343373164031
 30
0.0
 10
161.930564104668
 20
635.2210660659719
 30
0.0
 10
162.1362560011149
 20
635.5771924193498
 30
0.0
 10
162.363883148417
 20
635.9079335472077
 30
0.0
 10
162.6060700969645
 20
636.2030343700674
 30
0.0
 10
162.8674810064207
 20
636.4676034080032
 30
0.0
 10
163.139712191212
 20
636.6927858572075
 30
0.0
 10
163.4274283654047
 20
636.8826676348371
 30
0.0
 10
163.7224842471426
 20
637.0303708953618
 30
0.0
 10
164.0278603955992
 20
637.1388094463481
 30
0.0
 10
164.3370924495367
 20
637.2029920353484
 30
0.0
 10
164.6499902090056
 20
637.2255512637637
 30
0.0
 10
164.9628879684744
 20
637.2029920353482
 30
0.0
 10
165.2721200224121
 20
637.1388094463483
 30
0.0
 10
165.5774961708685
 20
637.0303708953617
 30
0.0
 10
165.8725520526066
 20
636.8826676348371
 30
0.0
 10
166.1602682267992
 20
636.6927858572077
 30
0.0
 10
166.4324994115906
 20
636.4676034080037
 30
0.0
 10
166.6939103210468
 20
636.2030343700674
 30
0.0
 10
166.9360972695943
 20
635.9079335472077
 30
0.0
 10
167.1637244168965
 20
635.5771924193499
 30
0.0
 10
167.3694163133431
 20
635.221066065972
 30
0.0
 10
167.5567976272344
 20
634.8343373164032
 30
0.0
 10
167.7202512216362
 20
634.4276006068592
 30
0.0
 10
167.8620498560128
 20
633.9966150862376
 30
0.0
 10
167.9784867795747
 20
633.5511832238324
 30
0.0
 10
168.0706708708831
 20
633.0889502370851
 30
0.0
 10
168.1365521092729
 20
632.6179823146931
 30
0.0
 10
168.176545759794
 20
632.1384209515446
 30
0.0
 10
168.189767949816
 20
631.6559361776149
 30
0.0
 10
168.1765457597941
 20
631.1734514036858
 30
0.0
 10
168.1365521092725
 20
630.6938900405345
 30
0.0
 10
168.0706708708843
 20
630.2229221181536
 30
0.0
 10
167.97848677957
 20
629.7606891313649
 30
0.0
 10
167.8620498560296
 20
629.3152572691117
 30
0.0
 10
167.7202512215764
 20
628.8842717479457
 30
0.0
 10
167.5567976274517
 20
628.4775350403764
 30
0.0
 10
167.3694163125845
 20
628.0908062838477
 30
0.0
 10
167.1637244196501
 20
627.734679955517
 30
0.0
 10
166.9360972601178
 20
627.40393874044
 30
0.0
 10
166.6939103553708
 20
627.1088382299487
 30
0.0
 10
166.4324992943427
 20
626.8442681110562
 30
0.0
 10
166.1602686523632
 20
626.6190895329966
 30
0.0
 10
165.8725505925081
 20
626.4291943074798
 30
0.0
 10
165.5775015126799
 20
626.2815395558015
 30
0.0
 10
165.272101296674
 20
626.1729293634542
 30
0.0
 10
164.962957421136
 20
626.1093756320192
 30
0.0
 10
164.6497370476269
 20
626.0845156328865
 30
0.0
 10
164.4434223472723
 20
626.1051469789144
 30
0.0
 10
164.340264997095
 20
626.1154626519283
 30
0.0
 11
164.340264997095
 21
626.1154626519283
 31
0.0
 11
164.0297497593109
 21
626.1800433573086
 31
0.0
 11
163.730793943614
 21
626.285245048879
 31
0.0
 11
163.4306909567833
 21
626.4350260589596
 31
0.0
 11
163.1505542313985
 21
626.6188659637367
 31
0.0
 11
162.8715102729282
 21
626.848782321914
 31
0.0
 11
162.6170929959156
 21
627.1052611895452
 31
0.0
 11
162.368254343825
 21
627.4072958262956
 31
0.0
 11
162.1460709357979
 21
627.7291712661545
 31
0.0
 11
161.9350462854471
 21
628.0932239830167
 31
0.0
 11
161.7512797019061
 21
628.4715962293914
 31
0.0
 11
161.5842176594928
 21
628.8859349629036
 31
0.0
 11
161.4443814187663
 21
629.3101316356044
 31
0.0
 11
161.325953349582
 21
629.7617299261751
 31
0.0
 11
161.234521453885
 21
630.2194974105491
 31
0.0
 11
161.1678599049783
 21
630.6943908193066
 31
0.0
 11
161.1279899739448
 21
631.1722521879093
 31
0.0
 11
161.1146331018699
 21
631.6559361776149
 31
0.0
 11
161.1279899739448
 21
632.1396201673205
 31
0.0
 11
161.1678599049784
 21
632.6174815359232
 31
0.0
 11
161.2345214538851
 21
633.0923749446806
 31
0.0
 11
161.325953349582
 21
633.5501424290546
 31
0.0
 11
161.4443814187663
 21
634.0017407196253
 31
0.0
 11
161.5842176594928
 21
634.4259373923264
 31
0.0
 11
161.7512797019061
 21
634.8402761258385
 31
0.0
 11
161.9350462854471
 21
635.2186483722131
 31
0.0
 11
162.1460709357979
 21
635.5827010890753
 31
0.0
 11
162.368254343825
 21
635.9045765289342
 31
0.0
 11
162.6170929959156
 21
636.2066111656845
 31
0.0
 11
162.8715102729282
 21
636.4630900333158
 31
0.0
 11
163.1505542313985
 21
636.6930063914932
 31
0.0
 11
163.4306909567833
 21
636.8768462962702
 31
0.0
 11
163.730793943614
 21
637.0266273063508
 31
0.0
 11
164.029749759311
 21
637.1318289979212
 31
0.0
 11
164.340264997095
 21
637.1964097033017
 31
0.0
 11
164.6499902090055
 21
637.2180850429368
 31
0.0
 11
164.9597154209161
 21
637.1964097033016
 31
0.0
 11
165.2702306587003
 21
637.1318289979212
 31
0.0
 11
165.5691864743972
 21
637.0266273063508
 31
0.0
 11
165.8692894612279
 21
636.8768462962703
 31
0.0
 11
166.1494261866127
 21
636.6930063914933
 31
0.0
 11
166.4284701450831
 21
636.4630900333159
 31
0.0
 11
166.6828874220957
 21
636.2066111656845
 31
0.0
 11
166.9317260741863
 21
635.9045765289343
 31
0.0
 11
167.1539094822134
 21
635.5827010890755
 31
0.0
 11
167.3649341325641
 21
635.2186483722132
 31
0.0
 11
167.548700716105
 21
634.8402761258385
 31
0.0
 11
167.7157627585184
 21
634.4259373923263
 31
0.0
 11
167.8555989992449
 21
634.0017407196253
 31
0.0
 11
167.9740270684292
 21
633.5501424290547
 31
0.0
 11
168.0654589641262
 21
633.0923749446807
 31
0.0
 11
168.1321205130329
 21
632.6174815359232
 31
0.0
 11
168.1719904440665
 21
632.1396201673205
 31
0.0
 11
168.1853473161414
 21
631.655936177615
 31
0.0
 11
168.1719904440665
 21
631.1722521879093
 31
0.0
 11
168.1321205130329
 21
630.6943908193065
 31
0.0
 11
168.0654589641262
 21
630.219497410549
 31
0.0
 11
167.9740270684292
 21
629.7617299261752
 31
0.0
 11
167.8555989992448
 21
629.3101316356044
 31
0.0
 11
167.7157627585183
 21
628.8859349629034
 31
0.0
 11
167.548700716105
 21
628.4715962293913
 31
0.0
 11
167.3649341325641
 21
628.0932239830166
 31
0.0
 11
167.1539094822134
 21
627.7291712661543
 31
0.0
 11
166.9317260741863
 21
627.4072958262956
 31
0.0
 11
166.6828874220957
 21
627.1052611895452
 31
0.0
 11
166.4284701450831
 21
626.8487823219141
 31
0.0
 11
166.1494261866127
 21
626.6188659637367
 31
0.0
 11
165.8692894612279
 21
626.4350260589595
 31
0.0
 11
165.5691864743972
 21
626.285245048879
 31
0.0
 11
165.2702306587003
 21
626.1800433573086
 31
0.0
 11
164.9597154209161
 21
626.1154626519283
 31
0.0
 11
164.6499902090056
 21
626.0937873122932
 31
0.0
 11
164.340264997095
 21
626.1154626519283
 31
0.0
  0
ENDBLK
  5
54
330
52
100
AcDbEntity
  8
0
100
AcDbBlockEnd
  0
BLOCK
  5
56
330
55
100
AcDbEntity
  8
0
100
AcDbBlockBegin
  2
36-1A-13-M4
 70
     0
 71
     0
 10
118.0455070924337
 20
335.1963568046797
 30
0.0
  3
36-1A-13-M4
  1

  0
LINE
  5
202
330
55
100
AcDbEntity
  8
1
  6
Continuous
 62
     7
100
AcDbLine
 10
175.1146331018699
 20
642.905936177615
 30
0.0
 11
178.6146331018697
 21
642.905936177615
 31
0.0
  0
LINE
  5
203
330
55
100
AcDbEntity
  8
1
  6
Continuous
 62
     7
100
AcDbLine
 10
178.6146331018697
 20
633.405936177615
 30
0.0
 11
175.1146331018699
 21
633.405936177615
 31
0.0
  0
LINE
  5
204
330
55
100
AcDbEntity
  8
1
  6
Continuous
 62
     7
100
AcDbLine
 10
175.1146331018699
 20
237.5642307952435
 30
0.0
 11
178.6146331018697
 21
237.5642307952435
 31
0.0
  0
LINE
  5
205
330
55
100
AcDbEntity
  8
1
  6
Continuous
 62
     7
100
AcDbLine
 10
178.6146331018697
 20
228.0642307952434
 30
0.0
 11
175.1146331018699
 21
228.0642307952434
 31
0.0
  0
ENDBLK
  5
57
330
55
100
AcDbEntity
  8
0
100
AcDbBlockEnd
  0
BLOCK
  5
5C
330
58
100
AcDbEntity
  8
0
100
AcDbBlockBegin
  2
R10A-13
 70
     0
 71
     0
 10
261.6146331018699
 20
187.8142307952435
 30
0.0
  3
R10A-13
  1

  0
INSERT
  5
59
330
58
100
AcDbEntity
  8
0
100
AcDbBlockReference
  2
R20F
 10
270.7131728880874
 20
214.3894565073178
 30
0.0
  0
INSERT
  5
5A
330
58
100
AcDbEntity
  8
0
100
AcDbBlockReference
  2
37-1-13
 10
99.11892721172538
 20
324.6154610120145
 30
0.0
  0
INSERT
  5
5B
330
58
100
AcDbEntity
  8
0
100
AcDbBlockReference
  2
36-1A-13-M4
 10
118.0455070924337
 20
335.1963568046797
 30
0.0
  0
LINE
  5
206
330
58
100
AcDbEntity
  8
1
  6
PHANTOM
 62
     4
100
AcDbLine
 10
163.1146331018699
 20
232.8142307952435
 30
0.0
 11
174.1146331018699
 21
232.8142307952435
 31
0.0
  0
ENDBLK
  5
5D
330
58
100
AcDbEntity
  8
0
100
AcDbBlockEnd
  0
BLOCK
  5
228
330
220
100
AcDbEntity
  8
0
100
AcDbBlockBegin
  2
*D012
 70
     1
 71
     0
 10
0.0
 20
0.0
 30
0.0
  3
*D012
  1

  0
LINE
  5
221
330
220
100
AcDbEntity
  8
0
  6
Continuous
 62
     2
100
AcDbLine
 10
194.1146331018699
 20
155.8142307952437
 30
0.0
 11
256.496928311708
 21
155.8142307952437
 31
0.0
  0
LINE
  5
222
330
220
100
AcDbEntity
  8
0
  6
Continuous
 62
     2
100
AcDbLine
 10
135.6146331018699
 20
155.8142307952437
 30
0.0
 11
194.1146331018699
 21
155.8142307952437
 31
0.0
  0
LINE
  5
223
330
220
100
AcDbEntity
  8
0
  6
Continuous
 62
     2
100
AcDbLine
 10
135.6146331018699
 20
206.8142307952435
 30
0.0
 11
135.6146331018699
 21
152.8142307952437
 31
0.0
  0
LINE
  5
224
330
220
100
AcDbEntity
  8
0
  6
Continuous
 62
     2
100
AcDbLine
 10
194.1146331018699
 20
232.8142307952435
 30
0.0
 11
194.1146331018699
 21
152.8142307952437
 31
0.0
  0
SOLID
  5
225
330
220
100
AcDbEntity
  8
0
 62
     2
100
AcDbTrace
 10
146.1146331018699
 20
157.1965820199114
 30
0.0
 11
146.1146331018699
 21
154.4318795705761
 31
0.0
 12
135.6146331018699
 22
155.8142307952437
 32
0.0
 13
135.6146331018699
 23
155.8142307952437
 33
0.0
  0
SOLID
  5
226
330
220
100
AcDbEntity
  8
0
 62
     2
100
AcDbTrace
 10
183.6146331018699
 20
154.4318795705761
 30
0.0
 11
183.6146331018699
 21
157.1965820199114
 31
0.0
 12
194.1146331018699
 22
155.8142307952437
 32
0.0
 13
194.1146331018699
 23
155.8142307952437
 33
0.0
  0
MTEXT
  5
227
330
220
100
AcDbEntity
  8
0
 62
     7
100
AcDbMText
 10
199.796928311708
 20
158.8142307952437
 30
0.0
 40
10.5
 41
0.0
 71
     7
 72
     1
  1
59リフト5
  7
CONVERTER_1
 11
0.9999999999970621
 21
2.424068405545307E-6
 31
0.0
 73
     1
 44
0.60024009603842
  0
ENDBLK
  5
229
330
220
100
AcDbEntity
  8
0
100
AcDbBlockEnd
  0
BLOCK
  5
233
330
22C
100
AcDbEntity
  8
0
100
AcDbBlockBegin
  2
*D113
 70
     1
 71
     0
 10
0.0
 20
0.0
 30
0.0
  3
*D113
  1

  0
LINE
  5
22D
330
22C
100
AcDbEntity
  8
0
  6
Continuous
 62
     2
100
AcDbLine
 10
220.1049551811784
 20
232.8142307952431
 30
0.0
 11
220.1049551811784
 21
300.3142307952437
 31
0.0
  0
LINE
  5
22E
330
22C
100
AcDbEntity
  8
0
  6
Continuous
 62
     2
100
AcDbLine
 10
285.7549551811784
 20
300.3142307952437
 30
0.0
 11
217.1049551811784
 21
300.3142307952437
 31
0.0
  0
LINE
  5
22F
330
22C
100
AcDbEntity
  8
0
  6
Continuous
 62
     2
100
AcDbLine
 10
471.8144836829435
 20
232.8142307952431
 30
0.0
 11
217.1049551811784
 21
232.8142307952431
 31
0.0
  0
SOLID
  5
230
330
22C
100
AcDbEntity
  8
0
 62
     2
100
AcDbTrace
 10
218.7226039565108
 20
243.3142307952431
 30
0.0
 11
221.4873064058461
 21
243.3142307952431
 31
0.0
 12
220.1049551811784
 22
232.8142307952431
 32
0.0
 13
220.1049551811784
 23
232.8142307952431
 33
0.0
  0
SOLID
  5
231
330
22C
100
AcDbEntity
  8
0
 62
     2
100
AcDbTrace
 10
221.4873064058461
 20
289.8142307952437
 30
0.0
 11
218.7226039565108
 21
289.8142307952437
 31
0.0
 12
220.1049551811784
 22
300.3142307952437
 32
0.0
 13
220.1049551811784
 23
300.3142307952437
 33
0.0
  0
MTEXT
  5
232
330
22C
100
AcDbEntity
  8
0
 62
     7
100
AcDbMText
 10
217.1049551811784
 20
259.4392307952436
 30
0.0
 40
10.5
 41
0.0
 71
     7
 72
     1
  1
68
  7
CONVERTER_2
 11
0.0
 21
1.0
 31
0.0
 73
     1
 44
0.60024009603842
  0
ENDBLK
  5
234
330
22C
100
AcDbEntity
  8
0
100
AcDbBlockEnd
  0
BLOCK
  5
23E
330
237
100
AcDbEntity
  8
0
100
AcDbBlockBegin
  2
*D214
 70
     1
 71
     0
 10
0.0
 20
0.0
 30
0.0
  3
*D214
  1

  0
LINE
  5
238
330
237
100
AcDbEntity
  8
0
  6
Continuous
 62
     2
100
AcDbLine
 10
297.4049551811784
 20
232.8142307952431
 30
0.0
 11
297.4049551811784
 21
267.3142307952436
 31
0.0
  0
LINE
  5
239
330
237
100
AcDbEntity
  8
0
  6
Continuous
 62
     2
100
AcDbLine
 10
266.1413621871645
 20
267.3142307952436
 30
0.0
 11
300.4049551811784
 21
267.3142307952436
 31
0.0
  0
LINE
  5
23A
330
237
100
AcDbEntity
  8
0
  6
Continuous
 62
     2
100
AcDbLine
 10
471.8144836829436
 20
232.8142307952431
 30
0.0
 11
294.4049551811784
 21
232.8142307952431
 31
0.0
  0
SOLID
  5
23B
330
237
100
AcDbEntity
  8
0
 62
     2
100
AcDbTrace
 10
296.0226039565108
 20
243.3142307952431
 30
0.0
 11
298.7873064058461
 21
243.3142307952431
 31
0.0
 12
297.4049551811784
 22
232.8142307952431
 32
0.0
 13
297.4049551811784
 23
232.8142307952431
 33
0.0
  0
SOLID
  5
23C
330
237
100
AcDbEntity
  8
0
 62
     2
100
AcDbTrace
 10
298.7873064058461
 20
256.8142307952436
 30
0.0
 11
296.0226039565108
 21
256.8142307952436
 31
0.0
 12
297.4049551811784
 22
267.3142307952436
 32
0.0
 13
297.4049551811784
 23
267.3142307952436
 33
0.0
  0
MTEXT
  5
23D
330
237
100
AcDbEntity
  8
0
 62
     7
100
AcDbMText
 10
294.4049551811784
 20
242.1892307952433
 30
0.0
 40
10.5
 41
0.0
 71
     7
 72
     1
  1
35
  7
CONVERTER_2
 11
0.0
 21
1.0
 31
0.0
 73
     1
 44
0.60024009603842
  0
ENDBLK
  5
23F
330
237
100
AcDbEntity
  8
0
100
AcDbBlockEnd
  0
BLOCK
  5
249
330
242
100
AcDbEntity
  8
0
100
AcDbBlockBegin
  2
*D315
 70
     1
 71
     0
 10
0.0
 20
0.0
 30
0.0
  3
*D315
  1

  0
LINE
  5
243
330
242
100
AcDbEntity
  8
1
  6
Continuous
 62
     2
100
AcDbLine
 10
498.7549551811784
 20
179.8142307952437
 30
0.0
 11
543.7549551811784
 21
179.8142307952437
 31
0.0
  0
LINE
  5
244
330
242
100
AcDbEntity
  8
1
  6
Continuous
 62
     2
100
AcDbLine
 10
543.7549551811784
 20
209.8142307952437
 30
0.0
 11
543.7549551811784
 21
176.8142307952437
 31
0.0
  0
LINE
  5
245
330
242
100
AcDbEntity
  8
1
  6
Continuous
 62
     2
100
AcDbLine
 10
498.7549551811784
 20
215.8142307952437
 30
0.0
 11
498.7549551811784
 21
176.8142307952437
 31
0.0
  0
SOLID
  5
246
330
242
100
AcDbEntity
  8
1
 62
     2
100
AcDbTrace
 10
509.2549551811784
 20
181.1965820199114
 30
0.0
 11
509.2549551811784
 21
178.4318795705761
 31
0.0
 12
498.7549551811784
 22
179.8142307952437
 32
0.0
 13
498.7549551811784
 23
179.8142307952437
 33
0.0
  0
SOLID
  5
247
330
242
100
AcDbEntity
  8
1
 62
     2
100
AcDbTrace
 10
533.2549551811784
 20
178.4318795705761
 30
0.0
 11
533.2549551811784
 21
181.1965820199114
 31
0.0
 12
543.7549551811784
 22
179.8142307952437
 32
0.0
 13
543.7549551811784
 23
179.8142307952437
 33
0.0
  0
MTEXT
  5
248
330
242
100
AcDbEntity
  8
1
 62
     7
100
AcDbMText
 10
513.3799551811787
 20
182.8142307952437
 30
0.0
 40
10.5
 41
0.0
 71
     7
 72
     1
  1
45
  7
CONVERTER_2
 11
0.9999999999970621
 21
2.424068405545307E-6
 31
0.0
 73
     1
 44
0.60024009603842
  0
ENDBLK
  5
24A
330
242
100
AcDbEntity
  8
0
100
AcDbBlockEnd
  0
BLOCK
  5
254
330
24D
100
AcDbEntity
  8
0
100
AcDbBlockBegin
  2
*D416
 70
     1
 71
     0
 10
0.0
 20
0.0
 30
0.0
  3
*D416
  1

  0
LINE
  5
24E
330
24D
100
AcDbEntity
  8
1
  6
Continuous
 62
     2
100
AcDbLine
 10
258.7549551811784
 20
179.8142307952437
 30
0.0
 11
498.7549551811784
 21
179.8142307952437
 31
0.0
  0
LINE
  5
24F
330
24D
100
AcDbEntity
  8
1
  6
Continuous
 62
     2
100
AcDbLine
 10
498.7549551811784
 20
215.8142307952437
 30
0.0
 11
498.7549551811784
 21
176.8142307952437
 31
0.0
  0
LINE
  5
250
330
24D
100
AcDbEntity
  8
1
  6
Continuous
 62
     2
100
AcDbLine
 10
258.7549551811784
 20
264.3142307952436
 30
0.0
 11
258.7549551811784
 21
176.8142307952437
 31
0.0
  0
SOLID
  5
251
330
24D
100
AcDbEntity
  8
1
 62
     2
100
AcDbTrace
 10
269.2549551811784
 20
181.1965820199114
 30
0.0
 11
269.2549551811784
 21
178.4318795705761
 31
0.0
 12
258.7549551811784
 22
179.8142307952437
 32
0.0
 13
258.7549551811784
 23
179.8142307952437
 33
0.0
  0
SOLID
  5
252
330
24D
100
AcDbEntity
  8
1
 62
     2
100
AcDbTrace
 10
488.2549551811784
 20
178.4318795705761
 30
0.0
 11
488.2549551811784
 21
181.1965820199114
 31
0.0
 12
498.7549551811784
 22
179.8142307952437
 32
0.0
 13
498.7549551811784
 23
179.8142307952437
 33
0.0
  0
MTEXT
  5
253
330
24D
100
AcDbEntity
  8
1
 62
     7
100
AcDbMText
 10
366.1549551811787
 20
182.8142307952437
 30
0.0
 40
10.5
 41
0.0
 71
     7
 72
     1
  1
240
  7
CONVERTER_2
 11
0.9999999999970621
 21
2.424068405545307E-6
 31
0.0
 73
     1
 44
0.60024009603842
  0
ENDBLK
  5
255
330
24D
100
AcDbEntity
  8
0
100
AcDbBlockEnd
  0
BLOCK
  5
25F
330
258
100
AcDbEntity
  8
0
100
AcDbBlockBegin
  2
*D517
 70
     1
 71
     0
 10
0.0
 20
0.0
 30
0.0
  3
*D517
  1

  0
LINE
  5
259
330
258
100
AcDbEntity
  8
1
  6
Continuous
 62
     2
100
AcDbLine
 10
587.7549551811783
 20
255.8142307952436
 30
0.0
 11
587.7549551811783
 21
209.8142307952437
 31
0.0
  0
LINE
  5
25A
330
258
100
AcDbEntity
  8
1
  6
Continuous
 62
     2
100
AcDbLine
 10
543.7549551811784
 20
255.8142307952436
 30
0.0
 11
590.7549551811783
 21
255.8142307952436
 31
0.0
  0
LINE
  5
25B
330
258
100
AcDbEntity
  8
1
  6
Continuous
 62
     2
100
AcDbLine
 10
543.7549551811784
 20
209.8142307952437
 30
0.0
 11
590.7549551811783
 21
209.8142307952437
 31
0.0
  0
SOLID
  5
25C
330
258
100
AcDbEntity
  8
1
 62
     2
100
AcDbTrace
 10
589.137306405846
 20
245.3142307952436
 30
0.0
 11
586.3726039565106
 21
245.3142307952436
 31
0.0
 12
587.7549551811783
 22
255.8142307952436
 32
0.0
 13
587.7549551811783
 23
255.8142307952436
 33
0.0
  0
SOLID
  5
25D
330
258
100
AcDbEntity
  8
1
 62
     2
100
AcDbTrace
 10
586.3726039565106
 20
220.3142307952437
 30
0.0
 11
589.137306405846
 21
220.3142307952437
 31
0.0
 12
587.7549551811783
 22
209.8142307952437
 32
0.0
 13
587.7549551811783
 23
209.8142307952437
 33
0.0
  0
MTEXT
  5
25E
330
258
100
AcDbEntity
  8
1
 62
     7
100
AcDbMText
 10
584.7549551811783
 20
214.0192307952437
 30
0.0
 40
10.5
 41
0.0
 71
     7
 72
     1
  1
\C7;{\Fgdt;n}\C7;46
  7
CONVERTER_2
 11
0.0
 21
1.0
 31
0.0
 73
     1
 44
0.60024009603842
  0
ENDBLK
  5
260
330
258
100
AcDbEntity
  8
0
100
AcDbBlockEnd
  0
BLOCK
  5
26A
330
263
100
AcDbEntity
  8
0
100
AcDbBlockBegin
  2
*D618
 70
     1
 71
     0
 10
0.0
 20
0.0
 30
0.0
  3
*D618
  1

  0
LINE
  5
264
330
263
100
AcDbEntity
  8
1
  6
Continuous
 62
     2
100
AcDbLine
 10
579.8942932483619
 20
179.8142307952437
 30
0.0
 11
557.7549551811784
 21
179.8142307952437
 31
0.0
  0
LINE
  5
265
330
263
100
AcDbEntity
  8
1
  6
Continuous
 62
     2
100
AcDbLine
 10
557.7549551811784
 20
179.8142307952437
 30
0.0
 11
543.7549551811784
 21
179.8142307952437
 31
0.0
  0
LINE
  5
266
330
263
100
AcDbEntity
  8
1
  6
Continuous
 62
     2
100
AcDbLine
 10
543.7549551811784
 20
209.8142307952437
 30
0.0
 11
543.7549551811784
 21
176.8142307952437
 31
0.0
  0
LINE
  5
267
330
263
100
AcDbEntity
  8
1
  6
Continuous
 62
     2
100
AcDbLine
 10
557.7549551811784
 20
223.3142307952437
 30
0.0
 11
557.7549551811784
 21
176.8142307952437
 31
0.0
  0
SOLID
  5
268
330
263
100
AcDbEntity
  8
1
 62
     2
100
AcDbTrace
 10
568.2549551811784
 20
181.1965820199114
 30
0.0
 11
568.2549551811784
 21
178.4318795705761
 31
0.0
 12
557.7549551811784
 22
179.8142307952437
 32
0.0
 13
557.7549551811784
 23
179.8142307952437
 33
0.0
  0
MTEXT
  5
269
330
263
100
AcDbEntity
  8
1
 62
     7
100
AcDbMText
 10
567.294293248362
 20
182.8142307952437
 30
0.0
 40
10.5
 41
0.0
 71
     7
 72
     1
  1
14
  7
CONVERTER_2
 11
0.9999999999970621
 21
2.424068405545307E-6
 31
0.0
 73
     1
 44
0.60024009603842
  0
ENDBLK
  5
26B
330
263
100
AcDbEntity
  8
0
100
AcDbBlockEnd
  0
BLOCK
  5
26D
330
26C
100
AcDbEntity
  8
0
100
AcDbBlockBegin
  2
_None
 70
     0
 71
     0
 10
0.0
 20
0.0
 30
0.0
  3
_None
  1

  0
ENDBLK
  5
26E
330
26C
100
AcDbEntity
  8
0
100
AcDbBlockEnd
  0
ENDSEC
  0
SECTION
  2
ENTITIES
  0
INSERT
  5
5E
330
1F
100
AcDbEntity
  8
1
100
AcDbBlockReference
  2
_J__A4
 10
0.0
 20
0.0
 30
0.0
 41
3.0
 42
3.0
 43
3.0
  0
INSERT
  5
5F
330
1F
100
AcDbEntity
  8
1
100
AcDbBlockReference
  2
A20J-60X-16
 10
162.7231557767677
 20
250.3142307952434
 30
0.0
  0
INSERT
  5
60
330
1F
100
AcDbEntity
  8
1
100
AcDbBlockReference
  2
A20-0-13
 10
238.6146331018699
 20
209.8142307952434
 30
0.0
  0
INSERT
  5
61
330
1F
100
AcDbEntity
  8
0
100
AcDbBlockReference
  2
R10A-13
 10
261.6146331018699
 20
187.8142307952435
 30
0.0
  0
LINE
  5
207
330
1F
100
AcDbEntity
  8
1
  6
DASH_CENTER
 62
     2
100
AcDbLine
 10
258.7549551811784
 20
273.3142307952436
 30
0.0
 11
258.7549551811784
 21
264.3142307952436
 31
0.0
  0
LINE
  5
208
330
1F
100
AcDbEntity
  8
1
  6
DASH_CENTER
 62
     2
100
AcDbLine
 10
471.7549551811784
 20
300.3142307952437
 30
0.0
 11
285.7549551811784
 21
300.3142307952437
 31
0.0
  0
LINE
  5
209
330
1F
100
AcDbEntity
  8
1
  6
DASH_CENTER
 62
     2
100
AcDbLine
 10
466.7131728880875
 20
214.3148991630122
 30
0.0
 11
517.2663117930981
 21
243.5017675182007
 31
0.0
  0
LINE
  5
20A
330
1F
100
AcDbEntity
  8
1
  6
DASH_CENTER
 62
     2
100
AcDbLine
 10
479.6089240517725
 20
243.8681970217192
 30
0.0
 11
530.7967374742693
 21
214.3148991630122
 31
0.0
  0
LINE
  5
20B
330
1F
100
AcDbEntity
  8
1
  6
DASH_CENTER
 62
     2
100
AcDbLine
 10
178.9919700455406
 20
232.8142307952434
 30
0.0
 11
195.0442568942257
 21
232.8142307952435
 31
0.0
  0
LINE
  5
20C
330
1F
100
AcDbEntity
  8
1
  6
DASH_CENTER
 62
     2
100
AcDbLine
 10
135.6146331018699
 20
312.4657117879639
 30
0.0
 11
135.6146331018699
 21
251.3142307952434
 31
0.0
  0
LINE
  5
20D
330
1F
100
AcDbEntity
  8
1
  6
DASH_CENTER
 62
     2
100
AcDbLine
 10
125.1014126925109
 20
300.3142307952437
 30
0.0
 11
146.5073491102975
 21
300.3142307952437
 31
0.0
  0
LINE
  5
20E
330
1F
100
AcDbEntity
  8
1
  6
DASH_CENTER
 62
     2
100
AcDbLine
 10
124.636681889649
 20
398.1559361776149
 30
0.0
 11
146.9888552957319
 21
398.1559361776149
 31
0.0
  0
LINE
  5
20F
330
1F
100
AcDbEntity
  8
1
  6
DASH_CENTER
 62
     2
100
AcDbLine
 10
115.9551458518837
 20
638.1559361776151
 30
0.0
 11
197.9837686423716
 21
638.1559361776151
 31
0.0
  0
LINE
  5
210
330
1F
100
AcDbEntity
  8
1
  6
DASH_CENTER
 62
     2
100
AcDbLine
 10
135.6146331018699
 20
702.8795537761695
 30
0.0
 11
135.6146331018699
 21
386.1797389120604
 31
0.0
  0
LINE
  5
211
330
1F
100
AcDbEntity
  8
1
  6
DASH_CENTER
 62
     2
100
AcDbLine
 10
498.7549551811784
 20
215.8142307952437
 30
0.0
 11
498.7549551811784
 21
273.3142307952436
 31
0.0
  0
LINE
  5
212
330
1F
100
AcDbEntity
  8
1
  6
DASH_CENTER
 62
     2
100
AcDbLine
 10
560.7549551811784
 20
232.8142307952437
 30
0.0
 11
471.8144836829435
 21
232.8142307952431
 31
0.0
  0
LINE
  5
213
330
1F
100
AcDbEntity
  8
1
  6
DASH_CENTER
 62
     2
100
AcDbLine
 10
135.6146331018699
 20
251.3142307952434
 30
0.0
 11
135.6146331018699
 21
206.8142307952435
 31
0.0
  0
LINE
  5
214
330
1F
100
AcDbEntity
  8
0
  6
DASH_CENTER
 62
     2
100
AcDbLine
 10
178.9919700455406
 20
232.8142307952434
 30
0.0
 11
109.6146331018699
 21
232.8142307952434
 31
0.0
  0
ARC
  5
215
330
1F
100
AcDbEntity
  8
1
  6
DASH_CENTER
 62
     2
100
AcDbCircle
 10
471.7549551811784
 20
273.3142307952437
 30
0.0
 40
27.0
100
AcDbArc
 50
-0.00000000000024
 51
90.0
  0
ARC
  5
216
330
1F
100
AcDbEntity
  8
1
  6
DASH_CENTER
 62
     2
100
AcDbCircle
 10
285.7549551811784
 20
273.3142307952436
 30
0.0
 40
27.00000000000011
100
AcDbArc
 50
90.0
 51
180.0
  0
SOLID
  5
217
330
1F
100
AcDbEntity
  8
1
 62
     2
100
AcDbTrace
 10
150.1674818243558
 20
699.4403785296848
 30
0.0
 11
152.5617843793852
 21
698.0580273050172
 31
0.0
 12
146.1146331018704
 22
689.6559361776144
 32
0.0
 13
146.1146331018704
 23
689.6559361776144
 33
0.0
  0
LEADER
  5
218
330
1F
100
AcDbEntity
  8
1
  6
Continuous
 62
     2
100
AcDbLeader
  3
Standard
 71
     0
 76
     3
 10
146.1146331018704
 20
689.6559361776144
 30
0.0
 10
158.6492234237838
 20
711.3664834672295
 30
0.0
 10
202.431449395821
 20
711.3664834672295
 30
0.0
  0
MTEXT
  5
21A
330
1F
100
AcDbEntity
  8
0
 62
     7
100
AcDbMText
 10
102.0000000000002
 20
102.0
 30
0.0
 40
10.5
 41
0.0
 71
     4
 72
     1
  1
JIS
  7
CONVERTER_2
 73
     1
 44
1.32052821128451
  0
MTEXT
  5
21B
330
1F
100
AcDbEntity
  8
0
 62
     7
100
AcDbMText
 10
255.7500000000002
 20
50.99999999999999
 30
0.0
 40
10.5
 41
0.0
 71
     5
 72
     1
  1
1
  7
CONVERTER_2
 73
     1
 44
1.32052821128451
  0
MTEXT
  5
21C
330
1F
100
AcDbEntity
  8
0
 62
     7
100
AcDbMText
 10
281.2500000000002
 20
50.99999999999998
 30
0.0
 40
10.5
 41
0.0
 71
     5
 72
     1
  1
3
  7
CONVERTER_2
 73
     1
 44
1.32052821128451
  0
MTEXT
  5
21D
330
1F
100
AcDbEntity
  8
0
 62
     7
100
AcDbMText
 10
171.0000000000002
 20
42.74999999999998
 30
0.0
 40
10.5
 41
0.0
 71
     5
 72
     1
  1
A20JK-L2-13
  7
CONVERTER_2
 73
     1
 44
0.7202881152461
  0
MTEXT
  5
21E
330
1F
100
AcDbEntity
  8
0
 62
     7
100
AcDbMText
 10
171.0000000000002
 20
68.25
 30
0.0
 40
10.5
 41
0.0
 71
     5
 72
     1
  1
横形自在水栓
  7
CONVERTER_1
 73
     1
 44
1.32052821128451
  0
MTEXT
  5
21F
330
1F
100
AcDbEntity
  8
1
 62
     7
100
AcDbMText
 10
180.5403364098024
 20
720.3664834672295
 30
0.0
 40
10.5
 41
0.0
 71
     5
 72
     1
  1
PJ1/2
  7
CONVERTER_2
 73
     1
 44
1.32052821128451
  0
DIMENSION
  5
22B
330
1F
100
AcDbEntity
  8
0
100
AcDbDimension
  2
*D012
 10
135.6146331018699
 20
155.8142307952437
 30
0.0
 11
228.146928311708
 21
164.0642307952437
 31
0.0
  1
59リフト5
 71
     5
 42
0.0
 53
0.00013888888889
  3
ME10_DIM_0
100
AcDbAlignedDimension
 13
194.1146331018699
 23
232.8142307952435
 33
0.0
 14
135.6146331018699
 24
206.8142307952435
 34
0.0
100
AcDbRotatedDimension
  0
DIMENSION
  5
236
330
1F
100
AcDbEntity
  8
0
100
AcDbDimension
  2
*D113
 10
220.1049551811784
 20
232.8142307952431
 30
0.0
 11
211.8549551811784
 21
267.3142307952436
 31
0.0
  1
68
 71
     5
 42
0.0
 53
90.0
  3
ME10_DIM_1
100
AcDbAlignedDimension
 13
285.7549551811784
 23
300.3142307952437
 33
0.0
 14
471.8144836829435
 24
232.8142307952431
 34
0.0
 50
90.0
100
AcDbRotatedDimension
  0
DIMENSION
  5
241
330
1F
100
AcDbEntity
  8
0
100
AcDbDimension
  2
*D214
 10
297.4049551811784
 20
232.8142307952431
 30
0.0
 11
289.1549551811784
 21
250.0642307952433
 31
0.0
  1
35
 71
     5
 42
0.0
 53
90.0
  3
ME10_DIM_2
100
AcDbAlignedDimension
 13
266.1413621871644
 23
267.3142307952436
 33
0.0
 14
471.8144836829435
 24
232.8142307952431
 34
0.0
 50
90.0
100
AcDbRotatedDimension
  0
DIMENSION
  5
24C
330
1F
100
AcDbEntity
  8
1
100
AcDbDimension
  2
*D315
 10
498.7549551811784
 20
179.8142307952437
 30
0.0
 11
521.2549551811787
 21
188.0642307952437
 31
0.0
  1
<>
 71
     5
 42
0.0
 53
0.00013888888889
  3
ME10_DIM_3
100
AcDbAlignedDimension
 13
543.7549551811784
 23
209.8142307952437
 33
0.0
 14
498.7549551811784
 24
215.8142307952437
 34
0.0
100
AcDbRotatedDimension
  0
DIMENSION
  5
257
330
1F
100
AcDbEntity
  8
1
100
AcDbDimension
  2
*D416
 10
258.7549551811784
 20
179.8142307952437
 30
0.0
 11
378.7549551811787
 21
188.0642307952437
 31
0.0
  1
<>
 71
     5
 42
0.0
 53
0.00013888888889
  3
ME10_DIM_4
100
AcDbAlignedDimension
 13
498.7549551811784
 23
215.8142307952437
 33
0.0
 14
258.7549551811784
 24
264.3142307952436
 34
0.0
100
AcDbRotatedDimension
  0
DIMENSION
  5
262
330
1F
100
AcDbEntity
  8
1
100
AcDbDimension
  2
*D517
 10
587.7549551811783
 20
255.8142307952436
 30
0.0
 11
579.5049551811783
 21
232.8142307952437
 31
0.0
  1
<>
 71
     5
 42
0.0
 53
90.0
  3
ME10_DIM_5
100
AcDbAlignedDimension
 13
543.7549551811784
 23
209.8142307952437
 33
0.0
 14
543.7549551811784
 24
255.8142307952436
 34
0.0
 50
90.0
100
AcDbRotatedDimension
  0
DIMENSION
  5
270
330
1F
100
AcDbEntity
  8
1
100
AcDbDimension
  2
*D618
 10
557.7549551811784
 20
179.8142307952437
 30
0.0
 11
573.594293248362
 21
188.0642307952437
 31
0.0
  1
<>
 71
     5
 42
0.0
 53
0.00013888888889
  3
ME10_DIM_6
100
AcDbAlignedDimension
 13
543.7549551811784
 23
209.8142307952437
 33
0.0
 14
557.7549551811783
 24
223.3142307952437
 34
0.0
100
AcDbRotatedDimension
  0
ENDSEC
  0
SECTION
  2
OBJECTS
  0
DICTIONARY
  5
C
330
0
100
AcDbDictionary
281
     1
  3
ACAD_GROUP
350
D
  3
ACAD_LAYOUT
350
1A
  3
ACAD_MLINESTYLE
350
17
  3
ACAD_PLOTSETTINGS
350
19
  3
ACAD_PLOTSTYLENAME
350
E
  3
ACAD_TABLESTYLE
350
2A
  3
AcDbVariableDictionary
350
2C
  0
DICTIONARY
  5
D
102
{ACAD_REACTORS
330
C
102
}
330
C
100
AcDbDictionary
281
     1
  0
DICTIONARY
  5
1A
102
{ACAD_REACTORS
330
C
102
}
330
C
100
AcDbDictionary
281
     1
  3
Layout1
350
1E
  3
Layout2
350
26
  3
Model
350
22
  0
DICTIONARY
  5
17
102
{ACAD_REACTORS
330
C
102
}
330
C
100
AcDbDictionary
281
     1
  3
Standard
350
18
  0
DICTIONARY
  5
19
102
{ACAD_REACTORS
330
C
102
}
330
C
100
AcDbDictionary
281
     1
  0
ACDBDICTIONARYWDFLT
  5
E
102
{ACAD_REACTORS
330
C
102
}
330
C
100
AcDbDictionary
281
     1
  3
Normal
350
F
100
AcDbDictionaryWithDefault
340
F
  0
DICTIONARY
  5
2A
102
{ACAD_REACTORS
330
C
102
}
330
C
100
AcDbDictionary
281
     1
  3
Standard
350
2B
  0
DICTIONARY
  5
2C
102
{ACAD_REACTORS
330
C
102
}
330
C
100
AcDbDictionary
281
     1
  3
CTABLESTYLE
350
2D
  0
LAYOUT
  5
1E
102
{ACAD_REACTORS
330
1A
102
}
330
1A
100
AcDbPlotSettings
  1

  2

  4

  6

 40
0.0
 41
0.0
 42
0.0
 43
0.0
 44
0.0
 45
0.0
 46
0.0
 47
0.0
 48
0.0
 49
0.0
140
0.0
141
0.0
142
1.0
143
1.0
 70
   688
 72
     0
 73
     0
 74
     5
  7

 75
    16
147
1.0
148
0.0
149
0.0
100
AcDbLayout
  1
Layout1
 70
     1
 71
     1
 10
0.0
 20
0.0
 11
12.0
 21
9.0
 12
0.0
 22
0.0
 32
0.0
 14
1.00000000000000E+20
 24
1.00000000000000E+20
 34
1.00000000000000E+20
 15
-1.00000000000000E+20
 25
-1.00000000000000E+20
 35
-1.00000000000000E+20
146
0.0
 13
0.0
 23
0.0
 33
0.0
 16
1.0
 26
0.0
 36
0.0
 17
0.0
 27
1.0
 37
0.0
 76
     0
330
1B
  0
LAYOUT
  5
26
102
{ACAD_REACTORS
330
1A
102
}
330
1A
100
AcDbPlotSettings
  1

  2

  4

  6

 40
0.0
 41
0.0
 42
0.0
 43
0.0
 44
0.0
 45
0.0
 46
0.0
 47
0.0
 48
0.0
 49
0.0
140
0.0
141
0.0
142
1.0
143
1.0
 70
   688
 72
     0
 73
     0
 74
     5
  7

 75
    16
147
1.0
148
0.0
149
0.0
100
AcDbLayout
  1
Layout2
 70
     1
 71
     2
 10
0.0
 20
0.0
 11
0.0
 21
0.0
 12
0.0
 22
0.0
 32
0.0
 14
0.0
 24
0.0
 34
0.0
 15
0.0
 25
0.0
 35
0.0
146
0.0
 13
0.0
 23
0.0
 33
0.0
 16
1.0
 26
0.0
 36
0.0
 17
0.0
 27
1.0
 37
0.0
 76
     0
330
23
  0
LAYOUT
  5
22
102
{ACAD_REACTORS
330
1A
102
}
330
1A
100
AcDbPlotSettings
  1

  2

  4

  6

 40
0.0
 41
0.0
 42
0.0
 43
0.0
 44
0.0
 45
0.0
 46
0.0
 47
0.0
 48
0.0
 49
0.0
140
0.0
141
0.0
142
1.0
143
1.0
 70
  1712
 72
     0
 73
     0
 74
     0
  7

 75
     0
147
1.0
148
0.0
149
0.0
100
AcDbLayout
  1
Model
 70
     1
 71
     0
 10
0.0
 20
0.0
 11
0.0
 21
0.0
 12
0.0
 22
0.0
 32
0.0
 14
0.0
 24
0.0
 34
0.0
 15
630.0
 25
891.0
 35
0.0
146
0.0
 13
0.0
 23
0.0
 33
0.0
 16
1.0
 26
0.0
 36
0.0
 17
0.0
 27
1.0
 37
0.0
 76
     0
330
1F
  0
MLINESTYLE
  5
18
102
{ACAD_REACTORS
330
17
102
}
330
17
100
AcDbMlineStyle
  2
Standard
 70
     0
  3

 62
   256
 51
90.0
 52
90.0
 71
     2
 49
0.5
 62
   256
  6
BYLAYER
 49
-0.5
 62
   256
  6
BYLAYER
  0
ACDBPLACEHOLDER
  5
F
102
{ACAD_REACTORS
330
E
102
}
330
E
  0
TABLESTYLE
  5
2B
102
{ACAD_REACTORS
330
2A
102
}
330
2A
100
AcDbTableStyle
  3
Standard
 70
     0
 71
     0
 40
0.06
 41
0.06
280
     0
281
     0
  7
Standard
140
0.18
170
     2
 62
     0
 63
     7
283
     0
274
    -2
284
     1
 64
     0
275
    -2
285
     1
 65
     0
276
    -2
286
     1
 66
     0
277
    -2
287
     1
 67
     0
278
    -2
288
     1
 68
     0
279
    -2
289
     1
 69
     0
  7
Standard
140
0.25
170
     5
 62
     0
 63
     7
283
     0
274
    -2
284
     1
 64
     0
275
    -2
285
     1
 65
     0
276
    -2
286
     1
 66
     0
277
    -2
287
     1
 67
     0
278
    -2
288
     1
 68
     0
279
    -2
289
     1
 69
     0
  7
Standard
140
0.18
170
     5
 62
     0
 63
     7
283
     0
274
    -2
284
     1
 64
     0
275
    -2
285
     1
 65
     0
276
    -2
286
     1
 66
     0
277
    -2
287
     1
 67
     0
278
    -2
288
     1
 68
     0
279
    -2
289
     1
 69
     0
  0
DICTIONARYVAR
  5
2D
102
{ACAD_REACTORS
330
2C
102
}
330
2C
100
DictionaryVariables
280
     0
  1
Standard
  0
ENDSEC
  0
EOF
