  0
SECTION
  2
HEADER
  9
$ACADVER
  1
AC1015
  9
$ACADMAINTVER
 70
     6
  9
$DWGCODEPAGE
  3
DOS932
  9
$INSBASE
 10
0.0
 20
0.0
 30
0.0
  9
$EXTMIN
 10
0.0
 20
0.0
 30
0.0
  9
$EXTMAX
 10
525.0
 20
742.5
 30
0.0
  9
$LIMMIN
 10
0.0
 20
0.0
  9
$LIMMAX
 10
12.0
 20
9.0
  9
$ORTHOMODE
 70
     0
  9
$REGENMODE
 70
     1
  9
$FILLMODE
 70
     1
  9
$QTEXTMODE
 70
     0
  9
$MIRRTEXT
 70
     1
  9
$LTSCALE
 40
1.0
  9
$ATTMODE
 70
     1
  9
$TEXTSIZE
 40
0.2
  9
$TRACEWID
 40
0.05
  9
$TEXTSTYLE
  7
Standard
  9
$CLAYER
  8
0
  9
$CELTYPE
  6
ByLayer
  9
$CECOLOR
 62
   256
  9
$CELTSCALE
 40
1.0
  9
$DISPSILH
 70
     0
  9
$DIMSCALE
 40
1.0
  9
$DIMASZ
 40
0.18
  9
$DIMEXO
 40
0.0625
  9
$DIMDLI
 40
0.38
  9
$DIMRND
 40
0.0
  9
$DIMDLE
 40
0.0
  9
$DIMEXE
 40
0.18
  9
$DIMTP
 40
0.0
  9
$DIMTM
 40
0.0
  9
$DIMTXT
 40
0.18
  9
$DIMCEN
 40
0.09
  9
$DIMTSZ
 40
0.0
  9
$DIMTOL
 70
     0
  9
$DIMLIM
 70
     0
  9
$DIMTIH
 70
     1
  9
$DIMTOH
 70
     1
  9
$DIMSE1
 70
     0
  9
$DIMSE2
 70
     0
  9
$DIMTAD
 70
     0
  9
$DIMZIN
 70
     0
  9
$DIMBLK
  1

  9
$DIMASO
 70
     1
  9
$DIMSHO
 70
     1
  9
$DIMPOST
  1

  9
$DIMAPOST
  1

  9
$DIMALT
 70
     0
  9
$DIMALTD
 70
     2
  9
$DIMALTF
 40
25.4
  9
$DIMLFAC
 40
1.0
  9
$DIMTOFL
 70
     0
  9
$DIMTVP
 40
0.0
  9
$DIMTIX
 70
     0
  9
$DIMSOXD
 70
     0
  9
$DIMSAH
 70
     0
  9
$DIMBLK1
  1

  9
$DIMBLK2
  1

  9
$DIMSTYLE
  2
Standard
  9
$DIMCLRD
 70
     0
  9
$DIMCLRE
 70
     0
  9
$DIMCLRT
 70
     0
  9
$DIMTFAC
 40
1.0
  9
$DIMGAP
 40
0.09
  9
$DIMJUST
 70
     0
  9
$DIMSD1
 70
     0
  9
$DIMSD2
 70
     0
  9
$DIMTOLJ
 70
     1
  9
$DIMTZIN
 70
     0
  9
$DIMALTZ
 70
     0
  9
$DIMALTTZ
 70
     0
  9
$DIMUPT
 70
     0
  9
$DIMDEC
 70
     4
  9
$DIMTDEC
 70
     4
  9
$DIMALTU
 70
     2
  9
$DIMALTTD
 70
     2
  9
$DIMTXSTY
  7
Standard
  9
$DIMAUNIT
 70
     0
  9
$DIMADEC
 70
     0
  9
$DIMALTRND
 40
0.0
  9
$DIMAZIN
 70
     0
  9
$DIMDSEP
 70
    46
  9
$DIMATFIT
 70
     3
  9
$DIMFRAC
 70
     0
  9
$DIMLDRBLK
  1

  9
$DIMLUNIT
 70
     2
  9
$DIMLWD
 70
    -2
  9
$DIMLWE
 70
    -2
  9
$DIMTMOVE
 70
     0
  9
$LUNITS
 70
     2
  9
$LUPREC
 70
     4
  9
$SKETCHINC
 40
0.1
  9
$FILLETRAD
 40
0.5
  9
$AUNITS
 70
     0
  9
$AUPREC
 70
     0
  9
$MENU
  1
.
  9
$ELEVATION
 40
0.0
  9
$PELEVATION
 40
0.0
  9
$THICKNESS
 40
0.0
  9
$LIMCHECK
 70
     0
  9
$CHAMFERA
 40
0.5
  9
$CHAMFERB
 40
0.5
  9
$CHAMFERC
 40
1.0
  9
$CHAMFERD
 40
0.0
  9
$SKPOLY
 70
     0
  9
$TDCREATE
 40
2456141.496072049
  9
$TDUCREATE
 40
2456141.121072049
  9
$TDUPDATE
 40
2456141.49607206
  9
$TDUUPDATE
 40
2456141.12107206
  9
$TDINDWG
 40
0.0000000116
  9
$TDUSRTIMER
 40
0.0000000116
  9
$USRTIMER
 70
     1
  9
$ANGBASE
 50
0.0
  9
$ANGDIR
 70
     0
  9
$PDMODE
 70
     0
  9
$PDSIZE
 40
0.0
  9
$PLINEWID
 40
0.0
  9
$SPLFRAME
 70
     0
  9
$SPLINETYPE
 70
     6
  9
$SPLINESEGS
 70
     8
  9
$HANDSEED
  5
275
  9
$SURFTAB1
 70
     6
  9
$SURFTAB2
 70
     6
  9
$SURFTYPE
 70
     6
  9
$SURFU
 70
     6
  9
$SURFV
 70
     6
  9
$UCSBASE
  2

  9
$UCSNAME
  2

  9
$UCSORG
 10
0.0
 20
0.0
 30
0.0
  9
$UCSXDIR
 10
1.0
 20
0.0
 30
0.0
  9
$UCSYDIR
 10
0.0
 20
1.0
 30
0.0
  9
$UCSORTHOREF
  2

  9
$UCSORTHOVIEW
 70
     0
  9
$UCSORGTOP
 10
0.0
 20
0.0
 30
0.0
  9
$UCSORGBOTTOM
 10
0.0
 20
0.0
 30
0.0
  9
$UCSORGLEFT
 10
0.0
 20
0.0
 30
0.0
  9
$UCSORGRIGHT
 10
0.0
 20
0.0
 30
0.0
  9
$UCSORGFRONT
 10
0.0
 20
0.0
 30
0.0
  9
$UCSORGBACK
 10
0.0
 20
0.0
 30
0.0
  9
$PUCSBASE
  2

  9
$PUCSNAME
  2

  9
$PUCSORG
 10
0.0
 20
0.0
 30
0.0
  9
$PUCSXDIR
 10
1.0
 20
0.0
 30
0.0
  9
$PUCSYDIR
 10
0.0
 20
1.0
 30
0.0
  9
$PUCSORTHOREF
  2

  9
$PUCSORTHOVIEW
 70
     0
  9
$PUCSORGTOP
 10
0.0
 20
0.0
 30
0.0
  9
$PUCSORGBOTTOM
 10
0.0
 20
0.0
 30
0.0
  9
$PUCSORGLEFT
 10
0.0
 20
0.0
 30
0.0
  9
$PUCSORGRIGHT
 10
0.0
 20
0.0
 30
0.0
  9
$PUCSORGFRONT
 10
0.0
 20
0.0
 30
0.0
  9
$PUCSORGBACK
 10
0.0
 20
0.0
 30
0.0
  9
$USERI1
 70
     0
  9
$USERI2
 70
     0
  9
$USERI3
 70
     0
  9
$USERI4
 70
     0
  9
$USERI5
 70
     0
  9
$USERR1
 40
13.2
  9
$USERR2
 40
0.0
  9
$USERR3
 40
0.0
  9
$USERR4
 40
0.0
  9
$USERR5
 40
0.0
  9
$WORLDVIEW
 70
     1
  9
$SHADEDGE
 70
     3
  9
$SHADEDIF
 70
    70
  9
$TILEMODE
 70
     1
  9
$MAXACTVP
 70
    64
  9
$PINSBASE
 10
0.0
 20
0.0
 30
0.0
  9
$PLIMCHECK
 70
     0
  9
$PEXTMIN
 10
1.00000000000000E+20
 20
1.00000000000000E+20
 30
1.00000000000000E+20
  9
$PEXTMAX
 10
-1.00000000000000E+20
 20
-1.00000000000000E+20
 30
-1.00000000000000E+20
  9
$PLIMMIN
 10
0.0
 20
0.0
  9
$PLIMMAX
 10
12.0
 20
9.0
  9
$UNITMODE
 70
     0
  9
$VISRETAIN
 70
     1
  9
$PLINEGEN
 70
     0
  9
$PSLTSCALE
 70
     1
  9
$TREEDEPTH
 70
  3020
  9
$CMLSTYLE
  2
Standard
  9
$CMLJUST
 70
     0
  9
$CMLSCALE
 40
1.0
  9
$PROXYGRAPHICS
 70
     1
  9
$MEASUREMENT
 70
     1
  9
$CELWEIGHT
370
    -1
  9
$ENDCAPS
280
     0
  9
$JOINSTYLE
280
     0
  9
$LWDISPLAY
290
     0
  9
$INSUNITS
 70
     1
  9
$HYPERLINKBASE
  1

  9
$STYLESHEET
  1

  9
$XEDIT
290
     1
  9
$CEPSNTYPE
380
     0
  9
$PSTYLEMODE
290
     0
  9
$FINGERPRINTGUID
  2
{FAEB1C30-E019-11D5-929B-00C0DF256EC4}
  9
$VERSIONGUID
  2
{FAEB1C32-E019-11D5-929B-00C0DF256EC4}
  9
$EXTNAMES
290
     1
  9
$PSVPSCALE
 40
0.0
  9
$OLESTARTUP
290
     0
  0
ENDSEC
  0
SECTION
  2
CLASSES
  0
CLASS
  1
ACDBDICTIONARYWDFLT
  2
AcDbDictionaryWithDefault
  3
ObjectDBX Classes
 90
        0
280
     0
281
     0
  0
CLASS
  1
TABLESTYLE
  2
AcDbTableStyle
  3
ObjectDBX Classes
 90
     2047
280
     0
281
     0
  0
CLASS
  1
DICTIONARYVAR
  2
AcDbDictionaryVar
  3
ObjectDBX Classes
 90
        0
280
     0
281
     0
  0
CLASS
  1

  2
exOdDbSpline
  3

 90
        0
280
     0
281
     1
  0
CLASS
  1

  2
exOdDbCircle
  3

 90
        0
280
     0
281
     1
  0
CLASS
  1
ACDBPLACEHOLDER
  2
AcDbPlaceHolder
  3
ObjectDBX Classes
 90
        0
280
     0
281
     0
  0
CLASS
  1
LAYOUT
  2
AcDbLayout
  3
ObjectDBX Classes
 90
        0
280
     0
281
     0
  0
ENDSEC
  0
SECTION
  2
TABLES
  0
TABLE
  2
VPORT
  5
8
330
0
100
AcDbSymbolTable
 70
     2
  0
VPORT
  5
29
330
8
100
AcDbSymbolTableRecord
100
AcDbViewportTableRecord
  2
*Active
 70
     0
 10
0.0
 20
0.0
 11
1.0
 21
1.0
 12
262.5
 22
371.25
 13
0.0
 23
0.0
 14
0.5
 24
0.5
 15
0.5
 25
0.5
 16
0.0
 26
0.0
 36
1.0
 17
0.0
 27
0.0
 37
0.0
 40
816.7500000000001
 41
1.60267857142857
 42
50.0
 43
0.0
 44
0.0
 50
0.0
 51
0.0
 71
     0
 72
   100
 73
     1
 74
     3
 75
     0
 76
     0
 77
     0
 78
     0
281
     0
 65
     1
110
0.0
120
0.0
130
0.0
111
1.0
121
0.0
131
0.0
112
0.0
122
1.0
132
0.0
 79
     0
146
0.0
  0
ENDTAB
  0
TABLE
  2
LTYPE
  5
5
330
0
100
AcDbSymbolTable
 70
     8
  0
LTYPE
  5
14
330
5
100
AcDbSymbolTableRecord
100
AcDbLinetypeTableRecord
  2
ByBlock
 70
     0
  3

 72
    65
 73
     0
 40
0.0
  0
LTYPE
  5
15
330
5
100
AcDbSymbolTableRecord
100
AcDbLinetypeTableRecord
  2
ByLayer
 70
     0
  3

 72
    65
 73
     0
 40
0.0
  0
LTYPE
  5
16
330
5
100
AcDbSymbolTableRecord
100
AcDbLinetypeTableRecord
  2
Continuous
 70
     0
  3
Solid line
 72
    65
 73
     0
 40
0.0
  0
LTYPE
  5
2E
330
5
100
AcDbSymbolTableRecord
100
AcDbLinetypeTableRecord
  2
DASHED
 70
     0
  3
Dashed
 72
    65
 73
     2
 40
15.0
 49
7.0
 74
     0
 49
-8.0
 74
     0
  0
LTYPE
  5
2F
330
5
100
AcDbSymbolTableRecord
100
AcDbLinetypeTableRecord
  2
DOTTED
 70
     0
  3
Dotted
 72
    65
 73
     2
 40
1.0
 49
0.0
 74
     0
 49
-1.0
 74
     0
  0
LTYPE
  5
30
330
5
100
AcDbSymbolTableRecord
100
AcDbLinetypeTableRecord
  2
DOT_CENTER
 70
     0
  3
Dot_Center
 72
    65
 73
     4
 40
14.0
 49
12.0
 74
     0
 49
-1.0
 74
     0
 49
0.0
 74
     0
 49
-1.0
 74
     0
  0
LTYPE
  5
31
330
5
100
AcDbSymbolTableRecord
100
AcDbLinetypeTableRecord
  2
LONG_DASHED
 70
     0
  3
Long_Dashed
 72
    65
 73
     2
 40
15.0
 49
10.0
 74
     0
 49
-5.0
 74
     0
  0
LTYPE
  5
32
330
5
100
AcDbSymbolTableRecord
100
AcDbLinetypeTableRecord
  2
DASH_CENTER
 70
     0
  3
Dash_Center
 72
    65
 73
     4
 40
14.0
 49
11.0
 74
     0
 49
-1.0
 74
     0
 49
1.0
 74
     0
 49
-1.0
 74
     0
  0
LTYPE
  5
33
330
5
100
AcDbSymbolTableRecord
100
AcDbLinetypeTableRecord
  2
PHANTOM
 70
     0
  3
Phantom
 72
    65
 73
     6
 40
13.0
 49
10.0
 74
     0
 49
-1.0
 74
     0
 49
0.0
 74
     0
 49
-1.0
 74
     0
 49
0.0
 74
     0
 49
-1.0
 74
     0
  0
LTYPE
  5
34
330
5
100
AcDbSymbolTableRecord
100
AcDbLinetypeTableRecord
  2
CENTER_DASH_DASH
 70
     0
  3
Center_Dash_Dash
 72
    65
 73
     6
 40
14.0
 49
9.0
 74
     0
 49
-1.0
 74
     0
 49
1.0
 74
     0
 49
-1.0
 74
     0
 49
1.0
 74
     0
 49
-1.0
 74
     0
  0
ENDTAB
  0
TABLE
  2
LAYER
  5
2
330
0
100
AcDbSymbolTable
 70
     2
  0
LAYER
  5
10
330
2
100
AcDbSymbolTableRecord
100
AcDbLayerTableRecord
  2
0
 70
     0
 62
     7
  6
Continuous
370
    -3
390
F
  0
LAYER
  5
35
330
2
100
AcDbSymbolTableRecord
100
AcDbLayerTableRecord
  2
1
 70
     0
 62
     7
  6
Continuous
370
    -3
390
F
  0
ENDTAB
  0
TABLE
  2
STYLE
  5
3
330
0
100
AcDbSymbolTable
 70
     4
  0
STYLE
  5
11
330
3
100
AcDbSymbolTableRecord
100
AcDbTextStyleTableRecord
  2
Standard
 70
     0
 40
0.0
 41
1.0
 50
0.0
 71
     0
 42
0.2
  3
txt
  4

  0
STYLE
  5
1FD
330
3
100
AcDbSymbolTableRecord
100
AcDbTextStyleTableRecord
  2
CONVERTER_1
 70
     0
 40
0.0
 41
0.89
 50
0.0
 71
     0
 42
0.2
  3
msmincho.ttc
  4

1001
ACAD
1000
MS Mincho
1071
    32785
  0
STYLE
  5
21C
330
3
100
AcDbSymbolTableRecord
100
AcDbTextStyleTableRecord
  2
CONVERTER_2
 70
     0
 40
0.0
 41
0.801
 50
0.0
 71
     0
 42
0.2
  3
msmincho.ttc
  4

1001
ACAD
1000
MS Mincho
1071
    32785
  0
STYLE
  5
21E
330
3
100
AcDbSymbolTableRecord
100
AcDbTextStyleTableRecord
  2
CONVERTER_3
 70
     0
 40
0.0
 41
0.9
 50
0.0
 71
     0
 42
0.2
  3
txt.shx
  4

  0
ENDTAB
  0
TABLE
  2
VIEW
  5
6
330
0
100
AcDbSymbolTable
 70
     0
  0
ENDTAB
  0
TABLE
  2
UCS
  5
7
330
0
100
AcDbSymbolTable
 70
     0
  0
ENDTAB
  0
TABLE
  2
APPID
  5
9
330
0
100
AcDbSymbolTable
 70
     1
  0
APPID
  5
12
330
9
100
AcDbSymbolTableRecord
100
AcDbRegAppTableRecord
  2
ACAD
 70
     0
  0
ENDTAB
  0
TABLE
  2
DIMSTYLE
  5
A
330
0
100
AcDbSymbolTable
 70
     8
100
AcDbDimStyleTable
  0
DIMSTYLE
105
27
330
A
100
AcDbSymbolTableRecord
100
AcDbDimStyleTableRecord
  2
Standard
 70
     0
340
11
  0
DIMSTYLE
105
22E
102
{ACAD_REACTORS
330
22F
102
}
330
A
100
AcDbSymbolTableRecord
100
AcDbDimStyleTableRecord
  2
ME10_DIM_0
 70
     0
 41
8.75
 42
0.0
 44
2.5
 73
     0
 74
     0
 77
     1
 78
     8
140
8.75
147
0.625
172
     1
173
     1
176
     2
177
     2
178
     7
271
     2
340
21E
  0
DIMSTYLE
105
239
102
{ACAD_REACTORS
330
23A
102
}
330
A
100
AcDbSymbolTableRecord
100
AcDbDimStyleTableRecord
  2
ME10_DIM_1
 70
     0
 41
8.75
 42
0.0
 44
2.5
 73
     0
 74
     0
 77
     1
 78
     8
140
8.75
147
0.625
172
     1
173
     1
176
     2
177
     2
178
     7
271
     2
340
21E
  0
DIMSTYLE
105
244
102
{ACAD_REACTORS
330
245
102
}
330
A
100
AcDbSymbolTableRecord
100
AcDbDimStyleTableRecord
  2
ME10_DIM_2
 70
     0
  3
{\Fgdt;n}<>
 41
8.75
 42
0.0
 44
2.5
 73
     0
 74
     0
 77
     1
 78
     8
140
8.75
147
0.625
172
     1
173
     1
176
     2
177
     2
178
     7
271
     2
340
21E
  0
DIMSTYLE
105
24F
102
{ACAD_REACTORS
330
250
102
}
330
A
100
AcDbSymbolTableRecord
100
AcDbDimStyleTableRecord
  2
ME10_DIM_3
 70
     0
 41
8.75
 42
0.0
 44
2.5
 73
     0
 74
     0
 77
     1
 78
     8
140
8.75
147
0.625
172
     1
173
     1
176
     2
177
     2
178
     7
271
     2
340
21E
  0
DIMSTYLE
105
25A
102
{ACAD_REACTORS
330
25B
102
}
330
A
100
AcDbSymbolTableRecord
100
AcDbDimStyleTableRecord
  2
ME10_DIM_4
 70
     0
 41
8.75
 42
0.0
 44
2.5
 73
     0
 74
     0
 77
     1
 78
     8
140
8.75
147
0.625
172
     1
173
     1
176
     2
177
     2
178
     7
271
     2
340
21E
  0
DIMSTYLE
105
265
102
{ACAD_REACTORS
330
266
102
}
330
A
100
AcDbSymbolTableRecord
100
AcDbDimStyleTableRecord
  2
ME10_DIM_5
 70
     0
 41
8.75
 42
0.0
 44
2.5
 73
     0
 74
     0
 77
     1
 78
     8
140
8.75
147
0.625
172
     1
173
     1
176
     2
177
     2
178
     7
271
     0
340
1FD
  0
DIMSTYLE
105
273
102
{ACAD_REACTORS
330
274
102
}
330
A
100
AcDbSymbolTableRecord
100
AcDbDimStyleTableRecord
  2
ME10_DIM_6
 70
     0
 41
8.75
 42
0.0
 44
2.5
 73
     0
 74
     0
 77
     1
 78
     8
140
8.75
147
0.625
172
     1
173
     1
176
     2
177
     2
178
     7
271
     2
340
21E
343
270
  0
ENDTAB
  0
TABLE
  2
BLOCK_RECORD
  5
1
330
0
100
AcDbSymbolTable
 70
    20
  0
BLOCK_RECORD
  5
1F
330
1
100
AcDbSymbolTableRecord
100
AcDbBlockTableRecord
  2
*Model_Space
340
22
  0
BLOCK_RECORD
  5
1B
330
1
100
AcDbSymbolTableRecord
100
AcDbBlockTableRecord
  2
*Paper_Space
340
1E
  0
BLOCK_RECORD
  5
23
330
1
100
AcDbSymbolTableRecord
100
AcDbBlockTableRecord
  2
*Paper_Space0
340
26
  0
BLOCK_RECORD
  5
36
330
1
100
AcDbSymbolTableRecord
100
AcDbBlockTableRecord
  2
21-1A
340
0
102
{BLKREFS
331
5D
102
}
  0
BLOCK_RECORD
  5
39
330
1
100
AcDbSymbolTableRecord
100
AcDbBlockTableRecord
  2
42-1
340
0
102
{BLKREFS
331
46
102
}
  0
BLOCK_RECORD
  5
3C
330
1
100
AcDbSymbolTableRecord
100
AcDbBlockTableRecord
  2
R20F
340
0
102
{BLKREFS
331
47
102
}
  0
BLOCK_RECORD
  5
3F
330
1
100
AcDbSymbolTableRecord
100
AcDbBlockTableRecord
  2
37-1-13
340
0
102
{BLKREFS
331
48
102
}
  0
BLOCK_RECORD
  5
42
330
1
100
AcDbSymbolTableRecord
100
AcDbBlockTableRecord
  2
36-1A-13-M4
340
0
102
{BLKREFS
331
49
102
}
  0
BLOCK_RECORD
  5
45
330
1
100
AcDbSymbolTableRecord
100
AcDbBlockTableRecord
  2
R10A-13
340
0
102
{BLKREFS
331
5E
102
}
  0
BLOCK_RECORD
  5
4C
330
1
100
AcDbSymbolTableRecord
100
AcDbBlockTableRecord
  2
A20L-0-13
340
0
102
{BLKREFS
331
5F
102
}
  0
BLOCK_RECORD
  5
4F
330
1
100
AcDbSymbolTableRecord
100
AcDbBlockTableRecord
  2
32-1-16
340
0
102
{BLKREFS
331
56
102
}
  0
BLOCK_RECORD
  5
52
330
1
100
AcDbSymbolTableRecord
100
AcDbBlockTableRecord
  2
61-1-16-170
340
0
102
{BLKREFS
331
57
102
}
  0
BLOCK_RECORD
  5
55
330
1
100
AcDbSymbolTableRecord
100
AcDbBlockTableRecord
  2
A20J-60X-16
340
0
102
{BLKREFS
331
60
102
}
  0
BLOCK_RECORD
  5
5A
330
1
100
AcDbSymbolTableRecord
100
AcDbBlockTableRecord
  2
_J__A4
340
0
102
{BLKREFS
331
61
102
}
  0
BLOCK_RECORD
  5
225
330
1
100
AcDbSymbolTableRecord
100
AcDbBlockTableRecord
  2
*D012
340
0
  0
BLOCK_RECORD
  5
230
330
1
100
AcDbSymbolTableRecord
100
AcDbBlockTableRecord
  2
*D113
340
0
  0
BLOCK_RECORD
  5
23B
330
1
100
AcDbSymbolTableRecord
100
AcDbBlockTableRecord
  2
*D214
340
0
  0
BLOCK_RECORD
  5
246
330
1
100
AcDbSymbolTableRecord
100
AcDbBlockTableRecord
  2
*D315
340
0
  0
BLOCK_RECORD
  5
251
330
1
100
AcDbSymbolTableRecord
100
AcDbBlockTableRecord
  2
*D416
340
0
  0
BLOCK_RECORD
  5
25C
330
1
100
AcDbSymbolTableRecord
100
AcDbBlockTableRecord
  2
*D517
340
0
  0
BLOCK_RECORD
  5
267
330
1
100
AcDbSymbolTableRecord
100
AcDbBlockTableRecord
  2
*D618
340
0
  0
BLOCK_RECORD
  5
270
330
1
100
AcDbSymbolTableRecord
100
AcDbBlockTableRecord
  2
_None
340
0
  0
ENDTAB
  0
ENDSEC
  0
SECTION
  2
BLOCKS
  0
BLOCK
  5
20
330
1F
100
AcDbEntity
  8
0
100
AcDbBlockBegin
  2
*Model_Space
 70
     0
 71
     0
 10
0.0
 20
0.0
 30
0.0
  3
*Model_Space
  1

  0
ENDBLK
  5
21
330
1F
100
AcDbEntity
  8
0
100
AcDbBlockEnd
  0
BLOCK
  5
1C
330
1B
100
AcDbEntity
 67
     1
  8
0
100
AcDbBlockBegin
  2
*Paper_Space
 70
     0
 71
     0
 10
0.0
 20
0.0
 30
0.0
  3
*Paper_Space
  1

  0
ENDBLK
  5
1D
330
1B
100
AcDbEntity
 67
     1
  8
0
100
AcDbBlockEnd
  0
BLOCK
  5
24
330
23
100
AcDbEntity
  8
0
100
AcDbBlockBegin
  2
*Paper_Space0
 70
     0
 71
     0
 10
0.0
 20
0.0
 30
0.0
  3
*Paper_Space0
  1

  0
ENDBLK
  5
25
330
23
100
AcDbEntity
  8
0
100
AcDbBlockEnd
  0
BLOCK
  5
37
330
36
100
AcDbEntity
  8
0
100
AcDbBlockBegin
  2
21-1A
 70
     0
 71
     0
 10
446.6267074134358
 20
182.7176887810471
 30
0.0
  3
21-1A
  1

  0
LINE
  5
62
330
36
100
AcDbEntity
  8
1
  6
Continuous
 62
     7
100
AcDbLine
 10
180.4038256308953
 20
229.4361649531289
 30
0.0
 11
190.3796611158576
 21
219.4603294681666
 31
0.0
  0
LINE
  5
63
330
36
100
AcDbEntity
  8
1
  6
Continuous
 62
     7
100
AcDbLine
 10
170.9568614616904
 20
213.0735430347834
 30
0.0
 11
185.3446110607438
 21
209.2183571488158
 31
0.0
  0
LINE
  5
64
330
36
100
AcDbEntity
  8
1
  6
Continuous
 62
     7
100
AcDbLine
 10
173.9333495033322
 20
240.6433583552296
 30
0.0
 11
170.2819402918618
 21
254.2706030516625
 31
0.0
  0
LINE
  5
65
330
36
100
AcDbEntity
  8
1
  6
Continuous
 62
     7
100
AcDbLine
 10
158.0159092065644
 20
213.0735430347834
 30
0.0
 11
144.3886645101315
 21
209.4221338233129
 31
0.0
  0
LINE
  5
66
330
36
100
AcDbEntity
  8
1
  6
Continuous
 62
     7
100
AcDbLine
 10
148.5689450373595
 20
229.4361649531289
 30
0.0
 11
138.5931095523972
 21
219.4603294681666
 31
0.0
  0
LINE
  5
67
330
36
100
AcDbEntity
  8
1
  6
Continuous
 62
     7
100
AcDbLine
 10
155.0394211649226
 20
240.6433583552296
 30
0.0
 11
158.690830376393
 21
254.2706030516625
 31
0.0
  0
LINE
  5
68
330
36
100
AcDbEntity
  8
1
  6
PHANTOM
 62
     2
100
AcDbLine
 10
183.6324164635333
 20
238.7716550075228
 30
0.0
 11
132.4446030410364
 21
209.2183571488158
 31
0.0
  0
LINE
  5
69
330
36
100
AcDbEntity
  8
1
  6
PHANTOM
 62
     2
100
AcDbLine
 10
145.9750287222077
 20
238.4052255040043
 30
0.0
 11
196.5281676272184
 21
209.2183571488158
 31
0.0
  0
LINE
  5
6A
330
36
100
AcDbEntity
  8
1
  6
Continuous
 62
     7
100
AcDbLine
 10
404.2904775179181
 20
519.2200377820145
 30
0.0
 11
402.3602891338609
 21
519.2200377820145
 31
0.0
  0
LINE
  5
6B
330
36
100
AcDbEntity
  8
1
  6
Continuous
 62
     7
100
AcDbLine
 10
402.3602891338609
 20
532.1609900371403
 30
0.0
 11
404.1376383565727
 21
532.1609900371403
 31
0.0
  0
LINE
  5
6C
330
36
100
AcDbEntity
  8
1
  6
Continuous
 62
     7
100
AcDbLine
 10
405.5757823387316
 20
553.336283038559
 30
0.0
 11
402.3602891338609
 21
552.8843749395667
 31
0.0
  0
LINE
  5
6D
330
36
100
AcDbEntity
  8
1
  6
Continuous
 62
     7
100
AcDbLine
 10
402.3602891338609
 20
498.4966528795881
 30
0.0
 11
405.5757823387314
 21
498.0447447805955
 31
0.0
  0
LINE
  5
6E
330
36
100
AcDbEntity
  8
1
  6
Continuous
 62
     7
100
AcDbLine
 10
406.1453688892116
 20
498.5398788149665
 30
0.0
 11
406.1453688892116
 21
552.8411490041884
 31
0.0
  0
LINE
  5
6F
330
36
100
AcDbEntity
  8
1
  6
Continuous
 62
     7
100
AcDbLine
 10
406.1453688892115
 20
227.7176887810471
 30
0.0
 11
406.1453688892115
 21
258.1425045774365
 31
0.0
  0
LINE
  5
70
330
36
100
AcDbEntity
  8
1
  6
Continuous
 62
     7
100
AcDbLine
 10
405.5757469564989
 20
209.2977854326883
 30
0.0
 11
401.1862922834681
 21
209.9150029266959
 31
0.0
  0
LINE
  5
71
330
36
100
AcDbEntity
  8
1
  6
Continuous
 62
     7
100
AcDbLine
 10
405.5757823387316
 20
258.6376386118075
 30
0.0
 11
402.3602891338609
 21
258.1857305128149
 31
0.0
  0
LINE
  5
72
330
36
100
AcDbEntity
  8
1
  6
Continuous
 62
     7
100
AcDbLine
 10
406.1453688892115
 20
227.7176887810471
 30
0.0
 11
406.1453688892115
 21
209.7929144931214
 31
0.0
  0
ARC
  5
73
330
36
100
AcDbEntity
  8
1
  6
Continuous
 62
     7
100
AcDbCircle
 10
186.1370204287384
 20
215.2176887810473
 30
0.0
 40
5.999999999999941
100
AcDbArc
 50
-97.52424107894036
 51
45.00000000000077
  0
ARC
  5
74
330
36
100
AcDbEntity
  8
1
  6
Continuous
 62
     7
100
AcDbCircle
 10
164.4863853341274
 20
252.7176887810472
 30
0.0
 40
6.000000000000033
100
AcDbArc
 50
15.00000000000169
 51
90.0
  0
ARC
  5
75
330
36
100
AcDbEntity
  8
1
  6
Continuous
 62
     7
100
AcDbCircle
 10
142.8357502395165
 20
215.2176887810473
 30
0.0
 40
6.000000000000028
100
AcDbArc
 50
134.9999999999998
 51
-75.00000000000119
  0
ARC
  5
76
330
36
100
AcDbEntity
  8
1
  6
Continuous
 62
     7
100
AcDbCircle
 10
164.4863853341274
 20
252.7176887810472
 30
0.0
 40
5.999999999999972
100
AcDbArc
 50
90.0
 51
164.9999999999983
  0
ARC
  5
77
330
36
100
AcDbEntity
  8
1
  6
Continuous
 62
     7
100
AcDbCircle
 10
522.5155214295357
 20
524.0534235586882
 30
0.0
 40
127.4948334081408
100
AcDbArc
 50
169.1905067536478
 51
177.4658831052026
  0
ARC
  5
78
330
36
100
AcDbEntity
  8
1
  6
Continuous
 62
     7
100
AcDbCircle
 10
522.5155214295357
 20
527.3276042604667
 30
0.0
 40
127.4948334081406
100
AcDbArc
 50
-177.4658831052026
 51
-169.1905067536477
  0
ARC
  5
79
330
36
100
AcDbEntity
  8
1
  6
Continuous
 62
     7
100
AcDbCircle
 10
470.0571898979108
 20
227.3534931158004
 30
0.0
 40
75.00000000000007
100
AcDbArc
 50
-177.2213610340374
 51
-170.4085075173349
  0
ARC
  5
7A
330
36
100
AcDbEntity
  8
1
  6
Continuous
 62
     7
100
AcDbCircle
 10
545.1453688892115
 20
227.7176887810471
 30
0.0
 40
150.0533238552214
100
AcDbArc
 50
170.1970982062322
 51
178.4724745577871
  0
SPLINE
  5
7B
330
36
100
AcDbEntity
  8
0
  6
Continuous
 62
     7
100
AcDbSpline
210
0.0
220
0.0
230
1.0
 70
     8
 71
     3
 72
    35
 73
    31
 74
    29
 42
0.0000000001
 43
0.0000000001
 44
0.00000001
 40
0.0
 40
0.0
 40
0.0
 40
0.0
 40
0.6095664701736678
 40
1.217631710174779
 40
1.818364858744559
 40
2.420251448870853
 40
3.012574584768609
 40
3.604379366438461
 40
4.187127320374291
 40
4.770042709358921
 40
5.344635662521437
 40
5.919155670249352
 40
6.487495311598214
 40
7.055844637159868
 40
7.620860568606159
 40
8.185865086527244
 40
8.750867887076877
 40
9.315885831846083
 40
9.884245147472139
 40
10.45257411423292
 40
11.02705120930345
 40
11.60168882067765
 40
12.26274694007691
 40
12.92355591635734
 40
13.43733587887805
 40
13.95144934917272
 40
14.55327005497645
 40
15.15406389004638
 40
15.76214773013167
 40
16.37169678613082
 40
16.37169678613082
 40
16.37169678613082
 40
16.37169678613082
 10
399.9355400753354
 20
531.77077257962
 30
0.0
 10
399.7459061139143
 20
531.6978096553212
 30
0.0
 10
399.3671052184409
 20
531.5520634986009
 30
0.0
 10
398.8129604031035
 20
531.3046724769316
 30
0.0
 10
398.2896721555609
 20
531.0017088051293
 30
0.0
 10
397.8009112232283
 20
530.6554431115005
 30
0.0
 10
397.3436921841125
 20
530.2731485934874
 30
0.0
 10
396.9249952145266
 20
529.8578463539215
 30
0.0
 10
396.5472752571528
 20
529.4090279454758
 30
0.0
 10
396.2146690546479
 20
528.9327951500346
 30
0.0
 10
395.9280673677292
 20
528.4306953971245
 30
0.0
 10
395.6907977165857
 20
527.9087793881346
 30
0.0
 10
395.5041719461905
 20
527.3688874978201
 30
0.0
 10
395.3698506322942
 20
526.8169053819855
 30
0.0
 10
395.2889166045653
 20
526.2557328173155
 30
0.0
 10
395.2617386384434
 20
525.6905145374366
 30
0.0
 10
395.2889122709801
 20
525.1252952550667
 30
0.0
 10
395.3698495129066
 20
524.5641193857401
 30
0.0
 10
395.5041829369102
 20
524.0121394816739
 30
0.0
 10
395.6907977034248
 20
523.4722614409687
 30
0.0
 10
395.9280379620411
 20
522.9503308067424
 30
0.0
 10
396.2275776537112
 20
522.4255973237814
 30
0.0
 10
396.5934375172118
 20
521.9086753532959
 30
0.0
 10
396.9963878614238
 20
521.4467809960006
 30
0.0
 10
397.4031536333342
 20
521.0569213126885
 30
0.0
 10
397.8222086445242
 20
520.7105498444162
 30
0.0
 10
398.2896976651024
 20
520.3793950217238
 30
0.0
 10
398.8129398382953
 20
520.0763508799679
 30
0.0
 10
399.3670993848401
 20
519.8289332653803
 30
0.0
 10
399.7459079011078
 20
519.6832063674015
 30
0.0
 10
399.9355400753354
 20
519.6102552395349
 30
0.0
 11
399.9355400753354
 21
531.77077257962
 31
0.0
 11
399.3685751804198
 21
531.5468929479127
 31
0.0
 11
398.8155431505568
 21
531.294110610628
 31
0.0
 11
398.2950171954267
 21
530.9942222216789
 31
0.0
 11
397.8032515387529
 21
530.6471861914313
 31
0.0
 11
397.3491977293352
 21
530.2668155360528
 31
0.0
 11
396.9294232083043
 21
529.8496557931478
 31
0.0
 11
396.5542443514758
 21
529.4037454846717
 31
0.0
 11
396.2206089908525
 21
528.9257519733592
 31
0.0
 11
395.9359046277187
 21
528.4266522965044
 31
0.0
 11
395.6983458477184
 21
527.903547082112
 31
0.0
 11
395.5127342256803
 21
527.3663708785317
 31
0.0
 11
395.3785024802274
 21
526.8141002977662
 31
0.0
 11
395.2978490446516
 21
526.2548704468838
 31
0.0
 11
395.2707971672527
 21
525.6905139095775
 31
0.0
 11
395.2978457753703
 21
525.1261589349136
 31
0.0
 11
395.3785024802274
 21
524.566927521389
 31
0.0
 11
395.5127441111471
 21
524.0146490624691
 31
0.0
 11
395.6983458477184
 21
523.4774807370429
 31
0.0
 11
395.9358678102602
 21
522.9544059335292
 31
0.0
 11
396.2206089908525
 21
522.4552758457958
 31
0.0
 11
396.6022797573571
 21
521.9155302916506
 31
0.0
 11
397.0366039072315
 21
521.4175031478435
 31
0.0
 11
397.4072487978635
 21
521.0617051504684
 31
0.0
 11
397.8032515387529
 21
520.7338416277237
 31
0.0
 11
398.2949943231067
 21
520.3868874578827
 31
0.0
 11
398.8155431505568
 21
520.0869172085272
 31
0.0
 11
399.3685829388609
 21
519.8341071036552
 31
0.0
 11
399.9355400753354
 21
519.6102552395349
 31
0.0
  0
ARC
  5
7C
330
36
100
AcDbEntity
  8
1
  6
Continuous
 62
     7
100
AcDbCircle
 10
198.081495160559
 20
247.1138344827926
 30
0.0
 40
25.00000000000008
100
AcDbArc
 50
-165.0000000000001
 51
-134.9999999999999
  0
ARC
  5
7D
330
36
100
AcDbEntity
  8
1
  6
Continuous
 62
     7
100
AcDbCircle
 10
164.4863853341274
 20
188.9253973775567
 30
0.0
 40
25.0
100
AcDbArc
 50
75.0
 51
104.9999999999999
  0
ARC
  5
7E
330
36
100
AcDbEntity
  8
1
  6
Continuous
 62
     7
100
AcDbCircle
 10
130.8912755076958
 20
247.1138344827926
 30
0.0
 40
25.00000000000002
100
AcDbArc
 50
-45.00000000000005
 51
-14.99999999999995
  0
ARC
  5
7F
330
36
100
AcDbEntity
  8
1
  6
Continuous
 62
     7
100
AcDbCircle
 10
403.1953277396212
 20
546.9427665271173
 30
0.0
 40
5.999999999999907
100
AcDbArc
 50
97.99999999999926
 51
170.1970982062319
  0
ARC
  5
80
330
36
100
AcDbEntity
  8
1
  6
Continuous
 62
     7
100
AcDbCircle
 10
405.6453688892116
 20
552.8411490041884
 30
0.0
 40
0.5
100
AcDbArc
 50
0.0
 51
98.0000000000036
  0
ARC
  5
81
330
36
100
AcDbEntity
  8
1
  6
Continuous
 62
     7
100
AcDbCircle
 10
405.6453688892116
 20
498.5398788149665
 30
0.0
 40
0.5000000000002431
100
AcDbArc
 50
-98.0000000000166
 51
0.0
  0
ARC
  5
82
330
36
100
AcDbEntity
  8
1
  6
Continuous
 62
     7
100
AcDbCircle
 10
403.1953277396212
 20
504.4382612920376
 30
0.0
 40
6.000000000000072
100
AcDbArc
 50
-170.1970982062293
 51
-97.99999999999905
  0
ARC
  5
83
330
36
100
AcDbEntity
  8
1
  6
Continuous
 62
     7
100
AcDbCircle
 10
405.6453688892115
 20
209.7929144931216
 30
0.0
 40
0.5000000000002008
100
AcDbArc
 50
-98.00409437169667
 51
-0.0000000000228
  0
ARC
  5
84
330
36
100
AcDbEntity
  8
1
  6
Continuous
 62
     7
100
AcDbCircle
 10
405.6453688892115
 20
258.1425045774365
 30
0.0
 40
0.5
100
AcDbArc
 50
0.0
 51
97.99999999998435
  0
ARC
  5
85
330
36
100
AcDbEntity
  8
1
  6
Continuous
 62
     7
100
AcDbCircle
 10
402.0217554760195
 20
215.856551651893
 30
0.0
 40
6.000000000000005
100
AcDbArc
 50
-170.4085075173357
 51
-98.00409437170107
  0
ARC
  5
86
330
36
100
AcDbEntity
  8
1
  6
Continuous
 62
     7
100
AcDbCircle
 10
403.1953277396214
 20
252.2441221003655
 30
0.0
 40
6.000000000000024
100
AcDbArc
 50
98.00000000000129
 51
170.1970982062312
  0
ENDBLK
  5
38
330
36
100
AcDbEntity
  8
0
100
AcDbBlockEnd
  0
BLOCK
  5
3A
330
39
100
AcDbEntity
  8
0
100
AcDbBlockBegin
  2
42-1
 70
     0
 71
     0
 10
584.9163564230207
 20
315.8219488676506
 30
0.0
  3
42-1
  1

  0
LINE
  5
87
330
39
100
AcDbEntity
  8
1
  6
Continuous
 62
     7
100
AcDbLine
 10
392.1267074134359
 20
222.7176887810471
 30
0.0
 11
392.1267074134359
 21
232.7176887810471
 31
0.0
  0
LINE
  5
88
330
39
100
AcDbEntity
  8
1
  6
Continuous
 62
     7
100
AcDbLine
 10
391.7969416932322
 20
227.7176887810471
 30
0.0
 11
391.7969416932322
 21
233.4676887810471
 31
0.0
  0
LINE
  5
89
330
39
100
AcDbEntity
  8
1
  6
Continuous
 62
     2
100
AcDbLine
 10
394.149608401875
 20
228.7176887810471
 30
0.0
 11
392.8843693112646
 21
228.7176887810471
 31
0.0
  0
LINE
  5
8A
330
39
100
AcDbEntity
  8
1
  6
Continuous
 62
     2
100
AcDbLine
 10
394.4091446255901
 20
229.7176887810471
 30
0.0
 11
392.6410541015319
 21
229.7176887810471
 31
0.0
  0
LINE
  5
8B
330
39
100
AcDbEntity
  8
1
  6
Continuous
 62
     2
100
AcDbLine
 10
394.7660069331982
 20
230.7176887810471
 30
0.0
 11
392.4301809197636
 21
230.7176887810471
 31
0.0
  0
LINE
  5
8C
330
39
100
AcDbEntity
  8
1
  6
Continuous
 62
     2
100
AcDbLine
 10
394.9606591009844
 20
231.7176887810471
 30
0.0
 11
392.3166338218881
 21
231.7176887810471
 31
0.0
  0
LINE
  5
8D
330
39
100
AcDbEntity
  8
1
  6
Continuous
 62
     2
100
AcDbLine
 10
395.1267074134359
 20
232.7176887810471
 30
0.0
 11
392.1267074134359
 21
232.7176887810471
 31
0.0
  0
LINE
  5
8E
330
39
100
AcDbEntity
  8
1
  6
Continuous
 62
     7
100
AcDbLine
 10
395.1267074134359
 20
220.7176887810471
 30
0.0
 11
395.1267074134359
 21
234.7176887810471
 31
0.0
  0
LINE
  5
8F
330
39
100
AcDbEntity
  8
1
  6
Continuous
 62
     7
100
AcDbLine
 10
392.1267074134359
 20
232.7176887810471
 30
0.0
 11
392.1267074134359
 21
233.7176887810471
 31
0.0
  0
LINE
  5
90
330
39
100
AcDbEntity
  8
1
  6
Continuous
 62
     2
100
AcDbLine
 10
395.1267074134359
 20
233.7176887810471
 30
0.0
 11
392.1267074134359
 21
233.7176887810471
 31
0.0
  0
LINE
  5
91
330
39
100
AcDbEntity
  8
1
  6
Continuous
 62
     7
100
AcDbLine
 10
392.1267074134359
 20
233.7176887810471
 30
0.0
 11
392.1267074134359
 21
234.7176887810471
 31
0.0
  0
LINE
  5
92
330
39
100
AcDbEntity
  8
1
  6
Continuous
 62
     7
100
AcDbLine
 10
391.8573852144127
 20
233.7176887810472
 30
0.0
 11
392.1267074134359
 21
234.7176887810471
 31
0.0
  0
LINE
  5
93
330
39
100
AcDbEntity
  8
1
  6
Continuous
 62
     7
100
AcDbLine
 10
392.1267074134359
 20
234.7176887810471
 30
0.0
 11
395.1267074134359
 21
234.7176887810471
 31
0.0
  0
LINE
  5
94
330
39
100
AcDbEntity
  8
1
  6
Continuous
 62
     7
100
AcDbLine
 10
395.1267074134359
 20
220.7176887810471
 30
0.0
 11
392.1267074134359
 21
220.7176887810471
 31
0.0
  0
LINE
  5
95
330
39
100
AcDbEntity
  8
1
  6
Continuous
 62
     7
100
AcDbLine
 10
392.1267074134359
 20
220.7176887810471
 30
0.0
 11
391.8573852144127
 21
221.7176887810471
 31
0.0
  0
LINE
  5
96
330
39
100
AcDbEntity
  8
1
  6
Continuous
 62
     7
100
AcDbLine
 10
392.1267074134359
 20
220.7176887810471
 30
0.0
 11
392.1267074134359
 21
221.7176887810471
 31
0.0
  0
LINE
  5
97
330
39
100
AcDbEntity
  8
1
  6
Continuous
 62
     2
100
AcDbLine
 10
392.1267074134359
 20
221.7176887810471
 30
0.0
 11
395.1267074134359
 21
221.7176887810471
 31
0.0
  0
LINE
  5
98
330
39
100
AcDbEntity
  8
1
  6
Continuous
 62
     7
100
AcDbLine
 10
392.1267074134359
 20
221.7176887810471
 30
0.0
 11
392.1267074134359
 21
222.7176887810471
 31
0.0
  0
LINE
  5
99
330
39
100
AcDbEntity
  8
1
  6
Continuous
 62
     2
100
AcDbLine
 10
392.1267074134359
 20
222.7176887810471
 30
0.0
 11
395.1267074134359
 21
222.7176887810471
 31
0.0
  0
LINE
  5
9A
330
39
100
AcDbEntity
  8
1
  6
Continuous
 62
     2
100
AcDbLine
 10
392.3166338218881
 20
223.7176887810471
 30
0.0
 11
394.9606591009844
 21
223.7176887810471
 31
0.0
  0
LINE
  5
9B
330
39
100
AcDbEntity
  8
1
  6
Continuous
 62
     2
100
AcDbLine
 10
392.4301809197636
 20
224.7176887810471
 30
0.0
 11
394.7660069331982
 21
224.7176887810471
 31
0.0
  0
LINE
  5
9C
330
39
100
AcDbEntity
  8
1
  6
Continuous
 62
     2
100
AcDbLine
 10
392.6410541015319
 20
225.7176887810471
 30
0.0
 11
394.4091446255901
 21
225.7176887810471
 31
0.0
  0
LINE
  5
9D
330
39
100
AcDbEntity
  8
1
  6
Continuous
 62
     2
100
AcDbLine
 10
392.8843693112646
 20
226.7176887810471
 30
0.0
 11
394.149608401875
 21
226.7176887810471
 31
0.0
  0
LINE
  5
9E
330
39
100
AcDbEntity
  8
1
  6
Continuous
 62
     7
100
AcDbLine
 10
391.7969416932322
 20
221.9676887810471
 30
0.0
 11
391.7969416932322
 21
227.7176887810471
 31
0.0
  0
LINE
  5
9F
330
39
100
AcDbEntity
  8
1
  6
Continuous
 62
     2
100
AcDbLine
 10
392.9030307870403
 20
524.6905139095777
 30
0.0
 11
394.1682698776508
 21
524.6905139095777
 31
0.0
  0
LINE
  5
A0
330
39
100
AcDbEntity
  8
1
  6
Continuous
 62
     2
100
AcDbLine
 10
392.6597155773076
 20
523.6905139095777
 30
0.0
 11
394.4278061013659
 21
523.6905139095777
 31
0.0
  0
LINE
  5
A1
330
39
100
AcDbEntity
  8
1
  6
Continuous
 62
     2
100
AcDbLine
 10
392.4488423955392
 20
522.6905139095777
 30
0.0
 11
394.7846684089738
 21
522.6905139095777
 31
0.0
  0
LINE
  5
A2
330
39
100
AcDbEntity
  8
1
  6
Continuous
 62
     2
100
AcDbLine
 10
392.3352952976639
 20
521.6905139095777
 30
0.0
 11
394.9793205767601
 21
521.6905139095777
 31
0.0
  0
LINE
  5
A3
330
39
100
AcDbEntity
  8
1
  6
Continuous
 62
     2
100
AcDbLine
 10
392.1453688892116
 20
520.6905139095777
 30
0.0
 11
395.1453688892116
 21
520.6905139095777
 31
0.0
  0
LINE
  5
A4
330
39
100
AcDbEntity
  8
1
  6
Continuous
 62
     2
100
AcDbLine
 10
392.1453688892116
 20
519.6905139095775
 30
0.0
 11
395.1453688892116
 21
519.6905139095775
 31
0.0
  0
LINE
  5
A5
330
39
100
AcDbEntity
  8
1
  6
Continuous
 62
     7
100
AcDbLine
 10
392.1453688892116
 20
518.6905139095775
 30
0.0
 11
391.8760466901884
 21
519.6905139095775
 31
0.0
  0
LINE
  5
A6
330
39
100
AcDbEntity
  8
1
  6
Continuous
 62
     7
100
AcDbLine
 10
395.1453688892116
 20
518.6905139095775
 30
0.0
 11
392.1453688892116
 21
518.6905139095775
 31
0.0
  0
LINE
  5
A7
330
39
100
AcDbEntity
  8
1
  6
Continuous
 62
     7
100
AcDbLine
 10
392.1453688892116
 20
532.6905139095775
 30
0.0
 11
395.1453688892116
 21
532.6905139095775
 31
0.0
  0
LINE
  5
A8
330
39
100
AcDbEntity
  8
1
  6
Continuous
 62
     7
100
AcDbLine
 10
391.8760466901884
 20
531.6905139095777
 30
0.0
 11
392.1453688892116
 21
532.6905139095775
 31
0.0
  0
LINE
  5
A9
330
39
100
AcDbEntity
  8
1
  6
Continuous
 62
     2
100
AcDbLine
 10
395.1453688892116
 20
531.6905139095775
 30
0.0
 11
392.1453688892116
 21
531.6905139095775
 31
0.0
  0
LINE
  5
AA
330
39
100
AcDbEntity
  8
1
  6
Continuous
 62
     7
100
AcDbLine
 10
395.1453688892116
 20
518.6905139095775
 30
0.0
 11
395.1453688892116
 21
532.6905139095775
 31
0.0
  0
LINE
  5
AB
330
39
100
AcDbEntity
  8
1
  6
Continuous
 62
     2
100
AcDbLine
 10
395.1453688892116
 20
530.6905139095775
 30
0.0
 11
392.1453688892116
 21
530.6905139095775
 31
0.0
  0
LINE
  5
AC
330
39
100
AcDbEntity
  8
1
  6
Continuous
 62
     2
100
AcDbLine
 10
394.9793205767601
 20
529.6905139095775
 30
0.0
 11
392.3352952976639
 21
529.6905139095775
 31
0.0
  0
LINE
  5
AD
330
39
100
AcDbEntity
  8
1
  6
Continuous
 62
     2
100
AcDbLine
 10
394.7846684089738
 20
528.6905139095775
 30
0.0
 11
392.4488423955392
 21
528.6905139095775
 31
0.0
  0
LINE
  5
AE
330
39
100
AcDbEntity
  8
1
  6
Continuous
 62
     2
100
AcDbLine
 10
394.4278061013659
 20
527.6905139095775
 30
0.0
 11
392.6597155773076
 21
527.6905139095775
 31
0.0
  0
LINE
  5
AF
330
39
100
AcDbEntity
  8
1
  6
Continuous
 62
     2
100
AcDbLine
 10
394.1682698776508
 20
526.6905139095775
 30
0.0
 11
392.9030307870403
 21
526.6905139095775
 31
0.0
  0
LINE
  5
B0
330
39
100
AcDbEntity
  8
1
  6
Continuous
 62
     7
100
AcDbLine
 10
391.8156031690078
 20
519.9405139095777
 30
0.0
 11
391.8156031690078
 21
531.4405139095775
 31
0.0
  0
LINE
  5
B1
330
39
100
AcDbEntity
  8
1
  6
Continuous
 62
     7
100
AcDbLine
 10
392.1453688892116
 20
518.6905139095775
 30
0.0
 11
392.1453688892116
 21
532.6905139095775
 31
0.0
  0
ARC
  5
B2
330
39
100
AcDbEntity
  8
1
  6
Continuous
 62
     7
100
AcDbCircle
 10
416.1267074134359
 20
227.7176887810471
 30
0.0
 40
24.99999999999996
100
AcDbArc
 50
166.7029282527909
 51
180.0
  0
ARC
  5
B3
330
39
100
AcDbEntity
  8
1
  6
Continuous
 62
     7
100
AcDbCircle
 10
416.1267074134359
 20
227.7176887810471
 30
0.0
 40
25.00000000000001
100
AcDbArc
 50
166.1134596373708
 51
166.7029282527909
  0
ARC
  5
B4
330
39
100
AcDbEntity
  8
1
  6
Continuous
 62
     7
100
AcDbCircle
 10
416.1267074134359
 20
227.7176887810471
 30
0.0
 40
24.99999999999996
100
AcDbArc
 50
-166.7029282527909
 51
-166.113459637371
  0
ARC
  5
B5
330
39
100
AcDbEntity
  8
1
  6
Continuous
 62
     7
100
AcDbCircle
 10
416.1267074134359
 20
227.7176887810471
 30
0.0
 40
25.0
100
AcDbArc
 50
180.0
 51
-166.7029282527909
  0
ARC
  5
B6
330
39
100
AcDbEntity
  8
1
  6
Continuous
 62
     7
100
AcDbCircle
 10
416.1453688892116
 20
525.6905139095775
 30
0.0
 40
25.0
100
AcDbArc
 50
180.0
 51
-166.113459637371
  0
ARC
  5
B7
330
39
100
AcDbEntity
  8
1
  6
Continuous
 62
     7
100
AcDbCircle
 10
416.1453688892116
 20
525.6905139095775
 30
0.0
 40
25.0000000000001
100
AcDbArc
 50
166.1134596373705
 51
180.0
  0
CIRCLE
  5
B8
330
39
100
AcDbEntity
  8
0
  6
Continuous
 62
     7
100
AcDbCircle
 10
164.4863853341267
 20
227.717688781047
 30
0.0
 40
5.749999999999318
  0
CIRCLE
  5
B9
330
39
100
AcDbEntity
  8
0
  6
Continuous
 62
     7
100
AcDbCircle
 10
164.4863853341267
 20
227.717688781047
 30
0.0
 40
6.999999999999687
  0
ENDBLK
  5
3B
330
39
100
AcDbEntity
  8
0
100
AcDbBlockEnd
  0
BLOCK
  5
3D
330
3C
100
AcDbEntity
  8
0
100
AcDbBlockBegin
  2
R20F
 70
     0
 71
     0
 10
392.5281676272184
 20
209.2929144931214
 30
0.0
  3
R20F
  1

  0
LINE
  5
BA
330
3C
100
AcDbEntity
  8
1
  6
PHANTOM
 62
     4
100
AcDbLine
 10
390.3197466774097
 20
227.7176887810471
 30
0.0
 11
398.2493704697653
 21
227.7176887810471
 31
0.0
  0
ENDBLK
  5
3E
330
3C
100
AcDbEntity
  8
0
100
AcDbBlockEnd
  0
BLOCK
  5
40
330
3F
100
AcDbEntity
  8
0
100
AcDbBlockBegin
  2
37-1-13
 70
     0
 71
     0
 10
564.1224133035804
 20
319.5189189978181
 30
0.0
  3
37-1-13
  1

  0
LINE
  5
BB
330
3F
100
AcDbEntity
  8
1
  6
Continuous
 62
     7
100
AcDbLine
 10
419.6267074134358
 20
215.2176887810473
 30
0.0
 11
419.6267074134359
 21
227.7176887810471
 31
0.0
  0
LINE
  5
BC
330
3F
100
AcDbEntity
  8
1
  6
Continuous
 62
     7
100
AcDbLine
 10
419.6267074134359
 20
227.7176887810471
 30
0.0
 11
419.6267074134358
 21
240.217688781047
 31
0.0
  0
LINE
  5
BD
330
3F
100
AcDbEntity
  8
1
  6
Continuous
 62
     7
100
AcDbLine
 10
427.1267074134359
 20
240.7884029953186
 30
0.0
 11
427.1267074134359
 21
214.6469745667757
 31
0.0
  0
LINE
  5
BE
330
3F
100
AcDbEntity
  8
1
  6
Continuous
 62
     7
100
AcDbLine
 10
413.1267074134358
 20
233.7176887810471
 30
0.0
 11
413.1267074134358
 21
221.7176887810471
 31
0.0
  0
LINE
  5
BF
330
3F
100
AcDbEntity
  8
1
  6
Continuous
 62
     7
100
AcDbLine
 10
419.6267074134358
 20
513.1905139095777
 30
0.0
 11
419.6267074134359
 21
525.6905139095775
 31
0.0
  0
LINE
  5
C0
330
3F
100
AcDbEntity
  8
1
  6
Continuous
 62
     7
100
AcDbLine
 10
427.1267074134359
 20
525.6905139095775
 30
0.0
 11
427.1267074134359
 21
512.6905139095775
 31
0.0
  0
LINE
  5
C1
330
3F
100
AcDbEntity
  8
1
  6
Continuous
 62
     7
100
AcDbLine
 10
413.1267074134359
 20
525.6905139095775
 30
0.0
 11
413.1267074134359
 21
519.6905139095775
 31
0.0
  0
LINE
  5
C2
330
3F
100
AcDbEntity
  8
1
  6
Continuous
 62
     7
100
AcDbLine
 10
420.0559931991643
 20
512.6905139095775
 30
0.0
 11
427.1267074134359
 21
512.6905139095775
 31
0.0
  0
LINE
  5
C3
330
3F
100
AcDbEntity
  8
1
  6
Continuous
 62
     7
100
AcDbLine
 10
419.6267074134359
 20
525.6905139095775
 30
0.0
 11
419.6267074134358
 21
538.1905139095773
 31
0.0
  0
LINE
  5
C4
330
3F
100
AcDbEntity
  8
1
  6
Continuous
 62
     7
100
AcDbLine
 10
427.1267074134359
 20
538.6905139095775
 30
0.0
 11
427.1267074134359
 21
525.6905139095775
 31
0.0
  0
LINE
  5
C5
330
3F
100
AcDbEntity
  8
1
  6
Continuous
 62
     7
100
AcDbLine
 10
413.1267074134359
 20
531.6905139095775
 30
0.0
 11
413.1267074134359
 21
525.6905139095775
 31
0.0
  0
LINE
  5
C6
330
3F
100
AcDbEntity
  8
1
  6
Continuous
 62
     7
100
AcDbLine
 10
427.1267074134359
 20
538.6905139095775
 30
0.0
 11
420.0559931991643
 21
538.6905139095775
 31
0.0
  0
ARC
  5
C7
330
3F
100
AcDbEntity
  8
1
  6
Continuous
 62
     7
100
AcDbCircle
 10
399.720252208321
 20
201.8112335759322
 30
0.0
 40
23.99999999999995
100
AcDbArc
 50
33.95919250009806
 51
56.04080749990281
  0
ARC
  5
C8
330
3F
100
AcDbEntity
  8
1
  6
Continuous
 62
     7
100
AcDbCircle
 10
423.6267074134359
 20
218.2176887810471
 30
0.0
 40
4.999999999999972
100
AcDbArc
 50
-143.1301023541586
 51
-45.57299599919402
  0
ARC
  5
C9
330
3F
100
AcDbEntity
  8
1
  6
Continuous
 62
     7
100
AcDbCircle
 10
399.7202522083211
 20
253.624143986162
 30
0.0
 40
23.99999999999988
100
AcDbArc
 50
-56.04080749990295
 51
-33.95919250009797
  0
ARC
  5
CA
330
3F
100
AcDbEntity
  8
1
  6
Continuous
 62
     7
100
AcDbCircle
 10
423.6267074134359
 20
237.2176887810471
 30
0.0
 40
5.000000000000057
100
AcDbArc
 50
45.57299599919494
 51
143.1301023541575
  0
ARC
  5
CB
330
3F
100
AcDbEntity
  8
1
  6
Continuous
 62
     7
100
AcDbCircle
 10
399.720252208321
 20
499.7840587044627
 30
0.0
 40
23.99999999999989
100
AcDbArc
 50
33.95919250009784
 51
56.04080749990239
  0
ARC
  5
CC
330
3F
100
AcDbEntity
  8
1
  6
Continuous
 62
     7
100
AcDbCircle
 10
423.6267074134359
 20
516.1905139095775
 30
0.0
 40
4.999999999999955
100
AcDbArc
 50
-143.1301023541589
 51
-135.5729959991959
  0
ARC
  5
CD
330
3F
100
AcDbEntity
  8
1
  6
Continuous
 62
     7
100
AcDbCircle
 10
399.720252208321
 20
551.5969691146922
 30
0.0
 40
23.99999999999983
100
AcDbArc
 50
-56.04080749990239
 51
-33.95919250009784
  0
ARC
  5
CE
330
3F
100
AcDbEntity
  8
1
  6
Continuous
 62
     7
100
AcDbCircle
 10
423.6267074134359
 20
535.1905139095775
 30
0.0
 40
5.000000000000138
100
AcDbArc
 50
135.5729959991959
 51
143.1301023541589
  0
SPLINE
  5
CF
330
3F
100
AcDbEntity
  8
1
  6
Continuous
 62
     7
100
AcDbSpline
210
0.0
220
0.0
230
1.0
 70
     8
 71
     3
 72
    29
 73
    25
 74
    23
 42
0.0000000001
 43
0.0000000001
 44
0.00000001
 40
0.0
 40
0.0
 40
0.0
 40
0.0
 40
0.6069077131759105
 40
1.212222625822746
 40
1.842666707826783
 40
2.474631900595319
 40
3.102420172365259
 40
3.729333891456311
 40
4.271042939833122
 40
4.812985328221234
 40
5.340107980728433
 40
5.866248927280096
 40
6.263874837343217
 40
6.661485236222319
 40
7.280966497569025
 40
7.902596738528182
 40
8.549168915178889
 40
9.195896772489276
 40
9.722415974179278
 40
10.24911841725704
 40
11.07897537274018
 40
11.90732207846635
 40
12.67331709995028
 40
13.44191271185829
 40
13.44191271185829
 40
13.44191271185829
 40
13.44191271185829
 10
420.1267074134359
 20
227.7176887810471
 30
0.0
 10
420.1365827868983
 20
227.9197486106045
 30
0.0
 10
420.1563076163735
 20
228.3233379732734
 30
0.0
 10
420.2200979704263
 20
228.9350435236119
 30
0.0
 10
420.3542812677438
 20
229.5444605855019
 30
0.0
 10
420.554736888428
 20
230.142866761007
 30
0.0
 10
420.8132980052459
 20
230.7174292929028
 30
0.0
 10
421.1222273950173
 20
231.2323270905744
 30
0.0
 10
421.4760443195921
 20
231.6813459645727
 30
0.0
 10
421.8640689877551
 20
232.0552875670637
 30
0.0
 10
422.3009993915179
 20
232.3622534685238
 30
0.0
 10
422.7412133586181
 20
232.5695621260577
 30
0.0
 10
423.1679224793027
 20
232.6854647143284
 30
0.0
 10
423.6388379218049
 20
232.7361679192228
 30
0.0
 10
424.1878125148489
 20
232.675711595945
 30
0.0
 10
424.7855585810691
 20
232.4627643641983
 30
0.0
 10
425.3271608270676
 20
232.1155274268521
 30
0.0
 10
425.7677687952051
 20
231.6941697010195
 30
0.0
 10
426.1176427188422
 20
231.2467562107625
 30
0.0
 10
426.446553101831
 20
230.7109198248398
 30
0.0
 10
426.7502917234584
 20
230.0460287749265
 30
0.0
 10
426.9750615888008
 20
229.2663677134524
 30
0.0
 10
427.0794483942107
 20
228.483962095143
 30
0.0
 10
427.1108708729595
 20
227.9734016257804
 30
0.0
 10
427.1266087373489
 20
227.7176887810471
 30
0.0
 11
420.1267074134359
 21
227.7176887810471
 31
0.0
 11
420.1619082791983
 21
228.3235748028053
 31
0.0
 11
420.2302652712825
 21
228.9250176222868
 31
0.0
 11
420.3649417571069
 21
229.5409088340279
 31
0.0
 11
420.5650066490519
 21
230.1403702955765
 31
0.0
 11
420.8243878873021
 21
230.7120690688966
 31
0.0
 11
421.1486078420801
 21
231.2486342859097
 31
0.0
 11
421.4852169820612
 21
231.6730668246889
 31
0.0
 11
421.8767074134359
 21
232.0478157999694
 31
0.0
 11
422.3090525746545
 21
232.3493716859294
 31
0.0
 11
422.7860549602706
 21
232.5713919997631
 31
0.0
 11
423.1699039904003
 21
232.6751527169061
 31
0.0
 11
423.5653155362145
 21
232.7169108147268
 31
0.0
 11
424.1814199904245
 21
232.6523172031055
 31
0.0
 11
424.7673541607013
 21
232.4446990329542
 31
0.0
 11
425.3139557946154
 21
232.0993264320993
 31
0.0
 11
425.7839317746957
 21
231.6550523054963
 31
0.0
 11
426.1094064222668
 21
231.2411818867216
 31
0.0
 11
426.3863119204464
 21
230.7931430394974
 31
0.0
 11
426.7312740086239
 21
230.0383823328599
 31
0.0
 11
426.9599514983702
 21
229.2422260224718
 31
0.0
 11
427.0702716273848
 21
228.4842168918722
 31
0.0
 11
427.1266087373489
 21
227.7176887810471
 31
0.0
  0
SPLINE
  5
D0
330
3F
100
AcDbEntity
  8
1
  6
Continuous
 62
     7
100
AcDbSpline
210
0.0
220
0.0
230
1.0
 70
    11
 71
     3
 72
    79
 73
    75
 74
    73
 42
0.0000000001
 43
0.0000000001
 44
0.00000001
 40
0.0
 40
0.0
 40
0.0
 40
0.0
 40
0.2803981145479569
 40
0.5607977859033231
 40
0.8427454841469391
 40
1.124697473048729
 40
1.409536451638314
 40
1.694381500886055
 40
1.983071310125386
 40
2.271767843423112
 40
2.564776142201117
 40
2.857790854546638
 40
3.155055698552861
 40
3.452325978930956
 40
3.753284827389824
 40
4.054247742882854
 40
4.357919806975825
 40
4.661594368329029
 40
4.966700748943518
 40
5.271807969839469
 40
5.57691519073542
 40
5.882021571349966
 40
6.185696132703231
 40
6.489368196796084
 40
6.790331112289091
 40
7.091289960747973
 40
7.388560241126019
 40
7.685825085132289
 40
7.978839797477916
 40
8.27184809625582
 40
8.560544629553569
 40
8.849234438792909
 40
9.134079488040621
 40
9.418918466630229
 40
9.700870455532037
 40
9.982818153775639
 40
10.26321782513101
 40
10.54361593967896
 40
10.8240140542268
 40
11.10441372558206
 40
11.38636142382555
 40
11.66831341272728
 40
11.95315239131686
 40
12.2379974405646
 40
12.52668724980391
 40
12.81538378310168
 40
13.10839208187967
 40
13.40140679422535
 40
13.69867163823162
 40
13.99594191860962
 40
14.29690076706846
 40
14.5978636825615
 40
14.90153574665435
 40
15.20521030800762
 40
15.51031668862216
 40
15.81542390951811
 40
16.12053113041406
 40
16.42563751102854
 40
16.72931207238175
 40
17.03298413647472
 40
17.33394705196782
 40
17.6349059004266
 40
17.93217618080462
 40
18.22944102481087
 40
18.52245573715651
 40
18.81546403593453
 40
19.1041605692322
 40
19.39285037847159
 40
19.6776954277193
 40
19.96253440630891
 40
20.24448639521064
 40
20.52643409345412
 40
20.80683376480938
 40
21.08723187935722
 40
21.08723187935722
 40
21.08723187935722
 40
21.08723187935722
 10
420.1267074134359
 20
238.9760190302447
 30
0.0
 10
420.1292887993251
 20
239.0695195732982
 30
0.0
 10
420.1344515854357
 20
239.2565211785326
 30
0.0
 10
420.1759239354847
 20
239.5350055917727
 30
0.0
 10
420.2418240958775
 20
239.8089477881752
 30
0.0
 10
420.3340562051116
 20
240.0768759535106
 30
0.0
 10
420.4511383944705
 20
240.335921741071
 30
0.0
 10
420.5926146760496
 20
240.5850810352237
 30
0.0
 10
420.7568970220427
 20
240.8213910554017
 30
0.0
 10
420.9433571702592
 20
241.0441660493196
 30
0.0
 10
421.1497816451964
 20
241.2506220816177
 30
0.0
 10
421.375499339633
 20
241.4402348252581
 30
0.0
 10
421.6177901379816
 20
241.6106340011837
 30
0.0
 10
421.8758476308216
 20
241.7613468087915
 30
0.0
 10
422.1466748343034
 20
241.8905699453171
 30
0.0
 10
422.4291916878002
 20
241.9978496185015
 30
0.0
 10
422.7203796583934
 20
242.0820041220566
 30
0.0
 10
423.0187584313081
 20
242.1426473958879
 30
0.0
 10
423.3215194031882
 20
242.179181158159
 30
0.0
 10
423.6267074134362
 20
242.191400188896
 30
0.0
 10
423.9318954236824
 20
242.1791811581591
 30
0.0
 10
424.2346563955674
 20
242.1426473958879
 30
0.0
 10
424.5330351684652
 20
242.0820041220567
 30
0.0
 10
424.8242231391209
 20
241.9978496185015
 30
0.0
 10
425.106739992386
 20
241.890569945317
 30
0.0
 10
425.3775671967275
 20
241.7613468087915
 30
0.0
 10
425.6356246863967
 20
241.6106340011837
 30
0.0
 10
425.8779154964922
 20
241.440234825258
 30
0.0
 10
426.1036331476903
 20
241.2506220816177
 30
0.0
 10
426.3100577827166
 20
241.0441660493196
 30
0.0
 10
426.496517341894
 20
240.8213910554017
 30
0.0
 10
426.6608018696049
 20
240.5850810352238
 30
0.0
 10
426.8022701126748
 20
240.3359217410709
 30
0.0
 10
426.9193821162764
 20
240.0768759535106
 30
0.0
 10
427.0115040347494
 20
239.808947788175
 30
0.0
 10
427.0778138003171
 20
239.5350055917728
 30
0.0
 10
427.1177654654131
 20
239.2565211785327
 30
0.0
 10
427.1311783750357
 20
238.9760190302447
 30
0.0
 10
427.1177654654128
 20
238.6955168819568
 30
0.0
 10
427.0778138003171
 20
238.4170324687169
 30
0.0
 10
427.0115040347495
 20
238.1430902723145
 30
0.0
 10
426.9193821162764
 20
237.8751621069793
 30
0.0
 10
426.8022701126747
 20
237.6161163194189
 30
0.0
 10
426.6608018696051
 20
237.3669570252661
 30
0.0
 10
426.4965173418938
 20
237.1306470050882
 30
0.0
 10
426.3100577827167
 20
236.9078720111702
 30
0.0
 10
426.1036331476901
 20
236.701415978872
 30
0.0
 10
425.8779154964923
 20
236.5118032352316
 30
0.0
 10
425.6356246863966
 20
236.341404059306
 30
0.0
 10
425.3775671967276
 20
236.1906912516982
 30
0.0
 10
425.1067399923859
 20
236.0614681151727
 30
0.0
 10
424.8242231391209
 20
235.9541884419882
 30
0.0
 10
424.5330351684653
 20
235.8700339384332
 30
0.0
 10
424.2346563955672
 20
235.8093906646018
 30
0.0
 10
423.9318954236825
 20
235.7728569023306
 30
0.0
 10
423.6267074134362
 20
235.7606378715939
 30
0.0
 10
423.3215194031883
 20
235.7728569023306
 30
0.0
 10
423.018758431308
 20
235.8093906646018
 30
0.0
 10
422.7203796583934
 20
235.8700339384331
 30
0.0
 10
422.4291916878001
 20
235.9541884419882
 30
0.0
 10
422.1466748343036
 20
236.0614681151727
 30
0.0
 10
421.8758476308216
 20
236.1906912516981
 30
0.0
 10
421.6177901379816
 20
236.3414040593061
 30
0.0
 10
421.3754993396327
 20
236.5118032352315
 30
0.0
 10
421.1497816451964
 20
236.7014159788721
 30
0.0
 10
420.9433571702591
 20
236.9078720111701
 30
0.0
 10
420.7568970220427
 20
237.1306470050881
 30
0.0
 10
420.5926146760496
 20
237.366957025266
 30
0.0
 10
420.4511383944707
 20
237.616116319419
 30
0.0
 10
420.3340562051114
 20
237.8751621069792
 30
0.0
 10
420.2418240958775
 20
238.1430902723147
 30
0.0
 10
420.1759239354845
 20
238.4170324687169
 30
0.0
 10
420.1344515854358
 20
238.6955168819568
 30
0.0
 10
420.1292887993251
 20
238.8825184871912
 30
0.0
 10
420.1267074134359
 20
238.9760190302447
 30
0.0
 11
420.1267074134359
 21
238.9760190302447
 31
0.0
 11
420.140060198734
 21
239.2560990291144
 31
0.0
 11
420.1798802778931
 21
239.533656837493
 31
0.0
 11
420.2461398606172
 21
239.807708241872
 31
0.0
 11
420.3377832406853
 21
240.0743511021465
 31
0.0
 11
420.4550312409705
 21
240.3339395266825
 31
0.0
 11
420.5956185001904
 21
240.581673102578
 31
0.0
 11
420.7603156955424
 21
240.8187735871871
 31
0.0
 11
420.9455518625195
 21
241.0402081165219
 31
0.0
 11
421.1526447394348
 21
241.2474915058316
 31
0.0
 11
421.3769507795331
 21
241.4360237896091
 31
0.0
 11
421.6200456102338
 21
241.6071123361827
 31
0.0
 11
421.8767074134359
 21
241.7570934629057
 31
0.0
 11
422.148295633407
 21
241.8867702427801
 31
0.0
 11
422.4296369117961
 21
241.9936615968574
 31
0.0
 11
422.7213543953416
 21
242.0780276581876
 31
0.0
 11
423.0189387916017
 21
242.1385401884234
 31
0.0
 11
423.3218445261359
 21
242.1751191369864
 31
0.0
 11
423.6267074134359
 21
242.1873271749112
 31
0.0
 11
423.9315703007359
 21
242.1751191369864
 31
0.0
 11
424.2344760352701
 21
242.1385401884234
 31
0.0
 11
424.5320604315303
 21
242.0780276581876
 31
0.0
 11
424.8237779150757
 21
241.9936615968574
 31
0.0
 11
425.1051191934647
 21
241.88677024278
 31
0.0
 11
425.3767074134359
 21
241.7570934629057
 31
0.0
 11
425.633369216638
 21
241.6071123361827
 31
0.0
 11
425.8764640473387
 21
241.4360237896091
 31
0.0
 11
426.1007700874371
 21
241.2474915058316
 31
0.0
 11
426.3078629643523
 21
241.0402081165219
 31
0.0
 11
426.4930991313294
 21
240.818773587187
 31
0.0
 11
426.6577963266814
 21
240.581673102578
 31
0.0
 11
426.7983835859013
 21
240.3339395266825
 31
0.0
 11
426.9156315861865
 21
240.0743511021465
 31
0.0
 11
427.0072749662547
 21
239.807708241872
 31
0.0
 11
427.0735345489787
 21
239.533656837493
 31
0.0
 11
427.1133546281379
 21
239.2560990291144
 31
0.0
 11
427.1267074134359
 21
238.9760190302447
 31
0.0
 11
427.1133546281379
 21
238.6959390313751
 31
0.0
 11
427.0735345489787
 21
238.4183812229966
 31
0.0
 11
427.0072749662547
 21
238.1443298186177
 31
0.0
 11
426.9156315861865
 21
237.8776869583433
 31
0.0
 11
426.7983835859013
 21
237.6180985338073
 31
0.0
 11
426.6577963266814
 21
237.3703649579118
 31
0.0
 11
426.4930991313294
 21
237.1332644733028
 31
0.0
 11
426.3078629643523
 21
236.9118299439679
 31
0.0
 11
426.1007700874371
 21
236.7045465546581
 31
0.0
 11
425.8764640473387
 21
236.5160142708805
 31
0.0
 11
425.633369216638
 21
236.3449257243069
 31
0.0
 11
425.3767074134359
 21
236.194944597584
 31
0.0
 11
425.1051191934648
 21
236.0652678177096
 31
0.0
 11
424.8237779150757
 21
235.9583764636323
 31
0.0
 11
424.5320604315303
 21
235.8740104023021
 31
0.0
 11
424.2344760352701
 21
235.8134978720663
 31
0.0
 11
423.9315703007359
 21
235.7769189235033
 31
0.0
 11
423.6267074134359
 21
235.7647108855786
 31
0.0
 11
423.3218445261359
 21
235.7769189235033
 31
0.0
 11
423.0189387916017
 21
235.8134978720663
 31
0.0
 11
422.7213543953416
 21
235.8740104023021
 31
0.0
 11
422.4296369117961
 21
235.9583764636323
 31
0.0
 11
422.148295633407
 21
236.0652678177097
 31
0.0
 11
421.8767074134359
 21
236.194944597584
 31
0.0
 11
421.6200456102338
 21
236.344925724307
 31
0.0
 11
421.3769507795331
 21
236.5160142708805
 31
0.0
 11
421.1526447394348
 21
236.7045465546581
 31
0.0
 11
420.9455518625195
 21
236.9118299439679
 31
0.0
 11
420.7603156955424
 21
237.1332644733027
 31
0.0
 11
420.5956185001904
 21
237.3703649579118
 31
0.0
 11
420.4550312409705
 21
237.6180985338073
 31
0.0
 11
420.3377832406853
 21
237.8776869583433
 31
0.0
 11
420.2461398606172
 21
238.1443298186177
 31
0.0
 11
420.1798802778931
 21
238.4183812229966
 31
0.0
 11
420.140060198734
 21
238.6959390313751
 31
0.0
 11
420.1267074134359
 21
238.9760190302447
 31
0.0
  0
SPLINE
  5
D1
330
3F
100
AcDbEntity
  8
1
  6
Continuous
 62
     7
100
AcDbSpline
210
0.0
220
0.0
230
1.0
 70
     8
 71
     3
 72
    29
 73
    25
 74
    23
 42
0.0000000001
 43
0.0000000001
 44
0.00000001
 40
0.0
 40
0.0
 40
0.0
 40
0.0
 40
0.6069077131758538
 40
1.212222625822633
 40
1.842666707826698
 40
2.474631900595287
 40
3.102420172365228
 40
3.729333891456207
 40
4.271042939832974
 40
4.812985328221046
 40
5.340107980728246
 40
5.866248927279945
 40
6.263874837343095
 40
6.661485236222209
 40
7.280966497568923
 40
7.902596738528089
 40
8.549168915178747
 40
9.195896772489217
 40
9.722415974179151
 40
10.24911841725684
 40
11.07897537274004
 40
11.90732207846634
 40
12.67331709995026
 40
13.44191271185813
 40
13.44191271185813
 40
13.44191271185813
 40
13.44191271185813
 10
420.1267074134359
 20
227.7176887810471
 30
0.0
 10
420.1365827868982
 20
227.5156289514897
 30
0.0
 10
420.1563076163733
 20
227.1120395888209
 30
0.0
 10
420.2200979704264
 20
226.5003340384823
 30
0.0
 10
420.3542812677438
 20
225.8909169765925
 30
0.0
 10
420.5547368884281
 20
225.2925108010871
 30
0.0
 10
420.8132980052459
 20
224.7179482691914
 30
0.0
 10
421.1222273950174
 20
224.2030504715199
 30
0.0
 10
421.4760443195921
 20
223.7540315975217
 30
0.0
 10
421.8640689877553
 20
223.3800899950307
 30
0.0
 10
422.3009993915177
 20
223.0731240935706
 30
0.0
 10
422.7412133586181
 20
222.8658154360366
 30
0.0
 10
423.1679224793027
 20
222.7499128477658
 30
0.0
 10
423.6388379218048
 20
222.6992096428712
 30
0.0
 10
424.1878125148488
 20
222.7596659661492
 30
0.0
 10
424.785558581069
 20
222.972613197896
 30
0.0
 10
425.3271608270674
 20
223.3198501352422
 30
0.0
 10
425.7677687952053
 20
223.7412078610748
 30
0.0
 10
426.1176427188419
 20
224.1886213513317
 30
0.0
 10
426.4465531018312
 20
224.7244577372543
 30
0.0
 10
426.7502917234583
 20
225.3893487871677
 30
0.0
 10
426.9750615888009
 20
226.1690098486417
 30
0.0
 10
427.0794483942107
 20
226.9514154669513
 30
0.0
 10
427.1108708729594
 20
227.4619759363138
 30
0.0
 10
427.1266087373489
 20
227.7176887810471
 30
0.0
 11
420.1267074134359
 21
227.7176887810471
 31
0.0
 11
420.1619082791983
 21
227.1118027592889
 31
0.0
 11
420.2302652712825
 21
226.5103599398075
 31
0.0
 11
420.3649417571069
 21
225.8944687280664
 31
0.0
 11
420.5650066490519
 21
225.2950072665177
 31
0.0
 11
420.8243878873021
 21
224.7233084931976
 31
0.0
 11
421.1486078420801
 21
224.1867432761846
 31
0.0
 11
421.4852169820612
 21
223.7623107374055
 31
0.0
 11
421.8767074134359
 21
223.387561762125
 31
0.0
 11
422.3090525746545
 21
223.086005876165
 31
0.0
 11
422.7860549602706
 21
222.8639855623312
 31
0.0
 11
423.1699039904003
 21
222.7602248451881
 31
0.0
 11
423.5653155362145
 21
222.7184667473673
 31
0.0
 11
424.1814199904245
 21
222.7830603589887
 31
0.0
 11
424.7673541607013
 21
222.99067852914
 31
0.0
 11
425.3139557946153
 21
223.336051129995
 31
0.0
 11
425.7839317746957
 21
223.780325256598
 31
0.0
 11
426.1094064222668
 21
224.1941956753726
 31
0.0
 11
426.3863119204464
 21
224.6422345225967
 31
0.0
 11
426.7312740086239
 21
225.3969952292343
 31
0.0
 11
426.9599514983702
 21
226.1931515396225
 31
0.0
 11
427.0702716273848
 21
226.9511606702221
 31
0.0
 11
427.1266087373489
 21
227.7176887810471
 31
0.0
  0
SPLINE
  5
D2
330
3F
100
AcDbEntity
  8
1
  6
Continuous
 62
     7
100
AcDbSpline
210
0.0
220
0.0
230
1.0
 70
    11
 71
     3
 72
    79
 73
    75
 74
    73
 42
0.0000000001
 43
0.0000000001
 44
0.00000001
 40
0.0
 40
0.0
 40
0.0
 40
0.0
 40
0.2803981145479286
 40
0.5607977859032103
 40
0.8427454841467158
 40
1.124697473048532
 40
1.409536451638091
 40
1.694381500885832
 40
1.983071310125158
 40
2.271767843422812
 40
2.564776142200836
 40
2.857790854546474
 40
3.155055698552697
 40
3.452325978930749
 40
3.753284827389592
 40
4.054247742882673
 40
4.357919806975667
 40
4.661594368328853
 40
4.966700748943328
 40
5.271807969839276
 40
5.576915190735223
 40
5.882021571349755
 40
6.185696132703003
 40
6.48936819679588
 40
6.790331112288897
 40
7.091289960747805
 40
7.388560241125822
 40
7.685825085132075
 40
7.978839797477757
 40
8.271848096255742
 40
8.560544629553467
 40
8.849234438792761
 40
9.134079488040474
 40
9.418918466630055
 40
9.700870455531836
 40
9.982818153775384
 40
10.26321782513066
 40
10.54361593967859
 40
10.82401405422648
 40
11.10441372558188
 40
11.3863614238254
 40
11.66831341272721
 40
11.95315239131681
 40
12.23799744056453
 40
12.52668724980384
 40
12.81538378310153
 40
13.10839208187947
 40
13.40140679422513
 40
13.6986716382314
 40
13.99594191860945
 40
14.29690076706824
 40
14.59786368256135
 40
14.90153574665421
 40
15.20521030800747
 40
15.51031668862201
 40
15.81542390951796
 40
16.12053113041391
 40
16.4256375110284
 40
16.72931207238159
 40
17.03298413647458
 40
17.33394705196767
 40
17.63490590042648
 40
17.93217618080442
 40
18.2294410248108
 40
18.5224557371564
 40
18.8154640359344
 40
19.10416056923207
 40
19.39285037847137
 40
19.67769542771906
 40
19.96253440630869
 40
20.2444863952105
 40
20.52643409345402
 40
20.80683376480941
 40
21.08723187935731
 40
21.08723187935731
 40
21.08723187935731
 40
21.08723187935731
 10
420.1267074134359
 20
216.4593585318494
 30
0.0
 10
420.1292887993251
 20
216.3658579887959
 30
0.0
 10
420.1344515854358
 20
216.1788563835615
 30
0.0
 10
420.1759239354846
 20
215.9003719703215
 30
0.0
 10
420.2418240958775
 20
215.6264297739191
 30
0.0
 10
420.3340562051113
 20
215.3585016085838
 30
0.0
 10
420.4511383944704
 20
215.0994558210234
 30
0.0
 10
420.5926146760496
 20
214.8502965268706
 30
0.0
 10
420.7568970220428
 20
214.6139865066928
 30
0.0
 10
420.9433571702592
 20
214.3912115127747
 30
0.0
 10
421.1497816451964
 20
214.1847554804766
 30
0.0
 10
421.3754993396329
 20
213.9951427368362
 30
0.0
 10
421.6177901379816
 20
213.8247435609105
 30
0.0
 10
421.8758476308216
 20
213.6740307533028
 30
0.0
 10
422.1466748343034
 20
213.5448076167772
 30
0.0
 10
422.4291916878001
 20
213.4375279435927
 30
0.0
 10
422.7203796583933
 20
213.3533734400374
 30
0.0
 10
423.0187584313081
 20
213.2927301662064
 30
0.0
 10
423.3215194031884
 20
213.2561964039352
 30
0.0
 10
423.6267074134361
 20
213.2439773731985
 30
0.0
 10
423.9318954236825
 20
213.2561964039352
 30
0.0
 10
424.2346563955673
 20
213.2927301662064
 30
0.0
 10
424.5330351684652
 20
213.3533734400374
 30
0.0
 10
424.8242231391211
 20
213.4375279435927
 30
0.0
 10
425.1067399923858
 20
213.5448076167772
 30
0.0
 10
425.3775671967277
 20
213.6740307533027
 30
0.0
 10
425.6356246863967
 20
213.8247435609106
 30
0.0
 10
425.8779154964923
 20
213.9951427368362
 30
0.0
 10
426.1036331476901
 20
214.1847554804767
 30
0.0
 10
426.3100577827167
 20
214.3912115127747
 30
0.0
 10
426.4965173418939
 20
214.6139865066928
 30
0.0
 10
426.6608018696049
 20
214.8502965268706
 30
0.0
 10
426.8022701126747
 20
215.0994558210234
 30
0.0
 10
426.9193821162764
 20
215.3585016085838
 30
0.0
 10
427.0115040347494
 20
215.6264297739191
 30
0.0
 10
427.0778138003171
 20
215.9003719703215
 30
0.0
 10
427.1177654654129
 20
216.1788563835615
 30
0.0
 10
427.1311783750356
 20
216.4593585318494
 30
0.0
 10
427.1177654654129
 20
216.7398606801373
 30
0.0
 10
427.077813800317
 20
217.0183450933774
 30
0.0
 10
427.0115040347496
 20
217.2922872897798
 30
0.0
 10
426.9193821162763
 20
217.5602154551152
 30
0.0
 10
426.8022701126746
 20
217.8192612426755
 30
0.0
 10
426.660801869605
 20
218.0684205368283
 30
0.0
 10
426.4965173418938
 20
218.3047305570062
 30
0.0
 10
426.3100577827169
 20
218.5275055509242
 30
0.0
 10
426.1036331476902
 20
218.7339615832222
 30
0.0
 10
425.8779154964924
 20
218.9235743268627
 30
0.0
 10
425.6356246863966
 20
219.0939735027882
 30
0.0
 10
425.3775671967275
 20
219.2446863103962
 30
0.0
 10
425.106739992386
 20
219.3739094469217
 30
0.0
 10
424.8242231391211
 20
219.4811891201061
 30
0.0
 10
424.5330351684652
 20
219.5653436236613
 30
0.0
 10
424.2346563955674
 20
219.6259868974925
 30
0.0
 10
423.9318954236824
 20
219.6625206597637
 30
0.0
 10
423.6267074134363
 20
219.6747396905004
 30
0.0
 10
423.3215194031882
 20
219.6625206597637
 30
0.0
 10
423.0187584313082
 20
219.6259868974925
 30
0.0
 10
422.7203796583933
 20
219.5653436236613
 30
0.0
 10
422.4291916878001
 20
219.481189120106
 30
0.0
 10
422.1466748343034
 20
219.3739094469217
 30
0.0
 10
421.8758476308215
 20
219.2446863103961
 30
0.0
 10
421.6177901379817
 20
219.0939735027883
 30
0.0
 10
421.3754993396328
 20
218.9235743268626
 30
0.0
 10
421.1497816451962
 20
218.7339615832222
 30
0.0
 10
420.9433571702591
 20
218.5275055509241
 30
0.0
 10
420.7568970220428
 20
218.3047305570062
 30
0.0
 10
420.5926146760496
 20
218.0684205368283
 30
0.0
 10
420.4511383944706
 20
217.8192612426756
 30
0.0
 10
420.3340562051114
 20
217.5602154551152
 30
0.0
 10
420.2418240958775
 20
217.2922872897798
 30
0.0
 10
420.1759239354845
 20
217.0183450933774
 30
0.0
 10
420.1344515854357
 20
216.7398606801374
 30
0.0
 10
420.1292887993251
 20
216.5528590749029
 30
0.0
 10
420.1267074134359
 20
216.4593585318494
 30
0.0
 11
420.1267074134359
 21
216.4593585318494
 31
0.0
 11
420.140060198734
 21
216.1792785329798
 31
0.0
 11
420.1798802778931
 21
215.9017207246012
 31
0.0
 11
420.2461398606172
 21
215.6276693202223
 31
0.0
 11
420.3377832406853
 21
215.3610264599478
 31
0.0
 11
420.4550312409705
 21
215.1014380354118
 31
0.0
 11
420.5956185001904
 21
214.8537044595163
 31
0.0
 11
420.7603156955425
 21
214.6166039749074
 31
0.0
 11
420.9455518625195
 21
214.3951694455725
 31
0.0
 11
421.1526447394348
 21
214.1878860562627
 31
0.0
 11
421.3769507795331
 21
213.9993537724851
 31
0.0
 11
421.6200456102338
 21
213.8282652259115
 31
0.0
 11
421.8767074134359
 21
213.6782840991886
 31
0.0
 11
422.148295633407
 21
213.5486073193142
 31
0.0
 11
422.4296369117961
 21
213.4417159652368
 31
0.0
 11
422.7213543953416
 21
213.3573499039065
 31
0.0
 11
423.0189387916017
 21
213.2968373736708
 31
0.0
 11
423.3218445261359
 21
213.2602584251079
 31
0.0
 11
423.6267074134359
 21
213.2480503871832
 31
0.0
 11
423.9315703007359
 21
213.2602584251079
 31
0.0
 11
424.2344760352701
 21
213.2968373736708
 31
0.0
 11
424.5320604315303
 21
213.3573499039065
 31
0.0
 11
424.8237779150757
 21
213.4417159652368
 31
0.0
 11
425.1051191934647
 21
213.5486073193142
 31
0.0
 11
425.3767074134359
 21
213.6782840991886
 31
0.0
 11
425.633369216638
 21
213.8282652259116
 31
0.0
 11
425.8764640473387
 21
213.9993537724851
 31
0.0
 11
426.1007700874371
 21
214.1878860562627
 31
0.0
 11
426.3078629643523
 21
214.3951694455725
 31
0.0
 11
426.4930991313294
 21
214.6166039749074
 31
0.0
 11
426.6577963266814
 21
214.8537044595163
 31
0.0
 11
426.7983835859013
 21
215.1014380354118
 31
0.0
 11
426.9156315861865
 21
215.3610264599478
 31
0.0
 11
427.0072749662547
 21
215.6276693202223
 31
0.0
 11
427.0735345489787
 21
215.9017207246012
 31
0.0
 11
427.1133546281378
 21
216.1792785329798
 31
0.0
 11
427.1267074134359
 21
216.4593585318494
 31
0.0
 11
427.1133546281379
 21
216.739438530719
 31
0.0
 11
427.0735345489787
 21
217.0169963390977
 31
0.0
 11
427.0072749662547
 21
217.2910477434766
 31
0.0
 11
426.9156315861865
 21
217.5576906037511
 31
0.0
 11
426.7983835859013
 21
217.8172790282871
 31
0.0
 11
426.6577963266814
 21
218.0650126041826
 31
0.0
 11
426.4930991313294
 21
218.3021130887916
 31
0.0
 11
426.3078629643523
 21
218.5235476181264
 31
0.0
 11
426.1007700874371
 21
218.7308310074361
 31
0.0
 11
425.8764640473387
 21
218.9193632912137
 31
0.0
 11
425.633369216638
 21
219.0904518377873
 31
0.0
 11
425.3767074134359
 21
219.2404329645103
 31
0.0
 11
425.1051191934648
 21
219.3701097443847
 31
0.0
 11
424.8237779150757
 21
219.477001098462
 31
0.0
 11
424.5320604315303
 21
219.5613671597922
 31
0.0
 11
424.2344760352701
 21
219.621879690028
 31
0.0
 11
423.9315703007359
 21
219.658458638591
 31
0.0
 11
423.6267074134359
 21
219.6706666765157
 31
0.0
 11
423.3218445261359
 21
219.658458638591
 31
0.0
 11
423.0189387916017
 21
219.621879690028
 31
0.0
 11
422.7213543953416
 21
219.5613671597923
 31
0.0
 11
422.4296369117961
 21
219.477001098462
 31
0.0
 11
422.148295633407
 21
219.3701097443847
 31
0.0
 11
421.8767074134359
 21
219.2404329645103
 31
0.0
 11
421.6200456102339
 21
219.0904518377874
 31
0.0
 11
421.3769507795331
 21
218.9193632912137
 31
0.0
 11
421.1526447394348
 21
218.7308310074361
 31
0.0
 11
420.9455518625195
 21
218.5235476181264
 31
0.0
 11
420.7603156955424
 21
218.3021130887916
 31
0.0
 11
420.5956185001904
 21
218.0650126041826
 31
0.0
 11
420.4550312409705
 21
217.8172790282872
 31
0.0
 11
420.3377832406853
 21
217.5576906037511
 31
0.0
 11
420.2461398606171
 21
217.2910477434766
 31
0.0
 11
420.1798802778931
 21
217.0169963390977
 31
0.0
 11
420.140060198734
 21
216.739438530719
 31
0.0
 11
420.1267074134359
 21
216.4593585318494
 31
0.0
  0
SPLINE
  5
D3
330
3F
100
AcDbEntity
  8
1
  6
Continuous
 62
     7
100
AcDbSpline
210
0.0
220
0.0
230
1.0
 70
    11
 71
     3
 72
    79
 73
    75
 74
    73
 42
0.0000000001
 43
0.0000000001
 44
0.00000001
 40
0.0
 40
0.0
 40
0.0
 40
0.0
 40
0.3171598656884261
 40
0.6340856861075097
 40
0.9694901489363127
 40
1.304562820901253
 40
1.666124796939047
 40
2.027385866504951
 40
2.418724079015894
 40
2.809836934323468
 40
3.230628787512776
 40
3.651266058867645
 40
4.098016897818965
 40
4.544667758504453
 40
5.011536287768418
 40
5.478345522146735
 40
5.957894801975114
 40
6.437416541840437
 40
6.921284920564583
 40
7.405153299288728
 40
7.884675039154052
 40
8.36422431898243
 40
8.831033553360724
 40
9.297902082624704
 40
9.744552943310191
 40
10.19130378226164
 40
10.61194105361653
 40
11.03273290680581
 40
11.42384576211333
 40
11.81518397462427
 40
12.17644504419021
 40
12.53800702022794
 40
12.87307969219292
 40
13.20848415502173
 40
13.52540997544081
 40
13.84256984112926
 40
14.15305257372691
 40
14.46353530632469
 40
14.78069517201331
 40
15.0976209924323
 40
15.43302545526095
 40
15.768098127226
 40
16.1296601032638
 40
16.49092117282966
 40
16.88225938534065
 40
17.27337224064804
 40
17.69416409383729
 40
18.11480136519221
 40
18.56155220414363
 40
19.00820306482903
 40
19.475071594093
 40
19.94188082847119
 40
20.42143010829969
 40
20.90095184816513
 40
21.38482022688928
 40
21.86868860561342
 40
22.34821034547887
 40
22.82775962530724
 40
23.29456885968547
 40
23.76143738894945
 40
24.20808824963504
 40
24.65483908858645
 40
25.07547635994121
 40
25.49626821313056
 40
25.88738106843798
 40
26.27871928094893
 40
26.63998035051475
 40
27.00154232655259
 40
27.33661499851759
 40
27.67201946134629
 40
27.98894528176534
 40
28.3061051474539
 40
28.61658788005162
 40
28.92707061264935
 40
28.92707061264935
 40
28.92707061264935
 40
28.92707061264935
 10
423.9010755182108
 20
513.6500403838909
 30
0.0
 10
424.0053239077097
 20
513.6686183149996
 30
0.0
 10
424.2137437575464
 20
513.7057604678
 30
0.0
 10
424.5187810613226
 20
513.816615540763
 30
0.0
 10
424.8139327064856
 20
513.9636358499706
 30
0.0
 10
425.1016223326191
 20
514.1537069590916
 30
0.0
 10
425.3738611596049
 20
514.3788349068311
 30
0.0
 10
425.635269935098
 20
514.6434191634473
 30
0.0
 10
425.8774575003057
 20
514.9385155885024
 30
0.0
 10
426.1050844754241
 20
515.2692579443133
 30
0.0
 10
426.3107764213185
 20
515.6253839450501
 30
0.0
 10
426.4981577214694
 20
516.0121127926091
 30
0.0
 10
426.66161131977
 20
516.418849474349
 30
0.0
 10
426.8034099530711
 20
516.8498350026389
 30
0.0
 10
426.9198468769336
 20
517.2952668629009
 30
0.0
 10
427.0120309681598
 20
517.757499850234
 30
0.0
 10
427.0779122065723
 20
518.2284677724649
 30
0.0
 10
427.1179058570872
 20
518.7080291356571
 30
0.0
 10
427.1311280471108
 20
519.190513909575
 30
0.0
 10
427.1179058570884
 20
519.6729986835079
 30
0.0
 10
427.0779122065677
 20
520.1525600466554
 30
0.0
 10
427.0120309681774
 20
520.6235279690477
 30
0.0
 10
426.9198468768693
 20
521.0857609557947
 30
0.0
 10
426.8034099533073
 20
521.5311928182002
 30
0.0
 10
426.6616113189309
 20
521.9621783388217
 30
0.0
 10
426.4981577245289
 20
522.3689150483657
 30
0.0
 10
426.3107764106378
 20
522.7556437979347
 30
0.0
 10
426.1050845141911
 20
523.1117701513126
 30
0.0
 10
425.8774573668887
 20
523.4425112791701
 30
0.0
 10
425.6352704183412
 20
523.73761210203
 30
0.0
 10
425.3738595088851
 20
524.0021811399662
 30
0.0
 10
425.1016283240937
 20
524.2273635891702
 30
0.0
 10
424.813912149901
 20
524.4172453667995
 30
0.0
 10
424.5188562681632
 20
524.5649486273248
 30
0.0
 10
424.2134801197066
 20
524.6733871783107
 30
0.0
 10
423.904248065769
 20
524.7375697673111
 30
0.0
 10
423.5913503063002
 20
524.7601289957262
 30
0.0
 10
423.2784525468314
 20
524.7375697673109
 30
0.0
 10
422.9692204928936
 20
524.6733871783105
 30
0.0
 10
422.6638443444371
 20
524.5649486273246
 30
0.0
 10
422.3687884626992
 20
524.4172453667994
 30
0.0
 10
422.0810722885066
 20
524.22736358917
 30
0.0
 10
421.8088411037154
 20
524.002181139966
 30
0.0
 10
421.547430194259
 20
523.73761210203
 30
0.0
 10
421.3052432457116
 20
523.4425112791701
 30
0.0
 10
421.0776160984093
 20
523.1117701513125
 30
0.0
 10
420.8719242019628
 20
522.7556437979345
 30
0.0
 10
420.6845428880714
 20
522.3689150483658
 30
0.0
 10
420.5210892936694
 20
521.9621783388216
 30
0.0
 10
420.3792906592929
 20
521.5311928182003
 30
0.0
 10
420.2628537357312
 20
521.085760955795
 30
0.0
 10
420.1706696444228
 20
520.623527969048
 30
0.0
 10
420.1047884060328
 20
520.1525600466556
 30
0.0
 10
420.0647947555117
 20
519.6729986835073
 30
0.0
 10
420.0515725654898
 20
519.1905139095774
 30
0.0
 10
420.0647947555115
 20
518.7080291356483
 30
0.0
 10
420.1047884060332
 20
518.2284677724972
 30
0.0
 10
420.1706696444213
 20
517.7574998501159
 30
0.0
 10
420.2628537357358
 20
517.2952668633277
 30
0.0
 10
420.3792906592762
 20
516.8498350010741
 30
0.0
 10
420.5210892937292
 20
516.4188494799082
 30
0.0
 10
420.6845428878541
 20
516.012112772339
 30
0.0
 10
420.8719242027212
 20
515.6253840158101
 30
0.0
 10
421.0776160956556
 20
515.2692576874795
 30
0.0
 10
421.3052432551879
 20
514.9385164724026
 30
0.0
 10
421.547430159935
 20
514.6434159619114
 30
0.0
 10
421.808841220963
 20
514.3788458430188
 30
0.0
 10
422.0810718629426
 20
514.1536672649594
 30
0.0
 10
422.3687899227978
 20
513.9637720394426
 30
0.0
 10
422.6638390026258
 20
513.816117287764
 30
0.0
 10
422.9692392186319
 20
513.707507095417
 30
0.0
 10
423.2783830941697
 20
513.6439533639817
 30
0.0
 10
423.5916034676787
 20
513.6190933648489
 30
0.0
 10
423.7979181680333
 20
513.6397247108769
 30
0.0
 10
423.9010755182108
 20
513.6500403838909
 30
0.0
 11
423.9010755182108
 21
513.6500403838909
 31
0.0
 11
424.2115907559948
 21
513.7146210892712
 31
0.0
 11
424.5105465716918
 21
513.8198227808416
 31
0.0
 11
424.8106495585225
 21
513.9696037909222
 31
0.0
 11
425.0907862839073
 21
514.1534436956991
 31
0.0
 11
425.3698302423776
 21
514.3833600538766
 31
0.0
 11
425.6242475193902
 21
514.6398389215078
 31
0.0
 11
425.8730861714809
 21
514.9418735582582
 31
0.0
 11
426.0952695795079
 21
515.2637489981171
 31
0.0
 11
426.3062942298587
 21
515.6278017149793
 31
0.0
 11
426.4900608133996
 21
516.006173961354
 31
0.0
 11
426.657122855813
 21
516.420512694866
 31
0.0
 11
426.7969590965394
 21
516.844709367567
 31
0.0
 11
426.9153871657237
 21
517.2963076581377
 31
0.0
 11
427.0068190614207
 21
517.7540751425117
 31
0.0
 11
427.0734806103275
 21
518.2289685512692
 31
0.0
 11
427.113350541361
 21
518.7068299198719
 31
0.0
 11
427.1267074134358
 21
519.1905139095775
 31
0.0
 11
427.113350541361
 21
519.6741978992831
 31
0.0
 11
427.0734806103275
 21
520.1520592678858
 31
0.0
 11
427.0068190614207
 21
520.6269526766432
 31
0.0
 11
426.9153871657238
 21
521.0847201610172
 31
0.0
 11
426.7969590965395
 21
521.5363184515879
 31
0.0
 11
426.657122855813
 21
521.9605151242889
 31
0.0
 11
426.4900608133996
 21
522.3748538578011
 31
0.0
 11
426.3062942298587
 21
522.7532261041757
 31
0.0
 11
426.0952695795079
 21
523.117278821038
 31
0.0
 11
425.8730861714809
 21
523.4391542608968
 31
0.0
 11
425.6242475193901
 21
523.7411888976471
 31
0.0
 11
425.3698302423776
 21
523.9976677652785
 31
0.0
 11
425.0907862839073
 21
524.2275841234558
 31
0.0
 11
424.8106495585224
 21
524.4114240282328
 31
0.0
 11
424.5105465716918
 21
524.5612050383135
 31
0.0
 11
424.2115907559948
 21
524.6664067298839
 31
0.0
 11
423.9010755182108
 21
524.7309874352643
 31
0.0
 11
423.5913503063002
 21
524.7526627748993
 31
0.0
 11
423.2816250943896
 21
524.7309874352641
 31
0.0
 11
422.9711098566054
 21
524.6664067298837
 31
0.0
 11
422.6721540409085
 21
524.5612050383134
 31
0.0
 11
422.3720510540779
 21
524.4114240282328
 31
0.0
 11
422.0919143286931
 21
524.2275841234557
 31
0.0
 11
421.8128703702228
 21
523.9976677652783
 31
0.0
 11
421.5584530932101
 21
523.7411888976471
 31
0.0
 11
421.3096144411194
 21
523.4391542608967
 31
0.0
 11
421.0874310330925
 21
523.117278821038
 31
0.0
 11
420.8764063827417
 21
522.7532261041757
 31
0.0
 11
420.6926397992007
 21
522.3748538578011
 31
0.0
 11
420.5255777567874
 21
521.9605151242889
 31
0.0
 11
420.3857415160609
 21
521.536318451588
 31
0.0
 11
420.2673134468766
 21
521.0847201610173
 31
0.0
 11
420.1758815511796
 21
520.6269526766434
 31
0.0
 11
420.1092200022728
 21
520.1520592678859
 31
0.0
 11
420.0693500712392
 21
519.6741978992831
 31
0.0
 11
420.0559931991644
 21
519.1905139095775
 31
0.0
 11
420.0693500712392
 21
518.7068299198719
 31
0.0
 11
420.1092200022728
 21
518.2289685512691
 31
0.0
 11
420.1758815511795
 21
517.7540751425116
 31
0.0
 11
420.2673134468766
 21
517.2963076581377
 31
0.0
 11
420.385741516061
 21
516.844709367567
 31
0.0
 11
420.5255777567874
 21
516.4205126948659
 31
0.0
 11
420.6926397992007
 21
516.0061739613537
 31
0.0
 11
420.8764063827416
 21
515.6278017149792
 31
0.0
 11
421.0874310330923
 21
515.2637489981169
 31
0.0
 11
421.3096144411194
 21
514.9418735582582
 31
0.0
 11
421.5584530932101
 21
514.6398389215078
 31
0.0
 11
421.8128703702227
 21
514.3833600538767
 31
0.0
 11
422.0919143286931
 21
514.1534436956993
 31
0.0
 11
422.3720510540779
 21
513.9696037909222
 31
0.0
 11
422.6721540409085
 21
513.8198227808416
 31
0.0
 11
422.9711098566054
 21
513.7146210892713
 31
0.0
 11
423.2816250943896
 21
513.6500403838909
 31
0.0
 11
423.5913503063002
 21
513.6283650442557
 31
0.0
 11
423.9010755182108
 21
513.6500403838909
 31
0.0
  0
SPLINE
  5
D4
330
3F
100
AcDbEntity
  8
1
  6
Continuous
 62
     7
100
AcDbSpline
210
0.0
220
0.0
230
1.0
 70
    11
 71
     3
 72
    79
 73
    75
 74
    73
 42
0.0000000001
 43
0.0000000001
 44
0.00000001
 40
0.0
 40
0.0
 40
0.0
 40
0.0
 40
0.3171598656884492
 40
0.6340856861074951
 40
0.969490148936298
 40
1.304562820901301
 40
1.666124796939095
 40
2.027385866504918
 40
2.418724079015949
 40
2.809836934323429
 40
3.230628787512836
 40
3.651266058867704
 40
4.098016897819025
 40
4.544667758504404
 40
5.011536287768479
 40
5.478345522146684
 40
5.95789480197495
 40
6.437416541840387
 40
6.921284920564532
 40
7.405153299288564
 40
7.884675039154001
 40
8.364224318982378
 40
8.831033553360562
 40
9.297902082624542
 40
9.74455294331003
 40
10.19130378226158
 40
10.61194105361648
 40
11.03273290680586
 40
11.42384576211327
 40
11.8151839746243
 40
12.17644504419017
 40
12.53800702022789
 40
12.87307969219294
 40
13.20848415502169
 40
13.52540997544074
 40
13.84256984112919
 40
14.15305257372686
 40
14.46353530632465
 40
14.78069517201326
 40
15.09762099243226
 40
15.43302545526091
 40
15.76809812722596
 40
16.12966010326368
 40
16.49092117282962
 40
16.88225938534053
 40
17.27337224064801
 40
17.69416409383726
 40
18.11480136519218
 40
18.5615522041436
 40
19.008203064829
 40
19.47507159409297
 40
19.94188082847127
 40
20.42143010829966
 40
20.90095184816521
 40
21.38482022688925
 40
21.86868860561328
 40
22.34821034547884
 40
22.8277596253071
 40
23.29456885968555
 40
23.76143738894942
 40
24.2080882496348
 40
24.65483908858631
 40
25.07547635994118
 40
25.49626821313033
 40
25.88738106843794
 40
26.27871928094888
 40
26.63998035051471
 40
27.00154232655255
 40
27.33661499851755
 40
27.67201946134625
 40
27.98894528176529
 40
28.30610514745385
 40
28.61658788005158
 40
28.92707061264931
 40
28.92707061264931
 40
28.92707061264931
 40
28.92707061264931
 10
423.9010755182108
 20
537.7309874352641
 30
0.0
 10
424.0053239077096
 20
537.7124095041552
 30
0.0
 10
424.2137437575464
 20
537.6752673513548
 30
0.0
 10
424.5187810613227
 20
537.5644122783917
 30
0.0
 10
424.8139327064857
 20
537.4173919691845
 30
0.0
 10
425.1016223326188
 20
537.2273208600634
 30
0.0
 10
425.3738611596049
 20
537.0021929123237
 30
0.0
 10
425.6352699350981
 20
536.7376086557076
 30
0.0
 10
425.8774575003056
 20
536.4425122306525
 30
0.0
 10
426.1050844754244
 20
536.1117698748416
 30
0.0
 10
426.3107764213184
 20
535.7556438741048
 30
0.0
 10
426.4981577214695
 20
535.368915026546
 30
0.0
 10
426.6616113197699
 20
534.9621783448058
 30
0.0
 10
426.8034099530711
 20
534.5311928165158
 30
0.0
 10
426.9198468769337
 20
534.0857609562542
 30
0.0
 10
427.0120309681597
 20
533.6235279689207
 30
0.0
 10
427.0779122065725
 20
533.15256004669
 30
0.0
 10
427.1179058570871
 20
532.6729986834978
 30
0.0
 10
427.1311280471108
 20
532.19051390958
 30
0.0
 10
427.1179058570884
 20
531.7080291356472
 30
0.0
 10
427.0779122065674
 20
531.2284677724996
 30
0.0
 10
427.0120309681776
 20
530.7574998501071
 30
0.0
 10
426.9198468768694
 20
530.2952668633603
 30
0.0
 10
426.8034099533073
 20
529.8498350009547
 30
0.0
 10
426.6616113189309
 20
529.4188494803334
 30
0.0
 10
426.4981577245289
 20
529.0121127707891
 30
0.0
 10
426.3107764106376
 20
528.6253840212205
 30
0.0
 10
426.1050845141912
 20
528.2692576678425
 30
0.0
 10
425.8774573668887
 20
527.9385165399847
 30
0.0
 10
425.6352704183412
 20
527.643415717125
 30
0.0
 10
425.3738595088852
 20
527.3788466791888
 30
0.0
 10
425.1016283240936
 20
527.1536642299848
 30
0.0
 10
424.8139121499012
 20
526.9637824523553
 30
0.0
 10
424.518856268163
 20
526.8160791918302
 30
0.0
 10
424.2134801197068
 20
526.7076406408444
 30
0.0
 10
423.904248065769
 20
526.6434580518441
 30
0.0
 10
423.5913503063001
 20
526.6208988234286
 30
0.0
 10
423.2784525468314
 20
526.6434580518442
 30
0.0
 10
422.9692204928936
 20
526.7076406408444
 30
0.0
 10
422.6638443444372
 20
526.8160791918306
 30
0.0
 10
422.3687884626992
 20
526.9637824523552
 30
0.0
 10
422.0810722885067
 20
527.1536642299851
 30
0.0
 10
421.8088411037152
 20
527.3788466791889
 30
0.0
 10
421.547430194259
 20
527.6434157171249
 30
0.0
 10
421.3052432457115
 20
527.9385165399849
 30
0.0
 10
421.0776160984093
 20
528.2692576678422
 30
0.0
 10
420.8719242019628
 20
528.6253840212207
 30
0.0
 10
420.6845428880714
 20
529.0121127707891
 30
0.0
 10
420.5210892936694
 20
529.4188494803332
 30
0.0
 10
420.3792906592929
 20
529.8498350009546
 30
0.0
 10
420.2628537357311
 20
530.2952668633601
 30
0.0
 10
420.1706696444228
 20
530.7574998501071
 30
0.0
 10
420.1047884060328
 20
531.2284677724995
 30
0.0
 10
420.0647947555118
 20
531.7080291356479
 30
0.0
 10
420.0515725654896
 20
532.1905139095775
 30
0.0
 10
420.0647947555115
 20
532.6729986835065
 30
0.0
 10
420.1047884060332
 20
533.1525600466579
 30
0.0
 10
420.1706696444214
 20
533.6235279690391
 30
0.0
 10
420.2628537357358
 20
534.0857609558274
 30
0.0
 10
420.3792906592762
 20
534.5311928180805
 30
0.0
 10
420.5210892937292
 20
534.9621783392469
 30
0.0
 10
420.684542887854
 20
535.3689150468158
 30
0.0
 10
420.8719242027212
 20
535.7556438033447
 30
0.0
 10
421.0776160956558
 20
536.1117701316751
 30
0.0
 10
421.3052432551879
 20
536.4425113467524
 30
0.0
 10
421.547430159935
 20
536.7376118572436
 30
0.0
 10
421.8088412209631
 20
537.0021819761359
 30
0.0
 10
422.0810718629426
 20
537.2273605541959
 30
0.0
 10
422.3687899227978
 20
537.4172557797124
 30
0.0
 10
422.6638390026258
 20
537.564910531391
 30
0.0
 10
422.9692392186319
 20
537.6735207237381
 30
0.0
 10
423.2783830941697
 20
537.7370744551731
 30
0.0
 10
423.5916034676787
 20
537.7619344543061
 30
0.0
 10
423.7979181680333
 20
537.7413031082781
 30
0.0
 10
423.9010755182108
 20
537.7309874352641
 30
0.0
 11
423.9010755182108
 21
537.7309874352641
 31
0.0
 11
424.2115907559948
 21
537.6664067298837
 31
0.0
 11
424.5105465716918
 21
537.5612050383134
 31
0.0
 11
424.8106495585225
 21
537.4114240282328
 31
0.0
 11
425.0907862839073
 21
537.2275841234557
 31
0.0
 11
425.3698302423776
 21
536.9976677652783
 31
0.0
 11
425.6242475193902
 21
536.7411888976471
 31
0.0
 11
425.8730861714809
 21
536.4391542608967
 31
0.0
 11
426.0952695795079
 21
536.1172788210379
 31
0.0
 11
426.3062942298587
 21
535.7532261041755
 31
0.0
 11
426.4900608133996
 21
535.3748538578009
 31
0.0
 11
426.657122855813
 21
534.9605151242888
 31
0.0
 11
426.7969590965394
 21
534.5363184515879
 31
0.0
 11
426.9153871657237
 21
534.0847201610171
 31
0.0
 11
427.0068190614207
 21
533.6269526766432
 31
0.0
 11
427.0734806103275
 21
533.1520592678859
 31
0.0
 11
427.113350541361
 21
532.6741978992831
 31
0.0
 11
427.1267074134358
 21
532.1905139095775
 31
0.0
 11
427.113350541361
 21
531.706829919872
 31
0.0
 11
427.0734806103275
 21
531.2289685512692
 31
0.0
 11
427.0068190614207
 21
530.7540751425117
 31
0.0
 11
426.9153871657238
 21
530.2963076581378
 31
0.0
 11
426.7969590965395
 21
529.8447093675671
 31
0.0
 11
426.657122855813
 21
529.4205126948662
 31
0.0
 11
426.4900608133996
 21
529.0061739613539
 31
0.0
 11
426.3062942298587
 21
528.6278017149792
 31
0.0
 11
426.0952695795079
 21
528.2637489981169
 31
0.0
 11
425.8730861714809
 21
527.9418735582582
 31
0.0
 11
425.6242475193901
 21
527.6398389215077
 31
0.0
 11
425.3698302423776
 21
527.3833600538765
 31
0.0
 11
425.0907862839073
 21
527.1534436956991
 31
0.0
 11
424.8106495585224
 21
526.9696037909221
 31
0.0
 11
424.5105465716918
 21
526.8198227808415
 31
0.0
 11
424.2115907559948
 21
526.7146210892712
 31
0.0
 11
423.9010755182108
 21
526.6500403838908
 31
0.0
 11
423.5913503063002
 21
526.6283650442556
 31
0.0
 11
423.2816250943896
 21
526.6500403838909
 31
0.0
 11
422.9711098566054
 21
526.7146210892713
 31
0.0
 11
422.6721540409085
 21
526.8198227808416
 31
0.0
 11
422.3720510540779
 21
526.9696037909222
 31
0.0
 11
422.0919143286931
 21
527.1534436956993
 31
0.0
 11
421.8128703702228
 21
527.3833600538766
 31
0.0
 11
421.5584530932101
 21
527.6398389215078
 31
0.0
 11
421.3096144411194
 21
527.9418735582582
 31
0.0
 11
421.0874310330925
 21
528.263748998117
 31
0.0
 11
420.8764063827417
 21
528.6278017149792
 31
0.0
 11
420.6926397992007
 21
529.0061739613539
 31
0.0
 11
420.5255777567874
 21
529.420512694866
 31
0.0
 11
420.3857415160609
 21
529.8447093675669
 31
0.0
 11
420.2673134468766
 21
530.2963076581376
 31
0.0
 11
420.1758815511796
 21
530.7540751425116
 31
0.0
 11
420.1092200022728
 21
531.2289685512691
 31
0.0
 11
420.0693500712392
 21
531.706829919872
 31
0.0
 11
420.0559931991644
 21
532.1905139095775
 31
0.0
 11
420.0693500712392
 21
532.6741978992829
 31
0.0
 11
420.1092200022728
 21
533.1520592678859
 31
0.0
 11
420.1758815511795
 21
533.6269526766432
 31
0.0
 11
420.2673134468766
 21
534.0847201610173
 31
0.0
 11
420.385741516061
 21
534.5363184515879
 31
0.0
 11
420.5255777567874
 21
534.9605151242888
 31
0.0
 11
420.6926397992007
 21
535.3748538578011
 31
0.0
 11
420.8764063827416
 21
535.7532261041757
 31
0.0
 11
421.0874310330923
 21
536.1172788210379
 31
0.0
 11
421.3096144411194
 21
536.4391542608968
 31
0.0
 11
421.5584530932101
 21
536.7411888976471
 31
0.0
 11
421.8128703702227
 21
536.9976677652783
 31
0.0
 11
422.0919143286931
 21
537.2275841234557
 31
0.0
 11
422.3720510540779
 21
537.4114240282328
 31
0.0
 11
422.6721540409085
 21
537.5612050383134
 31
0.0
 11
422.9711098566054
 21
537.6664067298837
 31
0.0
 11
423.2816250943896
 21
537.7309874352641
 31
0.0
 11
423.5913503063002
 21
537.7526627748993
 31
0.0
 11
423.9010755182108
 21
537.7309874352641
 31
0.0
  0
ENDBLK
  5
41
330
3F
100
AcDbEntity
  8
0
100
AcDbBlockEnd
  0
BLOCK
  5
43
330
42
100
AcDbEntity
  8
0
100
AcDbBlockBegin
  2
36-1A-13-M4
 70
     0
 71
     0
 10
545.1958334228721
 20
330.0998147904834
 30
0.0
  3
36-1A-13-M4
  1

  0
LINE
  5
D5
330
42
100
AcDbEntity
  8
1
  6
Continuous
 62
     7
100
AcDbLine
 10
413.1267074134358
 20
222.9676887810471
 30
0.0
 11
406.1453688892114
 21
222.9676887810471
 31
0.0
  0
LINE
  5
D6
330
42
100
AcDbEntity
  8
1
  6
Continuous
 62
     7
100
AcDbLine
 10
406.1453688892115
 20
232.4676887810471
 30
0.0
 11
413.1267074134358
 21
232.4676887810471
 31
0.0
  0
LINE
  5
D7
330
42
100
AcDbEntity
  8
1
  6
Continuous
 62
     7
100
AcDbLine
 10
413.1267074134359
 20
520.9405139095775
 30
0.0
 11
406.1453688892115
 21
520.9405139095775
 31
0.0
  0
LINE
  5
D8
330
42
100
AcDbEntity
  8
1
  6
Continuous
 62
     7
100
AcDbLine
 10
406.1453688892116
 20
530.4405139095775
 30
0.0
 11
413.1267074134359
 21
530.4405139095775
 31
0.0
  0
ENDBLK
  5
44
330
42
100
AcDbEntity
  8
0
100
AcDbBlockEnd
  0
BLOCK
  5
4A
330
45
100
AcDbEntity
  8
0
100
AcDbBlockBegin
  2
R10A-13
 70
     0
 71
     0
 10
401.6267074134358
 20
182.7176887810471
 30
0.0
  3
R10A-13
  1

  0
INSERT
  5
46
330
45
100
AcDbEntity
  8
0
100
AcDbBlockReference
  2
42-1
 10
584.9163564230207
 20
315.8219488676506
 30
0.0
  0
INSERT
  5
47
330
45
100
AcDbEntity
  8
0
100
AcDbBlockReference
  2
R20F
 10
392.5281676272184
 20
209.2929144931214
 30
0.0
  0
INSERT
  5
48
330
45
100
AcDbEntity
  8
0
100
AcDbBlockReference
  2
37-1-13
 10
564.1224133035804
 20
319.5189189978181
 30
0.0
  0
INSERT
  5
49
330
45
100
AcDbEntity
  8
0
100
AcDbBlockReference
  2
36-1A-13-M4
 10
545.1958334228721
 20
330.0998147904834
 30
0.0
  0
LINE
  5
D9
330
45
100
AcDbEntity
  8
1
  6
PHANTOM
 62
     4
100
AcDbLine
 10
398.2493704697653
 20
227.7176887810471
 30
0.0
 11
409.2493704697652
 21
227.7176887810471
 31
0.0
  0
ENDBLK
  5
4B
330
45
100
AcDbEntity
  8
0
100
AcDbBlockEnd
  0
BLOCK
  5
4D
330
4C
100
AcDbEntity
  8
0
100
AcDbBlockBegin
  2
A20L-0-13
 70
     0
 71
     0
 10
424.6267074134358
 20
204.7176887810471
 30
0.0
  3
A20L-0-13
  1

  0
LINE
  5
DA
330
4C
100
AcDbEntity
  8
1
  6
Continuous
 62
     7
100
AcDbLine
 10
138.1743402773001
 20
218.9676887810473
 30
0.0
 11
125.9863853341274
 21
218.9676887810473
 31
0.0
  0
LINE
  5
DB
330
4C
100
AcDbEntity
  8
1
  6
Continuous
 62
     7
100
AcDbLine
 10
177.4863853341274
 20
251.2176887810471
 30
0.0
 11
171.0999662052345
 21
251.2176887810472
 31
0.0
  0
LINE
  5
DC
330
4C
100
AcDbEntity
  8
1
  6
Continuous
 62
     7
100
AcDbLine
 10
117.7543345265585
 20
218.2176887810473
 30
0.0
 11
117.7543345265585
 21
217.2176887810473
 31
0.0
  0
LINE
  5
DD
330
4C
100
AcDbEntity
  8
1
  6
Continuous
 62
     7
100
AcDbLine
 10
119.4863853341274
 20
217.2176887810473
 30
0.0
 11
106.4863853341274
 21
217.2176887810473
 31
0.0
  0
LINE
  5
DE
330
4C
100
AcDbEntity
  8
1
  6
Continuous
 62
     7
100
AcDbLine
 10
106.4863853341274
 20
238.2176887810473
 30
0.0
 11
119.4863853341274
 21
238.2176887810473
 31
0.0
  0
LINE
  5
DF
330
4C
100
AcDbEntity
  8
1
  6
Continuous
 62
     7
100
AcDbLine
 10
106.4863853341274
 20
238.2176887810473
 30
0.0
 11
105.4863853341274
 21
237.2176887810473
 31
0.0
  0
LINE
  5
E0
330
4C
100
AcDbEntity
  8
1
  6
Continuous
 62
     7
100
AcDbLine
 10
117.7543345265585
 20
238.2176887810473
 30
0.0
 11
117.7543345265585
 21
237.2176887810473
 31
0.0
  0
LINE
  5
E1
330
4C
100
AcDbEntity
  8
1
  6
Continuous
 62
     7
100
AcDbLine
 10
106.4863853341274
 20
237.2176887810473
 30
0.0
 11
106.4863853341274
 21
238.2176887810473
 31
0.0
  0
LINE
  5
E2
330
4C
100
AcDbEntity
  8
1
  6
Continuous
 62
     7
100
AcDbLine
 10
106.4863853341274
 20
217.2176887810473
 30
0.0
 11
106.4863853341274
 21
218.2176887810473
 31
0.0
  0
LINE
  5
E3
330
4C
100
AcDbEntity
  8
1
  6
Continuous
 62
     7
100
AcDbLine
 10
105.4863853341274
 20
218.2176887810473
 30
0.0
 11
106.4863853341274
 21
217.2176887810473
 31
0.0
  0
LINE
  5
E4
330
4C
100
AcDbEntity
  8
1
  6
Continuous
 62
     7
100
AcDbLine
 10
105.4863853341274
 20
218.2176887810473
 30
0.0
 11
105.4863853341274
 21
237.2176887810473
 31
0.0
  0
LINE
  5
E5
330
4C
100
AcDbEntity
  8
1
  6
Continuous
 62
     7
100
AcDbLine
 10
151.4863853341274
 20
252.7176887810471
 30
0.0
 11
151.4863853341274
 21
249.4856379734781
 31
0.0
  0
LINE
  5
E6
330
4C
100
AcDbEntity
  8
1
  6
Continuous
 62
     7
100
AcDbLine
 10
157.8728044630203
 20
251.2176887810472
 30
0.0
 11
151.4863853341274
 21
251.2176887810472
 31
0.0
  0
LINE
  5
E7
330
4C
100
AcDbEntity
  8
1
  6
Continuous
 62
     7
100
AcDbLine
 10
177.4863853341274
 20
237.0450678341362
 30
0.0
 11
177.4863853341274
 21
252.7176887810468
 31
0.0
  0
LINE
  5
E8
330
4C
100
AcDbEntity
  8
1
  6
Continuous
 62
     7
100
AcDbLine
 10
151.4863853341274
 20
248.4676887810473
 30
0.0
 11
151.4863853341274
 21
249.4856379734781
 31
0.0
  0
LINE
  5
E9
330
4C
100
AcDbEntity
  8
1
  6
Continuous
 62
     2
100
AcDbLine
 10
176.4863853341275
 20
252.7176887810471
 30
0.0
 11
176.4863853341274
 21
251.2176887810472
 31
0.0
  0
LINE
  5
EA
330
4C
100
AcDbEntity
  8
1
  6
Continuous
 62
     2
100
AcDbLine
 10
177.4863853341274
 20
249.4856379734785
 30
0.0
 11
176.4863853341274
 21
251.2176887810472
 31
0.0
  0
LINE
  5
EB
330
4C
100
AcDbEntity
  8
1
  6
Continuous
 62
     2
100
AcDbLine
 10
152.4863853341274
 20
251.2176887810472
 30
0.0
 11
151.4863853341274
 21
249.4856379734781
 31
0.0
  0
LINE
  5
EC
330
4C
100
AcDbEntity
  8
1
  6
Continuous
 62
     7
100
AcDbLine
 10
121.9863853341274
 20
250.2176887810472
 30
0.0
 11
121.9863853341274
 21
240.4676887810473
 31
0.0
  0
LINE
  5
ED
330
4C
100
AcDbEntity
  8
1
  6
Continuous
 62
     7
100
AcDbLine
 10
139.4863853341274
 20
236.4676887810473
 30
0.0
 11
125.9863853341274
 21
236.4676887810473
 31
0.0
  0
LINE
  5
EE
330
4C
100
AcDbEntity
  8
1
  6
Continuous
 62
     2
100
AcDbLine
 10
105.4863853341274
 20
237.2176887810473
 30
0.0
 11
117.7543345265585
 21
237.2176887810473
 31
0.0
  0
LINE
  5
EF
330
4C
100
AcDbEntity
  8
1
  6
Continuous
 62
     2
100
AcDbLine
 10
117.7543345265585
 20
237.2176887810473
 30
0.0
 11
119.4863853341274
 21
238.2176887810473
 31
0.0
  0
LINE
  5
F0
330
4C
100
AcDbEntity
  8
1
  6
Continuous
 62
     7
100
AcDbLine
 10
119.4863853341274
 20
238.2176887810473
 30
0.0
 11
119.4863853341274
 21
250.7176887810472
 31
0.0
  0
LINE
  5
F1
330
4C
100
AcDbEntity
  8
1
  6
Continuous
 62
     7
100
AcDbLine
 10
121.4863853341274
 20
250.7176887810472
 30
0.0
 11
119.4863853341274
 21
250.7176887810472
 31
0.0
  0
LINE
  5
F2
330
4C
100
AcDbEntity
  8
1
  6
Continuous
 62
     2
100
AcDbLine
 10
117.7543345265585
 20
218.2176887810473
 30
0.0
 11
105.4863853341274
 21
218.2176887810473
 31
0.0
  0
LINE
  5
F3
330
4C
100
AcDbEntity
  8
1
  6
Continuous
 62
     7
100
AcDbLine
 10
121.9863853341274
 20
214.9676887810473
 30
0.0
 11
121.9863853341274
 21
205.2176887810473
 31
0.0
  0
LINE
  5
F4
330
4C
100
AcDbEntity
  8
1
  6
Continuous
 62
     7
100
AcDbLine
 10
119.4863853341274
 20
204.7176887810473
 30
0.0
 11
121.4863853341274
 21
204.7176887810473
 31
0.0
  0
LINE
  5
F5
330
4C
100
AcDbEntity
  8
1
  6
Continuous
 62
     7
100
AcDbLine
 10
119.4863853341274
 20
204.7176887810473
 30
0.0
 11
119.4863853341274
 21
217.2176887810473
 31
0.0
  0
LINE
  5
F6
330
4C
100
AcDbEntity
  8
1
  6
Continuous
 62
     2
100
AcDbLine
 10
119.4863853341274
 20
217.2176887810473
 30
0.0
 11
117.7543345265585
 21
218.2176887810473
 31
0.0
  0
LINE
  5
F7
330
4C
100
AcDbEntity
  8
1
  6
Continuous
 62
     2
100
AcDbLine
 10
152.4863853341274
 20
251.2176887810472
 30
0.0
 11
152.4863853341275
 21
252.7176887810471
 31
0.0
  0
LINE
  5
F8
330
4C
100
AcDbEntity
  8
1
  6
Continuous
 62
     7
100
AcDbLine
 10
121.9863853341274
 20
214.9676887810473
 30
0.0
 11
121.9863853341274
 21
240.4676887810473
 31
0.0
  0
LINE
  5
F9
330
4C
100
AcDbEntity
  8
1
  6
Continuous
 62
     7
100
AcDbLine
 10
119.4863853341274
 20
217.2176887810473
 30
0.0
 11
119.4863853341274
 21
238.2176887810473
 31
0.0
  0
LINE
  5
FA
330
4C
100
AcDbEntity
  8
1
  6
Continuous
 62
     7
100
AcDbLine
 10
117.7543345265585
 20
237.2176887810473
 30
0.0
 11
117.7543345265585
 21
218.2176887810473
 31
0.0
  0
LINE
  5
FB
330
4C
100
AcDbEntity
  8
1
  6
Continuous
 62
     7
100
AcDbLine
 10
106.4863853341274
 20
218.2176887810473
 30
0.0
 11
106.4863853341274
 21
237.2176887810473
 31
0.0
  0
LINE
  5
FC
330
4C
100
AcDbEntity
  8
1
  6
Continuous
 62
     2
100
AcDbLine
 10
462.1267074134354
 20
584.690513909577
 30
0.0
 11
462.1267074134354
 21
572.4225647171459
 31
0.0
  0
LINE
  5
FD
330
4C
100
AcDbEntity
  8
1
  6
Continuous
 62
     2
100
AcDbLine
 10
462.1267074134354
 20
572.4225647171459
 30
0.0
 11
463.1267074134354
 21
570.690513909577
 31
0.0
  0
LINE
  5
FE
330
4C
100
AcDbEntity
  8
1
  6
Continuous
 62
     7
100
AcDbLine
 10
429.6267074134354
 20
570.690513909577
 30
0.0
 11
475.6267074134354
 21
570.690513909577
 31
0.0
  0
LINE
  5
FF
330
4C
100
AcDbEntity
  8
1
  6
Continuous
 62
     7
100
AcDbLine
 10
475.6267074134354
 20
568.690513909577
 30
0.0
 11
475.6267074134354
 21
570.690513909577
 31
0.0
  0
LINE
  5
100
330
4C
100
AcDbEntity
  8
1
  6
Continuous
 62
     7
100
AcDbLine
 10
475.1267074134354
 20
568.190513909577
 30
0.0
 11
430.1267074134354
 21
568.190513909577
 31
0.0
  0
LINE
  5
101
330
4C
100
AcDbEntity
  8
1
  6
Continuous
 62
     7
100
AcDbLine
 10
461.3767074134354
 20
564.190513909577
 30
0.0
 11
461.3767074134354
 21
544.5568198543044
 31
0.0
  0
LINE
  5
102
330
4C
100
AcDbEntity
  8
1
  6
Continuous
 62
     7
100
AcDbLine
 10
429.6267074134354
 20
570.690513909577
 30
0.0
 11
429.6267074134354
 21
568.690513909577
 31
0.0
  0
LINE
  5
103
330
4C
100
AcDbEntity
  8
1
  6
Continuous
 62
     2
100
AcDbLine
 10
442.1267074134354
 20
570.690513909577
 30
0.0
 11
443.1267074134354
 21
572.4225647171459
 31
0.0
  0
LINE
  5
104
330
4C
100
AcDbEntity
  8
1
  6
Continuous
 62
     2
100
AcDbLine
 10
443.1267074134354
 20
572.4225647171459
 30
0.0
 11
443.1267074134354
 21
584.690513909577
 31
0.0
  0
LINE
  5
105
330
4C
100
AcDbEntity
  8
1
  6
Continuous
 62
     7
100
AcDbLine
 10
443.8767074134354
 20
564.190513909577
 30
0.0
 11
443.8767074134354
 21
550.31869666787
 31
0.0
  0
LINE
  5
106
330
4C
100
AcDbEntity
  8
1
  6
Continuous
 62
     7
100
AcDbLine
 10
442.1267074134354
 20
570.690513909577
 30
0.0
 11
442.1267074134354
 21
583.690513909577
 31
0.0
  0
LINE
  5
107
330
4C
100
AcDbEntity
  8
1
  6
Continuous
 62
     7
100
AcDbLine
 10
443.1267074134354
 20
584.690513909577
 30
0.0
 11
442.1267074134354
 21
583.690513909577
 31
0.0
  0
LINE
  5
108
330
4C
100
AcDbEntity
  8
1
  6
Continuous
 62
     7
100
AcDbLine
 10
463.1267074134354
 20
572.4225647171459
 30
0.0
 11
442.1267074134354
 21
572.4225647171459
 31
0.0
  0
LINE
  5
109
330
4C
100
AcDbEntity
  8
1
  6
Continuous
 62
     7
100
AcDbLine
 10
442.1267074134354
 20
583.690513909577
 30
0.0
 11
463.1267074134354
 21
583.690513909577
 31
0.0
  0
LINE
  5
10A
330
4C
100
AcDbEntity
  8
1
  6
Continuous
 62
     7
100
AcDbLine
 10
463.1267074134354
 20
583.690513909577
 30
0.0
 11
463.1267074134354
 21
570.690513909577
 31
0.0
  0
LINE
  5
10B
330
4C
100
AcDbEntity
  8
1
  6
Continuous
 62
     7
100
AcDbLine
 10
463.1267074134354
 20
583.690513909577
 30
0.0
 11
462.1267074134354
 21
584.690513909577
 31
0.0
  0
LINE
  5
10C
330
4C
100
AcDbEntity
  8
1
  6
Continuous
 62
     7
100
AcDbLine
 10
443.1267074134354
 20
584.690513909577
 30
0.0
 11
462.1267074134354
 21
584.690513909577
 31
0.0
  0
LINE
  5
10D
330
4C
100
AcDbEntity
  8
1
  6
Continuous
 62
     7
100
AcDbLine
 10
430.6267074134359
 20
538.1997636624005
 30
0.0
 11
430.6267074134359
 21
537.6905139095775
 31
0.0
  0
LINE
  5
10E
330
4C
100
AcDbEntity
  8
1
  6
Continuous
 62
     7
100
AcDbLine
 10
430.6267074134359
 20
537.6905139095775
 30
0.0
 11
430.3587582210049
 21
537.6905139095775
 31
0.0
  0
LINE
  5
10F
330
4C
100
AcDbEntity
  8
1
  6
Continuous
 62
     7
100
AcDbLine
 10
430.3587582210049
 20
537.6905139095775
 30
0.0
 11
428.6267074134358
 21
537.6905139095775
 31
0.0
  0
LINE
  5
110
330
4C
100
AcDbEntity
  8
1
  6
Continuous
 62
     2
100
AcDbLine
 10
427.1267074134359
 20
536.6905139095775
 30
0.0
 11
428.6267074134358
 21
536.6905139095775
 31
0.0
  0
LINE
  5
111
330
4C
100
AcDbEntity
  8
1
  6
Continuous
 62
     2
100
AcDbLine
 10
430.3587582210049
 20
537.6905139095775
 30
0.0
 11
428.6267074134358
 21
536.6905139095775
 31
0.0
  0
LINE
  5
112
330
4C
100
AcDbEntity
  8
1
  6
Continuous
 62
     7
100
AcDbLine
 10
428.6267074134358
 20
537.6905139095775
 30
0.0
 11
428.6267074134358
 21
513.6905139095775
 31
0.0
  0
LINE
  5
113
330
4C
100
AcDbEntity
  8
1
  6
Continuous
 62
     2
100
AcDbLine
 10
428.6267074134358
 20
514.6905139095775
 30
0.0
 11
430.3587582210049
 21
513.6905139095775
 31
0.0
  0
LINE
  5
114
330
4C
100
AcDbEntity
  8
1
  6
Continuous
 62
     2
100
AcDbLine
 10
427.1267074134359
 20
514.6905139095775
 30
0.0
 11
428.6267074134358
 21
514.6905139095775
 31
0.0
  0
LINE
  5
115
330
4C
100
AcDbEntity
  8
1
  6
Continuous
 62
     7
100
AcDbLine
 10
427.1267074134359
 20
513.6905139095775
 30
0.0
 11
428.6267074134358
 21
513.6905139095775
 31
0.0
  0
LINE
  5
116
330
4C
100
AcDbEntity
  8
1
  6
Continuous
 62
     7
100
AcDbLine
 10
428.6267074134358
 20
513.6905139095775
 30
0.0
 11
430.3587582210049
 21
513.6905139095775
 31
0.0
  0
LINE
  5
117
330
4C
100
AcDbEntity
  8
1
  6
Continuous
 62
     7
100
AcDbLine
 10
430.3587582210049
 20
513.6905139095775
 30
0.0
 11
430.6267074134359
 21
513.6905139095775
 31
0.0
  0
LINE
  5
118
330
4C
100
AcDbEntity
  8
1
  6
Continuous
 62
     7
100
AcDbLine
 10
430.6267074134359
 20
513.6905139095775
 30
0.0
 11
430.6267074134359
 21
513.1812641567547
 31
0.0
  0
LINE
  5
119
330
4C
100
AcDbEntity
  8
1
  6
Continuous
 62
     7
100
AcDbLine
 10
430.6267074134359
 20
513.6905139095775
 30
0.0
 11
430.6267074134359
 21
537.6905139095775
 31
0.0
  0
LINE
  5
11A
330
4C
100
AcDbEntity
  8
1
  6
Continuous
 62
     7
100
AcDbLine
 10
432.7264263888191
 20
538.3488187377127
 30
0.0
 11
430.6267074134359
 21
538.1997636624005
 31
0.0
  0
LINE
  5
11B
330
4C
100
AcDbEntity
  8
1
  6
Continuous
 62
     7
100
AcDbLine
 10
430.6267074134359
 20
513.1812641567547
 30
0.0
 11
433.4577123217162
 21
512.9802964773842
 31
0.0
  0
LINE
  5
11C
330
4C
100
AcDbEntity
  8
1
  6
PHANTOM
 62
     4
100
AcDbLine
 10
390.2575718729341
 20
525.6905139095777
 30
0.0
 11
472.286194663422
 21
525.6905139095777
 31
0.0
  0
LINE
  5
11D
330
4C
100
AcDbEntity
  8
1
  6
Continuous
 62
     7
100
AcDbLine
 10
428.6267074134358
 20
537.6905139095775
 30
0.0
 11
427.1267074134359
 21
537.6905139095775
 31
0.0
  0
LINE
  5
11E
330
4C
100
AcDbEntity
  8
1
  6
Continuous
 62
     7
100
AcDbLine
 10
433.4577123217162
 20
512.9802964773842
 30
0.0
 11
444.6267074134359
 21
512.1874306586367
 31
0.0
  0
LINE
  5
11F
330
4C
100
AcDbEntity
  8
1
  6
Continuous
 62
     2
100
AcDbLine
 10
440.6267074134359
 20
252.7176887810471
 30
0.0
 11
440.6267074134359
 21
251.2176887810472
 31
0.0
  0
LINE
  5
120
330
4C
100
AcDbEntity
  8
1
  6
Continuous
 62
     2
100
AcDbLine
 10
440.6267074134359
 20
251.2176887810472
 30
0.0
 11
439.6267074134359
 21
249.4856379734781
 31
0.0
  0
LINE
  5
121
330
4C
100
AcDbEntity
  8
1
  6
Continuous
 62
     7
100
AcDbLine
 10
439.6267074134359
 20
248.4676887810473
 30
0.0
 11
439.6267074134359
 21
249.4856379734781
 31
0.0
  0
LINE
  5
122
330
4C
100
AcDbEntity
  8
1
  6
Continuous
 62
     2
100
AcDbLine
 10
465.6267074134359
 20
249.4856379734785
 30
0.0
 11
464.6267074134359
 21
251.2176887810472
 31
0.0
  0
LINE
  5
123
330
4C
100
AcDbEntity
  8
1
  6
Continuous
 62
     2
100
AcDbLine
 10
464.6267074134359
 20
252.7176887810471
 30
0.0
 11
464.6267074134359
 21
251.2176887810472
 31
0.0
  0
LINE
  5
124
330
4C
100
AcDbEntity
  8
1
  6
Continuous
 62
     7
100
AcDbLine
 10
465.6267074134359
 20
246.6913547420574
 30
0.0
 11
465.6267074134359
 21
249.4856379734785
 31
0.0
  0
LINE
  5
125
330
4C
100
AcDbEntity
  8
1
  6
Continuous
 62
     7
100
AcDbLine
 10
465.6267074134359
 20
251.2176887810471
 30
0.0
 11
465.6267074134359
 21
249.4856379734785
 31
0.0
  0
LINE
  5
126
330
4C
100
AcDbEntity
  8
1
  6
Continuous
 62
     7
100
AcDbLine
 10
465.6267074134359
 20
252.7176887810468
 30
0.0
 11
465.6267074134359
 21
251.2176887810471
 31
0.0
  0
LINE
  5
127
330
4C
100
AcDbEntity
  8
1
  6
Continuous
 62
     7
100
AcDbLine
 10
439.6267074134359
 20
249.4856379734781
 30
0.0
 11
439.6267074134359
 21
251.2176887810472
 31
0.0
  0
LINE
  5
128
330
4C
100
AcDbEntity
  8
1
  6
Continuous
 62
     7
100
AcDbLine
 10
465.6267074134359
 20
251.2176887810471
 30
0.0
 11
439.6267074134359
 21
251.2176887810472
 31
0.0
  0
LINE
  5
129
330
4C
100
AcDbEntity
  8
1
  6
Continuous
 62
     7
100
AcDbLine
 10
433.4577123217162
 20
240.4279062132404
 30
0.0
 11
430.6267074134359
 21
240.2269385338699
 31
0.0
  0
LINE
  5
12A
330
4C
100
AcDbEntity
  8
1
  6
Continuous
 62
     7
100
AcDbLine
 10
430.6267074134359
 20
240.2269385338699
 30
0.0
 11
430.6267074134359
 21
239.7176887810471
 31
0.0
  0
LINE
  5
12B
330
4C
100
AcDbEntity
  8
1
  6
Continuous
 62
     7
100
AcDbLine
 10
430.6267074134359
 20
239.7176887810471
 30
0.0
 11
430.3587582210049
 21
239.7176887810471
 31
0.0
  0
LINE
  5
12C
330
4C
100
AcDbEntity
  8
1
  6
Continuous
 62
     7
100
AcDbLine
 10
430.3587582210049
 20
239.7176887810471
 30
0.0
 11
428.6267074134359
 21
239.7176887810471
 31
0.0
  0
LINE
  5
12D
330
4C
100
AcDbEntity
  8
1
  6
Continuous
 62
     7
100
AcDbLine
 10
428.6267074134359
 20
239.7176887810471
 30
0.0
 11
427.1267074134359
 21
239.7176887810471
 31
0.0
  0
LINE
  5
12E
330
4C
100
AcDbEntity
  8
1
  6
Continuous
 62
     2
100
AcDbLine
 10
427.1267074134359
 20
238.7176887810471
 30
0.0
 11
428.6267074134359
 21
238.7176887810471
 31
0.0
  0
LINE
  5
12F
330
4C
100
AcDbEntity
  8
1
  6
Continuous
 62
     2
100
AcDbLine
 10
430.3587582210049
 20
239.7176887810471
 30
0.0
 11
428.6267074134359
 21
238.7176887810471
 31
0.0
  0
LINE
  5
130
330
4C
100
AcDbEntity
  8
1
  6
Continuous
 62
     7
100
AcDbLine
 10
428.6267074134359
 20
239.7176887810471
 30
0.0
 11
428.6267074134359
 21
215.7176887810471
 31
0.0
  0
LINE
  5
131
330
4C
100
AcDbEntity
  8
1
  6
Continuous
 62
     2
100
AcDbLine
 10
428.6267074134359
 20
216.7176887810471
 30
0.0
 11
430.3587582210049
 21
215.7176887810471
 31
0.0
  0
LINE
  5
132
330
4C
100
AcDbEntity
  8
1
  6
Continuous
 62
     2
100
AcDbLine
 10
427.1267074134359
 20
216.7176887810471
 30
0.0
 11
428.6267074134359
 21
216.7176887810471
 31
0.0
  0
LINE
  5
133
330
4C
100
AcDbEntity
  8
1
  6
Continuous
 62
     7
100
AcDbLine
 10
427.1267074134359
 20
215.7176887810471
 30
0.0
 11
428.6267074134359
 21
215.7176887810471
 31
0.0
  0
LINE
  5
134
330
4C
100
AcDbEntity
  8
1
  6
Continuous
 62
     7
100
AcDbLine
 10
428.6267074134359
 20
215.7176887810471
 30
0.0
 11
430.3587582210049
 21
215.7176887810471
 31
0.0
  0
LINE
  5
135
330
4C
100
AcDbEntity
  8
1
  6
Continuous
 62
     7
100
AcDbLine
 10
430.3587582210049
 20
215.7176887810471
 30
0.0
 11
430.6267074134359
 21
215.7176887810471
 31
0.0
  0
LINE
  5
136
330
4C
100
AcDbEntity
  8
1
  6
Continuous
 62
     7
100
AcDbLine
 10
430.6267074134359
 20
215.7176887810471
 30
0.0
 11
430.6267074134359
 21
215.2084390282241
 31
0.0
  0
LINE
  5
137
330
4C
100
AcDbEntity
  8
1
  6
Continuous
 62
     7
100
AcDbLine
 10
433.4577123217162
 20
215.0074713488538
 30
0.0
 11
451.6267074134359
 21
213.7176887810471
 31
0.0
  0
LINE
  5
138
330
4C
100
AcDbEntity
  8
1
  6
Continuous
 62
     7
100
AcDbLine
 10
439.6267074134359
 20
246.6913547420574
 30
0.0
 11
439.6267074134359
 21
248.4676887810473
 31
0.0
  0
LINE
  5
139
330
4C
100
AcDbEntity
  8
1
  6
Continuous
 62
     7
100
AcDbLine
 10
430.6267074134359
 20
215.2084390282241
 30
0.0
 11
433.4577123217162
 21
215.0074713488538
 31
0.0
  0
LINE
  5
13A
330
4C
100
AcDbEntity
  8
1
  6
Continuous
 62
     7
100
AcDbLine
 10
430.6267074134359
 20
215.7176887810471
 30
0.0
 11
430.6267074134359
 21
239.7176887810471
 31
0.0
  0
LINE
  5
13B
330
4C
100
AcDbEntity
  8
1
  6
Continuous
 62
     7
100
AcDbLine
 10
434.0515669011278
 20
240.4700628256711
 30
0.0
 11
433.4577123217162
 21
240.4279062132404
 31
0.0
  0
LINE
  5
13C
330
4C
100
AcDbEntity
  8
1
  6
Continuous
 62
     7
100
AcDbLine
 10
465.6267074134359
 20
227.7176887810471
 30
0.0
 11
465.6267074134359
 21
246.6913547420574
 31
0.0
  0
LINE
  5
13D
330
4C
100
AcDbEntity
  8
1
  6
Continuous
 62
     7
100
AcDbLine
 10
439.6267074134359
 20
246.4550017907499
 30
0.0
 11
439.6267074134359
 21
246.6913547420574
 31
0.0
  0
LINE
  5
13E
330
4C
100
AcDbEntity
  8
1
  6
Continuous
 62
     7
100
AcDbLine
 10
450.7202794503582
 20
229.597759174449
 30
0.0
 11
438.9358062060706
 21
241.2193046393272
 31
0.0
  0
LINE
  5
13F
330
4C
100
AcDbEntity
  8
1
  6
Continuous
 62
     7
100
AcDbLine
 10
439.6267074134359
 20
251.2176887810472
 30
0.0
 11
439.6267074134359
 21
252.7176887810471
 31
0.0
  0
ARC
  5
140
330
4C
100
AcDbEntity
  8
1
  6
Continuous
 62
     7
100
AcDbCircle
 10
164.4863853341274
 20
227.7176887810473
 30
0.0
 40
13.99999999999996
100
AcDbArc
 50
-97.1288259215215
 51
-82.8661233566687
  0
ARC
  5
141
330
4C
100
AcDbEntity
  8
1
  6
Continuous
 62
     7
100
AcDbCircle
 10
139.4863853341274
 20
248.4676887810473
 30
0.0
 40
12.0
100
AcDbArc
 50
-90.0
 51
0.0
  0
ARC
  5
142
330
4C
100
AcDbEntity
  8
1
  6
Continuous
 62
     7
100
AcDbCircle
 10
207.4863853341275
 20
237.0450678341362
 30
0.0
 40
30.00000000000011
100
AcDbArc
 50
180.0
 51
-171.1668016303222
  0
ARC
  5
143
330
4C
100
AcDbEntity
  8
1
  6
Continuous
 62
     7
100
AcDbCircle
 10
452.6267074134359
 20
227.7176887810473
 30
0.0
 40
23.00000000000019
100
AcDbArc
 50
-146.4531849841855
 51
55.5826112895582
  0
ARC
  5
144
330
4C
100
AcDbEntity
  8
1
  6
Continuous
 62
     7
100
AcDbCircle
 10
451.6267074134359
 20
227.7176887810471
 30
0.0
 40
14.0
100
AcDbArc
 50
-90.0
 51
0.0
  0
ARC
  5
145
330
4C
100
AcDbEntity
  8
1
  6
Continuous
 62
     7
100
AcDbCircle
 10
452.6267074134359
 20
227.7176887810473
 30
0.0
 40
22.99999999999987
100
AcDbArc
 50
124.4173887104418
 51
146.4531849841862
  0
ARC
  5
146
330
4C
100
AcDbEntity
  8
1
  6
Continuous
 62
     7
100
AcDbCircle
 10
121.4863853341274
 20
250.2176887810472
 30
0.0
 40
0.5
100
AcDbArc
 50
0.0
 51
90.0
  0
ARC
  5
147
330
4C
100
AcDbEntity
  8
1
  6
Continuous
 62
     7
100
AcDbCircle
 10
125.9863853341274
 20
240.4676887810473
 30
0.0
 40
4.0
100
AcDbArc
 50
180.0
 51
-90.0
  0
ARC
  5
148
330
4C
100
AcDbEntity
  8
1
  6
Continuous
 62
     7
100
AcDbCircle
 10
121.4863853341274
 20
205.2176887810473
 30
0.0
 40
0.5
100
AcDbArc
 50
-90.0
 51
0.0
  0
ARC
  5
149
330
4C
100
AcDbEntity
  8
1
  6
Continuous
 62
     7
100
AcDbCircle
 10
125.9863853341274
 20
214.9676887810473
 30
0.0
 40
4.0
100
AcDbArc
 50
90.0
 51
180.0
  0
ARC
  5
14A
330
4C
100
AcDbEntity
  8
1
  6
Continuous
 62
     7
100
AcDbCircle
 10
465.3767074134354
 20
564.190513909577
 30
0.0
 40
4.0
100
AcDbArc
 50
90.0
 51
180.0
  0
ARC
  5
14B
330
4C
100
AcDbEntity
  8
1
  6
Continuous
 62
     7
100
AcDbCircle
 10
439.8767074134354
 20
564.190513909577
 30
0.0
 40
4.0
100
AcDbArc
 50
0.0
 51
90.0
  0
ARC
  5
14C
330
4C
100
AcDbEntity
  8
1
  6
Continuous
 62
     7
100
AcDbCircle
 10
430.1267074134354
 20
568.690513909577
 30
0.0
 40
0.5
100
AcDbArc
 50
180.0
 51
-90.0
  0
ARC
  5
14D
330
4C
100
AcDbEntity
  8
1
  6
Continuous
 62
     7
100
AcDbCircle
 10
475.1267074134354
 20
568.690513909577
 30
0.0
 40
0.5
100
AcDbArc
 50
-90.0
 51
0.0
  0
ARC
  5
14E
330
4C
100
AcDbEntity
  8
1
  6
Continuous
 62
     7
100
AcDbCircle
 10
491.3767074134354
 20
544.5568198543044
 30
0.0
 40
30.0
100
AcDbArc
 50
180.0
 51
-164.8973630808141
  0
ARC
  5
14F
330
4C
100
AcDbEntity
  8
1
  6
Continuous
 62
     7
100
AcDbCircle
 10
431.8767074134354
 20
550.31869666787
 30
0.0
 40
11.99999999999973
100
AcDbArc
 50
-85.93949265135289
 51
0.0
  0
ARC
  5
150
330
4C
100
AcDbEntity
  8
1
  6
Continuous
 62
     7
100
AcDbCircle
 10
433.6267074134359
 20
246.4550017907499
 30
0.0
 40
6.000000000000009
100
AcDbArc
 50
-85.93949265135271
 51
0.0
  0
ENDBLK
  5
4E
330
4C
100
AcDbEntity
  8
0
100
AcDbBlockEnd
  0
BLOCK
  5
50
330
4F
100
AcDbEntity
  8
0
100
AcDbBlockBegin
  2
32-1-16
 70
     0
 71
     0
 10
382.8394293069274
 20
485.7526000236506
 30
0.0
  3
32-1-16
  1

  0
LINE
  5
151
330
4F
100
AcDbEntity
  8
1
  6
Continuous
 62
     7
100
AcDbLine
 10
177.7863853341274
 20
252.7176887810472
 30
0.0
 11
170.965991609019
 21
252.7176887810472
 31
0.0
  0
LINE
  5
152
330
4F
100
AcDbEntity
  8
1
  6
Continuous
 62
     7
100
AcDbLine
 10
152.9283642723968
 20
261.7176887810472
 30
0.0
 11
152.9863853341274
 21
261.7176887810472
 31
0.0
  0
LINE
  5
153
330
4F
100
AcDbEntity
  8
1
  6
Continuous
 62
     7
100
AcDbLine
 10
177.7863853341274
 20
252.7176887810472
 30
0.0
 11
177.6733853341274
 21
252.7176887810472
 31
0.0
  0
LINE
  5
154
330
4F
100
AcDbEntity
  8
1
  6
Continuous
 62
     7
100
AcDbLine
 10
175.9863853341274
 20
261.7176887810472
 30
0.0
 11
176.0444063958581
 21
261.7176887810472
 31
0.0
  0
LINE
  5
155
330
4F
100
AcDbEntity
  8
1
  6
Continuous
 62
     7
100
AcDbLine
 10
158.0067790592357
 20
252.7176887810472
 30
0.0
 11
151.1863853341274
 21
252.7176887810471
 31
0.0
  0
LINE
  5
156
330
4F
100
AcDbEntity
  8
1
  6
Continuous
 62
     7
100
AcDbLine
 10
174.2543345265585
 20
262.7176887810472
 30
0.0
 11
154.7184361416963
 21
262.7176887810472
 31
0.0
  0
LINE
  5
157
330
4F
100
AcDbEntity
  8
1
  6
Continuous
 62
     7
100
AcDbLine
 10
178.4863853341274
 20
260.4308660307605
 30
0.0
 11
178.4863853341274
 21
253.2894376022176
 31
0.0
  0
LINE
  5
158
330
4F
100
AcDbEntity
  8
1
  6
Continuous
 62
     7
100
AcDbLine
 10
150.4863853341274
 20
253.2894376022176
 30
0.0
 11
150.4863853341274
 21
260.4308660307602
 31
0.0
  0
LINE
  5
159
330
4F
100
AcDbEntity
  8
1
  6
Continuous
 62
     7
100
AcDbLine
 10
153.8524107379118
 20
261.7176887810472
 30
0.0
 11
175.1203599303429
 21
261.7176887810472
 31
0.0
  0
LINE
  5
15A
330
4F
100
AcDbEntity
  8
1
  6
Continuous
 62
     7
100
AcDbLine
 10
464.1267074134359
 20
261.7176887810472
 30
0.0
 11
464.1847284751665
 21
261.7176887810472
 31
0.0
  0
LINE
  5
15B
330
4F
100
AcDbEntity
  8
1
  6
Continuous
 62
     7
100
AcDbLine
 10
465.9267074134359
 20
252.7176887810472
 30
0.0
 11
465.8137074134359
 21
252.7176887810472
 31
0.0
  0
LINE
  5
15C
330
4F
100
AcDbEntity
  8
1
  6
Continuous
 62
     7
100
AcDbLine
 10
452.6267074134359
 20
252.7176887810471
 30
0.0
 11
465.9267074134359
 21
252.7176887810472
 31
0.0
  0
LINE
  5
15D
330
4F
100
AcDbEntity
  8
1
  6
Continuous
 62
     7
100
AcDbLine
 10
459.2787747612611
 20
539.6905139095777
 30
0.0
 11
445.9746400656109
 21
539.6905139095777
 31
0.0
  0
LINE
  5
15E
330
4F
100
AcDbEntity
  8
1
  6
Continuous
 62
     7
100
AcDbLine
 10
443.8283854343663
 20
538.4513732204791
 30
0.0
 11
437.1763180865415
 21
526.9296545986763
 31
0.0
  0
LINE
  5
15F
330
4F
100
AcDbEntity
  8
1
  6
Continuous
 62
     7
100
AcDbLine
 10
437.1763180865415
 20
524.4513732204791
 30
0.0
 11
443.8283854343663
 21
512.9296545986763
 31
0.0
  0
LINE
  5
160
330
4F
100
AcDbEntity
  8
1
  6
Continuous
 62
     7
100
AcDbLine
 10
444.1331198267504
 20
262.7176887810471
 30
0.0
 11
442.8587582210047
 21
262.7176887810472
 31
0.0
  0
LINE
  5
161
330
4F
100
AcDbEntity
  8
1
  6
Continuous
 62
     7
100
AcDbLine
 10
441.0686863517053
 20
261.7176887810472
 30
0.0
 11
441.1267074134359
 21
261.7176887810472
 31
0.0
  0
LINE
  5
162
330
4F
100
AcDbEntity
  8
1
  6
Continuous
 62
     7
100
AcDbLine
 10
439.4397074134359
 20
252.7176887810471
 30
0.0
 11
439.3267074134358
 21
252.7176887810471
 31
0.0
  0
LINE
  5
163
330
4F
100
AcDbEntity
  8
1
  6
Continuous
 62
     7
100
AcDbLine
 10
439.3267074134358
 20
252.7176887810471
 30
0.0
 11
452.6267074134359
 21
252.7176887810471
 31
0.0
  0
LINE
  5
164
330
4F
100
AcDbEntity
  8
1
  6
Continuous
 62
     7
100
AcDbLine
 10
462.3946566058669
 20
262.7176887810472
 30
0.0
 11
461.2106764691874
 21
262.7176887810471
 31
0.0
  0
LINE
  5
165
330
4F
100
AcDbEntity
  8
1
  6
Continuous
 62
     7
100
AcDbLine
 10
468.0770967403303
 20
526.9296545986763
 30
0.0
 11
461.4250293925055
 21
538.4513732204791
 31
0.0
  0
LINE
  5
166
330
4F
100
AcDbEntity
  8
1
  6
Continuous
 62
     7
100
AcDbLine
 10
461.4250293925055
 20
512.9296545986763
 30
0.0
 11
468.0770967403302
 21
524.4513732204791
 31
0.0
  0
ARC
  5
167
330
4F
100
AcDbEntity
  8
1
  6
Continuous
 62
     7
100
AcDbCircle
 10
153.9863853341274
 20
256.860151816489
 30
0.0
 40
4.999999999999985
100
AcDbArc
 50
105.3375576695541
 51
134.4270040008074
  0
ARC
  5
168
330
4F
100
AcDbEntity
  8
1
  6
Continuous
 62
     7
100
AcDbCircle
 10
174.9863853341274
 20
256.860151816489
 30
0.0
 40
5.000000000000181
100
AcDbArc
 50
-55.94420225743335
 51
-45.57299599919425
  0
ARC
  5
169
330
4F
100
AcDbEntity
  8
1
  6
Continuous
 62
     7
100
AcDbCircle
 10
174.9863853341274
 20
256.860151816489
 30
0.0
 40
5.000000000000057
100
AcDbArc
 50
45.57299599919494
 51
74.66244233044463
  0
ARC
  5
16A
330
4F
100
AcDbEntity
  8
1
  6
Continuous
 62
     7
100
AcDbCircle
 10
153.9863853341274
 20
256.860151816489
 30
0.0
 40
4.999999999999996
100
AcDbArc
 50
-134.4270040008057
 51
-124.0557977425657
  0
ARC
  5
16B
330
4F
100
AcDbEntity
  8
1
  6
Continuous
 62
     7
100
AcDbCircle
 10
463.1267074134359
 20
256.860151816489
 30
0.0
 40
5.000000000000181
100
AcDbArc
 50
-55.94420225743335
 51
74.66244233044588
  0
ARC
  5
16C
330
4F
100
AcDbEntity
  8
1
  6
Continuous
 62
     7
100
AcDbCircle
 10
452.6267074134359
 20
525.6905139095777
 30
0.0
 40
15.49999999999998
100
AcDbArc
 50
115.4146209151608
 51
124.5853790848391
  0
ARC
  5
16D
330
4F
100
AcDbEntity
  8
1
  6
Continuous
 62
     7
100
AcDbCircle
 10
452.6267074134359
 20
525.6905139095777
 30
0.0
 40
15.49999999999971
100
AcDbArc
 50
175.4146209151608
 51
180.0
  0
ARC
  5
16E
330
4F
100
AcDbEntity
  8
1
  6
Continuous
 62
     7
100
AcDbCircle
 10
452.6267074134359
 20
525.6905139095777
 30
0.0
 40
15.49999999999997
100
AcDbArc
 50
-124.5853790848391
 51
-121.072950972153
  0
ARC
  5
16F
330
4F
100
AcDbEntity
  8
1
  6
Continuous
 62
     7
100
AcDbCircle
 10
452.6267074134359
 20
525.6905139095777
 30
0.0
 40
15.49999999999977
100
AcDbArc
 50
180.0
 51
-175.4146209151608
  0
ARC
  5
170
330
4F
100
AcDbEntity
  8
1
  6
Continuous
 62
     7
100
AcDbCircle
 10
442.1267074134359
 20
256.860151816489
 30
0.0
 40
4.999999999999985
100
AcDbArc
 50
105.3375576695541
 51
-124.0557977425665
  0
ARC
  5
171
330
4F
100
AcDbEntity
  8
1
  6
Continuous
 62
     7
100
AcDbCircle
 10
452.6267074134359
 20
525.6905139095777
 30
0.0
 40
15.49999999999997
100
AcDbArc
 50
55.41462091516095
 51
64.58537908483845
  0
ARC
  5
172
330
4F
100
AcDbEntity
  8
1
  6
Continuous
 62
     7
100
AcDbCircle
 10
452.6267074134359
 20
525.6905139095777
 30
0.0
 40
15.49999999999972
100
AcDbArc
 50
0.0
 51
4.58537908483921
  0
ARC
  5
173
330
4F
100
AcDbEntity
  8
1
  6
Continuous
 62
     7
100
AcDbCircle
 10
452.6267074134359
 20
525.6905139095777
 30
0.0
 40
15.49999999999994
100
AcDbArc
 50
-58.92704902784703
 51
-55.41462091516095
  0
ARC
  5
174
330
4F
100
AcDbEntity
  8
1
  6
Continuous
 62
     7
100
AcDbCircle
 10
452.6267074134359
 20
525.6905139095777
 30
0.0
 40
15.49999999999966
100
AcDbArc
 50
-4.58537908483925
 51
0.0
  0
ARC
  5
175
330
4F
100
AcDbEntity
  8
1
  6
Continuous
 62
     7
100
AcDbCircle
 10
452.6267074134359
 20
525.6905139095777
 30
0.0
 40
10.76794919243105
100
AcDbArc
 50
89.9999999999994
 51
-137.9829399353523
  0
ARC
  5
176
330
4F
100
AcDbEntity
  8
1
  6
Continuous
 62
     7
100
AcDbCircle
 10
452.6267074134359
 20
525.6905139095777
 30
0.0
 40
10.76794919243103
100
AcDbArc
 50
-42.01706006464728
 51
89.9999999999994
  0
SPLINE
  5
177
330
4F
100
AcDbEntity
  8
1
  6
Continuous
 62
     7
100
AcDbSpline
210
0.0
220
0.0
230
1.0
 70
     8
 71
     3
 72
    25
 73
    21
 74
    19
 42
0.0000000001
 43
0.0000000001
 44
0.00000001
 40
0.0
 40
0.0
 40
0.0
 40
0.0
 40
1.525997370510052
 40
3.041992003908259
 40
4.036425737836114
 40
5.033630630935313
 40
5.779988211950948
 40
6.525153434394664
 40
7.113139666336545
 40
7.696814705995148
 40
7.949097156283785
 40
8.201245184935972
 40
8.846896632263437
 40
9.499909919801452
 40
10.24994291556191
 40
11.00216046997818
 40
12.12686677425069
 40
13.24812599415174
 40
14.81779815243875
 40
16.3978299749328
 40
16.3978299749328
 40
16.3978299749328
 40
16.3978299749328
 10
452.6267074134359
 20
253.2894542513527
 30
0.0
 10
452.1191585854479
 20
253.3227721200279
 30
0.0
 10
451.1073878536171
 20
253.3891894625841
 30
0.0
 10
449.7737254315566
 20
253.6031097371151
 30
0.0
 10
448.65866308823
 20
253.9659491725067
 30
0.0
 10
447.833467623945
 20
254.3625928494806
 30
0.0
 10
447.1359252995289
 20
254.8158020755429
 30
0.0
 10
446.6227174952492
 20
255.2889046661879
 30
0.0
 10
446.2459100864497
 20
255.8094654476242
 30
0.0
 10
446.0566917185831
 20
256.2511835650684
 30
0.0
 10
445.9852723150446
 20
256.6077249271681
 30
0.0
 10
445.9598781180427
 20
256.9914156088365
 30
0.0
 10
446.058634957841
 20
257.5091691567187
 30
0.0
 10
446.3687273887777
 20
258.1252471636436
 30
0.0
 10
446.8493027296884
 20
258.6693861288952
 30
0.0
 10
447.5518281115159
 20
259.1973566300421
 30
0.0
 10
448.4369384556904
 20
259.6718241868046
 30
0.0
 10
449.6438226296401
 20
260.0885021216511
 30
0.0
 10
451.0538210648508
 20
260.3238205639996
 30
0.0
 10
452.1012635858526
 20
260.3951745217069
 30
0.0
 10
452.6267074134359
 20
260.430968845404
 30
0.0
 11
452.6267074134359
 21
253.2894542513527
 31
0.0
 11
451.105740912416
 21
253.4132640957868
 31
0.0
 11
449.6128515687106
 21
253.6769327058698
 31
0.0
 11
448.6677413075805
 21
253.9862303707175
 31
0.0
 11
447.7699030889776
 21
254.4201706108855
 31
0.0
 11
447.148098075916
 21
254.8329758488258
 31
0.0
 11
446.6048414991442
 21
255.3430184946249
 31
0.0
 11
446.2638575272868
 21
255.8220359680949
 31
0.0
 11
446.0400601835734
 21
256.3611011783128
 31
0.0
 11
445.9907591799239
 21
256.608519540127
 31
0.0
 11
445.9746400656108
 21
256.8601518164886
 31
0.0
 11
446.0863110709111
 21
257.4960727062314
 31
0.0
 11
446.3758088137136
 21
258.0814080038288
 31
0.0
 11
446.8654615605448
 21
258.6495538321599
 31
0.0
 11
447.4605903224006
 21
259.1096114437522
 31
0.0
 11
448.449830879974
 21
259.6447445020865
 31
0.0
 11
449.5084543508036
 21
260.0142557809695
 31
0.0
 11
451.0522914816843
 21
260.2978710094316
 31
0.0
 11
452.6267074134359
 21
260.430968845404
 31
0.0
  0
SPLINE
  5
178
330
4F
100
AcDbEntity
  8
1
  6
Continuous
 62
     7
100
AcDbSpline
210
0.0
220
0.0
230
1.0
 70
     8
 71
     3
 72
    25
 73
    21
 74
    19
 42
0.0000000001
 43
0.0000000001
 44
0.00000001
 40
0.0
 40
0.0
 40
0.0
 40
0.0
 40
1.525997370510165
 40
3.04199200390826
 40
4.036425737836008
 40
5.033630630935054
 40
5.779988211950736
 40
6.525153434394411
 40
7.113139666336292
 40
7.696814705994938
 40
7.949097156283586
 40
8.201245184935781
 40
8.846896632263237
 40
9.499909919801352
 40
10.24994291556178
 40
11.00216046997796
 40
12.12686677425042
 40
13.24812599415152
 40
14.81779815243863
 40
16.39782997493257
 40
16.39782997493257
 40
16.39782997493257
 40
16.39782997493257
 10
452.6267074134359
 20
253.2894542513527
 30
0.0
 10
453.134256241424
 20
253.3227721200279
 30
0.0
 10
454.1460269732545
 20
253.3891894625842
 30
0.0
 10
455.4796893953154
 20
253.603109737115
 30
0.0
 10
456.5947517386416
 20
253.9659491725066
 30
0.0
 10
457.4199472029267
 20
254.3625928494807
 30
0.0
 10
458.1174895273425
 20
254.8158020755428
 30
0.0
 10
458.6306973316224
 20
255.2889046661881
 30
0.0
 10
459.0075047404217
 20
255.809465447624
 30
0.0
 10
459.1967231082884
 20
256.2511835650685
 30
0.0
 10
459.2681425118271
 20
256.6077249271681
 30
0.0
 10
459.2935367088292
 20
256.9914156088365
 30
0.0
 10
459.1947798690309
 20
257.5091691567187
 30
0.0
 10
458.8846874380939
 20
258.1252471636436
 30
0.0
 10
458.4041120971833
 20
258.6693861288951
 30
0.0
 10
457.7015867153561
 20
259.1973566300421
 30
0.0
 10
456.8164763711812
 20
259.6718241868045
 30
0.0
 10
455.6095921972318
 20
260.0885021216511
 30
0.0
 10
454.199593762021
 20
260.3238205639996
 30
0.0
 10
453.1521512410191
 20
260.3951745217068
 30
0.0
 10
452.6267074134359
 20
260.430968845404
 30
0.0
 11
452.6267074134359
 21
253.2894542513527
 31
0.0
 11
454.1476739144559
 21
253.4132640957868
 31
0.0
 11
455.6405632581612
 21
253.6769327058698
 31
0.0
 11
456.5856735192912
 21
253.9862303707175
 31
0.0
 11
457.4835117378939
 21
254.4201706108855
 31
0.0
 11
458.1053167509555
 21
254.8329758488258
 31
0.0
 11
458.6485733277273
 21
255.3430184946249
 31
0.0
 11
458.9895572995848
 21
255.8220359680949
 31
0.0
 11
459.2133546432982
 21
256.3611011783128
 31
0.0
 11
459.2626556469477
 21
256.608519540127
 31
0.0
 11
459.278774761261
 21
256.8601518164886
 31
0.0
 11
459.1671037559608
 21
257.4960727062314
 31
0.0
 11
458.877606013158
 21
258.0814080038288
 31
0.0
 11
458.3879532663269
 21
258.6495538321599
 31
0.0
 11
457.7928245044712
 21
259.1096114437522
 31
0.0
 11
456.8035839468979
 21
259.6447445020865
 31
0.0
 11
455.7449604760682
 21
260.0142557809695
 31
0.0
 11
454.2011233451874
 21
260.2978710094315
 31
0.0
 11
452.6267074134359
 21
260.430968845404
 31
0.0
  0
SPLINE
  5
179
330
4F
100
AcDbEntity
  8
1
  6
Continuous
 62
     7
100
AcDbSpline
210
0.0
220
0.0
230
1.0
 70
    11
 71
     3
 72
    79
 73
    75
 74
    73
 42
0.0000000001
 43
0.0000000001
 44
0.00000001
 40
0.0
 40
0.0
 40
0.0
 40
0.0
 40
0.2903672562530055
 40
0.5807357597935765
 40
0.8724071051838029
 40
1.164081918217531
 40
1.458189931540139
 40
1.75230292736066
 40
2.049663207833844
 40
2.347029113126352
 40
2.64804579276963
 40
2.949067942939021
 40
3.25369775314151
 40
3.558332281909233
 40
3.866104864362701
 40
4.173881026138544
 40
4.48396606773504
 40
4.794053328114106
 40
5.105362224076165
 40
5.416671870214336
 40
5.727981516352509
 40
6.03929041231473
 40
6.34937767269359
 40
6.659462714289939
 40
6.967238876066009
 40
7.275011458519479
 40
7.579645987287026
 40
7.884275797489548
 40
8.185297947659047
 40
8.486314627302365
 40
8.783680532594847
 40
9.081040813068015
 40
9.375153808888488
 40
9.669261822211043
 40
9.960936635244808
 40
10.25260798063503
 40
10.54297648417559
 40
10.8333437404286
 40
11.12371099668166
 40
11.41407950022222
 40
11.7057508456124
 40
11.9974256586461
 40
12.29153367196872
 40
12.58564666778923
 40
12.88300694826233
 40
13.18037285355488
 40
13.48138953319811
 40
13.78241168336768
 40
14.08704149357021
 40
14.39167602233778
 40
14.69944860479128
 40
15.0072247665673
 40
15.31730980816363
 40
15.6273970685425
 40
15.93870596450467
 40
16.25001561064289
 40
16.56132525678106
 40
16.87263415274311
 40
17.18272141312217
 40
17.49280645471868
 40
17.80058261649458
 40
18.10835519894797
 40
18.41298972771559
 40
18.71761953791821
 40
19.01864168808768
 40
19.31965836773088
 40
19.61702427302338
 40
19.91438455349658
 40
20.20849754931717
 40
20.5026055626398
 40
20.7942803756735
 40
21.08595172106366
 40
21.37632022460428
 40
21.66668748085728
 40
21.66668748085728
 40
21.66668748085728
 40
21.66668748085728
 10
440.5023517604537
 20
260.4308660307601
 30
0.0
 10
440.4055279507196
 20
260.4282344333573
 30
0.0
 10
440.2118799153399
 20
260.4229712272476
 30
0.0
 10
439.9235190369515
 20
260.3806761535537
 30
0.0
 10
439.6398068937054
 20
260.3134652605116
 30
0.0
 10
439.3623818313452
 20
260.2194100949599
 30
0.0
 10
439.0940609202693
 20
260.0999786370442
 30
0.0
 10
438.8360611571589
 20
259.9557031413742
 30
0.0
 10
438.5912591541367
 20
259.7880990660112
 30
0.0
 10
438.3605629292931
 20
259.5979365117099
 30
0.0
 10
438.1466672222239
 20
259.3873137912703
 30
0.0
 10
437.9502936798448
 20
259.1570921753216
 30
0.0
 10
437.7737443348761
 20
258.9098557518154
 30
0.0
 10
437.6176415383962
 20
258.646621577468
 30
0.0
 10
437.4837525239736
 20
258.3702580227924
 30
0.0
 10
437.3726245071551
 20
258.0820445788431
 30
0.0
 10
437.2854337473559
 20
257.7849061356075
 30
0.0
 10
437.2226081408971
 20
257.4804829814979
 30
0.0
 10
437.1847595911226
 20
257.1715463691322
 30
0.0
 10
437.172097329165
 20
256.8601518164883
 30
0.0
 10
437.1847595911225
 20
256.548757263846
 30
0.0
 10
437.2226081408971
 20
256.2398206514758
 30
0.0
 10
437.2854337473556
 20
255.935397497383
 30
0.0
 10
437.3726245071553
 20
255.638259054085
 30
0.0
 10
437.4837525239738
 20
255.3500456103673
 30
0.0
 10
437.6176415383963
 20
255.0736820548311
 30
0.0
 10
437.773744334876
 20
254.8104478836646
 30
0.0
 10
437.9502936798448
 20
254.5632114483593
 30
0.0
 10
438.146667222224
 20
254.3329898759453
 30
0.0
 10
438.3605629292929
 20
254.1223669940945
 30
0.0
 10
438.5912591541367
 20
253.9322050351872
 30
0.0
 10
438.8360611571589
 20
253.7645987515673
 30
0.0
 10
439.0940609202693
 20
253.6203314110836
 30
0.0
 10
439.3623818313452
 20
253.5008696717264
 30
0.0
 10
439.6398068937053
 20
253.406926624658
 30
0.0
 10
439.9235190369516
 20
253.3392986522103
 30
0.0
 10
440.21187991534
 20
253.2985535273617
 30
0.0
 10
440.5023517604536
 20
253.2848796494346
 30
0.0
 10
440.7928236055676
 20
253.2985535273617
 30
0.0
 10
441.0811844839557
 20
253.3392986522101
 30
0.0
 10
441.364896627202
 20
253.406926624658
 30
0.0
 10
441.6423216895621
 20
253.5008696717264
 30
0.0
 10
441.910642600638
 20
253.6203314110836
 30
0.0
 10
442.1686423637485
 20
253.7645987515673
 30
0.0
 10
442.4134443667709
 20
253.9322050351872
 30
0.0
 10
442.6441405916144
 20
254.1223669940945
 30
0.0
 10
442.8580362986834
 20
254.3329898759453
 30
0.0
 10
443.0544098410626
 20
254.5632114483593
 30
0.0
 10
443.2309591860314
 20
254.8104478836647
 30
0.0
 10
443.3870619825113
 20
255.073682054831
 30
0.0
 10
443.5209509969337
 20
255.3500456103674
 30
0.0
 10
443.6320790137522
 20
255.638259054085
 30
0.0
 10
443.7192697735517
 20
255.9353974973831
 30
0.0
 10
443.7820953800105
 20
256.2398206514756
 30
0.0
 10
443.8199439297848
 20
256.548757263846
 30
0.0
 10
443.8326061917422
 20
256.8601518164883
 30
0.0
 10
443.8199439297848
 20
257.1715463691322
 30
0.0
 10
443.7820953800105
 20
257.4804829814979
 30
0.0
 10
443.7192697735517
 20
257.7849061356076
 30
0.0
 10
443.6320790137522
 20
258.082044578843
 30
0.0
 10
443.5209509969337
 20
258.3702580227925
 30
0.0
 10
443.3870619825113
 20
258.646621577468
 30
0.0
 10
443.2309591860313
 20
258.9098557518152
 30
0.0
 10
443.0544098410626
 20
259.1570921753216
 30
0.0
 10
442.8580362986834
 20
259.3873137912703
 30
0.0
 10
442.6441405916145
 20
259.59793651171
 30
0.0
 10
442.4134443667706
 20
259.7880990660112
 30
0.0
 10
442.1686423637486
 20
259.9557031413743
 30
0.0
 10
441.9106426006379
 20
260.099978637044
 30
0.0
 10
441.6423216895622
 20
260.2194100949599
 30
0.0
 10
441.364896627202
 20
260.3134652605116
 30
0.0
 10
441.0811844839558
 20
260.3806761535539
 30
0.0
 10
440.7928236055676
 20
260.4229712272476
 30
0.0
 10
440.5991755701877
 20
260.4282344333573
 30
0.0
 10
440.5023517604537
 20
260.4308660307601
 30
0.0
 11
440.5023517604537
 21
260.4308660307601
 31
0.0
 11
440.2123039986556
 21
260.4172484179077
 31
0.0
 11
439.9247920741198
 21
260.3766188584941
 31
0.0
 11
439.6410547642513
 21
260.3090517606556
 31
0.0
 11
439.3647812465961
 21
260.2155256145749
 31
0.0
 11
439.0960641844973
 21
260.0959820491372
 31
0.0
 11
438.8393349234974
 21
259.9524810357019
 31
0.0
 11
438.5939176337153
 21
259.7845718629951
 31
0.0
 11
438.3644185254626
 21
259.5954775982971
 31
0.0
 11
438.1498639664256
 21
259.3843440324675
 31
0.0
 11
437.9544621469264
 21
259.155362671154
 31
0.0
 11
437.7773587417863
 21
258.9075044351566
 31
0.0
 11
437.6219221050031
 21
258.6455089236243
 31
0.0
 11
437.4876688763799
 21
258.3685612153573
 31
0.0
 11
437.3769024605927
 21
258.0814080038288
 31
0.0
 11
437.2895447051197
 21
257.7838826173815
 31
0.0
 11
437.226848011605
 21
257.4801998327662
 31
0.0
 11
437.1889655916358
 21
257.1712044428938
 31
0.0
 11
437.1763180865412
 21
256.8601518164886
 31
0.0
 11
437.1889655916359
 21
256.5490991900834
 31
0.0
 11
437.226848011605
 21
256.2401038002109
 31
0.0
 11
437.2895447051197
 21
255.9364210155958
 31
0.0
 11
437.3769024605927
 21
255.6388956291486
 31
0.0
 11
437.48766887638
 21
255.3517424176199
 31
0.0
 11
437.6219221050031
 21
255.0747947093529
 31
0.0
 11
437.7773587417862
 21
254.8127991978208
 31
0.0
 11
437.9544621469264
 21
254.5649409618233
 31
0.0
 11
438.1498639664256
 21
254.3359596005097
 31
0.0
 11
438.3644185254626
 21
254.12482603468
 31
0.0
 11
438.5939176337153
 21
253.9357317699821
 31
0.0
 11
438.8393349234974
 21
253.7678225972753
 31
0.0
 11
439.0960641844974
 21
253.6243215838402
 31
0.0
 11
439.3647812465961
 21
253.5047780184025
 31
0.0
 11
439.6410547642513
 21
253.4112518723217
 31
0.0
 11
439.9247920741198
 21
253.3436847744832
 31
0.0
 11
440.2123039986556
 21
253.3030552150697
 31
0.0
 11
440.5023517604537
 21
253.2894376022173
 31
0.0
 11
440.7923995222519
 21
253.3030552150697
 31
0.0
 11
441.0799114467876
 21
253.3436847744832
 31
0.0
 11
441.3636487566561
 21
253.4112518723218
 31
0.0
 11
441.6399222743112
 21
253.5047780184025
 31
0.0
 11
441.90863933641
 21
253.6243215838402
 31
0.0
 11
442.16536859741
 21
253.7678225972753
 31
0.0
 11
442.4107858871921
 21
253.935731769982
 31
0.0
 11
442.6402849954448
 21
254.12482603468
 31
0.0
 11
442.8548395544817
 21
254.3359596005097
 31
0.0
 11
443.050241373981
 21
254.5649409618233
 31
0.0
 11
443.2273447791212
 21
254.8127991978208
 31
0.0
 11
443.3827814159044
 21
255.0747947093529
 31
0.0
 11
443.5170346445275
 21
255.3517424176199
 31
0.0
 11
443.6278010603147
 21
255.6388956291486
 31
0.0
 11
443.7151588157877
 21
255.9364210155958
 31
0.0
 11
443.7778555093024
 21
256.2401038002109
 31
0.0
 11
443.8157379292716
 21
256.5490991900834
 31
0.0
 11
443.8283854343661
 21
256.8601518164886
 31
0.0
 11
443.8157379292715
 21
257.1712044428938
 31
0.0
 11
443.7778555093024
 21
257.4801998327662
 31
0.0
 11
443.7151588157877
 21
257.7838826173815
 31
0.0
 11
443.6278010603147
 21
258.0814080038288
 31
0.0
 11
443.5170346445275
 21
258.3685612153574
 31
0.0
 11
443.3827814159044
 21
258.6455089236243
 31
0.0
 11
443.2273447791212
 21
258.9075044351565
 31
0.0
 11
443.050241373981
 21
259.155362671154
 31
0.0
 11
442.8548395544817
 21
259.3843440324676
 31
0.0
 11
442.6402849954448
 21
259.5954775982971
 31
0.0
 11
442.4107858871922
 21
259.7845718629951
 31
0.0
 11
442.16536859741
 21
259.9524810357019
 31
0.0
 11
441.90863933641
 21
260.0959820491372
 31
0.0
 11
441.6399222743112
 21
260.2155256145749
 31
0.0
 11
441.3636487566561
 21
260.3090517606556
 31
0.0
 11
441.0799114467876
 21
260.3766188584941
 31
0.0
 11
440.7923995222518
 21
260.4172484179076
 31
0.0
 11
440.5023517604537
 21
260.4308660307601
 31
0.0
  0
SPLINE
  5
17A
330
4F
100
AcDbEntity
  8
1
  6
Continuous
 62
     7
100
AcDbSpline
210
0.0
220
0.0
230
1.0
 70
    11
 71
     3
 72
    79
 73
    75
 74
    73
 42
0.0000000001
 43
0.0000000001
 44
0.00000001
 40
0.0
 40
0.0
 40
0.0
 40
0.0
 40
0.2903672562530055
 40
0.5807357597935765
 40
0.8724071051838582
 40
1.164081918217587
 40
1.458189931540194
 40
1.752302927360665
 40
2.04966320783377
 40
2.347029113126359
 40
2.648045792769556
 40
2.949067942939021
 40
3.253697753141622
 40
3.558332281909296
 40
3.866104864362663
 40
4.17388102613856
 40
4.483966067735111
 40
4.794053328114122
 40
5.105362224076173
 40
5.416671870214346
 40
5.727981516352517
 40
6.039290412314744
 40
6.349377672693588
 40
6.659462714289949
 40
6.967238876065998
 40
7.275011458519442
 40
7.579645987286989
 40
7.884275797489577
 40
8.18529794765915
 40
8.486314627302386
 40
8.783680532594913
 40
9.081040813068032
 40
9.375153808888534
 40
9.669261822211015
 40
9.96093663524478
 40
10.25260798063506
 40
10.54297648417562
 40
10.83334374042863
 40
11.12371099668163
 40
11.41407950022225
 40
11.70575084561237
 40
11.99742565864613
 40
12.2915336719688
 40
12.58564666778926
 40
12.88300694826236
 40
13.18037285355491
 40
13.4813895331981
 40
13.78241168336771
 40
14.08704149357023
 40
14.39167602233781
 40
14.6994486047913
 40
15.00722476656733
 40
15.31730980816367
 40
15.62739706854254
 40
15.93870596450469
 40
16.25001561064292
 40
16.5613252567811
 40
16.87263415274314
 40
17.18272141312219
 40
17.4928064547187
 40
17.80058261649462
 40
18.10835519894799
 40
18.41298972771561
 40
18.71761953791823
 40
19.01864168808773
 40
19.31965836773089
 40
19.61702427302344
 40
19.91438455349659
 40
20.20849754931718
 40
20.50260556263982
 40
20.79428037567351
 40
21.08595172106367
 40
21.37632022460429
 40
21.6666874808573
 40
21.6666874808573
 40
21.6666874808573
 40
21.6666874808573
 10
464.7510630664181
 20
260.4308660307601
 30
0.0
 10
464.8478868761521
 20
260.4282344333573
 30
0.0
 10
465.0415349115319
 20
260.4229712272476
 30
0.0
 10
465.3298957899202
 20
260.3806761535538
 30
0.0
 10
465.6136079331664
 20
260.3134652605116
 30
0.0
 10
465.8910329955266
 20
260.2194100949599
 30
0.0
 10
466.1593539066026
 20
260.0999786370442
 30
0.0
 10
466.4173536697128
 20
259.9557031413742
 30
0.0
 10
466.662155672735
 20
259.7880990660112
 30
0.0
 10
466.8928518975788
 20
259.59793651171
 30
0.0
 10
467.1067476046476
 20
259.3873137912702
 30
0.0
 10
467.303121147027
 20
259.1570921753216
 30
0.0
 10
467.4796704919958
 20
258.9098557518154
 30
0.0
 10
467.6357732884758
 20
258.646621577468
 30
0.0
 10
467.769662302898
 20
258.3702580227925
 30
0.0
 10
467.8807903197167
 20
258.082044578843
 30
0.0
 10
467.967981079516
 20
257.7849061356075
 30
0.0
 10
468.0308066859747
 20
257.4804829814979
 30
0.0
 10
468.0686552357493
 20
257.1715463691322
 30
0.0
 10
468.0813174977068
 20
256.8601518164883
 30
0.0
 10
468.0686552357493
 20
256.5487572638461
 30
0.0
 10
468.0308066859747
 20
256.2398206514756
 30
0.0
 10
467.967981079516
 20
255.935397497383
 30
0.0
 10
467.8807903197167
 20
255.638259054085
 30
0.0
 10
467.7696623028982
 20
255.3500456103674
 30
0.0
 10
467.6357732884756
 20
255.073682054831
 30
0.0
 10
467.479670491996
 20
254.8104478836646
 30
0.0
 10
467.3031211470268
 20
254.5632114483593
 30
0.0
 10
467.1067476046479
 20
254.3329898759454
 30
0.0
 10
466.8928518975786
 20
254.1223669940944
 30
0.0
 10
466.6621556727353
 20
253.9322050351872
 30
0.0
 10
466.4173536697128
 20
253.7645987515674
 30
0.0
 10
466.1593539066027
 20
253.6203314110834
 30
0.0
 10
465.8910329955264
 20
253.5008696717264
 30
0.0
 10
465.6136079331665
 20
253.406926624658
 30
0.0
 10
465.3298957899202
 20
253.3392986522102
 30
0.0
 10
465.0415349115319
 20
253.2985535273617
 30
0.0
 10
464.7510630664181
 20
253.2848796494345
 30
0.0
 10
464.4605912213044
 20
253.2985535273617
 30
0.0
 10
464.1722303429158
 20
253.3392986522102
 30
0.0
 10
463.88851819967
 20
253.4069266246581
 30
0.0
 10
463.6110931373096
 20
253.5008696717264
 30
0.0
 10
463.3427722262337
 20
253.6203314110835
 30
0.0
 10
463.0847724631235
 20
253.7645987515674
 30
0.0
 10
462.839970460101
 20
253.9322050351871
 30
0.0
 10
462.6092742352574
 20
254.1223669940946
 30
0.0
 10
462.3953785281885
 20
254.3329898759454
 30
0.0
 10
462.1990049858093
 20
254.5632114483592
 30
0.0
 10
462.0224556408404
 20
254.8104478836646
 30
0.0
 10
461.8663528443606
 20
255.073682054831
 30
0.0
 10
461.732463829938
 20
255.3500456103674
 30
0.0
 10
461.6213358131197
 20
255.638259054085
 30
0.0
 10
461.53414505332
 20
255.935397497383
 30
0.0
 10
461.4713194468613
 20
256.2398206514756
 30
0.0
 10
461.433470897087
 20
256.548757263846
 30
0.0
 10
461.4208086351296
 20
256.8601518164883
 30
0.0
 10
461.4334708970872
 20
257.1715463691322
 30
0.0
 10
461.4713194468614
 20
257.4804829814979
 30
0.0
 10
461.53414505332
 20
257.7849061356075
 30
0.0
 10
461.6213358131196
 20
258.0820445788431
 30
0.0
 10
461.732463829938
 20
258.3702580227924
 30
0.0
 10
461.8663528443607
 20
258.646621577468
 30
0.0
 10
462.0224556408404
 20
258.9098557518153
 30
0.0
 10
462.1990049858092
 20
259.1570921753216
 30
0.0
 10
462.3953785281883
 20
259.3873137912703
 30
0.0
 10
462.6092742352575
 20
259.59793651171
 30
0.0
 10
462.8399704601011
 20
259.7880990660112
 30
0.0
 10
463.0847724631234
 20
259.9557031413743
 30
0.0
 10
463.3427722262336
 20
260.0999786370439
 30
0.0
 10
463.6110931373098
 20
260.21941009496
 30
0.0
 10
463.8885181996698
 20
260.3134652605116
 30
0.0
 10
464.1722303429159
 20
260.3806761535539
 30
0.0
 10
464.4605912213045
 20
260.4229712272476
 30
0.0
 10
464.6542392566841
 20
260.4282344333573
 30
0.0
 10
464.7510630664181
 20
260.4308660307601
 30
0.0
 11
464.7510630664181
 21
260.4308660307601
 31
0.0
 11
465.0411108282162
 21
260.4172484179077
 31
0.0
 11
465.328622752752
 21
260.3766188584941
 31
0.0
 11
465.6123600626206
 21
260.3090517606556
 31
0.0
 11
465.8886335802757
 21
260.2155256145749
 31
0.0
 11
466.1573506423745
 21
260.0959820491372
 31
0.0
 11
466.4140799033744
 21
259.9524810357019
 31
0.0
 11
466.6594971931564
 21
259.7845718629951
 31
0.0
 11
466.8889963014092
 21
259.5954775982971
 31
0.0
 11
467.103550860446
 21
259.3843440324675
 31
0.0
 11
467.2989526799454
 21
259.155362671154
 31
0.0
 11
467.4760560850857
 21
258.9075044351565
 31
0.0
 11
467.6314927218688
 21
258.6455089236243
 31
0.0
 11
467.7657459504919
 21
258.3685612153574
 31
0.0
 11
467.8765123662791
 21
258.0814080038288
 31
0.0
 11
467.9638701217521
 21
257.7838826173814
 31
0.0
 11
468.0265668152668
 21
257.4801998327662
 31
0.0
 11
468.0644492352359
 21
257.1712044428938
 31
0.0
 11
468.0770967403306
 21
256.8601518164886
 31
0.0
 11
468.064449235236
 21
256.5490991900834
 31
0.0
 11
468.0265668152668
 21
256.2401038002109
 31
0.0
 11
467.9638701217521
 21
255.9364210155958
 31
0.0
 11
467.8765123662791
 21
255.6388956291486
 31
0.0
 11
467.7657459504919
 21
255.3517424176199
 31
0.0
 11
467.6314927218688
 21
255.0747947093529
 31
0.0
 11
467.4760560850857
 21
254.8127991978208
 31
0.0
 11
467.2989526799454
 21
254.5649409618233
 31
0.0
 11
467.103550860446
 21
254.3359596005097
 31
0.0
 11
466.8889963014092
 21
254.12482603468
 31
0.0
 11
466.6594971931565
 21
253.9357317699821
 31
0.0
 11
466.4140799033744
 21
253.7678225972753
 31
0.0
 11
466.1573506423744
 21
253.6243215838402
 31
0.0
 11
465.8886335802757
 21
253.5047780184025
 31
0.0
 11
465.6123600626206
 21
253.4112518723217
 31
0.0
 11
465.328622752752
 21
253.3436847744832
 31
0.0
 11
465.0411108282162
 21
253.3030552150697
 31
0.0
 11
464.7510630664181
 21
253.2894376022173
 31
0.0
 11
464.46101530462
 21
253.3030552150697
 31
0.0
 11
464.1735033800842
 21
253.3436847744832
 31
0.0
 11
463.8897660702158
 21
253.4112518723218
 31
0.0
 11
463.6134925525606
 21
253.5047780184025
 31
0.0
 11
463.3447754904618
 21
253.6243215838402
 31
0.0
 11
463.0880462294618
 21
253.7678225972753
 31
0.0
 11
462.8426289396797
 21
253.935731769982
 31
0.0
 11
462.613129831427
 21
254.12482603468
 31
0.0
 11
462.3985752723902
 21
254.3359596005097
 31
0.0
 11
462.2031734528908
 21
254.5649409618233
 31
0.0
 11
462.0260700477506
 21
254.8127991978208
 31
0.0
 11
461.8706334109674
 21
255.0747947093529
 31
0.0
 11
461.7363801823443
 21
255.3517424176199
 31
0.0
 11
461.6256137665571
 21
255.6388956291486
 31
0.0
 11
461.5382560110841
 21
255.9364210155958
 31
0.0
 11
461.4755593175694
 21
256.2401038002109
 31
0.0
 11
461.4376768976003
 21
256.5490991900834
 31
0.0
 11
461.4250293925057
 21
256.8601518164886
 31
0.0
 11
461.4376768976003
 21
257.1712044428938
 31
0.0
 11
461.4755593175694
 21
257.4801998327662
 31
0.0
 11
461.5382560110841
 21
257.7838826173815
 31
0.0
 11
461.6256137665571
 21
258.0814080038288
 31
0.0
 11
461.7363801823443
 21
258.3685612153574
 31
0.0
 11
461.8706334109674
 21
258.6455089236243
 31
0.0
 11
462.0260700477506
 21
258.9075044351565
 31
0.0
 11
462.2031734528908
 21
259.155362671154
 31
0.0
 11
462.3985752723901
 21
259.3843440324676
 31
0.0
 11
462.613129831427
 21
259.5954775982971
 31
0.0
 11
462.8426289396797
 21
259.7845718629951
 31
0.0
 11
463.0880462294618
 21
259.9524810357019
 31
0.0
 11
463.3447754904618
 21
260.0959820491372
 31
0.0
 11
463.6134925525606
 21
260.2155256145749
 31
0.0
 11
463.8897660702157
 21
260.3090517606556
 31
0.0
 11
464.1735033800842
 21
260.3766188584941
 31
0.0
 11
464.46101530462
 21
260.4172484179076
 31
0.0
 11
464.7510630664181
 21
260.4308660307601
 31
0.0
  0
SPLINE
  5
17B
330
4F
100
AcDbEntity
  8
1
  6
Continuous
 62
     7
100
AcDbSpline
210
0.0
220
0.0
230
1.0
 70
     8
 71
     3
 72
    35
 73
    31
 74
    29
 42
0.0000000001
 43
0.0000000001
 44
0.00000001
 40
0.0
 40
0.0
 40
0.0
 40
0.0
 40
0.8673459349151732
 40
1.728953126560765
 40
2.692183797234633
 40
3.66054609134882
 40
4.162115463309125
 40
4.66270389297663
 40
5.654540569831504
 40
6.647874872103589
 40
7.570089255250056
 40
8.491917096104318
 40
9.294242431892771
 40
10.09681760841133
 40
10.77964060721451
 40
11.45726237541948
 40
11.77113150185476
 40
12.08503392924582
 40
12.72312572077825
 40
13.36530103162719
 40
14.10211462481149
 40
14.84078219882397
 40
15.70714763623109
 40
16.57293386032149
 40
17.53816493973503
 40
18.50348933620025
 40
19.00491876307939
 40
19.50575789490916
 40
19.8460522712919
 40
20.18654343815189
 40
20.18654343815189
 40
20.18654343815189
 40
20.18654343815189
 10
167.0733110714211
 20
259.1553626711543
 30
0.0
 10
167.3222522469014
 20
259.3023520942141
 30
0.0
 10
167.8184874932434
 20
259.5953583934776
 30
0.0
 10
168.62785720239
 20
259.9891691077349
 30
0.0
 10
169.5269892424486
 20
260.247920672834
 30
0.0
 10
170.3305196181761
 20
260.3679720859615
 30
0.0
 10
170.9854326311426
 20
260.4207643527111
 30
0.0
 10
171.6500852720386
 20
260.4402368880481
 30
0.0
 10
172.47934459642
 20
260.3968035890617
 30
0.0
 10
173.4374807828062
 20
260.2383093826666
 30
0.0
 10
174.3493924148447
 20
259.9794874073019
 30
0.0
 10
175.1629078491065
 20
259.6313489612922
 30
0.0
 10
175.8870989795063
 20
259.1956450846302
 30
0.0
 10
176.4665013479595
 20
258.6918834903817
 30
0.0
 10
176.9076026999956
 20
258.1157962684155
 30
0.0
 10
177.1410062051125
 20
257.6010187781565
 30
0.0
 10
177.2328097573008
 20
257.1743526651402
 30
0.0
 10
177.2628861862785
 20
256.7520290984023
 30
0.0
 10
177.1784870463098
 20
256.2196363329321
 30
0.0
 10
176.9086429453878
 20
255.5971207695376
 30
0.0
 10
176.4732297635775
 20
255.0325580266382
 30
0.0
 10
175.8776634943343
 20
254.5223495802763
 30
0.0
 10
175.171677885872
 20
254.0913964439293
 30
0.0
 10
174.3418598942196
 20
253.7387368320605
 30
0.0
 10
173.4430876003663
 20
253.483004587768
 30
0.0
 10
172.6413238041658
 20
253.3524111933201
 30
0.0
 10
171.9875750035218
 20
253.2968770548682
 30
0.0
 10
171.5398563941679
 20
253.2853432120104
 30
0.0
 10
171.1460749835048
 20
253.2968801173507
 30
0.0
 10
170.9194469439957
 20
253.3085667516795
 30
0.0
 10
170.8061001692566
 20
253.3144117579357
 30
0.0
 11
167.0733110714211
 21
259.1553626711543
 31
0.0
 11
167.8260617016481
 21
259.5862402169915
 31
0.0
 11
168.6059556786767
 21
259.9524810357023
 31
0.0
 11
169.5293437774045
 21
260.2266484007454
 31
0.0
 11
170.4860226129939
 21
260.3766188584943
 31
0.0
 11
170.9860026070055
 21
260.4165167340875
 31
0.0
 11
171.4863853341274
 21
260.4308660307605
 31
0.0
 11
172.4768372889284
 21
260.3784740582321
 31
0.0
 11
173.4567152613209
 21
260.215525614575
 31
0.0
 11
174.3430670782805
 21
259.9608496929516
 31
0.0
 11
175.1893943203223
 21
259.5954775982975
 31
0.0
 11
175.8736521730838
 21
259.1765299459801
 31
0.0
 11
176.4754358449962
 21
258.6455089236247
 31
0.0
 11
176.8865492380936
 21
258.1003181077533
 31
0.0
 11
177.1597242475157
 21
257.4801998327666
 31
0.0
 11
177.2254998726645
 21
257.1733001819595
 31
0.0
 11
177.247244645029
 21
256.860151816489
 31
0.0
 11
177.1529947416393
 21
256.229059041905
 31
0.0
 11
176.8998223179673
 21
255.6388956291489
 31
0.0
 11
176.455690644572
 21
255.050982941934
 31
0.0
 11
175.8994595968338
 21
254.5649409618237
 31
0.0
 11
175.162018681601
 21
254.110221303491
 31
0.0
 11
174.3668149895781
 21
253.7678225972757
 31
0.0
 11
173.439129151455
 21
253.5012329830527
 31
0.0
 11
172.486748055261
 21
253.3436847744836
 31
0.0
 11
171.9870722228132
 21
253.3017856980264
 31
0.0
 11
171.4863853341274
 21
253.2894376022176
 31
0.0
 11
171.1462021832246
 21
253.2981373975915
 31
0.0
 11
170.8061001692566
 21
253.3144117579357
 31
0.0
  0
SPLINE
  5
17C
330
4F
100
AcDbEntity
  8
1
  6
Continuous
 62
     7
100
AcDbSpline
210
0.0
220
0.0
230
1.0
 70
     8
 71
     3
 72
    35
 73
    31
 74
    29
 42
0.0000000001
 43
0.0000000001
 44
0.00000001
 40
0.0
 40
0.0
 40
0.0
 40
0.0
 40
0.8673459349151732
 40
1.728953126560765
 40
2.692183797234578
 40
3.660546091348737
 40
4.162115463309185
 40
4.662703892976746
 40
5.654540569831591
 40
6.647874872103592
 40
7.570089255250086
 40
8.491917096104244
 40
9.294242431892648
 40
10.09681760841122
 40
10.7796406072145
 40
11.4572623754195
 40
11.77113150185475
 40
12.08503392924581
 40
12.72312572077829
 40
13.3653010316271
 40
14.1021146248114
 40
14.84078219882402
 40
15.70714763623106
 40
16.57293386032137
 40
17.53816493973488
 40
18.50348933620013
 40
19.00491876307935
 40
19.50575789490904
 40
19.8460522712918
 40
20.18654343815188
 40
20.18654343815188
 40
20.18654343815188
 40
20.18654343815188
 10
161.8994595968337
 20
259.1553626711543
 30
0.0
 10
161.6505184213534
 20
259.3023520942141
 30
0.0
 10
161.1542831750114
 20
259.5953583934776
 30
0.0
 10
160.3449134658648
 20
259.9891691077349
 30
0.0
 10
159.4457814258063
 20
260.247920672834
 30
0.0
 10
158.6422510500787
 20
260.3679720859616
 30
0.0
 10
157.9873380371122
 20
260.4207643527109
 30
0.0
 10
157.3226853962163
 20
260.4402368880481
 30
0.0
 10
156.4934260718347
 20
260.3968035890617
 30
0.0
 10
155.5352898854486
 20
260.2383093826666
 30
0.0
 10
154.6233782534101
 20
259.9794874073019
 30
0.0
 10
153.8098628191483
 20
259.6313489612923
 30
0.0
 10
153.0856716887486
 20
259.1956450846302
 30
0.0
 10
152.5062693202954
 20
258.6918834903816
 30
0.0
 10
152.0651679682592
 20
258.1157962684155
 30
0.0
 10
151.8317644631421
 20
257.6010187781565
 30
0.0
 10
151.7399609109541
 20
257.1743526651401
 30
0.0
 10
151.7098844819764
 20
256.7520290984023
 30
0.0
 10
151.7942836219451
 20
256.2196363329322
 30
0.0
 10
152.0641277228669
 20
255.5971207695375
 30
0.0
 10
152.4995409046772
 20
255.0325580266383
 30
0.0
 10
153.0951071739205
 20
254.5223495802764
 30
0.0
 10
153.8010927823829
 20
254.0913964439294
 30
0.0
 10
154.6309107740351
 20
253.7387368320605
 30
0.0
 10
155.5296830678883
 20
253.4830045877681
 30
0.0
 10
156.331446864089
 20
253.3524111933201
 30
0.0
 10
156.9851956647329
 20
253.2968770548683
 30
0.0
 10
157.4329142740868
 20
253.2853432120104
 30
0.0
 10
157.82669568475
 20
253.2968801173507
 30
0.0
 10
158.053323724259
 20
253.3085667516796
 30
0.0
 10
158.1666704989982
 20
253.3144117579357
 30
0.0
 11
161.8994595968337
 21
259.1553626711543
 31
0.0
 11
161.1467089666067
 21
259.5862402169915
 31
0.0
 11
160.3668149895781
 21
259.9524810357023
 31
0.0
 11
159.4434268908504
 21
260.2266484007454
 31
0.0
 11
158.486748055261
 21
260.3766188584943
 31
0.0
 11
157.9867680612493
 21
260.4165167340875
 31
0.0
 11
157.4863853341273
 21
260.4308660307605
 31
0.0
 11
156.4959333793264
 21
260.3784740582321
 31
0.0
 11
155.5160554069339
 21
260.215525614575
 31
0.0
 11
154.6297035899743
 21
259.9608496929516
 31
0.0
 11
153.7833763479326
 21
259.5954775982975
 31
0.0
 11
153.0991184951712
 21
259.1765299459801
 31
0.0
 11
152.4973348232587
 21
258.6455089236247
 31
0.0
 11
152.0862214301612
 21
258.1003181077533
 31
0.0
 11
151.813046420739
 21
257.4801998327666
 31
0.0
 11
151.7472707955903
 21
257.1733001819595
 31
0.0
 11
151.7255260232259
 21
256.860151816489
 31
0.0
 11
151.8197759266156
 21
256.229059041905
 31
0.0
 11
152.0729483502874
 21
255.6388956291489
 31
0.0
 11
152.5170800236827
 21
255.050982941934
 31
0.0
 11
153.0733110714211
 21
254.5649409618237
 31
0.0
 11
153.8107519866538
 21
254.110221303491
 31
0.0
 11
154.6059556786766
 21
253.7678225972757
 31
0.0
 11
155.5336415167997
 21
253.5012329830527
 31
0.0
 11
156.4860226129937
 21
253.3436847744836
 31
0.0
 11
156.9856984454416
 21
253.3017856980264
 31
0.0
 11
157.4863853341273
 21
253.2894376022176
 31
0.0
 11
157.8265684850302
 21
253.2981373975915
 31
0.0
 11
158.1666704989982
 21
253.3144117579357
 31
0.0
  0
ARC
  5
17D
330
4F
100
AcDbEntity
  8
1
  6
Continuous
 62
     7
100
AcDbCircle
 10
152.9283642723968
 20
260.7176887810472
 30
0.0
 40
1.0
100
AcDbArc
 50
90.0
 51
105.3375576695486
  0
ARC
  5
17E
330
4F
100
AcDbEntity
  8
1
  6
Continuous
 62
     7
100
AcDbCircle
 10
154.7184361416963
 20
261.7176887810472
 30
0.0
 40
1.0
100
AcDbArc
 50
90.0
 51
137.0585971351115
  0
ARC
  5
17F
330
4F
100
AcDbEntity
  8
1
  6
Continuous
 62
     7
100
AcDbCircle
 10
152.9863853341274
 20
262.7176887810472
 30
0.0
 40
1.0
100
AcDbArc
 50
-90.0
 51
-30.00000000000054
  0
ARC
  5
180
330
4F
100
AcDbEntity
  8
1
  6
Continuous
 62
     7
100
AcDbCircle
 10
154.7184361416963
 20
261.7176887810472
 30
0.0
 40
1.000000000000166
100
AcDbArc
 50
137.0585971351115
 51
150.0000000000011
  0
ARC
  5
181
330
4F
100
AcDbEntity
  8
1
  6
Continuous
 62
     7
100
AcDbCircle
 10
176.0444063958581
 20
260.7176887810472
 30
0.0
 40
1.000000000000218
100
AcDbArc
 50
74.6624423304514
 51
90.0
  0
ARC
  5
182
330
4F
100
AcDbEntity
  8
1
  6
Continuous
 62
     7
100
AcDbCircle
 10
174.2543345265585
 20
261.7176887810472
 30
0.0
 40
1.000000000000166
100
AcDbArc
 50
42.94140286488852
 51
90.0
  0
ARC
  5
183
330
4F
100
AcDbEntity
  8
1
  6
Continuous
 62
     7
100
AcDbCircle
 10
175.9863853341274
 20
262.7176887810472
 30
0.0
 40
1.000000000000058
100
AcDbArc
 50
-150.0000000000019
 51
-90.0
  0
ARC
  5
184
330
4F
100
AcDbEntity
  8
1
  6
Continuous
 62
     7
100
AcDbCircle
 10
174.2543345265585
 20
261.7176887810472
 30
0.0
 40
0.9999999999999589
100
AcDbArc
 50
30.00000000000136
 51
42.94140286488852
  0
ARC
  5
185
330
4F
100
AcDbEntity
  8
1
  6
Continuous
 62
     7
100
AcDbCircle
 10
464.1267074134359
 20
262.7176887810472
 30
0.0
 40
1.000000000000033
100
AcDbArc
 50
-150.0000000000011
 51
-90.0
  0
ARC
  5
186
330
4F
100
AcDbEntity
  8
1
  6
Continuous
 62
     7
100
AcDbCircle
 10
462.3946566058669
 20
261.7176887810472
 30
0.0
 40
1.000000000000082
100
AcDbArc
 50
29.99999999999729
 51
90.0
  0
ARC
  5
187
330
4F
100
AcDbEntity
  8
1
  6
Continuous
 62
     7
100
AcDbCircle
 10
464.1847284751665
 20
260.7176887810472
 30
0.0
 40
1.000000000000218
100
AcDbArc
 50
74.6624423304514
 51
90.0
  0
ARC
  5
188
330
4F
100
AcDbEntity
  8
1
  6
Continuous
 62
     7
100
AcDbCircle
 10
441.1267074134359
 20
262.7176887810472
 30
0.0
 40
1.0
100
AcDbArc
 50
-90.0
 51
-30.00000000000054
  0
ARC
  5
189
330
4F
100
AcDbEntity
  8
1
  6
Continuous
 62
     7
100
AcDbCircle
 10
442.8587582210047
 20
261.7176887810472
 30
0.0
 40
1.0
100
AcDbArc
 50
90.0
 51
149.9999999999978
  0
ARC
  5
18A
330
4F
100
AcDbEntity
  8
1
  6
Continuous
 62
     7
100
AcDbCircle
 10
441.0686863517053
 20
260.7176887810472
 30
0.0
 40
1.0
100
AcDbArc
 50
90.0
 51
105.3375576695486
  0
ENDBLK
  5
51
330
4F
100
AcDbEntity
  8
0
100
AcDbBlockEnd
  0
BLOCK
  5
53
330
52
100
AcDbEntity
  8
0
100
AcDbBlockBegin
  2
61-1-16-170
 70
     0
 71
     0
 10
748.9571685490033
 20
304.1134861018289
 30
0.0
  3
61-1-16-170
  1

  0
LINE
  5
18B
330
52
100
AcDbEntity
  8
1
  6
Continuous
 62
     7
100
AcDbLine
 10
326.4863853341275
 20
268.2176887810472
 30
0.0
 11
326.4863853341275
 21
267.2176887810472
 31
0.0
  0
LINE
  5
18C
330
52
100
AcDbEntity
  8
1
  6
Continuous
 62
     7
100
AcDbLine
 10
342.4863853341275
 20
268.2176887810472
 30
0.0
 11
342.4863853341275
 21
267.2176887810472
 31
0.0
  0
LINE
  5
18D
330
52
100
AcDbEntity
  8
1
  6
Continuous
 62
     7
100
AcDbLine
 10
307.4863853341275
 20
287.2176887810472
 30
0.0
 11
191.4863853341275
 21
287.2176887810472
 31
0.0
  0
LINE
  5
18E
330
52
100
AcDbEntity
  8
1
  6
Continuous
 62
     7
100
AcDbLine
 10
156.4863853341274
 20
262.7176887810472
 30
0.0
 11
156.4863853341274
 21
268.2176887810472
 31
0.0
  0
LINE
  5
18F
330
52
100
AcDbEntity
  8
1
  6
Continuous
 62
     7
100
AcDbLine
 10
172.4863853341274
 20
268.2176887810472
 30
0.0
 11
172.4863853341274
 21
262.7176887810472
 31
0.0
  0
LINE
  5
190
330
52
100
AcDbEntity
  8
1
  6
Continuous
 62
     7
100
AcDbLine
 10
307.4863853341275
 20
303.2176887810472
 30
0.0
 11
191.4863853341275
 21
303.2176887810472
 31
0.0
  0
LINE
  5
191
330
52
100
AcDbEntity
  8
1
  6
Continuous
 62
     7
100
AcDbLine
 10
334.4863853341275
 20
262.2176887810472
 30
0.0
 11
327.0999783281413
 21
262.2176887810472
 31
0.0
  0
LINE
  5
192
330
52
100
AcDbEntity
  8
1
  6
Continuous
 62
     7
100
AcDbLine
 10
341.8727923401135
 20
262.2176887810472
 30
0.0
 11
334.4863853341275
 21
262.2176887810472
 31
0.0
  0
LINE
  5
193
330
52
100
AcDbEntity
  8
1
  6
Continuous
 62
     7
100
AcDbLine
 10
342.4863853341275
 20
267.2176887810472
 30
0.0
 11
326.4863853341275
 21
267.2176887810472
 31
0.0
  0
LINE
  5
194
330
52
100
AcDbEntity
  8
1
  6
Continuous
 62
     7
100
AcDbLine
 10
444.626707413436
 20
355.6905139095775
 30
0.0
 11
444.626707413436
 21
525.6905139095777
 31
0.0
  0
LINE
  5
195
330
52
100
AcDbEntity
  8
1
  6
Continuous
 62
     7
100
AcDbLine
 10
460.626707413436
 20
355.6905139095775
 30
0.0
 11
460.626707413436
 21
525.6905139095777
 31
0.0
  0
LINE
  5
196
330
52
100
AcDbEntity
  8
1
  6
PHANTOM
 62
     4
100
AcDbLine
 10
463.6046586256568
 20
355.6905139095775
 30
0.0
 11
441.2524852195739
 21
355.6905139095775
 31
0.0
  0
LINE
  5
197
330
52
100
AcDbEntity
  8
1
  6
Continuous
 62
     7
100
AcDbLine
 10
460.6267074134359
 20
267.2176887810472
 30
0.0
 11
444.6267074134359
 21
267.2176887810472
 31
0.0
  0
LINE
  5
198
330
52
100
AcDbEntity
  8
1
  6
Continuous
 62
     7
100
AcDbLine
 10
445.2403004074498
 20
262.2176887810472
 30
0.0
 11
460.013114419422
 21
262.2176887810472
 31
0.0
  0
LINE
  5
199
330
52
100
AcDbEntity
  8
1
  6
Continuous
 62
     7
100
AcDbLine
 10
444.6267074134359
 20
295.2176887810472
 30
0.0
 11
444.6267074134359
 21
267.2176887810472
 31
0.0
  0
LINE
  5
19A
330
52
100
AcDbEntity
  8
1
  6
Continuous
 62
     7
100
AcDbLine
 10
460.6267074134359
 20
295.2176887810472
 30
0.0
 11
460.6267074134359
 21
267.2176887810472
 31
0.0
  0
LINE
  5
19B
330
52
100
AcDbEntity
  8
1
  6
PHANTOM
 62
     4
100
AcDbLine
 10
441.7339914050083
 20
295.2176887810475
 30
0.0
 11
463.1399278227949
 21
295.2176887810475
 31
0.0
  0
ARC
  5
19C
330
52
100
AcDbEntity
  8
1
  6
Continuous
 62
     7
100
AcDbCircle
 10
329.6964116288457
 20
265.0739690738249
 30
0.0
 40
3.86002629471813
100
AcDbArc
 50
146.2642089999721
 51
180.0
  0
ARC
  5
19D
330
52
100
AcDbEntity
  8
1
  6
Continuous
 62
     7
100
AcDbCircle
 10
339.2763590394091
 20
265.0739690738249
 30
0.0
 40
3.860026294718374
100
AcDbArc
 50
-47.72834450358123
 51
0.0
  0
ARC
  5
19E
330
52
100
AcDbEntity
  8
1
  6
Continuous
 62
     7
100
AcDbCircle
 10
339.2763590394091
 20
265.0739690738249
 30
0.0
 40
3.860026294718182
100
AcDbArc
 50
0.0
 51
33.73579100002645
  0
ARC
  5
19F
330
52
100
AcDbEntity
  8
1
  6
Continuous
 62
     7
100
AcDbCircle
 10
329.6964116288457
 20
265.0739690738249
 30
0.0
 40
3.860026294718182
100
AcDbArc
 50
180.0
 51
-132.2716554964188
  0
ARC
  5
1A0
330
52
100
AcDbEntity
  8
1
  6
Continuous
 62
     7
100
AcDbCircle
 10
307.4863853341275
 20
268.2176887810472
 30
0.0
 40
19.0
100
AcDbArc
 50
0.0
 51
90.0
  0
ARC
  5
1A1
330
52
100
AcDbEntity
  8
1
  6
Continuous
 62
     7
100
AcDbCircle
 10
307.4863853341275
 20
268.2176887810472
 30
0.0
 40
35.0
100
AcDbArc
 50
0.0
 51
90.0
  0
ARC
  5
1A2
330
52
100
AcDbEntity
  8
1
  6
Continuous
 62
     7
100
AcDbCircle
 10
191.4863853341275
 20
268.2176887810472
 30
0.0
 40
19.0
100
AcDbArc
 50
90.0
 51
180.0
  0
ARC
  5
1A3
330
52
100
AcDbEntity
  8
1
  6
Continuous
 62
     7
100
AcDbCircle
 10
191.4863853341275
 20
268.2176887810472
 30
0.0
 40
35.0
100
AcDbArc
 50
90.0
 51
180.0
  0
ARC
  5
1A4
330
52
100
AcDbEntity
  8
1
  6
Continuous
 62
     7
100
AcDbCircle
 10
452.626707413436
 20
355.6905139095775
 30
0.0
 40
8.0
100
AcDbArc
 50
180.0
 51
0.0
  0
ARC
  5
1A5
330
52
100
AcDbEntity
  8
1
  6
Continuous
 62
     7
100
AcDbCircle
 10
452.626707413436
 20
355.6905139095775
 30
0.0
 40
8.650000000000093
100
AcDbArc
 50
157.6465744006673
 51
-90.00000000000075
  0
ARC
  5
1A6
330
52
100
AcDbEntity
  8
1
  6
Continuous
 62
     7
100
AcDbCircle
 10
452.626707413436
 20
355.6905139095775
 30
0.0
 40
8.650000000000091
100
AcDbArc
 50
-90.00000000000075
 51
22.35342559933271
  0
ARC
  5
1A7
330
52
100
AcDbEntity
  8
1
  6
Continuous
 62
     7
100
AcDbCircle
 10
447.8367337081542
 20
265.0739690738249
 30
0.0
 40
3.860026294718225
100
AcDbArc
 50
146.2642089999731
 51
180.0
  0
ARC
  5
1A8
330
52
100
AcDbEntity
  8
1
  6
Continuous
 62
     7
100
AcDbCircle
 10
457.4166811187177
 20
265.0739690738249
 30
0.0
 40
3.860026294718298
100
AcDbArc
 50
-47.72834450358248
 51
0.0
  0
ARC
  5
1A9
330
52
100
AcDbEntity
  8
1
  6
Continuous
 62
     7
100
AcDbCircle
 10
457.4166811187177
 20
265.0739690738249
 30
0.0
 40
3.860026294718182
100
AcDbArc
 50
0.0
 51
33.73579100002785
  0
ARC
  5
1AA
330
52
100
AcDbEntity
  8
1
  6
Continuous
 62
     7
100
AcDbCircle
 10
447.8367337081542
 20
265.0739690738249
 30
0.0
 40
3.860026294718296
100
AcDbArc
 50
180.0
 51
-132.2716554964188
  0
ARC
  5
1AB
330
52
100
AcDbEntity
  8
1
  6
Continuous
 62
     7
100
AcDbCircle
 10
452.6267074134359
 20
295.2176887810472
 30
0.0
 40
8.0
100
AcDbArc
 50
0.0
 51
180.0
  0
ARC
  5
1AC
330
52
100
AcDbEntity
  8
1
  6
Continuous
 62
     7
100
AcDbCircle
 10
452.6267074134359
 20
525.6905139095777
 30
0.0
 40
8.000000000000114
100
AcDbArc
 50
0.0
 51
180.0
  0
ENDBLK
  5
54
330
52
100
AcDbEntity
  8
0
100
AcDbBlockEnd
  0
BLOCK
  5
58
330
55
100
AcDbEntity
  8
0
100
AcDbBlockBegin
  2
A20J-60X-16
 70
     0
 71
     0
 10
500.5181847385381
 20
245.2176887810471
 30
0.0
  3
A20J-60X-16
  1

  0
INSERT
  5
56
330
55
100
AcDbEntity
  8
0
100
AcDbBlockReference
  2
32-1-16
 10
382.8394293069274
 20
485.7526000236506
 30
0.0
  0
INSERT
  5
57
330
55
100
AcDbEntity
  8
0
100
AcDbBlockReference
  2
61-1-16-170
 10
748.9571685490033
 20
304.1134861018289
 30
0.0
  0
LINE
  5
1AD
330
55
100
AcDbEntity
  8
1
  6
PHANTOM
 62
     4
100
AcDbLine
 10
452.6267074134359
 20
246.2176887810471
 30
0.0
 11
452.6267074134359
 21
307.3691697737676
 31
0.0
  0
LINE
  5
1AE
330
55
100
AcDbEntity
  8
1
  6
PHANTOM
 62
     4
100
AcDbLine
 10
191.4863853341275
 20
295.2176887810472
 30
0.0
 11
307.4863853341275
 21
295.2176887810472
 31
0.0
  0
LINE
  5
1AF
330
55
100
AcDbEntity
  8
1
  6
DASH_CENTER
 62
     2
100
AcDbLine
 10
334.4863853341275
 20
268.2176887810472
 30
0.0
 11
334.4863853341275
 21
259.2176887810472
 31
0.0
  0
ARC
  5
1B0
330
55
100
AcDbEntity
  8
1
  6
PHANTOM
 62
     4
100
AcDbCircle
 10
191.4863853341275
 20
268.2176887810472
 30
0.0
 40
27.0
100
AcDbArc
 50
90.0
 51
180.0
  0
ARC
  5
1B1
330
55
100
AcDbEntity
  8
1
  6
PHANTOM
 62
     4
100
AcDbCircle
 10
307.4863853341275
 20
268.2176887810472
 30
0.0
 40
27.0
100
AcDbArc
 50
0.0
 51
90.0
  0
ENDBLK
  5
59
330
55
100
AcDbEntity
  8
0
100
AcDbBlockEnd
  0
BLOCK
  5
5B
330
5A
100
AcDbEntity
  8
0
100
AcDbBlockBegin
  2
_J__A4
 70
     0
 71
     0
 10
0.0
 20
0.0
 30
0.0
  3
_J__A4
  1

  0
POINT
  5
1B2
330
5A
100
AcDbEntity
  8
1
 62
     4
100
AcDbPoint
 10
93.75
 20
17.0
 30
0.0
  0
POINT
  5
1B3
330
5A
100
AcDbEntity
  8
1
 62
     4
100
AcDbPoint
 10
85.25
 20
17.0
 30
0.0
  0
POINT
  5
1B4
330
5A
100
AcDbEntity
  8
1
 62
     4
100
AcDbPoint
 10
106.5
 20
19.00000000000001
 30
0.0
  0
POINT
  5
1B5
330
5A
100
AcDbEntity
  8
1
 62
     4
100
AcDbPoint
 10
106.5
 20
12.5
 30
0.0
  0
POINT
  5
1B6
330
5A
100
AcDbEntity
  8
1
 62
     4
100
AcDbPoint
 10
112.25
 20
12.5
 30
0.0
  0
POINT
  5
1B7
330
5A
100
AcDbEntity
  8
1
 62
     4
100
AcDbPoint
 10
100.75
 20
12.5
 30
0.0
  0
POINT
  5
1B8
330
5A
100
AcDbEntity
  8
1
 62
     4
100
AcDbPoint
 10
123.5
 20
19.00000000000001
 30
0.0
  0
POINT
  5
1B9
330
5A
100
AcDbEntity
  8
1
 62
     4
100
AcDbPoint
 10
123.5
 20
12.5
 30
0.0
  0
POINT
  5
1BA
330
5A
100
AcDbEntity
  8
1
 62
     4
100
AcDbPoint
 10
129.25
 20
12.5
 30
0.0
  0
POINT
  5
1BB
330
5A
100
AcDbEntity
  8
1
 62
     4
100
AcDbPoint
 10
117.75
 20
12.5
 30
0.0
  0
POINT
  5
1BC
330
5A
100
AcDbEntity
  8
1
 62
     4
100
AcDbPoint
 10
140.5
 20
19.00000000000001
 30
0.0
  0
POINT
  5
1BD
330
5A
100
AcDbEntity
  8
1
 62
     4
100
AcDbPoint
 10
140.5
 20
12.5
 30
0.0
  0
POINT
  5
1BE
330
5A
100
AcDbEntity
  8
1
 62
     4
100
AcDbPoint
 10
146.25
 20
12.5
 30
0.0
  0
POINT
  5
1BF
330
5A
100
AcDbEntity
  8
1
 62
     4
100
AcDbPoint
 10
134.75
 20
12.5
 30
0.0
  0
POINT
  5
1C0
330
5A
100
AcDbEntity
  8
1
 62
     4
100
AcDbPoint
 10
151.75
 20
12.5
 30
0.0
  0
POINT
  5
1C1
330
5A
100
AcDbEntity
  8
1
 62
     4
100
AcDbPoint
 10
163.25
 20
12.5
 30
0.0
  0
POINT
  5
1C2
330
5A
100
AcDbEntity
  8
1
 62
     4
100
AcDbPoint
 10
157.5
 20
12.5
 30
0.0
  0
POINT
  5
1C3
330
5A
100
AcDbEntity
  8
1
 62
     4
100
AcDbPoint
 10
57.0
 20
14.25
 30
0.0
  0
POINT
  5
1C4
330
5A
100
AcDbEntity
  8
1
 62
     4
100
AcDbPoint
 10
57.0
 20
22.75000000000001
 30
0.0
  0
POINT
  5
1C5
330
5A
100
AcDbEntity
  8
1
 62
     4
100
AcDbPoint
 10
47.5
 20
282.0000000000003
 30
0.0
  0
POINT
  5
1C6
330
5A
100
AcDbEntity
  8
1
 62
     4
100
AcDbPoint
 10
157.5
 20
19.00000000000001
 30
0.0
  0
POINT
  5
1C7
330
5A
100
AcDbEntity
  8
1
 62
     4
100
AcDbPoint
 10
57.0
 20
16.25
 30
0.0
  0
POINT
  5
1C8
330
5A
100
AcDbEntity
  8
1
 62
     4
100
AcDbPoint
 10
57.0
 20
24.75000000000001
 30
0.0
  0
POINT
  5
1C9
330
5A
100
AcDbEntity
  8
1
 62
     4
100
AcDbPoint
 10
57.0
 20
20.75000000000001
 30
0.0
  0
POINT
  5
1CA
330
5A
100
AcDbEntity
  8
1
 62
     4
100
AcDbPoint
 10
57.0
 20
12.25
 30
0.0
  0
POINT
  5
1CB
330
5A
100
AcDbEntity
  8
1
 62
     4
100
AcDbPoint
 10
34.0
 20
34.00000000000001
 30
0.0
  0
LINE
  5
1CC
330
5A
100
AcDbEntity
  8
1
  6
Continuous
 62
     7
100
AcDbLine
 10
105.0
 20
10.0
 30
0.0
 11
200.0
 21
10.0
 31
0.0
  0
LINE
  5
1CD
330
5A
100
AcDbEntity
  8
1
  6
Continuous
 62
     2
100
AcDbLine
 10
105.0
 20
10.0
 30
0.0
 11
105.0
 21
5.0
 31
0.0
  0
LINE
  5
1CE
330
5A
100
AcDbEntity
  8
1
  6
Continuous
 62
     7
100
AcDbLine
 10
200.0
 20
148.5
 30
0.0
 11
200.0
 21
287.0000000000003
 31
0.0
  0
LINE
  5
1CF
330
5A
100
AcDbEntity
  8
1
  6
Continuous
 62
     2
100
AcDbLine
 10
200.0
 20
148.5
 30
0.0
 11
205.0
 21
148.5
 31
0.0
  0
LINE
  5
1D0
330
5A
100
AcDbEntity
  8
1
  6
Continuous
 62
     7
100
AcDbLine
 10
25.0
 20
148.5
 30
0.0
 11
25.0
 21
287.0000000000003
 31
0.0
  0
LINE
  5
1D1
330
5A
100
AcDbEntity
  8
1
  6
Continuous
 62
     2
100
AcDbLine
 10
25.0
 20
148.5
 30
0.0
 11
20.0
 21
148.5
 31
0.0
  0
LINE
  5
1D2
330
5A
100
AcDbEntity
  8
1
  6
Continuous
 62
     7
100
AcDbLine
 10
105.0
 20
287.0000000000003
 30
0.0
 11
25.0
 21
287.0000000000003
 31
0.0
  0
LINE
  5
1D3
330
5A
100
AcDbEntity
  8
1
  6
Continuous
 62
     2
100
AcDbLine
 10
105.0
 20
287.0000000000003
 30
0.0
 11
105.0
 21
292.0000000000003
 31
0.0
  0
LINE
  5
1D4
330
5A
100
AcDbEntity
  8
1
  6
Continuous
 62
     2
100
AcDbLine
 10
166.0
 20
20.00000000000001
 30
0.0
 11
200.0
 21
20.00000000000001
 31
0.0
  0
LINE
  5
1D5
330
5A
100
AcDbEntity
  8
1
  6
Continuous
 62
     2
100
AcDbLine
 10
98.0
 20
27.00000000000001
 30
0.0
 11
98.0
 21
9.99999999999999
 31
0.0
  0
LINE
  5
1D6
330
5A
100
AcDbEntity
  8
1
  6
Continuous
 62
     2
100
AcDbLine
 10
115.0
 20
27.00000000000001
 30
0.0
 11
115.0
 21
9.99999999999999
 31
0.0
  0
LINE
  5
1D7
330
5A
100
AcDbEntity
  8
1
  6
Continuous
 62
     2
100
AcDbLine
 10
149.0
 20
27.00000000000001
 30
0.0
 11
149.0
 21
10.0
 31
0.0
  0
LINE
  5
1D8
330
5A
100
AcDbEntity
  8
1
  6
Continuous
 62
     2
100
AcDbLine
 10
132.0
 20
27.00000000000001
 30
0.0
 11
132.0
 21
9.99999999999999
 31
0.0
  0
LINE
  5
1D9
330
5A
100
AcDbEntity
  8
1
  6
Continuous
 62
     2
100
AcDbLine
 10
166.0
 20
27.00000000000001
 30
0.0
 11
166.0
 21
10.0
 31
0.0
  0
LINE
  5
1DA
330
5A
100
AcDbEntity
  8
1
  6
Continuous
 62
     2
100
AcDbLine
 10
55.0
 20
277.0000000000003
 30
0.0
 11
25.0
 21
277.0000000000003
 31
0.0
  0
LINE
  5
1DB
330
5A
100
AcDbEntity
  8
1
  6
Continuous
 62
     7
100
AcDbLine
 10
25.0
 20
10.0
 30
0.0
 11
25.0
 21
148.5
 31
0.0
  0
LINE
  5
1DC
330
5A
100
AcDbEntity
  8
1
  6
Continuous
 62
     2
100
AcDbLine
 10
40.0
 20
287.0000000000003
 30
0.0
 11
40.0
 21
277.0000000000003
 31
0.0
  0
LINE
  5
1DD
330
5A
100
AcDbEntity
  8
1
  6
Continuous
 62
     2
100
AcDbLine
 10
55.0
 20
287.0000000000003
 30
0.0
 11
55.0
 21
277.0000000000003
 31
0.0
  0
LINE
  5
1DE
330
5A
100
AcDbEntity
  8
1
  6
Continuous
 62
     2
100
AcDbLine
 10
33.0
 20
41.00000000000001
 30
0.0
 11
33.0
 21
27.0
 31
0.0
  0
LINE
  5
1DF
330
5A
100
AcDbEntity
  8
1
  6
Continuous
 62
     7
100
AcDbLine
 10
200.0
 20
27.00000000000001
 30
0.0
 11
25.0
 21
27.00000000000001
 31
0.0
  0
LINE
  5
1E0
330
5A
100
AcDbEntity
  8
1
  6
Continuous
 62
     7
100
AcDbLine
 10
25.0
 20
41.0
 30
0.0
 11
200.0
 21
41.0
 31
0.0
  0
LINE
  5
1E1
330
5A
100
AcDbEntity
  8
1
  6
PHANTOM
 62
     4
100
AcDbLine
 10
0.0
 20
0.0
 30
0.0
 11
210.0
 21
0.0
 31
0.0
  0
LINE
  5
1E2
330
5A
100
AcDbEntity
  8
1
  6
PHANTOM
 62
     4
100
AcDbLine
 10
210.0
 20
0.0
 30
0.0
 11
210.0
 21
297.0
 31
0.0
  0
LINE
  5
1E3
330
5A
100
AcDbEntity
  8
1
  6
PHANTOM
 62
     4
100
AcDbLine
 10
210.0
 20
297.0
 30
0.0
 11
0.0
 21
297.0
 31
0.0
  0
LINE
  5
1E4
330
5A
100
AcDbEntity
  8
1
  6
PHANTOM
 62
     4
100
AcDbLine
 10
0.0
 20
297.0
 30
0.0
 11
0.0
 21
0.0
 31
0.0
  0
LINE
  5
1E5
330
5A
100
AcDbEntity
  8
1
  6
Continuous
 62
     7
100
AcDbLine
 10
25.0
 20
10.0
 30
0.0
 11
105.0
 21
10.0
 31
0.0
  0
LINE
  5
1E6
330
5A
100
AcDbEntity
  8
1
  6
Continuous
 62
     7
100
AcDbLine
 10
200.0
 20
10.0
 30
0.0
 11
200.0
 21
148.5
 31
0.0
  0
LINE
  5
1E7
330
5A
100
AcDbEntity
  8
1
  6
Continuous
 62
     7
100
AcDbLine
 10
200.0
 20
287.0000000000003
 30
0.0
 11
105.0
 21
287.0000000000003
 31
0.0
  0
LINE
  5
1E8
330
5A
100
AcDbEntity
  8
1
  6
Continuous
 62
     2
100
AcDbLine
 10
25.0
 20
18.50000000000001
 30
0.0
 11
81.0
 21
18.50000000000001
 31
0.0
  0
LINE
  5
1E9
330
5A
100
AcDbEntity
  8
1
  6
Continuous
 62
     2
100
AcDbLine
 10
33.0
 20
27.0
 30
0.0
 11
33.0
 21
10.0
 31
0.0
  0
LINE
  5
1EA
330
5A
100
AcDbEntity
  8
1
  6
Continuous
 62
     7
100
AcDbLine
 10
191.0
 20
24.70000000000001
 30
0.0
 11
191.0
 21
22.30000000000001
 31
0.0
  0
LINE
  5
1EB
330
5A
100
AcDbEntity
  8
1
  6
Continuous
 62
     7
100
AcDbLine
 10
191.0
 20
24.70000000000001
 30
0.0
 11
196.0
 21
25.50000000000001
 31
0.0
  0
LINE
  5
1EC
330
5A
100
AcDbEntity
  8
1
  6
Continuous
 62
     7
100
AcDbLine
 10
196.0
 20
25.50000000000001
 30
0.0
 11
196.0
 21
21.50000000000001
 31
0.0
  0
LINE
  5
1ED
330
5A
100
AcDbEntity
  8
1
  6
Continuous
 62
     7
100
AcDbLine
 10
196.0
 20
21.50000000000001
 30
0.0
 11
191.0
 21
22.30000000000001
 31
0.0
  0
LINE
  5
1EE
330
5A
100
AcDbEntity
  8
1
  6
DOT_CENTER
 62
     2
100
AcDbLine
 10
184.0
 20
23.50000000000001
 30
0.0
 11
197.0
 21
23.50000000000001
 31
0.0
  0
LINE
  5
1EF
330
5A
100
AcDbEntity
  8
1
  6
DOT_CENTER
 62
     2
100
AcDbLine
 10
187.0
 20
26.50000000000001
 30
0.0
 11
187.0
 21
20.50000000000001
 31
0.0
  0
LINE
  5
1F0
330
5A
100
AcDbEntity
  8
1
  6
Continuous
 62
     2
100
AcDbLine
 10
81.0
 20
27.00000000000001
 30
0.0
 11
81.0
 21
10.0
 31
0.0
  0
CIRCLE
  5
1F1
330
5A
100
AcDbEntity
  8
1
  6
Continuous
 62
     7
100
AcDbCircle
 10
103.5
 20
12.5
 30
0.0
 40
0.2999999999999972
  0
CIRCLE
  5
1F2
330
5A
100
AcDbEntity
  8
1
  6
Continuous
 62
     7
100
AcDbCircle
 10
109.5
 20
12.5
 30
0.0
 40
0.2999999999999972
  0
CIRCLE
  5
1F3
330
5A
100
AcDbEntity
  8
1
  6
Continuous
 62
     7
100
AcDbCircle
 10
120.5
 20
12.5
 30
0.0
 40
0.2999999999999972
  0
CIRCLE
  5
1F4
330
5A
100
AcDbEntity
  8
1
  6
Continuous
 62
     7
100
AcDbCircle
 10
126.5
 20
12.5
 30
0.0
 40
0.2999999999999972
  0
CIRCLE
  5
1F5
330
5A
100
AcDbEntity
  8
1
  6
Continuous
 62
     7
100
AcDbCircle
 10
137.5
 20
12.5
 30
0.0
 40
0.3000000000000114
  0
CIRCLE
  5
1F6
330
5A
100
AcDbEntity
  8
1
  6
Continuous
 62
     7
100
AcDbCircle
 10
143.5
 20
12.5
 30
0.0
 40
0.3000000000000114
  0
CIRCLE
  5
1F7
330
5A
100
AcDbEntity
  8
1
  6
Continuous
 62
     7
100
AcDbCircle
 10
160.5
 20
12.5
 30
0.0
 40
0.3000000000000114
  0
CIRCLE
  5
1F8
330
5A
100
AcDbEntity
  8
1
  6
Continuous
 62
     7
100
AcDbCircle
 10
154.5
 20
12.5
 30
0.0
 40
0.3000000000000114
  0
CIRCLE
  5
1F9
330
5A
100
AcDbEntity
  8
1
  6
Continuous
 62
     7
100
AcDbCircle
 10
187.0
 20
23.50000000000001
 30
0.0
 40
1.200000000000102
  0
CIRCLE
  5
1FA
330
5A
100
AcDbEntity
  8
1
  6
Continuous
 62
     7
100
AcDbCircle
 10
187.0
 20
23.50000000000001
 30
0.0
 40
2.0
  0
CIRCLE
  5
1FB
330
5A
100
AcDbEntity
  8
1
  6
DOT_CENTER
 62
     7
100
AcDbCircle
 10
89.5
 20
16.0
 30
0.0
 40
0.1000000000000227
  0
CIRCLE
  5
1FC
330
5A
100
AcDbEntity
  8
1
  6
DOT_CENTER
 62
     7
100
AcDbCircle
 10
89.5
 20
18.0
 30
0.0
 40
0.1000000000000227
  0
MTEXT
  5
1FE
330
5A
100
AcDbEntity
  8
1
 62
     7
100
AcDbMText
 10
188.5
 20
15.0
 30
0.0
 40
3.0
 41
0.0
 71
     5
 72
     1
  1
三栄水栓製作所
  7
CONVERTER_1
 73
     1
 44
1.32052821128451
  0
MTEXT
  5
1FF
330
5A
100
AcDbEntity
  8
1
 62
     7
100
AcDbMText
 10
171.5
 20
15.0
 30
0.0
 40
2.5
 41
0.0
 71
     5
 72
     1
  1
株式会社
  7
CONVERTER_1
 73
     1
 44
1.32052821128451
  0
MTEXT
  5
200
330
5A
100
AcDbEntity
  8
1
 62
     2
100
AcDbMText
 10
32.5
 20
282.0000000000003
 30
0.0
 40
5.0
 41
0.0
 71
     5
 72
     1
  1
図番
  7
CONVERTER_1
 73
     1
 44
0.60024009603842
  0
MTEXT
  5
201
330
5A
100
AcDbEntity
  8
1
 62
     2
100
AcDbMText
 10
29.0
 20
34.00000000000001
 30
0.0
 40
3.5
 41
0.0
 71
     5
 72
     1
  1
備考
  7
CONVERTER_1
 73
     1
 44
0.60024009603842
  0
MTEXT
  5
202
330
5A
100
AcDbEntity
  8
1
 62
     2
100
AcDbMText
 10
29.0
 20
22.75
 30
0.0
 40
3.5
 41
0.0
 71
     5
 72
     1
  1
品名
  7
CONVERTER_1
 73
     1
 44
0.96038415366146
  0
MTEXT
  5
203
330
5A
100
AcDbEntity
  8
1
 62
     2
100
AcDbMText
 10
29.0
 20
14.25
 30
0.0
 40
3.5
 41
0.0
 71
     5
 72
     1
  1
品番
  7
CONVERTER_1
 73
     1
 44
0.96038415366146
  0
MTEXT
  5
204
330
5A
100
AcDbEntity
  8
1
 62
     2
100
AcDbMText
 10
101.5
 20
25.00000000000001
 30
0.0
 40
3.0
 41
0.0
 71
     5
 72
     1
  1
承認
  7
CONVERTER_1
 73
     1
 44
0.78031212484994
  0
MTEXT
  5
205
330
5A
100
AcDbEntity
  8
1
 62
     2
100
AcDbMText
 10
175.0
 20
23.50000000000001
 30
0.0
 40
3.5
 41
0.0
 71
     5
 72
     1
  1
第三角法
  7
CONVERTER_1
 73
     1
 44
0.7202881152461
  0
MTEXT
  5
206
330
5A
100
AcDbEntity
  8
1
 62
     2
100
AcDbMText
 10
118.5
 20
25.00000000000001
 30
0.0
 40
3.0
 41
0.0
 71
     5
 72
     1
  1
検図
  7
CONVERTER_1
 73
     1
 44
0.78031212484994
  0
MTEXT
  5
207
330
5A
100
AcDbEntity
  8
1
 62
     2
100
AcDbMText
 10
152.5
 20
25.00000000000001
 30
0.0
 40
3.0
 41
0.0
 71
     5
 72
     1
  1
設計
  7
CONVERTER_1
 73
     1
 44
0.78031212484994
  0
MTEXT
  5
208
330
5A
100
AcDbEntity
  8
1
 62
     2
100
AcDbMText
 10
135.5
 20
25.00000000000001
 30
0.0
 40
3.0
 41
0.0
 71
     5
 72
     1
  1
製図
  7
CONVERTER_1
 73
     1
 44
0.78031212484994
  0
MTEXT
  5
209
330
5A
100
AcDbEntity
  8
1
 62
     2
100
AcDbMText
 10
89.5
 20
24.00000000000001
 30
0.0
 40
3.5
 41
0.0
 71
     5
 72
     1
  1
尺度
  7
CONVERTER_1
 73
     1
 44
0.7202881152461
  0
MTEXT
  5
20A
330
5A
100
AcDbEntity
  8
1
 62
   250
100
AcDbMText
 10
25.0
 20
5.0
 30
0.0
 40
3.5
 41
0.0
 71
     4
 72
     1
  1
備考欄の文字列 原点位置=4
  7
CONVERTER_1
 73
     1
 44
0.7202881152461
  0
ENDBLK
  5
5C
330
5A
100
AcDbEntity
  8
0
100
AcDbBlockEnd
  0
BLOCK
  5
22C
330
225
100
AcDbEntity
  8
0
100
AcDbBlockBegin
  2
*D012
 70
     1
 71
     0
 10
0.0
 20
0.0
 30
0.0
  3
*D012
  1

  0
LINE
  5
226
330
225
100
AcDbEntity
  8
1
  6
Continuous
 62
     2
100
AcDbLine
 10
164.4863853341274
 20
179.7176887810473
 30
0.0
 11
119.4863853341274
 21
179.7176887810473
 31
0.0
  0
LINE
  5
227
330
225
100
AcDbEntity
  8
1
  6
Continuous
 62
     2
100
AcDbLine
 10
119.4863853341274
 20
204.7176887810473
 30
0.0
 11
119.4863853341274
 21
177.2176887810473
 31
0.0
  0
LINE
  5
228
330
225
100
AcDbEntity
  8
1
  6
Continuous
 62
     2
100
AcDbLine
 10
164.4863853341274
 20
210.7176887810473
 30
0.0
 11
164.4863853341274
 21
177.2176887810473
 31
0.0
  0
SOLID
  5
229
330
225
100
AcDbEntity
  8
1
 62
     2
100
AcDbTrace
 10
155.7363853341274
 20
178.5657294271576
 30
0.0
 11
155.7363853341274
 21
180.869648134937
 31
0.0
 12
164.4863853341274
 22
179.7176887810473
 32
0.0
 13
164.4863853341274
 23
179.7176887810473
 33
0.0
  0
SOLID
  5
22A
330
225
100
AcDbEntity
  8
1
 62
     2
100
AcDbTrace
 10
128.2363853341274
 20
180.869648134937
 30
0.0
 11
128.2363853341274
 21
178.5657294271576
 31
0.0
 12
119.4863853341274
 22
179.7176887810473
 32
0.0
 13
119.4863853341274
 23
179.7176887810473
 33
0.0
  0
MTEXT
  5
22B
330
225
100
AcDbEntity
  8
1
 62
     7
100
AcDbMText
 10
135.4238853341274
 20
182.2176887810473
 30
0.0
 40
8.75
 41
0.0
 71
     7
 72
     1
  1
45
  7
CONVERTER_3
 11
0.9999999999970621
 21
2.424068405545307E-6
 31
0.0
 73
     1
 44
0.60024009603842
  0
ENDBLK
  5
22D
330
225
100
AcDbEntity
  8
0
100
AcDbBlockEnd
  0
BLOCK
  5
237
330
230
100
AcDbEntity
  8
0
100
AcDbBlockBegin
  2
*D113
 70
     1
 71
     0
 10
0.0
 20
0.0
 30
0.0
  3
*D113
  1

  0
LINE
  5
231
330
230
100
AcDbEntity
  8
1
  6
Continuous
 62
     2
100
AcDbLine
 10
334.4863853341275
 20
179.7176887810473
 30
0.0
 11
164.4863853341274
 21
179.7176887810473
 31
0.0
  0
LINE
  5
232
330
230
100
AcDbEntity
  8
1
  6
Continuous
 62
     2
100
AcDbLine
 10
164.4863853341274
 20
210.7176887810473
 30
0.0
 11
164.4863853341274
 21
177.2176887810473
 31
0.0
  0
LINE
  5
233
330
230
100
AcDbEntity
  8
1
  6
Continuous
 62
     2
100
AcDbLine
 10
334.4863853341275
 20
259.2176887810472
 30
0.0
 11
334.4863853341275
 21
177.2176887810473
 31
0.0
  0
SOLID
  5
234
330
230
100
AcDbEntity
  8
1
 62
     2
100
AcDbTrace
 10
325.7363853341275
 20
178.5657294271576
 30
0.0
 11
325.7363853341275
 21
180.869648134937
 31
0.0
 12
334.4863853341275
 22
179.7176887810473
 32
0.0
 13
334.4863853341275
 23
179.7176887810473
 33
0.0
  0
SOLID
  5
235
330
230
100
AcDbEntity
  8
1
 62
     2
100
AcDbTrace
 10
173.2363853341274
 20
180.869648134937
 30
0.0
 11
173.2363853341274
 21
178.5657294271576
 31
0.0
 12
164.4863853341274
 22
179.7176887810473
 32
0.0
 13
164.4863853341274
 23
179.7176887810473
 33
0.0
  0
MTEXT
  5
236
330
230
100
AcDbEntity
  8
1
 62
     7
100
AcDbMText
 10
240.2988853341275
 20
182.2176887810473
 30
0.0
 40
8.75
 41
0.0
 71
     7
 72
     1
  1
170
  7
CONVERTER_3
 11
0.9999999999970621
 21
2.424068405545307E-6
 31
0.0
 73
     1
 44
0.60024009603842
  0
ENDBLK
  5
238
330
230
100
AcDbEntity
  8
0
100
AcDbBlockEnd
  0
BLOCK
  5
242
330
23B
100
AcDbEntity
  8
0
100
AcDbBlockBegin
  2
*D214
 70
     1
 71
     0
 10
0.0
 20
0.0
 30
0.0
  3
*D214
  1

  0
LINE
  5
23C
330
23B
100
AcDbEntity
  8
1
  6
Continuous
 62
     2
100
AcDbLine
 10
80.48638533412742
 20
250.7176887810472
 30
0.0
 11
80.48638533412742
 21
204.7176887810473
 31
0.0
  0
LINE
  5
23D
330
23B
100
AcDbEntity
  8
1
  6
Continuous
 62
     2
100
AcDbLine
 10
119.4863853341274
 20
250.7176887810472
 30
0.0
 11
77.98638533412742
 21
250.7176887810472
 31
0.0
  0
LINE
  5
23E
330
23B
100
AcDbEntity
  8
1
  6
Continuous
 62
     2
100
AcDbLine
 10
119.4863853341274
 20
204.7176887810473
 30
0.0
 11
77.98638533412742
 21
204.7176887810473
 31
0.0
  0
SOLID
  5
23F
330
23B
100
AcDbEntity
  8
1
 62
     2
100
AcDbTrace
 10
81.63834468801713
 20
241.9676887810472
 30
0.0
 11
79.33442598023771
 21
241.9676887810472
 31
0.0
 12
80.48638533412742
 22
250.7176887810472
 32
0.0
 13
80.48638533412742
 23
250.7176887810472
 33
0.0
  0
SOLID
  5
240
330
23B
100
AcDbEntity
  8
1
 62
     2
100
AcDbTrace
 10
79.33442598023771
 20
213.4676887810473
 30
0.0
 11
81.63834468801713
 21
213.4676887810473
 31
0.0
 12
80.48638533412742
 22
204.7176887810473
 32
0.0
 13
80.48638533412742
 23
204.7176887810473
 33
0.0
  0
MTEXT
  5
241
330
23B
100
AcDbEntity
  8
1
 62
     7
100
AcDbMText
 10
77.98638533412742
 20
212.0551887810473
 30
0.0
 40
8.75
 41
0.0
 71
     7
 72
     1
  1
\C7;{\Fgdt;n}\C7;46
  7
CONVERTER_3
 11
0.0
 21
1.0
 31
0.0
 73
     1
 44
0.60024009603842
  0
ENDBLK
  5
243
330
23B
100
AcDbEntity
  8
0
100
AcDbBlockEnd
  0
BLOCK
  5
24D
330
246
100
AcDbEntity
  8
0
100
AcDbBlockBegin
  2
*D315
 70
     1
 71
     0
 10
0.0
 20
0.0
 30
0.0
  3
*D315
  1

  0
LINE
  5
247
330
246
100
AcDbEntity
  8
1
  6
Continuous
 62
     2
100
AcDbLine
 10
300.8363853341275
 20
227.7176887810467
 30
0.0
 11
300.8363853341275
 21
262.2176887810471
 31
0.0
  0
LINE
  5
248
330
246
100
AcDbEntity
  8
1
  6
Continuous
 62
     2
100
AcDbLine
 10
191.4268568323624
 20
227.7176887810467
 30
0.0
 11
303.3363853341275
 21
227.7176887810467
 31
0.0
  0
LINE
  5
249
330
246
100
AcDbEntity
  8
1
  6
Continuous
 62
     2
100
AcDbLine
 10
327.0999783281413
 20
262.2176887810471
 30
0.0
 11
298.3363853341275
 21
262.2176887810471
 31
0.0
  0
SOLID
  5
24A
330
246
100
AcDbEntity
  8
1
 62
     2
100
AcDbTrace
 10
299.6844259802378
 20
236.4676887810467
 30
0.0
 11
301.9883446880172
 21
236.4676887810467
 31
0.0
 12
300.8363853341275
 22
227.7176887810467
 32
0.0
 13
300.8363853341275
 23
227.7176887810467
 33
0.0
  0
SOLID
  5
24B
330
246
100
AcDbEntity
  8
1
 62
     2
100
AcDbTrace
 10
301.9883446880172
 20
253.4676887810471
 30
0.0
 11
299.6844259802378
 21
253.4676887810471
 31
0.0
 12
300.8363853341275
 22
262.2176887810471
 32
0.0
 13
300.8363853341275
 23
262.2176887810471
 33
0.0
  0
MTEXT
  5
24C
330
246
100
AcDbEntity
  8
1
 62
     7
100
AcDbMText
 10
298.3363853341275
 20
238.4051887810472
 30
0.0
 40
8.75
 41
0.0
 71
     7
 72
     1
  1
35
  7
CONVERTER_3
 11
0.0
 21
1.0
 31
0.0
 73
     1
 44
0.60024009603842
  0
ENDBLK
  5
24E
330
246
100
AcDbEntity
  8
0
100
AcDbBlockEnd
  0
BLOCK
  5
258
330
251
100
AcDbEntity
  8
0
100
AcDbBlockBegin
  2
*D416
 70
     1
 71
     0
 10
0.0
 20
0.0
 30
0.0
  3
*D416
  1

  0
LINE
  5
252
330
251
100
AcDbEntity
  8
0
  6
Continuous
 62
     2
100
AcDbLine
 10
368.1363853341273
 20
295.2176887810471
 30
0.0
 11
368.1363853341273
 21
227.7176887810466
 31
0.0
  0
LINE
  5
253
330
251
100
AcDbEntity
  8
0
  6
Continuous
 62
     2
100
AcDbLine
 10
307.4863853341275
 20
295.2176887810471
 30
0.0
 11
370.6363853341273
 21
295.2176887810471
 31
0.0
  0
LINE
  5
254
330
251
100
AcDbEntity
  8
0
  6
Continuous
 62
     2
100
AcDbLine
 10
191.4268568323624
 20
227.7176887810466
 30
0.0
 11
370.6363853341273
 21
227.7176887810466
 31
0.0
  0
SOLID
  5
255
330
251
100
AcDbEntity
  8
0
 62
     2
100
AcDbTrace
 10
369.288344688017
 20
286.4676887810471
 30
0.0
 11
366.9844259802376
 21
286.4676887810471
 31
0.0
 12
368.1363853341273
 22
295.2176887810471
 32
0.0
 13
368.1363853341273
 23
295.2176887810471
 33
0.0
  0
SOLID
  5
256
330
251
100
AcDbEntity
  8
0
 62
     2
100
AcDbTrace
 10
366.9844259802376
 20
236.4676887810466
 30
0.0
 11
369.288344688017
 21
236.4676887810466
 31
0.0
 12
368.1363853341273
 22
227.7176887810466
 32
0.0
 13
368.1363853341273
 23
227.7176887810466
 33
0.0
  0
MTEXT
  5
257
330
251
100
AcDbEntity
  8
0
 62
     7
100
AcDbMText
 10
365.6363853341273
 20
254.9051887810472
 30
0.0
 40
8.75
 41
0.0
 71
     7
 72
     1
  1
68
  7
CONVERTER_3
 11
0.0
 21
1.0
 31
0.0
 73
     1
 44
0.60024009603842
  0
ENDBLK
  5
259
330
251
100
AcDbEntity
  8
0
100
AcDbBlockEnd
  0
BLOCK
  5
263
330
25C
100
AcDbEntity
  8
0
100
AcDbBlockBegin
  2
*D517
 70
     1
 71
     0
 10
0.0
 20
0.0
 30
0.0
  3
*D517
  1

  0
LINE
  5
25D
330
25C
100
AcDbEntity
  8
0
  6
Continuous
 62
     2
100
AcDbLine
 10
391.126707413436
 20
179.7176887810474
 30
0.0
 11
452.626707413436
 21
179.7176887810474
 31
0.0
  0
LINE
  5
25E
330
25C
100
AcDbEntity
  8
0
  6
Continuous
 62
     2
100
AcDbLine
 10
391.126707413436
 20
227.7176887810471
 30
0.0
 11
391.126707413436
 21
177.2176887810474
 31
0.0
  0
LINE
  5
25F
330
25C
100
AcDbEntity
  8
0
  6
Continuous
 62
     2
100
AcDbLine
 10
452.626707413436
 20
201.7176887810471
 30
0.0
 11
452.626707413436
 21
177.2176887810474
 31
0.0
  0
SOLID
  5
260
330
25C
100
AcDbEntity
  8
0
 62
     2
100
AcDbTrace
 10
399.876707413436
 20
180.8696481349371
 30
0.0
 11
399.876707413436
 21
178.5657294271577
 31
0.0
 12
391.126707413436
 22
179.7176887810474
 32
0.0
 13
391.126707413436
 23
179.7176887810474
 33
0.0
  0
SOLID
  5
261
330
25C
100
AcDbEntity
  8
0
 62
     2
100
AcDbTrace
 10
443.876707413436
 20
178.5657294271577
 30
0.0
 11
443.876707413436
 21
180.8696481349371
 31
0.0
 12
452.626707413436
 22
179.7176887810474
 32
0.0
 13
452.626707413436
 23
179.7176887810474
 33
0.0
  0
MTEXT
  5
262
330
25C
100
AcDbEntity
  8
0
 62
     7
100
AcDbMText
 10
398.251707413436
 20
182.2176887810474
 30
0.0
 40
8.75
 41
0.0
 71
     7
 72
     1
  1
62リフト5
  7
CONVERTER_1
 11
0.9999999999970621
 21
2.424068405545307E-6
 31
0.0
 73
     1
 44
0.60024009603842
  0
ENDBLK
  5
264
330
25C
100
AcDbEntity
  8
0
100
AcDbBlockEnd
  0
BLOCK
  5
26E
330
267
100
AcDbEntity
  8
0
100
AcDbBlockBegin
  2
*D618
 70
     1
 71
     0
 10
0.0
 20
0.0
 30
0.0
  3
*D618
  1

  0
LINE
  5
268
330
267
100
AcDbEntity
  8
1
  6
Continuous
 62
     2
100
AcDbLine
 10
84.6793824279888
 20
179.7176887810473
 30
0.0
 11
105.4863853341274
 21
179.7176887810473
 31
0.0
  0
LINE
  5
269
330
267
100
AcDbEntity
  8
1
  6
Continuous
 62
     2
100
AcDbLine
 10
105.4863853341274
 20
179.7176887810473
 30
0.0
 11
119.4863853341274
 21
179.7176887810473
 31
0.0
  0
LINE
  5
26A
330
267
100
AcDbEntity
  8
1
  6
Continuous
 62
     2
100
AcDbLine
 10
119.4863853341274
 20
204.7176887810473
 30
0.0
 11
119.4863853341274
 21
177.2176887810473
 31
0.0
  0
LINE
  5
26B
330
267
100
AcDbEntity
  8
1
  6
Continuous
 62
     2
100
AcDbLine
 10
105.4863853341274
 20
218.2176887810473
 30
0.0
 11
105.4863853341274
 21
177.2176887810473
 31
0.0
  0
SOLID
  5
26C
330
267
100
AcDbEntity
  8
1
 62
     2
100
AcDbTrace
 10
96.73638533412741
 20
178.5657294271576
 30
0.0
 11
96.73638533412741
 21
180.869648134937
 31
0.0
 12
105.4863853341274
 22
179.7176887810473
 32
0.0
 13
105.4863853341274
 23
179.7176887810473
 33
0.0
  0
MTEXT
  5
26D
330
267
100
AcDbEntity
  8
1
 62
     7
100
AcDbMText
 10
84.6793824279888
 20
182.2176887810473
 30
0.0
 40
8.75
 41
0.0
 71
     7
 72
     1
  1
14
  7
CONVERTER_3
 11
0.9999999999970621
 21
2.424068405545307E-6
 31
0.0
 73
     1
 44
0.60024009603842
  0
ENDBLK
  5
26F
330
267
100
AcDbEntity
  8
0
100
AcDbBlockEnd
  0
BLOCK
  5
271
330
270
100
AcDbEntity
  8
0
100
AcDbBlockBegin
  2
_None
 70
     0
 71
     0
 10
0.0
 20
0.0
 30
0.0
  3
_None
  1

  0
ENDBLK
  5
272
330
270
100
AcDbEntity
  8
0
100
AcDbBlockEnd
  0
ENDSEC
  0
SECTION
  2
ENTITIES
  0
INSERT
  5
5D
330
1F
100
AcDbEntity
  8
0
100
AcDbBlockReference
  2
21-1A
 10
446.6267074134358
 20
182.7176887810471
 30
0.0
  0
INSERT
  5
5E
330
1F
100
AcDbEntity
  8
0
100
AcDbBlockReference
  2
R10A-13
 10
401.6267074134358
 20
182.7176887810471
 30
0.0
  0
INSERT
  5
5F
330
1F
100
AcDbEntity
  8
1
100
AcDbBlockReference
  2
A20L-0-13
 10
424.6267074134358
 20
204.7176887810471
 30
0.0
  0
INSERT
  5
60
330
1F
100
AcDbEntity
  8
1
100
AcDbBlockReference
  2
A20J-60X-16
 10
500.5181847385381
 20
245.2176887810471
 30
0.0
  0
INSERT
  5
61
330
1F
100
AcDbEntity
  8
1
100
AcDbBlockReference
  2
_J__A4
 10
0.0
 20
0.0
 30
0.0
 41
2.5
 42
2.5
 43
2.5
  0
LINE
  5
20B
330
1F
100
AcDbEntity
  8
1
  6
DASH_CENTER
 62
     2
100
AcDbLine
 10
191.4863853341275
 20
295.2176887810472
 30
0.0
 11
307.4863853341275
 21
295.2176887810472
 31
0.0
  0
LINE
  5
20C
330
1F
100
AcDbEntity
  8
1
  6
DASH_CENTER
 62
     2
100
AcDbLine
 10
132.4446030410364
 20
209.2183571488158
 30
0.0
 11
183.6324164635333
 21
238.7716550075228
 31
0.0
  0
LINE
  5
20D
330
1F
100
AcDbEntity
  8
1
  6
DASH_CENTER
 62
     2
100
AcDbLine
 10
145.9750287222077
 20
238.4052255040043
 30
0.0
 11
196.5281676272184
 21
209.2183571488158
 31
0.0
  0
LINE
  5
20E
330
1F
100
AcDbEntity
  8
1
  6
DASH_CENTER
 62
     2
100
AcDbLine
 10
390.3197466774097
 20
227.7176887810471
 30
0.0
 11
409.2493704697652
 21
227.7176887810471
 31
0.0
  0
LINE
  5
20F
330
1F
100
AcDbEntity
  8
1
  6
DASH_CENTER
 62
     2
100
AcDbLine
 10
452.6267074134359
 20
307.3691697737677
 30
0.0
 11
452.6267074134359
 21
245.2176887810471
 31
0.0
  0
LINE
  5
210
330
1F
100
AcDbEntity
  8
1
  6
DASH_CENTER
 62
     2
100
AcDbLine
 10
441.7339914050083
 20
295.2176887810475
 30
0.0
 11
463.1399278227949
 21
295.2176887810475
 31
0.0
  0
LINE
  5
211
330
1F
100
AcDbEntity
  8
1
  6
DASH_CENTER
 62
     2
100
AcDbLine
 10
441.2524852195739
 20
355.6905139095775
 30
0.0
 11
463.6046586256568
 21
355.6905139095775
 31
0.0
  0
LINE
  5
212
330
1F
100
AcDbEntity
  8
1
  6
DASH_CENTER
 62
     2
100
AcDbLine
 10
390.2575718729341
 20
525.6905139095777
 30
0.0
 11
472.286194663422
 21
525.6905139095777
 31
0.0
  0
LINE
  5
213
330
1F
100
AcDbEntity
  8
0
  6
DASH_CENTER
 62
     2
100
AcDbLine
 10
478.6267074134359
 20
227.7176887810471
 30
0.0
 11
409.2493704697652
 21
227.7176887810471
 31
0.0
  0
LINE
  5
214
330
1F
100
AcDbEntity
  8
1
  6
DASH_CENTER
 62
     2
100
AcDbLine
 10
452.626707413436
 20
343.714316644023
 30
0.0
 11
452.6267074134359
 21
590.414131508132
 31
0.0
  0
LINE
  5
215
330
1F
100
AcDbEntity
  8
1
  6
DASH_CENTER
 62
     2
100
AcDbLine
 10
164.4863853341274
 20
267.2176887810472
 30
0.0
 11
164.4863853341274
 21
210.7176887810473
 31
0.0
  0
LINE
  5
216
330
1F
100
AcDbEntity
  8
1
  6
DASH_CENTER
 62
     2
100
AcDbLine
 10
191.4268568323624
 20
227.7176887810467
 30
0.0
 11
102.4863853341274
 21
227.7176887810473
 31
0.0
  0
LINE
  5
217
330
1F
100
AcDbEntity
  8
1
  6
DASH_CENTER
 62
     2
100
AcDbLine
 10
452.6267074134359
 20
201.7176887810471
 30
0.0
 11
452.6267074134359
 21
245.2176887810471
 31
0.0
  0
ARC
  5
218
330
1F
100
AcDbEntity
  8
1
  6
DASH_CENTER
 62
     2
100
AcDbCircle
 10
191.4863853341275
 20
268.2176887810472
 30
0.0
 40
27.0
100
AcDbArc
 50
90.0
 51
180.0
  0
ARC
  5
219
330
1F
100
AcDbEntity
  8
1
  6
DASH_CENTER
 62
     2
100
AcDbCircle
 10
307.4863853341275
 20
268.2176887810472
 30
0.0
 40
27.0
100
AcDbArc
 50
0.0
 51
90.0
  0
SOLID
  5
21A
330
1F
100
AcDbEntity
  8
1
 62
     2
100
AcDbTrace
 10
436.7540813488397
 20
584.192256515746
 30
0.0
 11
438.7493334780309
 21
585.3442158696357
 31
0.0
 12
442.1267074134354
 22
577.190513909577
 32
0.0
 13
442.1267074134354
 23
577.190513909577
 33
0.0
  0
LEADER
  5
21B
330
1F
100
AcDbEntity
  8
1
  6
Continuous
 62
     2
100
AcDbLeader
  3
Standard
 71
     0
 76
     3
 10
442.1267074134354
 20
577.190513909577
 30
0.0
 10
425.8789559434882
 20
605.3324449642776
 30
0.0
 10
386.3451348696033
 20
605.3324449642776
 30
0.0
  0
MTEXT
  5
21D
330
1F
100
AcDbEntity
  8
0
 62
     7
100
AcDbMText
 10
142.5
 20
51.87500000000006
 30
0.0
 40
8.75
 41
0.0
 71
     5
 72
     1
  1
(左ハンドル)
  7
CONVERTER_2
 73
     1
 44
0.7202881152461
  0
MTEXT
  5
21F
330
1F
100
AcDbEntity
  8
1
 62
     7
100
AcDbMText
 10
406.1120454065457
 20
612.8324449642778
 30
0.0
 40
8.75
 41
0.0
 71
     5
 72
     1
  1
PJ1/2
  7
CONVERTER_3
 73
     1
 44
1.32052821128451
  0
MTEXT
  5
220
330
1F
100
AcDbEntity
  8
0
 62
     7
100
AcDbMText
 10
213.125
 20
42.50000000000001
 30
0.0
 40
8.75
 41
0.0
 71
     5
 72
     1
  1
1
  7
CONVERTER_3
 73
     1
 44
1.32052821128451
  0
MTEXT
  5
221
330
1F
100
AcDbEntity
  8
0
 62
     7
100
AcDbMText
 10
234.375
 20
42.50000000000001
 30
0.0
 40
8.75
 41
0.0
 71
     5
 72
     1
  1
2,5
  7
CONVERTER_3
 73
     1
 44
1.32052821128451
  0
MTEXT
  5
222
330
1F
100
AcDbEntity
  8
0
 62
     7
100
AcDbMText
 10
142.5
 20
35.625
 30
0.0
 40
8.75
 41
0.0
 71
     5
 72
     1
  1
A20LJ-13
  7
CONVERTER_3
 73
     1
 44
0.7202881152461
  0
MTEXT
  5
223
330
1F
100
AcDbEntity
  8
0
 62
     7
100
AcDbMText
 10
142.5
 20
61.87500000000003
 30
0.0
 40
8.75
 41
0.0
 71
     5
 72
     1
  1
横形自在水栓
  7
CONVERTER_1
 73
     1
 44
1.32052821128451
  0
MTEXT
  5
224
330
1F
100
AcDbEntity
  8
0
 62
     7
100
AcDbMText
 10
84.99999999999997
 20
85.00000000000003
 30
0.0
 40
8.75
 41
0.0
 71
     4
 72
     1
  1
JIS
  7
CONVERTER_3
 73
     1
 44
1.32052821128451
  0
DIMENSION
  5
22F
330
1F
100
AcDbEntity
  8
1
100
AcDbDimension
  2
*D012
 10
164.4863853341274
 20
179.7176887810473
 30
0.0
 11
141.9863853341274
 21
186.5926887810473
 31
0.0
  1
<>
 71
     5
 42
0.0
 53
0.00013888888889
  3
ME10_DIM_0
100
AcDbAlignedDimension
 13
119.4863853341274
 23
204.7176887810473
 33
0.0
 14
164.4863853341274
 24
210.7176887810473
 34
0.0
100
AcDbRotatedDimension
  0
DIMENSION
  5
23A
330
1F
100
AcDbEntity
  8
1
100
AcDbDimension
  2
*D113
 10
334.4863853341275
 20
179.7176887810473
 30
0.0
 11
249.4863853341275
 21
186.5926887810473
 31
0.0
  1
<>
 71
     5
 42
0.0
 53
0.00013888888889
  3
ME10_DIM_1
100
AcDbAlignedDimension
 13
164.4863853341274
 23
210.7176887810473
 33
0.0
 14
334.4863853341275
 24
259.2176887810472
 34
0.0
100
AcDbRotatedDimension
  0
DIMENSION
  5
245
330
1F
100
AcDbEntity
  8
1
100
AcDbDimension
  2
*D214
 10
80.48638533412742
 20
250.7176887810472
 30
0.0
 11
73.61138533412742
 21
227.7176887810473
 31
0.0
  1
<>
 71
     5
 42
0.0
 53
90.0
  3
ME10_DIM_2
100
AcDbAlignedDimension
 13
119.4863853341274
 23
204.7176887810473
 33
0.0
 14
119.4863853341274
 24
250.7176887810472
 34
0.0
 50
90.0
100
AcDbRotatedDimension
  0
DIMENSION
  5
250
330
1F
100
AcDbEntity
  8
1
100
AcDbDimension
  2
*D315
 10
300.8363853341275
 20
227.7176887810467
 30
0.0
 11
293.9613853341275
 21
244.9676887810472
 31
0.0
  1
35
 71
     5
 42
0.0
 53
90.0
  3
ME10_DIM_3
100
AcDbAlignedDimension
 13
327.0999783281413
 23
262.2176887810472
 33
0.0
 14
191.4268568323624
 24
227.7176887810467
 34
0.0
 50
90.0
100
AcDbRotatedDimension
  0
DIMENSION
  5
25B
330
1F
100
AcDbEntity
  8
0
100
AcDbDimension
  2
*D416
 10
368.1363853341273
 20
295.2176887810471
 30
0.0
 11
361.2613853341273
 21
261.4676887810472
 31
0.0
  1
68
 71
     5
 42
0.0
 53
90.0
  3
ME10_DIM_4
100
AcDbAlignedDimension
 13
191.4268568323624
 23
227.7176887810467
 33
0.0
 14
307.4863853341275
 24
295.2176887810472
 34
0.0
 50
90.0
100
AcDbRotatedDimension
  0
DIMENSION
  5
266
330
1F
100
AcDbEntity
  8
0
100
AcDbDimension
  2
*D517
 10
391.126707413436
 20
179.7176887810474
 30
0.0
 11
421.876707413436
 21
186.5926887810474
 31
0.0
  1
62リフト5
 71
     5
 42
0.0
 53
0.00013888888889
  3
ME10_DIM_5
100
AcDbAlignedDimension
 13
452.6267074134359
 23
201.7176887810471
 33
0.0
 14
391.126707413436
 24
227.7176887810471
 34
0.0
100
AcDbRotatedDimension
  0
DIMENSION
  5
274
330
1F
100
AcDbEntity
  8
1
100
AcDbDimension
  2
*D618
 10
105.4863853341274
 20
179.7176887810473
 30
0.0
 11
89.9293824279888
 21
186.5926887810473
 31
0.0
  1
<>
 71
     5
 42
0.0
 53
0.00013888888889
  3
ME10_DIM_6
100
AcDbAlignedDimension
 13
119.4863853341274
 23
204.7176887810473
 33
0.0
 14
105.4863853341274
 24
218.2176887810473
 34
0.0
100
AcDbRotatedDimension
  0
ENDSEC
  0
SECTION
  2
OBJECTS
  0
DICTIONARY
  5
C
330
0
100
AcDbDictionary
281
     1
  3
ACAD_GROUP
350
D
  3
ACAD_LAYOUT
350
1A
  3
ACAD_MLINESTYLE
350
17
  3
ACAD_PLOTSETTINGS
350
19
  3
ACAD_PLOTSTYLENAME
350
E
  3
ACAD_TABLESTYLE
350
2A
  3
AcDbVariableDictionary
350
2C
  0
DICTIONARY
  5
D
102
{ACAD_REACTORS
330
C
102
}
330
C
100
AcDbDictionary
281
     1
  0
DICTIONARY
  5
1A
102
{ACAD_REACTORS
330
C
102
}
330
C
100
AcDbDictionary
281
     1
  3
Layout1
350
1E
  3
Layout2
350
26
  3
Model
350
22
  0
DICTIONARY
  5
17
102
{ACAD_REACTORS
330
C
102
}
330
C
100
AcDbDictionary
281
     1
  3
Standard
350
18
  0
DICTIONARY
  5
19
102
{ACAD_REACTORS
330
C
102
}
330
C
100
AcDbDictionary
281
     1
  0
ACDBDICTIONARYWDFLT
  5
E
102
{ACAD_REACTORS
330
C
102
}
330
C
100
AcDbDictionary
281
     1
  3
Normal
350
F
100
AcDbDictionaryWithDefault
340
F
  0
DICTIONARY
  5
2A
102
{ACAD_REACTORS
330
C
102
}
330
C
100
AcDbDictionary
281
     1
  3
Standard
350
2B
  0
DICTIONARY
  5
2C
102
{ACAD_REACTORS
330
C
102
}
330
C
100
AcDbDictionary
281
     1
  3
CTABLESTYLE
350
2D
  0
LAYOUT
  5
1E
102
{ACAD_REACTORS
330
1A
102
}
330
1A
100
AcDbPlotSettings
  1

  2

  4

  6

 40
0.0
 41
0.0
 42
0.0
 43
0.0
 44
0.0
 45
0.0
 46
0.0
 47
0.0
 48
0.0
 49
0.0
140
0.0
141
0.0
142
1.0
143
1.0
 70
   688
 72
     0
 73
     0
 74
     5
  7

 75
    16
147
1.0
148
0.0
149
0.0
100
AcDbLayout
  1
Layout1
 70
     1
 71
     1
 10
0.0
 20
0.0
 11
12.0
 21
9.0
 12
0.0
 22
0.0
 32
0.0
 14
1.00000000000000E+20
 24
1.00000000000000E+20
 34
1.00000000000000E+20
 15
-1.00000000000000E+20
 25
-1.00000000000000E+20
 35
-1.00000000000000E+20
146
0.0
 13
0.0
 23
0.0
 33
0.0
 16
1.0
 26
0.0
 36
0.0
 17
0.0
 27
1.0
 37
0.0
 76
     0
330
1B
  0
LAYOUT
  5
26
102
{ACAD_REACTORS
330
1A
102
}
330
1A
100
AcDbPlotSettings
  1

  2

  4

  6

 40
0.0
 41
0.0
 42
0.0
 43
0.0
 44
0.0
 45
0.0
 46
0.0
 47
0.0
 48
0.0
 49
0.0
140
0.0
141
0.0
142
1.0
143
1.0
 70
   688
 72
     0
 73
     0
 74
     5
  7

 75
    16
147
1.0
148
0.0
149
0.0
100
AcDbLayout
  1
Layout2
 70
     1
 71
     2
 10
0.0
 20
0.0
 11
0.0
 21
0.0
 12
0.0
 22
0.0
 32
0.0
 14
0.0
 24
0.0
 34
0.0
 15
0.0
 25
0.0
 35
0.0
146
0.0
 13
0.0
 23
0.0
 33
0.0
 16
1.0
 26
0.0
 36
0.0
 17
0.0
 27
1.0
 37
0.0
 76
     0
330
23
  0
LAYOUT
  5
22
102
{ACAD_REACTORS
330
1A
102
}
330
1A
100
AcDbPlotSettings
  1

  2

  4

  6

 40
0.0
 41
0.0
 42
0.0
 43
0.0
 44
0.0
 45
0.0
 46
0.0
 47
0.0
 48
0.0
 49
0.0
140
0.0
141
0.0
142
1.0
143
1.0
 70
  1712
 72
     0
 73
     0
 74
     0
  7

 75
     0
147
1.0
148
0.0
149
0.0
100
AcDbLayout
  1
Model
 70
     1
 71
     0
 10
0.0
 20
0.0
 11
0.0
 21
0.0
 12
0.0
 22
0.0
 32
0.0
 14
0.0
 24
0.0
 34
0.0
 15
525.0
 25
742.5
 35
0.0
146
0.0
 13
0.0
 23
0.0
 33
0.0
 16
1.0
 26
0.0
 36
0.0
 17
0.0
 27
1.0
 37
0.0
 76
     0
330
1F
  0
MLINESTYLE
  5
18
102
{ACAD_REACTORS
330
17
102
}
330
17
100
AcDbMlineStyle
  2
Standard
 70
     0
  3

 62
   256
 51
90.0
 52
90.0
 71
     2
 49
0.5
 62
   256
  6
BYLAYER
 49
-0.5
 62
   256
  6
BYLAYER
  0
ACDBPLACEHOLDER
  5
F
102
{ACAD_REACTORS
330
E
102
}
330
E
  0
TABLESTYLE
  5
2B
102
{ACAD_REACTORS
330
2A
102
}
330
2A
100
AcDbTableStyle
  3
Standard
 70
     0
 71
     0
 40
0.06
 41
0.06
280
     0
281
     0
  7
Standard
140
0.18
170
     2
 62
     0
 63
     7
283
     0
274
    -2
284
     1
 64
     0
275
    -2
285
     1
 65
     0
276
    -2
286
     1
 66
     0
277
    -2
287
     1
 67
     0
278
    -2
288
     1
 68
     0
279
    -2
289
     1
 69
     0
  7
Standard
140
0.25
170
     5
 62
     0
 63
     7
283
     0
274
    -2
284
     1
 64
     0
275
    -2
285
     1
 65
     0
276
    -2
286
     1
 66
     0
277
    -2
287
     1
 67
     0
278
    -2
288
     1
 68
     0
279
    -2
289
     1
 69
     0
  7
Standard
140
0.18
170
     5
 62
     0
 63
     7
283
     0
274
    -2
284
     1
 64
     0
275
    -2
285
     1
 65
     0
276
    -2
286
     1
 66
     0
277
    -2
287
     1
 67
     0
278
    -2
288
     1
 68
     0
279
    -2
289
     1
 69
     0
  0
DICTIONARYVAR
  5
2D
102
{ACAD_REACTORS
330
2C
102
}
330
2C
100
DictionaryVariables
280
     0
  1
Standard
  0
ENDSEC
  0
EOF
