  0
SECTION
  2
HEADER
  9
$ACADVER
  1
AC1015
  9
$ACADMAINTVER
 70
     6
  9
$DWGCODEPAGE
  3
DOS932
  9
$INSBASE
 10
0.0
 20
0.0
 30
0.0
  9
$EXTMIN
 10
0.0
 20
0.0
 30
0.0
  9
$EXTMAX
 10
525.0
 20
742.5
 30
0.0
  9
$LIMMIN
 10
0.0
 20
0.0
  9
$LIMMAX
 10
12.0
 20
9.0
  9
$ORTHOMODE
 70
     0
  9
$REGENMODE
 70
     1
  9
$FILLMODE
 70
     1
  9
$QTEXTMODE
 70
     0
  9
$MIRRTEXT
 70
     1
  9
$LTSCALE
 40
1.0
  9
$ATTMODE
 70
     1
  9
$TEXTSIZE
 40
0.2
  9
$TRACEWID
 40
0.05
  9
$TEXTSTYLE
  7
Standard
  9
$CLAYER
  8
0
  9
$CELTYPE
  6
ByLayer
  9
$CECOLOR
 62
   256
  9
$CELTSCALE
 40
1.0
  9
$DISPSILH
 70
     0
  9
$DIMSCALE
 40
1.0
  9
$DIMASZ
 40
0.18
  9
$DIMEXO
 40
0.0625
  9
$DIMDLI
 40
0.38
  9
$DIMRND
 40
0.0
  9
$DIMDLE
 40
0.0
  9
$DIMEXE
 40
0.18
  9
$DIMTP
 40
0.0
  9
$DIMTM
 40
0.0
  9
$DIMTXT
 40
0.18
  9
$DIMCEN
 40
0.09
  9
$DIMTSZ
 40
0.0
  9
$DIMTOL
 70
     0
  9
$DIMLIM
 70
     0
  9
$DIMTIH
 70
     1
  9
$DIMTOH
 70
     1
  9
$DIMSE1
 70
     0
  9
$DIMSE2
 70
     0
  9
$DIMTAD
 70
     0
  9
$DIMZIN
 70
     0
  9
$DIMBLK
  1

  9
$DIMASO
 70
     1
  9
$DIMSHO
 70
     1
  9
$DIMPOST
  1

  9
$DIMAPOST
  1

  9
$DIMALT
 70
     0
  9
$DIMALTD
 70
     2
  9
$DIMALTF
 40
25.4
  9
$DIMLFAC
 40
1.0
  9
$DIMTOFL
 70
     0
  9
$DIMTVP
 40
0.0
  9
$DIMTIX
 70
     0
  9
$DIMSOXD
 70
     0
  9
$DIMSAH
 70
     0
  9
$DIMBLK1
  1

  9
$DIMBLK2
  1

  9
$DIMSTYLE
  2
Standard
  9
$DIMCLRD
 70
     0
  9
$DIMCLRE
 70
     0
  9
$DIMCLRT
 70
     0
  9
$DIMTFAC
 40
1.0
  9
$DIMGAP
 40
0.09
  9
$DIMJUST
 70
     0
  9
$DIMSD1
 70
     0
  9
$DIMSD2
 70
     0
  9
$DIMTOLJ
 70
     1
  9
$DIMTZIN
 70
     0
  9
$DIMALTZ
 70
     0
  9
$DIMALTTZ
 70
     0
  9
$DIMUPT
 70
     0
  9
$DIMDEC
 70
     4
  9
$DIMTDEC
 70
     4
  9
$DIMALTU
 70
     2
  9
$DIMALTTD
 70
     2
  9
$DIMTXSTY
  7
Standard
  9
$DIMAUNIT
 70
     0
  9
$DIMADEC
 70
     0
  9
$DIMALTRND
 40
0.0
  9
$DIMAZIN
 70
     0
  9
$DIMDSEP
 70
    46
  9
$DIMATFIT
 70
     3
  9
$DIMFRAC
 70
     0
  9
$DIMLDRBLK
  1

  9
$DIMLUNIT
 70
     2
  9
$DIMLWD
 70
    -2
  9
$DIMLWE
 70
    -2
  9
$DIMTMOVE
 70
     0
  9
$LUNITS
 70
     2
  9
$LUPREC
 70
     4
  9
$SKETCHINC
 40
0.1
  9
$FILLETRAD
 40
0.5
  9
$AUNITS
 70
     0
  9
$AUPREC
 70
     0
  9
$MENU
  1
.
  9
$ELEVATION
 40
0.0
  9
$PELEVATION
 40
0.0
  9
$THICKNESS
 40
0.0
  9
$LIMCHECK
 70
     0
  9
$CHAMFERA
 40
0.5
  9
$CHAMFERB
 40
0.5
  9
$CHAMFERC
 40
1.0
  9
$CHAMFERD
 40
0.0
  9
$SKPOLY
 70
     0
  9
$TDCREATE
 40
2456184.557300521
  9
$TDUCREATE
 40
2456184.182300521
  9
$TDUPDATE
 40
2456184.557300532
  9
$TDUUPDATE
 40
2456184.182300532
  9
$TDINDWG
 40
0.0000000116
  9
$TDUSRTIMER
 40
0.0000000116
  9
$USRTIMER
 70
     1
  9
$ANGBASE
 50
0.0
  9
$ANGDIR
 70
     0
  9
$PDMODE
 70
     0
  9
$PDSIZE
 40
0.0
  9
$PLINEWID
 40
0.0
  9
$SPLFRAME
 70
     0
  9
$SPLINETYPE
 70
     6
  9
$SPLINESEGS
 70
     8
  9
$HANDSEED
  5
276
  9
$SURFTAB1
 70
     6
  9
$SURFTAB2
 70
     6
  9
$SURFTYPE
 70
     6
  9
$SURFU
 70
     6
  9
$SURFV
 70
     6
  9
$UCSBASE
  2

  9
$UCSNAME
  2

  9
$UCSORG
 10
0.0
 20
0.0
 30
0.0
  9
$UCSXDIR
 10
1.0
 20
0.0
 30
0.0
  9
$UCSYDIR
 10
0.0
 20
1.0
 30
0.0
  9
$UCSORTHOREF
  2

  9
$UCSORTHOVIEW
 70
     0
  9
$UCSORGTOP
 10
0.0
 20
0.0
 30
0.0
  9
$UCSORGBOTTOM
 10
0.0
 20
0.0
 30
0.0
  9
$UCSORGLEFT
 10
0.0
 20
0.0
 30
0.0
  9
$UCSORGRIGHT
 10
0.0
 20
0.0
 30
0.0
  9
$UCSORGFRONT
 10
0.0
 20
0.0
 30
0.0
  9
$UCSORGBACK
 10
0.0
 20
0.0
 30
0.0
  9
$PUCSBASE
  2

  9
$PUCSNAME
  2

  9
$PUCSORG
 10
0.0
 20
0.0
 30
0.0
  9
$PUCSXDIR
 10
1.0
 20
0.0
 30
0.0
  9
$PUCSYDIR
 10
0.0
 20
1.0
 30
0.0
  9
$PUCSORTHOREF
  2

  9
$PUCSORTHOVIEW
 70
     0
  9
$PUCSORGTOP
 10
0.0
 20
0.0
 30
0.0
  9
$PUCSORGBOTTOM
 10
0.0
 20
0.0
 30
0.0
  9
$PUCSORGLEFT
 10
0.0
 20
0.0
 30
0.0
  9
$PUCSORGRIGHT
 10
0.0
 20
0.0
 30
0.0
  9
$PUCSORGFRONT
 10
0.0
 20
0.0
 30
0.0
  9
$PUCSORGBACK
 10
0.0
 20
0.0
 30
0.0
  9
$USERI1
 70
     0
  9
$USERI2
 70
     0
  9
$USERI3
 70
     0
  9
$USERI4
 70
     0
  9
$USERI5
 70
     0
  9
$USERR1
 40
13.2
  9
$USERR2
 40
0.0
  9
$USERR3
 40
0.0
  9
$USERR4
 40
0.0
  9
$USERR5
 40
0.0
  9
$WORLDVIEW
 70
     1
  9
$SHADEDGE
 70
     3
  9
$SHADEDIF
 70
    70
  9
$TILEMODE
 70
     1
  9
$MAXACTVP
 70
    64
  9
$PINSBASE
 10
0.0
 20
0.0
 30
0.0
  9
$PLIMCHECK
 70
     0
  9
$PEXTMIN
 10
1.00000000000000E+20
 20
1.00000000000000E+20
 30
1.00000000000000E+20
  9
$PEXTMAX
 10
-1.00000000000000E+20
 20
-1.00000000000000E+20
 30
-1.00000000000000E+20
  9
$PLIMMIN
 10
0.0
 20
0.0
  9
$PLIMMAX
 10
12.0
 20
9.0
  9
$UNITMODE
 70
     0
  9
$VISRETAIN
 70
     1
  9
$PLINEGEN
 70
     0
  9
$PSLTSCALE
 70
     1
  9
$TREEDEPTH
 70
  3020
  9
$CMLSTYLE
  2
Standard
  9
$CMLJUST
 70
     0
  9
$CMLSCALE
 40
1.0
  9
$PROXYGRAPHICS
 70
     1
  9
$MEASUREMENT
 70
     1
  9
$CELWEIGHT
370
    -1
  9
$ENDCAPS
280
     0
  9
$JOINSTYLE
280
     0
  9
$LWDISPLAY
290
     0
  9
$INSUNITS
 70
     1
  9
$HYPERLINKBASE
  1

  9
$STYLESHEET
  1

  9
$XEDIT
290
     1
  9
$CEPSNTYPE
380
     0
  9
$PSTYLEMODE
290
     0
  9
$FINGERPRINTGUID
  2
{FAEB1C30-E019-11D5-929B-00C0DF256EC4}
  9
$VERSIONGUID
  2
{FAEB1C32-E019-11D5-929B-00C0DF256EC4}
  9
$EXTNAMES
290
     1
  9
$PSVPSCALE
 40
0.0
  9
$OLESTARTUP
290
     0
  0
ENDSEC
  0
SECTION
  2
CLASSES
  0
CLASS
  1
ACDBDICTIONARYWDFLT
  2
AcDbDictionaryWithDefault
  3
ObjectDBX Classes
 90
        0
280
     0
281
     0
  0
CLASS
  1
TABLESTYLE
  2
AcDbTableStyle
  3
ObjectDBX Classes
 90
     2047
280
     0
281
     0
  0
CLASS
  1
DICTIONARYVAR
  2
AcDbDictionaryVar
  3
ObjectDBX Classes
 90
        0
280
     0
281
     0
  0
CLASS
  1

  2
exOdDbCircle
  3

 90
        0
280
     0
281
     1
  0
CLASS
  1

  2
exOdDbSpline
  3

 90
        0
280
     0
281
     1
  0
CLASS
  1
ACDBPLACEHOLDER
  2
AcDbPlaceHolder
  3
ObjectDBX Classes
 90
        0
280
     0
281
     0
  0
CLASS
  1
LAYOUT
  2
AcDbLayout
  3
ObjectDBX Classes
 90
        0
280
     0
281
     0
  0
ENDSEC
  0
SECTION
  2
TABLES
  0
TABLE
  2
VPORT
  5
8
330
0
100
AcDbSymbolTable
 70
     2
  0
VPORT
  5
29
330
8
100
AcDbSymbolTableRecord
100
AcDbViewportTableRecord
  2
*Active
 70
     0
 10
0.0
 20
0.0
 11
1.0
 21
1.0
 12
262.5
 22
371.25
 13
0.0
 23
0.0
 14
0.5
 24
0.5
 15
0.5
 25
0.5
 16
0.0
 26
0.0
 36
1.0
 17
0.0
 27
0.0
 37
0.0
 40
816.7500000000001
 41
1.60267857142857
 42
50.0
 43
0.0
 44
0.0
 50
0.0
 51
0.0
 71
     0
 72
   100
 73
     1
 74
     3
 75
     0
 76
     0
 77
     0
 78
     0
281
     0
 65
     1
110
0.0
120
0.0
130
0.0
111
1.0
121
0.0
131
0.0
112
0.0
122
1.0
132
0.0
 79
     0
146
0.0
  0
ENDTAB
  0
TABLE
  2
LTYPE
  5
5
330
0
100
AcDbSymbolTable
 70
     8
  0
LTYPE
  5
14
330
5
100
AcDbSymbolTableRecord
100
AcDbLinetypeTableRecord
  2
ByBlock
 70
     0
  3

 72
    65
 73
     0
 40
0.0
  0
LTYPE
  5
15
330
5
100
AcDbSymbolTableRecord
100
AcDbLinetypeTableRecord
  2
ByLayer
 70
     0
  3

 72
    65
 73
     0
 40
0.0
  0
LTYPE
  5
16
330
5
100
AcDbSymbolTableRecord
100
AcDbLinetypeTableRecord
  2
Continuous
 70
     0
  3
Solid line
 72
    65
 73
     0
 40
0.0
  0
LTYPE
  5
2E
330
5
100
AcDbSymbolTableRecord
100
AcDbLinetypeTableRecord
  2
DASHED
 70
     0
  3
Dashed
 72
    65
 73
     2
 40
15.0
 49
7.0
 74
     0
 49
-8.0
 74
     0
  0
LTYPE
  5
2F
330
5
100
AcDbSymbolTableRecord
100
AcDbLinetypeTableRecord
  2
DOTTED
 70
     0
  3
Dotted
 72
    65
 73
     2
 40
1.0
 49
0.0
 74
     0
 49
-1.0
 74
     0
  0
LTYPE
  5
30
330
5
100
AcDbSymbolTableRecord
100
AcDbLinetypeTableRecord
  2
DOT_CENTER
 70
     0
  3
Dot_Center
 72
    65
 73
     4
 40
14.0
 49
12.0
 74
     0
 49
-1.0
 74
     0
 49
0.0
 74
     0
 49
-1.0
 74
     0
  0
LTYPE
  5
31
330
5
100
AcDbSymbolTableRecord
100
AcDbLinetypeTableRecord
  2
LONG_DASHED
 70
     0
  3
Long_Dashed
 72
    65
 73
     2
 40
15.0
 49
10.0
 74
     0
 49
-5.0
 74
     0
  0
LTYPE
  5
32
330
5
100
AcDbSymbolTableRecord
100
AcDbLinetypeTableRecord
  2
DASH_CENTER
 70
     0
  3
Dash_Center
 72
    65
 73
     4
 40
14.0
 49
11.0
 74
     0
 49
-1.0
 74
     0
 49
1.0
 74
     0
 49
-1.0
 74
     0
  0
LTYPE
  5
33
330
5
100
AcDbSymbolTableRecord
100
AcDbLinetypeTableRecord
  2
PHANTOM
 70
     0
  3
Phantom
 72
    65
 73
     6
 40
13.0
 49
10.0
 74
     0
 49
-1.0
 74
     0
 49
0.0
 74
     0
 49
-1.0
 74
     0
 49
0.0
 74
     0
 49
-1.0
 74
     0
  0
LTYPE
  5
34
330
5
100
AcDbSymbolTableRecord
100
AcDbLinetypeTableRecord
  2
CENTER_DASH_DASH
 70
     0
  3
Center_Dash_Dash
 72
    65
 73
     6
 40
14.0
 49
9.0
 74
     0
 49
-1.0
 74
     0
 49
1.0
 74
     0
 49
-1.0
 74
     0
 49
1.0
 74
     0
 49
-1.0
 74
     0
  0
ENDTAB
  0
TABLE
  2
LAYER
  5
2
330
0
100
AcDbSymbolTable
 70
     2
  0
LAYER
  5
10
330
2
100
AcDbSymbolTableRecord
100
AcDbLayerTableRecord
  2
0
 70
     0
 62
     7
  6
Continuous
370
    -3
390
F
  0
LAYER
  5
35
330
2
100
AcDbSymbolTableRecord
100
AcDbLayerTableRecord
  2
1
 70
     0
 62
     7
  6
Continuous
370
    -3
390
F
  0
ENDTAB
  0
TABLE
  2
STYLE
  5
3
330
0
100
AcDbSymbolTable
 70
     3
  0
STYLE
  5
11
330
3
100
AcDbSymbolTableRecord
100
AcDbTextStyleTableRecord
  2
Standard
 70
     0
 40
0.0
 41
1.0
 50
0.0
 71
     0
 42
0.2
  3
txt
  4

  0
STYLE
  5
1FD
330
3
100
AcDbSymbolTableRecord
100
AcDbTextStyleTableRecord
  2
CONVERTER_1
 70
     0
 40
0.0
 41
0.89
 50
0.0
 71
     0
 42
0.2
  3
msmincho.ttc
  4

1001
ACAD
1000
MS Mincho
1071
    32785
  0
STYLE
  5
21E
330
3
100
AcDbSymbolTableRecord
100
AcDbTextStyleTableRecord
  2
CONVERTER_2
 70
     0
 40
0.0
 41
0.9
 50
0.0
 71
     0
 42
0.2
  3
txt.shx
  4

  0
ENDTAB
  0
TABLE
  2
VIEW
  5
6
330
0
100
AcDbSymbolTable
 70
     0
  0
ENDTAB
  0
TABLE
  2
UCS
  5
7
330
0
100
AcDbSymbolTable
 70
     0
  0
ENDTAB
  0
TABLE
  2
APPID
  5
9
330
0
100
AcDbSymbolTable
 70
     1
  0
APPID
  5
12
330
9
100
AcDbSymbolTableRecord
100
AcDbRegAppTableRecord
  2
ACAD
 70
     0
  0
ENDTAB
  0
TABLE
  2
DIMSTYLE
  5
A
330
0
100
AcDbSymbolTable
 70
     8
100
AcDbDimStyleTable
  0
DIMSTYLE
105
27
330
A
100
AcDbSymbolTableRecord
100
AcDbDimStyleTableRecord
  2
Standard
 70
     0
340
11
  0
DIMSTYLE
105
22F
102
{ACAD_REACTORS
330
230
102
}
330
A
100
AcDbSymbolTableRecord
100
AcDbDimStyleTableRecord
  2
ME10_DIM_0
 70
     0
 41
8.75
 42
0.0
 44
2.5
 73
     0
 74
     0
 77
     1
 78
     8
140
8.75
147
0.625
172
     1
173
     1
176
     2
177
     2
178
     7
271
     2
340
21E
  0
DIMSTYLE
105
23A
102
{ACAD_REACTORS
330
23B
102
}
330
A
100
AcDbSymbolTableRecord
100
AcDbDimStyleTableRecord
  2
ME10_DIM_1
 70
     0
 41
8.75
 42
0.0
 44
2.5
 73
     0
 74
     0
 77
     1
 78
     8
140
8.75
147
0.625
172
     1
173
     1
176
     2
177
     2
178
     7
271
     2
340
21E
  0
DIMSTYLE
105
245
102
{ACAD_REACTORS
330
246
102
}
330
A
100
AcDbSymbolTableRecord
100
AcDbDimStyleTableRecord
  2
ME10_DIM_2
 70
     0
  3
{\Fgdt;n}<>
 41
8.75
 42
0.0
 44
2.5
 73
     0
 74
     0
 77
     1
 78
     8
140
8.75
147
0.625
172
     1
173
     1
176
     2
177
     2
178
     7
271
     2
340
21E
  0
DIMSTYLE
105
250
102
{ACAD_REACTORS
330
251
102
}
330
A
100
AcDbSymbolTableRecord
100
AcDbDimStyleTableRecord
  2
ME10_DIM_3
 70
     0
 41
8.75
 42
0.0
 44
2.5
 73
     0
 74
     0
 77
     1
 78
     8
140
8.75
147
0.625
172
     1
173
     1
176
     2
177
     2
178
     7
271
     2
340
21E
  0
DIMSTYLE
105
25B
102
{ACAD_REACTORS
330
25C
102
}
330
A
100
AcDbSymbolTableRecord
100
AcDbDimStyleTableRecord
  2
ME10_DIM_4
 70
     0
 41
8.75
 42
0.0
 44
2.5
 73
     0
 74
     0
 77
     1
 78
     8
140
8.75
147
0.625
172
     1
173
     1
176
     2
177
     2
178
     7
271
     2
340
21E
  0
DIMSTYLE
105
266
102
{ACAD_REACTORS
330
267
102
}
330
A
100
AcDbSymbolTableRecord
100
AcDbDimStyleTableRecord
  2
ME10_DIM_5
 70
     0
 41
8.75
 42
0.0
 44
2.5
 73
     0
 74
     0
 77
     1
 78
     8
140
8.75
147
0.625
172
     1
173
     1
176
     2
177
     2
178
     7
271
     0
340
1FD
  0
DIMSTYLE
105
274
102
{ACAD_REACTORS
330
275
102
}
330
A
100
AcDbSymbolTableRecord
100
AcDbDimStyleTableRecord
  2
ME10_DIM_6
 70
     0
 41
8.75
 42
0.0
 44
2.5
 73
     0
 74
     0
 77
     1
 78
     8
140
8.75
147
0.625
172
     1
173
     1
176
     2
177
     2
178
     7
271
     2
340
21E
343
271
  0
ENDTAB
  0
TABLE
  2
BLOCK_RECORD
  5
1
330
0
100
AcDbSymbolTable
 70
    20
  0
BLOCK_RECORD
  5
1F
330
1
100
AcDbSymbolTableRecord
100
AcDbBlockTableRecord
  2
*Model_Space
340
22
  0
BLOCK_RECORD
  5
1B
330
1
100
AcDbSymbolTableRecord
100
AcDbBlockTableRecord
  2
*Paper_Space
340
1E
  0
BLOCK_RECORD
  5
23
330
1
100
AcDbSymbolTableRecord
100
AcDbBlockTableRecord
  2
*Paper_Space0
340
26
  0
BLOCK_RECORD
  5
36
330
1
100
AcDbSymbolTableRecord
100
AcDbBlockTableRecord
  2
51-1
340
0
102
{BLKREFS
331
3D
102
}
  0
BLOCK_RECORD
  5
39
330
1
100
AcDbSymbolTableRecord
100
AcDbBlockTableRecord
  2
42-1
340
0
102
{BLKREFS
331
3E
102
}
  0
BLOCK_RECORD
  5
3C
330
1
100
AcDbSymbolTableRecord
100
AcDbBlockTableRecord
  2
R20F
340
0
102
{BLKREFS
331
48
102
}
  0
BLOCK_RECORD
  5
41
330
1
100
AcDbSymbolTableRecord
100
AcDbBlockTableRecord
  2
37-1-13
340
0
102
{BLKREFS
331
49
102
}
  0
BLOCK_RECORD
  5
44
330
1
100
AcDbSymbolTableRecord
100
AcDbBlockTableRecord
  2
36-1A-13-M4
340
0
102
{BLKREFS
331
4A
102
}
  0
BLOCK_RECORD
  5
47
330
1
100
AcDbSymbolTableRecord
100
AcDbBlockTableRecord
  2
R10A-13
340
0
102
{BLKREFS
331
5E
102
}
  0
BLOCK_RECORD
  5
4D
330
1
100
AcDbSymbolTableRecord
100
AcDbBlockTableRecord
  2
A20L-0-13
340
0
102
{BLKREFS
331
5F
102
}
  0
BLOCK_RECORD
  5
50
330
1
100
AcDbSymbolTableRecord
100
AcDbBlockTableRecord
  2
32-1-16
340
0
102
{BLKREFS
331
57
102
}
  0
BLOCK_RECORD
  5
53
330
1
100
AcDbSymbolTableRecord
100
AcDbBlockTableRecord
  2
61-1-16-170
340
0
102
{BLKREFS
331
58
102
}
  0
BLOCK_RECORD
  5
56
330
1
100
AcDbSymbolTableRecord
100
AcDbBlockTableRecord
  2
A20J-60X-16
340
0
102
{BLKREFS
331
60
102
}
  0
BLOCK_RECORD
  5
5B
330
1
100
AcDbSymbolTableRecord
100
AcDbBlockTableRecord
  2
_J__A4
340
0
102
{BLKREFS
331
61
102
}
  0
BLOCK_RECORD
  5
226
330
1
100
AcDbSymbolTableRecord
100
AcDbBlockTableRecord
  2
*D012
340
0
  0
BLOCK_RECORD
  5
231
330
1
100
AcDbSymbolTableRecord
100
AcDbBlockTableRecord
  2
*D113
340
0
  0
BLOCK_RECORD
  5
23C
330
1
100
AcDbSymbolTableRecord
100
AcDbBlockTableRecord
  2
*D214
340
0
  0
BLOCK_RECORD
  5
247
330
1
100
AcDbSymbolTableRecord
100
AcDbBlockTableRecord
  2
*D315
340
0
  0
BLOCK_RECORD
  5
252
330
1
100
AcDbSymbolTableRecord
100
AcDbBlockTableRecord
  2
*D416
340
0
  0
BLOCK_RECORD
  5
25D
330
1
100
AcDbSymbolTableRecord
100
AcDbBlockTableRecord
  2
*D517
340
0
  0
BLOCK_RECORD
  5
268
330
1
100
AcDbSymbolTableRecord
100
AcDbBlockTableRecord
  2
*D618
340
0
  0
BLOCK_RECORD
  5
271
330
1
100
AcDbSymbolTableRecord
100
AcDbBlockTableRecord
  2
_None
340
0
  0
ENDTAB
  0
ENDSEC
  0
SECTION
  2
BLOCKS
  0
BLOCK
  5
20
330
1F
100
AcDbEntity
  8
0
100
AcDbBlockBegin
  2
*Model_Space
 70
     0
 71
     0
 10
0.0
 20
0.0
 30
0.0
  3
*Model_Space
  1

  0
ENDBLK
  5
21
330
1F
100
AcDbEntity
  8
0
100
AcDbBlockEnd
  0
BLOCK
  5
1C
330
1B
100
AcDbEntity
 67
     1
  8
0
100
AcDbBlockBegin
  2
*Paper_Space
 70
     0
 71
     0
 10
0.0
 20
0.0
 30
0.0
  3
*Paper_Space
  1

  0
ENDBLK
  5
1D
330
1B
100
AcDbEntity
 67
     1
  8
0
100
AcDbBlockEnd
  0
BLOCK
  5
24
330
23
100
AcDbEntity
  8
0
100
AcDbBlockBegin
  2
*Paper_Space0
 70
     0
 71
     0
 10
0.0
 20
0.0
 30
0.0
  3
*Paper_Space0
  1

  0
ENDBLK
  5
25
330
23
100
AcDbEntity
  8
0
100
AcDbBlockEnd
  0
BLOCK
  5
37
330
36
100
AcDbEntity
  8
0
100
AcDbBlockBegin
  2
51-1
 70
     0
 71
     0
 10
910.6685254457482
 20
319.0428782458722
 30
0.0
  3
51-1
  1

  0
LINE
  5
62
330
36
100
AcDbEntity
  8
1
  6
Continuous
 62
     7
100
AcDbLine
 10
395.1267074134355
 20
251.2176887810471
 30
0.0
 11
392.2397985080681
 21
251.2176887810471
 31
0.0
  0
LINE
  5
63
330
36
100
AcDbEntity
  8
1
  6
Continuous
 62
     7
100
AcDbLine
 10
395.6267074134355
 20
202.2176887810471
 30
0.0
 11
395.6267074134355
 21
250.7176887810471
 31
0.0
  0
LINE
  5
64
330
36
100
AcDbEntity
  8
1
  6
Continuous
 62
     7
100
AcDbLine
 10
395.1267074134355
 20
201.7176887810471
 30
0.0
 11
392.6517579910258
 21
201.7176887810471
 31
0.0
  0
LINE
  5
65
330
36
100
AcDbEntity
  8
1
  6
Continuous
 62
     7
100
AcDbLine
 10
398.6267074134357
 20
491.0398788149665
 30
0.0
 11
398.6267074134357
 21
545.3411490041884
 31
0.0
  0
LINE
  5
66
330
36
100
AcDbEntity
  8
1
  6
Continuous
 62
     7
100
AcDbLine
 10
394.841627658085
 20
490.9966528795881
 30
0.0
 11
398.0571208629556
 21
490.5447447805955
 31
0.0
  0
LINE
  5
67
330
36
100
AcDbEntity
  8
1
  6
Continuous
 62
     7
100
AcDbLine
 10
398.0571208629558
 20
545.836283038559
 30
0.0
 11
394.841627658085
 21
545.3843749395667
 31
0.0
  0
LINE
  5
68
330
36
100
AcDbEntity
  8
1
  6
PHANTOM
 62
     4
100
AcDbLine
 10
135.9750287222076
 20
230.9052255040043
 30
0.0
 11
186.5281676272183
 21
201.7183571488158
 31
0.0
  0
LINE
  5
69
330
36
100
AcDbEntity
  8
1
  6
PHANTOM
 62
     4
100
AcDbLine
 10
173.6324164635332
 20
231.2716550075228
 30
0.0
 11
122.4446030410363
 21
201.7183571488158
 31
0.0
  0
LINE
  5
6A
330
36
100
AcDbEntity
  8
1
  6
Continuous
 62
     7
100
AcDbLine
 10
145.0394211649225
 20
233.1433583552296
 30
0.0
 11
148.6908303763929
 21
246.7706030516625
 31
0.0
  0
LINE
  5
6B
330
36
100
AcDbEntity
  8
1
  6
Continuous
 62
     7
100
AcDbLine
 10
138.5689450373594
 20
221.9361649531289
 30
0.0
 11
128.5931095523971
 21
211.9603294681666
 31
0.0
  0
LINE
  5
6C
330
36
100
AcDbEntity
  8
1
  6
Continuous
 62
     7
100
AcDbLine
 10
148.0159092065643
 20
205.5735430347834
 30
0.0
 11
134.3886645101314
 21
201.9221338233129
 31
0.0
  0
LINE
  5
6D
330
36
100
AcDbEntity
  8
1
  6
Continuous
 62
     7
100
AcDbLine
 10
163.9333495033321
 20
233.1433583552296
 30
0.0
 11
160.2819402918617
 21
246.7706030516625
 31
0.0
  0
LINE
  5
6E
330
36
100
AcDbEntity
  8
1
  6
Continuous
 62
     7
100
AcDbLine
 10
160.9568614616903
 20
205.5735430347834
 30
0.0
 11
175.3446110607437
 21
201.7183571488158
 31
0.0
  0
LINE
  5
6F
330
36
100
AcDbEntity
  8
1
  6
Continuous
 62
     7
100
AcDbLine
 10
170.4038256308952
 20
221.9361649531289
 30
0.0
 11
180.3796611158575
 21
211.9603294681666
 31
0.0
  0
ARC
  5
70
330
36
100
AcDbEntity
  8
1
  6
Continuous
 62
     7
100
AcDbCircle
 10
532.6583734908559
 20
220.317688781047
 30
0.0
 40
148.6092050572047
100
AcDbArc
 50
169.9467723624969
 51
178.1490542031311
  0
ARC
  5
71
330
36
100
AcDbEntity
  8
1
  6
Continuous
 62
     7
100
AcDbCircle
 10
405.6868721784256
 20
218.2688069684368
 30
0.0
 40
21.76119949013524
100
AcDbArc
 50
-172.2058875849479
 51
-158.443205289032
  0
ARC
  5
72
330
36
100
AcDbEntity
  8
1
  6
Continuous
 62
     7
100
AcDbCircle
 10
462.800040668817
 20
233.2217336395828
 30
0.0
 40
80.64072525632041
100
AcDbArc
 50
-163.1921064852488
 51
-160.0200832208879
  0
ARC
  5
73
330
36
100
AcDbEntity
  8
1
  6
Continuous
 62
     7
100
AcDbCircle
 10
514.74685995376
 20
523.2834073331844
 30
0.0
 40
127.9436752841997
100
AcDbArc
 50
-175.924581761935
 51
-167.6492054103801
  0
ARC
  5
74
330
36
100
AcDbEntity
  8
1
  6
Continuous
 62
     7
100
AcDbCircle
 10
514.74685995376
 20
513.0976204859704
 30
0.0
 40
127.9436752841999
100
AcDbArc
 50
167.6492054103802
 51
175.9245817619349
  0
ARC
  5
75
330
36
100
AcDbEntity
  8
1
  6
Continuous
 62
     7
100
AcDbCircle
 10
154.4863853341273
 20
245.2176887810472
 30
0.0
 40
6.0
100
AcDbArc
 50
90.0
 51
164.9999999999983
  0
ARC
  5
76
330
36
100
AcDbEntity
  8
1
  6
Continuous
 62
     7
100
AcDbCircle
 10
132.8357502395164
 20
207.7176887810473
 30
0.0
 40
6.000000000000028
100
AcDbArc
 50
134.9999999999998
 51
-75.00000000000094
  0
ARC
  5
77
330
36
100
AcDbEntity
  8
1
  6
Continuous
 62
     7
100
AcDbCircle
 10
154.4863853341273
 20
245.2176887810472
 30
0.0
 40
6.000000000000033
100
AcDbArc
 50
15.00000000000169
 51
90.0
  0
ARC
  5
78
330
36
100
AcDbEntity
  8
1
  6
Continuous
 62
     7
100
AcDbCircle
 10
176.1370204287383
 20
207.7176887810473
 30
0.0
 40
5.999999999999946
100
AcDbArc
 50
-97.52424107894063
 51
45.00000000000096
  0
ARC
  5
79
330
36
100
AcDbEntity
  8
1
  6
Continuous
 62
     7
100
AcDbCircle
 10
395.1267074134355
 20
250.7176887810471
 30
0.0
 40
0.5
100
AcDbArc
 50
0.0
 51
90.0
  0
ARC
  5
7A
330
36
100
AcDbEntity
  8
1
  6
Continuous
 62
     7
100
AcDbCircle
 10
392.2397985080681
 20
245.2176887810471
 30
0.0
 40
6.0
100
AcDbArc
 50
90.0
 51
170.002156512433
  0
ARC
  5
7B
330
36
100
AcDbEntity
  8
1
  6
Continuous
 62
     7
100
AcDbCircle
 10
391.0485172764935
 20
212.4253973775564
 30
0.0
 40
6.000000000000084
100
AcDbArc
 50
-158.9800012335093
 51
-155.1440210778819
  0
ARC
  5
7C
330
36
100
AcDbEntity
  8
1
  6
Continuous
 62
     7
100
AcDbCircle
 10
395.1267074134355
 20
202.2176887810471
 30
0.0
 40
0.5
100
AcDbArc
 50
-90.0
 51
0.0
  0
ARC
  5
7D
330
36
100
AcDbEntity
  8
1
  6
Continuous
 62
     7
100
AcDbCircle
 10
392.6517579910258
 20
207.7176887810471
 30
0.0
 40
5.999999999999976
100
AcDbArc
 50
-160.0200832208882
 51
-90.0
  0
ARC
  5
7E
330
36
100
AcDbEntity
  8
1
  6
Continuous
 62
     7
100
AcDbCircle
 10
395.6766662638454
 20
496.9382612920376
 30
0.0
 40
6.000000000000184
100
AcDbArc
 50
-170.1970982062294
 51
-98.00000000000011
  0
ARC
  5
7F
330
36
100
AcDbEntity
  8
1
  6
Continuous
 62
     7
100
AcDbCircle
 10
398.1267074134357
 20
491.0398788149665
 30
0.0
 40
0.5000000000002273
100
AcDbArc
 50
-98.0000000000037
 51
0.0
  0
ARC
  5
80
330
36
100
AcDbEntity
  8
1
  6
Continuous
 62
     7
100
AcDbCircle
 10
398.1267074134357
 20
545.3411490041884
 30
0.0
 40
0.5
100
AcDbArc
 50
0.0
 51
97.99999999999069
  0
ARC
  5
81
330
36
100
AcDbEntity
  8
1
  6
Continuous
 62
     7
100
AcDbCircle
 10
395.6766662638454
 20
539.4427665271173
 30
0.0
 40
5.999999999999923
100
AcDbArc
 50
98.00000000000034
 51
170.1970982062321
  0
ARC
  5
82
330
36
100
AcDbEntity
  8
1
  6
Continuous
 62
     7
100
AcDbCircle
 10
120.8912755076957
 20
239.6138344827926
 30
0.0
 40
25.00000000000004
100
AcDbArc
 50
-45.0
 51
-14.99999999999995
  0
ARC
  5
83
330
36
100
AcDbEntity
  8
1
  6
Continuous
 62
     7
100
AcDbCircle
 10
154.4863853341273
 20
181.4253973775567
 30
0.0
 40
24.99999999999999
100
AcDbArc
 50
75.00000000000007
 51
105.0
  0
ARC
  5
84
330
36
100
AcDbEntity
  8
1
  6
Continuous
 62
     7
100
AcDbCircle
 10
188.0814951605589
 20
239.6138344827926
 30
0.0
 40
25.00000000000008
100
AcDbArc
 50
-165.0000000000001
 51
-134.9999999999999
  0
ENDBLK
  5
38
330
36
100
AcDbEntity
  8
0
100
AcDbBlockEnd
  0
BLOCK
  5
3A
330
39
100
AcDbEntity
  8
0
100
AcDbBlockBegin
  2
42-1
 70
     0
 71
     0
 10
574.9163564230207
 20
308.3219488676506
 30
0.0
  3
42-1
  1

  0
LINE
  5
85
330
39
100
AcDbEntity
  8
1
  6
Continuous
 62
     7
100
AcDbLine
 10
381.1267074134353
 20
215.2176887810471
 30
0.0
 11
381.1267074134353
 21
225.2176887810471
 31
0.0
  0
LINE
  5
86
330
39
100
AcDbEntity
  8
1
  6
Continuous
 62
     7
100
AcDbLine
 10
380.7969416932316
 20
220.2176887810471
 30
0.0
 11
380.7969416932316
 21
225.9676887810471
 31
0.0
  0
LINE
  5
87
330
39
100
AcDbEntity
  8
1
  6
Continuous
 62
     2
100
AcDbLine
 10
383.1496084018744
 20
221.2176887810471
 30
0.0
 11
381.884369311264
 21
221.2176887810471
 31
0.0
  0
LINE
  5
88
330
39
100
AcDbEntity
  8
1
  6
Continuous
 62
     2
100
AcDbLine
 10
383.4091446255895
 20
222.2176887810471
 30
0.0
 11
381.6410541015313
 21
222.2176887810471
 31
0.0
  0
LINE
  5
89
330
39
100
AcDbEntity
  8
1
  6
Continuous
 62
     2
100
AcDbLine
 10
383.7660069331976
 20
223.2176887810471
 30
0.0
 11
381.430180919763
 21
223.2176887810471
 31
0.0
  0
LINE
  5
8A
330
39
100
AcDbEntity
  8
1
  6
Continuous
 62
     2
100
AcDbLine
 10
383.9606591009838
 20
224.2176887810471
 30
0.0
 11
381.3166338218875
 21
224.2176887810471
 31
0.0
  0
LINE
  5
8B
330
39
100
AcDbEntity
  8
1
  6
Continuous
 62
     2
100
AcDbLine
 10
384.1267074134353
 20
225.2176887810471
 30
0.0
 11
381.1267074134353
 21
225.2176887810471
 31
0.0
  0
LINE
  5
8C
330
39
100
AcDbEntity
  8
1
  6
Continuous
 62
     7
100
AcDbLine
 10
384.1267074134353
 20
213.2176887810471
 30
0.0
 11
384.1267074134353
 21
227.2176887810471
 31
0.0
  0
LINE
  5
8D
330
39
100
AcDbEntity
  8
1
  6
Continuous
 62
     7
100
AcDbLine
 10
381.1267074134353
 20
225.2176887810471
 30
0.0
 11
381.1267074134353
 21
226.2176887810471
 31
0.0
  0
LINE
  5
8E
330
39
100
AcDbEntity
  8
1
  6
Continuous
 62
     2
100
AcDbLine
 10
384.1267074134353
 20
226.2176887810471
 30
0.0
 11
381.1267074134353
 21
226.2176887810471
 31
0.0
  0
LINE
  5
8F
330
39
100
AcDbEntity
  8
1
  6
Continuous
 62
     7
100
AcDbLine
 10
381.1267074134353
 20
226.2176887810471
 30
0.0
 11
381.1267074134353
 21
227.2176887810471
 31
0.0
  0
LINE
  5
90
330
39
100
AcDbEntity
  8
1
  6
Continuous
 62
     7
100
AcDbLine
 10
380.8573852144122
 20
226.2176887810472
 30
0.0
 11
381.1267074134353
 21
227.2176887810471
 31
0.0
  0
LINE
  5
91
330
39
100
AcDbEntity
  8
1
  6
Continuous
 62
     7
100
AcDbLine
 10
381.1267074134353
 20
227.2176887810471
 30
0.0
 11
384.1267074134353
 21
227.2176887810471
 31
0.0
  0
LINE
  5
92
330
39
100
AcDbEntity
  8
1
  6
Continuous
 62
     7
100
AcDbLine
 10
384.1267074134353
 20
213.2176887810471
 30
0.0
 11
381.1267074134353
 21
213.2176887810471
 31
0.0
  0
LINE
  5
93
330
39
100
AcDbEntity
  8
1
  6
Continuous
 62
     7
100
AcDbLine
 10
381.1267074134353
 20
213.2176887810471
 30
0.0
 11
380.8573852144122
 21
214.2176887810471
 31
0.0
  0
LINE
  5
94
330
39
100
AcDbEntity
  8
1
  6
Continuous
 62
     7
100
AcDbLine
 10
381.1267074134353
 20
213.2176887810471
 30
0.0
 11
381.1267074134353
 21
214.2176887810471
 31
0.0
  0
LINE
  5
95
330
39
100
AcDbEntity
  8
1
  6
Continuous
 62
     2
100
AcDbLine
 10
381.1267074134353
 20
214.2176887810471
 30
0.0
 11
384.1267074134353
 21
214.2176887810471
 31
0.0
  0
LINE
  5
96
330
39
100
AcDbEntity
  8
1
  6
Continuous
 62
     7
100
AcDbLine
 10
381.1267074134353
 20
214.2176887810471
 30
0.0
 11
381.1267074134353
 21
215.2176887810471
 31
0.0
  0
LINE
  5
97
330
39
100
AcDbEntity
  8
1
  6
Continuous
 62
     2
100
AcDbLine
 10
381.1267074134353
 20
215.2176887810471
 30
0.0
 11
384.1267074134353
 21
215.2176887810471
 31
0.0
  0
LINE
  5
98
330
39
100
AcDbEntity
  8
1
  6
Continuous
 62
     2
100
AcDbLine
 10
381.3166338218875
 20
216.2176887810471
 30
0.0
 11
383.9606591009838
 21
216.2176887810471
 31
0.0
  0
LINE
  5
99
330
39
100
AcDbEntity
  8
1
  6
Continuous
 62
     2
100
AcDbLine
 10
381.430180919763
 20
217.2176887810471
 30
0.0
 11
383.7660069331976
 21
217.2176887810471
 31
0.0
  0
LINE
  5
9A
330
39
100
AcDbEntity
  8
1
  6
Continuous
 62
     2
100
AcDbLine
 10
381.6410541015313
 20
218.2176887810471
 30
0.0
 11
383.4091446255895
 21
218.2176887810471
 31
0.0
  0
LINE
  5
9B
330
39
100
AcDbEntity
  8
1
  6
Continuous
 62
     2
100
AcDbLine
 10
381.884369311264
 20
219.2176887810471
 30
0.0
 11
383.1496084018744
 21
219.2176887810471
 31
0.0
  0
LINE
  5
9C
330
39
100
AcDbEntity
  8
1
  6
Continuous
 62
     7
100
AcDbLine
 10
380.7969416932316
 20
214.4676887810471
 30
0.0
 11
380.7969416932316
 21
220.2176887810471
 31
0.0
  0
LINE
  5
9D
330
39
100
AcDbEntity
  8
1
  6
Continuous
 62
     2
100
AcDbLine
 10
384.8843693112645
 20
517.1905139095777
 30
0.0
 11
386.1496084018749
 21
517.1905139095777
 31
0.0
  0
LINE
  5
9E
330
39
100
AcDbEntity
  8
1
  6
Continuous
 62
     2
100
AcDbLine
 10
384.6410541015317
 20
516.1905139095777
 30
0.0
 11
386.4091446255902
 21
516.1905139095777
 31
0.0
  0
LINE
  5
9F
330
39
100
AcDbEntity
  8
1
  6
Continuous
 62
     2
100
AcDbLine
 10
384.4301809197634
 20
515.1905139095777
 30
0.0
 11
386.766006933198
 21
515.1905139095777
 31
0.0
  0
LINE
  5
A0
330
39
100
AcDbEntity
  8
1
  6
Continuous
 62
     2
100
AcDbLine
 10
384.3166338218882
 20
514.1905139095777
 30
0.0
 11
386.9606591009843
 21
514.1905139095777
 31
0.0
  0
LINE
  5
A1
330
39
100
AcDbEntity
  8
1
  6
Continuous
 62
     2
100
AcDbLine
 10
384.1267074134353
 20
513.1905139095777
 30
0.0
 11
387.1267074134357
 21
513.1905139095777
 31
0.0
  0
LINE
  5
A2
330
39
100
AcDbEntity
  8
1
  6
Continuous
 62
     2
100
AcDbLine
 10
384.1267074134353
 20
512.1905139095775
 30
0.0
 11
387.1267074134357
 21
512.1905139095775
 31
0.0
  0
LINE
  5
A3
330
39
100
AcDbEntity
  8
1
  6
Continuous
 62
     7
100
AcDbLine
 10
384.1267074134353
 20
511.1905139095775
 30
0.0
 11
383.8573852144127
 21
512.1905139095775
 31
0.0
  0
LINE
  5
A4
330
39
100
AcDbEntity
  8
1
  6
Continuous
 62
     7
100
AcDbLine
 10
387.1267074134357
 20
511.1905139095775
 30
0.0
 11
384.1267074134353
 21
511.1905139095775
 31
0.0
  0
LINE
  5
A5
330
39
100
AcDbEntity
  8
1
  6
Continuous
 62
     7
100
AcDbLine
 10
384.1267074134353
 20
525.1905139095775
 30
0.0
 11
387.1267074134357
 21
525.1905139095775
 31
0.0
  0
LINE
  5
A6
330
39
100
AcDbEntity
  8
1
  6
Continuous
 62
     7
100
AcDbLine
 10
383.8573852144127
 20
524.1905139095777
 30
0.0
 11
384.1267074134353
 21
525.1905139095775
 31
0.0
  0
LINE
  5
A7
330
39
100
AcDbEntity
  8
1
  6
Continuous
 62
     2
100
AcDbLine
 10
387.1267074134357
 20
524.1905139095775
 30
0.0
 11
384.1267074134353
 21
524.1905139095775
 31
0.0
  0
LINE
  5
A8
330
39
100
AcDbEntity
  8
1
  6
Continuous
 62
     7
100
AcDbLine
 10
387.1267074134357
 20
511.1905139095775
 30
0.0
 11
387.1267074134357
 21
525.1905139095775
 31
0.0
  0
LINE
  5
A9
330
39
100
AcDbEntity
  8
1
  6
Continuous
 62
     2
100
AcDbLine
 10
387.1267074134357
 20
523.1905139095775
 30
0.0
 11
384.1267074134353
 21
523.1905139095775
 31
0.0
  0
LINE
  5
AA
330
39
100
AcDbEntity
  8
1
  6
Continuous
 62
     2
100
AcDbLine
 10
386.9606591009843
 20
522.1905139095775
 30
0.0
 11
384.3166338218882
 21
522.1905139095775
 31
0.0
  0
LINE
  5
AB
330
39
100
AcDbEntity
  8
1
  6
Continuous
 62
     2
100
AcDbLine
 10
386.766006933198
 20
521.1905139095775
 30
0.0
 11
384.4301809197634
 21
521.1905139095775
 31
0.0
  0
LINE
  5
AC
330
39
100
AcDbEntity
  8
1
  6
Continuous
 62
     2
100
AcDbLine
 10
386.4091446255902
 20
520.1905139095775
 30
0.0
 11
384.6410541015317
 21
520.1905139095775
 31
0.0
  0
LINE
  5
AD
330
39
100
AcDbEntity
  8
1
  6
Continuous
 62
     2
100
AcDbLine
 10
386.1496084018749
 20
519.1905139095775
 30
0.0
 11
384.8843693112645
 21
519.1905139095775
 31
0.0
  0
LINE
  5
AE
330
39
100
AcDbEntity
  8
1
  6
Continuous
 62
     7
100
AcDbLine
 10
383.796941693232
 20
512.4405139095777
 30
0.0
 11
383.796941693232
 21
523.9405139095775
 31
0.0
  0
LINE
  5
AF
330
39
100
AcDbEntity
  8
1
  6
Continuous
 62
     7
100
AcDbLine
 10
384.1267074134353
 20
511.1905139095775
 30
0.0
 11
384.1267074134353
 21
525.1905139095775
 31
0.0
  0
ARC
  5
B0
330
39
100
AcDbEntity
  8
1
  6
Continuous
 62
     7
100
AcDbCircle
 10
405.1267074134353
 20
220.2176887810471
 30
0.0
 40
25.00000000000002
100
AcDbArc
 50
166.702928252791
 51
180.0
  0
ARC
  5
B1
330
39
100
AcDbEntity
  8
1
  6
Continuous
 62
     7
100
AcDbCircle
 10
405.1267074134353
 20
220.2176887810471
 30
0.0
 40
24.99999999999996
100
AcDbArc
 50
166.1134596373707
 51
166.702928252791
  0
ARC
  5
B2
330
39
100
AcDbEntity
  8
1
  6
Continuous
 62
     7
100
AcDbCircle
 10
405.1267074134353
 20
220.2176887810471
 30
0.0
 40
25.00000000000002
100
AcDbArc
 50
-166.702928252791
 51
-166.113459637371
  0
ARC
  5
B3
330
39
100
AcDbEntity
  8
1
  6
Continuous
 62
     7
100
AcDbCircle
 10
405.1267074134353
 20
220.2176887810471
 30
0.0
 40
25.0
100
AcDbArc
 50
180.0
 51
-166.702928252791
  0
ARC
  5
B4
330
39
100
AcDbEntity
  8
1
  6
Continuous
 62
     7
100
AcDbCircle
 10
408.1267074134358
 20
518.1905139095775
 30
0.0
 40
25.00000000000006
100
AcDbArc
 50
180.0
 51
-166.113459637371
  0
ARC
  5
B5
330
39
100
AcDbEntity
  8
1
  6
Continuous
 62
     7
100
AcDbCircle
 10
408.1267074134358
 20
518.1905139095775
 30
0.0
 40
24.99999999999993
100
AcDbArc
 50
166.1134596373705
 51
180.0
  0
CIRCLE
  5
B6
330
39
100
AcDbEntity
  8
0
  6
Continuous
 62
     7
100
AcDbCircle
 10
154.4863853341266
 20
220.217688781047
 30
0.0
 40
5.74999999999929
  0
CIRCLE
  5
B7
330
39
100
AcDbEntity
  8
0
  6
Continuous
 62
     7
100
AcDbCircle
 10
154.4863853341266
 20
220.217688781047
 30
0.0
 40
6.999999999999687
  0
ENDBLK
  5
3B
330
39
100
AcDbEntity
  8
0
100
AcDbBlockEnd
  0
BLOCK
  5
3F
330
3C
100
AcDbEntity
  8
0
100
AcDbBlockBegin
  2
R20F
 70
     0
 71
     0
 10
382.5281676272183
 20
201.7929144931214
 30
0.0
  3
R20F
  1

  0
INSERT
  5
3D
330
3C
100
AcDbEntity
  8
1
100
AcDbBlockReference
  2
51-1
 10
910.6685254457482
 20
319.0428782458722
 30
0.0
  0
INSERT
  5
3E
330
3C
100
AcDbEntity
  8
0
100
AcDbBlockReference
  2
42-1
 10
574.9163564230207
 20
308.3219488676506
 30
0.0
  0
LINE
  5
B8
330
3C
100
AcDbEntity
  8
1
  6
PHANTOM
 62
     4
100
AcDbLine
 10
401.1970836210801
 20
220.2176887810471
 30
0.0
 11
409.1267074134357
 21
220.2176887810471
 31
0.0
  0
ENDBLK
  5
40
330
3C
100
AcDbEntity
  8
0
100
AcDbBlockEnd
  0
BLOCK
  5
42
330
41
100
AcDbEntity
  8
0
100
AcDbBlockBegin
  2
37-1-13
 70
     0
 71
     0
 10
554.1224133035804
 20
312.0189189978181
 30
0.0
  3
37-1-13
  1

  0
LINE
  5
B9
330
41
100
AcDbEntity
  8
1
  6
Continuous
 62
     7
100
AcDbLine
 10
409.6267074134357
 20
207.7176887810473
 30
0.0
 11
409.6267074134358
 21
220.2176887810471
 31
0.0
  0
LINE
  5
BA
330
41
100
AcDbEntity
  8
1
  6
Continuous
 62
     7
100
AcDbLine
 10
409.6267074134358
 20
220.2176887810471
 30
0.0
 11
409.6267074134357
 21
232.717688781047
 31
0.0
  0
LINE
  5
BB
330
41
100
AcDbEntity
  8
1
  6
Continuous
 62
     7
100
AcDbLine
 10
417.1267074134358
 20
233.2884029953186
 30
0.0
 11
417.1267074134358
 21
207.1469745667757
 31
0.0
  0
LINE
  5
BC
330
41
100
AcDbEntity
  8
1
  6
Continuous
 62
     7
100
AcDbLine
 10
403.1267074134357
 20
226.2176887810471
 30
0.0
 11
403.1267074134357
 21
214.2176887810471
 31
0.0
  0
LINE
  5
BD
330
41
100
AcDbEntity
  8
1
  6
Continuous
 62
     7
100
AcDbLine
 10
409.6267074134357
 20
505.6905139095778
 30
0.0
 11
409.6267074134358
 21
518.1905139095775
 31
0.0
  0
LINE
  5
BE
330
41
100
AcDbEntity
  8
1
  6
Continuous
 62
     7
100
AcDbLine
 10
417.1267074134358
 20
518.1905139095775
 30
0.0
 11
417.1267074134358
 21
505.1905139095775
 31
0.0
  0
LINE
  5
BF
330
41
100
AcDbEntity
  8
1
  6
Continuous
 62
     7
100
AcDbLine
 10
403.1267074134358
 20
518.1905139095775
 30
0.0
 11
403.1267074134358
 21
512.1905139095775
 31
0.0
  0
LINE
  5
C0
330
41
100
AcDbEntity
  8
1
  6
Continuous
 62
     7
100
AcDbLine
 10
410.0559931991643
 20
505.1905139095775
 30
0.0
 11
417.1267074134358
 21
505.1905139095775
 31
0.0
  0
LINE
  5
C1
330
41
100
AcDbEntity
  8
1
  6
Continuous
 62
     7
100
AcDbLine
 10
409.6267074134358
 20
518.1905139095775
 30
0.0
 11
409.6267074134357
 21
530.6905139095773
 31
0.0
  0
LINE
  5
C2
330
41
100
AcDbEntity
  8
1
  6
Continuous
 62
     7
100
AcDbLine
 10
417.1267074134358
 20
531.1905139095775
 30
0.0
 11
417.1267074134358
 21
518.1905139095775
 31
0.0
  0
LINE
  5
C3
330
41
100
AcDbEntity
  8
1
  6
Continuous
 62
     7
100
AcDbLine
 10
403.1267074134358
 20
524.1905139095775
 30
0.0
 11
403.1267074134358
 21
518.1905139095775
 31
0.0
  0
LINE
  5
C4
330
41
100
AcDbEntity
  8
1
  6
Continuous
 62
     7
100
AcDbLine
 10
417.1267074134358
 20
531.1905139095775
 30
0.0
 11
410.0559931991643
 21
531.1905139095775
 31
0.0
  0
ARC
  5
C5
330
41
100
AcDbEntity
  8
1
  6
Continuous
 62
     7
100
AcDbCircle
 10
389.7202522083209
 20
194.3112335759322
 30
0.0
 40
24.0
100
AcDbArc
 50
33.95919250009798
 51
56.04080749990269
  0
ARC
  5
C6
330
41
100
AcDbEntity
  8
1
  6
Continuous
 62
     7
100
AcDbCircle
 10
413.6267074134358
 20
210.7176887810471
 30
0.0
 40
4.999999999999926
100
AcDbArc
 50
-143.1301023541582
 51
-45.57299599919402
  0
ARC
  5
C7
330
41
100
AcDbEntity
  8
1
  6
Continuous
 62
     7
100
AcDbCircle
 10
389.720252208321
 20
246.124143986162
 30
0.0
 40
23.99999999999988
100
AcDbArc
 50
-56.04080749990295
 51
-33.95919250009797
  0
ARC
  5
C8
330
41
100
AcDbEntity
  8
1
  6
Continuous
 62
     7
100
AcDbCircle
 10
413.6267074134358
 20
229.7176887810471
 30
0.0
 40
5.000000000000057
100
AcDbArc
 50
45.57299599919494
 51
143.1301023541572
  0
ARC
  5
C9
330
41
100
AcDbEntity
  8
1
  6
Continuous
 62
     7
100
AcDbCircle
 10
389.7202522083209
 20
492.2840587044627
 30
0.0
 40
24.0
100
AcDbArc
 50
33.95919250009798
 51
56.04080749990239
  0
ARC
  5
CA
330
41
100
AcDbEntity
  8
1
  6
Continuous
 62
     7
100
AcDbCircle
 10
413.6267074134358
 20
508.6905139095775
 30
0.0
 40
4.999999999999841
100
AcDbArc
 50
-143.1301023541595
 51
-135.5729959991949
  0
ARC
  5
CB
330
41
100
AcDbEntity
  8
1
  6
Continuous
 62
     7
100
AcDbCircle
 10
389.7202522083209
 20
544.0969691146922
 30
0.0
 40
23.99999999999983
100
AcDbArc
 50
-56.04080749990239
 51
-33.95919250009776
  0
ARC
  5
CC
330
41
100
AcDbEntity
  8
1
  6
Continuous
 62
     7
100
AcDbCircle
 10
413.6267074134358
 20
527.6905139095775
 30
0.0
 40
5.000000000000057
100
AcDbArc
 50
135.5729959991949
 51
143.1301023541585
  0
SPLINE
  5
CD
330
41
100
AcDbEntity
  8
1
  6
Continuous
 62
     7
100
AcDbSpline
210
0.0
220
0.0
230
1.0
 70
     8
 71
     3
 72
    29
 73
    25
 74
    23
 42
0.0000000001
 43
0.0000000001
 44
0.00000001
 40
0.0
 40
0.0
 40
0.0
 40
0.0
 40
0.6069077131759105
 40
1.212222625822746
 40
1.842666707826771
 40
2.474631900595325
 40
3.102420172365338
 40
3.729333891456365
 40
4.271042939833176
 40
4.812985328221206
 40
5.340107980728406
 40
5.866248927280171
 40
6.263874837343292
 40
6.661485236222394
 40
7.280966497568987
 40
7.902596738528144
 40
8.549168915178852
 40
9.195896772489238
 40
9.722415974179311
 40
10.24911841725708
 40
11.07897537274017
 40
11.90732207846639
 40
12.67331709995034
 40
13.44191271185832
 40
13.44191271185832
 40
13.44191271185832
 40
13.44191271185832
 10
410.1267074134358
 20
220.2176887810471
 30
0.0
 10
410.1365827868982
 20
220.4197486106045
 30
0.0
 10
410.1563076163733
 20
220.8233379732733
 30
0.0
 10
410.2200979704263
 20
221.4350435236119
 30
0.0
 10
410.3542812677437
 20
222.0444605855018
 30
0.0
 10
410.554736888428
 20
222.6428667610072
 30
0.0
 10
410.8132980052459
 20
223.2174292929027
 30
0.0
 10
411.1222273950173
 20
223.7323270905745
 30
0.0
 10
411.4760443195922
 20
224.1813459645726
 30
0.0
 10
411.864068987755
 20
224.5552875670638
 30
0.0
 10
412.3009993915179
 20
224.8622534685239
 30
0.0
 10
412.7412133586179
 20
225.0695621260576
 30
0.0
 10
413.1679224793028
 20
225.1854647143285
 30
0.0
 10
413.6388379218048
 20
225.2361679192228
 30
0.0
 10
414.1878125148488
 20
225.175711595945
 30
0.0
 10
414.7855585810689
 20
224.9627643641982
 30
0.0
 10
415.3271608270675
 20
224.6155274268521
 30
0.0
 10
415.767768795205
 20
224.1941697010194
 30
0.0
 10
416.1176427188422
 20
223.7467562107625
 30
0.0
 10
416.4465531018311
 20
223.2109198248399
 30
0.0
 10
416.7502917234582
 20
222.5460287749265
 30
0.0
 10
416.9750615888011
 20
221.7663677134526
 30
0.0
 10
417.0794483942105
 20
220.9839620951429
 30
0.0
 10
417.1108708729595
 20
220.4734016257804
 30
0.0
 10
417.1266087373489
 20
220.2176887810471
 30
0.0
 11
410.1267074134358
 21
220.2176887810471
 31
0.0
 11
410.1619082791982
 21
220.8235748028053
 31
0.0
 11
410.2302652712824
 21
221.4250176222868
 31
0.0
 11
410.3649417571068
 21
222.0409088340279
 31
0.0
 11
410.5650066490518
 21
222.6403702955765
 31
0.0
 11
410.8243878873021
 21
223.2120690688966
 31
0.0
 11
411.1486078420801
 21
223.7486342859097
 31
0.0
 11
411.4852169820612
 21
224.1730668246889
 31
0.0
 11
411.8767074134358
 21
224.5478157999694
 31
0.0
 11
412.3090525746543
 21
224.8493716859294
 31
0.0
 11
412.7860549602706
 21
225.0713919997631
 31
0.0
 11
413.1699039904003
 21
225.1751527169061
 31
0.0
 11
413.5653155362145
 21
225.2169108147268
 31
0.0
 11
414.1814199904244
 21
225.1523172031055
 31
0.0
 11
414.7673541607012
 21
224.9446990329542
 31
0.0
 11
415.3139557946153
 21
224.5993264320993
 31
0.0
 11
415.7839317746956
 21
224.1550523054963
 31
0.0
 11
416.1094064222668
 21
223.7411818867216
 31
0.0
 11
416.3863119204464
 21
223.2931430394974
 31
0.0
 11
416.7312740086239
 21
222.5383823328599
 31
0.0
 11
416.9599514983702
 21
221.7422260224718
 31
0.0
 11
417.0702716273848
 21
220.9842168918722
 31
0.0
 11
417.1266087373489
 21
220.2176887810471
 31
0.0
  0
SPLINE
  5
CE
330
41
100
AcDbEntity
  8
1
  6
Continuous
 62
     7
100
AcDbSpline
210
0.0
220
0.0
230
1.0
 70
    11
 71
     3
 72
    79
 73
    75
 74
    73
 42
0.0000000001
 43
0.0000000001
 44
0.00000001
 40
0.0
 40
0.0
 40
0.0
 40
0.0
 40
0.2803981145479624
 40
0.5607977859033284
 40
0.8427454841469177
 40
1.124697473048707
 40
1.409536451638292
 40
1.694381500886033
 40
1.983071310125397
 40
2.271767843423087
 40
2.564776142201051
 40
2.857790854546615
 40
3.155055698552839
 40
3.452325978930934
 40
3.753284827389777
 40
4.054247742882881
 40
4.357919806975734
 40
4.661594368328999
 40
4.966700748943545
 40
5.271807969839439
 40
5.576915190735447
 40
5.882021571350049
 40
6.185696132703303
 40
6.489368196796172
 40
6.790331112289106
 40
7.091289960747962
 40
7.388560241126077
 40
7.68582508513238
 40
7.978839797477963
 40
8.271848096255827
 40
8.560544629553576
 40
8.849234438792982
 40
9.134079488040694
 40
9.418918466630302
 40
9.700870455532073
 40
9.982818153775675
 40
10.26321782513103
 40
10.54361593967899
 40
10.82401405422683
 40
11.10441372558208
 40
11.38636142382557
 40
11.66831341272726
 40
11.95315239131684
 40
12.23799744056458
 40
12.52668724980393
 40
12.81538378310174
 40
13.10839208187972
 40
13.40140679422531
 40
13.69867163823158
 40
13.99594191860968
 40
14.29690076706848
 40
14.59786368256146
 40
14.90153574665436
 40
15.20521030800758
 40
15.51031668862218
 40
15.81542390951818
 40
16.12053113041407
 40
16.42563751102861
 40
16.72931207238176
 40
17.03298413647473
 40
17.33394705196783
 40
17.63490590042666
 40
17.93217618080463
 40
18.22944102481093
 40
18.52245573715653
 40
18.81546403593459
 40
19.10416056923226
 40
19.39285037847165
 40
19.67769542771939
 40
19.96253440630897
 40
20.24448639521069
 40
20.52643409345415
 40
20.80683376480942
 40
21.08723187935726
 40
21.08723187935726
 40
21.08723187935726
 40
21.08723187935726
 10
410.1267074134358
 20
231.4760190302447
 30
0.0
 10
410.1292887993251
 20
231.5695195732982
 30
0.0
 10
410.1344515854357
 20
231.7565211785327
 30
0.0
 10
410.1759239354847
 20
232.0350055917728
 30
0.0
 10
410.2418240958773
 20
232.3089477881751
 30
0.0
 10
410.3340562051114
 20
232.5768759535106
 30
0.0
 10
410.4511383944704
 20
232.8359217410709
 30
0.0
 10
410.5926146760496
 20
233.0850810352237
 30
0.0
 10
410.7568970220426
 20
233.3213910554017
 30
0.0
 10
410.9433571702589
 20
233.5441660493196
 30
0.0
 10
411.1497816451962
 20
233.7506220816177
 30
0.0
 10
411.3754993396325
 20
233.940234825258
 30
0.0
 10
411.6177901379816
 20
234.1106340011837
 30
0.0
 10
411.8758476308213
 20
234.2613468087915
 30
0.0
 10
412.1466748343034
 20
234.3905699453171
 30
0.0
 10
412.4291916878001
 20
234.4978496185015
 30
0.0
 10
412.7203796583932
 20
234.5820041220567
 30
0.0
 10
413.0187584313081
 20
234.6426473958879
 30
0.0
 10
413.3215194031883
 20
234.6791811581591
 30
0.0
 10
413.6267074134361
 20
234.6914001888959
 30
0.0
 10
413.9318954236823
 20
234.6791811581591
 30
0.0
 10
414.2346563955674
 20
234.6426473958879
 30
0.0
 10
414.5330351684652
 20
234.5820041220567
 30
0.0
 10
414.8242231391209
 20
234.4978496185015
 30
0.0
 10
415.1067399923859
 20
234.3905699453171
 30
0.0
 10
415.3775671967275
 20
234.2613468087915
 30
0.0
 10
415.6356246863966
 20
234.1106340011837
 30
0.0
 10
415.8779154964922
 20
233.940234825258
 30
0.0
 10
416.1036331476901
 20
233.7506220816176
 30
0.0
 10
416.3100577827167
 20
233.5441660493197
 30
0.0
 10
416.4965173418936
 20
233.3213910554015
 30
0.0
 10
416.6608018696052
 20
233.0850810352239
 30
0.0
 10
416.8022701126746
 20
232.8359217410708
 30
0.0
 10
416.9193821162764
 20
232.5768759535107
 30
0.0
 10
417.0115040347492
 20
232.308947788175
 30
0.0
 10
417.077813800317
 20
232.0350055917727
 30
0.0
 10
417.1177654654128
 20
231.7565211785327
 30
0.0
 10
417.1311783750356
 20
231.4760190302447
 30
0.0
 10
417.1177654654127
 20
231.1955168819569
 30
0.0
 10
417.077813800317
 20
230.9170324687169
 30
0.0
 10
417.0115040347494
 20
230.6430902723146
 30
0.0
 10
416.9193821162762
 20
230.3751621069792
 30
0.0
 10
416.8022701126748
 20
230.1161163194189
 30
0.0
 10
416.6608018696048
 20
229.8669570252661
 30
0.0
 10
416.4965173418938
 20
229.6306470050882
 30
0.0
 10
416.3100577827167
 20
229.4078720111702
 30
0.0
 10
416.10363314769
 20
229.2014159788721
 30
0.0
 10
415.8779154964924
 20
229.0118032352316
 30
0.0
 10
415.6356246863966
 20
228.8414040593059
 30
0.0
 10
415.3775671967275
 20
228.6906912516982
 30
0.0
 10
415.1067399923858
 20
228.5614681151726
 30
0.0
 10
414.8242231391211
 20
228.4541884419882
 30
0.0
 10
414.5330351684652
 20
228.3700339384332
 30
0.0
 10
414.2346563955674
 20
228.3093906646019
 30
0.0
 10
413.9318954236822
 20
228.2728569023306
 30
0.0
 10
413.6267074134362
 20
228.260637871594
 30
0.0
 10
413.3215194031883
 20
228.2728569023307
 30
0.0
 10
413.0187584313078
 20
228.3093906646018
 30
0.0
 10
412.7203796583934
 20
228.3700339384331
 30
0.0
 10
412.4291916878
 20
228.4541884419882
 30
0.0
 10
412.1466748343035
 20
228.5614681151727
 30
0.0
 10
411.8758476308215
 20
228.6906912516981
 30
0.0
 10
411.6177901379816
 20
228.841404059306
 30
0.0
 10
411.3754993396327
 20
229.0118032352316
 30
0.0
 10
411.1497816451964
 20
229.2014159788721
 30
0.0
 10
410.943357170259
 20
229.4078720111701
 30
0.0
 10
410.7568970220426
 20
229.6306470050881
 30
0.0
 10
410.5926146760496
 20
229.8669570252661
 30
0.0
 10
410.4511383944703
 20
230.1161163194188
 30
0.0
 10
410.3340562051114
 20
230.3751621069793
 30
0.0
 10
410.2418240958775
 20
230.6430902723146
 30
0.0
 10
410.1759239354845
 20
230.9170324687169
 30
0.0
 10
410.1344515854357
 20
231.1955168819568
 30
0.0
 10
410.1292887993251
 20
231.3825184871913
 30
0.0
 10
410.1267074134358
 20
231.4760190302447
 30
0.0
 11
410.1267074134358
 21
231.4760190302447
 31
0.0
 11
410.140060198734
 21
231.7560990291144
 31
0.0
 11
410.1798802778931
 21
232.033656837493
 31
0.0
 11
410.2461398606171
 21
232.307708241872
 31
0.0
 11
410.3377832406852
 21
232.5743511021465
 31
0.0
 11
410.4550312409704
 21
232.8339395266825
 31
0.0
 11
410.5956185001903
 21
233.081673102578
 31
0.0
 11
410.7603156955423
 21
233.3187735871871
 31
0.0
 11
410.9455518625194
 21
233.5402081165219
 31
0.0
 11
411.1526447394347
 21
233.7474915058316
 31
0.0
 11
411.376950779533
 21
233.9360237896091
 31
0.0
 11
411.6200456102337
 21
234.1071123361827
 31
0.0
 11
411.8767074134358
 21
234.2570934629057
 31
0.0
 11
412.1482956334069
 21
234.3867702427801
 31
0.0
 11
412.429636911796
 21
234.4936615968574
 31
0.0
 11
412.7213543953414
 21
234.5780276581876
 31
0.0
 11
413.0189387916016
 21
234.6385401884234
 31
0.0
 11
413.3218445261359
 21
234.6751191369864
 31
0.0
 11
413.6267074134358
 21
234.6873271749112
 31
0.0
 11
413.9315703007358
 21
234.6751191369864
 31
0.0
 11
414.2344760352701
 21
234.6385401884234
 31
0.0
 11
414.5320604315303
 21
234.5780276581877
 31
0.0
 11
414.8237779150757
 21
234.4936615968574
 31
0.0
 11
415.1051191934647
 21
234.3867702427801
 31
0.0
 11
415.3767074134358
 21
234.2570934629057
 31
0.0
 11
415.633369216638
 21
234.1071123361827
 31
0.0
 11
415.8764640473387
 21
233.9360237896091
 31
0.0
 11
416.100770087437
 21
233.7474915058316
 31
0.0
 11
416.3078629643522
 21
233.5402081165219
 31
0.0
 11
416.4930991313293
 21
233.318773587187
 31
0.0
 11
416.6577963266814
 21
233.081673102578
 31
0.0
 11
416.7983835859013
 21
232.8339395266825
 31
0.0
 11
416.9156315861865
 21
232.5743511021465
 31
0.0
 11
417.0072749662546
 21
232.307708241872
 31
0.0
 11
417.0735345489786
 21
232.033656837493
 31
0.0
 11
417.1133546281377
 21
231.7560990291144
 31
0.0
 11
417.1267074134358
 21
231.4760190302447
 31
0.0
 11
417.1133546281377
 21
231.1959390313751
 31
0.0
 11
417.0735345489786
 21
230.9183812229966
 31
0.0
 11
417.0072749662546
 21
230.6443298186177
 31
0.0
 11
416.9156315861865
 21
230.3776869583433
 31
0.0
 11
416.7983835859013
 21
230.1180985338073
 31
0.0
 11
416.6577963266814
 21
229.8703649579118
 31
0.0
 11
416.4930991313294
 21
229.6332644733028
 31
0.0
 11
416.3078629643522
 21
229.4118299439679
 31
0.0
 11
416.100770087437
 21
229.2045465546581
 31
0.0
 11
415.8764640473387
 21
229.0160142708805
 31
0.0
 11
415.633369216638
 21
228.8449257243069
 31
0.0
 11
415.3767074134358
 21
228.694944597584
 31
0.0
 11
415.1051191934647
 21
228.5652678177096
 31
0.0
 11
414.8237779150757
 21
228.4583764636323
 31
0.0
 11
414.5320604315303
 21
228.3740104023021
 31
0.0
 11
414.2344760352701
 21
228.3134978720663
 31
0.0
 11
413.9315703007358
 21
228.2769189235033
 31
0.0
 11
413.6267074134358
 21
228.2647108855786
 31
0.0
 11
413.3218445261359
 21
228.2769189235034
 31
0.0
 11
413.0189387916016
 21
228.3134978720663
 31
0.0
 11
412.7213543953415
 21
228.3740104023021
 31
0.0
 11
412.429636911796
 21
228.4583764636323
 31
0.0
 11
412.1482956334069
 21
228.5652678177097
 31
0.0
 11
411.8767074134358
 21
228.694944597584
 31
0.0
 11
411.6200456102338
 21
228.844925724307
 31
0.0
 11
411.376950779533
 21
229.0160142708805
 31
0.0
 11
411.1526447394347
 21
229.2045465546581
 31
0.0
 11
410.9455518625194
 21
229.4118299439679
 31
0.0
 11
410.7603156955423
 21
229.6332644733027
 31
0.0
 11
410.5956185001903
 21
229.8703649579118
 31
0.0
 11
410.4550312409704
 21
230.1180985338073
 31
0.0
 11
410.3377832406852
 21
230.3776869583433
 31
0.0
 11
410.2461398606171
 21
230.6443298186177
 31
0.0
 11
410.1798802778931
 21
230.9183812229966
 31
0.0
 11
410.1400601987339
 21
231.1959390313751
 31
0.0
 11
410.1267074134358
 21
231.4760190302447
 31
0.0
  0
SPLINE
  5
CF
330
41
100
AcDbEntity
  8
1
  6
Continuous
 62
     7
100
AcDbSpline
210
0.0
220
0.0
230
1.0
 70
     8
 71
     3
 72
    29
 73
    25
 74
    23
 42
0.0000000001
 43
0.0000000001
 44
0.00000001
 40
0.0
 40
0.0
 40
0.0
 40
0.0
 40
0.6069077131758538
 40
1.212222625822633
 40
1.842666707826686
 40
2.474631900595294
 40
3.102420172365281
 40
3.72933389145626
 40
4.271042939833048
 40
4.81298532822102
 40
5.340107980728251
 40
5.866248927280029
 40
6.263874837343179
 40
6.661485236222293
 40
7.280966497568889
 40
7.902596738528074
 40
8.549168915178827
 40
9.195896772489213
 40
9.722415974179183
 40
10.24911841725691
 40
11.0789753727401
 40
11.9073220784664
 40
12.67331709995031
 40
13.44191271185819
 40
13.44191271185819
 40
13.44191271185819
 40
13.44191271185819
 10
410.1267074134358
 20
220.2176887810471
 30
0.0
 10
410.1365827868981
 20
220.0156289514896
 30
0.0
 10
410.1563076163732
 20
219.6120395888209
 30
0.0
 10
410.2200979704262
 20
219.0003340384823
 30
0.0
 10
410.3542812677437
 20
218.3909169765925
 30
0.0
 10
410.5547368884277
 20
217.792510801087
 30
0.0
 10
410.8132980052461
 20
217.2179482691915
 30
0.0
 10
411.1222273950173
 20
216.7030504715199
 30
0.0
 10
411.4760443195921
 20
216.2540315975217
 30
0.0
 10
411.8640689877551
 20
215.8800899950306
 30
0.0
 10
412.3009993915179
 20
215.5731240935705
 30
0.0
 10
412.741213358618
 20
215.3658154360367
 30
0.0
 10
413.1679224793028
 20
215.2499128477658
 30
0.0
 10
413.6388379218048
 20
215.1992096428712
 30
0.0
 10
414.1878125148488
 20
215.2596659661491
 30
0.0
 10
414.7855585810689
 20
215.472613197896
 30
0.0
 10
415.3271608270676
 20
215.8198501352422
 30
0.0
 10
415.767768795205
 20
216.2412078610748
 30
0.0
 10
416.117642718842
 20
216.6886213513317
 30
0.0
 10
416.4465531018311
 20
217.2244577372543
 30
0.0
 10
416.7502917234583
 20
217.8893487871677
 30
0.0
 10
416.9750615888011
 20
218.6690098486417
 30
0.0
 10
417.0794483942105
 20
219.4514154669514
 30
0.0
 10
417.1108708729594
 20
219.9619759363138
 30
0.0
 10
417.1266087373489
 20
220.2176887810471
 30
0.0
 11
410.1267074134358
 21
220.2176887810471
 31
0.0
 11
410.1619082791982
 21
219.6118027592889
 31
0.0
 11
410.2302652712824
 21
219.0103599398075
 31
0.0
 11
410.3649417571068
 21
218.3944687280664
 31
0.0
 11
410.5650066490518
 21
217.7950072665177
 31
0.0
 11
410.8243878873021
 21
217.2233084931976
 31
0.0
 11
411.1486078420801
 21
216.6867432761846
 31
0.0
 11
411.4852169820612
 21
216.2623107374055
 31
0.0
 11
411.8767074134358
 21
215.887561762125
 31
0.0
 11
412.3090525746543
 21
215.5860058761649
 31
0.0
 11
412.7860549602706
 21
215.3639855623312
 31
0.0
 11
413.1699039904003
 21
215.2602248451881
 31
0.0
 11
413.5653155362145
 21
215.2184667473673
 31
0.0
 11
414.1814199904244
 21
215.2830603589886
 31
0.0
 11
414.7673541607012
 21
215.49067852914
 31
0.0
 11
415.3139557946153
 21
215.836051129995
 31
0.0
 11
415.7839317746956
 21
216.280325256598
 31
0.0
 11
416.1094064222668
 21
216.6941956753726
 31
0.0
 11
416.3863119204464
 21
217.1422345225967
 31
0.0
 11
416.7312740086239
 21
217.8969952292343
 31
0.0
 11
416.9599514983702
 21
218.6931515396225
 31
0.0
 11
417.0702716273847
 21
219.4511606702221
 31
0.0
 11
417.1266087373489
 21
220.2176887810471
 31
0.0
  0
SPLINE
  5
D0
330
41
100
AcDbEntity
  8
1
  6
Continuous
 62
     7
100
AcDbSpline
210
0.0
220
0.0
230
1.0
 70
    11
 71
     3
 72
    79
 73
    75
 74
    73
 42
0.0000000001
 43
0.0000000001
 44
0.00000001
 40
0.0
 40
0.0
 40
0.0
 40
0.0
 40
0.280398114547934
 40
0.5607977859032156
 40
0.8427454841466944
 40
1.124697473048511
 40
1.40953645163807
 40
1.694381500885811
 40
1.983071310125105
 40
2.271767843422794
 40
2.564776142200819
 40
2.857790854546457
 40
3.155055698552681
 40
3.452325978930732
 40
3.753284827389575
 40
4.054247742882709
 40
4.357919806975594
 40
4.661594368328836
 40
4.966700748943368
 40
5.271807969839259
 40
5.576915190735263
 40
5.882021571349851
 40
6.185696132703099
 40
6.489368196795976
 40
6.79033111228894
 40
7.091289960747796
 40
7.388560241125862
 40
7.685825085132162
 40
7.9788397974778
 40
8.271848096255745
 40
8.560544629553494
 40
8.849234438792829
 40
9.134079488040516
 40
9.418918466630124
 40
9.700870455531868
 40
9.982818153775416
 40
10.26321782513069
 40
10.54361593967862
 40
10.82401405422652
 40
11.1044137255819
 40
11.38636142382542
 40
11.66831341272719
 40
11.9531523913168
 40
12.23799744056452
 40
12.52668724980382
 40
12.81538378310159
 40
13.10839208187953
 40
13.40140679422511
 40
13.69867163823142
 40
13.99594191860952
 40
14.29690076706834
 40
14.59786368256131
 40
14.90153574665423
 40
15.20521030800743
 40
15.51031668862203
 40
15.81542390951804
 40
16.12053113041393
 40
16.42563751102848
 40
16.72931207238162
 40
17.0329841364746
 40
17.33394705196769
 40
17.63490590042655
 40
17.93217618080452
 40
18.22944102481086
 40
18.52245573715642
 40
18.81546403593447
 40
19.10416056923213
 40
19.39285037847143
 40
19.67769542771914
 40
19.96253440630876
 40
20.24448639521054
 40
20.52643409345405
 40
20.80683376480944
 40
21.08723187935735
 40
21.08723187935735
 40
21.08723187935735
 40
21.08723187935735
 10
410.1267074134358
 20
208.9593585318494
 30
0.0
 10
410.129288799325
 20
208.8658579887959
 30
0.0
 10
410.1344515854357
 20
208.6788563835615
 30
0.0
 10
410.1759239354846
 20
208.4003719703215
 30
0.0
 10
410.2418240958774
 20
208.1264297739192
 30
0.0
 10
410.3340562051114
 20
207.8585016085837
 30
0.0
 10
410.4511383944703
 20
207.5994558210234
 30
0.0
 10
410.5926146760498
 20
207.3502965268706
 30
0.0
 10
410.7568970220424
 20
207.1139865066927
 30
0.0
 10
410.9433571702591
 20
206.8912115127748
 30
0.0
 10
411.1497816451962
 20
206.6847554804766
 30
0.0
 10
411.3754993396328
 20
206.4951427368362
 30
0.0
 10
411.6177901379814
 20
206.3247435609106
 30
0.0
 10
411.8758476308215
 20
206.1740307533028
 30
0.0
 10
412.1466748343034
 20
206.0448076167772
 30
0.0
 10
412.4291916878001
 20
205.9375279435928
 30
0.0
 10
412.7203796583931
 20
205.8533734400374
 30
0.0
 10
413.0187584313081
 20
205.7927301662064
 30
0.0
 10
413.3215194031883
 20
205.7561964039352
 30
0.0
 10
413.626707413436
 20
205.7439773731986
 30
0.0
 10
413.9318954236825
 20
205.7561964039353
 30
0.0
 10
414.2346563955674
 20
205.7927301662063
 30
0.0
 10
414.5330351684652
 20
205.8533734400375
 30
0.0
 10
414.8242231391211
 20
205.9375279435927
 30
0.0
 10
415.1067399923858
 20
206.0448076167773
 30
0.0
 10
415.3775671967275
 20
206.1740307533027
 30
0.0
 10
415.6356246863966
 20
206.3247435609106
 30
0.0
 10
415.8779154964923
 20
206.4951427368362
 30
0.0
 10
416.1036331476901
 20
206.6847554804766
 30
0.0
 10
416.3100577827167
 20
206.8912115127748
 30
0.0
 10
416.4965173418937
 20
207.1139865066928
 30
0.0
 10
416.660801869605
 20
207.3502965268706
 30
0.0
 10
416.8022701126747
 20
207.5994558210234
 30
0.0
 10
416.9193821162763
 20
207.8585016085837
 30
0.0
 10
417.0115040347494
 20
208.1264297739191
 30
0.0
 10
417.077813800317
 20
208.4003719703214
 30
0.0
 10
417.1177654654127
 20
208.6788563835615
 30
0.0
 10
417.1311783750356
 20
208.9593585318494
 30
0.0
 10
417.1177654654127
 20
209.2398606801374
 30
0.0
 10
417.077813800317
 20
209.5183450933773
 30
0.0
 10
417.0115040347492
 20
209.7922872897798
 30
0.0
 10
416.9193821162764
 20
210.0602154551152
 30
0.0
 10
416.8022701126749
 20
210.3192612426756
 30
0.0
 10
416.6608018696048
 20
210.5684205368283
 30
0.0
 10
416.4965173418939
 20
210.8047305570062
 30
0.0
 10
416.3100577827166
 20
211.0275055509241
 30
0.0
 10
416.1036331476901
 20
211.2339615832221
 30
0.0
 10
415.8779154964924
 20
211.4235743268628
 30
0.0
 10
415.6356246863965
 20
211.5939735027881
 30
0.0
 10
415.3775671967276
 20
211.7446863103961
 30
0.0
 10
415.1067399923858
 20
211.8739094469217
 30
0.0
 10
414.824223139121
 20
211.9811891201061
 30
0.0
 10
414.5330351684652
 20
212.0653436236612
 30
0.0
 10
414.2346563955673
 20
212.1259868974924
 30
0.0
 10
413.9318954236824
 20
212.1625206597637
 30
0.0
 10
413.6267074134361
 20
212.1747396905003
 30
0.0
 10
413.3215194031881
 20
212.1625206597637
 30
0.0
 10
413.018758431308
 20
212.1259868974925
 30
0.0
 10
412.7203796583933
 20
212.0653436236612
 30
0.0
 10
412.4291916878
 20
211.9811891201061
 30
0.0
 10
412.1466748343034
 20
211.8739094469217
 30
0.0
 10
411.8758476308215
 20
211.7446863103962
 30
0.0
 10
411.6177901379816
 20
211.5939735027883
 30
0.0
 10
411.3754993396327
 20
211.4235743268627
 30
0.0
 10
411.1497816451962
 20
211.2339615832222
 30
0.0
 10
410.9433571702591
 20
211.0275055509242
 30
0.0
 10
410.7568970220425
 20
210.8047305570062
 30
0.0
 10
410.5926146760497
 20
210.5684205368284
 30
0.0
 10
410.4511383944703
 20
210.3192612426755
 30
0.0
 10
410.3340562051113
 20
210.0602154551152
 30
0.0
 10
410.2418240958773
 20
209.7922872897798
 30
0.0
 10
410.1759239354847
 20
209.5183450933773
 30
0.0
 10
410.1344515854357
 20
209.2398606801373
 30
0.0
 10
410.129288799325
 20
209.0528590749029
 30
0.0
 10
410.1267074134358
 20
208.9593585318494
 30
0.0
 11
410.1267074134358
 21
208.9593585318494
 31
0.0
 11
410.140060198734
 21
208.6792785329798
 31
0.0
 11
410.1798802778931
 21
208.4017207246012
 31
0.0
 11
410.2461398606171
 21
208.1276693202223
 31
0.0
 11
410.3377832406852
 21
207.8610264599478
 31
0.0
 11
410.4550312409704
 21
207.6014380354118
 31
0.0
 11
410.5956185001903
 21
207.3537044595163
 31
0.0
 11
410.7603156955423
 21
207.1166039749074
 31
0.0
 11
410.9455518625194
 21
206.8951694455725
 31
0.0
 11
411.1526447394347
 21
206.6878860562627
 31
0.0
 11
411.376950779533
 21
206.4993537724851
 31
0.0
 11
411.6200456102337
 21
206.3282652259115
 31
0.0
 11
411.8767074134358
 21
206.1782840991886
 31
0.0
 11
412.1482956334069
 21
206.0486073193142
 31
0.0
 11
412.429636911796
 21
205.9417159652368
 31
0.0
 11
412.7213543953414
 21
205.8573499039065
 31
0.0
 11
413.0189387916016
 21
205.7968373736708
 31
0.0
 11
413.3218445261359
 21
205.7602584251079
 31
0.0
 11
413.6267074134358
 21
205.7480503871832
 31
0.0
 11
413.9315703007358
 21
205.7602584251079
 31
0.0
 11
414.2344760352701
 21
205.7968373736708
 31
0.0
 11
414.5320604315303
 21
205.8573499039065
 31
0.0
 11
414.8237779150757
 21
205.9417159652368
 31
0.0
 11
415.1051191934647
 21
206.0486073193142
 31
0.0
 11
415.3767074134358
 21
206.1782840991886
 31
0.0
 11
415.6333692166379
 21
206.3282652259116
 31
0.0
 11
415.8764640473387
 21
206.4993537724851
 31
0.0
 11
416.100770087437
 21
206.6878860562627
 31
0.0
 11
416.3078629643522
 21
206.8951694455725
 31
0.0
 11
416.4930991313293
 21
207.1166039749074
 31
0.0
 11
416.6577963266814
 21
207.3537044595163
 31
0.0
 11
416.7983835859013
 21
207.6014380354118
 31
0.0
 11
416.9156315861865
 21
207.8610264599478
 31
0.0
 11
417.0072749662546
 21
208.1276693202223
 31
0.0
 11
417.0735345489786
 21
208.4017207246012
 31
0.0
 11
417.1133546281377
 21
208.6792785329798
 31
0.0
 11
417.1267074134358
 21
208.9593585318494
 31
0.0
 11
417.1133546281377
 21
209.239438530719
 31
0.0
 11
417.0735345489786
 21
209.5169963390977
 31
0.0
 11
417.0072749662546
 21
209.7910477434766
 31
0.0
 11
416.9156315861865
 21
210.0576906037511
 31
0.0
 11
416.7983835859014
 21
210.3172790282872
 31
0.0
 11
416.6577963266814
 21
210.5650126041826
 31
0.0
 11
416.4930991313294
 21
210.8021130887915
 31
0.0
 11
416.3078629643522
 21
211.0235476181264
 31
0.0
 11
416.100770087437
 21
211.2308310074361
 31
0.0
 11
415.8764640473387
 21
211.4193632912137
 31
0.0
 11
415.6333692166379
 21
211.5904518377873
 31
0.0
 11
415.3767074134358
 21
211.7404329645103
 31
0.0
 11
415.1051191934647
 21
211.8701097443847
 31
0.0
 11
414.8237779150757
 21
211.977001098462
 31
0.0
 11
414.5320604315303
 21
212.0613671597922
 31
0.0
 11
414.2344760352701
 21
212.121879690028
 31
0.0
 11
413.9315703007358
 21
212.158458638591
 31
0.0
 11
413.6267074134358
 21
212.1706666765157
 31
0.0
 11
413.3218445261359
 21
212.158458638591
 31
0.0
 11
413.0189387916016
 21
212.121879690028
 31
0.0
 11
412.7213543953415
 21
212.0613671597923
 31
0.0
 11
412.429636911796
 21
211.977001098462
 31
0.0
 11
412.1482956334069
 21
211.8701097443847
 31
0.0
 11
411.8767074134358
 21
211.7404329645103
 31
0.0
 11
411.6200456102338
 21
211.5904518377873
 31
0.0
 11
411.376950779533
 21
211.4193632912137
 31
0.0
 11
411.1526447394347
 21
211.2308310074361
 31
0.0
 11
410.9455518625194
 21
211.0235476181264
 31
0.0
 11
410.7603156955423
 21
210.8021130887916
 31
0.0
 11
410.5956185001903
 21
210.5650126041826
 31
0.0
 11
410.4550312409704
 21
210.3172790282872
 31
0.0
 11
410.3377832406852
 21
210.0576906037511
 31
0.0
 11
410.2461398606171
 21
209.7910477434766
 31
0.0
 11
410.1798802778931
 21
209.5169963390977
 31
0.0
 11
410.140060198734
 21
209.239438530719
 31
0.0
 11
410.1267074134358
 21
208.9593585318494
 31
0.0
  0
SPLINE
  5
D1
330
41
100
AcDbEntity
  8
1
  6
Continuous
 62
     7
100
AcDbSpline
210
0.0
220
0.0
230
1.0
 70
    11
 71
     3
 72
    79
 73
    75
 74
    73
 42
0.0000000001
 43
0.0000000001
 44
0.00000001
 40
0.0
 40
0.0
 40
0.0
 40
0.0
 40
0.3171598656884376
 40
0.6340856861076096
 40
0.9694901489363872
 40
1.304562820901359
 40
1.666124796939101
 40
2.027385866505045
 40
2.418724079015996
 40
2.809836934323476
 40
3.230628787512784
 40
3.651266058867627
 40
4.098016897818968
 40
4.544667758504438
 40
5.011536287768417
 40
5.478345522146768
 40
5.957894801975146
 40
6.437416541840588
 40
6.921284920564622
 40
7.405153299288767
 40
7.884675039154209
 40
8.364224318982474
 40
8.831033553360781
 40
9.297902082624761
 40
9.744552943310357
 40
10.1913037822617
 40
10.61194105361662
 40
11.03273290680587
 40
11.42384576211338
 40
11.81518397462429
 40
12.17644504419015
 40
12.5380070202279
 40
12.87307969219295
 40
13.20848415502176
 40
13.52540997544086
 40
13.84256984112931
 40
14.15305257372697
 40
14.46353530632469
 40
14.78069517201325
 40
15.09762099243225
 40
15.43302545526095
 40
15.768098127226
 40
16.12966010326376
 40
16.49092117282971
 40
16.88225938534061
 40
17.27337224064809
 40
17.69416409383734
 40
18.11480136519226
 40
18.56155220414356
 40
19.00820306482915
 40
19.47507159409301
 40
19.94188082847132
 40
20.42143010829971
 40
20.90095184816515
 40
21.38482022688924
 40
21.86868860561333
 40
22.34821034547878
 40
22.82775962530716
 40
23.29456885968537
 40
23.76143738894941
 40
24.20808824963506
 40
24.65483908858644
 40
25.07547635994133
 40
25.49626821313061
 40
25.887381068438
 40
26.27871928094891
 40
26.63998035051473
 40
27.00154232655268
 40
27.33661499851778
 40
27.67201946134638
 40
27.98894528176537
 40
28.30610514745399
 40
28.61658788005165
 40
28.92707061264932
 40
28.92707061264932
 40
28.92707061264932
 40
28.92707061264932
 10
413.9010755182106
 20
506.1500403838909
 30
0.0
 10
414.0053239077096
 20
506.1686183149997
 30
0.0
 10
414.2137437575462
 20
506.2057604677999
 30
0.0
 10
414.5187810613228
 20
506.3166155407632
 30
0.0
 10
414.8139327064857
 20
506.4636358499705
 30
0.0
 10
415.101622332619
 20
506.6537069590914
 30
0.0
 10
415.3738611596047
 20
506.8788349068312
 30
0.0
 10
415.6352699350981
 20
507.1434191634474
 30
0.0
 10
415.8774575003056
 20
507.4385155885024
 30
0.0
 10
416.1050844754241
 20
507.7692579443134
 30
0.0
 10
416.3107764213183
 20
508.1253839450502
 30
0.0
 10
416.4981577214693
 20
508.5121127926087
 30
0.0
 10
416.6616113197699
 20
508.9188494743489
 30
0.0
 10
416.8034099530712
 20
509.3498350026388
 30
0.0
 10
416.9198468769336
 20
509.7952668629009
 30
0.0
 10
417.0120309681597
 20
510.257499850234
 30
0.0
 10
417.0779122065723
 20
510.7284677724651
 30
0.0
 10
417.1179058570872
 20
511.2080291356571
 30
0.0
 10
417.1311280471108
 20
511.6905139095751
 30
0.0
 10
417.1179058570885
 20
512.1729986835079
 30
0.0
 10
417.0779122065674
 20
512.6525600466554
 30
0.0
 10
417.0120309681776
 20
513.1235279690479
 30
0.0
 10
416.9198468768692
 20
513.5857609557947
 30
0.0
 10
416.8034099533072
 20
514.0311928182002
 30
0.0
 10
416.6616113189308
 20
514.4621783388217
 30
0.0
 10
416.4981577245289
 20
514.8689150483658
 30
0.0
 10
416.3107764106375
 20
515.2556437979345
 30
0.0
 10
416.105084514191
 20
515.6117701513126
 30
0.0
 10
415.8774573668886
 20
515.9425112791701
 30
0.0
 10
415.6352704183412
 20
516.23761210203
 30
0.0
 10
415.373859508885
 20
516.5021811399661
 30
0.0
 10
415.1016283240937
 20
516.72736358917
 30
0.0
 10
414.8139121499011
 20
516.9172453667998
 30
0.0
 10
414.5188562681631
 20
517.0649486273246
 30
0.0
 10
414.2134801197066
 20
517.1733871783108
 30
0.0
 10
413.904248065769
 20
517.237569767311
 30
0.0
 10
413.5913503063001
 20
517.2601289957261
 30
0.0
 10
413.2784525468312
 20
517.2375697673108
 30
0.0
 10
412.9692204928937
 20
517.1733871783107
 30
0.0
 10
412.6638443444372
 20
517.0649486273245
 30
0.0
 10
412.3687884626991
 20
516.9172453667995
 30
0.0
 10
412.0810722885067
 20
516.7273635891701
 30
0.0
 10
411.8088411037151
 20
516.5021811399661
 30
0.0
 10
411.5474301942589
 20
516.2376121020299
 30
0.0
 10
411.3052432457114
 20
515.9425112791703
 30
0.0
 10
411.0776160984091
 20
515.6117701513124
 30
0.0
 10
410.8719242019628
 20
515.2556437979346
 30
0.0
 10
410.6845428880712
 20
514.8689150483656
 30
0.0
 10
410.5210892936694
 20
514.4621783388217
 30
0.0
 10
410.379290659293
 20
514.0311928182005
 30
0.0
 10
410.262853735731
 20
513.5857609557947
 30
0.0
 10
410.1706696444227
 20
513.1235279690477
 30
0.0
 10
410.1047884060328
 20
512.6525600466557
 30
0.0
 10
410.0647947555116
 20
512.1729986835072
 30
0.0
 10
410.0515725654897
 20
511.6905139095774
 30
0.0
 10
410.0647947555114
 20
511.2080291356485
 30
0.0
 10
410.104788406033
 20
510.728467772497
 30
0.0
 10
410.1706696444214
 20
510.2574998501164
 30
0.0
 10
410.2628537357358
 20
509.7952668633276
 30
0.0
 10
410.3792906592761
 20
509.3498350010742
 30
0.0
 10
410.5210892937292
 20
508.9188494799082
 30
0.0
 10
410.6845428878539
 20
508.5121127723389
 30
0.0
 10
410.8719242027212
 20
508.1253840158102
 30
0.0
 10
411.0776160956556
 20
507.7692576874796
 30
0.0
 10
411.3052432551877
 20
507.4385164724026
 30
0.0
 10
411.547430159935
 20
507.1434159619113
 30
0.0
 10
411.8088412209631
 20
506.8788458430189
 30
0.0
 10
412.0810718629424
 20
506.653667264959
 30
0.0
 10
412.3687899227978
 20
506.4637720394425
 30
0.0
 10
412.6638390026258
 20
506.3161172877641
 30
0.0
 10
412.9692392186317
 20
506.2075070954168
 30
0.0
 10
413.2783830941697
 20
506.1439533639817
 30
0.0
 10
413.5916034676786
 20
506.1190933648489
 30
0.0
 10
413.7979181680333
 20
506.1397247108769
 30
0.0
 10
413.9010755182106
 20
506.1500403838909
 30
0.0
 11
413.9010755182106
 21
506.1500403838909
 31
0.0
 11
414.2115907559947
 21
506.2146210892713
 31
0.0
 11
414.5105465716918
 21
506.3198227808416
 31
0.0
 11
414.8106495585225
 21
506.4696037909221
 31
0.0
 11
415.0907862839073
 21
506.6534436956991
 31
0.0
 11
415.3698302423775
 21
506.8833600538766
 31
0.0
 11
415.6242475193901
 21
507.1398389215079
 31
0.0
 11
415.8730861714808
 21
507.4418735582583
 31
0.0
 11
416.0952695795078
 21
507.7637489981171
 31
0.0
 11
416.3062942298586
 21
508.1278017149793
 31
0.0
 11
416.4900608133996
 21
508.5061739613539
 31
0.0
 11
416.657122855813
 21
508.920512694866
 31
0.0
 11
416.7969590965394
 21
509.344709367567
 31
0.0
 11
416.9153871657237
 21
509.7963076581377
 31
0.0
 11
417.0068190614206
 21
510.2540751425117
 31
0.0
 11
417.0734806103274
 21
510.7289685512692
 31
0.0
 11
417.1133505413609
 21
511.206829919872
 31
0.0
 11
417.1267074134358
 21
511.6905139095775
 31
0.0
 11
417.113350541361
 21
512.1741978992831
 31
0.0
 11
417.0734806103274
 21
512.6520592678859
 31
0.0
 11
417.0068190614207
 21
513.1269526766432
 31
0.0
 11
416.9153871657237
 21
513.5847201610172
 31
0.0
 11
416.7969590965394
 21
514.0363184515879
 31
0.0
 11
416.6571228558129
 21
514.460515124289
 31
0.0
 11
416.4900608133995
 21
514.8748538578011
 31
0.0
 11
416.3062942298585
 21
515.2532261041757
 31
0.0
 11
416.0952695795078
 21
515.617278821038
 31
0.0
 11
415.8730861714807
 21
515.9391542608968
 31
0.0
 11
415.6242475193901
 21
516.2411888976471
 31
0.0
 11
415.3698302423775
 21
516.4976677652784
 31
0.0
 11
415.0907862839073
 21
516.7275841234558
 31
0.0
 11
414.8106495585224
 21
516.9114240282329
 31
0.0
 11
414.5105465716917
 21
517.0612050383135
 31
0.0
 11
414.2115907559947
 21
517.1664067298838
 31
0.0
 11
413.9010755182106
 21
517.2309874352642
 31
0.0
 11
413.5913503063001
 21
517.2526627748993
 31
0.0
 11
413.2816250943895
 21
517.2309874352641
 31
0.0
 11
412.9711098566054
 21
517.1664067298837
 31
0.0
 11
412.6721540409085
 21
517.0612050383134
 31
0.0
 11
412.3720510540779
 21
516.9114240282328
 31
0.0
 11
412.091914328693
 21
516.7275841234557
 31
0.0
 11
411.8128703702226
 21
516.4976677652784
 31
0.0
 11
411.55845309321
 21
516.2411888976471
 31
0.0
 11
411.3096144411193
 21
515.9391542608968
 31
0.0
 11
411.0874310330923
 21
515.617278821038
 31
0.0
 11
410.8764063827416
 21
515.2532261041757
 31
0.0
 11
410.6926397992006
 21
514.8748538578011
 31
0.0
 11
410.5255777567873
 21
514.460515124289
 31
0.0
 11
410.3857415160609
 21
514.0363184515879
 31
0.0
 11
410.2673134468766
 21
513.5847201610173
 31
0.0
 11
410.1758815511796
 21
513.1269526766433
 31
0.0
 11
410.1092200022728
 21
512.6520592678859
 31
0.0
 11
410.0693500712392
 21
512.1741978992831
 31
0.0
 11
410.0559931991643
 21
511.6905139095775
 31
0.0
 11
410.0693500712391
 21
511.206829919872
 31
0.0
 11
410.1092200022728
 21
510.7289685512692
 31
0.0
 11
410.1758815511795
 21
510.2540751425117
 31
0.0
 11
410.2673134468766
 21
509.7963076581378
 31
0.0
 11
410.3857415160609
 21
509.3447093675671
 31
0.0
 11
410.5255777567874
 21
508.9205126948659
 31
0.0
 11
410.6926397992006
 21
508.5061739613537
 31
0.0
 11
410.8764063827416
 21
508.1278017149791
 31
0.0
 11
411.0874310330923
 21
507.7637489981169
 31
0.0
 11
411.3096144411193
 21
507.4418735582582
 31
0.0
 11
411.55845309321
 21
507.1398389215078
 31
0.0
 11
411.8128703702226
 21
506.8833600538767
 31
0.0
 11
412.091914328693
 21
506.6534436956991
 31
0.0
 11
412.3720510540779
 21
506.4696037909221
 31
0.0
 11
412.6721540409085
 21
506.3198227808416
 31
0.0
 11
412.9711098566054
 21
506.2146210892713
 31
0.0
 11
413.2816250943896
 21
506.1500403838909
 31
0.0
 11
413.5913503063001
 21
506.1283650442558
 31
0.0
 11
413.9010755182106
 21
506.1500403838909
 31
0.0
  0
SPLINE
  5
D2
330
41
100
AcDbEntity
  8
1
  6
Continuous
 62
     7
100
AcDbSpline
210
0.0
220
0.0
230
1.0
 70
    11
 71
     3
 72
    79
 73
    75
 74
    73
 42
0.0000000001
 43
0.0000000001
 44
0.00000001
 40
0.0
 40
0.0
 40
0.0
 40
0.0
 40
0.3171598656884724
 40
0.6340856861075876
 40
0.9694901489363906
 40
1.304562820901393
 40
1.6661247969391
 40
2.027385866504963
 40
2.418724079015957
 40
2.809836934323438
 40
3.230628787512746
 40
3.651266058867639
 40
4.098016897818981
 40
4.544667758504451
 40
5.01153628776854
 40
5.478345522146723
 40
5.957894801974989
 40
6.437416541840431
 40
6.921284920564578
 40
7.405153299288724
 40
7.884675039154166
 40
8.364224318982432
 40
8.831033553360626
 40
9.297902082624717
 40
9.744552943310096
 40
10.19130378226165
 40
10.61194105361667
 40
11.03273290680592
 40
11.42384576211334
 40
11.81518397462425
 40
12.17644504419027
 40
12.53800702022788
 40
12.87307969219293
 40
13.20848415502173
 40
13.52540997544083
 40
13.84256984112928
 40
14.15305257372694
 40
14.46353530632467
 40
14.78069517201323
 40
15.09762099243222
 40
15.43302545526087
 40
15.76809812722599
 40
16.12966010326382
 40
16.49092117282969
 40
16.88225938534068
 40
17.27337224064807
 40
17.69416409383732
 40
18.11480136519224
 40
18.56155220414364
 40
19.00820306482902
 40
19.47507159409299
 40
19.9418808284713
 40
20.42143010829969
 40
20.90095184816513
 40
21.38482022688928
 40
21.86868860561342
 40
22.34821034547887
 40
22.82775962530713
 40
23.29456885968569
 40
23.76143738894945
 40
24.20808824963483
 40
24.65483908858631
 40
25.07547635994131
 40
25.49626821313049
 40
25.88738106843797
 40
26.27871928094879
 40
26.63998035051469
 40
27.00154232655258
 40
27.33661499851768
 40
27.67201946134632
 40
27.98894528176531
 40
28.30610514745393
 40
28.6165878800516
 40
28.92707061264927
 40
28.92707061264927
 40
28.92707061264927
 40
28.92707061264927
 10
413.9010755182106
 20
530.2309874352641
 30
0.0
 10
414.0053239077095
 20
530.2124095041552
 30
0.0
 10
414.2137437575462
 20
530.1752673513545
 30
0.0
 10
414.518781061323
 20
530.0644122783921
 30
0.0
 10
414.8139327064855
 20
529.9173919691842
 30
0.0
 10
415.1016223326189
 20
529.7273208600635
 30
0.0
 10
415.3738611596048
 20
529.5021929123236
 30
0.0
 10
415.6352699350981
 20
529.2376086557076
 30
0.0
 10
415.8774575003054
 20
528.9425122306524
 30
0.0
 10
416.1050844754242
 20
528.6117698748416
 30
0.0
 10
416.3107764213183
 20
528.2556438741048
 30
0.0
 10
416.4981577214694
 20
527.8689150265461
 30
0.0
 10
416.6616113197699
 20
527.4621783448058
 30
0.0
 10
416.8034099530711
 20
527.0311928165162
 30
0.0
 10
416.9198468769337
 20
526.585760956254
 30
0.0
 10
417.0120309681595
 20
526.1235279689207
 30
0.0
 10
417.0779122065722
 20
525.65256004669
 30
0.0
 10
417.1179058570872
 20
525.172998683498
 30
0.0
 10
417.1311280471109
 20
524.69051390958
 30
0.0
 10
417.1179058570883
 20
524.2080291356469
 30
0.0
 10
417.0779122065676
 20
523.7284677724996
 30
0.0
 10
417.0120309681775
 20
523.2574998501073
 30
0.0
 10
416.9198468768692
 20
522.7952668633602
 30
0.0
 10
416.8034099533074
 20
522.3498350009548
 30
0.0
 10
416.6616113189307
 20
521.9188494803332
 30
0.0
 10
416.4981577245289
 20
521.5121127707893
 30
0.0
 10
416.3107764106375
 20
521.1253840212205
 30
0.0
 10
416.1050845141911
 20
520.7692576678423
 30
0.0
 10
415.8774573668885
 20
520.4385165399848
 30
0.0
 10
415.6352704183411
 20
520.1434157171251
 30
0.0
 10
415.3738595088852
 20
519.8788466791888
 30
0.0
 10
415.1016283240934
 20
519.6536642299848
 30
0.0
 10
414.8139121499013
 20
519.4637824523553
 30
0.0
 10
414.518856268163
 20
519.3160791918305
 30
0.0
 10
414.2134801197066
 20
519.2076406408443
 30
0.0
 10
413.904248065769
 20
519.1434580518439
 30
0.0
 10
413.5913503063001
 20
519.1208988234289
 30
0.0
 10
413.2784525468312
 20
519.1434580518441
 30
0.0
 10
412.9692204928937
 20
519.2076406408445
 30
0.0
 10
412.6638443444371
 20
519.3160791918303
 30
0.0
 10
412.3687884626992
 20
519.4637824523554
 30
0.0
 10
412.0810722885066
 20
519.6536642299849
 30
0.0
 10
411.8088411037152
 20
519.8788466791891
 30
0.0
 10
411.5474301942589
 20
520.143415717125
 30
0.0
 10
411.3052432457114
 20
520.4385165399848
 30
0.0
 10
411.0776160984092
 20
520.7692576678425
 30
0.0
 10
410.8719242019625
 20
521.1253840212205
 30
0.0
 10
410.6845428880712
 20
521.5121127707893
 30
0.0
 10
410.5210892936696
 20
521.9188494803332
 30
0.0
 10
410.3792906592928
 20
522.3498350009546
 30
0.0
 10
410.2628537357311
 20
522.7952668633601
 30
0.0
 10
410.1706696444228
 20
523.2574998501071
 30
0.0
 10
410.1047884060328
 20
523.7284677724994
 30
0.0
 10
410.0647947555117
 20
524.2080291356477
 30
0.0
 10
410.0515725654897
 20
524.6905139095776
 30
0.0
 10
410.0647947555113
 20
525.1729986835064
 30
0.0
 10
410.1047884060332
 20
525.652560046658
 30
0.0
 10
410.1706696444213
 20
526.1235279690388
 30
0.0
 10
410.2628537357356
 20
526.5857609558274
 30
0.0
 10
410.3792906592761
 20
527.0311928180807
 30
0.0
 10
410.5210892937292
 20
527.4621783392466
 30
0.0
 10
410.6845428878539
 20
527.8689150468159
 30
0.0
 10
410.8719242027212
 20
528.2556438033448
 30
0.0
 10
411.0776160956557
 20
528.6117701316753
 30
0.0
 10
411.3052432551878
 20
528.9425113467523
 30
0.0
 10
411.5474301599351
 20
529.2376118572436
 30
0.0
 10
411.8088412209628
 20
529.5021819761361
 30
0.0
 10
412.0810718629427
 20
529.7273605541958
 30
0.0
 10
412.3687899227976
 20
529.9172557797124
 30
0.0
 10
412.6638390026258
 20
530.064910531391
 30
0.0
 10
412.9692392186317
 20
530.173520723738
 30
0.0
 10
413.2783830941697
 20
530.2370744551732
 30
0.0
 10
413.5916034676786
 20
530.2619344543059
 30
0.0
 10
413.7979181680333
 20
530.2413031082781
 30
0.0
 10
413.9010755182106
 20
530.2309874352641
 30
0.0
 11
413.9010755182106
 21
530.2309874352641
 31
0.0
 11
414.2115907559947
 21
530.1664067298835
 31
0.0
 11
414.5105465716918
 21
530.0612050383134
 31
0.0
 11
414.8106495585225
 21
529.9114240282328
 31
0.0
 11
415.0907862839073
 21
529.7275841234557
 31
0.0
 11
415.3698302423775
 21
529.4976677652783
 31
0.0
 11
415.6242475193901
 21
529.2411888976471
 31
0.0
 11
415.8730861714808
 21
528.9391542608967
 31
0.0
 11
416.0952695795078
 21
528.6172788210379
 31
0.0
 11
416.3062942298586
 21
528.2532261041756
 31
0.0
 11
416.4900608133996
 21
527.874853857801
 31
0.0
 11
416.657122855813
 21
527.4605151242889
 31
0.0
 11
416.7969590965394
 21
527.0363184515879
 31
0.0
 11
416.9153871657237
 21
526.5847201610171
 31
0.0
 11
417.0068190614206
 21
526.1269526766432
 31
0.0
 11
417.0734806103274
 21
525.6520592678859
 31
0.0
 11
417.1133505413609
 21
525.1741978992831
 31
0.0
 11
417.1267074134358
 21
524.6905139095775
 31
0.0
 11
417.113350541361
 21
524.2068299198719
 31
0.0
 11
417.0734806103274
 21
523.7289685512691
 31
0.0
 11
417.0068190614207
 21
523.2540751425117
 31
0.0
 11
416.9153871657237
 21
522.7963076581378
 31
0.0
 11
416.7969590965394
 21
522.344709367567
 31
0.0
 11
416.6571228558129
 21
521.9205126948662
 31
0.0
 11
416.4900608133995
 21
521.5061739613539
 31
0.0
 11
416.3062942298585
 21
521.1278017149791
 31
0.0
 11
416.0952695795078
 21
520.7637489981169
 31
0.0
 11
415.8730861714807
 21
520.4418735582582
 31
0.0
 11
415.6242475193901
 21
520.1398389215078
 31
0.0
 11
415.3698302423775
 21
519.8833600538763
 31
0.0
 11
415.0907862839073
 21
519.6534436956991
 31
0.0
 11
414.8106495585224
 21
519.4696037909221
 31
0.0
 11
414.5105465716917
 21
519.3198227808415
 31
0.0
 11
414.2115907559947
 21
519.2146210892712
 31
0.0
 11
413.9010755182106
 21
519.1500403838908
 31
0.0
 11
413.5913503063001
 21
519.1283650442557
 31
0.0
 11
413.2816250943895
 21
519.1500403838909
 31
0.0
 11
412.9711098566054
 21
519.2146210892713
 31
0.0
 11
412.6721540409085
 21
519.3198227808416
 31
0.0
 11
412.3720510540779
 21
519.4696037909221
 31
0.0
 11
412.091914328693
 21
519.6534436956993
 31
0.0
 11
411.8128703702226
 21
519.8833600538767
 31
0.0
 11
411.55845309321
 21
520.1398389215078
 31
0.0
 11
411.3096144411193
 21
520.4418735582583
 31
0.0
 11
411.0874310330923
 21
520.763748998117
 31
0.0
 11
410.8764063827416
 21
521.1278017149792
 31
0.0
 11
410.6926397992006
 21
521.5061739613539
 31
0.0
 11
410.5255777567873
 21
521.920512694866
 31
0.0
 11
410.3857415160609
 21
522.3447093675669
 31
0.0
 11
410.2673134468766
 21
522.7963076581376
 31
0.0
 11
410.1758815511796
 21
523.2540751425116
 31
0.0
 11
410.1092200022728
 21
523.7289685512691
 31
0.0
 11
410.0693500712392
 21
524.2068299198719
 31
0.0
 11
410.0559931991643
 21
524.6905139095775
 31
0.0
 11
410.0693500712391
 21
525.1741978992831
 31
0.0
 11
410.1092200022728
 21
525.6520592678859
 31
0.0
 11
410.1758815511795
 21
526.1269526766432
 31
0.0
 11
410.2673134468766
 21
526.5847201610175
 31
0.0
 11
410.3857415160609
 21
527.0363184515879
 31
0.0
 11
410.5255777567874
 21
527.4605151242888
 31
0.0
 11
410.6926397992006
 21
527.8748538578011
 31
0.0
 11
410.8764063827416
 21
528.2532261041758
 31
0.0
 11
411.0874310330923
 21
528.617278821038
 31
0.0
 11
411.3096144411193
 21
528.9391542608968
 31
0.0
 11
411.55845309321
 21
529.241188897647
 31
0.0
 11
411.8128703702226
 21
529.4976677652783
 31
0.0
 11
412.091914328693
 21
529.7275841234557
 31
0.0
 11
412.3720510540779
 21
529.9114240282328
 31
0.0
 11
412.6721540409085
 21
530.0612050383134
 31
0.0
 11
412.9711098566054
 21
530.1664067298837
 31
0.0
 11
413.2816250943896
 21
530.2309874352641
 31
0.0
 11
413.5913503063001
 21
530.2526627748993
 31
0.0
 11
413.9010755182106
 21
530.2309874352641
 31
0.0
  0
ENDBLK
  5
43
330
41
100
AcDbEntity
  8
0
100
AcDbBlockEnd
  0
BLOCK
  5
45
330
44
100
AcDbEntity
  8
0
100
AcDbBlockBegin
  2
36-1A-13-M4
 70
     0
 71
     0
 10
535.1958334228721
 20
322.5998147904834
 30
0.0
  3
36-1A-13-M4
  1

  0
LINE
  5
D3
330
44
100
AcDbEntity
  8
1
  6
Continuous
 62
     7
100
AcDbLine
 10
403.1267074134357
 20
215.4676887810471
 30
0.0
 11
395.6267074134355
 21
215.4676887810471
 31
0.0
  0
LINE
  5
D4
330
44
100
AcDbEntity
  8
1
  6
Continuous
 62
     7
100
AcDbLine
 10
395.6267074134355
 20
224.9676887810471
 30
0.0
 11
403.1267074134357
 21
224.9676887810471
 31
0.0
  0
LINE
  5
D5
330
44
100
AcDbEntity
  8
1
  6
Continuous
 62
     7
100
AcDbLine
 10
403.1267074134358
 20
513.4405139095775
 30
0.0
 11
398.6267074134358
 21
513.4405139095775
 31
0.0
  0
LINE
  5
D6
330
44
100
AcDbEntity
  8
1
  6
Continuous
 62
     7
100
AcDbLine
 10
398.6267074134358
 20
522.9405139095775
 30
0.0
 11
403.1267074134358
 21
522.9405139095775
 31
0.0
  0
ENDBLK
  5
46
330
44
100
AcDbEntity
  8
0
100
AcDbBlockEnd
  0
BLOCK
  5
4B
330
47
100
AcDbEntity
  8
0
100
AcDbBlockBegin
  2
R10A-13
 70
     0
 71
     0
 10
391.6267074134357
 20
175.2176887810471
 30
0.0
  3
R10A-13
  1

  0
INSERT
  5
48
330
47
100
AcDbEntity
  8
0
100
AcDbBlockReference
  2
R20F
 10
382.5281676272183
 20
201.7929144931214
 30
0.0
  0
INSERT
  5
49
330
47
100
AcDbEntity
  8
0
100
AcDbBlockReference
  2
37-1-13
 10
554.1224133035804
 20
312.0189189978181
 30
0.0
  0
INSERT
  5
4A
330
47
100
AcDbEntity
  8
0
100
AcDbBlockReference
  2
36-1A-13-M4
 10
535.1958334228721
 20
322.5998147904834
 30
0.0
  0
LINE
  5
D7
330
47
100
AcDbEntity
  8
1
  6
PHANTOM
 62
     4
100
AcDbLine
 10
409.1267074134357
 20
220.2176887810471
 30
0.0
 11
420.1267074134357
 21
220.2176887810471
 31
0.0
  0
LINE
  5
D8
330
47
100
AcDbEntity
  8
1
  6
PHANTOM
 62
     4
100
AcDbLine
 10
122.4446030410363
 20
201.7183571488158
 30
0.0
 11
173.6324164635332
 21
231.2716550075228
 31
0.0
  0
LINE
  5
D9
330
47
100
AcDbEntity
  8
1
  6
PHANTOM
 62
     4
100
AcDbLine
 10
135.9750287222076
 20
230.9052255040043
 30
0.0
 11
186.5281676272183
 21
201.7183571488158
 31
0.0
  0
ENDBLK
  5
4C
330
47
100
AcDbEntity
  8
0
100
AcDbBlockEnd
  0
BLOCK
  5
4E
330
4D
100
AcDbEntity
  8
0
100
AcDbBlockBegin
  2
A20L-0-13
 70
     0
 71
     0
 10
414.6267074134357
 20
197.2176887810471
 30
0.0
  3
A20L-0-13
  1

  0
LINE
  5
DA
330
4D
100
AcDbEntity
  8
1
  6
Continuous
 62
     7
100
AcDbLine
 10
128.1743402773
 20
211.4676887810473
 30
0.0
 11
115.9863853341273
 21
211.4676887810473
 31
0.0
  0
LINE
  5
DB
330
4D
100
AcDbEntity
  8
1
  6
Continuous
 62
     7
100
AcDbLine
 10
167.4863853341273
 20
243.7176887810471
 30
0.0
 11
161.0999662052344
 21
243.7176887810472
 31
0.0
  0
LINE
  5
DC
330
4D
100
AcDbEntity
  8
1
  6
Continuous
 62
     7
100
AcDbLine
 10
107.7543345265584
 20
210.7176887810473
 30
0.0
 11
107.7543345265584
 21
209.7176887810473
 31
0.0
  0
LINE
  5
DD
330
4D
100
AcDbEntity
  8
1
  6
Continuous
 62
     7
100
AcDbLine
 10
109.4863853341273
 20
209.7176887810473
 30
0.0
 11
96.48638533412731
 21
209.7176887810473
 31
0.0
  0
LINE
  5
DE
330
4D
100
AcDbEntity
  8
1
  6
Continuous
 62
     7
100
AcDbLine
 10
96.48638533412731
 20
230.7176887810473
 30
0.0
 11
109.4863853341273
 21
230.7176887810473
 31
0.0
  0
LINE
  5
DF
330
4D
100
AcDbEntity
  8
1
  6
Continuous
 62
     7
100
AcDbLine
 10
96.48638533412731
 20
230.7176887810473
 30
0.0
 11
95.48638533412731
 21
229.7176887810473
 31
0.0
  0
LINE
  5
E0
330
4D
100
AcDbEntity
  8
1
  6
Continuous
 62
     7
100
AcDbLine
 10
107.7543345265584
 20
230.7176887810473
 30
0.0
 11
107.7543345265584
 21
229.7176887810473
 31
0.0
  0
LINE
  5
E1
330
4D
100
AcDbEntity
  8
1
  6
Continuous
 62
     7
100
AcDbLine
 10
96.48638533412731
 20
229.7176887810473
 30
0.0
 11
96.48638533412731
 21
230.7176887810473
 31
0.0
  0
LINE
  5
E2
330
4D
100
AcDbEntity
  8
1
  6
Continuous
 62
     7
100
AcDbLine
 10
96.48638533412731
 20
209.7176887810473
 30
0.0
 11
96.48638533412731
 21
210.7176887810473
 31
0.0
  0
LINE
  5
E3
330
4D
100
AcDbEntity
  8
1
  6
Continuous
 62
     7
100
AcDbLine
 10
95.48638533412731
 20
210.7176887810473
 30
0.0
 11
96.48638533412731
 21
209.7176887810473
 31
0.0
  0
LINE
  5
E4
330
4D
100
AcDbEntity
  8
1
  6
Continuous
 62
     7
100
AcDbLine
 10
95.48638533412731
 20
210.7176887810473
 30
0.0
 11
95.48638533412731
 21
229.7176887810473
 31
0.0
  0
LINE
  5
E5
330
4D
100
AcDbEntity
  8
1
  6
Continuous
 62
     7
100
AcDbLine
 10
141.4863853341273
 20
245.2176887810471
 30
0.0
 11
141.4863853341273
 21
241.9856379734781
 31
0.0
  0
LINE
  5
E6
330
4D
100
AcDbEntity
  8
1
  6
Continuous
 62
     7
100
AcDbLine
 10
147.8728044630202
 20
243.7176887810472
 30
0.0
 11
141.4863853341273
 21
243.7176887810472
 31
0.0
  0
LINE
  5
E7
330
4D
100
AcDbEntity
  8
1
  6
Continuous
 62
     7
100
AcDbLine
 10
167.4863853341273
 20
229.5450678341362
 30
0.0
 11
167.4863853341273
 21
245.2176887810468
 31
0.0
  0
LINE
  5
E8
330
4D
100
AcDbEntity
  8
1
  6
Continuous
 62
     7
100
AcDbLine
 10
141.4863853341273
 20
240.9676887810473
 30
0.0
 11
141.4863853341273
 21
241.9856379734781
 31
0.0
  0
LINE
  5
E9
330
4D
100
AcDbEntity
  8
1
  6
Continuous
 62
     2
100
AcDbLine
 10
166.4863853341274
 20
245.2176887810471
 30
0.0
 11
166.4863853341273
 21
243.7176887810472
 31
0.0
  0
LINE
  5
EA
330
4D
100
AcDbEntity
  8
1
  6
Continuous
 62
     2
100
AcDbLine
 10
167.4863853341273
 20
241.9856379734785
 30
0.0
 11
166.4863853341273
 21
243.7176887810472
 31
0.0
  0
LINE
  5
EB
330
4D
100
AcDbEntity
  8
1
  6
Continuous
 62
     2
100
AcDbLine
 10
142.4863853341273
 20
243.7176887810472
 30
0.0
 11
141.4863853341273
 21
241.9856379734781
 31
0.0
  0
LINE
  5
EC
330
4D
100
AcDbEntity
  8
1
  6
Continuous
 62
     7
100
AcDbLine
 10
111.9863853341273
 20
242.7176887810472
 30
0.0
 11
111.9863853341273
 21
232.9676887810473
 31
0.0
  0
LINE
  5
ED
330
4D
100
AcDbEntity
  8
1
  6
Continuous
 62
     7
100
AcDbLine
 10
129.4863853341273
 20
228.9676887810473
 30
0.0
 11
115.9863853341273
 21
228.9676887810473
 31
0.0
  0
LINE
  5
EE
330
4D
100
AcDbEntity
  8
1
  6
Continuous
 62
     2
100
AcDbLine
 10
95.48638533412731
 20
229.7176887810473
 30
0.0
 11
107.7543345265584
 21
229.7176887810473
 31
0.0
  0
LINE
  5
EF
330
4D
100
AcDbEntity
  8
1
  6
Continuous
 62
     2
100
AcDbLine
 10
107.7543345265584
 20
229.7176887810473
 30
0.0
 11
109.4863853341273
 21
230.7176887810473
 31
0.0
  0
LINE
  5
F0
330
4D
100
AcDbEntity
  8
1
  6
Continuous
 62
     7
100
AcDbLine
 10
109.4863853341273
 20
230.7176887810473
 30
0.0
 11
109.4863853341273
 21
243.2176887810472
 31
0.0
  0
LINE
  5
F1
330
4D
100
AcDbEntity
  8
1
  6
Continuous
 62
     7
100
AcDbLine
 10
111.4863853341273
 20
243.2176887810472
 30
0.0
 11
109.4863853341273
 21
243.2176887810472
 31
0.0
  0
LINE
  5
F2
330
4D
100
AcDbEntity
  8
1
  6
Continuous
 62
     2
100
AcDbLine
 10
107.7543345265584
 20
210.7176887810473
 30
0.0
 11
95.48638533412731
 21
210.7176887810473
 31
0.0
  0
LINE
  5
F3
330
4D
100
AcDbEntity
  8
1
  6
Continuous
 62
     7
100
AcDbLine
 10
111.9863853341273
 20
207.4676887810473
 30
0.0
 11
111.9863853341273
 21
197.7176887810473
 31
0.0
  0
LINE
  5
F4
330
4D
100
AcDbEntity
  8
1
  6
Continuous
 62
     7
100
AcDbLine
 10
109.4863853341273
 20
197.2176887810473
 30
0.0
 11
111.4863853341273
 21
197.2176887810473
 31
0.0
  0
LINE
  5
F5
330
4D
100
AcDbEntity
  8
1
  6
Continuous
 62
     7
100
AcDbLine
 10
109.4863853341273
 20
197.2176887810473
 30
0.0
 11
109.4863853341273
 21
209.7176887810473
 31
0.0
  0
LINE
  5
F6
330
4D
100
AcDbEntity
  8
1
  6
Continuous
 62
     2
100
AcDbLine
 10
109.4863853341273
 20
209.7176887810473
 30
0.0
 11
107.7543345265584
 21
210.7176887810473
 31
0.0
  0
LINE
  5
F7
330
4D
100
AcDbEntity
  8
1
  6
Continuous
 62
     2
100
AcDbLine
 10
142.4863853341273
 20
243.7176887810472
 30
0.0
 11
142.4863853341274
 21
245.2176887810471
 31
0.0
  0
LINE
  5
F8
330
4D
100
AcDbEntity
  8
1
  6
Continuous
 62
     7
100
AcDbLine
 10
111.9863853341273
 20
207.4676887810473
 30
0.0
 11
111.9863853341273
 21
232.9676887810473
 31
0.0
  0
LINE
  5
F9
330
4D
100
AcDbEntity
  8
1
  6
Continuous
 62
     7
100
AcDbLine
 10
109.4863853341273
 20
209.7176887810473
 30
0.0
 11
109.4863853341273
 21
230.7176887810473
 31
0.0
  0
LINE
  5
FA
330
4D
100
AcDbEntity
  8
1
  6
Continuous
 62
     7
100
AcDbLine
 10
107.7543345265584
 20
229.7176887810473
 30
0.0
 11
107.7543345265584
 21
210.7176887810473
 31
0.0
  0
LINE
  5
FB
330
4D
100
AcDbEntity
  8
1
  6
Continuous
 62
     7
100
AcDbLine
 10
96.48638533412731
 20
210.7176887810473
 30
0.0
 11
96.48638533412731
 21
229.7176887810473
 31
0.0
  0
LINE
  5
FC
330
4D
100
AcDbEntity
  8
1
  6
Continuous
 62
     2
100
AcDbLine
 10
452.1267074134354
 20
577.190513909577
 30
0.0
 11
452.1267074134354
 21
564.9225647171459
 31
0.0
  0
LINE
  5
FD
330
4D
100
AcDbEntity
  8
1
  6
Continuous
 62
     2
100
AcDbLine
 10
452.1267074134354
 20
564.9225647171459
 30
0.0
 11
453.1267074134354
 21
563.190513909577
 31
0.0
  0
LINE
  5
FE
330
4D
100
AcDbEntity
  8
1
  6
Continuous
 62
     7
100
AcDbLine
 10
419.6267074134354
 20
563.190513909577
 30
0.0
 11
465.6267074134354
 21
563.190513909577
 31
0.0
  0
LINE
  5
FF
330
4D
100
AcDbEntity
  8
1
  6
Continuous
 62
     7
100
AcDbLine
 10
465.6267074134354
 20
561.190513909577
 30
0.0
 11
465.6267074134354
 21
563.190513909577
 31
0.0
  0
LINE
  5
100
330
4D
100
AcDbEntity
  8
1
  6
Continuous
 62
     7
100
AcDbLine
 10
465.1267074134354
 20
560.690513909577
 30
0.0
 11
420.1267074134354
 21
560.690513909577
 31
0.0
  0
LINE
  5
101
330
4D
100
AcDbEntity
  8
1
  6
Continuous
 62
     7
100
AcDbLine
 10
451.3767074134354
 20
556.690513909577
 30
0.0
 11
451.3767074134354
 21
537.0568198543044
 31
0.0
  0
LINE
  5
102
330
4D
100
AcDbEntity
  8
1
  6
Continuous
 62
     7
100
AcDbLine
 10
419.6267074134354
 20
563.190513909577
 30
0.0
 11
419.6267074134354
 21
561.190513909577
 31
0.0
  0
LINE
  5
103
330
4D
100
AcDbEntity
  8
1
  6
Continuous
 62
     2
100
AcDbLine
 10
432.1267074134354
 20
563.190513909577
 30
0.0
 11
433.1267074134354
 21
564.9225647171459
 31
0.0
  0
LINE
  5
104
330
4D
100
AcDbEntity
  8
1
  6
Continuous
 62
     2
100
AcDbLine
 10
433.1267074134354
 20
564.9225647171459
 30
0.0
 11
433.1267074134354
 21
577.190513909577
 31
0.0
  0
LINE
  5
105
330
4D
100
AcDbEntity
  8
1
  6
Continuous
 62
     7
100
AcDbLine
 10
433.8767074134354
 20
556.690513909577
 30
0.0
 11
433.8767074134354
 21
542.81869666787
 31
0.0
  0
LINE
  5
106
330
4D
100
AcDbEntity
  8
1
  6
Continuous
 62
     7
100
AcDbLine
 10
432.1267074134354
 20
563.190513909577
 30
0.0
 11
432.1267074134354
 21
576.190513909577
 31
0.0
  0
LINE
  5
107
330
4D
100
AcDbEntity
  8
1
  6
Continuous
 62
     7
100
AcDbLine
 10
433.1267074134354
 20
577.190513909577
 30
0.0
 11
432.1267074134354
 21
576.190513909577
 31
0.0
  0
LINE
  5
108
330
4D
100
AcDbEntity
  8
1
  6
Continuous
 62
     7
100
AcDbLine
 10
453.1267074134354
 20
564.9225647171459
 30
0.0
 11
432.1267074134354
 21
564.9225647171459
 31
0.0
  0
LINE
  5
109
330
4D
100
AcDbEntity
  8
1
  6
Continuous
 62
     7
100
AcDbLine
 10
432.1267074134354
 20
576.190513909577
 30
0.0
 11
453.1267074134354
 21
576.190513909577
 31
0.0
  0
LINE
  5
10A
330
4D
100
AcDbEntity
  8
1
  6
Continuous
 62
     7
100
AcDbLine
 10
453.1267074134354
 20
576.190513909577
 30
0.0
 11
453.1267074134354
 21
563.190513909577
 31
0.0
  0
LINE
  5
10B
330
4D
100
AcDbEntity
  8
1
  6
Continuous
 62
     7
100
AcDbLine
 10
453.1267074134354
 20
576.190513909577
 30
0.0
 11
452.1267074134354
 21
577.190513909577
 31
0.0
  0
LINE
  5
10C
330
4D
100
AcDbEntity
  8
1
  6
Continuous
 62
     7
100
AcDbLine
 10
433.1267074134354
 20
577.190513909577
 30
0.0
 11
452.1267074134354
 21
577.190513909577
 31
0.0
  0
LINE
  5
10D
330
4D
100
AcDbEntity
  8
1
  6
Continuous
 62
     7
100
AcDbLine
 10
420.6267074134358
 20
530.6997636624005
 30
0.0
 11
420.6267074134358
 21
530.1905139095775
 31
0.0
  0
LINE
  5
10E
330
4D
100
AcDbEntity
  8
1
  6
Continuous
 62
     7
100
AcDbLine
 10
420.6267074134358
 20
530.1905139095775
 30
0.0
 11
420.3587582210048
 21
530.1905139095775
 31
0.0
  0
LINE
  5
10F
330
4D
100
AcDbEntity
  8
1
  6
Continuous
 62
     7
100
AcDbLine
 10
420.3587582210048
 20
530.1905139095775
 30
0.0
 11
418.6267074134357
 21
530.1905139095775
 31
0.0
  0
LINE
  5
110
330
4D
100
AcDbEntity
  8
1
  6
Continuous
 62
     2
100
AcDbLine
 10
417.1267074134358
 20
529.1905139095775
 30
0.0
 11
418.6267074134357
 21
529.1905139095775
 31
0.0
  0
LINE
  5
111
330
4D
100
AcDbEntity
  8
1
  6
Continuous
 62
     2
100
AcDbLine
 10
420.3587582210048
 20
530.1905139095775
 30
0.0
 11
418.6267074134357
 21
529.1905139095775
 31
0.0
  0
LINE
  5
112
330
4D
100
AcDbEntity
  8
1
  6
Continuous
 62
     7
100
AcDbLine
 10
418.6267074134357
 20
530.1905139095775
 30
0.0
 11
418.6267074134357
 21
506.1905139095775
 31
0.0
  0
LINE
  5
113
330
4D
100
AcDbEntity
  8
1
  6
Continuous
 62
     2
100
AcDbLine
 10
418.6267074134357
 20
507.1905139095775
 30
0.0
 11
420.3587582210048
 21
506.1905139095775
 31
0.0
  0
LINE
  5
114
330
4D
100
AcDbEntity
  8
1
  6
Continuous
 62
     2
100
AcDbLine
 10
417.1267074134358
 20
507.1905139095775
 30
0.0
 11
418.6267074134357
 21
507.1905139095775
 31
0.0
  0
LINE
  5
115
330
4D
100
AcDbEntity
  8
1
  6
Continuous
 62
     7
100
AcDbLine
 10
417.1267074134358
 20
506.1905139095775
 30
0.0
 11
418.6267074134357
 21
506.1905139095775
 31
0.0
  0
LINE
  5
116
330
4D
100
AcDbEntity
  8
1
  6
Continuous
 62
     7
100
AcDbLine
 10
418.6267074134357
 20
506.1905139095775
 30
0.0
 11
420.3587582210048
 21
506.1905139095775
 31
0.0
  0
LINE
  5
117
330
4D
100
AcDbEntity
  8
1
  6
Continuous
 62
     7
100
AcDbLine
 10
420.3587582210048
 20
506.1905139095775
 30
0.0
 11
420.6267074134358
 21
506.1905139095775
 31
0.0
  0
LINE
  5
118
330
4D
100
AcDbEntity
  8
1
  6
Continuous
 62
     7
100
AcDbLine
 10
420.6267074134358
 20
506.1905139095775
 30
0.0
 11
420.6267074134358
 21
505.6812641567547
 31
0.0
  0
LINE
  5
119
330
4D
100
AcDbEntity
  8
1
  6
Continuous
 62
     7
100
AcDbLine
 10
420.6267074134358
 20
506.1905139095775
 30
0.0
 11
420.6267074134358
 21
530.1905139095775
 31
0.0
  0
LINE
  5
11A
330
4D
100
AcDbEntity
  8
1
  6
Continuous
 62
     7
100
AcDbLine
 10
422.7264263888191
 20
530.8488187377127
 30
0.0
 11
420.6267074134358
 21
530.6997636624005
 31
0.0
  0
LINE
  5
11B
330
4D
100
AcDbEntity
  8
1
  6
Continuous
 62
     7
100
AcDbLine
 10
420.6267074134358
 20
505.6812641567547
 30
0.0
 11
423.4577123217161
 21
505.4802964773842
 31
0.0
  0
LINE
  5
11C
330
4D
100
AcDbEntity
  8
1
  6
PHANTOM
 62
     4
100
AcDbLine
 10
380.257571872934
 20
518.1905139095777
 30
0.0
 11
462.286194663422
 21
518.1905139095777
 31
0.0
  0
LINE
  5
11D
330
4D
100
AcDbEntity
  8
1
  6
Continuous
 62
     7
100
AcDbLine
 10
418.6267074134357
 20
530.1905139095775
 30
0.0
 11
417.1267074134358
 21
530.1905139095775
 31
0.0
  0
LINE
  5
11E
330
4D
100
AcDbEntity
  8
1
  6
Continuous
 62
     7
100
AcDbLine
 10
423.4577123217161
 20
505.4802964773842
 30
0.0
 11
434.6267074134358
 21
504.6874306586366
 31
0.0
  0
LINE
  5
11F
330
4D
100
AcDbEntity
  8
1
  6
Continuous
 62
     2
100
AcDbLine
 10
430.6267074134358
 20
245.2176887810471
 30
0.0
 11
430.6267074134358
 21
243.7176887810472
 31
0.0
  0
LINE
  5
120
330
4D
100
AcDbEntity
  8
1
  6
Continuous
 62
     2
100
AcDbLine
 10
430.6267074134358
 20
243.7176887810472
 30
0.0
 11
429.6267074134358
 21
241.9856379734781
 31
0.0
  0
LINE
  5
121
330
4D
100
AcDbEntity
  8
1
  6
Continuous
 62
     7
100
AcDbLine
 10
429.6267074134358
 20
240.9676887810473
 30
0.0
 11
429.6267074134358
 21
241.9856379734781
 31
0.0
  0
LINE
  5
122
330
4D
100
AcDbEntity
  8
1
  6
Continuous
 62
     2
100
AcDbLine
 10
455.6267074134358
 20
241.9856379734785
 30
0.0
 11
454.6267074134358
 21
243.7176887810472
 31
0.0
  0
LINE
  5
123
330
4D
100
AcDbEntity
  8
1
  6
Continuous
 62
     2
100
AcDbLine
 10
454.6267074134358
 20
245.2176887810471
 30
0.0
 11
454.6267074134358
 21
243.7176887810472
 31
0.0
  0
LINE
  5
124
330
4D
100
AcDbEntity
  8
1
  6
Continuous
 62
     7
100
AcDbLine
 10
455.6267074134358
 20
239.1913547420574
 30
0.0
 11
455.6267074134358
 21
241.9856379734785
 31
0.0
  0
LINE
  5
125
330
4D
100
AcDbEntity
  8
1
  6
Continuous
 62
     7
100
AcDbLine
 10
455.6267074134358
 20
243.7176887810471
 30
0.0
 11
455.6267074134358
 21
241.9856379734785
 31
0.0
  0
LINE
  5
126
330
4D
100
AcDbEntity
  8
1
  6
Continuous
 62
     7
100
AcDbLine
 10
455.6267074134358
 20
245.2176887810468
 30
0.0
 11
455.6267074134358
 21
243.7176887810471
 31
0.0
  0
LINE
  5
127
330
4D
100
AcDbEntity
  8
1
  6
Continuous
 62
     7
100
AcDbLine
 10
429.6267074134358
 20
241.9856379734781
 30
0.0
 11
429.6267074134358
 21
243.7176887810472
 31
0.0
  0
LINE
  5
128
330
4D
100
AcDbEntity
  8
1
  6
Continuous
 62
     7
100
AcDbLine
 10
455.6267074134358
 20
243.7176887810471
 30
0.0
 11
429.6267074134358
 21
243.7176887810472
 31
0.0
  0
LINE
  5
129
330
4D
100
AcDbEntity
  8
1
  6
Continuous
 62
     7
100
AcDbLine
 10
423.4577123217161
 20
232.9279062132404
 30
0.0
 11
420.6267074134358
 21
232.7269385338699
 31
0.0
  0
LINE
  5
12A
330
4D
100
AcDbEntity
  8
1
  6
Continuous
 62
     7
100
AcDbLine
 10
420.6267074134358
 20
232.7269385338699
 30
0.0
 11
420.6267074134358
 21
232.2176887810471
 31
0.0
  0
LINE
  5
12B
330
4D
100
AcDbEntity
  8
1
  6
Continuous
 62
     7
100
AcDbLine
 10
420.6267074134358
 20
232.2176887810471
 30
0.0
 11
420.3587582210048
 21
232.2176887810471
 31
0.0
  0
LINE
  5
12C
330
4D
100
AcDbEntity
  8
1
  6
Continuous
 62
     7
100
AcDbLine
 10
420.3587582210048
 20
232.2176887810471
 30
0.0
 11
418.6267074134358
 21
232.2176887810471
 31
0.0
  0
LINE
  5
12D
330
4D
100
AcDbEntity
  8
1
  6
Continuous
 62
     7
100
AcDbLine
 10
418.6267074134358
 20
232.2176887810471
 30
0.0
 11
417.1267074134358
 21
232.2176887810471
 31
0.0
  0
LINE
  5
12E
330
4D
100
AcDbEntity
  8
1
  6
Continuous
 62
     2
100
AcDbLine
 10
417.1267074134358
 20
231.2176887810471
 30
0.0
 11
418.6267074134358
 21
231.2176887810471
 31
0.0
  0
LINE
  5
12F
330
4D
100
AcDbEntity
  8
1
  6
Continuous
 62
     2
100
AcDbLine
 10
420.3587582210048
 20
232.2176887810471
 30
0.0
 11
418.6267074134358
 21
231.2176887810471
 31
0.0
  0
LINE
  5
130
330
4D
100
AcDbEntity
  8
1
  6
Continuous
 62
     7
100
AcDbLine
 10
418.6267074134358
 20
232.2176887810471
 30
0.0
 11
418.6267074134358
 21
208.2176887810471
 31
0.0
  0
LINE
  5
131
330
4D
100
AcDbEntity
  8
1
  6
Continuous
 62
     2
100
AcDbLine
 10
418.6267074134358
 20
209.2176887810471
 30
0.0
 11
420.3587582210048
 21
208.2176887810471
 31
0.0
  0
LINE
  5
132
330
4D
100
AcDbEntity
  8
1
  6
Continuous
 62
     2
100
AcDbLine
 10
417.1267074134358
 20
209.2176887810471
 30
0.0
 11
418.6267074134358
 21
209.2176887810471
 31
0.0
  0
LINE
  5
133
330
4D
100
AcDbEntity
  8
1
  6
Continuous
 62
     7
100
AcDbLine
 10
417.1267074134358
 20
208.2176887810471
 30
0.0
 11
418.6267074134358
 21
208.2176887810471
 31
0.0
  0
LINE
  5
134
330
4D
100
AcDbEntity
  8
1
  6
Continuous
 62
     7
100
AcDbLine
 10
418.6267074134358
 20
208.2176887810471
 30
0.0
 11
420.3587582210048
 21
208.2176887810471
 31
0.0
  0
LINE
  5
135
330
4D
100
AcDbEntity
  8
1
  6
Continuous
 62
     7
100
AcDbLine
 10
420.3587582210048
 20
208.2176887810471
 30
0.0
 11
420.6267074134358
 21
208.2176887810471
 31
0.0
  0
LINE
  5
136
330
4D
100
AcDbEntity
  8
1
  6
Continuous
 62
     7
100
AcDbLine
 10
420.6267074134358
 20
208.2176887810471
 30
0.0
 11
420.6267074134358
 21
207.7084390282241
 31
0.0
  0
LINE
  5
137
330
4D
100
AcDbEntity
  8
1
  6
Continuous
 62
     7
100
AcDbLine
 10
423.4577123217161
 20
207.5074713488538
 30
0.0
 11
441.6267074134358
 21
206.2176887810471
 31
0.0
  0
LINE
  5
138
330
4D
100
AcDbEntity
  8
1
  6
Continuous
 62
     7
100
AcDbLine
 10
429.6267074134358
 20
239.1913547420574
 30
0.0
 11
429.6267074134358
 21
240.9676887810473
 31
0.0
  0
LINE
  5
139
330
4D
100
AcDbEntity
  8
1
  6
Continuous
 62
     7
100
AcDbLine
 10
420.6267074134358
 20
207.7084390282241
 30
0.0
 11
423.4577123217161
 21
207.5074713488538
 31
0.0
  0
LINE
  5
13A
330
4D
100
AcDbEntity
  8
1
  6
Continuous
 62
     7
100
AcDbLine
 10
420.6267074134358
 20
208.2176887810471
 30
0.0
 11
420.6267074134358
 21
232.2176887810471
 31
0.0
  0
LINE
  5
13B
330
4D
100
AcDbEntity
  8
1
  6
Continuous
 62
     7
100
AcDbLine
 10
424.0515669011278
 20
232.9700628256711
 30
0.0
 11
423.4577123217161
 21
232.9279062132404
 31
0.0
  0
LINE
  5
13C
330
4D
100
AcDbEntity
  8
1
  6
Continuous
 62
     7
100
AcDbLine
 10
455.6267074134358
 20
220.2176887810471
 30
0.0
 11
455.6267074134358
 21
239.1913547420574
 31
0.0
  0
LINE
  5
13D
330
4D
100
AcDbEntity
  8
1
  6
Continuous
 62
     7
100
AcDbLine
 10
429.6267074134358
 20
238.9550017907499
 30
0.0
 11
429.6267074134358
 21
239.1913547420574
 31
0.0
  0
LINE
  5
13E
330
4D
100
AcDbEntity
  8
1
  6
Continuous
 62
     7
100
AcDbLine
 10
440.7202794503581
 20
222.097759174449
 30
0.0
 11
428.9358062060705
 21
233.7193046393272
 31
0.0
  0
LINE
  5
13F
330
4D
100
AcDbEntity
  8
1
  6
Continuous
 62
     7
100
AcDbLine
 10
429.6267074134358
 20
243.7176887810472
 30
0.0
 11
429.6267074134358
 21
245.2176887810471
 31
0.0
  0
ARC
  5
140
330
4D
100
AcDbEntity
  8
1
  6
Continuous
 62
     7
100
AcDbCircle
 10
154.4863853341273
 20
220.2176887810473
 30
0.0
 40
13.99999999999996
100
AcDbArc
 50
-97.1288259215215
 51
-82.86612335666881
  0
ARC
  5
141
330
4D
100
AcDbEntity
  8
1
  6
Continuous
 62
     7
100
AcDbCircle
 10
129.4863853341273
 20
240.9676887810473
 30
0.0
 40
12.0
100
AcDbArc
 50
-90.0
 51
0.0
  0
ARC
  5
142
330
4D
100
AcDbEntity
  8
1
  6
Continuous
 62
     7
100
AcDbCircle
 10
197.4863853341274
 20
229.5450678341362
 30
0.0
 40
30.00000000000009
100
AcDbArc
 50
180.0
 51
-171.1668016303222
  0
ARC
  5
143
330
4D
100
AcDbEntity
  8
1
  6
Continuous
 62
     7
100
AcDbCircle
 10
442.6267074134358
 20
220.2176887810473
 30
0.0
 40
23.00000000000019
100
AcDbArc
 50
-146.4531849841855
 51
55.5826112895582
  0
ARC
  5
144
330
4D
100
AcDbEntity
  8
1
  6
Continuous
 62
     7
100
AcDbCircle
 10
441.6267074134358
 20
220.2176887810471
 30
0.0
 40
14.0
100
AcDbArc
 50
-90.0
 51
0.0
  0
ARC
  5
145
330
4D
100
AcDbEntity
  8
1
  6
Continuous
 62
     7
100
AcDbCircle
 10
442.6267074134358
 20
220.2176887810473
 30
0.0
 40
22.99999999999987
100
AcDbArc
 50
124.4173887104418
 51
146.4531849841862
  0
ARC
  5
146
330
4D
100
AcDbEntity
  8
1
  6
Continuous
 62
     7
100
AcDbCircle
 10
111.4863853341273
 20
242.7176887810472
 30
0.0
 40
0.5
100
AcDbArc
 50
0.0
 51
90.0
  0
ARC
  5
147
330
4D
100
AcDbEntity
  8
1
  6
Continuous
 62
     7
100
AcDbCircle
 10
115.9863853341273
 20
232.9676887810473
 30
0.0
 40
4.0
100
AcDbArc
 50
180.0
 51
-90.0
  0
ARC
  5
148
330
4D
100
AcDbEntity
  8
1
  6
Continuous
 62
     7
100
AcDbCircle
 10
111.4863853341273
 20
197.7176887810473
 30
0.0
 40
0.5
100
AcDbArc
 50
-90.0
 51
0.0
  0
ARC
  5
149
330
4D
100
AcDbEntity
  8
1
  6
Continuous
 62
     7
100
AcDbCircle
 10
115.9863853341273
 20
207.4676887810473
 30
0.0
 40
4.0
100
AcDbArc
 50
90.0
 51
180.0
  0
ARC
  5
14A
330
4D
100
AcDbEntity
  8
1
  6
Continuous
 62
     7
100
AcDbCircle
 10
455.3767074134354
 20
556.690513909577
 30
0.0
 40
4.0
100
AcDbArc
 50
90.0
 51
180.0
  0
ARC
  5
14B
330
4D
100
AcDbEntity
  8
1
  6
Continuous
 62
     7
100
AcDbCircle
 10
429.8767074134354
 20
556.690513909577
 30
0.0
 40
4.0
100
AcDbArc
 50
0.0
 51
90.0
  0
ARC
  5
14C
330
4D
100
AcDbEntity
  8
1
  6
Continuous
 62
     7
100
AcDbCircle
 10
420.1267074134354
 20
561.190513909577
 30
0.0
 40
0.5
100
AcDbArc
 50
180.0
 51
-90.0
  0
ARC
  5
14D
330
4D
100
AcDbEntity
  8
1
  6
Continuous
 62
     7
100
AcDbCircle
 10
465.1267074134354
 20
561.190513909577
 30
0.0
 40
0.5
100
AcDbArc
 50
-90.0
 51
0.0
  0
ARC
  5
14E
330
4D
100
AcDbEntity
  8
1
  6
Continuous
 62
     7
100
AcDbCircle
 10
481.3767074134354
 20
537.0568198543044
 30
0.0
 40
30.0
100
AcDbArc
 50
180.0
 51
-164.8973630808141
  0
ARC
  5
14F
330
4D
100
AcDbEntity
  8
1
  6
Continuous
 62
     7
100
AcDbCircle
 10
421.8767074134354
 20
542.81869666787
 30
0.0
 40
11.99999999999973
100
AcDbArc
 50
-85.93949265135289
 51
0.0
  0
ARC
  5
150
330
4D
100
AcDbEntity
  8
1
  6
Continuous
 62
     7
100
AcDbCircle
 10
423.6267074134358
 20
238.9550017907499
 30
0.0
 40
6.000000000000017
100
AcDbArc
 50
-85.93949265135163
 51
0.0
  0
ENDBLK
  5
4F
330
4D
100
AcDbEntity
  8
0
100
AcDbBlockEnd
  0
BLOCK
  5
51
330
50
100
AcDbEntity
  8
0
100
AcDbBlockBegin
  2
32-1-16
 70
     0
 71
     0
 10
372.8394293069273
 20
478.2526000236506
 30
0.0
  3
32-1-16
  1

  0
LINE
  5
151
330
50
100
AcDbEntity
  8
1
  6
Continuous
 62
     7
100
AcDbLine
 10
167.7863853341273
 20
245.2176887810472
 30
0.0
 11
160.9659916090189
 21
245.2176887810472
 31
0.0
  0
LINE
  5
152
330
50
100
AcDbEntity
  8
1
  6
Continuous
 62
     7
100
AcDbLine
 10
142.9283642723967
 20
254.2176887810472
 30
0.0
 11
142.9863853341273
 21
254.2176887810472
 31
0.0
  0
LINE
  5
153
330
50
100
AcDbEntity
  8
1
  6
Continuous
 62
     7
100
AcDbLine
 10
167.7863853341273
 20
245.2176887810472
 30
0.0
 11
167.6733853341273
 21
245.2176887810472
 31
0.0
  0
LINE
  5
154
330
50
100
AcDbEntity
  8
1
  6
Continuous
 62
     7
100
AcDbLine
 10
165.9863853341273
 20
254.2176887810472
 30
0.0
 11
166.044406395858
 21
254.2176887810472
 31
0.0
  0
LINE
  5
155
330
50
100
AcDbEntity
  8
1
  6
Continuous
 62
     7
100
AcDbLine
 10
148.0067790592356
 20
245.2176887810472
 30
0.0
 11
141.1863853341273
 21
245.2176887810471
 31
0.0
  0
LINE
  5
156
330
50
100
AcDbEntity
  8
1
  6
Continuous
 62
     7
100
AcDbLine
 10
164.2543345265584
 20
255.2176887810472
 30
0.0
 11
144.7184361416962
 21
255.2176887810472
 31
0.0
  0
LINE
  5
157
330
50
100
AcDbEntity
  8
1
  6
Continuous
 62
     7
100
AcDbLine
 10
168.4863853341273
 20
252.9308660307605
 30
0.0
 11
168.4863853341273
 21
245.7894376022176
 31
0.0
  0
LINE
  5
158
330
50
100
AcDbEntity
  8
1
  6
Continuous
 62
     7
100
AcDbLine
 10
140.4863853341273
 20
245.7894376022176
 30
0.0
 11
140.4863853341273
 21
252.9308660307602
 31
0.0
  0
LINE
  5
159
330
50
100
AcDbEntity
  8
1
  6
Continuous
 62
     7
100
AcDbLine
 10
143.8524107379117
 20
254.2176887810472
 30
0.0
 11
165.1203599303428
 21
254.2176887810472
 31
0.0
  0
LINE
  5
15A
330
50
100
AcDbEntity
  8
1
  6
Continuous
 62
     7
100
AcDbLine
 10
454.1267074134358
 20
254.2176887810472
 30
0.0
 11
454.1847284751665
 21
254.2176887810472
 31
0.0
  0
LINE
  5
15B
330
50
100
AcDbEntity
  8
1
  6
Continuous
 62
     7
100
AcDbLine
 10
455.9267074134358
 20
245.2176887810472
 30
0.0
 11
455.8137074134359
 21
245.2176887810472
 31
0.0
  0
LINE
  5
15C
330
50
100
AcDbEntity
  8
1
  6
Continuous
 62
     7
100
AcDbLine
 10
442.6267074134358
 20
245.2176887810471
 30
0.0
 11
455.9267074134358
 21
245.2176887810472
 31
0.0
  0
LINE
  5
15D
330
50
100
AcDbEntity
  8
1
  6
Continuous
 62
     7
100
AcDbLine
 10
449.2787747612611
 20
532.1905139095777
 30
0.0
 11
435.9746400656109
 21
532.1905139095777
 31
0.0
  0
LINE
  5
15E
330
50
100
AcDbEntity
  8
1
  6
Continuous
 62
     7
100
AcDbLine
 10
433.8283854343663
 20
530.9513732204791
 30
0.0
 11
427.1763180865414
 21
519.4296545986763
 31
0.0
  0
LINE
  5
15F
330
50
100
AcDbEntity
  8
1
  6
Continuous
 62
     7
100
AcDbLine
 10
427.1763180865414
 20
516.9513732204791
 30
0.0
 11
433.8283854343663
 21
505.4296545986762
 31
0.0
  0
LINE
  5
160
330
50
100
AcDbEntity
  8
1
  6
Continuous
 62
     7
100
AcDbLine
 10
434.1331198267503
 20
255.2176887810471
 30
0.0
 11
432.8587582210047
 21
255.2176887810472
 31
0.0
  0
LINE
  5
161
330
50
100
AcDbEntity
  8
1
  6
Continuous
 62
     7
100
AcDbLine
 10
431.0686863517052
 20
254.2176887810472
 30
0.0
 11
431.1267074134358
 21
254.2176887810472
 31
0.0
  0
LINE
  5
162
330
50
100
AcDbEntity
  8
1
  6
Continuous
 62
     7
100
AcDbLine
 10
429.4397074134358
 20
245.2176887810471
 30
0.0
 11
429.3267074134358
 21
245.2176887810471
 31
0.0
  0
LINE
  5
163
330
50
100
AcDbEntity
  8
1
  6
Continuous
 62
     7
100
AcDbLine
 10
429.3267074134358
 20
245.2176887810471
 30
0.0
 11
442.6267074134358
 21
245.2176887810471
 31
0.0
  0
LINE
  5
164
330
50
100
AcDbEntity
  8
1
  6
Continuous
 62
     7
100
AcDbLine
 10
452.3946566058669
 20
255.2176887810472
 30
0.0
 11
451.2106764691873
 21
255.2176887810471
 31
0.0
  0
LINE
  5
165
330
50
100
AcDbEntity
  8
1
  6
Continuous
 62
     7
100
AcDbLine
 10
458.0770967403303
 20
519.4296545986763
 30
0.0
 11
451.4250293925054
 21
530.9513732204791
 31
0.0
  0
LINE
  5
166
330
50
100
AcDbEntity
  8
1
  6
Continuous
 62
     7
100
AcDbLine
 10
451.4250293925054
 20
505.4296545986762
 30
0.0
 11
458.0770967403302
 21
516.9513732204791
 31
0.0
  0
ARC
  5
167
330
50
100
AcDbEntity
  8
1
  6
Continuous
 62
     7
100
AcDbCircle
 10
143.9863853341273
 20
249.360151816489
 30
0.0
 40
4.999999999999992
100
AcDbArc
 50
105.3375576695544
 51
134.4270040008076
  0
ARC
  5
168
330
50
100
AcDbEntity
  8
1
  6
Continuous
 62
     7
100
AcDbCircle
 10
164.9863853341273
 20
249.360151816489
 30
0.0
 40
5.000000000000165
100
AcDbArc
 50
-55.94420225743361
 51
-45.57299599919425
  0
ARC
  5
169
330
50
100
AcDbEntity
  8
1
  6
Continuous
 62
     7
100
AcDbCircle
 10
164.9863853341273
 20
249.360151816489
 30
0.0
 40
5.000000000000057
100
AcDbArc
 50
45.57299599919494
 51
74.66244233044463
  0
ARC
  5
16A
330
50
100
AcDbEntity
  8
1
  6
Continuous
 62
     7
100
AcDbCircle
 10
143.9863853341273
 20
249.360151816489
 30
0.0
 40
4.999999999999996
100
AcDbArc
 50
-134.4270040008057
 51
-124.0557977425659
  0
ARC
  5
16B
330
50
100
AcDbEntity
  8
1
  6
Continuous
 62
     7
100
AcDbCircle
 10
453.1267074134358
 20
249.360151816489
 30
0.0
 40
5.000000000000181
100
AcDbArc
 50
-55.94420225743335
 51
74.66244233044463
  0
ARC
  5
16C
330
50
100
AcDbEntity
  8
1
  6
Continuous
 62
     7
100
AcDbCircle
 10
442.6267074134358
 20
518.1905139095777
 30
0.0
 40
15.49999999999993
100
AcDbArc
 50
115.4146209151604
 51
124.5853790848387
  0
ARC
  5
16D
330
50
100
AcDbEntity
  8
1
  6
Continuous
 62
     7
100
AcDbCircle
 10
442.6267074134358
 20
518.1905139095777
 30
0.0
 40
15.49999999999971
100
AcDbArc
 50
175.4146209151608
 51
180.0
  0
ARC
  5
16E
330
50
100
AcDbEntity
  8
1
  6
Continuous
 62
     7
100
AcDbCircle
 10
442.6267074134358
 20
518.1905139095777
 30
0.0
 40
15.49999999999995
100
AcDbArc
 50
-124.5853790848386
 51
-121.0729509721527
  0
ARC
  5
16F
330
50
100
AcDbEntity
  8
1
  6
Continuous
 62
     7
100
AcDbCircle
 10
442.6267074134358
 20
518.1905139095777
 30
0.0
 40
15.49999999999966
100
AcDbArc
 50
180.0
 51
-175.4146209151608
  0
ARC
  5
170
330
50
100
AcDbEntity
  8
1
  6
Continuous
 62
     7
100
AcDbCircle
 10
432.1267074134358
 20
249.360151816489
 30
0.0
 40
4.999999999999985
100
AcDbArc
 50
105.3375576695541
 51
-124.0557977425654
  0
ARC
  5
171
330
50
100
AcDbEntity
  8
1
  6
Continuous
 62
     7
100
AcDbCircle
 10
442.6267074134358
 20
518.1905139095777
 30
0.0
 40
15.49999999999997
100
AcDbArc
 50
55.41462091516095
 51
64.58537908483807
  0
ARC
  5
172
330
50
100
AcDbEntity
  8
1
  6
Continuous
 62
     7
100
AcDbCircle
 10
442.6267074134358
 20
518.1905139095777
 30
0.0
 40
15.49999999999972
100
AcDbArc
 50
0.0
 51
4.58537908483918
  0
ARC
  5
173
330
50
100
AcDbEntity
  8
1
  6
Continuous
 62
     7
100
AcDbCircle
 10
442.6267074134358
 20
518.1905139095777
 30
0.0
 40
15.49999999999992
100
AcDbArc
 50
-58.92704902784674
 51
-55.41462091516106
  0
ARC
  5
174
330
50
100
AcDbEntity
  8
1
  6
Continuous
 62
     7
100
AcDbCircle
 10
442.6267074134358
 20
518.1905139095777
 30
0.0
 40
15.49999999999977
100
AcDbArc
 50
-4.58537908483921
 51
0.0
  0
ARC
  5
175
330
50
100
AcDbEntity
  8
1
  6
Continuous
 62
     7
100
AcDbCircle
 10
442.6267074134358
 20
518.1905139095777
 30
0.0
 40
10.76794919243105
100
AcDbArc
 50
89.99999999999879
 51
-137.9829399353515
  0
ARC
  5
176
330
50
100
AcDbEntity
  8
1
  6
Continuous
 62
     7
100
AcDbCircle
 10
442.6267074134358
 20
518.1905139095777
 30
0.0
 40
10.7679491924311
100
AcDbArc
 50
-42.01706006464772
 51
89.99999999999879
  0
SPLINE
  5
177
330
50
100
AcDbEntity
  8
1
  6
Continuous
 62
     7
100
AcDbSpline
210
0.0
220
0.0
230
1.0
 70
     8
 71
     3
 72
    25
 73
    21
 74
    19
 42
0.0000000001
 43
0.0000000001
 44
0.00000001
 40
0.0
 40
0.0
 40
0.0
 40
0.0
 40
1.525997370510165
 40
3.04199200390826
 40
4.036425737836115
 40
5.033630630935212
 40
5.779988211950895
 40
6.525153434394569
 40
7.11313966633645
 40
7.696814705995027
 40
7.949097156283714
 40
8.201245184935901
 40
8.846896632263274
 40
9.499909919801441
 40
10.2499429155619
 40
11.00216046997816
 40
12.12686677425067
 40
13.24812599415161
 40
14.81779815243863
 40
16.39782997493267
 40
16.39782997493267
 40
16.39782997493267
 40
16.39782997493267
 10
442.6267074134358
 20
245.7894542513527
 30
0.0
 10
442.1191585854478
 20
245.8227721200279
 30
0.0
 10
441.1073878536171
 20
245.8891894625841
 30
0.0
 10
439.7737254315562
 20
246.103109737115
 30
0.0
 10
438.65866308823
 20
246.4659491725067
 30
0.0
 10
437.8334676239449
 20
246.8625928494806
 30
0.0
 10
437.1359252995288
 20
247.3158020755428
 30
0.0
 10
436.6227174952492
 20
247.788904666188
 30
0.0
 10
436.2459100864496
 20
248.3094654476241
 30
0.0
 10
436.0566917185834
 20
248.7511835650684
 30
0.0
 10
435.9852723150443
 20
249.1077249271681
 30
0.0
 10
435.9598781180427
 20
249.4914156088365
 30
0.0
 10
436.0586349578408
 20
250.0091691567187
 30
0.0
 10
436.3687273887776
 20
250.6252471636436
 30
0.0
 10
436.8493027296884
 20
251.1693861288952
 30
0.0
 10
437.5518281115158
 20
251.697356630042
 30
0.0
 10
438.4369384556903
 20
252.1718241868045
 30
0.0
 10
439.6438226296401
 20
252.5885021216512
 30
0.0
 10
441.0538210648506
 20
252.8238205639997
 30
0.0
 10
442.1012635858523
 20
252.8951745217069
 30
0.0
 10
442.6267074134358
 20
252.930968845404
 30
0.0
 11
442.6267074134358
 21
245.7894542513527
 31
0.0
 11
441.1057409124157
 21
245.9132640957868
 31
0.0
 11
439.6128515687105
 21
246.1769327058698
 31
0.0
 11
438.6677413075803
 21
246.4862303707175
 31
0.0
 11
437.7699030889776
 21
246.9201706108855
 31
0.0
 11
437.148098075916
 21
247.3329758488258
 31
0.0
 11
436.6048414991442
 21
247.8430184946249
 31
0.0
 11
436.2638575272868
 21
248.3220359680949
 31
0.0
 11
436.0400601835734
 21
248.8611011783128
 31
0.0
 11
435.9907591799238
 21
249.108519540127
 31
0.0
 11
435.9746400656107
 21
249.3601518164886
 31
0.0
 11
436.0863110709109
 21
249.9960727062313
 31
0.0
 11
436.3758088137136
 21
250.5814080038288
 31
0.0
 11
436.8654615605448
 21
251.1495538321599
 31
0.0
 11
437.4605903224006
 21
251.6096114437522
 31
0.0
 11
438.449830879974
 21
252.1447445020865
 31
0.0
 11
439.5084543508035
 21
252.5142557809695
 31
0.0
 11
441.0522914816842
 21
252.7978710094316
 31
0.0
 11
442.6267074134358
 21
252.930968845404
 31
0.0
  0
SPLINE
  5
178
330
50
100
AcDbEntity
  8
1
  6
Continuous
 62
     7
100
AcDbSpline
210
0.0
220
0.0
230
1.0
 70
     8
 71
     3
 72
    25
 73
    21
 74
    19
 42
0.0000000001
 43
0.0000000001
 44
0.00000001
 40
0.0
 40
0.0
 40
0.0
 40
0.0
 40
1.525997370510108
 40
3.04199200390826
 40
4.036425737836061
 40
5.033630630935158
 40
5.77998821195084
 40
6.525153434394515
 40
7.113139666336362
 40
7.69681470599496
 40
7.949097156283647
 40
8.201245184935839
 40
8.846896632263221
 40
9.499909919801388
 40
10.24994291556173
 40
11.00216046997793
 40
12.12686677425034
 40
13.24812599415145
 40
14.81779815243856
 40
16.39782997493262
 40
16.39782997493262
 40
16.39782997493262
 40
16.39782997493262
 10
442.6267074134358
 20
245.7894542513527
 30
0.0
 10
443.1342562414238
 20
245.8227721200278
 30
0.0
 10
444.1460269732543
 20
245.889189462584
 30
0.0
 10
445.4796893953153
 20
246.1031097371151
 30
0.0
 10
446.5947517386416
 20
246.4659491725066
 30
0.0
 10
447.4199472029266
 20
246.8625928494806
 30
0.0
 10
448.1174895273426
 20
247.3158020755429
 30
0.0
 10
448.6306973316222
 20
247.7889046661879
 30
0.0
 10
449.0075047404218
 20
248.3094654476242
 30
0.0
 10
449.1967231082882
 20
248.7511835650684
 30
0.0
 10
449.2681425118273
 20
249.1077249271681
 30
0.0
 10
449.2935367088289
 20
249.4914156088365
 30
0.0
 10
449.1947798690307
 20
250.0091691567187
 30
0.0
 10
448.8846874380938
 20
250.6252471636435
 30
0.0
 10
448.4041120971833
 20
251.1693861288952
 30
0.0
 10
447.701586715356
 20
251.697356630042
 30
0.0
 10
446.8164763711815
 20
252.1718241868046
 30
0.0
 10
445.6095921972316
 20
252.5885021216512
 30
0.0
 10
444.1995937620209
 20
252.8238205639996
 30
0.0
 10
443.1521512410192
 20
252.8951745217069
 30
0.0
 10
442.6267074134358
 20
252.930968845404
 30
0.0
 11
442.6267074134358
 21
245.7894542513527
 31
0.0
 11
444.1476739144558
 21
245.9132640957868
 31
0.0
 11
445.6405632581611
 21
246.1769327058698
 31
0.0
 11
446.5856735192912
 21
246.4862303707175
 31
0.0
 11
447.4835117378939
 21
246.9201706108855
 31
0.0
 11
448.1053167509555
 21
247.3329758488258
 31
0.0
 11
448.6485733277273
 21
247.8430184946249
 31
0.0
 11
448.9895572995847
 21
248.3220359680949
 31
0.0
 11
449.2133546432981
 21
248.8611011783128
 31
0.0
 11
449.2626556469477
 21
249.108519540127
 31
0.0
 11
449.2787747612609
 21
249.3601518164886
 31
0.0
 11
449.1671037559606
 21
249.9960727062313
 31
0.0
 11
448.8776060131579
 21
250.5814080038288
 31
0.0
 11
448.3879532663268
 21
251.1495538321599
 31
0.0
 11
447.7928245044711
 21
251.6096114437522
 31
0.0
 11
446.8035839468979
 21
252.1447445020865
 31
0.0
 11
445.7449604760682
 21
252.5142557809695
 31
0.0
 11
444.2011233451874
 21
252.7978710094315
 31
0.0
 11
442.6267074134358
 21
252.930968845404
 31
0.0
  0
SPLINE
  5
179
330
50
100
AcDbEntity
  8
1
  6
Continuous
 62
     7
100
AcDbSpline
210
0.0
220
0.0
230
1.0
 70
    11
 71
     3
 72
    79
 73
    75
 74
    73
 42
0.0000000001
 43
0.0000000001
 44
0.00000001
 40
0.0
 40
0.0
 40
0.0
 40
0.0
 40
0.29036725625295
 40
0.580735759793513
 40
0.8724071051837329
 40
1.16408191821748
 40
1.458189931540098
 40
1.752302927360691
 40
2.049663207833906
 40
2.347029113126407
 40
2.648045792769584
 40
2.949067942939135
 40
3.253697753141591
 40
3.558332281909192
 40
3.866104864362584
 40
4.173881026138501
 40
4.483966067735045
 40
4.794053328114072
 40
5.105362224076145
 40
5.416671870214316
 40
5.727981516352487
 40
6.039290412314673
 40
6.349377672693517
 40
6.659462714289935
 40
6.967238876066006
 40
7.27501145851945
 40
7.579645987286997
 40
7.884275797489486
 40
8.185297947659059
 40
8.486314627302296
 40
8.783680532594778
 40
9.081040813067943
 40
9.375153808888467
 40
9.669261822211073
 40
9.960936635244838
 40
10.25260798063506
 40
10.54297648417562
 40
10.83334374042857
 40
11.12371099668152
 40
11.41407950022214
 40
11.70575084561237
 40
11.99742565864613
 40
12.29153367196885
 40
12.58564666778926
 40
12.88300694826236
 40
13.18037285355482
 40
13.48138953319816
 40
13.78241168336771
 40
14.08704149357023
 40
14.39167602233775
 40
14.69944860479124
 40
15.00722476656727
 40
15.31730980816363
 40
15.6273970685425
 40
15.9387059645047
 40
16.25001561064287
 40
16.56132525678102
 40
16.87263415274312
 40
17.18272141312215
 40
17.49280645471866
 40
17.80058261649458
 40
18.10835519894797
 40
18.41298972771554
 40
18.71761953791803
 40
19.0186416880876
 40
19.31965836773083
 40
19.61702427302323
 40
19.91438455349646
 40
20.20849754931695
 40
20.50260556263968
 40
20.79428037567347
 40
21.08595172106364
 40
21.3763202246042
 40
21.66668748085721
 40
21.66668748085721
 40
21.66668748085721
 40
21.66668748085721
 10
430.5023517604536
 20
252.9308660307601
 30
0.0
 10
430.4055279507196
 20
252.9282344333573
 30
0.0
 10
430.21187991534
 20
252.9229712272476
 30
0.0
 10
429.9235190369515
 20
252.8806761535537
 30
0.0
 10
429.6398068937054
 20
252.8134652605117
 30
0.0
 10
429.3623818313453
 20
252.7194100949599
 30
0.0
 10
429.0940609202692
 20
252.5999786370439
 30
0.0
 10
428.8360611571588
 20
252.4557031413743
 30
0.0
 10
428.5912591541366
 20
252.2880990660113
 30
0.0
 10
428.360562929293
 20
252.0979365117099
 30
0.0
 10
428.1466672222239
 20
251.8873137912703
 30
0.0
 10
427.9502936798448
 20
251.6570921753215
 30
0.0
 10
427.7737443348759
 20
251.4098557518152
 30
0.0
 10
427.6176415383962
 20
251.146621577468
 30
0.0
 10
427.4837525239738
 20
250.8702580227924
 30
0.0
 10
427.3726245071551
 20
250.582044578843
 30
0.0
 10
427.2854337473556
 20
250.2849061356075
 30
0.0
 10
427.2226081408969
 20
249.9804829814979
 30
0.0
 10
427.1847595911225
 20
249.6715463691321
 30
0.0
 10
427.1720973291651
 20
249.3601518164884
 30
0.0
 10
427.1847595911226
 20
249.048757263846
 30
0.0
 10
427.2226081408968
 20
248.7398206514757
 30
0.0
 10
427.2854337473556
 20
248.435397497383
 30
0.0
 10
427.3726245071552
 20
248.138259054085
 30
0.0
 10
427.4837525239738
 20
247.8500456103674
 30
0.0
 10
427.6176415383961
 20
247.573682054831
 30
0.0
 10
427.7737443348759
 20
247.3104478836646
 30
0.0
 10
427.9502936798447
 20
247.0632114483593
 30
0.0
 10
428.146667222224
 20
246.8329898759453
 30
0.0
 10
428.3605629292929
 20
246.6223669940945
 30
0.0
 10
428.5912591541365
 20
246.4322050351871
 30
0.0
 10
428.8360611571588
 20
246.2645987515673
 30
0.0
 10
429.0940609202693
 20
246.1203314110835
 30
0.0
 10
429.3623818313453
 20
246.0008696717264
 30
0.0
 10
429.6398068937052
 20
245.906926624658
 30
0.0
 10
429.9235190369515
 20
245.8392986522102
 30
0.0
 10
430.2118799153398
 20
245.7985535273616
 30
0.0
 10
430.5023517604537
 20
245.7848796494346
 30
0.0
 10
430.7928236055674
 20
245.7985535273617
 30
0.0
 10
431.0811844839557
 20
245.8392986522102
 30
0.0
 10
431.3648966272019
 20
245.9069266246581
 30
0.0
 10
431.6423216895621
 20
246.0008696717264
 30
0.0
 10
431.9106426006382
 20
246.1203314110836
 30
0.0
 10
432.1686423637485
 20
246.2645987515673
 30
0.0
 10
432.4134443667707
 20
246.4322050351872
 30
0.0
 10
432.6441405916143
 20
246.6223669940945
 30
0.0
 10
432.8580362986833
 20
246.8329898759452
 30
0.0
 10
433.0544098410627
 20
247.0632114483593
 30
0.0
 10
433.2309591860313
 20
247.3104478836645
 30
0.0
 10
433.3870619825111
 20
247.5736820548311
 30
0.0
 10
433.5209509969335
 20
247.8500456103673
 30
0.0
 10
433.6320790137521
 20
248.138259054085
 30
0.0
 10
433.7192697735516
 20
248.4353974973831
 30
0.0
 10
433.7820953800102
 20
248.7398206514756
 30
0.0
 10
433.8199439297848
 20
249.048757263846
 30
0.0
 10
433.8326061917423
 20
249.3601518164883
 30
0.0
 10
433.8199439297845
 20
249.6715463691322
 30
0.0
 10
433.7820953800103
 20
249.980482981498
 30
0.0
 10
433.7192697735517
 20
250.2849061356074
 30
0.0
 10
433.6320790137521
 20
250.5820445788431
 30
0.0
 10
433.5209509969336
 20
250.8702580227924
 30
0.0
 10
433.3870619825111
 20
251.146621577468
 30
0.0
 10
433.2309591860313
 20
251.4098557518152
 30
0.0
 10
433.0544098410625
 20
251.6570921753215
 30
0.0
 10
432.8580362986834
 20
251.8873137912703
 30
0.0
 10
432.6441405916143
 20
252.0979365117098
 30
0.0
 10
432.4134443667708
 20
252.2880990660114
 30
0.0
 10
432.1686423637484
 20
252.4557031413742
 30
0.0
 10
431.9106426006382
 20
252.5999786370442
 30
0.0
 10
431.6423216895622
 20
252.7194100949599
 30
0.0
 10
431.3648966272017
 20
252.8134652605115
 30
0.0
 10
431.0811844839558
 20
252.8806761535539
 30
0.0
 10
430.7928236055674
 20
252.9229712272476
 30
0.0
 10
430.5991755701876
 20
252.9282344333573
 30
0.0
 10
430.5023517604536
 20
252.9308660307601
 30
0.0
 11
430.5023517604536
 21
252.9308660307601
 31
0.0
 11
430.2123039986556
 21
252.9172484179076
 31
0.0
 11
429.9247920741198
 21
252.8766188584941
 31
0.0
 11
429.6410547642513
 21
252.8090517606556
 31
0.0
 11
429.3647812465961
 21
252.7155256145749
 31
0.0
 11
429.0960641844973
 21
252.5959820491372
 31
0.0
 11
428.8393349234973
 21
252.4524810357019
 31
0.0
 11
428.5939176337151
 21
252.2845718629951
 31
0.0
 11
428.3644185254625
 21
252.0954775982971
 31
0.0
 11
428.1498639664256
 21
251.8843440324675
 31
0.0
 11
427.9544621469263
 21
251.6553626711539
 31
0.0
 11
427.7773587417862
 21
251.4075044351565
 31
0.0
 11
427.621922105003
 21
251.1455089236243
 31
0.0
 11
427.4876688763799
 21
250.8685612153574
 31
0.0
 11
427.3769024605927
 21
250.5814080038288
 31
0.0
 11
427.2895447051196
 21
250.2838826173815
 31
0.0
 11
427.2268480116049
 21
249.9801998327662
 31
0.0
 11
427.1889655916358
 21
249.6712044428938
 31
0.0
 11
427.1763180865412
 21
249.3601518164886
 31
0.0
 11
427.1889655916358
 21
249.0490991900834
 31
0.0
 11
427.2268480116049
 21
248.7401038002109
 31
0.0
 11
427.2895447051196
 21
248.4364210155958
 31
0.0
 11
427.3769024605927
 21
248.1388956291486
 31
0.0
 11
427.48766887638
 21
247.8517424176199
 31
0.0
 11
427.621922105003
 21
247.5747947093529
 31
0.0
 11
427.7773587417861
 21
247.3127991978208
 31
0.0
 11
427.9544621469263
 21
247.0649409618233
 31
0.0
 11
428.1498639664256
 21
246.8359596005097
 31
0.0
 11
428.3644185254625
 21
246.62482603468
 31
0.0
 11
428.5939176337151
 21
246.4357317699821
 31
0.0
 11
428.8393349234973
 21
246.2678225972753
 31
0.0
 11
429.0960641844973
 21
246.1243215838402
 31
0.0
 11
429.3647812465961
 21
246.0047780184025
 31
0.0
 11
429.6410547642513
 21
245.9112518723217
 31
0.0
 11
429.9247920741198
 21
245.8436847744832
 31
0.0
 11
430.2123039986556
 21
245.8030552150697
 31
0.0
 11
430.5023517604536
 21
245.7894376022173
 31
0.0
 11
430.7923995222517
 21
245.8030552150697
 31
0.0
 11
431.0799114467875
 21
245.8436847744832
 31
0.0
 11
431.363648756656
 21
245.9112518723218
 31
0.0
 11
431.6399222743112
 21
246.0047780184025
 31
0.0
 11
431.9086393364101
 21
246.1243215838402
 31
0.0
 11
432.16536859741
 21
246.2678225972753
 31
0.0
 11
432.4107858871921
 21
246.435731769982
 31
0.0
 11
432.6402849954447
 21
246.62482603468
 31
0.0
 11
432.8548395544817
 21
246.8359596005097
 31
0.0
 11
433.050241373981
 21
247.0649409618233
 31
0.0
 11
433.2273447791212
 21
247.3127991978208
 31
0.0
 11
433.3827814159043
 21
247.5747947093529
 31
0.0
 11
433.5170346445274
 21
247.8517424176199
 31
0.0
 11
433.6278010603146
 21
248.1388956291486
 31
0.0
 11
433.7151588157876
 21
248.4364210155958
 31
0.0
 11
433.7778555093023
 21
248.7401038002109
 31
0.0
 11
433.8157379292716
 21
249.0490991900834
 31
0.0
 11
433.8283854343661
 21
249.3601518164886
 31
0.0
 11
433.8157379292714
 21
249.6712044428938
 31
0.0
 11
433.7778555093023
 21
249.9801998327662
 31
0.0
 11
433.7151588157876
 21
250.2838826173815
 31
0.0
 11
433.6278010603146
 21
250.5814080038288
 31
0.0
 11
433.5170346445274
 21
250.8685612153574
 31
0.0
 11
433.3827814159043
 21
251.1455089236243
 31
0.0
 11
433.2273447791212
 21
251.4075044351565
 31
0.0
 11
433.050241373981
 21
251.6553626711539
 31
0.0
 11
432.8548395544816
 21
251.8843440324675
 31
0.0
 11
432.6402849954447
 21
252.0954775982971
 31
0.0
 11
432.4107858871922
 21
252.2845718629951
 31
0.0
 11
432.16536859741
 21
252.4524810357019
 31
0.0
 11
431.9086393364101
 21
252.5959820491372
 31
0.0
 11
431.6399222743112
 21
252.7155256145749
 31
0.0
 11
431.363648756656
 21
252.8090517606556
 31
0.0
 11
431.0799114467875
 21
252.8766188584941
 31
0.0
 11
430.7923995222517
 21
252.9172484179076
 31
0.0
 11
430.5023517604536
 21
252.9308660307601
 31
0.0
  0
SPLINE
  5
17A
330
50
100
AcDbEntity
  8
1
  6
Continuous
 62
     7
100
AcDbSpline
210
0.0
220
0.0
230
1.0
 70
    11
 71
     3
 72
    79
 73
    75
 74
    73
 42
0.0000000001
 43
0.0000000001
 44
0.00000001
 40
0.0
 40
0.0
 40
0.0
 40
0.0
 40
0.2903672562530068
 40
0.5807357597935134
 40
0.8724071051836779
 40
1.164081918217478
 40
1.458189931540097
 40
1.75230292736064
 40
2.049663207833761
 40
2.347029113126349
 40
2.648045792769607
 40
2.949067942939085
 40
3.25369775314164
 40
3.55833228190924
 40
3.866104864362582
 40
4.173881026138485
 40
4.483966067734981
 40
4.794053328114019
 40
5.105362224076092
 40
5.416671870214268
 40
5.727981516352442
 40
6.039290412314634
 40
6.349377672693478
 40
6.659462714289865
 40
6.967238876065873
 40
7.275011458519318
 40
7.579645987286865
 40
7.884275797489453
 40
8.185297947658983
 40
8.48631462730226
 40
8.783680532594786
 40
9.081040813067906
 40
9.375153808888429
 40
9.669261822210984
 40
9.96093663524475
 40
10.25260798063498
 40
10.54297648417548
 40
10.83334374042848
 40
11.12371099668149
 40
11.41407950022211
 40
11.70575084561239
 40
11.99742565864609
 40
12.29153367196869
 40
12.58564666778918
 40
12.88300694826228
 40
13.18037285355487
 40
13.48138953319807
 40
13.78241168336764
 40
14.08704149357016
 40
14.39167602233777
 40
14.69944860479126
 40
15.00722476656724
 40
15.31730980816359
 40
15.62739706854247
 40
15.93870596450466
 40
16.25001561064283
 40
16.56132525678098
 40
16.87263415274308
 40
17.1827214131221
 40
17.49280645471862
 40
17.80058261649449
 40
18.10835519894788
 40
18.41298972771551
 40
18.71761953791803
 40
19.01864168808756
 40
19.31965836773072
 40
19.61702427302333
 40
19.91438455349647
 40
20.20849754931696
 40
20.50260556263963
 40
20.79428037567332
 40
21.0859517210636
 40
21.37632022460422
 40
21.66668748085723
 40
21.66668748085723
 40
21.66668748085723
 40
21.66668748085723
 10
454.7510630664181
 20
252.9308660307601
 30
0.0
 10
454.8478868761521
 20
252.9282344333573
 30
0.0
 10
455.0415349115319
 20
252.9229712272475
 30
0.0
 10
455.3298957899202
 20
252.8806761535539
 30
0.0
 10
455.6136079331664
 20
252.8134652605116
 30
0.0
 10
455.8910329955266
 20
252.7194100949599
 30
0.0
 10
456.1593539066024
 20
252.599978637044
 30
0.0
 10
456.4173536697128
 20
252.4557031413743
 30
0.0
 10
456.662155672735
 20
252.2880990660112
 30
0.0
 10
456.8928518975788
 20
252.0979365117099
 30
0.0
 10
457.1067476046479
 20
251.8873137912703
 30
0.0
 10
457.303121147027
 20
251.6570921753215
 30
0.0
 10
457.4796704919959
 20
251.4098557518153
 30
0.0
 10
457.6357732884756
 20
251.1466215774679
 30
0.0
 10
457.769662302898
 20
250.8702580227925
 30
0.0
 10
457.8807903197165
 20
250.582044578843
 30
0.0
 10
457.9679810795159
 20
250.2849061356075
 30
0.0
 10
458.0308066859747
 20
249.980482981498
 30
0.0
 10
458.0686552357488
 20
249.6715463691322
 30
0.0
 10
458.081317497707
 20
249.3601518164884
 30
0.0
 10
458.0686552357489
 20
249.048757263846
 30
0.0
 10
458.0308066859748
 20
248.7398206514757
 30
0.0
 10
457.9679810795159
 20
248.4353974973831
 30
0.0
 10
457.8807903197165
 20
248.138259054085
 30
0.0
 10
457.7696623028981
 20
247.8500456103673
 30
0.0
 10
457.6357732884757
 20
247.573682054831
 30
0.0
 10
457.479670491996
 20
247.3104478836646
 30
0.0
 10
457.303121147027
 20
247.0632114483593
 30
0.0
 10
457.1067476046477
 20
246.8329898759454
 30
0.0
 10
456.8928518975789
 20
246.6223669940945
 30
0.0
 10
456.6621556727352
 20
246.4322050351872
 30
0.0
 10
456.4173536697128
 20
246.2645987515673
 30
0.0
 10
456.1593539066025
 20
246.1203314110836
 30
0.0
 10
455.8910329955265
 20
246.0008696717264
 30
0.0
 10
455.6136079331662
 20
245.9069266246579
 30
0.0
 10
455.3298957899203
 20
245.8392986522103
 30
0.0
 10
455.0415349115319
 20
245.7985535273617
 30
0.0
 10
454.751063066418
 20
245.7848796494345
 30
0.0
 10
454.4605912213044
 20
245.7985535273617
 30
0.0
 10
454.172230342916
 20
245.8392986522103
 30
0.0
 10
453.8885181996698
 20
245.906926624658
 30
0.0
 10
453.6110931373096
 20
246.0008696717264
 30
0.0
 10
453.3427722262336
 20
246.1203314110835
 30
0.0
 10
453.0847724631233
 20
246.2645987515673
 30
0.0
 10
452.8399704601009
 20
246.4322050351872
 30
0.0
 10
452.6092742352573
 20
246.6223669940945
 30
0.0
 10
452.3953785281884
 20
246.8329898759453
 30
0.0
 10
452.1990049858092
 20
247.0632114483593
 30
0.0
 10
452.0224556408404
 20
247.3104478836647
 30
0.0
 10
451.8663528443602
 20
247.5736820548309
 30
0.0
 10
451.7324638299381
 20
247.8500456103674
 30
0.0
 10
451.6213358131194
 20
248.138259054085
 30
0.0
 10
451.5341450533203
 20
248.4353974973831
 30
0.0
 10
451.4713194468613
 20
248.7398206514757
 30
0.0
 10
451.433470897087
 20
249.048757263846
 30
0.0
 10
451.4208086351294
 20
249.3601518164884
 30
0.0
 10
451.4334708970872
 20
249.6715463691322
 30
0.0
 10
451.4713194468613
 20
249.9804829814979
 30
0.0
 10
451.5341450533201
 20
250.2849061356075
 30
0.0
 10
451.6213358131196
 20
250.5820445788431
 30
0.0
 10
451.7324638299379
 20
250.8702580227924
 30
0.0
 10
451.8663528443606
 20
251.146621577468
 30
0.0
 10
452.0224556408405
 20
251.4098557518153
 30
0.0
 10
452.199004985809
 20
251.6570921753215
 30
0.0
 10
452.3953785281885
 20
251.8873137912703
 30
0.0
 10
452.6092742352572
 20
252.09793651171
 30
0.0
 10
452.8399704601011
 20
252.2880990660111
 30
0.0
 10
453.0847724631232
 20
252.4557031413743
 30
0.0
 10
453.3427722262337
 20
252.5999786370441
 30
0.0
 10
453.6110931373095
 20
252.7194100949598
 30
0.0
 10
453.8885181996697
 20
252.8134652605115
 30
0.0
 10
454.172230342916
 20
252.8806761535539
 30
0.0
 10
454.4605912213044
 20
252.9229712272476
 30
0.0
 10
454.654239256684
 20
252.9282344333573
 30
0.0
 10
454.7510630664181
 20
252.9308660307601
 30
0.0
 11
454.7510630664181
 21
252.9308660307601
 31
0.0
 11
455.0411108282162
 21
252.9172484179076
 31
0.0
 11
455.3286227527519
 21
252.8766188584941
 31
0.0
 11
455.6123600626204
 21
252.8090517606556
 31
0.0
 11
455.8886335802756
 21
252.7155256145749
 31
0.0
 11
456.1573506423744
 21
252.5959820491372
 31
0.0
 11
456.4140799033744
 21
252.4524810357019
 31
0.0
 11
456.6594971931564
 21
252.2845718629951
 31
0.0
 11
456.8889963014092
 21
252.0954775982971
 31
0.0
 11
457.1035508604462
 21
251.8843440324675
 31
0.0
 11
457.2989526799454
 21
251.6553626711539
 31
0.0
 11
457.4760560850857
 21
251.4075044351565
 31
0.0
 11
457.6314927218688
 21
251.1455089236243
 31
0.0
 11
457.7657459504919
 21
250.8685612153574
 31
0.0
 11
457.876512366279
 21
250.5814080038288
 31
0.0
 11
457.9638701217519
 21
250.2838826173815
 31
0.0
 11
458.0265668152667
 21
249.9801998327662
 31
0.0
 11
458.0644492352358
 21
249.6712044428938
 31
0.0
 11
458.0770967403305
 21
249.3601518164886
 31
0.0
 11
458.0644492352358
 21
249.0490991900834
 31
0.0
 11
458.0265668152667
 21
248.7401038002109
 31
0.0
 11
457.9638701217519
 21
248.4364210155958
 31
0.0
 11
457.876512366279
 21
248.1388956291486
 31
0.0
 11
457.7657459504919
 21
247.8517424176199
 31
0.0
 11
457.6314927218688
 21
247.5747947093529
 31
0.0
 11
457.4760560850857
 21
247.3127991978208
 31
0.0
 11
457.2989526799454
 21
247.0649409618233
 31
0.0
 11
457.103550860446
 21
246.8359596005097
 31
0.0
 11
456.8889963014092
 21
246.62482603468
 31
0.0
 11
456.6594971931565
 21
246.4357317699821
 31
0.0
 11
456.4140799033744
 21
246.2678225972753
 31
0.0
 11
456.1573506423744
 21
246.1243215838402
 31
0.0
 11
455.8886335802756
 21
246.0047780184025
 31
0.0
 11
455.6123600626204
 21
245.9112518723217
 31
0.0
 11
455.3286227527519
 21
245.8436847744832
 31
0.0
 11
455.0411108282162
 21
245.8030552150697
 31
0.0
 11
454.7510630664181
 21
245.7894376022173
 31
0.0
 11
454.46101530462
 21
245.8030552150697
 31
0.0
 11
454.1735033800842
 21
245.8436847744832
 31
0.0
 11
453.8897660702156
 21
245.9112518723218
 31
0.0
 11
453.6134925525605
 21
246.0047780184025
 31
0.0
 11
453.3447754904617
 21
246.1243215838402
 31
0.0
 11
453.0880462294617
 21
246.2678225972753
 31
0.0
 11
452.8426289396796
 21
246.435731769982
 31
0.0
 11
452.6131298314269
 21
246.62482603468
 31
0.0
 11
452.3985752723901
 21
246.8359596005097
 31
0.0
 11
452.2031734528907
 21
247.0649409618233
 31
0.0
 11
452.0260700477505
 21
247.3127991978208
 31
0.0
 11
451.8706334109673
 21
247.5747947093529
 31
0.0
 11
451.7363801823442
 21
247.8517424176199
 31
0.0
 11
451.6256137665571
 21
248.1388956291486
 31
0.0
 11
451.5382560110842
 21
248.4364210155958
 31
0.0
 11
451.4755593175694
 21
248.7401038002109
 31
0.0
 11
451.4376768976003
 21
249.0490991900834
 31
0.0
 11
451.4250293925056
 21
249.3601518164886
 31
0.0
 11
451.4376768976003
 21
249.6712044428938
 31
0.0
 11
451.4755593175694
 21
249.9801998327662
 31
0.0
 11
451.5382560110841
 21
250.2838826173815
 31
0.0
 11
451.6256137665571
 21
250.5814080038288
 31
0.0
 11
451.7363801823442
 21
250.8685612153574
 31
0.0
 11
451.8706334109673
 21
251.1455089236243
 31
0.0
 11
452.0260700477505
 21
251.4075044351565
 31
0.0
 11
452.2031734528907
 21
251.6553626711539
 31
0.0
 11
452.3985752723901
 21
251.8843440324675
 31
0.0
 11
452.6131298314269
 21
252.0954775982971
 31
0.0
 11
452.8426289396797
 21
252.2845718629951
 31
0.0
 11
453.0880462294617
 21
252.4524810357019
 31
0.0
 11
453.3447754904616
 21
252.5959820491372
 31
0.0
 11
453.6134925525605
 21
252.7155256145749
 31
0.0
 11
453.8897660702156
 21
252.8090517606556
 31
0.0
 11
454.1735033800842
 21
252.8766188584941
 31
0.0
 11
454.46101530462
 21
252.9172484179076
 31
0.0
 11
454.7510630664181
 21
252.9308660307601
 31
0.0
  0
SPLINE
  5
17B
330
50
100
AcDbEntity
  8
1
  6
Continuous
 62
     7
100
AcDbSpline
210
0.0
220
0.0
230
1.0
 70
     8
 71
     3
 72
    35
 73
    31
 74
    29
 42
0.0000000001
 43
0.0000000001
 44
0.00000001
 40
0.0
 40
0.0
 40
0.0
 40
0.0
 40
0.8673459349151874
 40
1.728953126560767
 40
2.692183797234616
 40
3.660546091348831
 40
4.162115463309187
 40
4.662703892976664
 40
5.654540569831563
 40
6.647874872103597
 40
7.570089255250092
 40
8.491917096104331
 40
9.294242431892769
 40
10.09681760841136
 40
10.77964060721457
 40
11.45726237541952
 40
11.7711315018548
 40
12.08503392924589
 40
12.72312572077832
 40
13.36530103162726
 40
14.10211462481152
 40
14.84078219882401
 40
15.70714763623113
 40
16.57293386032156
 40
17.53816493973502
 40
18.5034893362003
 40
19.00491876307943
 40
19.50575789490921
 40
19.84605227129191
 40
20.18654343815196
 40
20.18654343815196
 40
20.18654343815196
 40
20.18654343815196
 10
157.073311071421
 20
251.6553626711543
 30
0.0
 10
157.3222522469013
 20
251.8023520942141
 30
0.0
 10
157.8184874932433
 20
252.0953583934776
 30
0.0
 10
158.6278572023899
 20
252.4891691077349
 30
0.0
 10
159.5269892424484
 20
252.7479206728341
 30
0.0
 10
160.3305196181761
 20
252.8679720859617
 30
0.0
 10
160.9854326311425
 20
252.9207643527109
 30
0.0
 10
161.6500852720384
 20
252.9402368880481
 30
0.0
 10
162.4793445964199
 20
252.8968035890618
 30
0.0
 10
163.4374807828061
 20
252.7383093826666
 30
0.0
 10
164.3493924148445
 20
252.4794874073019
 30
0.0
 10
165.1629078491065
 20
252.1313489612924
 30
0.0
 10
165.8870989795063
 20
251.6956450846303
 30
0.0
 10
166.4665013479594
 20
251.1918834903817
 30
0.0
 10
166.9076026999955
 20
250.6157962684155
 30
0.0
 10
167.1410062051125
 20
250.1010187781565
 30
0.0
 10
167.2328097573007
 20
249.6743526651402
 30
0.0
 10
167.2628861862785
 20
249.2520290984023
 30
0.0
 10
167.1784870463098
 20
248.7196363329321
 30
0.0
 10
166.9086429453877
 20
248.0971207695376
 30
0.0
 10
166.4732297635774
 20
247.5325580266383
 30
0.0
 10
165.8776634943343
 20
247.0223495802764
 30
0.0
 10
165.1716778858718
 20
246.5913964439293
 30
0.0
 10
164.3418598942195
 20
246.2387368320605
 30
0.0
 10
163.4430876003663
 20
245.9830045877681
 30
0.0
 10
162.6413238041657
 20
245.8524111933201
 30
0.0
 10
161.9875750035217
 20
245.7968770548683
 30
0.0
 10
161.5398563941678
 20
245.7853432120105
 30
0.0
 10
161.1460749835047
 20
245.7968801173506
 30
0.0
 10
160.9194469439957
 20
245.8085667516796
 30
0.0
 10
160.8061001692565
 20
245.8144117579357
 30
0.0
 11
157.073311071421
 21
251.6553626711543
 31
0.0
 11
157.826061701648
 21
252.0862402169915
 31
0.0
 11
158.6059556786766
 21
252.4524810357023
 31
0.0
 11
159.5293437774044
 21
252.7266484007455
 31
0.0
 11
160.4860226129938
 21
252.8766188584943
 31
0.0
 11
160.9860026070054
 21
252.9165167340874
 31
0.0
 11
161.4863853341273
 21
252.9308660307605
 31
0.0
 11
162.4768372889283
 21
252.8784740582321
 31
0.0
 11
163.4567152613208
 21
252.715525614575
 31
0.0
 11
164.3430670782804
 21
252.4608496929516
 31
0.0
 11
165.1893943203222
 21
252.0954775982976
 31
0.0
 11
165.8736521730837
 21
251.6765299459802
 31
0.0
 11
166.4754358449961
 21
251.1455089236247
 31
0.0
 11
166.8865492380935
 21
250.6003181077533
 31
0.0
 11
167.1597242475156
 21
249.9801998327666
 31
0.0
 11
167.2254998726644
 21
249.6733001819595
 31
0.0
 11
167.2472446450289
 21
249.360151816489
 31
0.0
 11
167.1529947416392
 21
248.729059041905
 31
0.0
 11
166.8998223179672
 21
248.1388956291489
 31
0.0
 11
166.4556906445719
 21
247.550982941934
 31
0.0
 11
165.8994595968337
 21
247.0649409618237
 31
0.0
 11
165.1620186816009
 21
246.610221303491
 31
0.0
 11
164.366814989578
 21
246.2678225972757
 31
0.0
 11
163.4391291514549
 21
246.0012329830527
 31
0.0
 11
162.4867480552609
 21
245.8436847744836
 31
0.0
 11
161.9870722228131
 21
245.8017856980264
 31
0.0
 11
161.4863853341273
 21
245.7894376022176
 31
0.0
 11
161.1462021832245
 21
245.7981373975915
 31
0.0
 11
160.8061001692565
 21
245.8144117579357
 31
0.0
  0
SPLINE
  5
17C
330
50
100
AcDbEntity
  8
1
  6
Continuous
 62
     7
100
AcDbSpline
210
0.0
220
0.0
230
1.0
 70
     8
 71
     3
 72
    35
 73
    31
 74
    29
 42
0.0000000001
 43
0.0000000001
 44
0.00000001
 40
0.0
 40
0.0
 40
0.0
 40
0.0
 40
0.8673459349151628
 40
1.728953126560768
 40
2.692183797234519
 40
3.660546091348714
 40
4.16211546330916
 40
4.662703892976749
 40
5.654540569831592
 40
6.647874872103597
 40
7.570089255250045
 40
8.491917096104221
 40
9.294242431892611
 40
10.09681760841124
 40
10.77964060721454
 40
11.4572623754195
 40
11.77113150185476
 40
12.08503392924584
 40
12.72312572077827
 40
13.36530103162714
 40
14.10211462481146
 40
14.84078219882404
 40
15.70714763623112
 40
16.57293386032141
 40
17.53816493973489
 40
18.50348933620015
 40
19.00491876307931
 40
19.50575789490905
 40
19.84605227129179
 40
20.18654343815189
 40
20.18654343815189
 40
20.18654343815189
 40
20.18654343815189
 10
151.8994595968336
 20
251.6553626711543
 30
0.0
 10
151.6505184213533
 20
251.8023520942141
 30
0.0
 10
151.1542831750114
 20
252.0953583934776
 30
0.0
 10
150.3449134658647
 20
252.4891691077348
 30
0.0
 10
149.4457814258062
 20
252.747920672834
 30
0.0
 10
148.6422510500786
 20
252.8679720859616
 30
0.0
 10
147.9873380371121
 20
252.920764352711
 30
0.0
 10
147.3226853962162
 20
252.940236888048
 30
0.0
 10
146.4934260718346
 20
252.8968035890618
 30
0.0
 10
145.5352898854486
 20
252.7383093826667
 30
0.0
 10
144.6233782534101
 20
252.4794874073018
 30
0.0
 10
143.8098628191482
 20
252.1313489612924
 30
0.0
 10
143.0856716887484
 20
251.6956450846301
 30
0.0
 10
142.5062693202954
 20
251.1918834903818
 30
0.0
 10
142.065167968259
 20
250.6157962684155
 30
0.0
 10
141.8317644631421
 20
250.1010187781565
 30
0.0
 10
141.739960910954
 20
249.6743526651401
 30
0.0
 10
141.7098844819763
 20
249.2520290984024
 30
0.0
 10
141.7942836219449
 20
248.7196363329321
 30
0.0
 10
142.0641277228667
 20
248.0971207695375
 30
0.0
 10
142.4995409046771
 20
247.5325580266383
 30
0.0
 10
143.0951071739204
 20
247.0223495802763
 30
0.0
 10
143.8010927823827
 20
246.5913964439294
 30
0.0
 10
144.6309107740351
 20
246.2387368320605
 30
0.0
 10
145.5296830678882
 20
245.9830045877681
 30
0.0
 10
146.3314468640889
 20
245.8524111933201
 30
0.0
 10
146.9851956647328
 20
245.7968770548683
 30
0.0
 10
147.4329142740867
 20
245.7853432120103
 30
0.0
 10
147.8266956847498
 20
245.7968801173507
 30
0.0
 10
148.0533237242589
 20
245.8085667516796
 30
0.0
 10
148.1666704989981
 20
245.8144117579357
 30
0.0
 11
151.8994595968336
 21
251.6553626711543
 31
0.0
 11
151.1467089666066
 21
252.0862402169915
 31
0.0
 11
150.366814989578
 21
252.4524810357023
 31
0.0
 11
149.4434268908503
 21
252.7266484007454
 31
0.0
 11
148.4867480552609
 21
252.8766188584943
 31
0.0
 11
147.9867680612492
 21
252.9165167340875
 31
0.0
 11
147.4863853341272
 21
252.9308660307605
 31
0.0
 11
146.4959333793262
 21
252.8784740582321
 31
0.0
 11
145.5160554069338
 21
252.715525614575
 31
0.0
 11
144.6297035899743
 21
252.4608496929516
 31
0.0
 11
143.7833763479325
 21
252.0954775982976
 31
0.0
 11
143.0991184951711
 21
251.6765299459802
 31
0.0
 11
142.4973348232586
 21
251.1455089236247
 31
0.0
 11
142.0862214301611
 21
250.6003181077533
 31
0.0
 11
141.8130464207389
 21
249.9801998327666
 31
0.0
 11
141.7472707955902
 21
249.6733001819595
 31
0.0
 11
141.7255260232258
 21
249.360151816489
 31
0.0
 11
141.8197759266155
 21
248.729059041905
 31
0.0
 11
142.0729483502873
 21
248.1388956291489
 31
0.0
 11
142.5170800236826
 21
247.550982941934
 31
0.0
 11
143.073311071421
 21
247.0649409618237
 31
0.0
 11
143.8107519866537
 21
246.610221303491
 31
0.0
 11
144.6059556786765
 21
246.2678225972757
 31
0.0
 11
145.5336415167996
 21
246.0012329830527
 31
0.0
 11
146.4860226129936
 21
245.8436847744836
 31
0.0
 11
146.9856984454414
 21
245.8017856980264
 31
0.0
 11
147.4863853341272
 21
245.7894376022176
 31
0.0
 11
147.82656848503
 21
245.7981373975915
 31
0.0
 11
148.1666704989981
 21
245.8144117579357
 31
0.0
  0
ARC
  5
17D
330
50
100
AcDbEntity
  8
1
  6
Continuous
 62
     7
100
AcDbCircle
 10
142.9283642723967
 20
253.2176887810472
 30
0.0
 40
1.0
100
AcDbArc
 50
90.0
 51
105.337557669549
  0
ARC
  5
17E
330
50
100
AcDbEntity
  8
1
  6
Continuous
 62
     7
100
AcDbCircle
 10
144.7184361416962
 20
254.2176887810472
 30
0.0
 40
1.0
100
AcDbArc
 50
90.0
 51
137.0585971351127
  0
ARC
  5
17F
330
50
100
AcDbEntity
  8
1
  6
Continuous
 62
     7
100
AcDbCircle
 10
142.9863853341273
 20
255.2176887810472
 30
0.0
 40
1.0
100
AcDbArc
 50
-90.0
 51
-30.00000000000136
  0
ARC
  5
180
330
50
100
AcDbEntity
  8
1
  6
Continuous
 62
     7
100
AcDbCircle
 10
144.7184361416962
 20
254.2176887810472
 30
0.0
 40
1.000000000000147
100
AcDbArc
 50
137.0585971351127
 51
150.0000000000019
  0
ARC
  5
181
330
50
100
AcDbEntity
  8
1
  6
Continuous
 62
     7
100
AcDbCircle
 10
166.044406395858
 20
253.2176887810472
 30
0.0
 40
1.000000000000191
100
AcDbArc
 50
74.66244233045097
 51
90.0
  0
ARC
  5
182
330
50
100
AcDbEntity
  8
1
  6
Continuous
 62
     7
100
AcDbCircle
 10
164.2543345265584
 20
254.2176887810472
 30
0.0
 40
1.000000000000147
100
AcDbArc
 50
42.94140286488734
 51
90.0
  0
ARC
  5
183
330
50
100
AcDbEntity
  8
1
  6
Continuous
 62
     7
100
AcDbCircle
 10
165.9863853341273
 20
255.2176887810472
 30
0.0
 40
1.000000000000058
100
AcDbArc
 50
-150.0000000000019
 51
-90.0
  0
ARC
  5
184
330
50
100
AcDbEntity
  8
1
  6
Continuous
 62
     7
100
AcDbCircle
 10
164.2543345265584
 20
254.2176887810472
 30
0.0
 40
0.9999999999999589
100
AcDbArc
 50
30.00000000000136
 51
42.94140286488734
  0
ARC
  5
185
330
50
100
AcDbEntity
  8
1
  6
Continuous
 62
     7
100
AcDbCircle
 10
454.1267074134358
 20
255.2176887810472
 30
0.0
 40
1.000000000000033
100
AcDbArc
 50
-150.0000000000011
 51
-90.0
  0
ARC
  5
186
330
50
100
AcDbEntity
  8
1
  6
Continuous
 62
     7
100
AcDbCircle
 10
452.3946566058669
 20
254.2176887810472
 30
0.0
 40
0.9999999999999836
100
AcDbArc
 50
30.00000000000054
 51
90.0
  0
ARC
  5
187
330
50
100
AcDbEntity
  8
1
  6
Continuous
 62
     7
100
AcDbCircle
 10
454.1847284751665
 20
253.2176887810472
 30
0.0
 40
1.000000000000191
100
AcDbArc
 50
74.66244233045097
 51
90.0
  0
ARC
  5
188
330
50
100
AcDbEntity
  8
1
  6
Continuous
 62
     7
100
AcDbCircle
 10
431.1267074134358
 20
255.2176887810472
 30
0.0
 40
1.0
100
AcDbArc
 50
-90.0
 51
-29.99999999999729
  0
ARC
  5
189
330
50
100
AcDbEntity
  8
1
  6
Continuous
 62
     7
100
AcDbCircle
 10
432.8587582210047
 20
254.2176887810472
 30
0.0
 40
1.0
100
AcDbArc
 50
90.0
 51
149.9999999999978
  0
ARC
  5
18A
330
50
100
AcDbEntity
  8
1
  6
Continuous
 62
     7
100
AcDbCircle
 10
431.0686863517052
 20
253.2176887810472
 30
0.0
 40
1.0
100
AcDbArc
 50
90.0
 51
105.337557669549
  0
ENDBLK
  5
52
330
50
100
AcDbEntity
  8
0
100
AcDbBlockEnd
  0
BLOCK
  5
54
330
53
100
AcDbEntity
  8
0
100
AcDbBlockBegin
  2
61-1-16-170
 70
     0
 71
     0
 10
738.9571685490033
 20
296.6134861018289
 30
0.0
  3
61-1-16-170
  1

  0
LINE
  5
18B
330
53
100
AcDbEntity
  8
1
  6
Continuous
 62
     7
100
AcDbLine
 10
316.4863853341274
 20
260.7176887810472
 30
0.0
 11
316.4863853341274
 21
259.7176887810472
 31
0.0
  0
LINE
  5
18C
330
53
100
AcDbEntity
  8
1
  6
Continuous
 62
     7
100
AcDbLine
 10
332.4863853341274
 20
260.7176887810472
 30
0.0
 11
332.4863853341274
 21
259.7176887810472
 31
0.0
  0
LINE
  5
18D
330
53
100
AcDbEntity
  8
1
  6
Continuous
 62
     7
100
AcDbLine
 10
297.4863853341274
 20
279.7176887810472
 30
0.0
 11
181.4863853341274
 21
279.7176887810472
 31
0.0
  0
LINE
  5
18E
330
53
100
AcDbEntity
  8
1
  6
Continuous
 62
     7
100
AcDbLine
 10
146.4863853341273
 20
255.2176887810472
 30
0.0
 11
146.4863853341273
 21
260.7176887810472
 31
0.0
  0
LINE
  5
18F
330
53
100
AcDbEntity
  8
1
  6
Continuous
 62
     7
100
AcDbLine
 10
162.4863853341273
 20
260.7176887810472
 30
0.0
 11
162.4863853341273
 21
255.2176887810472
 31
0.0
  0
LINE
  5
190
330
53
100
AcDbEntity
  8
1
  6
Continuous
 62
     7
100
AcDbLine
 10
297.4863853341274
 20
295.7176887810472
 30
0.0
 11
181.4863853341274
 21
295.7176887810472
 31
0.0
  0
LINE
  5
191
330
53
100
AcDbEntity
  8
1
  6
Continuous
 62
     7
100
AcDbLine
 10
324.4863853341274
 20
254.7176887810471
 30
0.0
 11
317.0999783281412
 21
254.7176887810471
 31
0.0
  0
LINE
  5
192
330
53
100
AcDbEntity
  8
1
  6
Continuous
 62
     7
100
AcDbLine
 10
331.8727923401134
 20
254.7176887810471
 30
0.0
 11
324.4863853341274
 21
254.7176887810471
 31
0.0
  0
LINE
  5
193
330
53
100
AcDbEntity
  8
1
  6
Continuous
 62
     7
100
AcDbLine
 10
332.4863853341274
 20
259.7176887810472
 30
0.0
 11
316.4863853341274
 21
259.7176887810472
 31
0.0
  0
LINE
  5
194
330
53
100
AcDbEntity
  8
1
  6
Continuous
 62
     7
100
AcDbLine
 10
434.626707413436
 20
348.1905139095775
 30
0.0
 11
434.626707413436
 21
518.1905139095777
 31
0.0
  0
LINE
  5
195
330
53
100
AcDbEntity
  8
1
  6
Continuous
 62
     7
100
AcDbLine
 10
450.626707413436
 20
348.1905139095775
 30
0.0
 11
450.626707413436
 21
518.1905139095777
 31
0.0
  0
LINE
  5
196
330
53
100
AcDbEntity
  8
1
  6
PHANTOM
 62
     4
100
AcDbLine
 10
453.6046586256567
 20
348.1905139095775
 30
0.0
 11
431.2524852195738
 21
348.1905139095775
 31
0.0
  0
LINE
  5
197
330
53
100
AcDbEntity
  8
1
  6
Continuous
 62
     7
100
AcDbLine
 10
450.6267074134358
 20
259.7176887810472
 30
0.0
 11
434.6267074134358
 21
259.7176887810472
 31
0.0
  0
LINE
  5
198
330
53
100
AcDbEntity
  8
1
  6
Continuous
 62
     7
100
AcDbLine
 10
435.2403004074497
 20
254.7176887810471
 30
0.0
 11
450.013114419422
 21
254.7176887810471
 31
0.0
  0
LINE
  5
199
330
53
100
AcDbEntity
  8
1
  6
Continuous
 62
     7
100
AcDbLine
 10
434.6267074134358
 20
287.7176887810472
 30
0.0
 11
434.6267074134358
 21
259.7176887810472
 31
0.0
  0
LINE
  5
19A
330
53
100
AcDbEntity
  8
1
  6
Continuous
 62
     7
100
AcDbLine
 10
450.6267074134358
 20
287.7176887810472
 30
0.0
 11
450.6267074134358
 21
259.7176887810472
 31
0.0
  0
LINE
  5
19B
330
53
100
AcDbEntity
  8
1
  6
PHANTOM
 62
     4
100
AcDbLine
 10
431.7339914050083
 20
287.7176887810475
 30
0.0
 11
453.1399278227948
 21
287.7176887810475
 31
0.0
  0
ARC
  5
19C
330
53
100
AcDbEntity
  8
1
  6
Continuous
 62
     7
100
AcDbCircle
 10
319.6964116288456
 20
257.5739690738249
 30
0.0
 40
3.86002629471813
100
AcDbArc
 50
146.2642089999721
 51
180.0
  0
ARC
  5
19D
330
53
100
AcDbEntity
  8
1
  6
Continuous
 62
     7
100
AcDbCircle
 10
329.276359039409
 20
257.5739690738249
 30
0.0
 40
3.860026294718437
100
AcDbArc
 50
-47.72834450358208
 51
0.0
  0
ARC
  5
19E
330
53
100
AcDbEntity
  8
1
  6
Continuous
 62
     7
100
AcDbCircle
 10
329.276359039409
 20
257.5739690738249
 30
0.0
 40
3.860026294718239
100
AcDbArc
 50
0.0
 51
33.73579100002598
  0
ARC
  5
19F
330
53
100
AcDbEntity
  8
1
  6
Continuous
 62
     7
100
AcDbCircle
 10
319.6964116288456
 20
257.5739690738249
 30
0.0
 40
3.860026294718239
100
AcDbArc
 50
180.0
 51
-132.2716554964179
  0
ARC
  5
1A0
330
53
100
AcDbEntity
  8
1
  6
Continuous
 62
     7
100
AcDbCircle
 10
297.4863853341274
 20
260.7176887810472
 30
0.0
 40
19.0
100
AcDbArc
 50
0.0
 51
90.0
  0
ARC
  5
1A1
330
53
100
AcDbEntity
  8
1
  6
Continuous
 62
     7
100
AcDbCircle
 10
297.4863853341274
 20
260.7176887810472
 30
0.0
 40
35.0
100
AcDbArc
 50
0.0
 51
90.0
  0
ARC
  5
1A2
330
53
100
AcDbEntity
  8
1
  6
Continuous
 62
     7
100
AcDbCircle
 10
181.4863853341274
 20
260.7176887810472
 30
0.0
 40
19.0
100
AcDbArc
 50
90.0
 51
180.0
  0
ARC
  5
1A3
330
53
100
AcDbEntity
  8
1
  6
Continuous
 62
     7
100
AcDbCircle
 10
181.4863853341274
 20
260.7176887810472
 30
0.0
 40
35.0
100
AcDbArc
 50
90.0
 51
180.0
  0
ARC
  5
1A4
330
53
100
AcDbEntity
  8
1
  6
Continuous
 62
     7
100
AcDbCircle
 10
442.626707413436
 20
348.1905139095775
 30
0.0
 40
8.0
100
AcDbArc
 50
180.0
 51
0.0
  0
ARC
  5
1A5
330
53
100
AcDbEntity
  8
1
  6
Continuous
 62
     7
100
AcDbCircle
 10
442.626707413436
 20
348.1905139095775
 30
0.0
 40
8.650000000000093
100
AcDbArc
 50
157.6465744006673
 51
-90.00000000000152
  0
ARC
  5
1A6
330
53
100
AcDbEntity
  8
1
  6
Continuous
 62
     7
100
AcDbCircle
 10
442.626707413436
 20
348.1905139095775
 30
0.0
 40
8.650000000000091
100
AcDbArc
 50
-90.00000000000152
 51
22.35342559933271
  0
ARC
  5
1A7
330
53
100
AcDbEntity
  8
1
  6
Continuous
 62
     7
100
AcDbCircle
 10
437.8367337081542
 20
257.5739690738249
 30
0.0
 40
3.86002629471832
100
AcDbArc
 50
146.264208999974
 51
180.0
  0
ARC
  5
1A8
330
53
100
AcDbEntity
  8
1
  6
Continuous
 62
     7
100
AcDbCircle
 10
447.4166811187176
 20
257.5739690738249
 30
0.0
 40
3.860026294718437
100
AcDbArc
 50
-47.72834450358208
 51
0.0
  0
ARC
  5
1A9
330
53
100
AcDbEntity
  8
1
  6
Continuous
 62
     7
100
AcDbCircle
 10
447.4166811187176
 20
257.5739690738249
 30
0.0
 40
3.860026294718239
100
AcDbArc
 50
0.0
 51
33.73579100002785
  0
ARC
  5
1AA
330
53
100
AcDbEntity
  8
1
  6
Continuous
 62
     7
100
AcDbCircle
 10
437.8367337081542
 20
257.5739690738249
 30
0.0
 40
3.860026294718296
100
AcDbArc
 50
180.0
 51
-132.2716554964192
  0
ARC
  5
1AB
330
53
100
AcDbEntity
  8
1
  6
Continuous
 62
     7
100
AcDbCircle
 10
442.6267074134358
 20
287.7176887810472
 30
0.0
 40
8.0
100
AcDbArc
 50
0.0
 51
180.0
  0
ARC
  5
1AC
330
53
100
AcDbEntity
  8
1
  6
Continuous
 62
     7
100
AcDbCircle
 10
442.6267074134358
 20
518.1905139095777
 30
0.0
 40
8.000000000000227
100
AcDbArc
 50
0.0
 51
180.0
  0
ENDBLK
  5
55
330
53
100
AcDbEntity
  8
0
100
AcDbBlockEnd
  0
BLOCK
  5
59
330
56
100
AcDbEntity
  8
0
100
AcDbBlockBegin
  2
A20J-60X-16
 70
     0
 71
     0
 10
490.518184738538
 20
237.7176887810471
 30
0.0
  3
A20J-60X-16
  1

  0
INSERT
  5
57
330
56
100
AcDbEntity
  8
0
100
AcDbBlockReference
  2
32-1-16
 10
372.8394293069273
 20
478.2526000236506
 30
0.0
  0
INSERT
  5
58
330
56
100
AcDbEntity
  8
0
100
AcDbBlockReference
  2
61-1-16-170
 10
738.9571685490033
 20
296.6134861018289
 30
0.0
  0
LINE
  5
1AD
330
56
100
AcDbEntity
  8
1
  6
PHANTOM
 62
     4
100
AcDbLine
 10
442.6267074134358
 20
238.7176887810471
 30
0.0
 11
442.6267074134358
 21
299.8691697737676
 31
0.0
  0
LINE
  5
1AE
330
56
100
AcDbEntity
  8
1
  6
PHANTOM
 62
     4
100
AcDbLine
 10
181.4863853341274
 20
287.7176887810472
 30
0.0
 11
297.4863853341274
 21
287.7176887810472
 31
0.0
  0
LINE
  5
1AF
330
56
100
AcDbEntity
  8
1
  6
PHANTOM
 62
     4
100
AcDbLine
 10
324.4863853341274
 20
260.7176887810472
 30
0.0
 11
324.4863853341274
 21
251.7176887810471
 31
0.0
  0
ARC
  5
1B0
330
56
100
AcDbEntity
  8
1
  6
PHANTOM
 62
     4
100
AcDbCircle
 10
181.4863853341274
 20
260.7176887810472
 30
0.0
 40
27.0
100
AcDbArc
 50
90.0
 51
180.0
  0
ARC
  5
1B1
330
56
100
AcDbEntity
  8
1
  6
PHANTOM
 62
     4
100
AcDbCircle
 10
297.4863853341274
 20
260.7176887810472
 30
0.0
 40
27.0
100
AcDbArc
 50
0.0
 51
90.0
  0
ENDBLK
  5
5A
330
56
100
AcDbEntity
  8
0
100
AcDbBlockEnd
  0
BLOCK
  5
5C
330
5B
100
AcDbEntity
  8
0
100
AcDbBlockBegin
  2
_J__A4
 70
     0
 71
     0
 10
0.0
 20
0.0
 30
0.0
  3
_J__A4
  1

  0
POINT
  5
1B2
330
5B
100
AcDbEntity
  8
1
 62
     4
100
AcDbPoint
 10
93.75
 20
17.0
 30
0.0
  0
POINT
  5
1B3
330
5B
100
AcDbEntity
  8
1
 62
     4
100
AcDbPoint
 10
85.25
 20
17.0
 30
0.0
  0
POINT
  5
1B4
330
5B
100
AcDbEntity
  8
1
 62
     4
100
AcDbPoint
 10
106.5
 20
19.00000000000001
 30
0.0
  0
POINT
  5
1B5
330
5B
100
AcDbEntity
  8
1
 62
     4
100
AcDbPoint
 10
106.5
 20
12.5
 30
0.0
  0
POINT
  5
1B6
330
5B
100
AcDbEntity
  8
1
 62
     4
100
AcDbPoint
 10
112.25
 20
12.5
 30
0.0
  0
POINT
  5
1B7
330
5B
100
AcDbEntity
  8
1
 62
     4
100
AcDbPoint
 10
100.75
 20
12.5
 30
0.0
  0
POINT
  5
1B8
330
5B
100
AcDbEntity
  8
1
 62
     4
100
AcDbPoint
 10
123.5
 20
19.00000000000001
 30
0.0
  0
POINT
  5
1B9
330
5B
100
AcDbEntity
  8
1
 62
     4
100
AcDbPoint
 10
123.5
 20
12.5
 30
0.0
  0
POINT
  5
1BA
330
5B
100
AcDbEntity
  8
1
 62
     4
100
AcDbPoint
 10
129.25
 20
12.5
 30
0.0
  0
POINT
  5
1BB
330
5B
100
AcDbEntity
  8
1
 62
     4
100
AcDbPoint
 10
117.75
 20
12.5
 30
0.0
  0
POINT
  5
1BC
330
5B
100
AcDbEntity
  8
1
 62
     4
100
AcDbPoint
 10
140.5
 20
19.00000000000001
 30
0.0
  0
POINT
  5
1BD
330
5B
100
AcDbEntity
  8
1
 62
     4
100
AcDbPoint
 10
140.5
 20
12.5
 30
0.0
  0
POINT
  5
1BE
330
5B
100
AcDbEntity
  8
1
 62
     4
100
AcDbPoint
 10
146.25
 20
12.5
 30
0.0
  0
POINT
  5
1BF
330
5B
100
AcDbEntity
  8
1
 62
     4
100
AcDbPoint
 10
134.75
 20
12.5
 30
0.0
  0
POINT
  5
1C0
330
5B
100
AcDbEntity
  8
1
 62
     4
100
AcDbPoint
 10
151.75
 20
12.5
 30
0.0
  0
POINT
  5
1C1
330
5B
100
AcDbEntity
  8
1
 62
     4
100
AcDbPoint
 10
163.25
 20
12.5
 30
0.0
  0
POINT
  5
1C2
330
5B
100
AcDbEntity
  8
1
 62
     4
100
AcDbPoint
 10
157.5
 20
12.5
 30
0.0
  0
POINT
  5
1C3
330
5B
100
AcDbEntity
  8
1
 62
     4
100
AcDbPoint
 10
57.0
 20
14.25
 30
0.0
  0
POINT
  5
1C4
330
5B
100
AcDbEntity
  8
1
 62
     4
100
AcDbPoint
 10
57.0
 20
22.75000000000001
 30
0.0
  0
POINT
  5
1C5
330
5B
100
AcDbEntity
  8
1
 62
     4
100
AcDbPoint
 10
47.5
 20
282.0000000000003
 30
0.0
  0
POINT
  5
1C6
330
5B
100
AcDbEntity
  8
1
 62
     4
100
AcDbPoint
 10
157.5
 20
19.00000000000001
 30
0.0
  0
POINT
  5
1C7
330
5B
100
AcDbEntity
  8
1
 62
     4
100
AcDbPoint
 10
57.0
 20
16.25
 30
0.0
  0
POINT
  5
1C8
330
5B
100
AcDbEntity
  8
1
 62
     4
100
AcDbPoint
 10
57.0
 20
24.75000000000001
 30
0.0
  0
POINT
  5
1C9
330
5B
100
AcDbEntity
  8
1
 62
     4
100
AcDbPoint
 10
57.0
 20
20.75000000000001
 30
0.0
  0
POINT
  5
1CA
330
5B
100
AcDbEntity
  8
1
 62
     4
100
AcDbPoint
 10
57.0
 20
12.25
 30
0.0
  0
POINT
  5
1CB
330
5B
100
AcDbEntity
  8
1
 62
     4
100
AcDbPoint
 10
34.0
 20
34.00000000000001
 30
0.0
  0
LINE
  5
1CC
330
5B
100
AcDbEntity
  8
1
  6
Continuous
 62
     7
100
AcDbLine
 10
105.0
 20
10.0
 30
0.0
 11
200.0
 21
10.0
 31
0.0
  0
LINE
  5
1CD
330
5B
100
AcDbEntity
  8
1
  6
Continuous
 62
     2
100
AcDbLine
 10
105.0
 20
10.0
 30
0.0
 11
105.0
 21
5.0
 31
0.0
  0
LINE
  5
1CE
330
5B
100
AcDbEntity
  8
1
  6
Continuous
 62
     7
100
AcDbLine
 10
200.0
 20
148.5
 30
0.0
 11
200.0
 21
287.0000000000003
 31
0.0
  0
LINE
  5
1CF
330
5B
100
AcDbEntity
  8
1
  6
Continuous
 62
     2
100
AcDbLine
 10
200.0
 20
148.5
 30
0.0
 11
205.0
 21
148.5
 31
0.0
  0
LINE
  5
1D0
330
5B
100
AcDbEntity
  8
1
  6
Continuous
 62
     7
100
AcDbLine
 10
25.0
 20
148.5
 30
0.0
 11
25.0
 21
287.0000000000003
 31
0.0
  0
LINE
  5
1D1
330
5B
100
AcDbEntity
  8
1
  6
Continuous
 62
     2
100
AcDbLine
 10
25.0
 20
148.5
 30
0.0
 11
20.0
 21
148.5
 31
0.0
  0
LINE
  5
1D2
330
5B
100
AcDbEntity
  8
1
  6
Continuous
 62
     7
100
AcDbLine
 10
105.0
 20
287.0000000000003
 30
0.0
 11
25.0
 21
287.0000000000003
 31
0.0
  0
LINE
  5
1D3
330
5B
100
AcDbEntity
  8
1
  6
Continuous
 62
     2
100
AcDbLine
 10
105.0
 20
287.0000000000003
 30
0.0
 11
105.0
 21
292.0000000000003
 31
0.0
  0
LINE
  5
1D4
330
5B
100
AcDbEntity
  8
1
  6
Continuous
 62
     2
100
AcDbLine
 10
166.0
 20
20.00000000000001
 30
0.0
 11
200.0
 21
20.00000000000001
 31
0.0
  0
LINE
  5
1D5
330
5B
100
AcDbEntity
  8
1
  6
Continuous
 62
     2
100
AcDbLine
 10
98.0
 20
27.00000000000001
 30
0.0
 11
98.0
 21
9.99999999999999
 31
0.0
  0
LINE
  5
1D6
330
5B
100
AcDbEntity
  8
1
  6
Continuous
 62
     2
100
AcDbLine
 10
115.0
 20
27.00000000000001
 30
0.0
 11
115.0
 21
9.99999999999999
 31
0.0
  0
LINE
  5
1D7
330
5B
100
AcDbEntity
  8
1
  6
Continuous
 62
     2
100
AcDbLine
 10
149.0
 20
27.00000000000001
 30
0.0
 11
149.0
 21
10.0
 31
0.0
  0
LINE
  5
1D8
330
5B
100
AcDbEntity
  8
1
  6
Continuous
 62
     2
100
AcDbLine
 10
132.0
 20
27.00000000000001
 30
0.0
 11
132.0
 21
9.99999999999999
 31
0.0
  0
LINE
  5
1D9
330
5B
100
AcDbEntity
  8
1
  6
Continuous
 62
     2
100
AcDbLine
 10
166.0
 20
27.00000000000001
 30
0.0
 11
166.0
 21
10.0
 31
0.0
  0
LINE
  5
1DA
330
5B
100
AcDbEntity
  8
1
  6
Continuous
 62
     2
100
AcDbLine
 10
55.0
 20
277.0000000000003
 30
0.0
 11
25.0
 21
277.0000000000003
 31
0.0
  0
LINE
  5
1DB
330
5B
100
AcDbEntity
  8
1
  6
Continuous
 62
     7
100
AcDbLine
 10
25.0
 20
10.0
 30
0.0
 11
25.0
 21
148.5
 31
0.0
  0
LINE
  5
1DC
330
5B
100
AcDbEntity
  8
1
  6
Continuous
 62
     2
100
AcDbLine
 10
40.0
 20
287.0000000000003
 30
0.0
 11
40.0
 21
277.0000000000003
 31
0.0
  0
LINE
  5
1DD
330
5B
100
AcDbEntity
  8
1
  6
Continuous
 62
     2
100
AcDbLine
 10
55.0
 20
287.0000000000003
 30
0.0
 11
55.0
 21
277.0000000000003
 31
0.0
  0
LINE
  5
1DE
330
5B
100
AcDbEntity
  8
1
  6
Continuous
 62
     2
100
AcDbLine
 10
33.0
 20
41.00000000000001
 30
0.0
 11
33.0
 21
27.0
 31
0.0
  0
LINE
  5
1DF
330
5B
100
AcDbEntity
  8
1
  6
Continuous
 62
     7
100
AcDbLine
 10
200.0
 20
27.00000000000001
 30
0.0
 11
25.0
 21
27.00000000000001
 31
0.0
  0
LINE
  5
1E0
330
5B
100
AcDbEntity
  8
1
  6
Continuous
 62
     7
100
AcDbLine
 10
25.0
 20
41.0
 30
0.0
 11
200.0
 21
41.0
 31
0.0
  0
LINE
  5
1E1
330
5B
100
AcDbEntity
  8
1
  6
PHANTOM
 62
     4
100
AcDbLine
 10
0.0
 20
0.0
 30
0.0
 11
210.0
 21
0.0
 31
0.0
  0
LINE
  5
1E2
330
5B
100
AcDbEntity
  8
1
  6
PHANTOM
 62
     4
100
AcDbLine
 10
210.0
 20
0.0
 30
0.0
 11
210.0
 21
297.0
 31
0.0
  0
LINE
  5
1E3
330
5B
100
AcDbEntity
  8
1
  6
PHANTOM
 62
     4
100
AcDbLine
 10
210.0
 20
297.0
 30
0.0
 11
0.0
 21
297.0
 31
0.0
  0
LINE
  5
1E4
330
5B
100
AcDbEntity
  8
1
  6
PHANTOM
 62
     4
100
AcDbLine
 10
0.0
 20
297.0
 30
0.0
 11
0.0
 21
0.0
 31
0.0
  0
LINE
  5
1E5
330
5B
100
AcDbEntity
  8
1
  6
Continuous
 62
     7
100
AcDbLine
 10
25.0
 20
10.0
 30
0.0
 11
105.0
 21
10.0
 31
0.0
  0
LINE
  5
1E6
330
5B
100
AcDbEntity
  8
1
  6
Continuous
 62
     7
100
AcDbLine
 10
200.0
 20
10.0
 30
0.0
 11
200.0
 21
148.5
 31
0.0
  0
LINE
  5
1E7
330
5B
100
AcDbEntity
  8
1
  6
Continuous
 62
     7
100
AcDbLine
 10
200.0
 20
287.0000000000003
 30
0.0
 11
105.0
 21
287.0000000000003
 31
0.0
  0
LINE
  5
1E8
330
5B
100
AcDbEntity
  8
1
  6
Continuous
 62
     2
100
AcDbLine
 10
25.0
 20
18.50000000000001
 30
0.0
 11
81.0
 21
18.50000000000001
 31
0.0
  0
LINE
  5
1E9
330
5B
100
AcDbEntity
  8
1
  6
Continuous
 62
     2
100
AcDbLine
 10
33.0
 20
27.0
 30
0.0
 11
33.0
 21
10.0
 31
0.0
  0
LINE
  5
1EA
330
5B
100
AcDbEntity
  8
1
  6
Continuous
 62
     7
100
AcDbLine
 10
191.0
 20
24.70000000000001
 30
0.0
 11
191.0
 21
22.30000000000001
 31
0.0
  0
LINE
  5
1EB
330
5B
100
AcDbEntity
  8
1
  6
Continuous
 62
     7
100
AcDbLine
 10
191.0
 20
24.70000000000001
 30
0.0
 11
196.0
 21
25.50000000000001
 31
0.0
  0
LINE
  5
1EC
330
5B
100
AcDbEntity
  8
1
  6
Continuous
 62
     7
100
AcDbLine
 10
196.0
 20
25.50000000000001
 30
0.0
 11
196.0
 21
21.50000000000001
 31
0.0
  0
LINE
  5
1ED
330
5B
100
AcDbEntity
  8
1
  6
Continuous
 62
     7
100
AcDbLine
 10
196.0
 20
21.50000000000001
 30
0.0
 11
191.0
 21
22.30000000000001
 31
0.0
  0
LINE
  5
1EE
330
5B
100
AcDbEntity
  8
1
  6
DOT_CENTER
 62
     2
100
AcDbLine
 10
184.0
 20
23.50000000000001
 30
0.0
 11
197.0
 21
23.50000000000001
 31
0.0
  0
LINE
  5
1EF
330
5B
100
AcDbEntity
  8
1
  6
DOT_CENTER
 62
     2
100
AcDbLine
 10
187.0
 20
26.50000000000001
 30
0.0
 11
187.0
 21
20.50000000000001
 31
0.0
  0
LINE
  5
1F0
330
5B
100
AcDbEntity
  8
1
  6
Continuous
 62
     2
100
AcDbLine
 10
81.0
 20
27.00000000000001
 30
0.0
 11
81.0
 21
10.0
 31
0.0
  0
CIRCLE
  5
1F1
330
5B
100
AcDbEntity
  8
1
  6
Continuous
 62
     7
100
AcDbCircle
 10
103.5
 20
12.5
 30
0.0
 40
0.2999999999999972
  0
CIRCLE
  5
1F2
330
5B
100
AcDbEntity
  8
1
  6
Continuous
 62
     7
100
AcDbCircle
 10
109.5
 20
12.5
 30
0.0
 40
0.2999999999999972
  0
CIRCLE
  5
1F3
330
5B
100
AcDbEntity
  8
1
  6
Continuous
 62
     7
100
AcDbCircle
 10
120.5
 20
12.5
 30
0.0
 40
0.2999999999999972
  0
CIRCLE
  5
1F4
330
5B
100
AcDbEntity
  8
1
  6
Continuous
 62
     7
100
AcDbCircle
 10
126.5
 20
12.5
 30
0.0
 40
0.2999999999999972
  0
CIRCLE
  5
1F5
330
5B
100
AcDbEntity
  8
1
  6
Continuous
 62
     7
100
AcDbCircle
 10
137.5
 20
12.5
 30
0.0
 40
0.3000000000000114
  0
CIRCLE
  5
1F6
330
5B
100
AcDbEntity
  8
1
  6
Continuous
 62
     7
100
AcDbCircle
 10
143.5
 20
12.5
 30
0.0
 40
0.3000000000000114
  0
CIRCLE
  5
1F7
330
5B
100
AcDbEntity
  8
1
  6
Continuous
 62
     7
100
AcDbCircle
 10
160.5
 20
12.5
 30
0.0
 40
0.3000000000000114
  0
CIRCLE
  5
1F8
330
5B
100
AcDbEntity
  8
1
  6
Continuous
 62
     7
100
AcDbCircle
 10
154.5
 20
12.5
 30
0.0
 40
0.3000000000000114
  0
CIRCLE
  5
1F9
330
5B
100
AcDbEntity
  8
1
  6
Continuous
 62
     7
100
AcDbCircle
 10
187.0
 20
23.50000000000001
 30
0.0
 40
1.200000000000102
  0
CIRCLE
  5
1FA
330
5B
100
AcDbEntity
  8
1
  6
Continuous
 62
     7
100
AcDbCircle
 10
187.0
 20
23.50000000000001
 30
0.0
 40
2.0
  0
CIRCLE
  5
1FB
330
5B
100
AcDbEntity
  8
1
  6
DOT_CENTER
 62
     7
100
AcDbCircle
 10
89.5
 20
16.0
 30
0.0
 40
0.1000000000000227
  0
CIRCLE
  5
1FC
330
5B
100
AcDbEntity
  8
1
  6
DOT_CENTER
 62
     7
100
AcDbCircle
 10
89.5
 20
18.0
 30
0.0
 40
0.1000000000000227
  0
MTEXT
  5
1FE
330
5B
100
AcDbEntity
  8
1
 62
     7
100
AcDbMText
 10
188.5
 20
15.0
 30
0.0
 40
3.0
 41
0.0
 71
     5
 72
     1
  1
三栄水栓製作所
  7
CONVERTER_1
 73
     1
 44
1.32052821128451
  0
MTEXT
  5
1FF
330
5B
100
AcDbEntity
  8
1
 62
     7
100
AcDbMText
 10
171.5
 20
15.0
 30
0.0
 40
2.5
 41
0.0
 71
     5
 72
     1
  1
株式会社
  7
CONVERTER_1
 73
     1
 44
1.32052821128451
  0
MTEXT
  5
200
330
5B
100
AcDbEntity
  8
1
 62
     2
100
AcDbMText
 10
32.5
 20
282.0000000000003
 30
0.0
 40
5.0
 41
0.0
 71
     5
 72
     1
  1
図番
  7
CONVERTER_1
 73
     1
 44
0.60024009603842
  0
MTEXT
  5
201
330
5B
100
AcDbEntity
  8
1
 62
     2
100
AcDbMText
 10
29.0
 20
34.00000000000001
 30
0.0
 40
3.5
 41
0.0
 71
     5
 72
     1
  1
備考
  7
CONVERTER_1
 73
     1
 44
0.60024009603842
  0
MTEXT
  5
202
330
5B
100
AcDbEntity
  8
1
 62
     2
100
AcDbMText
 10
29.0
 20
22.75
 30
0.0
 40
3.5
 41
0.0
 71
     5
 72
     1
  1
品名
  7
CONVERTER_1
 73
     1
 44
0.96038415366146
  0
MTEXT
  5
203
330
5B
100
AcDbEntity
  8
1
 62
     2
100
AcDbMText
 10
29.0
 20
14.25
 30
0.0
 40
3.5
 41
0.0
 71
     5
 72
     1
  1
品番
  7
CONVERTER_1
 73
     1
 44
0.96038415366146
  0
MTEXT
  5
204
330
5B
100
AcDbEntity
  8
1
 62
     2
100
AcDbMText
 10
101.5
 20
25.00000000000001
 30
0.0
 40
3.0
 41
0.0
 71
     5
 72
     1
  1
承認
  7
CONVERTER_1
 73
     1
 44
0.78031212484994
  0
MTEXT
  5
205
330
5B
100
AcDbEntity
  8
1
 62
     2
100
AcDbMText
 10
175.0
 20
23.50000000000001
 30
0.0
 40
3.5
 41
0.0
 71
     5
 72
     1
  1
第三角法
  7
CONVERTER_1
 73
     1
 44
0.7202881152461
  0
MTEXT
  5
206
330
5B
100
AcDbEntity
  8
1
 62
     2
100
AcDbMText
 10
118.5
 20
25.00000000000001
 30
0.0
 40
3.0
 41
0.0
 71
     5
 72
     1
  1
検図
  7
CONVERTER_1
 73
     1
 44
0.78031212484994
  0
MTEXT
  5
207
330
5B
100
AcDbEntity
  8
1
 62
     2
100
AcDbMText
 10
152.5
 20
25.00000000000001
 30
0.0
 40
3.0
 41
0.0
 71
     5
 72
     1
  1
設計
  7
CONVERTER_1
 73
     1
 44
0.78031212484994
  0
MTEXT
  5
208
330
5B
100
AcDbEntity
  8
1
 62
     2
100
AcDbMText
 10
135.5
 20
25.00000000000001
 30
0.0
 40
3.0
 41
0.0
 71
     5
 72
     1
  1
製図
  7
CONVERTER_1
 73
     1
 44
0.78031212484994
  0
MTEXT
  5
209
330
5B
100
AcDbEntity
  8
1
 62
     2
100
AcDbMText
 10
89.5
 20
24.00000000000001
 30
0.0
 40
3.5
 41
0.0
 71
     5
 72
     1
  1
尺度
  7
CONVERTER_1
 73
     1
 44
0.7202881152461
  0
MTEXT
  5
20A
330
5B
100
AcDbEntity
  8
1
 62
   250
100
AcDbMText
 10
25.0
 20
5.0
 30
0.0
 40
3.5
 41
0.0
 71
     4
 72
     1
  1
備考欄の文字列 原点位置=4
  7
CONVERTER_1
 73
     1
 44
0.7202881152461
  0
ENDBLK
  5
5D
330
5B
100
AcDbEntity
  8
0
100
AcDbBlockEnd
  0
BLOCK
  5
22D
330
226
100
AcDbEntity
  8
0
100
AcDbBlockBegin
  2
*D012
 70
     1
 71
     0
 10
0.0
 20
0.0
 30
0.0
  3
*D012
  1

  0
LINE
  5
227
330
226
100
AcDbEntity
  8
1
  6
Continuous
 62
     2
100
AcDbLine
 10
154.4863853341274
 20
172.2176887810473
 30
0.0
 11
109.4863853341273
 21
172.2176887810473
 31
0.0
  0
LINE
  5
228
330
226
100
AcDbEntity
  8
1
  6
Continuous
 62
     2
100
AcDbLine
 10
154.4863853341274
 20
203.2176887810473
 30
0.0
 11
154.4863853341274
 21
169.7176887810473
 31
0.0
  0
LINE
  5
229
330
226
100
AcDbEntity
  8
1
  6
Continuous
 62
     2
100
AcDbLine
 10
109.4863853341273
 20
197.2176887810473
 30
0.0
 11
109.4863853341273
 21
169.7176887810473
 31
0.0
  0
SOLID
  5
22A
330
226
100
AcDbEntity
  8
1
 62
     2
100
AcDbTrace
 10
145.7363853341274
 20
171.0657294271576
 30
0.0
 11
145.7363853341274
 21
173.369648134937
 31
0.0
 12
154.4863853341274
 22
172.2176887810473
 32
0.0
 13
154.4863853341274
 23
172.2176887810473
 33
0.0
  0
SOLID
  5
22B
330
226
100
AcDbEntity
  8
1
 62
     2
100
AcDbTrace
 10
118.2363853341273
 20
173.369648134937
 30
0.0
 11
118.2363853341273
 21
171.0657294271576
 31
0.0
 12
109.4863853341273
 22
172.2176887810473
 32
0.0
 13
109.4863853341273
 23
172.2176887810473
 33
0.0
  0
MTEXT
  5
22C
330
226
100
AcDbEntity
  8
1
 62
     7
100
AcDbMText
 10
125.4238853341273
 20
174.7176887810473
 30
0.0
 40
8.75
 41
0.0
 71
     7
 72
     1
  1
45
  7
CONVERTER_2
 11
0.9999999999970621
 21
2.424068405545307E-6
 31
0.0
 73
     1
 44
0.60024009603842
  0
ENDBLK
  5
22E
330
226
100
AcDbEntity
  8
0
100
AcDbBlockEnd
  0
BLOCK
  5
238
330
231
100
AcDbEntity
  8
0
100
AcDbBlockBegin
  2
*D113
 70
     1
 71
     0
 10
0.0
 20
0.0
 30
0.0
  3
*D113
  1

  0
LINE
  5
232
330
231
100
AcDbEntity
  8
1
  6
Continuous
 62
     2
100
AcDbLine
 10
324.4863853341275
 20
172.2176887810473
 30
0.0
 11
154.4863853341274
 21
172.2176887810473
 31
0.0
  0
LINE
  5
233
330
231
100
AcDbEntity
  8
1
  6
Continuous
 62
     2
100
AcDbLine
 10
324.4863853341275
 20
251.7176887810471
 30
0.0
 11
324.4863853341275
 21
169.7176887810473
 31
0.0
  0
LINE
  5
234
330
231
100
AcDbEntity
  8
1
  6
Continuous
 62
     2
100
AcDbLine
 10
154.4863853341274
 20
203.2176887810473
 30
0.0
 11
154.4863853341274
 21
169.7176887810473
 31
0.0
  0
SOLID
  5
235
330
231
100
AcDbEntity
  8
1
 62
     2
100
AcDbTrace
 10
315.7363853341275
 20
171.0657294271576
 30
0.0
 11
315.7363853341275
 21
173.369648134937
 31
0.0
 12
324.4863853341275
 22
172.2176887810473
 32
0.0
 13
324.4863853341275
 23
172.2176887810473
 33
0.0
  0
SOLID
  5
236
330
231
100
AcDbEntity
  8
1
 62
     2
100
AcDbTrace
 10
163.2363853341274
 20
173.369648134937
 30
0.0
 11
163.2363853341274
 21
171.0657294271576
 31
0.0
 12
154.4863853341274
 22
172.2176887810473
 32
0.0
 13
154.4863853341274
 23
172.2176887810473
 33
0.0
  0
MTEXT
  5
237
330
231
100
AcDbEntity
  8
1
 62
     7
100
AcDbMText
 10
230.2988853341274
 20
174.7176887810473
 30
0.0
 40
8.75
 41
0.0
 71
     7
 72
     1
  1
170
  7
CONVERTER_2
 11
0.9999999999970621
 21
2.424068405545307E-6
 31
0.0
 73
     1
 44
0.60024009603842
  0
ENDBLK
  5
239
330
231
100
AcDbEntity
  8
0
100
AcDbBlockEnd
  0
BLOCK
  5
243
330
23C
100
AcDbEntity
  8
0
100
AcDbBlockBegin
  2
*D214
 70
     1
 71
     0
 10
0.0
 20
0.0
 30
0.0
  3
*D214
  1

  0
LINE
  5
23D
330
23C
100
AcDbEntity
  8
1
  6
Continuous
 62
     2
100
AcDbLine
 10
79.803427561479
 20
243.2176887810472
 30
0.0
 11
79.803427561479
 21
197.2176887810473
 31
0.0
  0
LINE
  5
23E
330
23C
100
AcDbEntity
  8
1
  6
Continuous
 62
     2
100
AcDbLine
 10
109.4863853341273
 20
197.2176887810473
 30
0.0
 11
77.303427561479
 21
197.2176887810473
 31
0.0
  0
LINE
  5
23F
330
23C
100
AcDbEntity
  8
1
  6
Continuous
 62
     2
100
AcDbLine
 10
109.4863853341273
 20
243.2176887810472
 30
0.0
 11
77.303427561479
 21
243.2176887810472
 31
0.0
  0
SOLID
  5
240
330
23C
100
AcDbEntity
  8
1
 62
     2
100
AcDbTrace
 10
80.95538691536871
 20
234.4676887810472
 30
0.0
 11
78.65146820758929
 21
234.4676887810472
 31
0.0
 12
79.803427561479
 22
243.2176887810472
 32
0.0
 13
79.803427561479
 23
243.2176887810472
 33
0.0
  0
SOLID
  5
241
330
23C
100
AcDbEntity
  8
1
 62
     2
100
AcDbTrace
 10
78.65146820758929
 20
205.9676887810473
 30
0.0
 11
80.95538691536871
 21
205.9676887810473
 31
0.0
 12
79.803427561479
 22
197.2176887810473
 32
0.0
 13
79.803427561479
 23
197.2176887810473
 33
0.0
  0
MTEXT
  5
242
330
23C
100
AcDbEntity
  8
1
 62
     7
100
AcDbMText
 10
77.303427561479
 20
204.5551887810473
 30
0.0
 40
8.75
 41
0.0
 71
     7
 72
     1
  1
\C7;{\Fgdt;n}\C7;46
  7
CONVERTER_2
 11
0.0
 21
1.0
 31
0.0
 73
     1
 44
0.60024009603842
  0
ENDBLK
  5
244
330
23C
100
AcDbEntity
  8
0
100
AcDbBlockEnd
  0
BLOCK
  5
24E
330
247
100
AcDbEntity
  8
0
100
AcDbBlockBegin
  2
*D315
 70
     1
 71
     0
 10
0.0
 20
0.0
 30
0.0
  3
*D315
  1

  0
LINE
  5
248
330
247
100
AcDbEntity
  8
1
  6
Continuous
 62
     2
100
AcDbLine
 10
290.8363853341274
 20
220.2176887810467
 30
0.0
 11
290.8363853341274
 21
254.7176887810471
 31
0.0
  0
LINE
  5
249
330
247
100
AcDbEntity
  8
1
  6
Continuous
 62
     2
100
AcDbLine
 10
317.0999783281412
 20
254.7176887810471
 30
0.0
 11
288.3363853341274
 21
254.7176887810471
 31
0.0
  0
LINE
  5
24A
330
247
100
AcDbEntity
  8
1
  6
Continuous
 62
     2
100
AcDbLine
 10
181.4268568323623
 20
220.2176887810467
 30
0.0
 11
293.3363853341274
 21
220.2176887810467
 31
0.0
  0
SOLID
  5
24B
330
247
100
AcDbEntity
  8
1
 62
     2
100
AcDbTrace
 10
289.6844259802377
 20
228.9676887810467
 30
0.0
 11
291.9883446880171
 21
228.9676887810467
 31
0.0
 12
290.8363853341274
 22
220.2176887810467
 32
0.0
 13
290.8363853341274
 23
220.2176887810467
 33
0.0
  0
SOLID
  5
24C
330
247
100
AcDbEntity
  8
1
 62
     2
100
AcDbTrace
 10
291.9883446880171
 20
245.9676887810471
 30
0.0
 11
289.6844259802377
 21
245.9676887810471
 31
0.0
 12
290.8363853341274
 22
254.7176887810471
 32
0.0
 13
290.8363853341274
 23
254.7176887810471
 33
0.0
  0
MTEXT
  5
24D
330
247
100
AcDbEntity
  8
1
 62
     7
100
AcDbMText
 10
288.3363853341274
 20
230.9051887810472
 30
0.0
 40
8.75
 41
0.0
 71
     7
 72
     1
  1
35
  7
CONVERTER_2
 11
0.0
 21
1.0
 31
0.0
 73
     1
 44
0.60024009603842
  0
ENDBLK
  5
24F
330
247
100
AcDbEntity
  8
0
100
AcDbBlockEnd
  0
BLOCK
  5
259
330
252
100
AcDbEntity
  8
0
100
AcDbBlockBegin
  2
*D416
 70
     1
 71
     0
 10
0.0
 20
0.0
 30
0.0
  3
*D416
  1

  0
LINE
  5
253
330
252
100
AcDbEntity
  8
0
  6
Continuous
 62
     2
100
AcDbLine
 10
358.1363853341272
 20
287.7176887810472
 30
0.0
 11
358.1363853341272
 21
220.2176887810467
 31
0.0
  0
LINE
  5
254
330
252
100
AcDbEntity
  8
0
  6
Continuous
 62
     2
100
AcDbLine
 10
181.4268568323623
 20
220.2176887810467
 30
0.0
 11
360.6363853341272
 21
220.2176887810467
 31
0.0
  0
LINE
  5
255
330
252
100
AcDbEntity
  8
0
  6
Continuous
 62
     2
100
AcDbLine
 10
297.4863853341274
 20
287.7176887810472
 30
0.0
 11
360.6363853341272
 21
287.7176887810472
 31
0.0
  0
SOLID
  5
256
330
252
100
AcDbEntity
  8
0
 62
     2
100
AcDbTrace
 10
359.2883446880169
 20
278.9676887810472
 30
0.0
 11
356.9844259802375
 21
278.9676887810472
 31
0.0
 12
358.1363853341272
 22
287.7176887810472
 32
0.0
 13
358.1363853341272
 23
287.7176887810472
 33
0.0
  0
SOLID
  5
257
330
252
100
AcDbEntity
  8
0
 62
     2
100
AcDbTrace
 10
356.9844259802375
 20
228.9676887810467
 30
0.0
 11
359.2883446880169
 21
228.9676887810467
 31
0.0
 12
358.1363853341272
 22
220.2176887810467
 32
0.0
 13
358.1363853341272
 23
220.2176887810467
 33
0.0
  0
MTEXT
  5
258
330
252
100
AcDbEntity
  8
0
 62
     7
100
AcDbMText
 10
355.6363853341272
 20
247.4051887810472
 30
0.0
 40
8.75
 41
0.0
 71
     7
 72
     1
  1
68
  7
CONVERTER_2
 11
0.0
 21
1.0
 31
0.0
 73
     1
 44
0.60024009603842
  0
ENDBLK
  5
25A
330
252
100
AcDbEntity
  8
0
100
AcDbBlockEnd
  0
BLOCK
  5
264
330
25D
100
AcDbEntity
  8
0
100
AcDbBlockBegin
  2
*D517
 70
     1
 71
     0
 10
0.0
 20
0.0
 30
0.0
  3
*D517
  1

  0
LINE
  5
25E
330
25D
100
AcDbEntity
  8
0
  6
Continuous
 62
     2
100
AcDbLine
 10
380.1267074134354
 20
172.2176887810474
 30
0.0
 11
442.6267074134358
 21
172.2176887810474
 31
0.0
  0
LINE
  5
25F
330
25D
100
AcDbEntity
  8
0
  6
Continuous
 62
     2
100
AcDbLine
 10
380.1267074134354
 20
220.2176887810471
 30
0.0
 11
380.1267074134354
 21
169.7176887810474
 31
0.0
  0
LINE
  5
260
330
25D
100
AcDbEntity
  8
0
  6
Continuous
 62
     2
100
AcDbLine
 10
442.6267074134358
 20
194.2176887810471
 30
0.0
 11
442.6267074134358
 21
169.7176887810474
 31
0.0
  0
SOLID
  5
261
330
25D
100
AcDbEntity
  8
0
 62
     2
100
AcDbTrace
 10
388.8767074134354
 20
173.3696481349371
 30
0.0
 11
388.8767074134354
 21
171.0657294271577
 31
0.0
 12
380.1267074134354
 22
172.2176887810474
 32
0.0
 13
380.1267074134354
 23
172.2176887810474
 33
0.0
  0
SOLID
  5
262
330
25D
100
AcDbEntity
  8
0
 62
     2
100
AcDbTrace
 10
433.8767074134358
 20
171.0657294271577
 30
0.0
 11
433.8767074134358
 21
173.3696481349371
 31
0.0
 12
442.6267074134358
 22
172.2176887810474
 32
0.0
 13
442.6267074134358
 23
172.2176887810474
 33
0.0
  0
MTEXT
  5
263
330
25D
100
AcDbEntity
  8
0
 62
     7
100
AcDbMText
 10
387.7517074134356
 20
174.7176887810474
 30
0.0
 40
8.75
 41
0.0
 71
     7
 72
     1
  1
63リフト5
  7
CONVERTER_1
 11
0.9999999999970621
 21
2.424068405545307E-6
 31
0.0
 73
     1
 44
0.60024009603842
  0
ENDBLK
  5
265
330
25D
100
AcDbEntity
  8
0
100
AcDbBlockEnd
  0
BLOCK
  5
26F
330
268
100
AcDbEntity
  8
0
100
AcDbBlockBegin
  2
*D618
 70
     1
 71
     0
 10
0.0
 20
0.0
 30
0.0
  3
*D618
  1

  0
LINE
  5
269
330
268
100
AcDbEntity
  8
1
  6
Continuous
 62
     2
100
AcDbLine
 10
95.48638533412731
 20
172.2176887810473
 30
0.0
 11
109.4863853341273
 21
172.2176887810473
 31
0.0
  0
LINE
  5
26A
330
268
100
AcDbEntity
  8
1
  6
Continuous
 62
     2
100
AcDbLine
 10
73.59067409303471
 20
172.2176887810473
 30
0.0
 11
95.48638533412731
 21
172.2176887810473
 31
0.0
  0
LINE
  5
26B
330
268
100
AcDbEntity
  8
1
  6
Continuous
 62
     2
100
AcDbLine
 10
95.48638533412731
 20
210.7176887810473
 30
0.0
 11
95.48638533412731
 21
169.7176887810473
 31
0.0
  0
LINE
  5
26C
330
268
100
AcDbEntity
  8
1
  6
Continuous
 62
     2
100
AcDbLine
 10
109.4863853341273
 20
197.2176887810473
 30
0.0
 11
109.4863853341273
 21
169.7176887810473
 31
0.0
  0
SOLID
  5
26D
330
268
100
AcDbEntity
  8
1
 62
     2
100
AcDbTrace
 10
86.73638533412731
 20
171.0657294271576
 30
0.0
 11
86.73638533412731
 21
173.369648134937
 31
0.0
 12
95.48638533412731
 22
172.2176887810473
 32
0.0
 13
95.48638533412731
 23
172.2176887810473
 33
0.0
  0
MTEXT
  5
26E
330
268
100
AcDbEntity
  8
1
 62
     7
100
AcDbMText
 10
73.59067409303471
 20
174.7176887810473
 30
0.0
 40
8.75
 41
0.0
 71
     7
 72
     1
  1
14
  7
CONVERTER_2
 11
0.9999999999970621
 21
2.424068405545307E-6
 31
0.0
 73
     1
 44
0.60024009603842
  0
ENDBLK
  5
270
330
268
100
AcDbEntity
  8
0
100
AcDbBlockEnd
  0
BLOCK
  5
272
330
271
100
AcDbEntity
  8
0
100
AcDbBlockBegin
  2
_None
 70
     0
 71
     0
 10
0.0
 20
0.0
 30
0.0
  3
_None
  1

  0
ENDBLK
  5
273
330
271
100
AcDbEntity
  8
0
100
AcDbBlockEnd
  0
ENDSEC
  0
SECTION
  2
ENTITIES
  0
INSERT
  5
5E
330
1F
100
AcDbEntity
  8
0
100
AcDbBlockReference
  2
R10A-13
 10
391.6267074134357
 20
175.2176887810471
 30
0.0
  0
INSERT
  5
5F
330
1F
100
AcDbEntity
  8
1
100
AcDbBlockReference
  2
A20L-0-13
 10
414.6267074134357
 20
197.2176887810471
 30
0.0
  0
INSERT
  5
60
330
1F
100
AcDbEntity
  8
1
100
AcDbBlockReference
  2
A20J-60X-16
 10
490.518184738538
 20
237.7176887810471
 30
0.0
  0
INSERT
  5
61
330
1F
100
AcDbEntity
  8
1
100
AcDbBlockReference
  2
_J__A4
 10
0.0
 20
0.0
 30
0.0
 41
2.5
 42
2.5
 43
2.5
  0
LINE
  5
20B
330
1F
100
AcDbEntity
  8
1
  6
DASH_CENTER
 62
     2
100
AcDbLine
 10
122.4446030410363
 20
201.7183571488158
 30
0.0
 11
173.6324164635332
 21
231.2716550075228
 31
0.0
  0
LINE
  5
20C
330
1F
100
AcDbEntity
  8
1
  6
DASH_CENTER
 62
     2
100
AcDbLine
 10
409.1267074134357
 20
220.2176887810471
 30
0.0
 11
420.1267074134357
 21
220.2176887810471
 31
0.0
  0
LINE
  5
20D
330
1F
100
AcDbEntity
  8
1
  6
DASH_CENTER
 62
     2
100
AcDbLine
 10
135.9750287222076
 20
230.9052255040043
 30
0.0
 11
186.5281676272183
 21
201.7183571488158
 31
0.0
  0
LINE
  5
20E
330
1F
100
AcDbEntity
  8
1
  6
DASH_CENTER
 62
     2
100
AcDbLine
 10
442.626707413436
 20
336.214316644023
 30
0.0
 11
442.6267074134358
 21
582.914131508132
 31
0.0
  0
LINE
  5
20F
330
1F
100
AcDbEntity
  8
1
  6
DASH_CENTER
 62
     2
100
AcDbLine
 10
154.4863853341274
 20
259.7176887810472
 30
0.0
 11
154.4863853341274
 21
203.2176887810473
 31
0.0
  0
LINE
  5
210
330
1F
100
AcDbEntity
  8
1
  6
DASH_CENTER
 62
     2
100
AcDbLine
 10
181.4268568323623
 20
220.2176887810467
 30
0.0
 11
92.48638533412732
 21
220.2176887810473
 31
0.0
  0
LINE
  5
211
330
1F
100
AcDbEntity
  8
1
  6
DASH_CENTER
 62
     2
100
AcDbLine
 10
442.6267074134358
 20
194.2176887810471
 30
0.0
 11
442.6267074134358
 21
237.7176887810471
 31
0.0
  0
LINE
  5
212
330
1F
100
AcDbEntity
  8
0
  6
DASH_CENTER
 62
     2
100
AcDbLine
 10
468.6267074134358
 20
220.2176887810471
 30
0.0
 11
373.2493704697652
 21
220.2176887810471
 31
0.0
  0
LINE
  5
213
330
1F
100
AcDbEntity
  8
1
  6
DASH_CENTER
 62
     2
100
AcDbLine
 10
380.257571872934
 20
518.1905139095777
 30
0.0
 11
462.286194663422
 21
518.1905139095777
 31
0.0
  0
LINE
  5
214
330
1F
100
AcDbEntity
  8
1
  6
DASH_CENTER
 62
     2
100
AcDbLine
 10
431.2524852195739
 20
348.1905139095775
 30
0.0
 11
453.6046586256567
 21
348.1905139095775
 31
0.0
  0
LINE
  5
215
330
1F
100
AcDbEntity
  8
1
  6
DASH_CENTER
 62
     2
100
AcDbLine
 10
431.7339914050083
 20
287.7176887810475
 30
0.0
 11
453.1399278227949
 21
287.7176887810475
 31
0.0
  0
LINE
  5
216
330
1F
100
AcDbEntity
  8
1
  6
DASH_CENTER
 62
     2
100
AcDbLine
 10
442.6267074134358
 20
299.8691697737677
 30
0.0
 11
442.6267074134358
 21
237.7176887810471
 31
0.0
  0
LINE
  5
217
330
1F
100
AcDbEntity
  8
1
  6
DASH_CENTER
 62
     2
100
AcDbLine
 10
181.4863853341274
 20
287.7176887810472
 30
0.0
 11
297.4863853341275
 21
287.7176887810472
 31
0.0
  0
LINE
  5
218
330
1F
100
AcDbEntity
  8
1
  6
DASH_CENTER
 62
     2
100
AcDbLine
 10
154.4863853341274
 20
259.7176887810472
 30
0.0
 11
154.4863853341274
 21
260.7176887810472
 31
0.0
  0
LINE
  5
219
330
1F
100
AcDbEntity
  8
1
  6
DASH_CENTER
 62
     2
100
AcDbLine
 10
324.4863853341274
 20
260.7176887810472
 30
0.0
 11
324.4863853341274
 21
251.7176887810471
 31
0.0
  0
ARC
  5
21A
330
1F
100
AcDbEntity
  8
1
  6
DASH_CENTER
 62
     2
100
AcDbCircle
 10
181.4863853341274
 20
260.7176887810472
 30
0.0
 40
27.0
100
AcDbArc
 50
90.0
 51
180.0
  0
ARC
  5
21B
330
1F
100
AcDbEntity
  8
1
  6
DASH_CENTER
 62
     2
100
AcDbCircle
 10
297.4863853341275
 20
260.7176887810472
 30
0.0
 40
26.99999999999994
100
AcDbArc
 50
0.0
 51
90.0
  0
SOLID
  5
21C
330
1F
100
AcDbEntity
  8
1
 62
     2
100
AcDbTrace
 10
426.7540813488397
 20
576.692256515746
 30
0.0
 11
428.7493334780309
 21
577.8442158696357
 31
0.0
 12
432.1267074134354
 22
569.690513909577
 32
0.0
 13
432.1267074134354
 23
569.690513909577
 33
0.0
  0
LEADER
  5
21D
330
1F
100
AcDbEntity
  8
1
  6
Continuous
 62
     2
100
AcDbLeader
  3
Standard
 71
     0
 76
     3
 10
432.1267074134354
 20
569.690513909577
 30
0.0
 10
415.8789559434882
 20
597.8324449642776
 30
0.0
 10
378.9564587613921
 20
597.8324449642776
 30
0.0
  0
MTEXT
  5
21F
330
1F
100
AcDbEntity
  8
1
 62
     7
100
AcDbMText
 10
397.4177073524399
 20
605.3324449642778
 30
0.0
 40
8.75
 41
0.0
 71
     5
 72
     1
  1
PJ1/2
  7
CONVERTER_2
 73
     1
 44
1.32052821128451
  0
MTEXT
  5
220
330
1F
100
AcDbEntity
  8
0
 62
     7
100
AcDbMText
 10
142.5
 20
51.87500000000002
 30
0.0
 40
8.75
 41
0.0
 71
     5
 72
     1
  1
(左ハンドル)
  7
CONVERTER_1
 73
     1
 44
0.7202881152461
  0
MTEXT
  5
221
330
1F
100
AcDbEntity
  8
0
 62
     7
100
AcDbMText
 10
142.5
 20
35.62499999999999
 30
0.0
 40
8.75
 41
0.0
 71
     5
 72
     1
  1
A20LJK-13
  7
CONVERTER_2
 73
     1
 44
0.7202881152461
  0
MTEXT
  5
222
330
1F
100
AcDbEntity
  8
0
 62
     7
100
AcDbMText
 10
142.5
 20
61.87500000000004
 30
0.0
 40
8.75
 41
0.0
 71
     5
 72
     1
  1
横形自在水栓
  7
CONVERTER_1
 73
     1
 44
1.32052821128451
  0
MTEXT
  5
223
330
1F
100
AcDbEntity
  8
0
 62
     7
100
AcDbMText
 10
85.0
 20
85.00000000000001
 30
0.0
 40
8.75
 41
0.0
 71
     4
 72
     1
  1
JIS
  7
CONVERTER_2
 73
     1
 44
1.32052821128451
  0
MTEXT
  5
224
330
1F
100
AcDbEntity
  8
0
 62
     7
100
AcDbMText
 10
213.125
 20
42.49999999999999
 30
0.0
 40
8.75
 41
0.0
 71
     5
 72
     1
  1
1
  7
CONVERTER_2
 73
     1
 44
1.32052821128451
  0
MTEXT
  5
225
330
1F
100
AcDbEntity
  8
0
 62
     7
100
AcDbMText
 10
234.375
 20
42.49999999999999
 30
0.0
 40
8.75
 41
0.0
 71
     5
 72
     1
  1
2,5
  7
CONVERTER_2
 73
     1
 44
1.32052821128451
  0
DIMENSION
  5
230
330
1F
100
AcDbEntity
  8
1
100
AcDbDimension
  2
*D012
 10
154.4863853341274
 20
172.2176887810473
 30
0.0
 11
131.9863853341273
 21
179.0926887810473
 31
0.0
  1
<>
 71
     5
 42
0.0
 53
0.00013888888889
  3
ME10_DIM_0
100
AcDbAlignedDimension
 13
109.4863853341273
 23
197.2176887810473
 33
0.0
 14
154.4863853341274
 24
203.2176887810473
 34
0.0
100
AcDbRotatedDimension
  0
DIMENSION
  5
23B
330
1F
100
AcDbEntity
  8
1
100
AcDbDimension
  2
*D113
 10
324.4863853341275
 20
172.2176887810473
 30
0.0
 11
239.4863853341274
 21
179.0926887810473
 31
0.0
  1
<>
 71
     5
 42
0.0
 53
0.00013888888889
  3
ME10_DIM_1
100
AcDbAlignedDimension
 13
154.4863853341274
 23
203.2176887810473
 33
0.0
 14
324.4863853341274
 24
251.7176887810471
 34
0.0
100
AcDbRotatedDimension
  0
DIMENSION
  5
246
330
1F
100
AcDbEntity
  8
1
100
AcDbDimension
  2
*D214
 10
79.803427561479
 20
243.2176887810472
 30
0.0
 11
72.928427561479
 21
220.2176887810473
 31
0.0
  1
<>
 71
     5
 42
0.0
 53
90.0
  3
ME10_DIM_2
100
AcDbAlignedDimension
 13
109.4863853341273
 23
197.2176887810473
 33
0.0
 14
109.4863853341273
 24
243.2176887810472
 34
0.0
 50
90.0
100
AcDbRotatedDimension
  0
DIMENSION
  5
251
330
1F
100
AcDbEntity
  8
1
100
AcDbDimension
  2
*D315
 10
290.8363853341274
 20
220.2176887810467
 30
0.0
 11
283.9613853341274
 21
237.4676887810472
 31
0.0
  1
35
 71
     5
 42
0.0
 53
90.0
  3
ME10_DIM_3
100
AcDbAlignedDimension
 13
317.0999783281412
 23
254.7176887810471
 33
0.0
 14
181.4268568323623
 24
220.2176887810467
 34
0.0
 50
90.0
100
AcDbRotatedDimension
  0
DIMENSION
  5
25C
330
1F
100
AcDbEntity
  8
0
100
AcDbDimension
  2
*D416
 10
358.1363853341272
 20
287.7176887810472
 30
0.0
 11
351.2613853341272
 21
253.9676887810472
 31
0.0
  1
68
 71
     5
 42
0.0
 53
90.0
  3
ME10_DIM_4
100
AcDbAlignedDimension
 13
181.4268568323623
 23
220.2176887810467
 33
0.0
 14
297.4863853341275
 24
287.7176887810472
 34
0.0
 50
90.0
100
AcDbRotatedDimension
  0
DIMENSION
  5
267
330
1F
100
AcDbEntity
  8
0
100
AcDbDimension
  2
*D517
 10
380.1267074134354
 20
172.2176887810474
 30
0.0
 11
411.3767074134356
 21
179.0926887810474
 31
0.0
  1
63リフト5
 71
     5
 42
0.0
 53
0.00013888888889
  3
ME10_DIM_5
100
AcDbAlignedDimension
 13
442.6267074134358
 23
194.2176887810471
 33
0.0
 14
380.1267074134353
 24
220.2176887810471
 34
0.0
100
AcDbRotatedDimension
  0
DIMENSION
  5
275
330
1F
100
AcDbEntity
  8
1
100
AcDbDimension
  2
*D618
 10
95.48638533412731
 20
172.2176887810473
 30
0.0
 11
78.84067409303471
 21
179.0926887810473
 31
0.0
  1
<>
 71
     5
 42
0.0
 53
0.00013888888889
  3
ME10_DIM_6
100
AcDbAlignedDimension
 13
109.4863853341273
 23
197.2176887810473
 33
0.0
 14
95.48638533412731
 24
210.7176887810473
 34
0.0
100
AcDbRotatedDimension
  0
ENDSEC
  0
SECTION
  2
OBJECTS
  0
DICTIONARY
  5
C
330
0
100
AcDbDictionary
281
     1
  3
ACAD_GROUP
350
D
  3
ACAD_LAYOUT
350
1A
  3
ACAD_MLINESTYLE
350
17
  3
ACAD_PLOTSETTINGS
350
19
  3
ACAD_PLOTSTYLENAME
350
E
  3
ACAD_TABLESTYLE
350
2A
  3
AcDbVariableDictionary
350
2C
  0
DICTIONARY
  5
D
102
{ACAD_REACTORS
330
C
102
}
330
C
100
AcDbDictionary
281
     1
  0
DICTIONARY
  5
1A
102
{ACAD_REACTORS
330
C
102
}
330
C
100
AcDbDictionary
281
     1
  3
Layout1
350
1E
  3
Layout2
350
26
  3
Model
350
22
  0
DICTIONARY
  5
17
102
{ACAD_REACTORS
330
C
102
}
330
C
100
AcDbDictionary
281
     1
  3
Standard
350
18
  0
DICTIONARY
  5
19
102
{ACAD_REACTORS
330
C
102
}
330
C
100
AcDbDictionary
281
     1
  0
ACDBDICTIONARYWDFLT
  5
E
102
{ACAD_REACTORS
330
C
102
}
330
C
100
AcDbDictionary
281
     1
  3
Normal
350
F
100
AcDbDictionaryWithDefault
340
F
  0
DICTIONARY
  5
2A
102
{ACAD_REACTORS
330
C
102
}
330
C
100
AcDbDictionary
281
     1
  3
Standard
350
2B
  0
DICTIONARY
  5
2C
102
{ACAD_REACTORS
330
C
102
}
330
C
100
AcDbDictionary
281
     1
  3
CTABLESTYLE
350
2D
  0
LAYOUT
  5
1E
102
{ACAD_REACTORS
330
1A
102
}
330
1A
100
AcDbPlotSettings
  1

  2

  4

  6

 40
0.0
 41
0.0
 42
0.0
 43
0.0
 44
0.0
 45
0.0
 46
0.0
 47
0.0
 48
0.0
 49
0.0
140
0.0
141
0.0
142
1.0
143
1.0
 70
   688
 72
     0
 73
     0
 74
     5
  7

 75
    16
147
1.0
148
0.0
149
0.0
100
AcDbLayout
  1
Layout1
 70
     1
 71
     1
 10
0.0
 20
0.0
 11
12.0
 21
9.0
 12
0.0
 22
0.0
 32
0.0
 14
1.00000000000000E+20
 24
1.00000000000000E+20
 34
1.00000000000000E+20
 15
-1.00000000000000E+20
 25
-1.00000000000000E+20
 35
-1.00000000000000E+20
146
0.0
 13
0.0
 23
0.0
 33
0.0
 16
1.0
 26
0.0
 36
0.0
 17
0.0
 27
1.0
 37
0.0
 76
     0
330
1B
  0
LAYOUT
  5
26
102
{ACAD_REACTORS
330
1A
102
}
330
1A
100
AcDbPlotSettings
  1

  2

  4

  6

 40
0.0
 41
0.0
 42
0.0
 43
0.0
 44
0.0
 45
0.0
 46
0.0
 47
0.0
 48
0.0
 49
0.0
140
0.0
141
0.0
142
1.0
143
1.0
 70
   688
 72
     0
 73
     0
 74
     5
  7

 75
    16
147
1.0
148
0.0
149
0.0
100
AcDbLayout
  1
Layout2
 70
     1
 71
     2
 10
0.0
 20
0.0
 11
0.0
 21
0.0
 12
0.0
 22
0.0
 32
0.0
 14
0.0
 24
0.0
 34
0.0
 15
0.0
 25
0.0
 35
0.0
146
0.0
 13
0.0
 23
0.0
 33
0.0
 16
1.0
 26
0.0
 36
0.0
 17
0.0
 27
1.0
 37
0.0
 76
     0
330
23
  0
LAYOUT
  5
22
102
{ACAD_REACTORS
330
1A
102
}
330
1A
100
AcDbPlotSettings
  1

  2

  4

  6

 40
0.0
 41
0.0
 42
0.0
 43
0.0
 44
0.0
 45
0.0
 46
0.0
 47
0.0
 48
0.0
 49
0.0
140
0.0
141
0.0
142
1.0
143
1.0
 70
  1712
 72
     0
 73
     0
 74
     0
  7

 75
     0
147
1.0
148
0.0
149
0.0
100
AcDbLayout
  1
Model
 70
     1
 71
     0
 10
0.0
 20
0.0
 11
0.0
 21
0.0
 12
0.0
 22
0.0
 32
0.0
 14
0.0
 24
0.0
 34
0.0
 15
525.0
 25
742.5
 35
0.0
146
0.0
 13
0.0
 23
0.0
 33
0.0
 16
1.0
 26
0.0
 36
0.0
 17
0.0
 27
1.0
 37
0.0
 76
     0
330
1F
  0
MLINESTYLE
  5
18
102
{ACAD_REACTORS
330
17
102
}
330
17
100
AcDbMlineStyle
  2
Standard
 70
     0
  3

 62
   256
 51
90.0
 52
90.0
 71
     2
 49
0.5
 62
   256
  6
BYLAYER
 49
-0.5
 62
   256
  6
BYLAYER
  0
ACDBPLACEHOLDER
  5
F
102
{ACAD_REACTORS
330
E
102
}
330
E
  0
TABLESTYLE
  5
2B
102
{ACAD_REACTORS
330
2A
102
}
330
2A
100
AcDbTableStyle
  3
Standard
 70
     0
 71
     0
 40
0.06
 41
0.06
280
     0
281
     0
  7
Standard
140
0.18
170
     2
 62
     0
 63
     7
283
     0
274
    -2
284
     1
 64
     0
275
    -2
285
     1
 65
     0
276
    -2
286
     1
 66
     0
277
    -2
287
     1
 67
     0
278
    -2
288
     1
 68
     0
279
    -2
289
     1
 69
     0
  7
Standard
140
0.25
170
     5
 62
     0
 63
     7
283
     0
274
    -2
284
     1
 64
     0
275
    -2
285
     1
 65
     0
276
    -2
286
     1
 66
     0
277
    -2
287
     1
 67
     0
278
    -2
288
     1
 68
     0
279
    -2
289
     1
 69
     0
  7
Standard
140
0.18
170
     5
 62
     0
 63
     7
283
     0
274
    -2
284
     1
 64
     0
275
    -2
285
     1
 65
     0
276
    -2
286
     1
 66
     0
277
    -2
287
     1
 67
     0
278
    -2
288
     1
 68
     0
279
    -2
289
     1
 69
     0
  0
DICTIONARYVAR
  5
2D
102
{ACAD_REACTORS
330
2C
102
}
330
2C
100
DictionaryVariables
280
     0
  1
Standard
  0
ENDSEC
  0
EOF
