  0
SECTION
  2
HEADER
  9
$ACADVER
  1
AC1015
  9
$ACADMAINTVER
 70
     6
  9
$DWGCODEPAGE
  3
ANSI_932
  9
$INSBASE
 10
0.0
 20
0.0
 30
0.0
  9
$EXTMIN
 10
0.0
 20
0.0
 30
0.0
  9
$EXTMAX
 10
525.0
 20
742.5
 30
0.0
  9
$LIMMIN
 10
0.0
 20
0.0
  9
$LIMMAX
 10
12.0
 20
9.0
  9
$ORTHOMODE
 70
     0
  9
$REGENMODE
 70
     1
  9
$FILLMODE
 70
     1
  9
$QTEXTMODE
 70
     0
  9
$MIRRTEXT
 70
     1
  9
$LTSCALE
 40
1.0
  9
$ATTMODE
 70
     1
  9
$TEXTSIZE
 40
0.2
  9
$TRACEWID
 40
0.05
  9
$TEXTSTYLE
  7
Standard
  9
$CLAYER
  8
0
  9
$CELTYPE
  6
ByLayer
  9
$CECOLOR
 62
   256
  9
$CELTSCALE
 40
1.0
  9
$DISPSILH
 70
     0
  9
$DIMSCALE
 40
1.0
  9
$DIMASZ
 40
0.18
  9
$DIMEXO
 40
0.0625
  9
$DIMDLI
 40
0.38
  9
$DIMRND
 40
0.0
  9
$DIMDLE
 40
0.0
  9
$DIMEXE
 40
0.18
  9
$DIMTP
 40
0.0
  9
$DIMTM
 40
0.0
  9
$DIMTXT
 40
0.18
  9
$DIMCEN
 40
0.09
  9
$DIMTSZ
 40
0.0
  9
$DIMTOL
 70
     0
  9
$DIMLIM
 70
     0
  9
$DIMTIH
 70
     1
  9
$DIMTOH
 70
     1
  9
$DIMSE1
 70
     0
  9
$DIMSE2
 70
     0
  9
$DIMTAD
 70
     0
  9
$DIMZIN
 70
     0
  9
$DIMBLK
  1

  9
$DIMASO
 70
     1
  9
$DIMSHO
 70
     1
  9
$DIMPOST
  1

  9
$DIMAPOST
  1

  9
$DIMALT
 70
     0
  9
$DIMALTD
 70
     2
  9
$DIMALTF
 40
25.4
  9
$DIMLFAC
 40
1.0
  9
$DIMTOFL
 70
     0
  9
$DIMTVP
 40
0.0
  9
$DIMTIX
 70
     0
  9
$DIMSOXD
 70
     0
  9
$DIMSAH
 70
     0
  9
$DIMBLK1
  1

  9
$DIMBLK2
  1

  9
$DIMSTYLE
  2
Standard
  9
$DIMCLRD
 70
     0
  9
$DIMCLRE
 70
     0
  9
$DIMCLRT
 70
     0
  9
$DIMTFAC
 40
1.0
  9
$DIMGAP
 40
0.09
  9
$DIMJUST
 70
     0
  9
$DIMSD1
 70
     0
  9
$DIMSD2
 70
     0
  9
$DIMTOLJ
 70
     1
  9
$DIMTZIN
 70
     0
  9
$DIMALTZ
 70
     0
  9
$DIMALTTZ
 70
     0
  9
$DIMUPT
 70
     0
  9
$DIMDEC
 70
     4
  9
$DIMTDEC
 70
     4
  9
$DIMALTU
 70
     2
  9
$DIMALTTD
 70
     2
  9
$DIMTXSTY
  7
Standard
  9
$DIMAUNIT
 70
     0
  9
$DIMADEC
 70
     0
  9
$DIMALTRND
 40
0.0
  9
$DIMAZIN
 70
     0
  9
$DIMDSEP
 70
    46
  9
$DIMATFIT
 70
     3
  9
$DIMFRAC
 70
     0
  9
$DIMLDRBLK
  1

  9
$DIMLUNIT
 70
     2
  9
$DIMLWD
 70
    -2
  9
$DIMLWE
 70
    -2
  9
$DIMTMOVE
 70
     0
  9
$LUNITS
 70
     2
  9
$LUPREC
 70
     4
  9
$SKETCHINC
 40
0.1
  9
$FILLETRAD
 40
0.5
  9
$AUNITS
 70
     0
  9
$AUPREC
 70
     0
  9
$MENU
  1
.
  9
$ELEVATION
 40
0.0
  9
$PELEVATION
 40
0.0
  9
$THICKNESS
 40
0.0
  9
$LIMCHECK
 70
     0
  9
$CHAMFERA
 40
0.5
  9
$CHAMFERB
 40
0.5
  9
$CHAMFERC
 40
1.0
  9
$CHAMFERD
 40
0.0
  9
$SKPOLY
 70
     0
  9
$TDCREATE
 40
2456548.601325058
  9
$TDUCREATE
 40
2456548.226325058
  9
$TDUPDATE
 40
2456548.601326319
  9
$TDUUPDATE
 40
2456548.226326319
  9
$TDINDWG
 40
0.0000000116
  9
$TDUSRTIMER
 40
0.0000000116
  9
$USRTIMER
 70
     1
  9
$ANGBASE
 50
0.0
  9
$ANGDIR
 70
     0
  9
$PDMODE
 70
     0
  9
$PDSIZE
 40
0.0
  9
$PLINEWID
 40
0.0
  9
$SPLFRAME
 70
     0
  9
$SPLINETYPE
 70
     6
  9
$SPLINESEGS
 70
     8
  9
$HANDSEED
  5
318
  9
$SURFTAB1
 70
     6
  9
$SURFTAB2
 70
     6
  9
$SURFTYPE
 70
     6
  9
$SURFU
 70
     6
  9
$SURFV
 70
     6
  9
$UCSBASE
  2

  9
$UCSNAME
  2

  9
$UCSORG
 10
0.0
 20
0.0
 30
0.0
  9
$UCSXDIR
 10
1.0
 20
0.0
 30
0.0
  9
$UCSYDIR
 10
0.0
 20
1.0
 30
0.0
  9
$UCSORTHOREF
  2

  9
$UCSORTHOVIEW
 70
     0
  9
$UCSORGTOP
 10
0.0
 20
0.0
 30
0.0
  9
$UCSORGBOTTOM
 10
0.0
 20
0.0
 30
0.0
  9
$UCSORGLEFT
 10
0.0
 20
0.0
 30
0.0
  9
$UCSORGRIGHT
 10
0.0
 20
0.0
 30
0.0
  9
$UCSORGFRONT
 10
0.0
 20
0.0
 30
0.0
  9
$UCSORGBACK
 10
0.0
 20
0.0
 30
0.0
  9
$PUCSBASE
  2

  9
$PUCSNAME
  2

  9
$PUCSORG
 10
0.0
 20
0.0
 30
0.0
  9
$PUCSXDIR
 10
1.0
 20
0.0
 30
0.0
  9
$PUCSYDIR
 10
0.0
 20
1.0
 30
0.0
  9
$PUCSORTHOREF
  2

  9
$PUCSORTHOVIEW
 70
     0
  9
$PUCSORGTOP
 10
0.0
 20
0.0
 30
0.0
  9
$PUCSORGBOTTOM
 10
0.0
 20
0.0
 30
0.0
  9
$PUCSORGLEFT
 10
0.0
 20
0.0
 30
0.0
  9
$PUCSORGRIGHT
 10
0.0
 20
0.0
 30
0.0
  9
$PUCSORGFRONT
 10
0.0
 20
0.0
 30
0.0
  9
$PUCSORGBACK
 10
0.0
 20
0.0
 30
0.0
  9
$USERI1
 70
     0
  9
$USERI2
 70
     0
  9
$USERI3
 70
     0
  9
$USERI4
 70
     0
  9
$USERI5
 70
     0
  9
$USERR1
 40
18.1
  9
$USERR2
 40
0.0
  9
$USERR3
 40
0.0
  9
$USERR4
 40
0.0
  9
$USERR5
 40
0.0
  9
$WORLDVIEW
 70
     1
  9
$SHADEDGE
 70
     3
  9
$SHADEDIF
 70
    70
  9
$TILEMODE
 70
     1
  9
$MAXACTVP
 70
    64
  9
$PINSBASE
 10
0.0
 20
0.0
 30
0.0
  9
$PLIMCHECK
 70
     0
  9
$PEXTMIN
 10
1.00000000000000E+20
 20
1.00000000000000E+20
 30
1.00000000000000E+20
  9
$PEXTMAX
 10
-1.00000000000000E+20
 20
-1.00000000000000E+20
 30
-1.00000000000000E+20
  9
$PLIMMIN
 10
0.0
 20
0.0
  9
$PLIMMAX
 10
12.0
 20
9.0
  9
$UNITMODE
 70
     0
  9
$VISRETAIN
 70
     1
  9
$PLINEGEN
 70
     0
  9
$PSLTSCALE
 70
     1
  9
$TREEDEPTH
 70
  3020
  9
$CMLSTYLE
  2
Standard
  9
$CMLJUST
 70
     0
  9
$CMLSCALE
 40
1.0
  9
$PROXYGRAPHICS
 70
     1
  9
$MEASUREMENT
 70
     1
  9
$CELWEIGHT
370
    -1
  9
$ENDCAPS
280
     0
  9
$JOINSTYLE
280
     0
  9
$LWDISPLAY
290
     0
  9
$INSUNITS
 70
     4
  9
$HYPERLINKBASE
  1

  9
$STYLESHEET
  1

  9
$XEDIT
290
     1
  9
$CEPSNTYPE
380
     0
  9
$PSTYLEMODE
290
     1
  9
$FINGERPRINTGUID
  2
{47D94B93-34AB-4788-B9E3-10331900DDA1}
  9
$VERSIONGUID
  2
{FAEB1C32-E019-11D5-929B-00C0DF256EC4}
  9
$EXTNAMES
290
     1
  9
$PSVPSCALE
 40
0.0
  9
$OLESTARTUP
290
     0
  0
ENDSEC
  0
SECTION
  2
CLASSES
  0
CLASS
  1
ACDBDICTIONARYWDFLT
  2
AcDbDictionaryWithDefault
  3
ObjectDBX Classes
 90
        0
280
     0
281
     0
  0
CLASS
  1
VISUALSTYLE
  2
AcDbVisualStyle
  3
ObjectDBX Classes
 90
     4095
280
     0
281
     0
  0
CLASS
  1
MATERIAL
  2
AcDbMaterial
  3
ObjectDBX Classes
 90
     1153
280
     0
281
     0
  0
CLASS
  1
DICTIONARYVAR
  2
AcDbDictionaryVar
  3
ObjectDBX Classes
 90
        0
280
     0
281
     0
  0
CLASS
  1
ACDBPLACEHOLDER
  2
AcDbPlaceHolder
  3
ObjectDBX Classes
 90
        0
280
     0
281
     0
  0
CLASS
  1
LAYOUT
  2
AcDbLayout
  3
ObjectDBX Classes
 90
        0
280
     0
281
     0
  0
ENDSEC
  0
SECTION
  2
TABLES
  0
TABLE
  2
VPORT
  5
8
330
0
100
AcDbSymbolTable
 70
     1
  0
VPORT
  5
29
330
8
100
AcDbSymbolTableRecord
100
AcDbViewportTableRecord
  2
*Active
 70
     0
 10
0.0
 20
0.0
 11
1.0
 21
1.0
 12
262.5
 22
371.25
 13
0.0
 23
0.0
 14
0.5
 24
0.5
 15
0.5
 25
0.5
 16
0.0
 26
0.0
 36
1.0
 17
0.0
 27
0.0
 37
0.0
 40
816.7500000000001
 41
1.60267857142857
 42
50.0
 43
0.0
 44
0.0
 50
0.0
 51
0.0
 71
     0
 72
   100
 73
     1
 74
     3
 75
     0
 76
     0
 77
     0
 78
     0
281
     0
 65
     1
110
0.0
120
0.0
130
0.0
111
1.0
121
0.0
131
0.0
112
0.0
122
1.0
132
0.0
 79
     0
146
0.0
  0
ENDTAB
  0
TABLE
  2
LTYPE
  5
5
330
0
100
AcDbSymbolTable
 70
     8
  0
LTYPE
  5
14
330
5
100
AcDbSymbolTableRecord
100
AcDbLinetypeTableRecord
  2
ByBlock
 70
     0
  3

 72
    65
 73
     0
 40
0.0
  0
LTYPE
  5
15
330
5
100
AcDbSymbolTableRecord
100
AcDbLinetypeTableRecord
  2
ByLayer
 70
     0
  3

 72
    65
 73
     0
 40
0.0
  0
LTYPE
  5
16
330
5
100
AcDbSymbolTableRecord
100
AcDbLinetypeTableRecord
  2
Continuous
 70
     0
  3
Solid line
 72
    65
 73
     0
 40
0.0
  0
LTYPE
  5
3F
330
5
100
AcDbSymbolTableRecord
100
AcDbLinetypeTableRecord
  2
DASHED
 70
     0
  3
Dashed
 72
    65
 73
     2
 40
15.0
 49
7.0
 74
     0
 49
-8.0
 74
     0
  0
LTYPE
  5
40
330
5
100
AcDbSymbolTableRecord
100
AcDbLinetypeTableRecord
  2
DOTTED
 70
     0
  3
Dotted
 72
    65
 73
     2
 40
1.0
 49
0.0
 74
     0
 49
-1.0
 74
     0
  0
LTYPE
  5
41
330
5
100
AcDbSymbolTableRecord
100
AcDbLinetypeTableRecord
  2
DOT_CENTER
 70
     0
  3
Dot_Center
 72
    65
 73
     4
 40
14.0
 49
12.0
 74
     0
 49
-1.0
 74
     0
 49
0.0
 74
     0
 49
-1.0
 74
     0
  0
LTYPE
  5
42
330
5
100
AcDbSymbolTableRecord
100
AcDbLinetypeTableRecord
  2
LONG_DASHED
 70
     0
  3
Long_Dashed
 72
    65
 73
     2
 40
15.0
 49
10.0
 74
     0
 49
-5.0
 74
     0
  0
LTYPE
  5
43
330
5
100
AcDbSymbolTableRecord
100
AcDbLinetypeTableRecord
  2
DASH_CENTER
 70
     0
  3
Dash_Center
 72
    65
 73
     4
 40
14.0
 49
11.0
 74
     0
 49
-1.0
 74
     0
 49
1.0
 74
     0
 49
-1.0
 74
     0
  0
LTYPE
  5
44
330
5
100
AcDbSymbolTableRecord
100
AcDbLinetypeTableRecord
  2
PHANTOM
 70
     0
  3
Phantom
 72
    65
 73
     6
 40
13.0
 49
10.0
 74
     0
 49
-1.0
 74
     0
 49
0.0
 74
     0
 49
-1.0
 74
     0
 49
0.0
 74
     0
 49
-1.0
 74
     0
  0
LTYPE
  5
45
330
5
100
AcDbSymbolTableRecord
100
AcDbLinetypeTableRecord
  2
CENTER_DASH_DASH
 70
     0
  3
Center_Dash_Dash
 72
    65
 73
     6
 40
14.0
 49
9.0
 74
     0
 49
-1.0
 74
     0
 49
1.0
 74
     0
 49
-1.0
 74
     0
 49
1.0
 74
     0
 49
-1.0
 74
     0
  0
ENDTAB
  0
TABLE
  2
LAYER
  5
2
330
0
100
AcDbSymbolTable
 70
     2
  0
LAYER
  5
10
330
2
100
AcDbSymbolTableRecord
100
AcDbLayerTableRecord
  2
0
 70
     0
 62
     7
  6
Continuous
370
    -3
390
F
  0
LAYER
  5
46
330
2
100
AcDbSymbolTableRecord
100
AcDbLayerTableRecord
  2
1
 70
     0
 62
     7
  6
Continuous
370
    -3
390
F
  0
ENDTAB
  0
TABLE
  2
STYLE
  5
3
330
0
100
AcDbSymbolTable
 70
     3
  0
STYLE
  5
11
330
3
100
AcDbSymbolTableRecord
100
AcDbTextStyleTableRecord
  2
Standard
 70
     0
 40
0.0
 41
1.0
 50
0.0
 71
     0
 42
0.2
  3
txt
  4

  0
STYLE
  5
1EB
330
3
100
AcDbSymbolTableRecord
100
AcDbTextStyleTableRecord
  2
CONVERTER_11
 70
     0
 40
0.0
 41
0.89
 50
0.0
 71
     0
 42
0.2
  3
MS Mincho.ttf
  4

1001
ACAD
1000
MS Mincho
1071
    32785
  0
STYLE
  5
28A
330
3
100
AcDbSymbolTableRecord
100
AcDbTextStyleTableRecord
  2
CONVERTER_12
 70
     0
 40
0.0
 41
0.9
 50
0.0
 71
     0
 42
0.2
  3
txt.shx
  4

  0
ENDTAB
  0
TABLE
  2
VIEW
  5
6
330
0
100
AcDbSymbolTable
 70
     0
  0
ENDTAB
  0
TABLE
  2
UCS
  5
7
330
0
100
AcDbSymbolTable
 70
     0
  0
ENDTAB
  0
TABLE
  2
APPID
  5
9
330
0
100
AcDbSymbolTable
 70
     1
  0
APPID
  5
12
330
9
100
AcDbSymbolTableRecord
100
AcDbRegAppTableRecord
  2
ACAD
 70
     0
  0
ENDTAB
  0
TABLE
  2
DIMSTYLE
  5
A
330
0
100
AcDbSymbolTable
 70
     9
100
AcDbDimStyleTable
  0
DIMSTYLE
105
27
330
A
100
AcDbSymbolTableRecord
100
AcDbDimStyleTableRecord
  2
Standard
 70
     0
178
     0
340
11
  0
DIMSTYLE
105
29B
102
{ACAD_REACTORS
330
29C
102
}
330
A
100
AcDbSymbolTableRecord
100
AcDbDimStyleTableRecord
  2
ME10_DIM_10
 70
     0
 41
8.75
 42
0.0
 44
2.5
 73
     0
 74
     0
 77
     1
 78
     8
140
8.75
147
2.5
172
     1
173
     1
174
     1
175
     1
176
     2
177
     2
271
     2
178
     7
271
     2
340
1EB
  0
DIMSTYLE
105
2A6
102
{ACAD_REACTORS
330
2A7
102
}
330
A
100
AcDbSymbolTableRecord
100
AcDbDimStyleTableRecord
  2
ME10_DIM_11
 70
     0
 41
8.75
 42
0.0
 44
2.5
 73
     0
 74
     0
 77
     1
 78
     8
140
8.75
147
2.5
172
     1
173
     1
174
     1
175
     1
176
     2
177
     2
271
     2
178
     7
271
     2
340
28A
  0
DIMSTYLE
105
2B1
102
{ACAD_REACTORS
330
2B2
102
}
330
A
100
AcDbSymbolTableRecord
100
AcDbDimStyleTableRecord
  2
ME10_DIM_12
 70
     0
  3
{\Fgdt;n}<>
 41
8.75
 42
0.0
 44
2.5
 73
     0
 74
     0
 77
     1
 78
     8
140
8.75
147
2.5
172
     1
173
     1
174
     1
175
     1
176
     2
177
     2
271
     2
178
     7
271
     2
340
28A
  0
DIMSTYLE
105
2BC
102
{ACAD_REACTORS
330
2BD
102
}
330
A
100
AcDbSymbolTableRecord
100
AcDbDimStyleTableRecord
  2
ME10_DIM_13
 70
     0
 41
8.75
 42
0.0
 44
2.5
 73
     0
 74
     0
 77
     1
 78
     8
140
8.75
147
2.5
172
     1
173
     1
174
     1
175
     1
176
     2
177
     2
271
     2
178
     7
271
     2
340
28A
  0
DIMSTYLE
105
2C7
102
{ACAD_REACTORS
330
2C8
102
}
330
A
100
AcDbSymbolTableRecord
100
AcDbDimStyleTableRecord
  2
ME10_DIM_14
 70
     0
 41
8.75
 42
0.0
 44
2.5
 73
     0
 74
     0
 77
     1
 78
     8
140
8.75
147
2.5
172
     1
173
     1
174
     1
175
     1
176
     2
177
     2
271
     2
178
     7
271
     2
340
28A
  0
DIMSTYLE
105
2D2
102
{ACAD_REACTORS
330
2D3
102
}
330
A
100
AcDbSymbolTableRecord
100
AcDbDimStyleTableRecord
  2
ME10_DIM_15
 70
     0
 41
8.75
 42
0.0
 44
2.5
 73
     0
 74
     0
 77
     1
 78
     8
140
8.75
147
2.5
172
     1
173
     1
174
     1
175
     1
176
     2
177
     2
271
     2
178
     7
271
     2
340
28A
  0
DIMSTYLE
105
2DD
102
{ACAD_REACTORS
330
2DE
102
}
330
A
100
AcDbSymbolTableRecord
100
AcDbDimStyleTableRecord
  2
ME10_DIM_16
 70
     0
 41
8.75
 42
0.0
 44
2.5
 73
     0
 74
     0
 77
     1
 78
     8
140
8.75
147
2.5
172
     1
173
     1
174
     1
175
     1
176
     2
177
     2
271
     2
178
     7
271
     2
340
28A
  0
DIMSTYLE
105
2EB
102
{ACAD_REACTORS
330
2EC
102
}
330
A
100
AcDbSymbolTableRecord
100
AcDbDimStyleTableRecord
  2
ME10_DIM_17
 70
     0
 41
8.75
 42
0.0
 44
2.5
 73
     0
 74
     0
 77
     1
 78
     8
140
8.75
147
2.5
172
     1
173
     1
174
     1
175
     1
176
     2
177
     2
271
     2
178
     7
271
     2
340
28A
343
2E8
  0
ENDTAB
  0
TABLE
  2
BLOCK_RECORD
  5
1
330
0
100
AcDbSymbolTable
 70
    20
  0
BLOCK_RECORD
  5
1F
330
1
100
AcDbSymbolTableRecord
100
AcDbBlockTableRecord
  2
*Model_Space
340
22
  0
BLOCK_RECORD
  5
1B
330
1
100
AcDbSymbolTableRecord
100
AcDbBlockTableRecord
  2
*Paper_Space
340
1E
  0
BLOCK_RECORD
  5
23
330
1
100
AcDbSymbolTableRecord
100
AcDbBlockTableRecord
  2
*Paper_Space0
340
26
  0
BLOCK_RECORD
  5
47
330
1
100
AcDbSymbolTableRecord
100
AcDbBlockTableRecord
  2
27-2A-M1
340
0
102
{BLKREFS
331
69
102
}
  0
BLOCK_RECORD
  5
4A
330
1
100
AcDbSymbolTableRecord
100
AcDbBlockTableRecord
  2
36-190-M11
340
0
102
{BLKREFS
331
51
102
}
  0
BLOCK_RECORD
  5
4D
330
1
100
AcDbSymbolTableRecord
100
AcDbBlockTableRecord
  2
37-119
340
0
102
{BLKREFS
331
52
102
}
  0
BLOCK_RECORD
  5
50
330
1
100
AcDbSymbolTableRecord
100
AcDbBlockTableRecord
  2
U360S-13
340
0
102
{BLKREFS
331
6A
102
}
  0
BLOCK_RECORD
  5
55
330
1
100
AcDbSymbolTableRecord
100
AcDbBlockTableRecord
  2
42-29
340
0
102
{BLKREFS
331
6B
102
}
  0
BLOCK_RECORD
  5
58
330
1
100
AcDbSymbolTableRecord
100
AcDbBlockTableRecord
  2
32-1-16
340
0
102
{BLKREFS
331
5F
102
}
  0
BLOCK_RECORD
  5
5B
330
1
100
AcDbSymbolTableRecord
100
AcDbBlockTableRecord
  2
61-1-16-170
340
0
102
{BLKREFS
331
60
102
}
  0
BLOCK_RECORD
  5
5E
330
1
100
AcDbSymbolTableRecord
100
AcDbBlockTableRecord
  2
61-1X-16-170
340
0
102
{BLKREFS
331
6C
102
}
  0
BLOCK_RECORD
  5
63
330
1
100
AcDbSymbolTableRecord
100
AcDbBlockTableRecord
  2
開示A4
340
0
102
{BLKREFS
331
6D
102
}
  0
BLOCK_RECORD
  5
66
330
1
100
AcDbSymbolTableRecord
100
AcDbBlockTableRecord
  2
A2310-0-13-M1
340
0
102
{BLKREFS
331
6E
102
}
  0
BLOCK_RECORD
  5
292
330
1
100
AcDbSymbolTableRecord
100
AcDbBlockTableRecord
  2
*D11
340
0
  0
BLOCK_RECORD
  5
29D
330
1
100
AcDbSymbolTableRecord
100
AcDbBlockTableRecord
  2
*D12
340
0
  0
BLOCK_RECORD
  5
2A8
330
1
100
AcDbSymbolTableRecord
100
AcDbBlockTableRecord
  2
*D13
340
0
  0
BLOCK_RECORD
  5
2B3
330
1
100
AcDbSymbolTableRecord
100
AcDbBlockTableRecord
  2
*D14
340
0
  0
BLOCK_RECORD
  5
2BE
330
1
100
AcDbSymbolTableRecord
100
AcDbBlockTableRecord
  2
*D15
340
0
  0
BLOCK_RECORD
  5
2C9
330
1
100
AcDbSymbolTableRecord
100
AcDbBlockTableRecord
  2
*D16
340
0
  0
BLOCK_RECORD
  5
2D4
330
1
100
AcDbSymbolTableRecord
100
AcDbBlockTableRecord
  2
*D17
340
0
  0
BLOCK_RECORD
  5
2DF
330
1
100
AcDbSymbolTableRecord
100
AcDbBlockTableRecord
  2
*D18
340
0
  0
BLOCK_RECORD
  5
2E8
330
1
100
AcDbSymbolTableRecord
100
AcDbBlockTableRecord
  2
_NONE
340
0
  0
ENDTAB
  0
ENDSEC
  0
SECTION
  2
BLOCKS
  0
BLOCK
  5
20
330
1F
100
AcDbEntity
  8
0
100
AcDbBlockBegin
  2
*Model_Space
 70
     0
 10
0.0
 20
0.0
 30
0.0
  3
*Model_Space
  1

  0
ENDBLK
  5
21
330
1F
100
AcDbEntity
  8
0
100
AcDbBlockEnd
  0
BLOCK
  5
1C
330
1B
100
AcDbEntity
 67
     1
  8
0
100
AcDbBlockBegin
  2
*Paper_Space
 70
     0
 10
0.0
 20
0.0
 30
0.0
  3
*Paper_Space
  1

  0
ENDBLK
  5
1D
330
1B
100
AcDbEntity
 67
     1
  8
0
100
AcDbBlockEnd
  0
BLOCK
  5
24
330
23
100
AcDbEntity
  8
0
100
AcDbBlockBegin
  2
*Paper_Space0
 70
     0
 10
0.0
 20
0.0
 30
0.0
  3
*Paper_Space0
  1

  0
ENDBLK
  5
25
330
23
100
AcDbEntity
  8
0
100
AcDbBlockEnd
  0
BLOCK
  5
48
330
47
100
AcDbEntity
  8
0
100
AcDbBlockBegin
  2
27-2A-M1
 70
     0
 10
668.8403318129679
 20
474.8357924145271
 30
0.0
  3
27-2A-M1
  1

  0
LINE
  5
6F
330
47
100
AcDbEntity
  8
1
  6
Continuous
 62
     7
100
AcDbLine
 10
173.0527263044975
 20
558.9589983958745
 30
0.0
 11
173.0527263044975
 21
551.7630127632402
 31
0.0
  0
LINE
  5
70
330
47
100
AcDbEntity
  8
1
  6
PHANTOM
 62
     4
100
AcDbLine
 10
405.3975925059934
 20
240.9659284573583
 30
0.0
 11
405.3975925059934
 21
231.9659284573583
 31
0.0
  0
LINE
  5
71
330
47
100
AcDbEntity
  8
1
  6
PHANTOM
 62
     4
100
AcDbLine
 10
169.2577883128382
 20
288.9659284573585
 30
0.0
 11
194.5000249731208
 21
288.9659284573585
 31
0.0
  0
LINE
  5
72
330
47
100
AcDbEntity
  8
1
  6
PHANTOM
 62
     4
100
AcDbLine
 10
390.7240332874303
 20
227.9659284573583
 30
0.0
 11
405.3975925059932
 21
227.9659284573584
 31
0.0
  0
LINE
  5
73
330
47
100
AcDbEntity
  8
1
  6
PHANTOM
 62
     4
100
AcDbLine
 10
405.3975925059934
 20
211.5473839075455
 30
0.0
 11
405.3975925059932
 21
227.9659284573584
 31
0.0
  0
LINE
  5
74
330
47
100
AcDbEntity
  8
1
  6
Continuous
 62
     7
100
AcDbLine
 10
163.9934670389901
 20
283.2057893714044
 30
0.0
 11
164.2527263044975
 21
288.9659284573585
 31
0.0
  0
LINE
  5
75
330
47
100
AcDbEntity
  8
1
  6
Continuous
 62
     7
100
AcDbLine
 10
149.5527263044975
 20
240.7421323470002
 30
0.0
 11
162.0527263044975
 21
240.0870351059621
 31
0.0
  0
LINE
  5
76
330
47
100
AcDbEntity
  8
1
  6
Continuous
 62
     7
100
AcDbLine
 10
173.0527263044975
 20
227.9659284573587
 30
0.0
 11
173.0527263044975
 21
263.9659284573585
 31
0.0
  0
LINE
  5
77
330
47
100
AcDbEntity
  8
1
  6
Continuous
 62
     7
100
AcDbLine
 10
173.0527263044975
 20
216.4213073808685
 30
0.0
 11
149.5527263044975
 21
215.1897245677171
 31
0.0
  0
LINE
  5
78
330
47
100
AcDbEntity
  8
1
  6
Continuous
 62
     7
100
AcDbLine
 10
179.8158468848558
 20
270.7295014723391
 30
0.0
 11
173.0527263044975
 21
263.9659284573585
 31
0.0
  0
LINE
  5
79
330
47
100
AcDbEntity
  8
1
  6
PHANTOM
 62
     4
100
AcDbLine
 10
157.0527263044975
 20
288.9659284573585
 30
0.0
 11
169.2577883128382
 21
288.9659284573585
 31
0.0
  0
LINE
  5
7A
330
47
100
AcDbEntity
  8
1
  6
Continuous
 62
     7
100
AcDbLine
 10
168.9884101502519
 20
282.9809709663358
 30
0.0
 11
169.2577883128382
 21
288.9659284573585
 31
0.0
  0
LINE
  5
7B
330
47
100
AcDbEntity
  8
1
  6
Continuous
 62
     7
100
AcDbLine
 10
176.2803129769454
 20
274.2650353802495
 30
0.0
 11
175.5218448366837
 21
273.5065165005042
 31
0.0
  0
LINE
  5
7C
330
47
100
AcDbEntity
  8
1
  6
PHANTOM
 62
     4
100
AcDbLine
 10
405.3975925059934
 20
270.6012444207953
 30
0.0
 11
405.3975925059934
 21
302.9659284573584
 31
0.0
  0
LINE
  5
7D
330
47
100
AcDbEntity
  8
1
  6
Continuous
 62
     7
100
AcDbLine
 10
405.3975925059934
 20
302.9659284573584
 30
0.0
 11
409.3975925059934
 21
302.9659284573584
 31
0.0
  0
LINE
  5
7E
330
47
100
AcDbEntity
  8
1
  6
DASH_CENTER
 62
     4
100
AcDbLine
 10
405.3975925059934
 20
302.9659284573584
 30
0.0
 11
405.3975925059934
 21
305.9659284573584
 31
0.0
  0
LINE
  5
7F
330
47
100
AcDbEntity
  8
1
  6
Continuous
 62
     7
100
AcDbLine
 10
409.3975925059934
 20
302.9659284573584
 30
0.0
 11
409.3975925059934
 21
263.9659284573584
 31
0.0
  0
LINE
  5
80
330
47
100
AcDbEntity
  8
1
  6
Continuous
 62
     7
100
AcDbLine
 10
409.3975925059934
 20
263.9659284573584
 30
0.0
 11
409.8986065687418
 21
247.2654596990786
 31
0.0
  0
LINE
  5
81
330
47
100
AcDbEntity
  8
1
  6
Continuous
 62
     7
100
AcDbLine
 10
400.8965784432451
 20
247.2654596990786
 30
0.0
 11
401.3975925059934
 21
263.9659284573584
 31
0.0
  0
LINE
  5
82
330
47
100
AcDbEntity
  8
1
  6
Continuous
 62
     7
100
AcDbLine
 10
401.3975925059934
 20
263.9659284573584
 30
0.0
 11
401.3975925059934
 21
302.9659284573584
 31
0.0
  0
LINE
  5
83
330
47
100
AcDbEntity
  8
1
  6
Continuous
 62
     7
100
AcDbLine
 10
401.3975925059934
 20
302.9659284573584
 30
0.0
 11
405.3975925059934
 21
302.9659284573584
 31
0.0
  0
LINE
  5
84
330
47
100
AcDbEntity
  8
1
  6
PHANTOM
 62
     4
100
AcDbLine
 10
399.3975925059934
 20
288.9659284573584
 30
0.0
 11
411.3975925059934
 21
288.9659284573584
 31
0.0
  0
LINE
  5
85
330
47
100
AcDbEntity
  8
1
  6
PHANTOM
 62
     4
100
AcDbLine
 10
178.2527263044975
 20
273.3842186964994
 30
0.0
 11
178.2527263044975
 21
305.0186685201705
 31
0.0
  0
LINE
  5
86
330
47
100
AcDbEntity
  8
1
  6
Continuous
 62
     7
100
AcDbLine
 10
188.1525523493223
 20
279.0667646400349
 30
0.0
 11
179.8158468848558
 21
270.7295014723391
 31
0.0
  0
LINE
  5
87
330
47
100
AcDbEntity
  8
1
  6
Continuous
 62
     7
100
AcDbLine
 10
184.6169001904563
 20
282.6021802890791
 30
0.0
 11
176.2803129769454
 21
274.2650353802495
 31
0.0
  0
LINE
  5
88
330
47
100
AcDbEntity
  8
1
  6
Continuous
 62
     7
100
AcDbLine
 10
168.6973686205814
 20
276.5147037437944
 30
0.0
 11
168.9884101502519
 21
282.9809709663358
 31
0.0
  0
LINE
  5
89
330
47
100
AcDbEntity
  8
1
  6
Continuous
 62
     7
100
AcDbLine
 10
162.1433198849752
 20
242.0998141780028
 30
0.0
 11
163.9934670389901
 21
283.2057893714044
 31
0.0
  0
LINE
  5
8A
330
47
100
AcDbEntity
  8
1
  6
Continuous
 62
     7
100
AcDbLine
 10
149.5527263044975
 20
550.5314299500886
 30
0.0
 11
149.5527263044975
 21
576.0838377293715
 31
0.0
  0
LINE
  5
8B
330
47
100
AcDbEntity
  8
1
  6
Continuous
 62
     7
100
AcDbLine
 10
173.0527263044975
 20
551.7630127632402
 30
0.0
 11
149.5527263044975
 21
550.5314299500886
 31
0.0
  0
LINE
  5
8C
330
47
100
AcDbEntity
  8
1
  6
Continuous
 62
     7
100
AcDbLine
 10
164.2527263044975
 20
567.3076338397301
 30
0.0
 11
164.2527263044975
 21
566.4827705621202
 31
0.0
  0
LINE
  5
8D
330
47
100
AcDbEntity
  8
1
  6
Continuous
 62
     7
100
AcDbLine
 10
163.4174103410606
 20
565.0895229397302
 30
0.0
 11
163.4174103410606
 21
561.5257447397302
 31
0.0
  0
LINE
  5
8E
330
47
100
AcDbEntity
  8
1
  6
PHANTOM
 62
     4
100
AcDbLine
 10
146.5527263044975
 20
563.3076338397301
 30
0.0
 11
195.2527263044975
 21
563.3076338397301
 31
0.0
  0
LINE
  5
8F
330
47
100
AcDbEntity
  8
1
  6
Continuous
 62
     7
100
AcDbLine
 10
173.0527263044975
 20
567.3076338397301
 30
0.0
 11
173.0527263044975
 21
567.6562692835859
 31
0.0
  0
LINE
  5
90
330
47
100
AcDbEntity
  8
1
  6
Continuous
 62
     7
100
AcDbLine
 10
162.0527263044975
 20
567.3076338397301
 30
0.0
 11
162.0527263044975
 21
565.4976338397302
 31
0.0
  0
LINE
  5
91
330
47
100
AcDbEntity
  8
1
  6
Continuous
 62
     7
100
AcDbLine
 10
164.2527263044975
 20
566.4827705621202
 30
0.0
 11
161.2990546242868
 21
568.8718159644494
 31
0.0
  0
LINE
  5
92
330
47
100
AcDbEntity
  8
1
  6
Continuous
 62
     7
100
AcDbLine
 10
173.0527263044975
 20
567.6562692835859
 30
0.0
 11
160.0527263044975
 21
569.3076338397301
 31
0.0
  0
LINE
  5
93
330
47
100
AcDbEntity
  8
1
  6
Continuous
 62
     7
100
AcDbLine
 10
173.0527263044975
 20
567.6562692835859
 30
0.0
 11
173.0527263044975
 21
574.8522549162202
 31
0.0
  0
LINE
  5
94
330
47
100
AcDbEntity
  8
1
  6
Continuous
 62
     7
100
AcDbLine
 10
161.3218369262723
 20
557.7618789336412
 30
0.0
 11
164.2527263044975
 21
560.1324971173402
 31
0.0
  0
LINE
  5
95
330
47
100
AcDbEntity
  8
1
  6
Continuous
 62
     7
100
AcDbLine
 10
160.0527263044975
 20
557.3076338397301
 30
0.0
 11
173.0527263044975
 21
558.9589983958745
 31
0.0
  0
LINE
  5
96
330
47
100
AcDbEntity
  8
1
  6
Continuous
 62
     7
100
AcDbLine
 10
163.4174103410606
 20
565.0895229397302
 30
0.0
 11
162.0527263044975
 21
565.4976338397302
 31
0.0
  0
LINE
  5
97
330
47
100
AcDbEntity
  8
1
  6
Continuous
 62
     7
100
AcDbLine
 10
162.0527263044975
 20
565.4976338397302
 30
0.0
 11
162.0527263044975
 21
561.1176338397302
 31
0.0
  0
LINE
  5
98
330
47
100
AcDbEntity
  8
1
  6
Continuous
 62
     7
100
AcDbLine
 10
163.4174103410606
 20
561.5257447397302
 30
0.0
 11
162.0527263044975
 21
561.1176338397302
 31
0.0
  0
LINE
  5
99
330
47
100
AcDbEntity
  8
1
  6
Continuous
 62
     7
100
AcDbLine
 10
162.0527263044975
 20
561.1176338397302
 30
0.0
 11
162.0527263044975
 21
559.3076338397301
 31
0.0
  0
LINE
  5
9A
330
47
100
AcDbEntity
  8
1
  6
PHANTOM
 62
     4
100
AcDbLine
 10
405.3975925059932
 20
227.9659284573584
 30
0.0
 11
420.1895962726655
 21
227.9659284573583
 31
0.0
  0
LINE
  5
9B
330
47
100
AcDbEntity
  8
1
  6
PHANTOM
 62
     4
100
AcDbLine
 10
405.3975925059932
 20
227.9659284573584
 30
0.0
 11
405.3975925059934
 21
231.9659284573583
 31
0.0
  0
LINE
  5
9C
330
47
100
AcDbEntity
  8
1
  6
Continuous
 62
     7
100
AcDbLine
 10
173.0527263044975
 20
216.4213073808685
 30
0.0
 11
173.0527263044975
 21
227.9659284573587
 31
0.0
  0
LINE
  5
9D
330
47
100
AcDbEntity
  8
1
  6
Continuous
 62
     7
100
AcDbLine
 10
149.5527263044975
 20
215.1897245677171
 30
0.0
 11
149.5527263044975
 21
240.7421323470002
 31
0.0
  0
LINE
  5
9E
330
47
100
AcDbEntity
  8
1
  6
Continuous
 62
     7
100
AcDbLine
 10
149.5527263044975
 20
576.0838377293715
 30
0.0
 11
173.0527263044975
 21
574.8522549162202
 31
0.0
  0
LINE
  5
9F
330
47
100
AcDbEntity
  8
1
  6
Continuous
 62
     7
100
AcDbLine
 10
173.0527263044975
 20
559.3076338397301
 30
0.0
 11
173.0527263044975
 21
558.9589983958745
 31
0.0
  0
LINE
  5
A0
330
47
100
AcDbEntity
  8
1
  6
Continuous
 62
     7
100
AcDbLine
 10
192.2527263044975
 20
559.3076338397301
 30
0.0
 11
173.0527263044975
 21
559.3076338397301
 31
0.0
  0
LINE
  5
A1
330
47
100
AcDbEntity
  8
1
  6
PHANTOM
 62
     4
100
AcDbLine
 10
178.2527263044975
 20
570.3076338397301
 30
0.0
 11
178.2527263044975
 21
556.3076338397301
 31
0.0
  0
LINE
  5
A2
330
47
100
AcDbEntity
  8
1
  6
Continuous
 62
     7
100
AcDbLine
 10
164.2527263044975
 20
567.3076338397301
 30
0.0
 11
173.0527263044975
 21
567.3076338397301
 31
0.0
  0
LINE
  5
A3
330
47
100
AcDbEntity
  8
1
  6
Continuous
 62
     7
100
AcDbLine
 10
164.2527263044975
 20
566.4827705621202
 30
0.0
 11
164.2527263044975
 21
560.1324971173402
 31
0.0
  0
LINE
  5
A4
330
47
100
AcDbEntity
  8
1
  6
Continuous
 62
     7
100
AcDbLine
 10
164.2527263044975
 20
560.1324971173402
 30
0.0
 11
164.2527263044975
 21
559.3076338397301
 31
0.0
  0
LINE
  5
A5
330
47
100
AcDbEntity
  8
1
  6
Continuous
 62
     7
100
AcDbLine
 10
192.2527263044975
 20
567.3076338397301
 30
0.0
 11
192.2527263044975
 21
559.3076338397301
 31
0.0
  0
LINE
  5
A6
330
47
100
AcDbEntity
  8
1
  6
Continuous
 62
     7
100
AcDbLine
 10
173.0527263044975
 20
559.3076338397301
 30
0.0
 11
164.2527263044975
 21
559.3076338397301
 31
0.0
  0
LINE
  5
A7
330
47
100
AcDbEntity
  8
1
  6
Continuous
 62
     7
100
AcDbLine
 10
173.0527263044975
 20
567.3076338397301
 30
0.0
 11
192.2527263044975
 21
567.3076338397301
 31
0.0
  0
LINE
  5
A8
330
47
100
AcDbEntity
  8
1
  6
Continuous
 62
     7
100
AcDbLine
 10
163.0036825424194
 20
240.0371976013372
 30
0.0
 11
172.0784536662367
 21
239.561608999236
 31
0.0
  0
LINE
  5
A9
330
47
100
AcDbEntity
  8
1
  6
PHANTOM
 62
     4
100
AcDbLine
 10
405.3975925059934
 20
270.6012444207953
 30
0.0
 11
405.3975925059934
 21
240.9659284573583
 31
0.0
  0
LINE
  5
AA
330
47
100
AcDbEntity
  8
1
  6
Continuous
 62
     7
100
AcDbLine
 10
402.4589118131869
 20
263.9659284573584
 30
0.0
 11
408.1352891968849
 21
263.9659284573584
 31
0.0
  0
ARC
  5
AB
330
47
100
AcDbEntity
  8
1
  6
Continuous
 62
     7
100
AcDbCircle
 10
405.3975925059932
 20
227.9659284573584
 30
0.0
 40
12.75
100
AcDbArc
 50
270.0
 51
359.9999999999996
  0
ARC
  5
AC
330
47
100
AcDbEntity
  8
1
  6
Continuous
 62
     7
100
AcDbCircle
 10
178.2527263044975
 20
288.9659284573585
 30
0.0
 40
14.0
100
AcDbArc
 50
0.0
 51
90.0
  0
ARC
  5
AD
330
47
100
AcDbEntity
  8
1
  6
Continuous
 62
     7
100
AcDbCircle
 10
178.2527263044975
 20
288.9659284573585
 30
0.0
 40
14.0
100
AcDbArc
 50
90.0
 51
180.0
  0
ARC
  5
AE
330
47
100
AcDbEntity
  8
1
  6
Continuous
 62
     7
100
AcDbCircle
 10
405.3975925059932
 20
227.9659284573584
 30
0.0
 40
12.75
100
AcDbArc
 50
180.0
 51
270.0
  0
ARC
  5
AF
330
47
100
AcDbEntity
  8
1
  6
Continuous
 62
     7
100
AcDbCircle
 10
178.2527263044975
 20
288.9659284573585
 30
0.0
 40
14.00000000000001
100
AcDbArc
 50
315.0019164028643
 51
0.0
  0
ARC
  5
B0
330
47
100
AcDbEntity
  8
1
  6
Continuous
 62
     7
100
AcDbCircle
 10
178.2527263044975
 20
288.9659284573585
 30
0.0
 40
8.994937991659297
100
AcDbArc
 50
315.0019164028644
 51
180.0
  0
ARC
  5
B1
330
47
100
AcDbEntity
  8
1
  6
Continuous
 62
     7
100
AcDbCircle
 10
172.6933231095909
 20
276.3348490197394
 30
0.0
 40
4.000000000000016
100
AcDbArc
 50
177.422901981416
 51
315.0019164028652
  0
ARC
  5
B2
330
47
100
AcDbEntity
  8
1
  6
Continuous
 62
     7
100
AcDbCircle
 10
424.8918611215773
 20
247.7152573356636
 30
0.0
 40
15.00000000000001
100
AcDbArc
 50
206.7408134221632
 51
225.3723835667241
  0
ARC
  5
B3
330
47
100
AcDbEntity
  8
1
  6
Continuous
 62
     7
100
AcDbCircle
 10
405.3975925059932
 20
227.9659284573584
 30
0.0
 40
12.75000000000017
100
AcDbArc
 50
359.9999999999996
 51
45.37238356672344
  0
ARC
  5
B4
330
47
100
AcDbEntity
  8
1
  6
Continuous
 62
     7
100
AcDbCircle
 10
385.9033238904095
 20
247.7152573356636
 30
0.0
 40
15.00000000000001
100
AcDbArc
 50
333.2591865778368
 51
358.2816419983448
  0
ARC
  5
B5
330
47
100
AcDbEntity
  8
1
  6
Continuous
 62
     7
100
AcDbCircle
 10
385.9033238904095
 20
247.7152573356636
 30
0.0
 40
14.99999999999996
100
AcDbArc
 50
314.6276164332759
 51
333.2591865778368
  0
ARC
  5
B6
330
47
100
AcDbEntity
  8
1
  6
Continuous
 62
     7
100
AcDbCircle
 10
424.8918611215773
 20
247.7152573356636
 30
0.0
 40
14.99999999999998
100
AcDbArc
 50
181.7183580016552
 51
206.7408134221632
  0
ARC
  5
B7
330
47
100
AcDbEntity
  8
1
  6
Continuous
 62
     7
100
AcDbCircle
 10
160.0527263044975
 20
567.3076338397301
 30
0.0
 40
2.000000000000067
100
AcDbArc
 50
51.4524318300564
 51
90.0
  0
ARC
  5
B8
330
47
100
AcDbEntity
  8
1
  6
Continuous
 62
     7
100
AcDbCircle
 10
160.0527263044975
 20
559.3076338397301
 30
0.0
 40
1.999999999999859
100
AcDbArc
 50
309.3870105052507
 51
0.0
  0
ARC
  5
B9
330
47
100
AcDbEntity
  8
1
  6
Continuous
 62
     7
100
AcDbCircle
 10
160.0527263044975
 20
567.3076338397301
 30
0.0
 40
2.0
100
AcDbArc
 50
0.0
 51
51.4524318300564
  0
ARC
  5
BA
330
47
100
AcDbEntity
  8
1
  6
Continuous
 62
     7
100
AcDbCircle
 10
160.0527263044975
 20
559.3076338397301
 30
0.0
 40
2.0
100
AcDbArc
 50
270.0
 51
309.3870105052507
  0
ARC
  5
BB
330
47
100
AcDbEntity
  8
1
  6
Continuous
 62
     7
100
AcDbCircle
 10
405.3975925059932
 20
227.9659284573584
 30
0.0
 40
12.74999999999988
100
AcDbArc
 50
134.6276164332753
 51
180.0
  0
ARC
  5
BC
330
47
100
AcDbEntity
  8
1
  6
Continuous
 62
     7
100
AcDbCircle
 10
160.1453426404704
 20
242.1897415400304
 30
0.0
 40
2.000000000000036
100
AcDbArc
 50
322.2725136501468
 51
357.4229019814128
  0
ARC
  5
BD
330
47
100
AcDbEntity
  8
1
  6
Continuous
 62
     7
100
AcDbCircle
 10
160.1453426404704
 20
242.1897415400304
 30
0.0
 40
2.000000000000159
100
AcDbArc
 50
267.0000000000028
 51
322.2725136501468
  0
ENDBLK
  5
49
330
47
100
AcDbEntity
  8
0
100
AcDbBlockEnd
  0
BLOCK
  5
4B
330
4A
100
AcDbEntity
  8
0
100
AcDbBlockBegin
  2
36-190-M11
 70
     0
 10
426.2434153957991
 20
1003.802331807142
 30
0.0
  3
36-190-M11
  1

  0
LINE
  5
BE
330
4A
100
AcDbEntity
  8
1
  6
Continuous
 62
     7
100
AcDbLine
 10
146.2572704266853
 20
232.7159284573586
 30
0.0
 11
149.5527263044975
 21
232.7159284573586
 31
0.0
  0
LINE
  5
BF
330
4A
100
AcDbEntity
  8
1
  6
Continuous
 62
     7
100
AcDbLine
 10
149.5527263044975
 20
223.2159284573586
 30
0.0
 11
146.2572704266853
 21
223.2159284573586
 31
0.0
  0
LINE
  5
C0
330
4A
100
AcDbEntity
  8
1
  6
Continuous
 62
     7
100
AcDbLine
 10
149.5527263044975
 20
558.5576338397302
 30
0.0
 11
146.2572704266853
 21
558.5576338397302
 31
0.0
  0
LINE
  5
C1
330
4A
100
AcDbEntity
  8
1
  6
Continuous
 62
     7
100
AcDbLine
 10
146.2572704266853
 20
568.0576338397302
 30
0.0
 11
149.5527263044975
 21
568.0576338397302
 31
0.0
  0
LINE
  5
C2
330
4A
100
AcDbEntity
  8
1
  6
PHANTOM
 62
     4
100
AcDbLine
 10
161.356742993677
 20
563.3076338397302
 30
0.0
 11
144.578395856966
 21
563.3076338397302
 31
0.0
  0
ENDBLK
  5
4C
330
4A
100
AcDbEntity
  8
0
100
AcDbBlockEnd
  0
BLOCK
  5
4E
330
4D
100
AcDbEntity
  8
0
100
AcDbBlockBegin
  2
37-119
 70
     0
 10
623.9661316756567
 20
740.9902526749138
 30
0.0
  3
37-119
  1

  0
LINE
  5
C3
330
4D
100
AcDbEntity
  8
1
  6
Continuous
 62
     7
100
AcDbLine
 10
411.4960946376289
 20
240.9659284573584
 30
0.0
 11
411.8202087953274
 21
240.9659284573584
 31
0.0
  0
LINE
  5
C4
330
4D
100
AcDbEntity
  8
1
  6
PHANTOM
 62
     4
100
AcDbLine
 10
127.7573691027723
 20
563.3076338397303
 30
0.0
 11
125.3313658382543
 21
563.3076338397303
 31
0.0
  0
LINE
  5
C5
330
4D
100
AcDbEntity
  8
1
  6
PHANTOM
 62
     4
100
AcDbLine
 10
127.7573691027723
 20
563.3076338397303
 30
0.0
 11
146.7980009907714
 21
563.3076338397303
 31
0.0
  0
LINE
  5
C6
330
4D
100
AcDbEntity
  8
1
  6
Continuous
 62
     7
100
AcDbLine
 10
390.9279541121308
 20
228.9037795920367
 30
0.0
 11
397.3505704014634
 21
240.0280773226803
 31
0.0
  0
LINE
  5
C7
330
4D
100
AcDbEntity
  8
1
  6
Continuous
 62
     7
100
AcDbLine
 10
398.9749762166621
 20
240.9659284573584
 30
0.0
 11
399.299090374358
 21
240.9659284573584
 31
0.0
  0
LINE
  5
C8
330
4D
100
AcDbEntity
  8
1
  6
Continuous
 62
     7
100
AcDbLine
 10
413.4446146105261
 20
240.0280773226803
 30
0.0
 11
419.8672308998587
 21
228.9037795920367
 31
0.0
  0
LINE
  5
C9
330
4D
100
AcDbEntity
  8
1
  6
Continuous
 62
     7
100
AcDbLine
 10
419.8672308998587
 20
227.0280773226803
 30
0.0
 11
413.4446146105261
 21
215.9037795920367
 31
0.0
  0
LINE
  5
CA
330
4D
100
AcDbEntity
  8
1
  6
Continuous
 62
     7
100
AcDbLine
 10
411.8202087953274
 20
214.9659284573584
 30
0.0
 11
398.9749762166621
 21
214.9659284573584
 31
0.0
  0
LINE
  5
CB
330
4D
100
AcDbEntity
  8
1
  6
Continuous
 62
     7
100
AcDbLine
 10
397.3505704014634
 20
215.9037795920367
 30
0.0
 11
390.9279541121308
 21
227.0280773226803
 31
0.0
  0
LINE
  5
CC
330
4D
100
AcDbEntity
  8
1
  6
PHANTOM
 62
     4
100
AcDbLine
 10
387.3986839355151
 20
227.9659284573584
 30
0.0
 11
423.1025782033854
 21
227.9659284573584
 31
0.0
  0
LINE
  5
CD
330
4D
100
AcDbEntity
  8
1
  6
PHANTOM
 62
     4
100
AcDbLine
 10
405.3975925059947
 20
243.5322385124039
 30
0.0
 11
405.3975925059947
 21
212.4692317143606
 31
0.0
  0
LINE
  5
CE
330
4D
100
AcDbEntity
  8
1
  6
Continuous
 62
     7
100
AcDbLine
 10
145.2572704266853
 20
571.8076338397303
 30
0.0
 11
140.5709789256702
 21
571.8076338397303
 31
0.0
  0
LINE
  5
CF
330
4D
100
AcDbEntity
  8
1
  6
Continuous
 62
     7
100
AcDbLine
 10
134.7928043326182
 20
576.3431677456631
 30
0.0
 11
138.4496585821106
 21
572.6863134961707
 31
0.0
  0
LINE
  5
D0
330
4D
100
AcDbEntity
  8
1
  6
Continuous
 62
     7
100
AcDbLine
 10
139.3283382385508
 20
570.8076338397303
 30
0.0
 11
139.3283382385508
 21
563.3076338397303
 31
0.0
  0
LINE
  5
D1
330
4D
100
AcDbEntity
  8
1
  6
Continuous
 62
     7
100
AcDbLine
 10
127.7572704266855
 20
568.2076338397304
 30
0.0
 11
127.7572704266855
 21
570.8076338397303
 31
0.0
  0
LINE
  5
D2
330
4D
100
AcDbEntity
  8
1
  6
Continuous
 62
     7
100
AcDbLine
 10
127.7572704266855
 20
570.8076338397303
 30
0.0
 11
127.7572704266855
 21
576.3783480540018
 31
0.0
  0
LINE
  5
D3
330
4D
100
AcDbEntity
  8
1
  6
Continuous
 62
     7
100
AcDbLine
 10
146.2572704266853
 20
563.3076338397303
 30
0.0
 11
146.2572704266853
 21
570.8076338397303
 31
0.0
  0
LINE
  5
D4
330
4D
100
AcDbEntity
  8
1
  6
Continuous
 62
     7
100
AcDbLine
 10
127.7572704266854
 20
563.3076338397302
 30
0.0
 11
127.7572704266855
 21
568.2076338397304
 31
0.0
  0
LINE
  5
D5
330
4D
100
AcDbEntity
  8
1
  6
Continuous
 62
     7
100
AcDbLine
 10
127.7572704266855
 20
558.40763383973
 30
0.0
 11
127.7572704266854
 21
563.3076338397302
 31
0.0
  0
LINE
  5
D6
330
4D
100
AcDbEntity
  8
1
  6
Continuous
 62
     7
100
AcDbLine
 10
146.2572704266853
 20
555.8076338397304
 30
0.0
 11
146.2572704266853
 21
563.3076338397303
 31
0.0
  0
LINE
  5
D7
330
4D
100
AcDbEntity
  8
1
  6
Continuous
 62
     7
100
AcDbLine
 10
127.7572704266855
 20
550.2369196254587
 30
0.0
 11
127.7572704266855
 21
555.8076338397301
 31
0.0
  0
LINE
  5
D8
330
4D
100
AcDbEntity
  8
1
  6
Continuous
 62
     7
100
AcDbLine
 10
127.7572704266855
 20
555.8076338397301
 30
0.0
 11
127.7572704266855
 21
558.40763383973
 31
0.0
  0
LINE
  5
D9
330
4D
100
AcDbEntity
  8
1
  6
Continuous
 62
     7
100
AcDbLine
 10
139.3283382385508
 20
563.3076338397303
 30
0.0
 11
139.3283382385508
 21
555.8076338397304
 31
0.0
  0
LINE
  5
DA
330
4D
100
AcDbEntity
  8
1
  6
Continuous
 62
     7
100
AcDbLine
 10
138.4496585821106
 20
553.92895418329
 30
0.0
 11
134.7928043326182
 21
550.2720999337977
 31
0.0
  0
LINE
  5
DB
330
4D
100
AcDbEntity
  8
1
  6
Continuous
 62
     7
100
AcDbLine
 10
140.5709789256702
 20
554.8076338397304
 30
0.0
 11
145.2572704266853
 21
554.8076338397304
 31
0.0
  0
LINE
  5
DC
330
4D
100
AcDbEntity
  8
1
  6
Continuous
 62
     7
100
AcDbLine
 10
127.7571717505981
 20
240.9659284573587
 30
0.0
 11
134.8278859648695
 21
240.9659284573586
 31
0.0
  0
LINE
  5
DD
330
4D
100
AcDbEntity
  8
1
  6
Continuous
 62
     7
100
AcDbLine
 10
134.8278859648693
 20
214.9659284573586
 30
0.0
 11
127.7571717505977
 21
214.9659284573587
 31
0.0
  0
LINE
  5
DE
330
4D
100
AcDbEntity
  8
1
  6
Continuous
 62
     7
100
AcDbLine
 10
140.5708802495832
 20
219.4659284573583
 30
0.0
 11
145.2571717505985
 21
219.4659284573583
 31
0.0
  0
LINE
  5
DF
330
4D
100
AcDbEntity
  8
1
  6
Continuous
 62
     7
100
AcDbLine
 10
138.4495599060235
 20
218.5872488009181
 30
0.0
 11
134.7927056565312
 21
214.9303945514257
 31
0.0
  0
LINE
  5
E0
330
4D
100
AcDbEntity
  8
1
  6
Continuous
 62
     7
100
AcDbLine
 10
139.328239562464
 20
227.9659284573586
 30
0.0
 11
139.3282395624639
 21
220.4659284573583
 31
0.0
  0
LINE
  5
E1
330
4D
100
AcDbEntity
  8
1
  6
Continuous
 62
     7
100
AcDbLine
 10
127.7571717505985
 20
220.4659284573586
 30
0.0
 11
127.7571717505986
 21
223.0659284573586
 31
0.0
  0
LINE
  5
E2
330
4D
100
AcDbEntity
  8
1
  6
Continuous
 62
     7
100
AcDbLine
 10
127.7571717505983
 20
214.895214243087
 30
0.0
 11
127.7571717505985
 21
220.4659284573586
 31
0.0
  0
LINE
  5
E3
330
4D
100
AcDbEntity
  8
1
  6
Continuous
 62
     7
100
AcDbLine
 10
127.7571717505986
 20
223.0659284573586
 30
0.0
 11
127.7571717505986
 21
227.9659284573587
 31
0.0
  0
LINE
  5
E4
330
4D
100
AcDbEntity
  8
1
  6
Continuous
 62
     7
100
AcDbLine
 10
146.2571717505984
 20
220.4659284573583
 30
0.0
 11
146.2571717505986
 21
227.9659284573584
 31
0.0
  0
LINE
  5
E5
330
4D
100
AcDbEntity
  8
1
  6
Continuous
 62
     7
100
AcDbLine
 10
146.2571717505986
 20
227.9659284573584
 30
0.0
 11
146.2571717505986
 21
235.4659284573584
 31
0.0
  0
LINE
  5
E6
330
4D
100
AcDbEntity
  8
1
  6
Continuous
 62
     7
100
AcDbLine
 10
127.7571717505986
 20
227.9659284573587
 30
0.0
 11
127.7571717505986
 21
232.8659284573587
 31
0.0
  0
LINE
  5
E7
330
4D
100
AcDbEntity
  8
1
  6
PHANTOM
 62
     4
100
AcDbLine
 10
127.7572704266855
 20
227.9659284573586
 30
0.0
 11
146.7979023146846
 21
227.9659284573584
 31
0.0
  0
LINE
  5
E8
330
4D
100
AcDbEntity
  8
1
  6
PHANTOM
 62
     4
100
AcDbLine
 10
127.7572704266855
 20
227.9659284573586
 30
0.0
 11
125.3312671621673
 21
227.9659284573588
 31
0.0
  0
LINE
  5
E9
330
4D
100
AcDbEntity
  8
1
  6
Continuous
 62
     7
100
AcDbLine
 10
127.7571717505986
 20
235.4659284573587
 30
0.0
 11
127.7571717505988
 21
241.0366426716301
 31
0.0
  0
LINE
  5
EA
330
4D
100
AcDbEntity
  8
1
  6
Continuous
 62
     7
100
AcDbLine
 10
127.7571717505986
 20
232.8659284573587
 30
0.0
 11
127.7571717505986
 21
235.4659284573587
 31
0.0
  0
LINE
  5
EB
330
4D
100
AcDbEntity
  8
1
  6
Continuous
 62
     7
100
AcDbLine
 10
139.3282395624643
 20
235.4659284573586
 30
0.0
 11
139.328239562464
 21
227.9659284573586
 31
0.0
  0
LINE
  5
EC
330
4D
100
AcDbEntity
  8
1
  6
Continuous
 62
     7
100
AcDbLine
 10
134.7927056565315
 20
241.0014623632912
 30
0.0
 11
138.4495599060239
 21
237.344608113799
 31
0.0
  0
LINE
  5
ED
330
4D
100
AcDbEntity
  8
1
  6
Continuous
 62
     7
100
AcDbLine
 10
145.2571717505985
 20
236.4659284573584
 30
0.0
 11
140.5708802495834
 21
236.4659284573586
 31
0.0
  0
ARC
  5
EE
330
4D
100
AcDbEntity
  8
1
  6
Continuous
 62
     7
100
AcDbCircle
 10
405.3975925059947
 20
227.9659284573584
 30
0.0
 40
14.49999999999999
100
AcDbArc
 50
116.2915552747293
 51
123.7084447252698
  0
ARC
  5
EF
330
4D
100
AcDbEntity
  8
1
  6
Continuous
 62
     7
100
AcDbCircle
 10
405.3975925059947
 20
227.9659284573584
 30
0.0
 40
14.50000000000015
100
AcDbArc
 50
56.29155527472969
 51
63.70844472527008
  0
ARC
  5
F0
330
4D
100
AcDbEntity
  8
1
  6
Continuous
 62
     7
100
AcDbCircle
 10
405.3975925059947
 20
227.9659284573584
 30
0.0
 40
14.5
100
AcDbArc
 50
0.0
 51
3.70844472527085
  0
ARC
  5
F1
330
4D
100
AcDbEntity
  8
1
  6
Continuous
 62
     7
100
AcDbCircle
 10
405.3975925059947
 20
227.9659284573584
 30
0.0
 40
14.50000000000007
100
AcDbArc
 50
296.2915552747299
 51
303.7084447252709
  0
ARC
  5
F2
330
4D
100
AcDbEntity
  8
1
  6
Continuous
 62
     7
100
AcDbCircle
 10
405.3975925059947
 20
227.9659284573584
 30
0.0
 40
14.49999999999986
100
AcDbArc
 50
236.2915552747298
 51
243.7084447252707
  0
ARC
  5
F3
330
4D
100
AcDbEntity
  8
1
  6
Continuous
 62
     7
100
AcDbCircle
 10
405.3975925059947
 20
227.9659284573584
 30
0.0
 40
14.5
100
AcDbArc
 50
180.0
 51
183.70844472527
  0
ARC
  5
F4
330
4D
100
AcDbEntity
  8
1
  6
Continuous
 62
     7
100
AcDbCircle
 10
131.2572704266853
 20
572.8076338397303
 30
0.0
 40
5.00000000000014
100
AcDbArc
 50
44.99999999999885
 51
134.4270040008039
  0
ARC
  5
F5
330
4D
100
AcDbEntity
  8
1
  6
Continuous
 62
     7
100
AcDbCircle
 10
405.3975925059947
 20
227.9659284573584
 30
0.0
 40
14.49999999999989
100
AcDbArc
 50
176.2915552747291
 51
180.0
  0
ARC
  5
F6
330
4D
100
AcDbEntity
  8
1
  6
Continuous
 62
     7
100
AcDbCircle
 10
405.3975925059947
 20
227.9659284573584
 30
0.0
 40
14.50000000000005
100
AcDbArc
 50
356.2915552747301
 51
0.0
  0
ARC
  5
F7
330
4D
100
AcDbEntity
  8
1
  6
Continuous
 62
     7
100
AcDbCircle
 10
131.2572704266853
 20
553.8076338397303
 30
0.0
 40
5.000000000000039
100
AcDbArc
 50
225.5729959991979
 51
315.0000000000021
  0
SPLINE
  5
F8
330
4D
100
AcDbEntity
  8
1
  6
Continuous
 62
     7
100
AcDbSpline
210
0.0
220
0.0
230
1.0
 70
    11
 71
     3
 72
    79
 73
    75
 74
    73
 42
0.000000001
 43
0.0000000001
 44
0.00000001
 40
0.0
 40
0.0
 40
0.0
 40
0.0
 40
0.3102615582252098
 40
0.6205595420821193
 40
0.9422162975288116
 40
1.263944872753726
 40
1.606039020844894
 40
1.94819346890695
 40
2.316051885190543
 40
2.683951048240089
 40
3.079084664080467
 40
3.474244780173737
 40
3.894897959207503
 40
4.315568207494139
 40
4.757452126736339
 40
5.199346674241484
 40
5.656354161987061
 40
6.113367478658239
 40
6.578223037733308
 40
7.043080455842762
 40
7.50793787395022
 40
7.972793433018588
 40
8.429806749677535
 40
8.886814237403582
 40
9.328708784880408
 40
9.770592704081498
 40
10.19126295231279
 40
10.61191613126937
 40
11.00707624726319
 40
11.40220986296863
 40
11.77010902584979
 40
12.13796744190982
 40
12.4801218896963
 40
12.82221603741916
 40
13.14394461216141
 40
13.46560136682469
 40
13.77589934864149
 40
14.08616091447273
 40
14.39642248030361
 40
14.70672046212009
 40
15.02837721678337
 40
15.35010579152563
 40
15.69219993924856
 40
16.03435438703502
 40
16.40221280309499
 40
16.77011196597616
 40
17.16524558168168
 40
17.56040569767551
 40
17.98105887663225
 40
18.40172912486364
 40
18.84361304406481
 40
19.28550759154171
 40
19.74251507926761
 40
20.19952839592639
 40
20.66438395499462
 40
21.12924137310193
 40
21.59409879121158
 40
22.05895435028676
 40
22.5159676669578
 40
22.9729751547032
 40
23.41486970220848
 40
23.85675362145081
 40
24.27742386973744
 40
24.69807704877124
 40
25.09323716486449
 40
25.48837078070477
 40
25.85626994375435
 40
26.2241283600379
 40
26.56628280810001
 40
26.90837695619135
 40
27.23010553141619
 40
27.55176228686299
 40
27.86206027071981
 40
28.17232182894487
 40
28.17232182894487
 40
28.17232182894487
 40
28.17232182894487
 10
131.2925288577335
 20
227.0280773226802
 30
0.0
 10
131.3960190396556
 20
227.0240441309643
 30
0.0
 10
131.6030115540004
 20
227.0159772822934
 30
0.0
 10
131.911860422023
 20
226.9519933044841
 30
0.0
 10
132.2138273357571
 20
226.8505725081868
 30
0.0
 10
132.5107369918718
 20
226.708150008089
 30
0.0
 10
132.7950551002321
 20
226.5290474353291
 30
0.0
 10
133.0705561465285
 20
226.3110771674685
 30
0.0
 10
133.329162167197
 20
226.0607950134335
 30
0.0
 10
133.5749200568099
 20
225.7743328516617
 30
0.0
 10
133.8005653170044
 20
225.4605020993744
 30
0.0
 10
134.0093369848922
 20
225.1145879343432
 30
0.0
 10
134.1955577531637
 20
224.7464691421929
 30
0.0
 10
134.3612422835103
 20
224.3517752072761
 30
0.0
 10
134.5025500563599
 20
223.9402220073042
 30
0.0
 10
134.6203295449342
 20
223.5087963077095
 30
0.0
 10
134.7124478465728
 20
223.0660222789989
 30
0.0
 10
134.778933773966
 20
222.6109642804051
 30
0.0
 10
134.8189913308761
 20
222.1501971783239
 30
0.0
 10
134.8323332881715
 20
221.6852750028931
 30
0.0
 10
134.8189913309547
 20
221.2203528274661
 30
0.0
 10
134.7789337741272
 20
220.7595857253735
 30
0.0
 10
134.7124478468255
 20
220.3045277268211
 30
0.0
 10
134.6203295452905
 20
219.8617536979562
 30
0.0
 10
134.5025500568377
 20
219.4303279989145
 30
0.0
 10
134.3612422841297
 20
219.0187747969157
 30
0.0
 10
134.1955577539525
 20
218.6240808691934
 30
0.0
 10
134.0093369858789
 20
218.2559620509712
 30
0.0
 10
133.8005653182263
 20
217.9100479775483
 30
0.0
 10
133.5749200583036
 20
217.5962168956102
 30
0.0
 10
133.3291621690122
 20
217.3097558831375
 30
0.0
 10
133.0705561487132
 20
217.0594696040645
 30
0.0
 10
132.7950551028568
 20
216.8415137060574
 30
0.0
 10
132.5107369950175
 20
216.662359392318
 30
0.0
 10
132.2138273396052
 20
216.5201190409304
 30
0.0
 10
131.9118604270959
 20
216.4180353888902
 30
0.0
 10
131.6030115579494
 20
216.3564421489625
 30
0.0
 10
131.2925288577333
 20
216.3354883455009
 30
0.0
 10
130.9820461575175
 20
216.3564421489627
 30
0.0
 10
130.6731972883711
 20
216.4180353888905
 30
0.0
 10
130.3712303758619
 20
216.5201190409306
 30
0.0
 10
130.0743207204494
 20
216.6623593923181
 30
0.0
 10
129.7900026126101
 20
216.8415137060573
 30
0.0
 10
129.5145015667535
 20
217.059469604064
 30
0.0
 10
129.2558955464546
 20
217.3097558831371
 30
0.0
 10
129.0101376571635
 20
217.5962168956103
 30
0.0
 10
128.7844923972406
 20
217.9100479775482
 30
0.0
 10
128.5757207295881
 20
218.2559620509712
 30
0.0
 10
128.3894999615142
 20
218.6240808691934
 30
0.0
 10
128.2238154313372
 20
219.0187747969158
 30
0.0
 10
128.0825076586294
 20
219.4303279989147
 30
0.0
 10
127.9647281701766
 20
219.8617536979565
 30
0.0
 10
127.8726098686416
 20
220.3045277268214
 30
0.0
 10
127.8061239413398
 20
220.7595857253735
 30
0.0
 10
127.7660663845123
 20
221.2203528274661
 30
0.0
 10
127.7527244272955
 20
221.685275002893
 30
0.0
 10
127.7660663845907
 20
222.1501971783239
 30
0.0
 10
127.8061239415009
 20
222.6109642804051
 30
0.0
 10
127.872609868894
 20
223.0660222789989
 30
0.0
 10
127.9647281705327
 20
223.5087963077095
 30
0.0
 10
128.0825076591072
 20
223.940222007304
 30
0.0
 10
128.2238154319567
 20
224.351775207276
 30
0.0
 10
128.3894999623035
 20
224.7464691421928
 30
0.0
 10
128.5757207305747
 20
225.1145879343432
 30
0.0
 10
128.7844923984625
 20
225.4605020993745
 30
0.0
 10
129.010137658657
 20
225.7743328516617
 30
0.0
 10
129.25589554827
 20
226.0607950134334
 30
0.0
 10
129.5145015689385
 20
226.3110771674684
 30
0.0
 10
129.790002615235
 20
226.529047435329
 30
0.0
 10
130.0743207235952
 20
226.7081500080892
 30
0.0
 10
130.3712303797101
 20
226.8505725081867
 30
0.0
 10
130.6731972934442
 20
226.9519933044841
 30
0.0
 10
130.9820461614667
 20
227.0159772822934
 30
0.0
 10
131.1890386758114
 20
227.0240441309642
 30
0.0
 10
131.2925288577335
 20
227.0280773226802
 30
0.0
 11
131.2925288577335
 21
227.0280773226802
 31
0.0
 11
131.6021046558702
 21
227.0074602294795
 31
0.0
 11
131.9064371767894
 21
226.9469081500815
 31
0.0
 11
132.2113365120528
 21
226.8444412614497
 31
0.0
 11
132.5016922022234
 21
226.7058669165208
 31
0.0
 11
132.7914853329149
 21
226.5240748721635
 31
0.0
 11
133.0602074113014
 21
226.3122775379073
 31
0.0
 11
133.3249957550703
 21
226.0569210276333
 31
0.0
 11
133.5650126020176
 21
225.778099028344
 31
0.0
 11
133.7961305343428
 21
225.457607100719
 31
0.0
 11
134.0007695240959
 21
225.1195621315372
 31
0.0
 11
134.1910358566871
 21
224.7443984076932
 31
0.0
 11
134.3542379239629
 21
224.3566761578604
 31
0.0
 11
134.4980231945448
 21
223.9388398333991
 31
0.0
 11
134.6146778431518
 21
223.5126210115845
 31
0.0
 11
134.7079412448513
 21
223.0652310454944
 31
0.0
 11
134.7741759465075
 21
222.6130428812167
 31
0.0
 11
134.8145009352743
 21
222.1499396680044
 31
0.0
 11
134.8278859648693
 21
221.6852749930403
 31
0.0
 11
134.8145009352743
 21
221.220610318076
 31
0.0
 11
134.7741759465076
 21
220.7575071048636
 31
0.0
 11
134.7079412448514
 21
220.3053189405858
 31
0.0
 11
134.6146778431518
 21
219.8579289744958
 31
0.0
 11
134.4980231945447
 21
219.4317101526813
 31
0.0
 11
134.3542379239627
 21
219.0138738282201
 31
0.0
 11
134.1910358566871
 21
218.6261515783873
 31
0.0
 11
134.000769524096
 21
218.2509878545431
 31
0.0
 11
133.7961305343428
 21
217.9129428853612
 31
0.0
 11
133.5650126020176
 21
217.5924509577363
 31
0.0
 11
133.3249957550702
 21
217.3136289584472
 31
0.0
 11
133.0602074113012
 21
217.0582724481733
 31
0.0
 11
132.7914853329148
 21
216.8464751139171
 31
0.0
 11
132.5016922022234
 21
216.6646830695598
 31
0.0
 11
132.2113365120528
 21
216.5261087246309
 31
0.0
 11
131.9064371767894
 21
216.423641835999
 31
0.0
 11
131.60210465587
 21
216.3630897566009
 31
0.0
 11
131.2925288577332
 21
216.3424726634002
 31
0.0
 11
130.9829530595968
 21
216.3630897566011
 31
0.0
 11
130.6786205386777
 21
216.4236418359992
 31
0.0
 11
130.3737212034143
 21
216.5261087246311
 31
0.0
 11
130.0833655132436
 21
216.6646830695598
 31
0.0
 11
129.7935723825521
 21
216.8464751139169
 31
0.0
 11
129.5248503041655
 21
217.058272448173
 31
0.0
 11
129.2600619603967
 21
217.3136289584469
 31
0.0
 11
129.0200451134494
 21
217.5924509577362
 31
0.0
 11
128.7889271811241
 21
217.9129428853611
 31
0.0
 11
128.5842881913709
 21
218.250987854543
 31
0.0
 11
128.3940218587798
 21
218.6261515783873
 31
0.0
 11
128.2308197915042
 21
219.0138738282203
 31
0.0
 11
128.0870345209223
 21
219.4317101526817
 31
0.0
 11
127.9703798723152
 21
219.8579289744962
 31
0.0
 11
127.8771164706157
 21
220.3053189405861
 31
0.0
 11
127.8108817689594
 21
220.7575071048637
 31
0.0
 11
127.7705567801927
 21
221.220610318076
 31
0.0
 11
127.7571717505977
 21
221.6852749930401
 31
0.0
 11
127.7705567801926
 21
222.1499396680044
 31
0.0
 11
127.8108817689593
 21
222.6130428812168
 31
0.0
 11
127.8771164706156
 21
223.0652310454944
 31
0.0
 11
127.9703798723151
 21
223.5126210115843
 31
0.0
 11
128.0870345209222
 21
223.938839833399
 31
0.0
 11
128.2308197915042
 21
224.3566761578604
 31
0.0
 11
128.39402185878
 21
224.7443984076932
 31
0.0
 11
128.5842881913711
 21
225.1195621315373
 31
0.0
 11
128.7889271811242
 21
225.4576071007191
 31
0.0
 11
129.0200451134493
 21
225.778099028344
 31
0.0
 11
129.2600619603967
 21
226.0569210276333
 31
0.0
 11
129.5248503041656
 21
226.3122775379072
 31
0.0
 11
129.7935723825521
 21
226.5240748721635
 31
0.0
 11
130.0833655132437
 21
226.7058669165209
 31
0.0
 11
130.3737212034143
 21
226.8444412614497
 31
0.0
 11
130.6786205386778
 21
226.9469081500815
 31
0.0
 11
130.982953059597
 21
227.0074602294794
 31
0.0
 11
131.2925288577335
 21
227.0280773226802
 31
0.0
  0
SPLINE
  5
F9
330
4D
100
AcDbEntity
  8
1
  6
Continuous
 62
     7
100
AcDbSpline
210
0.0
220
0.0
230
1.0
 70
    11
 71
     3
 72
    79
 73
    75
 74
    73
 42
0.000000001
 43
0.0000000001
 44
0.00000001
 40
0.0
 40
0.0
 40
0.0
 40
0.0
 40
0.3102615582249602
 40
0.6205595420816021
 40
0.9422162975284025
 40
1.263944872753469
 40
1.606039020844619
 40
1.948193468906612
 40
2.316051885190128
 40
2.683951048239681
 40
3.079084664080122
 40
3.474244780173499
 40
3.894897959207252
 40
4.31556820749385
 40
4.757452126736168
 40
5.199346674241363
 40
5.656354161986762
 40
6.113367478657791
 40
6.578223037732911
 40
7.043080455842503
 40
7.507937873950073
 40
7.972793433018439
 40
8.429806749677262
 40
8.886814237403174
 40
9.328708784879923
 40
9.770592704080867
 40
10.19126295231224
 40
10.6119161312689
 40
11.00707624726285
 40
11.40220986296842
 40
11.77010902584957
 40
12.13796744190963
 40
12.48012188969593
 40
12.82221603741857
 40
13.14394461216097
 40
13.46560136682447
 40
13.77589934864111
 40
14.08616091447213
 40
14.39642248030328
 40
14.70672046211998
 40
15.02837721678333
 40
15.35010579152555
 40
15.69219993924843
 40
16.03435438703487
 40
16.40221280309482
 40
16.77011196597593
 40
17.16524558168156
 40
17.56040569767551
 40
17.98105887663211
 40
18.40172912486343
 40
18.84361304406454
 40
19.28550759154145
 40
19.74251507926731
 40
20.19952839592615
 40
20.66438395499446
 40
21.12924137310189
 40
21.59409879121154
 40
22.0589543502867
 40
22.51596766695778
 40
22.97297515470327
 40
23.41486970220849
 40
23.85675362145077
 40
24.27742386973733
 40
24.69807704877112
 40
25.09323716486441
 40
25.48837078070478
 40
25.85626994375436
 40
26.22412836003786
 40
26.56628280809985
 40
26.90837695619109
 40
27.23010553141593
 40
27.55176228686258
 40
27.86206027071969
 40
28.17232182894507
 40
28.17232182894507
 40
28.17232182894507
 40
28.17232182894507
 10
131.2925288577338
 20
228.9037795920369
 30
0.0
 10
131.3960190396559
 20
228.9078127837529
 30
0.0
 10
131.6030115540004
 20
228.9158796324237
 30
0.0
 10
131.9118604220229
 20
228.9798636102331
 30
0.0
 10
132.2138273357569
 20
229.0812844065304
 30
0.0
 10
132.5107369918718
 20
229.2237069066283
 30
0.0
 10
132.7950551002319
 20
229.4028094793882
 30
0.0
 10
133.0705561465284
 20
229.6207797472488
 30
0.0
 10
133.329162167197
 20
229.8710619012837
 30
0.0
 10
133.57492005681
 20
230.1575240630553
 30
0.0
 10
133.8005653170046
 20
230.4713548153426
 30
0.0
 10
134.0093369848922
 20
230.817268980374
 30
0.0
 10
134.1955577531637
 20
231.1853877725244
 30
0.0
 10
134.3612422835103
 20
231.5800817074412
 30
0.0
 10
134.50255005636
 20
231.9916349074131
 30
0.0
 10
134.6203295449344
 20
232.4230606070077
 30
0.0
 10
134.712447846573
 20
232.8658346357181
 30
0.0
 10
134.7789337739661
 20
233.320892634312
 30
0.0
 10
134.8189913308762
 20
233.7816597363931
 30
0.0
 10
134.8323332881714
 20
234.2465819118241
 30
0.0
 10
134.8189913309547
 20
234.7115040872511
 30
0.0
 10
134.7789337741272
 20
235.1722711893439
 30
0.0
 10
134.7124478468256
 20
235.6273291878961
 30
0.0
 10
134.6203295452907
 20
236.0701032167609
 30
0.0
 10
134.5025500568379
 20
236.5015289158026
 30
0.0
 10
134.3612422841301
 20
236.9130821178014
 30
0.0
 10
134.195557753953
 20
237.3077760455237
 30
0.0
 10
134.0093369858792
 20
237.6758948637459
 30
0.0
 10
133.8005653182266
 20
238.0218089371688
 30
0.0
 10
133.5749200583037
 20
238.3356400191069
 30
0.0
 10
133.3291621690123
 20
238.6221010315798
 30
0.0
 10
133.0705561487135
 20
238.8723873106529
 30
0.0
 10
132.7950551028572
 20
239.0903432086599
 30
0.0
 10
132.510736995018
 20
239.2694975223991
 30
0.0
 10
132.2138273396056
 20
239.4117378737869
 30
0.0
 10
131.9118604270962
 20
239.5138215258268
 30
0.0
 10
131.6030115579497
 20
239.5754147657548
 30
0.0
 10
131.2925288577338
 20
239.5963685692164
 30
0.0
 10
130.9820461575177
 20
239.5754147657549
 30
0.0
 10
130.6731972883713
 20
239.5138215258271
 30
0.0
 10
130.371230375862
 20
239.4117378737868
 30
0.0
 10
130.0743207204497
 20
239.2694975223991
 30
0.0
 10
129.7900026126103
 20
239.09034320866
 30
0.0
 10
129.5145015667538
 20
238.8723873106531
 30
0.0
 10
129.2558955464548
 20
238.6221010315802
 30
0.0
 10
129.0101376571636
 20
238.3356400191072
 30
0.0
 10
128.7844923972409
 20
238.021808937169
 30
0.0
 10
128.5757207295885
 20
237.6758948637459
 30
0.0
 10
128.3894999615147
 20
237.3077760455237
 30
0.0
 10
128.2238154313374
 20
236.9130821178015
 30
0.0
 10
128.0825076586295
 20
236.5015289158027
 30
0.0
 10
127.9647281701767
 20
236.0701032167609
 30
0.0
 10
127.8726098686415
 20
235.627329187896
 30
0.0
 10
127.8061239413398
 20
235.1722711893439
 30
0.0
 10
127.7660663845123
 20
234.7115040872511
 30
0.0
 10
127.7527244272958
 20
234.2465819118243
 30
0.0
 10
127.7660663845909
 20
233.7816597363933
 30
0.0
 10
127.8061239415009
 20
233.3208926343121
 30
0.0
 10
127.8726098688941
 20
232.8658346357182
 30
0.0
 10
127.964728170533
 20
232.4230606070077
 30
0.0
 10
128.0825076591074
 20
231.9916349074132
 30
0.0
 10
128.223815431957
 20
231.5800817074411
 30
0.0
 10
128.3894999623035
 20
231.1853877725244
 30
0.0
 10
128.5757207305748
 20
230.8172689803739
 30
0.0
 10
128.7844923984626
 20
230.4713548153427
 30
0.0
 10
129.0101376586571
 20
230.1575240630553
 30
0.0
 10
129.25589554827
 20
229.8710619012838
 30
0.0
 10
129.5145015689386
 20
229.6207797472488
 30
0.0
 10
129.7900026152351
 20
229.4028094793883
 30
0.0
 10
130.0743207235953
 20
229.2237069066283
 30
0.0
 10
130.37123037971
 20
229.0812844065305
 30
0.0
 10
130.673197293444
 20
228.979863610233
 30
0.0
 10
130.9820461614667
 20
228.9158796324236
 30
0.0
 10
131.1890386758116
 20
228.907812783753
 30
0.0
 10
131.2925288577338
 20
228.9037795920369
 30
0.0
 11
131.2925288577338
 21
228.9037795920369
 31
0.0
 11
131.6021046558702
 21
228.9243966852377
 31
0.0
 11
131.9064371767892
 21
228.9849487646356
 31
0.0
 11
132.2113365120526
 21
229.0874156532675
 31
0.0
 11
132.5016922022234
 21
229.2259899981965
 31
0.0
 11
132.7914853329148
 21
229.4077820425538
 31
0.0
 11
133.0602074113013
 21
229.61957937681
 31
0.0
 11
133.3249957550703
 21
229.8749358870838
 31
0.0
 11
133.5650126020177
 21
230.153757886373
 31
0.0
 11
133.7961305343429
 21
230.474249813998
 31
0.0
 11
134.000769524096
 21
230.81229478318
 31
0.0
 11
134.1910358566872
 21
231.1874585070241
 31
0.0
 11
134.3542379239629
 21
231.5751807568568
 31
0.0
 11
134.4980231945449
 21
231.9930170813182
 31
0.0
 11
134.614677843152
 21
232.4192359031328
 31
0.0
 11
134.7079412448514
 21
232.8666258692227
 31
0.0
 11
134.7741759465076
 21
233.3188140335003
 31
0.0
 11
134.8145009352743
 21
233.7819172467126
 31
0.0
 11
134.8278859648692
 21
234.2465819216769
 31
0.0
 11
134.8145009352743
 21
234.7112465966413
 31
0.0
 11
134.7741759465076
 21
235.1743498098537
 31
0.0
 11
134.7079412448514
 21
235.6265379741314
 31
0.0
 11
134.614677843152
 21
236.0739279402213
 31
0.0
 11
134.498023194545
 21
236.5001467620357
 31
0.0
 11
134.3542379239631
 21
236.9179830864968
 31
0.0
 11
134.1910358566875
 21
237.3057053363298
 31
0.0
 11
134.0007695240964
 21
237.680869060174
 31
0.0
 11
133.7961305343431
 21
238.018914029356
 31
0.0
 11
133.5650126020177
 21
238.3394059569809
 31
0.0
 11
133.3249957550703
 21
238.6182279562701
 31
0.0
 11
133.0602074113014
 21
238.873584466544
 31
0.0
 11
132.7914853329152
 21
239.0853818008002
 31
0.0
 11
132.501692202224
 21
239.2671738451574
 31
0.0
 11
132.2113365120532
 21
239.4057481900863
 31
0.0
 11
131.9064371767896
 21
239.5082150787182
 31
0.0
 11
131.6021046558704
 21
239.5687671581163
 31
0.0
 11
131.2925288577338
 21
239.5893842513171
 31
0.0
 11
130.9829530595971
 21
239.5687671581164
 31
0.0
 11
130.6786205386778
 21
239.5082150787183
 31
0.0
 11
130.3737212034144
 21
239.4057481900863
 31
0.0
 11
130.0833655132438
 21
239.2671738451574
 31
0.0
 11
129.7935723825523
 21
239.0853818008003
 31
0.0
 11
129.5248503041658
 21
238.8735844665442
 31
0.0
 11
129.2600619603968
 21
238.6182279562704
 31
0.0
 11
129.0200451134496
 21
238.3394059569812
 31
0.0
 11
128.7889271811244
 21
238.0189140293561
 31
0.0
 11
128.5842881913713
 21
237.680869060174
 31
0.0
 11
128.3940218587802
 21
237.3057053363298
 31
0.0
 11
128.2308197915044
 21
236.917983086497
 31
0.0
 11
128.0870345209224
 21
236.5001467620357
 31
0.0
 11
127.9703798723153
 21
236.0739279402212
 31
0.0
 11
127.8771164706157
 21
235.6265379741314
 31
0.0
 11
127.8108817689594
 21
235.1743498098537
 31
0.0
 11
127.7705567801928
 21
234.7112465966414
 31
0.0
 11
127.7571717505979
 21
234.2465819216771
 31
0.0
 11
127.7705567801927
 21
233.7819172467128
 31
0.0
 11
127.8108817689594
 21
233.3188140335004
 31
0.0
 11
127.8771164706157
 21
232.8666258692228
 31
0.0
 11
127.9703798723153
 21
232.4192359031328
 31
0.0
 11
128.0870345209225
 21
231.9930170813182
 31
0.0
 11
128.2308197915044
 21
231.5751807568568
 31
0.0
 11
128.39402185878
 21
231.1874585070241
 31
0.0
 11
128.5842881913711
 21
230.8122947831799
 31
0.0
 11
128.7889271811242
 21
230.4742498139981
 31
0.0
 11
129.0200451134494
 21
230.1537578863731
 31
0.0
 11
129.2600619603968
 21
229.8749358870838
 31
0.0
 11
129.5248503041657
 21
229.61957937681
 31
0.0
 11
129.7935723825522
 21
229.4077820425538
 31
0.0
 11
130.0833655132437
 21
229.2259899981965
 31
0.0
 11
130.3737212034142
 21
229.0874156532676
 31
0.0
 11
130.6786205386775
 21
228.9849487646356
 31
0.0
 11
130.982953059597
 21
228.9243966852376
 31
0.0
 11
131.2925288577338
 21
228.9037795920369
 31
0.0
  0
SPLINE
  5
FA
330
4D
100
AcDbEntity
  8
1
  6
Continuous
 62
     7
100
AcDbSpline
210
0.0
220
0.0
230
1.0
 70
     8
 71
     3
 72
    29
 73
    25
 74
    23
 42
0.000000001
 43
0.0000000001
 44
0.00000001
 40
0.0
 40
0.0
 40
0.0
 40
0.0
 40
0.6069077071334358
 40
1.212222618922018
 40
1.842666699980906
 40
2.474631891987721
 40
3.10242016313491
 40
3.729333881624466
 40
4.271042929453136
 40
4.812985317241491
 40
5.340107969104087
 40
5.866248914948723
 40
6.263874824440215
 40
6.661485222726603
 40
7.280966483141003
 40
7.902596723210202
 40
8.549168899022694
 40
9.195896755584657
 40
9.722415956711806
 40
10.24911839923903
 40
11.07897535377069
 40
11.90732205839649
 40
12.67331707894433
 40
13.44191268485649
 40
13.44191268485649
 40
13.44191268485649
 40
13.44191268485649
 10
134.7572704266853
 20
563.3076338397303
 30
0.0
 10
134.7473950533213
 20
563.1055740121848
 30
0.0
 10
134.7276702121086
 20
562.7019846525076
 30
0.0
 10
134.6638798638872
 20
562.0902791044234
 30
0.0
 10
134.5296965661469
 20
561.4808620432816
 30
0.0
 10
134.3292409466203
 20
560.8824558683034
 30
0.0
 10
134.0706798303902
 20
560.3078933368296
 30
0.0
 10
133.7617504412859
 20
559.7929955394609
 30
0.0
 10
133.4079335173412
 20
559.3439766657049
 30
0.0
 10
133.0199088498244
 20
558.9700350634071
 30
0.0
 10
132.5829784467492
 20
558.6630691621006
 30
0.0
 10
132.142764480313
 20
558.4557605046608
 30
0.0
 10
131.7160553602605
 20
558.3398579164405
 30
0.0
 10
131.2451399184584
 20
558.289154711563
 30
0.0
 10
130.6961653262176
 20
558.3496110348041
 30
0.0
 10
130.0984192608958
 20
558.5625582664334
 30
0.0
 10
129.5568170157554
 20
558.9097952035859
 30
0.0
 10
129.1162090483652
 20
559.3311529291659
 30
0.0
 10
128.7663351253957
 20
559.7785664191462
 30
0.0
 10
128.4374247430542
 20
560.3144028046913
 30
0.0
 10
128.1336861226522
 20
560.9792938540772
 30
0.0
 10
127.9089162569358
 20
561.7589549147139
 30
0.0
 10
127.804529457545
 20
562.5413605308181
 30
0.0
 10
127.773106967039
 20
563.051920996992
 30
0.0
 10
127.7573691027723
 20
563.3076338397303
 30
0.0
 11
134.7572704266853
 21
563.3076338397303
 31
0.0
 11
134.722069560923
 21
562.7017478179722
 31
0.0
 11
134.6537125688388
 21
562.1003049984907
 31
0.0
 11
134.5190360830145
 21
561.4844137867497
 31
0.0
 11
134.3189711910694
 21
560.884952325201
 31
0.0
 11
134.0595899528192
 21
560.3132535518808
 31
0.0
 11
133.7353699980412
 21
559.7766883348678
 31
0.0
 11
133.3987608580601
 21
559.3522557960887
 31
0.0
 11
133.0072704266853
 21
558.9775068208081
 31
0.0
 11
132.5749252654668
 21
558.6759509348482
 31
0.0
 11
132.0979228798507
 21
558.4539306210144
 31
0.0
 11
131.7140738497211
 21
558.3501699038713
 31
0.0
 11
131.3186623039068
 21
558.3084118060506
 31
0.0
 11
130.7025578496969
 21
558.373005417672
 31
0.0
 11
130.1166236794201
 21
558.5806235878234
 31
0.0
 11
129.5700220455062
 21
558.9259961886785
 31
0.0
 11
129.1000460654258
 21
559.3702703152812
 31
0.0
 11
128.7745714178546
 21
559.7841407340559
 31
0.0
 11
128.4976659196749
 21
560.2321795812801
 31
0.0
 11
128.1527038314974
 21
560.9869402879176
 31
0.0
 11
127.9240263417511
 21
561.7830965983057
 31
0.0
 11
127.8137062127364
 21
562.5411057289052
 31
0.0
 11
127.7573691027723
 21
563.3076338397303
 31
0.0
  0
SPLINE
  5
FB
330
4D
100
AcDbEntity
  8
1
  6
Continuous
 62
     7
100
AcDbSpline
210
0.0
220
0.0
230
1.0
 70
    11
 71
     3
 72
    79
 73
    75
 74
    73
 42
0.000000001
 43
0.0000000001
 44
0.00000001
 40
0.0
 40
0.0
 40
0.0
 40
0.0
 40
0.2803981055170699
 40
0.5607977780795013
 40
0.8427454767814759
 40
1.124697465942899
 40
1.409536444711841
 40
1.694381494092148
 40
1.983071303433714
 40
2.271767836809115
 40
2.56477613564545
 40
2.857790848031675
 40
3.155055692063391
 40
3.452325972452653
 40
3.753284820909543
 40
4.054247736388269
 40
4.357919800455189
 40
4.661594361771408
 40
4.96670074233807
 40
5.271807963175685
 40
5.576915184002839
 40
5.882021564538289
 40
6.185696125802486
 40
6.489368189795917
 40
6.790331105179717
 40
7.091289953518529
 40
7.388560233767273
 40
7.685825077633541
 40
7.978839789830285
 40
8.271848088448989
 40
8.560544621579648
 40
8.84923443064242
 40
9.134079479707177
 40
9.41891845810609
 40
9.700870446812708
 40
9.982818144855896
 40
10.26321781600862
 40
10.54361593035201
 40
10.82401404469564
 40
11.10441371584858
 40
11.38636141389188
 40
11.6683134025985
 40
11.95315238099752
 40
12.23799743006217
 40
12.52668723912495
 40
12.81538377225561
 40
13.10839207087425
 40
13.40140678307097
 40
13.69867162693726
 40
13.99594190718604
 40
14.29690075552485
 40
14.59786367090866
 40
14.90153573490212
 40
15.20521029616626
 40
15.51031667670173
 40
15.81542389752888
 40
16.1205311183665
 40
16.42563749893317
 40
16.72931206024939
 40
17.03298412431628
 40
17.33394703979503
 40
17.6349058882519
 40
17.93217616864122
 40
18.22944101267293
 40
18.52245572505916
 40
18.81546402389541
 40
19.10416055727083
 40
19.39285036661238
 40
19.67769541599269
 40
19.96253439476163
 40
20.24448638392305
 40
20.52643408262514
 40
20.80683375518757
 40
21.08723186070464
 40
21.08723186070464
 40
21.08723186070464
 40
21.08723186070464
 10
134.7572704266853
 20
552.0493035905326
 30
0.0
 10
134.7546890408792
 20
551.9558030504904
 30
0.0
 10
134.7495262601746
 20
551.7688014476885
 30
0.0
 10
134.7080539116112
 20
551.4903170364952
 30
0.0
 10
134.6421537517695
 20
551.2163748393428
 30
0.0
 10
134.5499216428124
 20
550.9484466735739
 30
0.0
 10
134.4328394536833
 20
550.6894008857032
 30
0.0
 10
134.2913631722844
 20
550.4402415912866
 30
0.0
 10
134.1270808264479
 20
550.2039315708723
 30
0.0
 10
133.9406206783693
 20
549.9811565767347
 30
0.0
 10
133.7341962035563
 20
549.7747005442285
 30
0.0
 10
133.5084785092329
 20
549.5850878003886
 30
0.0
 10
133.2661877109879
 20
549.41468862427
 30
0.0
 10
133.008130218244
 20
549.2639758164744
 30
0.0
 10
132.7373030148512
 20
549.1347526797654
 30
0.0
 10
132.4547861614382
 20
549.0274730064001
 30
0.0
 10
132.1635981909232
 20
548.9433185026669
 30
0.0
 10
131.8652194180818
 20
548.882675228659
 30
0.0
 10
131.5624584462708
 20
548.8461414662124
 30
0.0
 10
131.2572704360882
 20
548.8339224353008
 30
0.0
 10
130.9520824259036
 20
548.8461414658624
 30
0.0
 10
130.6493214540772
 20
548.8826752279579
 30
0.0
 10
130.3509426812342
 20
548.9433185016123
 30
0.0
 10
130.0597547106303
 20
549.0274730049894
 30
0.0
 10
129.7772378574142
 20
549.1347526779939
 30
0.0
 10
129.5064106531182
 20
549.2639758143373
 30
0.0
 10
129.2483531634915
 20
549.4146886217607
 30
0.0
 10
129.0060623534352
 20
549.5850877975
 30
0.0
 10
128.7803447022733
 20
549.774700540951
 30
0.0
 10
128.5739200672794
 20
549.9811565730578
 30
0.0
 10
128.3874605081312
 20
550.2039315667816
 30
0.0
 10
128.2231759804456
 20
550.4402415867635
 30
0.0
 10
128.0817077373974
 20
550.6894008807177
 30
0.0
 10
127.9645957338136
 20
550.9484466680783
 30
0.0
 10
127.8724738153546
 20
551.2163748332121
 30
0.0
 10
127.8061640497968
 20
551.4903170294117
 30
0.0
 10
127.7662123847072
 20
551.7688014424483
 30
0.0
 10
127.7527994750864
 20
552.0493035905326
 30
0.0
 10
127.7662123847072
 20
552.3298057386168
 30
0.0
 10
127.8061640497968
 20
552.6082901516534
 30
0.0
 10
127.8724738153546
 20
552.8822323478535
 30
0.0
 10
127.9645957338137
 20
553.1501605129872
 30
0.0
 10
128.0817077373973
 20
553.4092063003477
 30
0.0
 10
128.2231759804456
 20
553.6583655943018
 30
0.0
 10
128.3874605081313
 20
553.8946756142838
 30
0.0
 10
128.5739200672793
 20
554.1174506080076
 30
0.0
 10
128.7803447022733
 20
554.3239066401142
 30
0.0
 10
129.0060623534352
 20
554.5135193835652
 30
0.0
 10
129.2483531634916
 20
554.6839185593046
 30
0.0
 10
129.5064106531181
 20
554.8346313667278
 30
0.0
 10
129.7772378574143
 20
554.9638545030717
 30
0.0
 10
130.0597547106303
 20
555.0711341760757
 30
0.0
 10
130.3509426812343
 20
555.1552886794533
 30
0.0
 10
130.6493214540772
 20
555.2159319531073
 30
0.0
 10
130.9520824259036
 20
555.2524657152031
 30
0.0
 10
131.2572704360882
 20
555.2646847457645
 30
0.0
 10
131.5624584462708
 20
555.2524657148532
 30
0.0
 10
131.8652194180818
 20
555.2159319524062
 30
0.0
 10
132.1635981909232
 20
555.1552886783986
 30
0.0
 10
132.4547861614382
 20
555.0711341746653
 30
0.0
 10
132.7373030148513
 20
554.9638545013001
 30
0.0
 10
133.008130218244
 20
554.834631364591
 30
0.0
 10
133.2661877109878
 20
554.6839185567953
 30
0.0
 10
133.5084785092329
 20
554.5135193806768
 30
0.0
 10
133.7341962035563
 20
554.3239066368368
 30
0.0
 10
133.9406206783693
 20
554.1174506043307
 30
0.0
 10
134.127080826448
 20
553.8946756101928
 30
0.0
 10
134.2913631722844
 20
553.6583655897791
 30
0.0
 10
134.4328394536834
 20
553.4092062953621
 30
0.0
 10
134.5499216428123
 20
553.1501605074914
 30
0.0
 10
134.6421537517695
 20
552.8822323417226
 30
0.0
 10
134.7080539116112
 20
552.60829014457
 30
0.0
 10
134.7495262601746
 20
552.3298057333768
 30
0.0
 10
134.7546890408793
 20
552.142804130575
 30
0.0
 10
134.7572704266853
 20
552.0493035905326
 30
0.0
 11
134.7572704266853
 21
552.0493035905326
 31
0.0
 11
134.7439176413872
 21
551.769223591663
 31
0.0
 11
134.704097562228
 21
551.4916657832844
 31
0.0
 11
134.6378379795041
 21
551.2176143789055
 31
0.0
 11
134.546194599436
 21
550.950971518631
 31
0.0
 11
134.4289465991509
 21
550.691383094095
 31
0.0
 11
134.2883593399309
 21
550.4436495181995
 31
0.0
 11
134.1236621445788
 21
550.2065490335906
 31
0.0
 11
133.9384259776017
 21
549.9851145042558
 31
0.0
 11
133.7313331006865
 21
549.7778311149459
 31
0.0
 11
133.5070270605883
 21
549.5892988311683
 31
0.0
 11
133.2639322298875
 21
549.4182102845947
 31
0.0
 11
133.0072704266853
 21
549.2682291578718
 31
0.0
 11
132.7356822067141
 21
549.1385523779975
 31
0.0
 11
132.4543409283252
 21
549.0316610239202
 31
0.0
 11
132.1626234447798
 21
548.9472949625898
 31
0.0
 11
131.8650390485196
 21
548.886782432354
 31
0.0
 11
131.5621333139853
 21
548.8502034837911
 31
0.0
 11
131.2572704266853
 21
548.8379954458665
 31
0.0
 11
130.9524075393854
 21
548.8502034837911
 31
0.0
 11
130.6495018048512
 21
548.886782432354
 31
0.0
 11
130.351917408591
 21
548.9472949625898
 31
0.0
 11
130.0601999250456
 21
549.0316610239202
 31
0.0
 11
129.7788586466566
 21
549.1385523779976
 31
0.0
 11
129.5072704266855
 21
549.2682291578718
 31
0.0
 11
129.2506086234834
 21
549.4182102845947
 31
0.0
 11
129.0075137927826
 21
549.5892988311683
 31
0.0
 11
128.7832077526843
 21
549.7778311149459
 31
0.0
 11
128.5761148757691
 21
549.9851145042558
 31
0.0
 11
128.390878708792
 21
550.2065490335906
 31
0.0
 11
128.2261815134399
 21
550.4436495181995
 31
0.0
 11
128.08559425422
 21
550.691383094095
 31
0.0
 11
127.9683462539348
 21
550.950971518631
 31
0.0
 11
127.8767028738666
 21
551.2176143789055
 31
0.0
 11
127.8104432911426
 21
551.4916657832844
 31
0.0
 11
127.7706232119835
 21
551.7692235916629
 31
0.0
 11
127.7572704266855
 21
552.0493035905324
 31
0.0
 11
127.7706232119835
 21
552.3293835894021
 31
0.0
 11
127.8104432911426
 21
552.6069413977809
 31
0.0
 11
127.8767028738666
 21
552.8809928021599
 31
0.0
 11
127.9683462539348
 21
553.1476356624344
 31
0.0
 11
128.08559425422
 21
553.4072240869705
 31
0.0
 11
128.2261815134399
 21
553.6549576628659
 31
0.0
 11
128.390878708792
 21
553.8920581474748
 31
0.0
 11
128.5761148757691
 21
554.1134926768096
 31
0.0
 11
128.7832077526843
 21
554.3207760661194
 31
0.0
 11
129.0075137927826
 21
554.509308349897
 31
0.0
 11
129.2506086234834
 21
554.6803968964706
 31
0.0
 11
129.5072704266855
 21
554.8303780231936
 31
0.0
 11
129.7788586466566
 21
554.9600548030679
 31
0.0
 11
130.0601999250456
 21
555.0669461571453
 31
0.0
 11
130.351917408591
 21
555.1513122184756
 31
0.0
 11
130.6495018048512
 21
555.2118247487113
 31
0.0
 11
130.9524075393854
 21
555.2484036972743
 31
0.0
 11
131.2572704266853
 21
555.260611735199
 31
0.0
 11
131.5621333139853
 21
555.2484036972743
 31
0.0
 11
131.8650390485196
 21
555.2118247487113
 31
0.0
 11
132.1626234447798
 21
555.1513122184755
 31
0.0
 11
132.4543409283252
 21
555.0669461571453
 31
0.0
 11
132.7356822067142
 21
554.9600548030679
 31
0.0
 11
133.0072704266853
 21
554.8303780231936
 31
0.0
 11
133.2639322298875
 21
554.6803968964706
 31
0.0
 11
133.5070270605883
 21
554.509308349897
 31
0.0
 11
133.7313331006865
 21
554.3207760661194
 31
0.0
 11
133.9384259776017
 21
554.1134926768096
 31
0.0
 11
134.1236621445788
 21
553.8920581474748
 31
0.0
 11
134.2883593399309
 21
553.6549576628659
 31
0.0
 11
134.4289465991509
 21
553.4072240869704
 31
0.0
 11
134.546194599436
 21
553.1476356624344
 31
0.0
 11
134.6378379795041
 21
552.8809928021599
 31
0.0
 11
134.704097562228
 21
552.6069413977809
 31
0.0
 11
134.7439176413872
 21
552.3293835894023
 31
0.0
 11
134.7572704266853
 21
552.0493035905326
 31
0.0
  0
SPLINE
  5
FC
330
4D
100
AcDbEntity
  8
1
  6
Continuous
 62
     7
100
AcDbSpline
210
0.0
220
0.0
230
1.0
 70
    11
 71
     3
 72
    79
 73
    75
 74
    73
 42
0.000000001
 43
0.0000000001
 44
0.00000001
 40
0.0
 40
0.0
 40
0.0
 40
0.0
 40
0.2803981055170699
 40
0.5607977780795013
 40
0.8427454767815998
 40
1.124697465942897
 40
1.409536444711943
 40
1.694381494092249
 40
1.9830713034338
 40
2.271767836809218
 40
2.564776135645473
 40
2.857790848031698
 40
3.15505569206346
 40
3.45232597245273
 40
3.753284820909543
 40
4.054247736388349
 40
4.357919800455297
 40
4.661594361771466
 40
4.966700742338127
 40
5.271807963175748
 40
5.576915184002907
 40
5.882021564538356
 40
6.185696125802553
 40
6.489368189795953
 40
6.790331105179766
 40
7.091289953518576
 40
7.388560233767328
 40
7.685825077633643
 40
7.978839789830388
 40
8.27184808844901
 40
8.56054462157967
 40
8.849234430642442
 40
9.134079479707198
 40
9.418918458106111
 40
9.70087044681273
 40
9.982818144856028
 40
10.26321781600886
 40
10.54361593035237
 40
10.82401404469588
 40
11.10441371584871
 40
11.38636141389201
 40
11.66831340259852
 40
11.95315238099754
 40
12.2379974300622
 40
12.52668723912497
 40
12.81538377225563
 40
13.10839207087435
 40
13.40140678307108
 40
13.69867162693734
 40
13.99594190718609
 40
14.29690075552492
 40
14.59786367090875
 40
14.90153573490221
 40
15.20521029616635
 40
15.5103166767018
 40
15.81542389752896
 40
16.12053111836658
 40
16.42563749893324
 40
16.72931206024947
 40
17.03298412431635
 40
17.33394703979511
 40
17.63490588825202
 40
17.93217616864131
 40
18.22944101267299
 40
18.52245572505928
 40
18.81546402389554
 40
19.10416055727092
 40
19.39285036661251
 40
19.67769541599281
 40
19.96253439476175
 40
20.24448638392307
 40
20.52643408262515
 40
20.80683375518759
 40
21.08723186070466
 40
21.08723186070466
 40
21.08723186070466
 40
21.08723186070466
 10
134.7572704266853
 20
574.565964088928
 30
0.0
 10
134.7546890408792
 20
574.6594646289702
 30
0.0
 10
134.7495262601746
 20
574.8464662317722
 30
0.0
 10
134.7080539116112
 20
575.1249506429656
 30
0.0
 10
134.6421537517694
 20
575.3988928401179
 30
0.0
 10
134.5499216428123
 20
575.666821005887
 30
0.0
 10
134.4328394536834
 20
575.9258667937573
 30
0.0
 10
134.2913631722844
 20
576.1750260881743
 30
0.0
 10
134.127080826448
 20
576.4113361085884
 30
0.0
 10
133.9406206783693
 20
576.6341111027261
 30
0.0
 10
133.7341962035563
 20
576.840567135232
 30
0.0
 10
133.5084785092329
 20
577.0301798790724
 30
0.0
 10
133.2661877109878
 20
577.2005790551905
 30
0.0
 10
133.008130218244
 20
577.3512918629865
 30
0.0
 10
132.7373030148513
 20
577.4805149996954
 30
0.0
 10
132.4547861614382
 20
577.5877946730608
 30
0.0
 10
132.1635981909232
 20
577.6719491767941
 30
0.0
 10
131.8652194180818
 20
577.7325924508016
 30
0.0
 10
131.5624584462708
 20
577.7691262132483
 30
0.0
 10
131.2572704360883
 20
577.78134524416
 30
0.0
 10
130.9520824259036
 20
577.7691262135983
 30
0.0
 10
130.6493214540771
 20
577.7325924515028
 30
0.0
 10
130.3509426812343
 20
577.6719491778483
 30
0.0
 10
130.0597547106303
 20
577.5877946744713
 30
0.0
 10
129.7772378574142
 20
577.4805150014669
 30
0.0
 10
129.5064106531181
 20
577.3512918651234
 30
0.0
 10
129.2483531634916
 20
577.2005790576999
 30
0.0
 10
129.0060623534352
 20
577.0301798819607
 30
0.0
 10
128.7803447022733
 20
576.8405671385095
 30
0.0
 10
128.5739200672794
 20
576.634111106403
 30
0.0
 10
128.3874605081312
 20
576.4113361126789
 30
0.0
 10
128.2231759804456
 20
576.1750260926976
 30
0.0
 10
128.0817077373974
 20
575.925866798743
 30
0.0
 10
127.9645957338136
 20
575.6668210113825
 30
0.0
 10
127.8724738153546
 20
575.3988928462488
 30
0.0
 10
127.8061640497969
 20
575.124950650049
 30
0.0
 10
127.7662123847071
 20
574.846466237012
 30
0.0
 10
127.7527994750864
 20
574.5659640889281
 30
0.0
 10
127.7662123847072
 20
574.2854619408437
 30
0.0
 10
127.8061640497969
 20
574.0069775278073
 30
0.0
 10
127.8724738153545
 20
573.7330353316073
 30
0.0
 10
127.9645957338137
 20
573.4651071664737
 30
0.0
 10
128.0817077373973
 20
573.2060613791132
 30
0.0
 10
128.2231759804456
 20
572.9569020851588
 30
0.0
 10
128.3874605081312
 20
572.7205920651768
 30
0.0
 10
128.5739200672794
 20
572.4978170714535
 30
0.0
 10
128.7803447022733
 20
572.2913610393465
 30
0.0
 10
129.0060623534352
 20
572.1017482958954
 30
0.0
 10
129.2483531634915
 20
571.931349120156
 30
0.0
 10
129.5064106531181
 20
571.7806363127329
 30
0.0
 10
129.7772378574143
 20
571.6514131763893
 30
0.0
 10
130.0597547106303
 20
571.5441335033847
 30
0.0
 10
130.3509426812342
 20
571.4599790000075
 30
0.0
 10
130.6493214540772
 20
571.3993357263533
 30
0.0
 10
130.9520824259036
 20
571.3628019642578
 30
0.0
 10
131.2572704360883
 20
571.350582933696
 30
0.0
 10
131.5624584462708
 20
571.3628019646078
 30
0.0
 10
131.8652194180818
 20
571.3993357270542
 30
0.0
 10
132.1635981909231
 20
571.4599790010622
 30
0.0
 10
132.4547861614382
 20
571.5441335047954
 30
0.0
 10
132.7373030148513
 20
571.6514131781605
 30
0.0
 10
133.008130218244
 20
571.7806363148695
 30
0.0
 10
133.2661877109878
 20
571.9313491226656
 30
0.0
 10
133.508478509233
 20
572.1017482987837
 30
0.0
 10
133.7341962035562
 20
572.2913610426239
 30
0.0
 10
133.9406206783693
 20
572.49781707513
 30
0.0
 10
134.127080826448
 20
572.7205920692678
 30
0.0
 10
134.2913631722844
 20
572.9569020896818
 30
0.0
 10
134.4328394536834
 20
573.2060613840988
 30
0.0
 10
134.5499216428123
 20
573.4651071719693
 30
0.0
 10
134.6421537517695
 20
573.733035337738
 30
0.0
 10
134.7080539116111
 20
574.0069775348907
 30
0.0
 10
134.7495262601747
 20
574.2854619460836
 30
0.0
 10
134.7546890408792
 20
574.4724635488859
 30
0.0
 10
134.7572704266853
 20
574.565964088928
 30
0.0
 11
134.7572704266853
 21
574.565964088928
 31
0.0
 11
134.7439176413872
 21
574.8460440877976
 31
0.0
 11
134.704097562228
 21
575.1236018961763
 31
0.0
 11
134.637837979504
 21
575.3976533005552
 31
0.0
 11
134.546194599436
 21
575.6642961608296
 31
0.0
 11
134.4289465991509
 21
575.9238845853657
 31
0.0
 11
134.2883593399309
 21
576.1716181612612
 31
0.0
 11
134.1236621445788
 21
576.4087186458702
 31
0.0
 11
133.9384259776017
 21
576.630153175205
 31
0.0
 11
133.7313331006865
 21
576.8374365645147
 31
0.0
 11
133.5070270605883
 21
577.0259688482923
 31
0.0
 11
133.2639322298875
 21
577.197057394866
 31
0.0
 11
133.0072704266853
 21
577.347038521589
 31
0.0
 11
132.7356822067142
 21
577.4767153014633
 31
0.0
 11
132.4543409283252
 21
577.5836066555406
 31
0.0
 11
132.1626234447798
 21
577.667972716871
 31
0.0
 11
131.8650390485196
 21
577.7284852471066
 31
0.0
 11
131.5621333139853
 21
577.7650641956695
 31
0.0
 11
131.2572704266853
 21
577.7772722335943
 31
0.0
 11
130.9524075393854
 21
577.7650641956695
 31
0.0
 11
130.6495018048512
 21
577.7284852471066
 31
0.0
 11
130.351917408591
 21
577.6679727168708
 31
0.0
 11
130.0601999250456
 21
577.5836066555406
 31
0.0
 11
129.7788586466566
 21
577.4767153014633
 31
0.0
 11
129.5072704266855
 21
577.347038521589
 31
0.0
 11
129.2506086234834
 21
577.197057394866
 31
0.0
 11
129.0075137927826
 21
577.0259688482923
 31
0.0
 11
128.7832077526843
 21
576.8374365645147
 31
0.0
 11
128.5761148757691
 21
576.630153175205
 31
0.0
 11
128.390878708792
 21
576.4087186458702
 31
0.0
 11
128.2261815134399
 21
576.1716181612612
 31
0.0
 11
128.08559425422
 21
575.9238845853657
 31
0.0
 11
127.9683462539348
 21
575.6642961608297
 31
0.0
 11
127.8767028738666
 21
575.3976533005552
 31
0.0
 11
127.8104432911426
 21
575.1236018961763
 31
0.0
 11
127.7706232119835
 21
574.8460440877976
 31
0.0
 11
127.7572704266855
 21
574.565964088928
 31
0.0
 11
127.7706232119835
 21
574.2858840900584
 31
0.0
 11
127.8104432911426
 21
574.0083262816797
 31
0.0
 11
127.8767028738666
 21
573.7342748773008
 31
0.0
 11
127.9683462539348
 21
573.4676320170264
 31
0.0
 11
128.08559425422
 21
573.2080435924903
 31
0.0
 11
128.2261815134399
 21
572.9603100165949
 31
0.0
 11
128.390878708792
 21
572.723209531986
 31
0.0
 11
128.5761148757691
 21
572.5017750026511
 31
0.0
 11
128.7832077526843
 21
572.2944916133413
 31
0.0
 11
129.0075137927826
 21
572.1059593295637
 31
0.0
 11
129.2506086234834
 21
571.9348707829901
 31
0.0
 11
129.5072704266855
 21
571.7848896562672
 31
0.0
 11
129.7788586466566
 21
571.6552128763929
 31
0.0
 11
130.0601999250456
 21
571.5483215223154
 31
0.0
 11
130.351917408591
 21
571.4639554609851
 31
0.0
 11
130.6495018048512
 21
571.4034429307494
 31
0.0
 11
130.9524075393854
 21
571.3668639821865
 31
0.0
 11
131.2572704266853
 21
571.3546559442617
 31
0.0
 11
131.5621333139853
 21
571.3668639821865
 31
0.0
 11
131.8650390485196
 21
571.4034429307494
 31
0.0
 11
132.1626234447798
 21
571.4639554609852
 31
0.0
 11
132.4543409283252
 21
571.5483215223154
 31
0.0
 11
132.7356822067142
 21
571.6552128763927
 31
0.0
 11
133.0072704266853
 21
571.7848896562672
 31
0.0
 11
133.2639322298875
 21
571.9348707829902
 31
0.0
 11
133.5070270605883
 21
572.1059593295637
 31
0.0
 11
133.7313331006865
 21
572.2944916133414
 31
0.0
 11
133.9384259776017
 21
572.5017750026511
 31
0.0
 11
134.1236621445788
 21
572.723209531986
 31
0.0
 11
134.2883593399309
 21
572.9603100165949
 31
0.0
 11
134.4289465991509
 21
573.2080435924904
 31
0.0
 11
134.546194599436
 21
573.4676320170264
 31
0.0
 11
134.6378379795041
 21
573.7342748773008
 31
0.0
 11
134.704097562228
 21
574.0083262816797
 31
0.0
 11
134.7439176413872
 21
574.2858840900584
 31
0.0
 11
134.7572704266853
 21
574.565964088928
 31
0.0
  0
SPLINE
  5
FD
330
4D
100
AcDbEntity
  8
1
  6
Continuous
 62
     7
100
AcDbSpline
210
0.0
220
0.0
230
1.0
 70
     8
 71
     3
 72
    29
 73
    25
 74
    23
 42
0.000000001
 43
0.0000000001
 44
0.00000001
 40
0.0
 40
0.0
 40
0.0
 40
0.0
 40
0.6069077071335492
 40
1.212222618922018
 40
1.842666699980907
 40
2.474631891987722
 40
3.10242016313491
 40
3.729333881624564
 40
4.271042929453234
 40
4.812985317241511
 40
5.340107969104173
 40
5.86624891494876
 40
6.263874824440282
 40
6.66148522272667
 40
7.280966483141082
 40
7.902596723210243
 40
8.549168899022675
 40
9.195896755584794
 40
9.722415956711943
 40
10.24911839923916
 40
11.07897535377072
 40
11.90732205839653
 40
12.67331707894447
 40
13.44191268485664
 40
13.44191268485664
 40
13.44191268485664
 40
13.44191268485664
 10
134.7572704266853
 20
563.3076338397303
 30
0.0
 10
134.7473950533213
 20
563.5096936672761
 30
0.0
 10
134.7276702121086
 20
563.9132830269531
 30
0.0
 10
134.6638798638874
 20
564.5249885750372
 30
0.0
 10
134.5296965661468
 20
565.1344056361789
 30
0.0
 10
134.3292409466204
 20
565.7328118111574
 30
0.0
 10
134.0706798303901
 20
566.3073743426311
 30
0.0
 10
133.7617504412859
 20
566.8222721399999
 30
0.0
 10
133.4079335173413
 20
567.2712910137558
 30
0.0
 10
133.0199088498243
 20
567.6452326160536
 30
0.0
 10
132.5829784467493
 20
567.9521985173607
 30
0.0
 10
132.142764480313
 20
568.1595071747995
 30
0.0
 10
131.7160553602606
 20
568.2754097630204
 30
0.0
 10
131.2451399184584
 20
568.3261129678975
 30
0.0
 10
130.6961653262176
 20
568.2656566446567
 30
0.0
 10
130.0984192608958
 20
568.0527094130271
 30
0.0
 10
129.5568170157553
 20
567.705472475875
 30
0.0
 10
129.1162090483653
 20
567.2841147502949
 30
0.0
 10
128.7663351253957
 20
566.8367012603145
 30
0.0
 10
128.4374247430541
 20
566.3008648747693
 30
0.0
 10
128.1336861226522
 20
565.6359738253836
 30
0.0
 10
127.9089162569358
 20
564.8563127647467
 30
0.0
 10
127.8045294575451
 20
564.0739071486427
 30
0.0
 10
127.773106967039
 20
563.5633466824688
 30
0.0
 10
127.7573691027723
 20
563.3076338397303
 30
0.0
 11
134.7572704266853
 21
563.3076338397303
 31
0.0
 11
134.722069560923
 21
563.9135198614886
 31
0.0
 11
134.6537125688388
 21
564.5149626809699
 31
0.0
 11
134.5190360830145
 21
565.130853892711
 31
0.0
 11
134.3189711910694
 21
565.7303153542597
 31
0.0
 11
134.0595899528192
 21
566.3020141275798
 31
0.0
 11
133.7353699980412
 21
566.838579344593
 31
0.0
 11
133.3987608580601
 21
567.2630118833721
 31
0.0
 11
133.0072704266853
 21
567.6377608586525
 31
0.0
 11
132.5749252654668
 21
567.9393167446126
 31
0.0
 11
132.0979228798507
 21
568.1613370584463
 31
0.0
 11
131.7140738497211
 21
568.2650977755894
 31
0.0
 11
131.3186623039068
 21
568.3068558734102
 31
0.0
 11
130.7025578496969
 21
568.2422622617887
 31
0.0
 11
130.1166236794201
 21
568.0346440916373
 31
0.0
 11
129.5700220455062
 21
567.6892714907824
 31
0.0
 11
129.1000460654258
 21
567.2449973641794
 31
0.0
 11
128.7745714178546
 21
566.8311269454048
 31
0.0
 11
128.4976659196749
 21
566.3830880981806
 31
0.0
 11
128.1527038314974
 21
565.6283273915432
 31
0.0
 11
127.9240263417511
 21
564.832171081155
 31
0.0
 11
127.8137062127364
 21
564.0741619505554
 31
0.0
 11
127.7573691027723
 21
563.3076338397303
 31
0.0
  0
ARC
  5
FE
330
4D
100
AcDbEntity
  8
1
  6
Continuous
 62
     7
100
AcDbCircle
 10
140.5709789256702
 20
574.8076338397303
 30
0.0
 40
2.999999999999984
100
AcDbArc
 50
225.0000000000008
 51
270.0
  0
ARC
  5
FF
330
4D
100
AcDbEntity
  8
1
  6
Continuous
 62
     7
100
AcDbCircle
 10
145.2572704266853
 20
570.8076338397303
 30
0.0
 40
1.0
100
AcDbArc
 50
0.0
 51
90.0
  0
ARC
  5
100
330
4D
100
AcDbEntity
  8
1
  6
Continuous
 62
     7
100
AcDbCircle
 10
145.2572704266853
 20
555.8076338397304
 30
0.0
 40
1.0
100
AcDbArc
 50
270.0
 51
0.0
  0
ARC
  5
101
330
4D
100
AcDbEntity
  8
1
  6
Continuous
 62
     7
100
AcDbCircle
 10
140.5709789256702
 20
551.8076338397304
 30
0.0
 40
3.0
100
AcDbArc
 50
90.0
 51
135.0000000000008
  0
ARC
  5
102
330
4D
100
AcDbEntity
  8
1
  6
Continuous
 62
     7
100
AcDbCircle
 10
140.570880249583
 20
216.4659284573583
 30
0.0
 40
3.0
100
AcDbArc
 50
89.99999999999622
 51
134.9999999999962
  0
ARC
  5
103
330
4D
100
AcDbEntity
  8
1
  6
Continuous
 62
     7
100
AcDbCircle
 10
145.2571717505984
 20
220.4659284573583
 30
0.0
 40
1.0
100
AcDbArc
 50
270.0000000000065
 51
0.0
  0
ARC
  5
104
330
4D
100
AcDbEntity
  8
1
  6
Continuous
 62
     7
100
AcDbCircle
 10
145.2571717505987
 20
235.4659284573586
 30
0.0
 40
0.9999999999998863
100
AcDbArc
 50
359.9999999999886
 51
90.0000000000114
  0
ARC
  5
105
330
4D
100
AcDbEntity
  8
1
  6
Continuous
 62
     7
100
AcDbCircle
 10
140.5708802495835
 20
239.4659284573586
 30
0.0
 40
2.999999999999924
100
AcDbArc
 50
224.9999999999996
 51
269.9999999999984
  0
ENDBLK
  5
4F
330
4D
100
AcDbEntity
  8
0
100
AcDbBlockEnd
  0
BLOCK
  5
53
330
50
100
AcDbEntity
  8
0
100
AcDbBlockBegin
  2
U360S-13
 70
     0
 10
489.8403318129679
 20
572.742842891623
 30
0.0
  3
U360S-13
  1

  0
INSERT
  5
51
330
50
100
AcDbEntity
  8
1
100
AcDbBlockReference
  2
36-190-M11
 10
426.243415395799
 20
1003.802331807142
 30
0.0
 41
1.0
 42
1.0
 43
1.0
  0
INSERT
  5
52
330
50
100
AcDbEntity
  8
1
100
AcDbBlockReference
  2
37-119
 10
623.9661316756566
 20
740.9902526749137
 30
0.0
 41
1.0
 42
1.0
 43
1.0
  0
ENDBLK
  5
54
330
50
100
AcDbEntity
  8
0
100
AcDbBlockEnd
  0
BLOCK
  5
56
330
55
100
AcDbEntity
  8
0
100
AcDbBlockBegin
  2
42-29
 70
     0
 10
325.2237530811045
 20
501.9970761096863
 30
0.0
  3
42-29
  1

  0
LINE
  5
106
330
55
100
AcDbEntity
  8
1
  6
Continuous
 62
     2
100
AcDbLine
 10
173.1527263044976
 20
222.9659284573585
 30
0.0
 11
174.8362236615437
 21
222.9659284573585
 31
0.0
  0
LINE
  5
107
330
55
100
AcDbEntity
  8
1
  6
Continuous
 62
     7
100
AcDbLine
 10
175.0603014824438
 20
220.9659284573585
 30
0.0
 11
173.0527263044976
 21
220.9659284573585
 31
0.0
  0
LINE
  5
108
330
55
100
AcDbEntity
  8
1
  6
Continuous
 62
     2
100
AcDbLine
 10
173.0527263044976
 20
221.9659284573585
 30
0.0
 11
175.0362236615437
 21
221.9659284573585
 31
0.0
  0
LINE
  5
109
330
55
100
AcDbEntity
  8
1
  6
Continuous
 62
     2
100
AcDbLine
 10
173.2639009568724
 20
223.9659284573585
 30
0.0
 11
174.7503172194665
 21
223.9659284494433
 31
0.0
  0
LINE
  5
10A
330
55
100
AcDbEntity
  8
1
  6
Continuous
 62
     7
100
AcDbLine
 10
175.0362236615437
 20
220.9659284573585
 30
0.0
 11
175.0362236615437
 21
223.9659284573586
 31
0.0
  0
LINE
  5
10B
330
55
100
AcDbEntity
  8
1
  6
Continuous
 62
     2
100
AcDbLine
 10
174.7503172194665
 20
231.9659284652738
 30
0.0
 11
173.2639009568724
 21
231.9659284573585
 31
0.0
  0
LINE
  5
10C
330
55
100
AcDbEntity
  8
1
  6
Continuous
 62
     7
100
AcDbLine
 10
173.0527263044976
 20
234.9659284573585
 30
0.0
 11
173.0527263044975
 21
231.9659284573585
 31
0.0
  0
LINE
  5
10D
330
55
100
AcDbEntity
  8
1
  6
Continuous
 62
     2
100
AcDbLine
 10
175.0362236615437
 20
233.9659284573585
 30
0.0
 11
173.0527263044976
 21
233.9659284573585
 31
0.0
  0
LINE
  5
10E
330
55
100
AcDbEntity
  8
1
  6
Continuous
 62
     7
100
AcDbLine
 10
173.0527263044976
 20
234.9659284573585
 30
0.0
 11
175.0603014824438
 21
234.9659284573585
 31
0.0
  0
LINE
  5
10F
330
55
100
AcDbEntity
  8
1
  6
Continuous
 62
     2
100
AcDbLine
 10
174.8362236615437
 20
232.9659284573585
 30
0.0
 11
173.1527263044976
 21
232.9659284573585
 31
0.0
  0
LINE
  5
110
330
55
100
AcDbEntity
  8
1
  6
Continuous
 62
     7
100
AcDbLine
 10
173.0527263044976
 20
223.9659284573586
 30
0.0
 11
173.0527263044976
 21
220.9659284573585
 31
0.0
  0
LINE
  5
111
330
55
100
AcDbEntity
  8
1
  6
Continuous
 62
     7
100
AcDbLine
 10
175.0362236615437
 20
231.9659284573585
 30
0.0
 11
175.0362236615437
 21
234.9659284573585
 31
0.0
  0
LINE
  5
112
330
55
100
AcDbEntity
  8
1
  6
Continuous
 62
     2
100
AcDbLine
 10
173.3848229294006
 20
224.9659284573585
 30
0.0
 11
174.5592888656836
 21
224.9659284573585
 31
0.0
  0
LINE
  5
113
330
55
100
AcDbEntity
  8
1
  6
Continuous
 62
     7
100
AcDbLine
 10
173.0527263044976
 20
227.9659284573585
 30
0.0
 11
173.0527263044976
 21
223.9659284573586
 31
0.0
  0
LINE
  5
114
330
55
100
AcDbEntity
  8
1
  6
Continuous
 62
     7
100
AcDbLine
 10
175.0362236615437
 20
227.9659284573585
 30
0.0
 11
175.0362236615437
 21
231.9659284573585
 31
0.0
  0
LINE
  5
115
330
55
100
AcDbEntity
  8
1
  6
Continuous
 62
     7
100
AcDbLine
 10
173.0527263044975
 20
231.9659284573585
 30
0.0
 11
173.0527263044976
 21
227.9659284573585
 31
0.0
  0
LINE
  5
116
330
55
100
AcDbEntity
  8
1
  6
Continuous
 62
     7
100
AcDbLine
 10
175.0362236615437
 20
223.9659284573586
 30
0.0
 11
175.0362236615437
 21
227.9659284573585
 31
0.0
  0
LINE
  5
117
330
55
100
AcDbEntity
  8
1
  6
Continuous
 62
     2
100
AcDbLine
 10
174.1741272649731
 20
226.9659284573585
 30
0.0
 11
173.7457792918424
 21
226.9659284573585
 31
0.0
  0
LINE
  5
118
330
55
100
AcDbEntity
  8
1
  6
Continuous
 62
     2
100
AcDbLine
 10
174.3616717050217
 20
225.9659284573585
 30
0.0
 11
173.6011629390273
 21
225.9659284573585
 31
0.0
  0
LINE
  5
119
330
55
100
AcDbEntity
  8
1
  6
Continuous
 62
     2
100
AcDbLine
 10
173.8741272649732
 20
227.9659284573585
 30
0.0
 11
173.4457792918424
 21
227.9659284573585
 31
0.0
  0
LINE
  5
11A
330
55
100
AcDbEntity
  8
1
  6
Continuous
 62
     2
100
AcDbLine
 10
173.7457792918424
 20
228.9659284573585
 30
0.0
 11
174.1741272649731
 21
228.9659284573585
 31
0.0
  0
LINE
  5
11B
330
55
100
AcDbEntity
  8
1
  6
Continuous
 62
     2
100
AcDbLine
 10
173.6011629390273
 20
229.9659284573585
 30
0.0
 11
174.3616717050217
 21
229.9659284573585
 31
0.0
  0
LINE
  5
11C
330
55
100
AcDbEntity
  8
1
  6
Continuous
 62
     2
100
AcDbLine
 10
174.5592888656836
 20
230.9659284573585
 30
0.0
 11
173.3848229294006
 21
230.9659284573585
 31
0.0
  0
LINE
  5
11D
330
55
100
AcDbEntity
  8
1
  6
Continuous
 62
     2
100
AcDbLine
 10
174.5592888656836
 20
566.3076338397301
 30
0.0
 11
173.3848229294006
 21
566.3076338397301
 31
0.0
  0
LINE
  5
11E
330
55
100
AcDbEntity
  8
1
  6
Continuous
 62
     2
100
AcDbLine
 10
173.6011629390273
 20
565.3076338397301
 30
0.0
 11
174.3616717050217
 21
565.3076338397301
 31
0.0
  0
LINE
  5
11F
330
55
100
AcDbEntity
  8
1
  6
Continuous
 62
     2
100
AcDbLine
 10
173.7457792918424
 20
564.3076338397301
 30
0.0
 11
174.1741272649731
 21
564.3076338397301
 31
0.0
  0
LINE
  5
120
330
55
100
AcDbEntity
  8
1
  6
Continuous
 62
     2
100
AcDbLine
 10
173.8741272649732
 20
563.3076338397301
 30
0.0
 11
173.4457792918424
 21
563.3076338397301
 31
0.0
  0
LINE
  5
121
330
55
100
AcDbEntity
  8
1
  6
Continuous
 62
     2
100
AcDbLine
 10
174.3616717050217
 20
561.3076338397301
 30
0.0
 11
173.6011629390273
 21
561.3076338397301
 31
0.0
  0
LINE
  5
122
330
55
100
AcDbEntity
  8
1
  6
Continuous
 62
     2
100
AcDbLine
 10
174.1741272649731
 20
562.3076338397301
 30
0.0
 11
173.7457792918424
 21
562.3076338397301
 31
0.0
  0
LINE
  5
123
330
55
100
AcDbEntity
  8
1
  6
Continuous
 62
     7
100
AcDbLine
 10
175.0362236615437
 20
559.3076338397302
 30
0.0
 11
175.0362236615437
 21
563.3076338397301
 31
0.0
  0
LINE
  5
124
330
55
100
AcDbEntity
  8
1
  6
Continuous
 62
     7
100
AcDbLine
 10
173.0527263044975
 20
567.3076338397301
 30
0.0
 11
173.0527263044976
 21
563.3076338397301
 31
0.0
  0
LINE
  5
125
330
55
100
AcDbEntity
  8
1
  6
Continuous
 62
     7
100
AcDbLine
 10
175.0362236615437
 20
563.3076338397301
 30
0.0
 11
175.0362236615437
 21
567.3076338397301
 31
0.0
  0
LINE
  5
126
330
55
100
AcDbEntity
  8
1
  6
Continuous
 62
     7
100
AcDbLine
 10
173.0527263044976
 20
563.3076338397301
 30
0.0
 11
173.0527263044976
 21
559.3076338397302
 31
0.0
  0
LINE
  5
127
330
55
100
AcDbEntity
  8
1
  6
Continuous
 62
     2
100
AcDbLine
 10
173.3848229294006
 20
560.3076338397301
 30
0.0
 11
174.5592888656836
 21
560.3076338397301
 31
0.0
  0
LINE
  5
128
330
55
100
AcDbEntity
  8
1
  6
Continuous
 62
     7
100
AcDbLine
 10
175.0362236615437
 20
567.3076338397301
 30
0.0
 11
175.0362236615437
 21
570.3076338397301
 31
0.0
  0
LINE
  5
129
330
55
100
AcDbEntity
  8
1
  6
Continuous
 62
     7
100
AcDbLine
 10
173.0527263044976
 20
559.3076338397302
 30
0.0
 11
173.0527263044976
 21
556.3076338397301
 31
0.0
  0
LINE
  5
12A
330
55
100
AcDbEntity
  8
1
  6
Continuous
 62
     2
100
AcDbLine
 10
174.8362236615437
 20
568.3076338397301
 30
0.0
 11
173.1527263044976
 21
568.3076338397301
 31
0.0
  0
LINE
  5
12B
330
55
100
AcDbEntity
  8
1
  6
Continuous
 62
     7
100
AcDbLine
 10
173.0527263044976
 20
570.3076338397301
 30
0.0
 11
175.0603014824438
 21
570.3076338397301
 31
0.0
  0
LINE
  5
12C
330
55
100
AcDbEntity
  8
1
  6
Continuous
 62
     2
100
AcDbLine
 10
175.0362236615437
 20
569.3076338397301
 30
0.0
 11
173.0527263044976
 21
569.3076338397301
 31
0.0
  0
LINE
  5
12D
330
55
100
AcDbEntity
  8
1
  6
Continuous
 62
     7
100
AcDbLine
 10
173.0527263044976
 20
570.3076338397301
 30
0.0
 11
173.0527263044975
 21
567.3076338397301
 31
0.0
  0
LINE
  5
12E
330
55
100
AcDbEntity
  8
1
  6
Continuous
 62
     2
100
AcDbLine
 10
174.7503172194665
 20
567.3076338476454
 30
0.0
 11
173.2639009568724
 21
567.3076338397301
 31
0.0
  0
LINE
  5
12F
330
55
100
AcDbEntity
  8
1
  6
Continuous
 62
     7
100
AcDbLine
 10
175.0362236615437
 20
556.3076338397301
 30
0.0
 11
175.0362236615437
 21
559.3076338397302
 31
0.0
  0
LINE
  5
130
330
55
100
AcDbEntity
  8
1
  6
Continuous
 62
     2
100
AcDbLine
 10
173.2639009568724
 20
559.3076338397301
 30
0.0
 11
174.7503172194665
 21
559.3076338318149
 31
0.0
  0
LINE
  5
131
330
55
100
AcDbEntity
  8
1
  6
Continuous
 62
     2
100
AcDbLine
 10
173.0527263044976
 20
557.3076338397301
 30
0.0
 11
175.0362236615437
 21
557.3076338397301
 31
0.0
  0
LINE
  5
132
330
55
100
AcDbEntity
  8
1
  6
Continuous
 62
     7
100
AcDbLine
 10
175.0603014824438
 20
556.3076338397301
 30
0.0
 11
173.0527263044976
 21
556.3076338397301
 31
0.0
  0
LINE
  5
133
330
55
100
AcDbEntity
  8
1
  6
Continuous
 62
     2
100
AcDbLine
 10
173.1527263044976
 20
558.3076338397301
 30
0.0
 11
174.8362236615437
 21
558.3076338397301
 31
0.0
  0
ARC
  5
134
330
55
100
AcDbEntity
  8
0
  6
Continuous
 62
     7
100
AcDbCircle
 10
125.5527263044963
 20
227.9659284573585
 30
0.0
 40
50.00000000000124
100
AcDbArc
 50
4.58856573578572
 51
8.04784624731132
  0
ARC
  5
135
330
55
100
AcDbEntity
  8
0
  6
Continuous
 62
     7
100
AcDbCircle
 10
125.5527263044963
 20
227.9659284573585
 30
0.0
 40
50.00000000000124
100
AcDbArc
 50
351.9521537526887
 51
355.4114342642144
  0
ARC
  5
136
330
55
100
AcDbEntity
  8
0
  6
Continuous
 62
     7
100
AcDbCircle
 10
125.5527263044963
 20
227.9659284573585
 30
0.0
 40
50.00000000000134
100
AcDbArc
 50
355.4114342642144
 51
0.0
  0
ARC
  5
137
330
55
100
AcDbEntity
  8
0
  6
Continuous
 62
     7
100
AcDbCircle
 10
125.5527263044963
 20
227.9659284573585
 30
0.0
 40
50.00000000000131
100
AcDbArc
 50
0.0
 51
4.58856573578572
  0
ARC
  5
138
330
55
100
AcDbEntity
  8
0
  6
Continuous
 62
     7
100
AcDbCircle
 10
125.5527263044963
 20
563.3076338397301
 30
0.0
 40
50.00000000000131
100
AcDbArc
 50
0.0
 51
4.58856573578572
  0
ARC
  5
139
330
55
100
AcDbEntity
  8
0
  6
Continuous
 62
     7
100
AcDbCircle
 10
125.5527263044963
 20
563.3076338397301
 30
0.0
 40
50.00000000000134
100
AcDbArc
 50
355.4114342642144
 51
0.0
  0
ARC
  5
13A
330
55
100
AcDbEntity
  8
0
  6
Continuous
 62
     7
100
AcDbCircle
 10
125.5527263044963
 20
563.3076338397301
 30
0.0
 40
50.00000000000124
100
AcDbArc
 50
351.9521537526887
 51
355.4114342642144
  0
ARC
  5
13B
330
55
100
AcDbEntity
  8
0
  6
Continuous
 62
     7
100
AcDbCircle
 10
125.5527263044963
 20
563.3076338397301
 30
0.0
 40
50.00000000000124
100
AcDbArc
 50
4.58856573578572
 51
8.04784624731132
  0
CIRCLE
  5
13C
330
55
100
AcDbEntity
  8
1
  6
Continuous
 62
     7
100
AcDbCircle
 10
405.3975925059947
 20
227.9659284573584
 30
0.0
 40
7.000000000000114
  0
ENDBLK
  5
57
330
55
100
AcDbEntity
  8
0
100
AcDbBlockEnd
  0
BLOCK
  5
59
330
58
100
AcDbEntity
  8
0
100
AcDbBlockBegin
  2
32-1-16
 70
     0
 10
177.0445485331941
 20
486.0008396999621
 30
0.0
  3
32-1-16
  1

  0
LINE
  5
13D
330
58
100
AcDbEntity
  8
1
  6
Continuous
 62
     7
100
AcDbLine
 10
401.0675925059935
 20
252.9659284573577
 30
0.0
 11
392.097592505994
 21
252.9659284573577
 31
0.0
  0
LINE
  5
13E
330
58
100
AcDbEntity
  8
1
  6
Continuous
 62
     7
100
AcDbLine
 10
401.3675925059934
 20
262.9659284573577
 30
0.0
 11
395.6296433135629
 21
262.9659284573577
 31
0.0
  0
LINE
  5
13F
330
58
100
AcDbEntity
  8
1
  6
Continuous
 62
     7
100
AcDbLine
 10
411.6021706628985
 20
252.9659284573577
 30
0.0
 11
409.7275925059935
 21
252.9659284573577
 31
0.0
  0
LINE
  5
140
330
58
100
AcDbEntity
  8
1
  6
Continuous
 62
     7
100
AcDbLine
 10
416.897592505994
 20
261.9659284573577
 30
0.0
 11
416.9556135677246
 21
261.9659284573577
 31
0.0
  0
LINE
  5
141
330
58
100
AcDbEntity
  8
1
  6
Continuous
 62
     7
100
AcDbLine
 10
392.210592505994
 20
252.9659284573577
 30
0.0
 11
392.097592505994
 21
252.9659284573577
 31
0.0
  0
LINE
  5
142
330
58
100
AcDbEntity
  8
1
  6
Continuous
 62
     7
100
AcDbLine
 10
393.8395714442634
 20
261.9659284573577
 30
0.0
 11
393.897592505994
 21
261.9659284573577
 31
0.0
  0
LINE
  5
143
330
58
100
AcDbEntity
  8
1
  6
Continuous
 62
     7
100
AcDbLine
 10
418.697592505994
 20
252.9659284573577
 30
0.0
 11
411.6021706628985
 21
252.9659284573577
 31
0.0
  0
LINE
  5
144
330
58
100
AcDbEntity
  8
1
  6
Continuous
 62
     7
100
AcDbLine
 10
415.1655416984252
 20
262.9659284573577
 30
0.0
 11
409.4275925059935
 21
262.9659284573577
 31
0.0
  0
LINE
  5
145
330
58
100
AcDbEntity
  8
1
  6
Continuous
 62
     7
100
AcDbLine
 10
391.397592505994
 20
253.5376772785279
 30
0.0
 11
391.397592505994
 21
260.6791057070708
 31
0.0
  0
LINE
  5
146
330
58
100
AcDbEntity
  8
1
  6
Continuous
 62
     7
100
AcDbLine
 10
419.397592505994
 20
260.6791057070707
 30
0.0
 11
419.397592505994
 21
253.5376772785279
 31
0.0
  0
LINE
  5
147
330
58
100
AcDbEntity
  8
1
  6
Continuous
 62
     7
100
AcDbLine
 10
90.69924936495488
 20
261.9659284573585
 30
0.0
 11
90.7572704266855
 21
261.9659284573585
 31
0.0
  0
LINE
  5
148
330
58
100
AcDbEntity
  8
1
  6
Continuous
 62
     7
100
AcDbLine
 10
89.07027042668551
 20
252.9659284573585
 30
0.0
 11
88.9572704266854
 21
252.9659284573585
 31
0.0
  0
LINE
  5
149
330
58
100
AcDbEntity
  8
1
  6
Continuous
 62
     7
100
AcDbLine
 10
88.9572704266854
 20
252.9659284573585
 30
0.0
 11
102.2572704266855
 21
252.9659284573585
 31
0.0
  0
LINE
  5
14A
330
58
100
AcDbEntity
  8
1
  6
Continuous
 62
     7
100
AcDbLine
 10
108.9093377745105
 20
577.3076338397302
 30
0.0
 11
95.6052030788604
 21
577.3076338397302
 31
0.0
  0
LINE
  5
14B
330
58
100
AcDbEntity
  8
1
  6
Continuous
 62
     7
100
AcDbLine
 10
117.70765975358
 20
564.5467745288288
 30
0.0
 11
111.0555924057551
 21
576.0684931506316
 31
0.0
  0
LINE
  5
14C
330
58
100
AcDbEntity
  8
1
  6
Continuous
 62
     7
100
AcDbLine
 10
111.0555924057551
 20
550.5467745288288
 30
0.0
 11
117.70765975358
 21
562.0684931506316
 31
0.0
  0
LINE
  5
14D
330
58
100
AcDbEntity
  8
1
  6
Continuous
 62
     7
100
AcDbLine
 10
112.0252196191166
 20
262.9659284573585
 30
0.0
 11
110.0520183812068
 21
262.9659284573585
 31
0.0
  0
LINE
  5
14E
330
58
100
AcDbEntity
  8
1
  6
Continuous
 62
     7
100
AcDbLine
 10
113.7572704266855
 20
261.9659284573585
 30
0.0
 11
113.815291488416
 21
261.9659284573585
 31
0.0
  0
LINE
  5
14F
330
58
100
AcDbEntity
  8
1
  6
Continuous
 62
     7
100
AcDbLine
 10
115.5572704266855
 20
252.9659284573585
 30
0.0
 11
115.4442704266855
 21
252.9659284573585
 31
0.0
  0
LINE
  5
150
330
58
100
AcDbEntity
  8
1
  6
Continuous
 62
     7
100
AcDbLine
 10
102.2572704266855
 20
252.9659284573585
 30
0.0
 11
115.5572704266855
 21
252.9659284573585
 31
0.0
  0
LINE
  5
151
330
58
100
AcDbEntity
  8
1
  6
Continuous
 62
     7
100
AcDbLine
 10
94.41168777709919
 20
262.9659284573585
 30
0.0
 11
92.48932123425419
 21
262.9659284573585
 31
0.0
  0
LINE
  5
152
330
58
100
AcDbEntity
  8
1
  6
Continuous
 62
     7
100
AcDbLine
 10
93.458948447616
 20
576.0684931506316
 30
0.0
 11
86.8068810997911
 21
564.5467745288288
 31
0.0
  0
LINE
  5
153
330
58
100
AcDbEntity
  8
1
  6
Continuous
 62
     7
100
AcDbLine
 10
86.8068810997911
 20
562.0684931506316
 30
0.0
 11
93.458948447616
 21
550.5467745288288
 31
0.0
  0
ARC
  5
154
330
58
100
AcDbEntity
  8
1
  6
Continuous
 62
     7
100
AcDbCircle
 10
415.897592505994
 20
257.1083914927993
 30
0.0
 40
4.999999999999975
100
AcDbArc
 50
45.57299599919402
 51
74.66244233044624
  0
ARC
  5
155
330
58
100
AcDbEntity
  8
1
  6
Continuous
 62
     7
100
AcDbCircle
 10
394.897592505994
 20
257.1083914927993
 30
0.0
 40
4.999999999999975
100
AcDbArc
 50
225.572995999194
 51
235.9442022574319
  0
ARC
  5
156
330
58
100
AcDbEntity
  8
1
  6
Continuous
 62
     7
100
AcDbCircle
 10
394.897592505994
 20
257.1083914927993
 30
0.0
 40
5.000000000000094
100
AcDbArc
 50
105.3375576695538
 51
134.4270040008051
  0
ARC
  5
157
330
58
100
AcDbEntity
  8
1
  6
Continuous
 62
     7
100
AcDbCircle
 10
415.897592505994
 20
257.1083914927993
 30
0.0
 40
4.999999999999993
100
AcDbArc
 50
304.0557977425681
 51
314.427004000806
  0
ARC
  5
158
330
58
100
AcDbEntity
  8
1
  6
Continuous
 62
     7
100
AcDbCircle
 10
91.7572704266855
 20
257.1083914928001
 30
0.0
 40
5.000000000000204
100
AcDbArc
 50
105.3375576695534
 51
235.9442022574311
  0
ARC
  5
159
330
58
100
AcDbEntity
  8
1
  6
Continuous
 62
     7
100
AcDbCircle
 10
102.2572704266854
 20
563.3076338397302
 30
0.0
 40
15.50000000000002
100
AcDbArc
 50
55.41462091516065
 51
64.58537908483878
  0
ARC
  5
15A
330
58
100
AcDbEntity
  8
1
  6
Continuous
 62
     7
100
AcDbCircle
 10
102.2572704266854
 20
563.3076338397302
 30
0.0
 40
15.5
100
AcDbArc
 50
0.0
 51
4.58537908483916
  0
ARC
  5
15B
330
58
100
AcDbEntity
  8
1
  6
Continuous
 62
     7
100
AcDbCircle
 10
102.2572704266854
 20
563.3076338397302
 30
0.0
 40
15.50000000000005
100
AcDbArc
 50
301.0729509721536
 51
304.5853790848394
  0
ARC
  5
15C
330
58
100
AcDbEntity
  8
1
  6
Continuous
 62
     7
100
AcDbCircle
 10
102.2572704266854
 20
563.3076338397302
 30
0.0
 40
15.49999999999995
100
AcDbArc
 50
355.4146209151608
 51
0.0
  0
ARC
  5
15D
330
58
100
AcDbEntity
  8
1
  6
Continuous
 62
     7
100
AcDbCircle
 10
112.7572704266855
 20
257.1083914928001
 30
0.0
 40
4.999999999999993
100
AcDbArc
 50
304.0557977425681
 51
74.66244233044574
  0
ARC
  5
15E
330
58
100
AcDbEntity
  8
1
  6
Continuous
 62
     7
100
AcDbCircle
 10
102.2572704266854
 20
563.3076338397302
 30
0.0
 40
15.49999999999998
100
AcDbArc
 50
115.4146209151608
 51
124.5853790848384
  0
ARC
  5
15F
330
58
100
AcDbEntity
  8
1
  6
Continuous
 62
     7
100
AcDbCircle
 10
102.2572704266854
 20
563.3076338397302
 30
0.0
 40
15.49999999999964
100
AcDbArc
 50
175.4146209151608
 51
180.0
  0
ARC
  5
160
330
58
100
AcDbEntity
  8
1
  6
Continuous
 62
     7
100
AcDbCircle
 10
102.2572704266854
 20
563.3076338397302
 30
0.0
 40
15.49999999999985
100
AcDbArc
 50
235.4146209151616
 51
238.927049027847
  0
ARC
  5
161
330
58
100
AcDbEntity
  8
1
  6
Continuous
 62
     7
100
AcDbCircle
 10
102.2572704266854
 20
563.3076338397302
 30
0.0
 40
15.4999999999997
100
AcDbArc
 50
180.0
 51
184.5853790848392
  0
ARC
  5
162
330
58
100
AcDbEntity
  8
1
  6
Continuous
 62
     7
100
AcDbCircle
 10
102.2572704266854
 20
563.3076338397302
 30
0.0
 40
10.7679491924311
100
AcDbArc
 50
317.9829399353531
 51
89.99999999999947
  0
ARC
  5
163
330
58
100
AcDbEntity
  8
1
  6
Continuous
 62
     7
100
AcDbCircle
 10
102.2572704266854
 20
563.3076338397302
 30
0.0
 40
10.76794919243116
100
AcDbArc
 50
89.99999999999947
 51
222.0170600646476
  0
SPLINE
  5
164
330
58
100
AcDbEntity
  8
1
  6
Continuous
 62
     7
100
AcDbSpline
210
0.0
220
0.0
230
1.0
 70
     8
 71
     3
 72
    33
 73
    29
 74
    27
 42
0.000000001
 43
0.0000000001
 44
0.00000001
 40
0.0
 40
0.0
 40
0.0
 40
0.0
 40
0.240334150383046
 40
0.480882634943441
 40
0.9637794345035275
 40
1.446615567566752
 40
1.943097993426517
 40
2.439552371712087
 40
2.940659698457932
 40
3.441767025205938
 40
3.938221403495007
 40
4.434703829339163
 40
4.917539962299996
 40
5.40043676119743
 40
5.861649668268355
 40
6.322965705138398
 40
6.756216149613796
 40
7.189628066454553
 40
7.591047074602323
 40
7.992705750627968
 40
8.361813873940907
 40
8.731249877468782
 40
9.071882039855991
 40
9.412885789181546
 40
9.73369962163287
 40
10.05478093509287
 40
10.36854291755038
 40
10.68230489467734
 40
10.68230489467734
 40
10.68230489467734
 40
10.68230489467734
 10
409.5106192859374
 20
260.1983691258928
 30
0.0
 10
409.5862588906062
 20
260.2247853794981
 30
0.0
 10
409.7376055604833
 20
260.2776414339139
 30
0.0
 10
410.0452044970658
 20
260.3705885185602
 30
0.0
 10
410.4349612390541
 20
260.4703571670747
 30
0.0
 10
410.9136949458749
 20
260.5633063514727
 30
0.0
 10
411.4013516290302
 20
260.6298461993626
 30
0.0
 10
411.8979723138024
 20
260.6702217234636
 30
0.0
 10
412.3975923509007
 20
260.6835679178002
 30
0.0
 10
412.8972133753066
 20
260.6702237092528
 30
0.0
 10
413.3938311255205
 20
260.6298383399619
 30
0.0
 10
413.8814984493759
 20
260.5633354897946
 30
0.0
 10
414.360193541259
 20
260.4702516963121
 30
0.0
 10
414.8213894021706
 20
260.3527244658835
 30
0.0
 10
415.2677477001901
 20
260.2095404435455
 30
0.0
 10
415.6888522248452
 20
260.0445758323455
 30
0.0
 10
416.0894068700214
 20
259.8553588563295
 30
0.0
 10
416.4581034344756
 20
259.6477916614831
 30
0.0
 10
416.8007198179478
 20
259.4179198862326
 30
0.0
 10
417.1062673317867
 20
259.1735366261983
 30
0.0
 10
417.3804209325785
 20
258.9095052118759
 30
0.0
 10
417.6136605411455
 20
258.6347484512308
 30
0.0
 10
417.8105535971501
 20
258.3440458782621
 30
0.0
 10
417.9636026778272
 20
258.0460674920275
 30
0.0
 10
418.0763279707587
 20
257.737341253837
 30
0.0
 10
418.1422289163768
 20
257.424864337768
 30
0.0
 10
418.1680804096699
 20
257.1081229712457
 30
0.0
 10
418.1466673636654
 20
256.8996654171613
 30
0.0
 10
418.1359608350928
 20
256.7954366412337
 30
0.0
 11
409.5106192859374
 21
260.1983691258928
 31
0.0
 11
409.7380704651074
 21
260.2759994155493
 31
0.0
 11
409.9681725156381
 21
260.3461180213759
 31
0.0
 11
410.4360184060388
 21
260.465740515927
 31
0.0
 11
410.9099504335376
 21
260.5580398365931
 31
0.0
 11
411.4018471402313
 21
260.6253631543664
 31
0.0
 11
411.8966666922137
 21
260.6656193427735
 31
0.0
 11
412.3975925059933
 21
260.6791057070708
 31
0.0
 11
412.8985183197731
 21
260.6656193427737
 31
0.0
 11
413.3933378717554
 21
260.6253631543665
 31
0.0
 11
413.8852345784489
 21
260.5580398365931
 31
0.0
 11
414.3591666059476
 21
260.465740515927
 31
0.0
 11
414.8270124963484
 21
260.3461180213759
 31
0.0
 11
415.2661015848489
 21
260.2049864587058
 31
0.0
 11
415.695434936588
 21
260.0362103972587
 31
0.0
 11
416.0870026057816
 21
259.8507900423079
 31
0.0
 11
416.4643309684998
 21
259.6375549694927
 31
0.0
 11
416.7973580876807
 21
259.4134341138994
 31
0.0
 11
417.1105194449024
 21
259.1619193901527
 31
0.0
 11
417.3758565740073
 21
258.9053321447723
 31
0.0
 11
417.6143498705626
 21
258.6231904994266
 31
0.0
 11
417.8045855946683
 21
258.3406296402437
 31
0.0
 11
417.9600104612455
 21
258.0371058888481
 31
0.0
 11
418.0689652933899
 21
257.7353603679783
 31
0.0
 11
418.1359608350929
 21
257.4213463443651
 31
0.0
 11
418.1584518168947
 21
257.1083914927993
 31
0.0
 11
418.1359608350928
 21
256.7954366412337
 31
0.0
  0
SPLINE
  5
165
330
58
100
AcDbEntity
  8
1
  6
Continuous
 62
     7
100
AcDbSpline
210
0.0
220
0.0
230
1.0
 70
     8
 71
     3
 72
    33
 73
    29
 74
    27
 42
0.000000001
 43
0.0000000001
 44
0.00000001
 40
0.0
 40
0.0
 40
0.0
 40
0.0
 40
0.2403341503815359
 40
0.4808826349401173
 40
0.963779434500314
 40
1.446615567563539
 40
1.943097993423248
 40
2.439552371708817
 40
2.940659698454719
 40
3.441767025202612
 40
3.93822140349168
 40
4.43470382933578
 40
4.917539962296669
 40
5.400436761194158
 40
5.861649668264976
 40
6.322965705135231
 40
6.756216149610578
 40
7.189628066451286
 40
7.591047074599056
 40
7.992705750624701
 40
8.3618138739376
 40
8.731249877465585
 40
9.071882039852667
 40
9.412885789178327
 40
9.73369962162965
 40
10.0547809350896
 40
10.36854291754713
 40
10.68230489467409
 40
10.68230489467409
 40
10.68230489467409
 40
10.68230489467409
 10
401.2845657260475
 20
260.1983691258939
 30
0.0
 10
401.2089261213791
 20
260.2247853794991
 30
0.0
 10
401.0575794515032
 20
260.2776414339144
 30
0.0
 10
400.7499805149216
 20
260.3705885185605
 30
0.0
 10
400.3602237729339
 20
260.4703571670746
 30
0.0
 10
399.8814900661131
 20
260.5633063514728
 30
0.0
 10
399.3938333829576
 20
260.6298461993626
 30
0.0
 10
398.8972126981857
 20
260.6702217234637
 30
0.0
 10
398.3975926610872
 20
260.6835679178002
 30
0.0
 10
397.8979716366815
 20
260.6702237092528
 30
0.0
 10
397.4013538864675
 20
260.6298383399619
 30
0.0
 10
396.9136865626122
 20
260.5633354897946
 30
0.0
 10
396.434991470729
 20
260.4702516963121
 30
0.0
 10
395.9737956098174
 20
260.3527244658835
 30
0.0
 10
395.5274373117979
 20
260.2095404435453
 30
0.0
 10
395.1063327871428
 20
260.0445758323456
 30
0.0
 10
394.7057781419667
 20
259.8553588563294
 30
0.0
 10
394.3370815775123
 20
259.6477916614832
 30
0.0
 10
393.9944651940402
 20
259.4179198862325
 30
0.0
 10
393.6889176802013
 20
259.1735366261984
 30
0.0
 10
393.4147640794096
 20
258.9095052118758
 30
0.0
 10
393.1815244708423
 20
258.634748451231
 30
0.0
 10
392.9846314148378
 20
258.3440458782621
 30
0.0
 10
392.8315823341608
 20
258.0460674920276
 30
0.0
 10
392.7188570412292
 20
257.737341253837
 30
0.0
 10
392.6529560956115
 20
257.4248643377679
 30
0.0
 10
392.6271046023178
 20
257.1081229712457
 30
0.0
 10
392.6485176483226
 20
256.8996654171613
 30
0.0
 10
392.6592241768952
 20
256.7954366412337
 30
0.0
 11
401.2845657260475
 21
260.1983691258939
 31
0.0
 11
401.0571145468789
 21
260.27599941555
 31
0.0
 11
400.8270124963499
 21
260.3461180213759
 31
0.0
 11
400.3591666059491
 21
260.465740515927
 31
0.0
 11
399.8852345784503
 21
260.5580398365931
 31
0.0
 11
399.3933378717567
 21
260.6253631543664
 31
0.0
 11
398.8985183197743
 21
260.6656193427735
 31
0.0
 11
398.3975925059946
 21
260.6791057070708
 31
0.0
 11
397.896666692215
 21
260.6656193427737
 31
0.0
 11
397.4018471402326
 21
260.6253631543665
 31
0.0
 11
396.9099504335392
 21
260.5580398365931
 31
0.0
 11
396.4360184060404
 21
260.465740515927
 31
0.0
 11
395.9681725156396
 21
260.3461180213759
 31
0.0
 11
395.5290834271392
 21
260.2049864587058
 31
0.0
 11
395.0997500753999
 21
260.0362103972587
 31
0.0
 11
394.7081824062063
 21
259.8507900423079
 31
0.0
 11
394.3308540434882
 21
259.6375549694927
 31
0.0
 11
393.9978269243073
 21
259.4134341138994
 31
0.0
 11
393.6846655670856
 21
259.1619193901527
 31
0.0
 11
393.4193284379807
 21
258.9053321447723
 31
0.0
 11
393.1808351414253
 21
258.6231904994266
 31
0.0
 11
392.9905994173198
 21
258.3406296402437
 31
0.0
 11
392.8351745507424
 21
258.0371058888481
 31
0.0
 11
392.726219718598
 21
257.7353603679783
 31
0.0
 11
392.6592241768952
 21
257.4213463443651
 31
0.0
 11
392.6367331950932
 21
257.1083914927993
 31
0.0
 11
392.6592241768952
 21
256.7954366412337
 31
0.0
  0
SPLINE
  5
166
330
58
100
AcDbEntity
  8
1
  6
Continuous
 62
     7
100
AcDbSpline
210
0.0
220
0.0
230
1.0
 70
     8
 71
     3
 72
    31
 73
    27
 74
    25
 42
0.000000001
 43
0.0000000001
 44
0.00000001
 40
0.0
 40
0.0
 40
0.0
 40
0.0
 40
0.3210813059899607
 40
0.6418951342664574
 40
0.9828988842095494
 40
1.323531047073864
 40
1.692967050917731
 40
2.062075174447003
 40
2.463733850648437
 40
2.865152858934433
 40
3.298564775899206
 40
3.731815220479271
 40
4.193131257447427
 40
4.654344164604791
 40
5.137240963584608
 40
5.620077096619773
 40
6.11655952253453
 40
6.613013900886534
 40
7.114121227691085
 40
7.615228554481111
 40
8.111682932791803
 40
8.608165358633382
 40
9.09100149158909
 40
9.57389829106067
 40
9.71532937415988
 40
9.856648873205328
 40
9.856648873205328
 40
9.856648873205328
 40
9.856648873205328
 10
418.1359608350928
 20
256.7954366412337
 30
0.0
 10
418.1166809843239
 20
256.6899755580631
 30
0.0
 10
418.0781373306131
 20
256.4791412496597
 30
0.0
 10
417.9630840385274
 20
256.1708016224737
 30
0.0
 10
417.8106955720118
 20
255.8727135289143
 30
0.0
 10
417.6136189293316
 20
255.5820414433558
 30
0.0
 10
417.3804324195542
 20
255.3072758642468
 30
0.0
 10
417.1062639532875
 20
255.0432469183972
 30
0.0
 10
416.8007207532963
 20
254.7988629418326
 30
0.0
 10
416.4581031624799
 20
254.568991367
 30
0.0
 10
416.0894069457471
 20
254.3614241143511
 30
0.0
 10
415.6888522036392
 20
254.1722071543926
 30
0.0
 10
415.2677477064361
 20
254.0072425386043
 30
0.0
 10
414.8213894006756
 20
253.8640585175194
 30
0.0
 10
414.3601935419957
 20
253.7465312867217
 30
0.0
 10
413.881498448758
 20
253.6534474933373
 30
0.0
 10
413.3938311276686
 20
253.5869446430743
 30
0.0
 10
412.8972133672854
 20
253.5465592739631
 30
0.0
 10
412.3975923807291
 20
253.5332150646564
 30
0.0
 10
411.8979722023379
 20
253.5465612616658
 30
0.0
 10
411.4013520399221
 20
253.5869367757019
 30
0.0
 10
410.913693428804
 20
253.6534766604901
 30
0.0
 10
410.4349667276033
 20
253.7464257105952
 30
0.0
 10
410.0772155439099
 20
253.837996977074
 30
0.0
 10
409.8324665132894
 20
253.9103950846682
 30
0.0
 10
409.7427799505176
 20
253.9393797696615
 30
0.0
 10
409.6979543677372
 20
253.9538663984692
 30
0.0
 11
418.1359608350928
 21
256.7954366412337
 31
0.0
 11
418.0689652933899
 21
256.4814226176206
 31
0.0
 11
417.9600104612456
 21
256.1796770967507
 31
0.0
 11
417.8045855946683
 21
255.8761533453549
 31
0.0
 11
417.6143498705627
 21
255.593592486172
 31
0.0
 11
417.3758565740074
 21
255.3114508408264
 31
0.0
 11
417.1105194449025
 21
255.0548635954461
 31
0.0
 11
416.7973580876807
 21
254.8033488716993
 31
0.0
 11
416.4643309684998
 21
254.579228016106
 31
0.0
 11
416.0870026057815
 21
254.3659929432907
 31
0.0
 11
415.695434936588
 21
254.1805725883399
 31
0.0
 11
415.2661015848488
 21
254.0117965268929
 31
0.0
 11
414.8270124963484
 21
253.8706649642227
 31
0.0
 11
414.3591666059476
 21
253.7510424696717
 31
0.0
 11
413.8852345784489
 21
253.6587431490055
 31
0.0
 11
413.3933378717553
 21
253.5914198312322
 31
0.0
 11
412.8985183197731
 21
253.5511636428251
 31
0.0
 11
412.3975925059934
 21
253.5376772785279
 31
0.0
 11
411.8966666922137
 21
253.5511636428251
 31
0.0
 11
411.4018471402314
 21
253.5914198312322
 31
0.0
 11
410.9099504335378
 21
253.6587431490055
 31
0.0
 11
410.436018406039
 21
253.7510424696716
 31
0.0
 11
409.9681725156382
 21
253.8706649642228
 31
0.0
 11
409.8326055472429
 21
253.910968161463
 31
0.0
 11
409.6979543677372
 21
253.9538663984692
 31
0.0
  0
SPLINE
  5
167
330
58
100
AcDbEntity
  8
1
  6
Continuous
 62
     7
100
AcDbSpline
210
0.0
220
0.0
230
1.0
 70
     8
 71
     3
 72
    31
 73
    27
 74
    25
 42
0.000000001
 43
0.0000000001
 44
0.00000001
 40
0.0
 40
0.0
 40
0.0
 40
0.0
 40
0.3210813059899489
 40
0.6418951342664647
 40
0.9828988842095567
 40
1.323531047073871
 40
1.692967050917665
 40
2.06207517444706
 40
2.463733850648449
 40
2.865152858934446
 40
3.298564775899169
 40
3.731815220479234
 40
4.193131257447443
 40
4.654344164604807
 40
5.137240963584569
 40
5.62007709661979
 40
6.116559522534491
 40
6.613013900886552
 40
7.114121227691159
 40
7.615228554481129
 40
8.11168293279182
 40
8.608165358633457
 40
9.091001491589058
 40
9.573898291060686
 40
9.715329374141763
 40
9.856648873169062
 40
9.856648873169062
 40
9.856648873169062
 40
9.856648873169062
 10
392.6592241768952
 20
256.7954366412337
 30
0.0
 10
392.678504027664
 20
256.6899755580631
 30
0.0
 10
392.7170476813748
 20
256.4791412496596
 30
0.0
 10
392.8321009734607
 20
256.1708016224737
 30
0.0
 10
392.9844894399762
 20
255.8727135289145
 30
0.0
 10
393.1815660826565
 20
255.5820414433557
 30
0.0
 10
393.4147525924335
 20
255.3072758642467
 30
0.0
 10
393.6889210587007
 20
255.0432469183973
 30
0.0
 10
393.9944642586917
 20
254.7988629418326
 30
0.0
 10
394.3370818495082
 20
254.5689913669999
 30
0.0
 10
394.7057780662408
 20
254.3614241143511
 30
0.0
 10
395.1063328083488
 20
254.1722071543925
 30
0.0
 10
395.527437305552
 20
254.0072425386043
 30
0.0
 10
395.9737956113124
 20
253.8640585175193
 30
0.0
 10
396.4349914699923
 20
253.7465312867218
 30
0.0
 10
396.91368656323
 20
253.6534474933373
 30
0.0
 10
397.4013538843192
 20
253.5869446430743
 30
0.0
 10
397.8979716447027
 20
253.5465592739631
 30
0.0
 10
398.3975926312589
 20
253.5332150646564
 30
0.0
 10
398.8972128096501
 20
253.5465612616657
 30
0.0
 10
399.3938329720659
 20
253.5869367757019
 30
0.0
 10
399.8814915831841
 20
253.65347666049
 30
0.0
 10
400.3602182843847
 20
253.7464257105954
 30
0.0
 10
400.7179694680722
 20
253.8379969770724
 30
0.0
 10
400.9627184986814
 20
253.9103950846631
 30
0.0
 10
401.0524050614414
 20
253.9393797696522
 30
0.0
 10
401.0972306442163
 20
253.9538663984578
 30
0.0
 11
392.6592241768952
 21
256.7954366412337
 31
0.0
 11
392.726219718598
 21
256.4814226176206
 31
0.0
 11
392.8351745507424
 21
256.1796770967507
 31
0.0
 11
392.9905994173197
 21
255.8761533453549
 31
0.0
 11
393.1808351414253
 21
255.593592486172
 31
0.0
 11
393.4193284379805
 21
255.3114508408264
 31
0.0
 11
393.6846655670856
 21
255.0548635954461
 31
0.0
 11
393.9978269243073
 21
254.8033488716993
 31
0.0
 11
394.3308540434882
 21
254.579228016106
 31
0.0
 11
394.7081824062064
 21
254.3659929432907
 31
0.0
 11
395.0997500754
 21
254.1805725883399
 31
0.0
 11
395.5290834271392
 21
254.0117965268929
 31
0.0
 11
395.9681725156396
 21
253.8706649642227
 31
0.0
 11
396.4360184060404
 21
253.7510424696717
 31
0.0
 11
396.9099504335391
 21
253.6587431490055
 31
0.0
 11
397.4018471402326
 21
253.5914198312322
 31
0.0
 11
397.8966666922149
 21
253.5511636428251
 31
0.0
 11
398.3975925059946
 21
253.5376772785279
 31
0.0
 11
398.8985183197743
 21
253.5511636428251
 31
0.0
 11
399.3933378717566
 21
253.5914198312322
 31
0.0
 11
399.8852345784503
 21
253.6587431490055
 31
0.0
 11
400.3591666059489
 21
253.7510424696716
 31
0.0
 11
400.8270124963498
 21
253.8706649642228
 31
0.0
 11
400.9625794647278
 21
253.9109681614577
 31
0.0
 11
401.0972306442163
 21
253.9538663984578
 31
0.0
  0
SPLINE
  5
168
330
58
100
AcDbEntity
  8
0
  6
Continuous
 62
     7
100
AcDbSpline
210
0.0
220
0.0
230
1.0
 70
    11
 71
     3
 72
    79
 73
    75
 74
    73
 42
0.000000001
 43
0.0000000001
 44
0.00000001
 40
0.0
 40
0.0
 40
0.0
 40
0.0
 40
0.2910229063172391
 40
0.5820342199790898
 40
0.874933925979598
 40
1.167812540311813
 40
1.463561181730031
 40
1.759282799553815
 40
2.058487804326647
 40
2.357663878865663
 40
2.660503334662657
 40
2.963315618548161
 40
3.26953081965365
 40
3.575723462230734
 40
3.88466273757525
 40
4.193586021287318
 40
4.504289078951727
 40
4.814983875317574
 40
5.126294424223383
 40
5.437604973118114
 40
5.74829976945094
 40
6.059002827059766
 40
6.367926110694065
 40
6.676865385937221
 40
6.983058028389957
 40
7.289273229346026
 40
7.592085513057666
 40
7.894924968652844
 40
8.194101042962679
 40
8.493306047472858
 40
8.789027664996892
 40
9.084776306062261
 40
9.377654919956283
 40
9.670554625323085
 40
9.961565937614822
 40
10.2525888527922
 40
10.54295309049251
 40
10.83331732819179
 40
11.12434024336605
 40
11.41535155565252
 40
11.70825126101207
 40
12.00112987489695
 40
12.29687851595128
 40
12.59260013346262
 40
12.89180513795844
 40
13.19098121225253
 40
13.49382066783059
 40
13.79663295152395
 40
14.10284815246062
 40
14.40904079489303
 40
14.71798007011493
 40
15.02690335372725
 40
15.33760641131332
 40
15.64830120762297
 40
15.9596117564939
 40
16.27092230537544
 40
16.58161710171671
 40
16.89232015935585
 40
17.20124344304245
 40
17.51018271836088
 40
17.81637536091135
 40
18.12259056198952
 40
18.42540284584675
 40
18.72824230161368
 40
19.02741837611987
 40
19.32662338085479
 40
19.62234499863111
 40
19.91809363998194
 40
20.21097225419819
 40
20.50387195993867
 40
20.79488327268851
 40
21.08590618851608
 40
21.37627042760408
 40
21.66663465645637
 40
21.66663465645637
 40
21.66663465645637
 40
21.66663465645637
 10
114.0915826249171
 20
260.6654607442013
 30
0.0
 10
113.995207569202
 20
260.6537850767636
 30
0.0
 10
113.8024612961341
 20
260.6304342121775
 30
0.0
 10
113.5185247888048
 20
260.5610782204121
 30
0.0
 10
113.2412605221795
 20
260.4676354632969
 30
0.0
 10
112.9725081378869
 20
260.3477284775624
 30
0.0
 10
112.7148627540524
 20
260.2036829725699
 30
0.0
 10
112.4696358065482
 20
260.0356163718815
 30
0.0
 10
112.2393724502526
 20
259.8457816389407
 30
0.0
 10
112.0251402415132
 20
259.6346455103919
 30
0.0
 10
111.8291858125402
 20
259.4048659068631
 30
0.0
 10
111.6524284687163
 20
259.1571373747355
 30
0.0
 10
111.4966576345532
 20
258.8944051349898
 30
0.0
 10
111.3626892169917
 20
258.6176541234295
 30
0.0
 10
111.2517661855182
 20
258.3299221457415
 30
0.0
 10
111.1645893929605
 20
258.032568699389
 30
0.0
 10
111.1018413826836
 20
257.7285227033117
 30
0.0
 10
111.0640410032881
 20
257.4195811076188
 30
0.0
 10
111.0513639296174
 20
257.1083915023735
 30
0.0
 10
111.0640410029227
 20
256.7972018971188
 30
0.0
 10
111.1018413819534
 20
256.4882603014315
 30
0.0
 10
111.1645893918565
 20
256.1842143052731
 30
0.0
 10
111.2517661840641
 20
255.8868608591225
 30
0.0
 10
111.3626892150827
 20
255.5991288805472
 30
0.0
 10
111.4966576325594
 20
255.3223778720914
 30
0.0
 10
111.6524284652362
 20
255.0596456205997
 30
0.0
 10
111.8291858127248
 20
254.8119171315709
 30
0.0
 10
112.0251402262332
 20
254.5821373678757
 30
0.0
 10
112.2393724901073
 20
254.3710018297897
 30
0.0
 10
112.4696356399429
 20
254.1811649066801
 30
0.0
 10
112.7148633473372
 20
254.0131063885996
 30
0.0
 10
112.9725059088142
 20
253.8690308868167
 30
0.0
 10
113.2412687265013
 20
253.7492348163432
 30
0.0
 10
113.5184942119887
 20
253.6553798195041
 30
0.0
 10
113.8025745652851
 20
253.5875529129122
 30
0.0
 10
114.0909420455915
 20
253.546857951282
 30
0.0
 10
114.3816260790642
 20
253.5330921577067
 30
0.0
 10
114.672310112537
 20
253.5468579512568
 30
0.0
 10
114.9606775928439
 20
253.5875529128618
 30
0.0
 10
115.2447579461409
 20
253.6553798194287
 30
0.0
 10
115.521983431629
 20
253.749234816243
 30
0.0
 10
115.7907462493172
 20
253.8690308866917
 30
0.0
 10
116.0483888107957
 20
254.0131063884496
 30
0.0
 10
116.2936165181913
 20
254.1811649065057
 30
0.0
 10
116.5238796680287
 20
254.3710018295908
 30
0.0
 10
116.7381119319046
 20
254.5821373676524
 30
0.0
 10
116.9340663454151
 20
254.8119171313235
 30
0.0
 10
117.1108236929059
 20
255.0596456203284
 30
0.0
 10
117.2665945255852
 20
255.3223778717961
 30
0.0
 10
117.4005629430646
 20
255.5991288802281
 30
0.0
 10
117.511485974086
 20
255.8868608587795
 30
0.0
 10
117.5986627662968
 20
256.1842143049064
 30
0.0
 10
117.6614107762033
 20
256.488260301041
 30
0.0
 10
117.6992111552377
 20
256.7972018967046
 30
0.0
 10
117.7118882285472
 20
257.1083915019344
 30
0.0
 10
117.6992111548815
 20
257.4195811071597
 30
0.0
 10
117.6614107754898
 20
257.7285227028129
 30
0.0
 10
117.5986627652253
 20
258.0325686989233
 30
0.0
 10
117.511485972652
 20
258.3299221450386
 30
0.0
 10
117.4005629412728
 20
258.6176541234922
 30
0.0
 10
117.2665945234043
 20
258.894405132104
 30
0.0
 10
117.1108236904324
 20
259.1571373826772
 30
0.0
 10
116.9340663422726
 20
259.4048658747109
 30
0.0
 10
116.7381119294597
 20
259.634645626823
 30
0.0
 10
116.5238796612087
 20
259.845781207144
 30
0.0
 10
116.2936165257482
 20
260.0356179730629
 30
0.0
 10
116.0483887634124
 20
260.2036770706445
 30
0.0
 10
115.7907464038773
 20
260.3477504210552
 30
0.0
 10
115.5219828374628
 20
260.4675544455991
 30
0.0
 10
115.2447601325949
 20
260.5613798785456
 30
0.0
 10
114.9606694629378
 20
260.6293164428888
 30
0.0
 10
114.6723404011882
 20
260.6696029991994
 30
0.0
 10
114.3815132907265
 20
260.6848897435935
 30
0.0
 10
114.1882261791594
 20
260.671937075503
 30
0.0
 10
114.0915826249171
 20
260.6654607442013
 30
0.0
 11
114.0915826249171
 21
260.6654607442013
 31
0.0
 11
113.8034231286422
 21
260.6247367711148
 31
0.0
 11
113.5203409222597
 21
260.5572679010495
 31
0.0
 11
113.2429168797159
 21
260.4633203724107
 31
0.0
 11
112.9753551275986
 21
260.3442044986112
 31
0.0
 11
112.7172227588834
 21
260.1998613691541
 31
0.0
 11
112.4732101062722
 21
260.0328011987384
 31
0.0
 11
112.2423306007413
 21
259.8424901671376
 31
0.0
 11
112.0291553057901
 21
259.6325791927821
 31
0.0
 11
111.8326209817819
 21
259.4021752096555
 31
0.0
 11
111.6566474459823
 21
259.1557434869678
 31
0.0
 11
111.5004503055094
 21
258.89236125013
 31
0.0
 11
111.3669546175452
 21
258.6168021173521
 31
0.0
 11
111.2558046919881
 21
258.3285501964548
 31
0.0
 11
111.1688280379618
 21
258.0321237184145
 31
0.0
 11
111.1060229636402
 21
257.7278345258715
 31
0.0
 11
111.0682476019687
 21
257.419444709951
 31
0.0
 11
111.0555924057551
 21
257.1083914928001
 31
0.0
 11
111.0682476019687
 21
256.7973382756492
 31
0.0
 11
111.1060229636403
 21
256.4889484597286
 31
0.0
 11
111.1688280379618
 21
256.1846592671857
 31
0.0
 11
111.2558046919881
 21
255.8882327891453
 31
0.0
 11
111.3669546175452
 21
255.5999808682481
 31
0.0
 11
111.5004503055094
 21
255.3244217354702
 31
0.0
 11
111.6566474459823
 21
255.0610394986323
 31
0.0
 11
111.8326209817819
 21
254.8146077759446
 31
0.0
 11
112.0291553057901
 21
254.5842037928181
 31
0.0
 11
112.2423306007414
 21
254.3742928184627
 31
0.0
 11
112.4732101062722
 21
254.1839817868619
 31
0.0
 11
112.7172227588834
 21
254.0169216164462
 31
0.0
 11
112.9753551275986
 21
253.8725784869889
 31
0.0
 11
113.2429168797159
 21
253.7534626131895
 31
0.0
 11
113.5203409222598
 21
253.6595150845508
 31
0.0
 11
113.8034231286423
 21
253.5920462144855
 31
0.0
 11
114.0915826249172
 21
253.551322241399
 31
0.0
 11
114.3816260796676
 21
253.5376772785287
 31
0.0
 11
114.6716695344181
 21
253.5513222413989
 31
0.0
 11
114.959829030693
 21
253.5920462144855
 31
0.0
 11
115.2429112370755
 21
253.6595150845508
 31
0.0
 11
115.5203352796193
 21
253.7534626131896
 31
0.0
 11
115.7878970317367
 21
253.872578486989
 31
0.0
 11
116.0460294004519
 21
254.0169216164462
 31
0.0
 11
116.290042053063
 21
254.1839817868619
 31
0.0
 11
116.5209215585939
 21
254.3742928184627
 31
0.0
 11
116.7340968535451
 21
254.5842037928181
 31
0.0
 11
116.9306311775533
 21
254.8146077759446
 31
0.0
 11
117.1066047133529
 21
255.0610394986323
 31
0.0
 11
117.2628018538258
 21
255.3244217354702
 31
0.0
 11
117.39629754179
 21
255.5999808682481
 31
0.0
 11
117.5074474673471
 21
255.8882327891453
 31
0.0
 11
117.5944241213734
 21
256.1846592671857
 31
0.0
 11
117.6572291956949
 21
256.4889484597285
 31
0.0
 11
117.6950045573665
 21
256.7973382756491
 31
0.0
 11
117.7076597535801
 21
257.1083914928
 31
0.0
 11
117.6950045573665
 21
257.419444709951
 31
0.0
 11
117.6572291956949
 21
257.7278345258716
 31
0.0
 11
117.5944241213734
 21
258.0321237184145
 31
0.0
 11
117.5074474673471
 21
258.3285501964548
 31
0.0
 11
117.39629754179
 21
258.6168021173521
 31
0.0
 11
117.2628018538258
 21
258.8923612501299
 31
0.0
 11
117.1066047133529
 21
259.1557434869678
 31
0.0
 11
116.9306311775533
 21
259.4021752096555
 31
0.0
 11
116.734096853545
 21
259.6325791927821
 31
0.0
 11
116.5209215585939
 21
259.8424901671376
 31
0.0
 11
116.290042053063
 21
260.0328011987384
 31
0.0
 11
116.0460294004518
 21
260.1998613691541
 31
0.0
 11
115.7878970317366
 21
260.3442044986112
 31
0.0
 11
115.5203352796192
 21
260.4633203724107
 31
0.0
 11
115.2429112370754
 21
260.5572679010494
 31
0.0
 11
114.959829030693
 21
260.6247367711147
 31
0.0
 11
114.6716695344181
 21
260.6654607442013
 31
0.0
 11
114.3816260796676
 21
260.6791057070715
 31
0.0
 11
114.0915826249171
 21
260.6654607442013
 31
0.0
  0
SPLINE
  5
169
330
58
100
AcDbEntity
  8
0
  6
Continuous
 62
     7
100
AcDbSpline
210
0.0
220
0.0
230
1.0
 70
    11
 71
     3
 72
    79
 73
    75
 74
    73
 42
0.000000001
 43
0.0000000001
 44
0.00000001
 40
0.0
 40
0.0
 40
0.0
 40
0.0
 40
0.3261189815590133
 40
0.6517242227864661
 40
1.007570730085612
 40
1.362786574479181
 40
1.759886311236958
 40
2.156516711364719
 40
2.599210004995365
 40
3.041603623772171
 40
3.528307203253057
 40
4.014826845817791
 40
4.539616311192551
 40
5.064295506276613
 40
5.618233629058105
 40
6.172109434340666
 40
6.744280965421656
 40
7.316424320423769
 40
7.894787041172002
 40
8.473149761923205
 40
9.045293116933658
 40
9.617464648027346
 40
10.17134045332472
 40
10.72527857612077
 40
11.24995777121494
 40
11.77474723659069
 40
12.26126687914159
 40
12.74797045858429
 40
13.19036407729347
 40
13.63305737080649
 40
14.02968777076456
 40
14.42678750725392
 40
14.78200335126242
 40
15.13784985787358
 40
15.46345509697314
 40
15.78957408501964
 40
16.10448971847112
 40
16.41940535192156
 40
16.74552433996511
 40
17.07112957905997
 40
17.42697608566501
 40
17.7821919296668
 40
18.17929166614852
 40
18.57592206609922
 40
19.01861535960453
 40
19.46100897830653
 40
19.94771255774206
 40
20.43423220028656
 40
20.95902166565618
 40
21.48370086074506
 40
22.03763898353645
 40
22.59151478883016
 40
23.1636863199212
 40
23.73582967493016
 40
24.31419239568134
 40
24.89255511643129
 40
25.46469847143706
 40
26.03687000252393
 40
26.59074580781466
 40
27.14468393060685
 40
27.66936312570369
 40
28.19415259109349
 40
28.68067223367417
 40
29.16737581317164
 40
29.60976943196307
 40
30.05246272560418
 40
30.44909312573261
 40
30.84619286246814
 40
31.20140870678666
 40
31.55725521382516
 40
31.88286045347716
 40
32.20897944233202
 40
32.52389507798055
 40
32.83881070538191
 40
32.83881070538191
 40
32.83881070538191
 40
32.83881070538191
 10
108.8830495835751
 20
256.7945750061618
 30
0.0
 10
108.8604923100371
 20
256.6879852500486
 30
0.0
 10
108.8154133076639
 20
256.4749736480043
 30
0.0
 10
108.6808855350125
 20
256.1651551544437
 30
0.0
 10
108.504141445421
 20
255.8673713073855
 30
0.0
 10
108.2752600324699
 20
255.5762252633442
 30
0.0
 10
108.0060421227524
 20
255.3028330459445
 30
0.0
 10
107.6887720068116
 20
255.0388733186238
 30
0.0
 10
107.3367195861253
 20
254.7958671173975
 30
0.0
 10
106.940846218329
 20
254.5662128666823
 30
0.0
 10
106.5161378036692
 20
254.3596619075339
 30
0.0
 10
106.0536204303189
 20
254.1706591523446
 30
0.0
 10
105.5683799285339
 20
254.0063453577175
 30
0.0
 10
105.0531384405036
 20
253.8633298559139
 30
0.0
 10
104.5214731797443
 20
253.7461774203172
 30
0.0
 10
103.9690241301434
 20
253.6532035293484
 30
0.0
 10
103.4066332902066
 20
253.5868844704458
 30
0.0
 10
102.833616639956
 20
253.5465382124657
 30
0.0
 10
102.2572704366803
 20
253.5332478807491
 30
0.0
 10
101.6809242333822
 20
253.5465382125817
 30
0.0
 10
101.1079075831981
 20
253.586884470686
 30
0.0
 10
100.5455167430209
 20
253.6532035296505
 30
0.0
 10
99.99306769429018
 20
253.7461774208534
 30
0.0
 10
99.46140243036633
 20
253.8633298559813
 30
0.0
 10
98.94616095355747
 20
254.0063453597157
 30
0.0
 10
98.46092041138787
 20
254.1706591475378
 30
0.0
 10
97.99840317831455
 20
254.3596619263429
 30
0.0
 10
97.5736942641135
 20
254.5662128011845
 30
0.0
 10
97.17782259975584
 20
254.795867338963
 30
0.0
 10
96.8257641649919
 20
255.0388725260011
 30
0.0
 10
96.50851428830764
 20
255.302835665405
 30
0.0
 10
96.2392251591465
 20
255.5762158746983
 30
0.0
 10
96.01058316702841
 20
255.8674022849067
 30
0.0
 10
95.83299044178004
 20
256.1650430493954
 30
0.0
 10
95.70137737014372
 20
256.4753529672715
 30
0.0
 10
95.62395239406382
 20
256.7895115441798
 30
0.0
 10
95.59599227694716
 20
257.108391492483
 30
0.0
 10
95.62395239405579
 20
257.4272714407859
 30
0.0
 10
95.70137737012791
 20
257.7414300176933
 30
0.0
 10
95.83299044175678
 20
258.0517399355675
 30
0.0
 10
96.0105831669982
 20
258.3493807000537
 30
0.0
 10
96.23922515910968
 20
258.6405671102586
 30
0.0
 10
96.50851428826505
 20
258.9139473195476
 30
0.0
 10
96.82576416494385
 20
259.1779104589463
 30
0.0
 10
97.17782259970318
 20
259.4209156459781
 30
0.0
 10
97.57369426405668
 20
259.650570183749
 30
0.0
 10
97.99840317825436
 20
259.8571210585819
 30
0.0
 10
98.4609204113249
 20
260.0461238373765
 30
0.0
 10
98.94616095349235
 20
260.2104376251866
 30
0.0
 10
99.46140243029978
 20
260.3534531289063
 30
0.0
 10
99.99306769422266
 20
260.4706055640174
 30
0.0
 10
100.5455167429532
 20
260.5635794552003
 30
0.0
 10
101.1079075831303
 20
260.6298985141415
 30
0.0
 10
101.6809242333161
 20
260.6702447722186
 30
0.0
 10
102.2572704366106
 20
260.6835351040189
 30
0.0
 10
102.8336166399039
 20
260.6702447722695
 30
0.0
 10
103.4066332900947
 20
260.6298985142368
 30
0.0
 10
103.9690241302556
 20
260.5635794553318
 30
0.0
 10
104.5214731790483
 20
260.4706055641547
 30
0.0
 10
105.0531384427487
 20
260.3534531290738
 30
0.0
 10
105.568379920348
 20
260.2104376251842
 30
0.0
 10
106.0536204596659
 20
260.0461238377829
 30
0.0
 10
106.5161377026281
 20
259.8571210572075
 30
0.0
 10
106.9408465815832
 20
259.6505701881562
 30
0.0
 10
107.3367183660778
 20
259.4209156299129
 30
0.0
 10
107.6887763766061
 20
259.1779105141318
 30
0.0
 10
108.0060276808443
 20
258.9139471336963
 30
0.0
 10
108.2753117864112
 20
258.6405677709737
 30
0.0
 10
108.5039706662129
 20
258.3493785129603
 30
0.0
 10
108.6815035319842
 20
258.0517478402754
 30
0.0
 10
108.8133221947699
 20
257.7414032586063
 30
0.0
 10
108.8900020553004
 20
257.4273703080928
 30
0.0
 10
108.9206539574292
 20
257.1080365210543
 30
0.0
 10
108.8955843711901
 20
256.8990621772151
 30
0.0
 10
108.8830495835751
 20
256.7945750061618
 30
0.0
 11
108.8830495835751
 21
256.7945750061618
 31
0.0
 11
108.8048769210214
 21
256.4779638420026
 31
0.0
 11
108.6791706659448
 21
256.1776028771108
 31
0.0
 11
108.4976142825097
 21
255.8715571028082
 31
0.0
 11
108.2792522226147
 21
255.5913851793634
 31
0.0
 11
108.0015046732395
 21
255.3075815507964
 31
0.0
 11
107.6972051210601
 21
255.0531852914826
 31
0.0
 11
107.3335574957411
 21
254.8007219144246
 31
0.0
 11
106.951224488862
 21
254.5781604942535
 31
0.0
 11
106.5139559280869
 21
254.364439695038
 31
0.0
 11
106.0637605003878
 21
254.1799798363267
 31
0.0
 11
105.5669207787733
 21
254.0109997369104
 31
0.0
 11
105.0614341108539
 21
253.870388619573
 31
0.0
 11
104.5205763038468
 21
253.7507212619479
 31
0.0
 11
103.9744059957299
 21
253.6586538832607
 31
0.0
 11
103.4062060286907
 21
253.5913556036176
 31
0.0
 11
102.8354763506399
 21
253.5511604140028
 31
0.0
 11
102.2572704266854
 21
253.5376939276641
 31
0.0
 11
101.6790645027308
 21
253.5511604140028
 31
0.0
 11
101.10833482468
 21
253.5913556036176
 31
0.0
 11
100.5401348576408
 21
253.6586538832607
 31
0.0
 11
99.99396454952398
 21
253.7507212619479
 31
0.0
 11
99.4531067425169
 21
253.870388619573
 31
0.0
 11
98.9476200745975
 21
254.0109997369104
 31
0.0
 11
98.45078035298292
 21
254.1799798363267
 31
0.0
 11
98.0005849252838
 21
254.364439695038
 31
0.0
 11
97.56331636450872
 21
254.5781604942535
 31
0.0
 11
97.18098335762969
 21
254.8007219144246
 31
0.0
 11
96.81733573231068
 21
255.0531852914826
 31
0.0
 11
96.51303618013124
 21
255.3075815507964
 31
0.0
 11
96.23528863075603
 21
255.5913851793634
 31
0.0
 11
96.01692657086105
 21
255.8715571028082
 31
0.0
 11
95.83537018742595
 21
256.1776028771108
 31
0.0
 11
95.70966393234932
 21
256.4779638420026
 31
0.0
 11
95.63149126979556
 21
256.7945750061618
 31
0.0
 11
95.60520307886034
 21
257.1083914928001
 31
0.0
 11
95.6314912697956
 21
257.4222079794384
 31
0.0
 11
95.7096639323494
 21
257.7388191435977
 31
0.0
 11
95.83537018742601
 21
258.0391801084894
 31
0.0
 11
96.01692657086106
 21
258.345225882792
 31
0.0
 11
96.23528863075602
 21
258.6253978062368
 31
0.0
 11
96.5130361801312
 21
258.9092014348038
 31
0.0
 11
96.81733573231062
 21
259.1635976941176
 31
0.0
 11
97.18098335762964
 21
259.4160610711756
 31
0.0
 11
97.56331636450868
 21
259.6386224913468
 31
0.0
 11
98.0005849252838
 21
259.8523432905623
 31
0.0
 11
98.45078035298292
 21
260.0368031492736
 31
0.0
 11
98.9476200745975
 21
260.2057832486899
 31
0.0
 11
99.45310674251688
 21
260.3463943660272
 31
0.0
 11
99.99396454952398
 21
260.4660617236523
 31
0.0
 11
100.5401348576408
 21
260.5581291023395
 31
0.0
 11
101.1083348246801
 21
260.6254273819827
 31
0.0
 11
101.6790645027309
 21
260.6656225715975
 31
0.0
 11
102.2572704266854
 21
260.6790890579362
 31
0.0
 11
102.83547635064
 21
260.6656225715975
 31
0.0
 11
103.4062060286907
 21
260.6254273819828
 31
0.0
 11
103.9744059957299
 21
260.5581291023396
 31
0.0
 11
104.5205763038468
 21
260.4660617236524
 31
0.0
 11
105.0614341108539
 21
260.3463943660273
 31
0.0
 11
105.5669207787733
 21
260.2057832486898
 31
0.0
 11
106.0637605003879
 21
260.0368031492735
 31
0.0
 11
106.513955928087
 21
259.8523432905622
 31
0.0
 11
106.9512244888621
 21
259.6386224913468
 31
0.0
 11
107.3335574957411
 21
259.4160610711756
 31
0.0
 11
107.6972051210601
 21
259.1635976941176
 31
0.0
 11
108.0015046732395
 21
258.9092014348038
 31
0.0
 11
108.2792522226147
 21
258.6253978062368
 31
0.0
 11
108.4976142825097
 21
258.345225882792
 31
0.0
 11
108.6791706659448
 21
258.0391801084894
 31
0.0
 11
108.8048769210214
 21
257.7388191435977
 31
0.0
 11
108.8830495835751
 21
257.4222079794384
 31
0.0
 11
108.9093377745104
 21
257.1083914928001
 31
0.0
 11
108.8830495835751
 21
256.7945750061618
 31
0.0
  0
SPLINE
  5
16A
330
58
100
AcDbEntity
  8
0
  6
Continuous
 62
     7
100
AcDbSpline
210
0.0
220
0.0
230
1.0
 70
    11
 71
     3
 72
    79
 73
    75
 74
    73
 42
0.000000001
 43
0.0000000001
 44
0.00000001
 40
0.0
 40
0.0
 40
0.0
 40
0.0
 40
0.2910229063172111
 40
0.5820342199790471
 40
0.8749339259795553
 40
1.167812540311771
 40
1.463561181730001
 40
1.759282799553773
 40
2.058487804326557
 40
2.357663878865463
 40
2.660503334662352
 40
2.963315618547941
 40
3.269530819653493
 40
3.575723462230634
 40
3.884662737575112
 40
4.19358602128723
 40
4.504289078951571
 40
4.814983875317475
 40
5.126294424223285
 40
5.437604973118015
 40
5.748299769450895
 40
6.059002827059666
 40
6.367926110693942
 40
6.676865385937124
 40
6.983058028389834
 40
7.289273229345943
 40
7.592085513057574
 40
7.894924968652725
 40
8.19410104296253
 40
8.493306047472657
 40
8.789027664996697
 40
9.08477630606205
 40
9.377654919956122
 40
9.670554625322882
 40
9.961565937614598
 40
10.25258885279195
 40
10.54295309049225
 40
10.83331732819149
 40
11.1243402433657
 40
11.41535155565217
 40
11.70825126101169
 40
12.00112987489662
 40
12.29687851595097
 40
12.59260013346233
 40
12.89180513795809
 40
13.19098121225221
 40
13.49382066783027
 40
13.79663295152363
 40
14.10284815246032
 40
14.4090407948927
 40
14.71798007011462
 40
15.02690335372695
 40
15.33760641131308
 40
15.64830120762267
 40
15.9596117564936
 40
16.27092230537508
 40
16.58161710171635
 40
16.8923201593555
 40
17.2012434430421
 40
17.51018271836053
 40
17.81637536091106
 40
18.12259056198921
 40
18.42540284584644
 40
18.72824230161327
 40
19.02741837611951
 40
19.32662338085438
 40
19.62234499863069
 40
19.91809363998147
 40
20.21097225419772
 40
20.50387195993825
 40
20.79488327268815
 40
21.0859061885157
 40
21.37627042760364
 40
21.66663465645589
 40
21.66663465645589
 40
21.66663465645589
 40
21.66663465645589
 10
90.42295822845372
 20
260.6654607442013
 30
0.0
 10
90.51933328416884
 20
260.6537850767636
 30
0.0
 10
90.71207955723673
 20
260.6304342121775
 30
0.0
 10
90.99601606456596
 20
260.5610782204121
 30
0.0
 10
91.2732803311913
 20
260.4676354632969
 30
0.0
 10
91.54203271548396
 20
260.3477284775623
 30
0.0
 10
91.79967809931838
 20
260.2036829725699
 30
0.0
 10
92.0449050468226
 20
260.0356163718815
 30
0.0
 10
92.27516840311817
 20
259.8457816389406
 30
0.0
 10
92.48940061185756
 20
259.6346455103918
 30
0.0
 10
92.68535504083054
 20
259.4048659068634
 30
0.0
 10
92.86211238465438
 20
259.1571373747355
 30
0.0
 10
93.01788321881753
 20
258.8944051349898
 30
0.0
 10
93.15185163637904
 20
258.6176541234296
 30
0.0
 10
93.26277466785263
 20
258.3299221457415
 30
0.0
 10
93.34995146041027
 20
258.0325686993891
 30
0.0
 10
93.4126994706871
 20
257.7285227033117
 30
0.0
 10
93.45049985008254
 20
257.4195811076189
 30
0.0
 10
93.46317692375331
 20
257.1083915023735
 30
0.0
 10
93.45049985044801
 20
256.7972018971188
 30
0.0
 10
93.41269947141734
 20
256.4882603014315
 30
0.0
 10
93.34995146151427
 20
256.1842143052731
 30
0.0
 10
93.2627746693066
 20
255.8868608591224
 30
0.0
 10
93.15185163828802
 20
255.5991288805471
 30
0.0
 10
93.01788322081137
 20
255.3223778720914
 30
0.0
 10
92.86211238813449
 20
255.0596456205998
 30
0.0
 10
92.6853550406459
 20
254.8119171315709
 30
0.0
 10
92.48940062713748
 20
254.5821373678756
 30
0.0
 10
92.27516836326349
 20
254.3710018297897
 30
0.0
 10
92.04490521342791
 20
254.1811649066802
 30
0.0
 10
91.79967750603372
 20
254.0131063885996
 30
0.0
 10
91.54203494455659
 20
253.8690308868169
 30
0.0
 10
91.2732721268695
 20
253.7492348163433
 30
0.0
 10
90.99604664138215
 20
253.655379819504
 30
0.0
 10
90.71196628808578
 20
253.5875529129122
 30
0.0
 10
90.42359880777937
 20
253.546857951282
 30
0.0
 10
90.13291477430673
 20
253.5330921577068
 30
0.0
 10
89.84223074083394
 20
253.5468579512568
 30
0.0
 10
89.55386326052712
 20
253.5875529128618
 30
0.0
 10
89.26978290723011
 20
253.6553798194286
 30
0.0
 10
88.99255742174194
 20
253.749234816243
 30
0.0
 10
88.72379460405378
 20
253.8690308866917
 30
0.0
 10
88.46615204257532
 20
254.0131063884496
 30
0.0
 10
88.22092433517969
 20
254.1811649065058
 30
0.0
 10
87.99066118534228
 20
254.3710018295908
 30
0.0
 10
87.77642892146643
 20
254.5821373676525
 30
0.0
 10
87.5804745079559
 20
254.8119171313236
 30
0.0
 10
87.40371716046506
 20
255.0596456203284
 30
0.0
 10
87.24794632778578
 20
255.3223778717962
 30
0.0
 10
87.11397791030642
 20
255.5991288802281
 30
0.0
 10
87.00305487928503
 20
255.8868608587795
 30
0.0
 10
86.91587808707429
 20
256.1842143049065
 30
0.0
 10
86.8531300771678
 20
256.488260301041
 30
0.0
 10
86.81532969813331
 20
256.7972018967048
 30
0.0
 10
86.80265262482388
 20
257.1083915019344
 30
0.0
 10
86.8153296984895
 20
257.4195811071597
 30
0.0
 10
86.85313007788125
 20
257.728522702813
 30
0.0
 10
86.91587808814567
 20
258.0325686989233
 30
0.0
 10
87.00305488071903
 20
258.3299221450386
 30
0.0
 10
87.11397791209818
 20
258.6176541234922
 30
0.0
 10
87.24794632996672
 20
258.894405132104
 30
0.0
 10
87.40371716293859
 20
259.1571373826774
 30
0.0
 10
87.58047451109837
 20
259.4048658747109
 30
0.0
 10
87.77642892391133
 20
259.634645626823
 30
0.0
 10
87.99066119216232
 20
259.8457812071439
 30
0.0
 10
88.22092432762275
 20
260.035617973063
 30
0.0
 10
88.46615208995854
 20
260.2036770706445
 30
0.0
 10
88.72379444949355
 20
260.3477504210553
 30
0.0
 10
88.99255801590812
 20
260.467554445599
 30
0.0
 10
89.26978072077597
 20
260.5613798785456
 30
0.0
 10
89.5538713904331
 20
260.6293164428887
 30
0.0
 10
89.84220045218268
 20
260.6696029991994
 30
0.0
 10
90.13302756264432
 20
260.6848897435934
 30
0.0
 10
90.32631467421153
 20
260.671937075503
 30
0.0
 10
90.42295822845372
 20
260.6654607442013
 30
0.0
 11
90.42295822845372
 21
260.6654607442013
 31
0.0
 11
90.71111772472861
 21
260.6247367711148
 31
0.0
 11
90.99419993111107
 21
260.5572679010494
 31
0.0
 11
91.27162397365485
 21
260.4633203724106
 31
0.0
 11
91.5391857257722
 21
260.3442044986112
 31
0.0
 11
91.7973180944874
 21
260.199861369154
 31
0.0
 11
92.04133074709856
 21
260.0328011987383
 31
0.0
 11
92.27221025262943
 21
259.8424901671376
 31
0.0
 11
92.48538554758059
 21
259.6325791927822
 31
0.0
 11
92.6819198715888
 21
259.4021752096558
 31
0.0
 11
92.85789340738842
 21
259.1557434869679
 31
0.0
 11
93.01409054786127
 21
258.8923612501301
 31
0.0
 11
93.14758623582551
 21
258.6168021173521
 31
0.0
 11
93.25873616138269
 21
258.3285501964548
 31
0.0
 11
93.34571281540897
 21
258.0321237184145
 31
0.0
 11
93.40851788973046
 21
257.7278345258716
 31
0.0
 11
93.44629325140204
 21
257.419444709951
 31
0.0
 11
93.45894844761563
 21
257.1083914928001
 31
0.0
 11
93.44629325140204
 21
256.7973382756492
 31
0.0
 11
93.40851788973045
 21
256.4889484597286
 31
0.0
 11
93.34571281540893
 21
256.1846592671857
 31
0.0
 11
93.25873616138261
 21
255.8882327891454
 31
0.0
 11
93.14758623582549
 21
255.5999808682481
 31
0.0
 11
93.01409054786129
 21
255.3244217354702
 31
0.0
 11
92.85789340738842
 21
255.0610394986323
 31
0.0
 11
92.68191987158879
 21
254.8146077759446
 31
0.0
 11
92.48538554758059
 21
254.5842037928181
 31
0.0
 11
92.27221025262945
 21
254.3742928184626
 31
0.0
 11
92.04133074709861
 21
254.1839817868619
 31
0.0
 11
91.79731809448745
 21
254.0169216164462
 31
0.0
 11
91.53918572577226
 21
253.8725784869889
 31
0.0
 11
91.27162397365487
 21
253.7534626131895
 31
0.0
 11
90.99419993111107
 21
253.6595150845508
 31
0.0
 11
90.71111772472858
 21
253.5920462144855
 31
0.0
 11
90.42295822845372
 21
253.5513222413989
 31
0.0
 11
90.1329147737033
 21
253.5376772785287
 31
0.0
 11
89.84287131895287
 21
253.5513222413989
 31
0.0
 11
89.55471182267799
 21
253.5920462144854
 31
0.0
 11
89.27162961629551
 21
253.6595150845507
 31
0.0
 11
88.99420557375171
 21
253.7534626131895
 31
0.0
 11
88.72664382163434
 21
253.872578486989
 31
0.0
 11
88.46851145291913
 21
254.0169216164462
 31
0.0
 11
88.22449880030797
 21
254.1839817868619
 31
0.0
 11
87.99361929477712
 21
254.3742928184626
 31
0.0
 11
87.78044399982595
 21
254.5842037928181
 31
0.0
 11
87.5839096758177
 21
254.8146077759446
 31
0.0
 11
87.40793614001808
 21
255.0610394986323
 31
0.0
 11
87.25173899954524
 21
255.3244217354703
 31
0.0
 11
87.11824331158103
 21
255.5999808682481
 31
0.0
 11
87.00709338602393
 21
255.8882327891454
 31
0.0
 11
86.92011673199764
 21
256.1846592671857
 31
0.0
 11
86.85731165767615
 21
256.4889484597286
 31
0.0
 11
86.81953629600451
 21
256.7973382756492
 31
0.0
 11
86.80688109979093
 21
257.1083914928001
 31
0.0
 11
86.81953629600451
 21
257.419444709951
 31
0.0
 11
86.85731165767614
 21
257.7278345258716
 31
0.0
 11
86.92011673199764
 21
258.0321237184145
 31
0.0
 11
87.00709338602391
 21
258.3285501964548
 31
0.0
 11
87.11824331158104
 21
258.6168021173521
 31
0.0
 11
87.25173899954524
 21
258.89236125013
 31
0.0
 11
87.40793614001808
 21
259.1557434869678
 31
0.0
 11
87.58390967581771
 21
259.4021752096556
 31
0.0
 11
87.78044399982595
 21
259.6325791927821
 31
0.0
 11
87.99361929477713
 21
259.8424901671376
 31
0.0
 11
88.22449880030797
 21
260.0328011987384
 31
0.0
 11
88.46851145291912
 21
260.1998613691541
 31
0.0
 11
88.72664382163428
 21
260.3442044986112
 31
0.0
 11
88.99420557375166
 21
260.4633203724107
 31
0.0
 11
89.27162961629548
 21
260.5572679010494
 31
0.0
 11
89.55471182267799
 21
260.6247367711147
 31
0.0
 11
89.84287131895287
 21
260.6654607442013
 31
0.0
 11
90.13291477370329
 21
260.6791057070715
 31
0.0
 11
90.42295822845372
 21
260.6654607442013
 31
0.0
  0
ARC
  5
16B
330
58
100
AcDbEntity
  8
1
  6
Continuous
 62
     7
100
AcDbCircle
 10
416.9556135677246
 20
260.9659284573577
 30
0.0
 40
1.000000000000109
100
AcDbArc
 50
74.66244233044966
 51
90.0
  0
ARC
  5
16C
330
58
100
AcDbEntity
  8
1
  6
Continuous
 62
     7
100
AcDbCircle
 10
415.1655416984252
 20
261.9659284573577
 30
0.0
 40
0.9999999999999277
100
AcDbArc
 50
42.94140286488343
 51
90.0
  0
ARC
  5
16D
330
58
100
AcDbEntity
  8
1
  6
Continuous
 62
     7
100
AcDbCircle
 10
416.897592505994
 20
262.9659284573577
 30
0.0
 40
0.9999999999999836
100
AcDbArc
 50
210.0000000000005
 51
270.0
  0
ARC
  5
16E
330
58
100
AcDbEntity
  8
1
  6
Continuous
 62
     7
100
AcDbCircle
 10
415.1655416984252
 20
261.9659284573577
 30
0.0
 40
0.9999999999999344
100
AcDbArc
 50
30.00000000000217
 51
42.94140286488343
  0
ARC
  5
16F
330
58
100
AcDbEntity
  8
1
  6
Continuous
 62
     7
100
AcDbCircle
 10
393.8395714442634
 20
260.9659284573577
 30
0.0
 40
1.0
100
AcDbArc
 50
90.0
 51
105.3375576695503
  0
ARC
  5
170
330
58
100
AcDbEntity
  8
1
  6
Continuous
 62
     7
100
AcDbCircle
 10
395.6296433135629
 20
261.9659284573577
 30
0.0
 40
1.0
100
AcDbArc
 50
90.0
 51
137.058597135121
  0
ARC
  5
171
330
58
100
AcDbEntity
  8
1
  6
Continuous
 62
     7
100
AcDbCircle
 10
393.897592505994
 20
262.9659284573577
 30
0.0
 40
1.0
100
AcDbArc
 50
270.0
 51
330.0000000000011
  0
ARC
  5
172
330
58
100
AcDbEntity
  8
1
  6
Continuous
 62
     7
100
AcDbCircle
 10
395.6296433135629
 20
261.9659284573577
 30
0.0
 40
1.000000000000011
100
AcDbArc
 50
137.058597135121
 51
149.9999999999995
  0
ARC
  5
173
330
58
100
AcDbEntity
  8
1
  6
Continuous
 62
     7
100
AcDbCircle
 10
90.7572704266855
 20
262.9659284573585
 30
0.0
 40
1.0
100
AcDbArc
 50
270.0
 51
329.9999999999987
  0
ARC
  5
174
330
58
100
AcDbEntity
  8
1
  6
Continuous
 62
     7
100
AcDbCircle
 10
92.48932123425419
 20
261.9659284573585
 30
0.0
 40
1.0
100
AcDbArc
 50
90.0
 51
149.9999999999962
  0
ARC
  5
175
330
58
100
AcDbEntity
  8
1
  6
Continuous
 62
     7
100
AcDbCircle
 10
90.69924936495488
 20
260.9659284573585
 30
0.0
 40
1.0
100
AcDbArc
 50
90.0
 51
105.3375576695471
  0
ARC
  5
176
330
58
100
AcDbEntity
  8
1
  6
Continuous
 62
     7
100
AcDbCircle
 10
113.7572704266855
 20
262.9659284573585
 30
0.0
 40
1.000000000000045
100
AcDbArc
 50
209.9999999999985
 51
270.0
  0
ARC
  5
177
330
58
100
AcDbEntity
  8
1
  6
Continuous
 62
     7
100
AcDbCircle
 10
112.0252196191166
 20
261.9659284573585
 30
0.0
 40
0.9999999999999712
100
AcDbArc
 50
30.00000000000095
 51
90.0
  0
ARC
  5
178
330
58
100
AcDbEntity
  8
1
  6
Continuous
 62
     7
100
AcDbCircle
 10
113.815291488416
 20
260.9659284573585
 30
0.0
 40
1.000000000000025
100
AcDbArc
 50
74.66244233044245
 51
90.0
  0
ENDBLK
  5
5A
330
58
100
AcDbEntity
  8
0
100
AcDbBlockEnd
  0
BLOCK
  5
5C
330
5B
100
AcDbEntity
  8
0
100
AcDbBlockBegin
  2
61-1-16-170
 70
     0
 10
-189.073190708882
 20
304.3617257781405
 30
0.0
  3
61-1-16-170
  1

  0
LINE
  5
179
330
5B
100
AcDbEntity
  8
1
  6
Continuous
 62
     7
100
AcDbLine
 10
243.397592505994
 20
267.4659284573587
 30
0.0
 11
243.397592505994
 21
268.4659284573587
 31
0.0
  0
LINE
  5
17A
330
5B
100
AcDbEntity
  8
1
  6
Continuous
 62
     7
100
AcDbLine
 10
227.397592505994
 20
267.4659284573588
 30
0.0
 11
227.397592505994
 21
268.4659284573588
 31
0.0
  0
LINE
  5
17B
330
5B
100
AcDbEntity
  8
1
  6
Continuous
 62
     7
100
AcDbLine
 10
378.397592505994
 20
287.4659284573588
 30
0.0
 11
262.397592505994
 21
287.4659284573588
 31
0.0
  0
LINE
  5
17C
330
5B
100
AcDbEntity
  8
1
  6
Continuous
 62
     7
100
AcDbLine
 10
413.397592505994
 20
268.4659284573588
 30
0.0
 11
413.397592505994
 21
262.9659284573588
 31
0.0
  0
LINE
  5
17D
330
5B
100
AcDbEntity
  8
1
  6
Continuous
 62
     7
100
AcDbLine
 10
397.397592505994
 20
262.9659284573588
 30
0.0
 11
397.397592505994
 21
268.4659284573588
 31
0.0
  0
LINE
  5
17E
330
5B
100
AcDbEntity
  8
1
  6
Continuous
 62
     7
100
AcDbLine
 10
378.397592505994
 20
303.4659284573588
 30
0.0
 11
262.397592505994
 21
303.4659284573588
 31
0.0
  0
LINE
  5
17F
330
5B
100
AcDbEntity
  8
1
  6
Continuous
 62
     7
100
AcDbLine
 10
242.7839995119801
 20
262.4659284573587
 30
0.0
 11
235.397592505994
 21
262.4659284573587
 31
0.0
  0
LINE
  5
180
330
5B
100
AcDbEntity
  8
1
  6
Continuous
 62
     7
100
AcDbLine
 10
235.397592505994
 20
262.4659284573587
 30
0.0
 11
228.0111855000079
 21
262.4659284573587
 31
0.0
  0
LINE
  5
181
330
5B
100
AcDbEntity
  8
1
  6
Continuous
 62
     7
100
AcDbLine
 10
243.397592505994
 20
267.4659284573587
 30
0.0
 11
227.397592505994
 21
267.4659284573588
 31
0.0
  0
LINE
  5
182
330
5B
100
AcDbEntity
  8
1
  6
Continuous
 62
     7
100
AcDbLine
 10
110.2572704266855
 20
563.3076338397302
 30
0.0
 11
110.2572704266855
 21
393.30763383973
 31
0.0
  0
LINE
  5
183
330
5B
100
AcDbEntity
  8
1
  6
Continuous
 62
     7
100
AcDbLine
 10
94.2572704266855
 20
563.3076338397302
 30
0.0
 11
94.2572704266855
 21
393.30763383973
 31
0.0
  0
LINE
  5
184
330
5B
100
AcDbEntity
  8
1
  6
PHANTOM
 62
     4
100
AcDbLine
 10
113.6314926205475
 20
393.30763383973
 30
0.0
 11
91.2793192144646
 21
393.30763383973
 31
0.0
  0
LINE
  5
185
330
5B
100
AcDbEntity
  8
1
  6
Continuous
 62
     7
100
AcDbLine
 10
110.2572704266855
 20
267.4659284573587
 30
0.0
 11
94.2572704266855
 21
267.4659284573588
 31
0.0
  0
LINE
  5
186
330
5B
100
AcDbEntity
  8
1
  6
Continuous
 62
     7
100
AcDbLine
 10
94.87086342069938
 20
262.4659284573587
 30
0.0
 11
109.6436774326716
 21
262.4659284573587
 31
0.0
  0
LINE
  5
187
330
5B
100
AcDbEntity
  8
1
  6
Continuous
 62
     7
100
AcDbLine
 10
110.2572704266855
 20
267.4659284573587
 30
0.0
 11
110.2572704266855
 21
295.4659284573588
 31
0.0
  0
LINE
  5
188
330
5B
100
AcDbEntity
  8
1
  6
Continuous
 62
     7
100
AcDbLine
 10
94.2572704266855
 20
267.4659284573588
 30
0.0
 11
94.2572704266855
 21
295.4659284573588
 31
0.0
  0
LINE
  5
189
330
5B
100
AcDbEntity
  8
1
  6
PHANTOM
 62
     4
100
AcDbLine
 10
91.74405001732651
 20
295.4659284573588
 30
0.0
 11
113.1499864351131
 21
295.4659284573588
 31
0.0
  0
ARC
  5
18A
330
5B
100
AcDbEntity
  8
1
  6
Continuous
 62
     7
100
AcDbCircle
 10
378.397592505994
 20
268.4659284573588
 30
0.0
 40
35.0
100
AcDbArc
 50
0.0
 51
27.66044989930284
  0
ARC
  5
18B
330
5B
100
AcDbEntity
  8
1
  6
Continuous
 62
     7
100
AcDbCircle
 10
240.1875662112758
 20
265.3222087501363
 30
0.0
 40
3.86002629471821
100
AcDbArc
 50
0.0
 51
33.73579100002926
  0
ARC
  5
18C
330
5B
100
AcDbEntity
  8
1
  6
Continuous
 62
     7
100
AcDbCircle
 10
230.6076188007123
 20
265.3222087501363
 30
0.0
 40
3.860026294718296
100
AcDbArc
 50
180.0
 51
227.7283445035804
  0
ARC
  5
18D
330
5B
100
AcDbEntity
  8
1
  6
Continuous
 62
     7
100
AcDbCircle
 10
230.6076188007123
 20
265.3222087501363
 30
0.0
 40
3.860026294718327
100
AcDbArc
 50
146.26420899997
 51
180.0
  0
ARC
  5
18E
330
5B
100
AcDbEntity
  8
1
  6
Continuous
 62
     7
100
AcDbCircle
 10
240.1875662112758
 20
265.3222087501363
 30
0.0
 40
3.860026294718233
100
AcDbArc
 50
312.271655496419
 51
0.0
  0
ARC
  5
18F
330
5B
100
AcDbEntity
  8
1
  6
Continuous
 62
     7
100
AcDbCircle
 10
262.397592505994
 20
268.4659284573587
 30
0.0
 40
19.00000000000011
100
AcDbArc
 50
90.0
 51
180.0
  0
ARC
  5
190
330
5B
100
AcDbEntity
  8
1
  6
Continuous
 62
     7
100
AcDbCircle
 10
262.397592505994
 20
268.4659284573587
 30
0.0
 40
35.00000000000011
100
AcDbArc
 50
90.0
 51
179.9999999999998
  0
ARC
  5
191
330
5B
100
AcDbEntity
  8
1
  6
Continuous
 62
     7
100
AcDbCircle
 10
378.397592505994
 20
268.4659284573588
 30
0.0
 40
19.0
100
AcDbArc
 50
0.0
 51
90.0
  0
ARC
  5
192
330
5B
100
AcDbEntity
  8
1
  6
Continuous
 62
     7
100
AcDbCircle
 10
378.397592505994
 20
268.4659284573588
 30
0.0
 40
34.99999999999999
100
AcDbArc
 50
48.91766685954953
 51
90.0
  0
ARC
  5
193
330
5B
100
AcDbEntity
  8
1
  6
Continuous
 62
     7
100
AcDbCircle
 10
102.2572704266855
 20
393.30763383973
 30
0.0
 40
8.0
100
AcDbArc
 50
180.0
 51
0.0
  0
ARC
  5
194
330
5B
100
AcDbEntity
  8
1
  6
Continuous
 62
     7
100
AcDbCircle
 10
102.2572704266855
 20
393.30763383973
 30
0.0
 40
8.650000000000205
100
AcDbArc
 50
270.0
 51
22.35342559933271
  0
ARC
  5
195
330
5B
100
AcDbEntity
  8
1
  6
Continuous
 62
     7
100
AcDbCircle
 10
102.2572704266855
 20
393.30763383973
 30
0.0
 40
8.650000000000093
100
AcDbArc
 50
157.6465744006673
 51
270.0
  0
ARC
  5
196
330
5B
100
AcDbEntity
  8
1
  6
Continuous
 62
     7
100
AcDbCircle
 10
107.0472441319673
 20
265.3222087501363
 30
0.0
 40
3.860026294718196
100
AcDbArc
 50
0.0
 51
33.73579100002937
  0
ARC
  5
197
330
5B
100
AcDbEntity
  8
1
  6
Continuous
 62
     7
100
AcDbCircle
 10
97.46729672140378
 20
265.3222087501363
 30
0.0
 40
3.860026294718296
100
AcDbArc
 50
180.0
 51
227.7283445035801
  0
ARC
  5
198
330
5B
100
AcDbEntity
  8
1
  6
Continuous
 62
     7
100
AcDbCircle
 10
97.46729672140378
 20
265.3222087501363
 30
0.0
 40
3.860026294718327
100
AcDbArc
 50
146.26420899997
 51
180.0
  0
ARC
  5
199
330
5B
100
AcDbEntity
  8
1
  6
Continuous
 62
     7
100
AcDbCircle
 10
107.0472441319673
 20
265.3222087501363
 30
0.0
 40
3.860026294718213
100
AcDbArc
 50
312.2716554964186
 51
0.0
  0
ARC
  5
19A
330
5B
100
AcDbEntity
  8
1
  6
Continuous
 62
     7
100
AcDbCircle
 10
102.2572704266855
 20
295.4659284573588
 30
0.0
 40
8.0
100
AcDbArc
 50
0.0
 51
180.0
  0
ARC
  5
19B
330
5B
100
AcDbEntity
  8
1
  6
Continuous
 62
     7
100
AcDbCircle
 10
102.2572704266854
 20
563.3076338397302
 30
0.0
 40
8.0000000000001
100
AcDbArc
 50
0.0
 51
180.0
  0
ENDBLK
  5
5D
330
5B
100
AcDbEntity
  8
0
100
AcDbBlockEnd
  0
BLOCK
  5
61
330
5E
100
AcDbEntity
  8
0
100
AcDbBlockBegin
  2
61-1X-16-170
 70
     0
 10
59.36579310158329
 20
245.4659284573585
 30
0.0
  3
61-1X-16-170
  1

  0
INSERT
  5
5F
330
5E
100
AcDbEntity
  8
0
100
AcDbBlockReference
  2
32-1-16
 10
177.0445485331941
 20
486.0008396999621
 30
0.0
 41
1.0
 42
1.0
 43
1.0
  0
INSERT
  5
60
330
5E
100
AcDbEntity
  8
0
100
AcDbBlockReference
  2
61-1-16-170
 10
-189.073190708882
 20
304.3617257781405
 30
0.0
 41
1.0
 42
1.0
 43
1.0
  0
LINE
  5
19C
330
5E
100
AcDbEntity
  8
1
  6
PHANTOM
 62
     4
100
AcDbLine
 10
102.2572704266855
 20
307.617409450079
 30
0.0
 11
102.2572704266855
 21
246.4659284573585
 31
0.0
  0
LINE
  5
19D
330
5E
100
AcDbEntity
  8
1
  6
PHANTOM
 62
     4
100
AcDbLine
 10
262.397592505994
 20
295.4659284573588
 30
0.0
 11
378.397592505994
 21
295.4659284573588
 31
0.0
  0
ARC
  5
19E
330
5E
100
AcDbEntity
  8
1
  6
PHANTOM
 62
     4
100
AcDbCircle
 10
378.397592505994
 20
268.4659284573588
 30
0.0
 40
27.0
100
AcDbArc
 50
0.0
 51
90.0
  0
ARC
  5
19F
330
5E
100
AcDbEntity
  8
1
  6
PHANTOM
 62
     4
100
AcDbCircle
 10
262.397592505994
 20
268.4659284573587
 30
0.0
 40
27.00000000000011
100
AcDbArc
 50
90.0
 51
180.0
  0
ENDBLK
  5
62
330
5E
100
AcDbEntity
  8
0
100
AcDbBlockEnd
  0
BLOCK
  5
64
330
63
100
AcDbEntity
  8
0
100
AcDbBlockBegin
  2
開示A4
 70
     0
 10
0.0
 20
0.0
 30
0.0
  3
開示A4
  1

  0
POINT
  5
1A0
330
63
100
AcDbEntity
  8
1
 62
     4
100
AcDbPoint
 10
34.0
 20
34.00000000000001
 30
0.0
  0
POINT
  5
1A1
330
63
100
AcDbEntity
  8
1
 62
     4
100
AcDbPoint
 10
57.0
 20
12.25
 30
0.0
  0
POINT
  5
1A2
330
63
100
AcDbEntity
  8
1
 62
     4
100
AcDbPoint
 10
57.0
 20
20.75000000000001
 30
0.0
  0
POINT
  5
1A3
330
63
100
AcDbEntity
  8
1
 62
     4
100
AcDbPoint
 10
57.0
 20
24.75000000000001
 30
0.0
  0
POINT
  5
1A4
330
63
100
AcDbEntity
  8
1
 62
     4
100
AcDbPoint
 10
57.0
 20
16.25
 30
0.0
  0
POINT
  5
1A5
330
63
100
AcDbEntity
  8
1
 62
     4
100
AcDbPoint
 10
157.5
 20
19.00000000000001
 30
0.0
  0
POINT
  5
1A6
330
63
100
AcDbEntity
  8
1
 62
     4
100
AcDbPoint
 10
47.5
 20
282.0000000000003
 30
0.0
  0
POINT
  5
1A7
330
63
100
AcDbEntity
  8
1
 62
     4
100
AcDbPoint
 10
57.0
 20
22.75000000000001
 30
0.0
  0
POINT
  5
1A8
330
63
100
AcDbEntity
  8
1
 62
     4
100
AcDbPoint
 10
57.0
 20
14.25
 30
0.0
  0
POINT
  5
1A9
330
63
100
AcDbEntity
  8
1
 62
     4
100
AcDbPoint
 10
157.5
 20
12.5
 30
0.0
  0
POINT
  5
1AA
330
63
100
AcDbEntity
  8
1
 62
     4
100
AcDbPoint
 10
163.25
 20
12.5
 30
0.0
  0
POINT
  5
1AB
330
63
100
AcDbEntity
  8
1
 62
     4
100
AcDbPoint
 10
151.75
 20
12.5
 30
0.0
  0
POINT
  5
1AC
330
63
100
AcDbEntity
  8
1
 62
     4
100
AcDbPoint
 10
134.75
 20
12.5
 30
0.0
  0
POINT
  5
1AD
330
63
100
AcDbEntity
  8
1
 62
     4
100
AcDbPoint
 10
146.25
 20
12.5
 30
0.0
  0
POINT
  5
1AE
330
63
100
AcDbEntity
  8
1
 62
     4
100
AcDbPoint
 10
140.5
 20
12.5
 30
0.0
  0
POINT
  5
1AF
330
63
100
AcDbEntity
  8
1
 62
     4
100
AcDbPoint
 10
140.5
 20
19.00000000000001
 30
0.0
  0
POINT
  5
1B0
330
63
100
AcDbEntity
  8
1
 62
     4
100
AcDbPoint
 10
117.75
 20
12.5
 30
0.0
  0
POINT
  5
1B1
330
63
100
AcDbEntity
  8
1
 62
     4
100
AcDbPoint
 10
129.25
 20
12.5
 30
0.0
  0
POINT
  5
1B2
330
63
100
AcDbEntity
  8
1
 62
     4
100
AcDbPoint
 10
123.5
 20
12.5
 30
0.0
  0
POINT
  5
1B3
330
63
100
AcDbEntity
  8
1
 62
     4
100
AcDbPoint
 10
123.5
 20
19.00000000000001
 30
0.0
  0
POINT
  5
1B4
330
63
100
AcDbEntity
  8
1
 62
     4
100
AcDbPoint
 10
100.75
 20
12.5
 30
0.0
  0
POINT
  5
1B5
330
63
100
AcDbEntity
  8
1
 62
     4
100
AcDbPoint
 10
112.25
 20
12.5
 30
0.0
  0
POINT
  5
1B6
330
63
100
AcDbEntity
  8
1
 62
     4
100
AcDbPoint
 10
106.5
 20
12.5
 30
0.0
  0
POINT
  5
1B7
330
63
100
AcDbEntity
  8
1
 62
     4
100
AcDbPoint
 10
106.5
 20
19.00000000000001
 30
0.0
  0
POINT
  5
1B8
330
63
100
AcDbEntity
  8
1
 62
     4
100
AcDbPoint
 10
85.25
 20
17.0
 30
0.0
  0
POINT
  5
1B9
330
63
100
AcDbEntity
  8
1
 62
     4
100
AcDbPoint
 10
93.75
 20
17.0
 30
0.0
  0
LINE
  5
1BA
330
63
100
AcDbEntity
  8
1
  6
Continuous
 62
     2
100
AcDbLine
 10
81.0
 20
27.00000000000001
 30
0.0
 11
81.0
 21
10.0
 31
0.0
  0
LINE
  5
1BB
330
63
100
AcDbEntity
  8
1
  6
DOT_CENTER
 62
     2
100
AcDbLine
 10
187.0
 20
26.50000000000001
 30
0.0
 11
187.0
 21
20.50000000000001
 31
0.0
  0
LINE
  5
1BC
330
63
100
AcDbEntity
  8
1
  6
DOT_CENTER
 62
     2
100
AcDbLine
 10
184.0
 20
23.50000000000001
 30
0.0
 11
197.0
 21
23.50000000000001
 31
0.0
  0
LINE
  5
1BD
330
63
100
AcDbEntity
  8
1
  6
Continuous
 62
     7
100
AcDbLine
 10
196.0
 20
21.50000000000001
 30
0.0
 11
191.0
 21
22.30000000000001
 31
0.0
  0
LINE
  5
1BE
330
63
100
AcDbEntity
  8
1
  6
Continuous
 62
     7
100
AcDbLine
 10
196.0
 20
25.50000000000001
 30
0.0
 11
196.0
 21
21.50000000000001
 31
0.0
  0
LINE
  5
1BF
330
63
100
AcDbEntity
  8
1
  6
Continuous
 62
     7
100
AcDbLine
 10
191.0
 20
24.70000000000001
 30
0.0
 11
196.0
 21
25.50000000000001
 31
0.0
  0
LINE
  5
1C0
330
63
100
AcDbEntity
  8
1
  6
Continuous
 62
     7
100
AcDbLine
 10
191.0
 20
24.70000000000001
 30
0.0
 11
191.0
 21
22.30000000000001
 31
0.0
  0
LINE
  5
1C1
330
63
100
AcDbEntity
  8
1
  6
Continuous
 62
     2
100
AcDbLine
 10
33.0
 20
27.0
 30
0.0
 11
33.0
 21
10.0
 31
0.0
  0
LINE
  5
1C2
330
63
100
AcDbEntity
  8
1
  6
Continuous
 62
     2
100
AcDbLine
 10
25.0
 20
18.50000000000001
 30
0.0
 11
81.0
 21
18.50000000000001
 31
0.0
  0
LINE
  5
1C3
330
63
100
AcDbEntity
  8
1
  6
Continuous
 62
     7
100
AcDbLine
 10
200.0
 20
287.0000000000003
 30
0.0
 11
105.0
 21
287.0000000000003
 31
0.0
  0
LINE
  5
1C4
330
63
100
AcDbEntity
  8
1
  6
Continuous
 62
     7
100
AcDbLine
 10
200.0
 20
10.0
 30
0.0
 11
200.0
 21
148.5
 31
0.0
  0
LINE
  5
1C5
330
63
100
AcDbEntity
  8
1
  6
Continuous
 62
     7
100
AcDbLine
 10
25.0
 20
10.0
 30
0.0
 11
105.0
 21
10.0
 31
0.0
  0
LINE
  5
1C6
330
63
100
AcDbEntity
  8
1
  6
PHANTOM
 62
     4
100
AcDbLine
 10
0.0
 20
297.0
 30
0.0
 11
0.0
 21
0.0
 31
0.0
  0
LINE
  5
1C7
330
63
100
AcDbEntity
  8
1
  6
PHANTOM
 62
     4
100
AcDbLine
 10
210.0
 20
297.0
 30
0.0
 11
0.0
 21
297.0
 31
0.0
  0
LINE
  5
1C8
330
63
100
AcDbEntity
  8
1
  6
PHANTOM
 62
     4
100
AcDbLine
 10
210.0
 20
0.0
 30
0.0
 11
210.0
 21
297.0
 31
0.0
  0
LINE
  5
1C9
330
63
100
AcDbEntity
  8
1
  6
PHANTOM
 62
     4
100
AcDbLine
 10
0.0
 20
0.0
 30
0.0
 11
210.0
 21
0.0
 31
0.0
  0
LINE
  5
1CA
330
63
100
AcDbEntity
  8
1
  6
Continuous
 62
     7
100
AcDbLine
 10
25.0
 20
41.0
 30
0.0
 11
200.0
 21
41.0
 31
0.0
  0
LINE
  5
1CB
330
63
100
AcDbEntity
  8
1
  6
Continuous
 62
     7
100
AcDbLine
 10
200.0
 20
27.00000000000001
 30
0.0
 11
25.0
 21
27.00000000000001
 31
0.0
  0
LINE
  5
1CC
330
63
100
AcDbEntity
  8
1
  6
Continuous
 62
     2
100
AcDbLine
 10
33.0
 20
41.00000000000001
 30
0.0
 11
33.0
 21
27.0
 31
0.0
  0
LINE
  5
1CD
330
63
100
AcDbEntity
  8
1
  6
Continuous
 62
     2
100
AcDbLine
 10
55.0
 20
287.0000000000003
 30
0.0
 11
55.0
 21
277.0000000000003
 31
0.0
  0
LINE
  5
1CE
330
63
100
AcDbEntity
  8
1
  6
Continuous
 62
     2
100
AcDbLine
 10
40.0
 20
287.0000000000003
 30
0.0
 11
40.0
 21
277.0000000000003
 31
0.0
  0
LINE
  5
1CF
330
63
100
AcDbEntity
  8
1
  6
Continuous
 62
     7
100
AcDbLine
 10
25.0
 20
10.0
 30
0.0
 11
25.0
 21
148.5
 31
0.0
  0
LINE
  5
1D0
330
63
100
AcDbEntity
  8
1
  6
Continuous
 62
     2
100
AcDbLine
 10
55.0
 20
277.0000000000003
 30
0.0
 11
25.0
 21
277.0000000000003
 31
0.0
  0
LINE
  5
1D1
330
63
100
AcDbEntity
  8
1
  6
Continuous
 62
     2
100
AcDbLine
 10
166.0
 20
27.00000000000001
 30
0.0
 11
166.0
 21
10.0
 31
0.0
  0
LINE
  5
1D2
330
63
100
AcDbEntity
  8
1
  6
Continuous
 62
     2
100
AcDbLine
 10
132.0
 20
27.00000000000001
 30
0.0
 11
132.0
 21
9.99999999999999
 31
0.0
  0
LINE
  5
1D3
330
63
100
AcDbEntity
  8
1
  6
Continuous
 62
     2
100
AcDbLine
 10
149.0
 20
27.00000000000001
 30
0.0
 11
149.0
 21
10.0
 31
0.0
  0
LINE
  5
1D4
330
63
100
AcDbEntity
  8
1
  6
Continuous
 62
     2
100
AcDbLine
 10
115.0
 20
27.00000000000001
 30
0.0
 11
115.0
 21
9.99999999999999
 31
0.0
  0
LINE
  5
1D5
330
63
100
AcDbEntity
  8
1
  6
Continuous
 62
     2
100
AcDbLine
 10
98.0
 20
27.00000000000001
 30
0.0
 11
98.0
 21
9.99999999999999
 31
0.0
  0
LINE
  5
1D6
330
63
100
AcDbEntity
  8
1
  6
Continuous
 62
     2
100
AcDbLine
 10
166.0
 20
20.00000000000001
 30
0.0
 11
200.0
 21
20.00000000000001
 31
0.0
  0
LINE
  5
1D7
330
63
100
AcDbEntity
  8
1
  6
Continuous
 62
     2
100
AcDbLine
 10
105.0
 20
287.0000000000003
 30
0.0
 11
105.0
 21
292.0000000000003
 31
0.0
  0
LINE
  5
1D8
330
63
100
AcDbEntity
  8
1
  6
Continuous
 62
     7
100
AcDbLine
 10
105.0
 20
287.0000000000003
 30
0.0
 11
25.0
 21
287.0000000000003
 31
0.0
  0
LINE
  5
1D9
330
63
100
AcDbEntity
  8
1
  6
Continuous
 62
     2
100
AcDbLine
 10
25.0
 20
148.5
 30
0.0
 11
20.0
 21
148.5
 31
0.0
  0
LINE
  5
1DA
330
63
100
AcDbEntity
  8
1
  6
Continuous
 62
     7
100
AcDbLine
 10
25.0
 20
148.5
 30
0.0
 11
25.0
 21
287.0000000000003
 31
0.0
  0
LINE
  5
1DB
330
63
100
AcDbEntity
  8
1
  6
Continuous
 62
     2
100
AcDbLine
 10
200.0
 20
148.5
 30
0.0
 11
205.0
 21
148.5
 31
0.0
  0
LINE
  5
1DC
330
63
100
AcDbEntity
  8
1
  6
Continuous
 62
     7
100
AcDbLine
 10
200.0
 20
148.5
 30
0.0
 11
200.0
 21
287.0000000000003
 31
0.0
  0
LINE
  5
1DD
330
63
100
AcDbEntity
  8
1
  6
Continuous
 62
     2
100
AcDbLine
 10
105.0
 20
10.0
 30
0.0
 11
105.0
 21
5.0
 31
0.0
  0
LINE
  5
1DE
330
63
100
AcDbEntity
  8
1
  6
Continuous
 62
     7
100
AcDbLine
 10
105.0
 20
10.0
 30
0.0
 11
200.0
 21
10.0
 31
0.0
  0
CIRCLE
  5
1DF
330
63
100
AcDbEntity
  8
1
  6
DOT_CENTER
 62
     7
100
AcDbCircle
 10
89.5
 20
18.0
 30
0.0
 40
0.1000000000000227
  0
CIRCLE
  5
1E0
330
63
100
AcDbEntity
  8
1
  6
DOT_CENTER
 62
     7
100
AcDbCircle
 10
89.5
 20
16.0
 30
0.0
 40
0.1000000000000227
  0
CIRCLE
  5
1E1
330
63
100
AcDbEntity
  8
1
  6
Continuous
 62
     7
100
AcDbCircle
 10
187.0
 20
23.50000000000001
 30
0.0
 40
2.0
  0
CIRCLE
  5
1E2
330
63
100
AcDbEntity
  8
1
  6
Continuous
 62
     7
100
AcDbCircle
 10
187.0
 20
23.50000000000001
 30
0.0
 40
1.200000000000102
  0
CIRCLE
  5
1E3
330
63
100
AcDbEntity
  8
1
  6
Continuous
 62
     7
100
AcDbCircle
 10
154.5
 20
12.5
 30
0.0
 40
0.3000000000000114
  0
CIRCLE
  5
1E4
330
63
100
AcDbEntity
  8
1
  6
Continuous
 62
     7
100
AcDbCircle
 10
160.5
 20
12.5
 30
0.0
 40
0.3000000000000114
  0
CIRCLE
  5
1E5
330
63
100
AcDbEntity
  8
1
  6
Continuous
 62
     7
100
AcDbCircle
 10
143.5
 20
12.5
 30
0.0
 40
0.3000000000000114
  0
CIRCLE
  5
1E6
330
63
100
AcDbEntity
  8
1
  6
Continuous
 62
     7
100
AcDbCircle
 10
137.5
 20
12.5
 30
0.0
 40
0.3000000000000114
  0
CIRCLE
  5
1E7
330
63
100
AcDbEntity
  8
1
  6
Continuous
 62
     7
100
AcDbCircle
 10
126.5
 20
12.5
 30
0.0
 40
0.2999999999999972
  0
CIRCLE
  5
1E8
330
63
100
AcDbEntity
  8
1
  6
Continuous
 62
     7
100
AcDbCircle
 10
120.5
 20
12.5
 30
0.0
 40
0.2999999999999972
  0
CIRCLE
  5
1E9
330
63
100
AcDbEntity
  8
1
  6
Continuous
 62
     7
100
AcDbCircle
 10
109.5
 20
12.5
 30
0.0
 40
0.2999999999999972
  0
CIRCLE
  5
1EA
330
63
100
AcDbEntity
  8
1
  6
Continuous
 62
     7
100
AcDbCircle
 10
103.5
 20
12.5
 30
0.0
 40
0.2999999999999972
  0
MTEXT
  5
1EC
330
63
100
AcDbEntity
  8
1
 62
   250
100
AcDbMText
 10
25.0
 20
5.0
 30
0.0
 40
3.5
 41
0.0
 71
     4
 72
     1
  1
備考欄の文字列 原点位置=4
  7
CONVERTER_11
 73
     1
 44
0.54545454545455
  0
MTEXT
  5
1ED
330
63
100
AcDbEntity
  8
1
 62
     2
100
AcDbMText
 10
89.5
 20
24.00000000000001
 30
0.0
 40
3.5
 41
0.0
 71
     5
 72
     1
  1
尺度
  7
CONVERTER_11
 73
     1
 44
0.54545454545455
  0
MTEXT
  5
1EE
330
63
100
AcDbEntity
  8
1
 62
     2
100
AcDbMText
 10
135.5
 20
25.00000000000001
 30
0.0
 40
3.0
 41
0.0
 71
     5
 72
     1
  1
製図
  7
CONVERTER_11
 73
     1
 44
0.59090909090909
  0
MTEXT
  5
1EF
330
63
100
AcDbEntity
  8
1
 62
     2
100
AcDbMText
 10
152.5
 20
25.00000000000001
 30
0.0
 40
3.0
 41
0.0
 71
     5
 72
     1
  1
設計
  7
CONVERTER_11
 73
     1
 44
0.59090909090909
  0
MTEXT
  5
1F0
330
63
100
AcDbEntity
  8
1
 62
     2
100
AcDbMText
 10
118.5
 20
25.00000000000001
 30
0.0
 40
3.0
 41
0.0
 71
     5
 72
     1
  1
検図
  7
CONVERTER_11
 73
     1
 44
0.59090909090909
  0
MTEXT
  5
1F1
330
63
100
AcDbEntity
  8
1
 62
     2
100
AcDbMText
 10
175.0
 20
23.50000000000001
 30
0.0
 40
3.5
 41
0.0
 71
     5
 72
     1
  1
第三角法
  7
CONVERTER_11
 73
     1
 44
0.54545454545455
  0
MTEXT
  5
1F2
330
63
100
AcDbEntity
  8
1
 62
     2
100
AcDbMText
 10
101.5
 20
25.00000000000001
 30
0.0
 40
3.0
 41
0.0
 71
     5
 72
     1
  1
承認
  7
CONVERTER_11
 73
     1
 44
0.59090909090909
  0
MTEXT
  5
1F3
330
63
100
AcDbEntity
  8
1
 62
     2
100
AcDbMText
 10
29.0
 20
14.25
 30
0.0
 40
3.5
 41
0.0
 71
     5
 72
     1
  1
品番
  7
CONVERTER_11
 73
     1
 44
0.72727272727273
  0
MTEXT
  5
1F4
330
63
100
AcDbEntity
  8
1
 62
     2
100
AcDbMText
 10
29.0
 20
22.75
 30
0.0
 40
3.5
 41
0.0
 71
     5
 72
     1
  1
品名
  7
CONVERTER_11
 73
     1
 44
0.72727272727273
  0
MTEXT
  5
1F5
330
63
100
AcDbEntity
  8
1
 62
     2
100
AcDbMText
 10
29.0
 20
34.00000000000001
 30
0.0
 40
3.5
 41
0.0
 71
     5
 72
     1
  1
備考
  7
CONVERTER_11
 73
     1
 44
0.45454545454545
  0
MTEXT
  5
1F6
330
63
100
AcDbEntity
  8
1
 62
     2
100
AcDbMText
 10
32.5
 20
282.0000000000003
 30
0.0
 40
5.0
 41
0.0
 71
     5
 72
     1
  1
図番
  7
CONVERTER_11
 73
     1
 44
0.45454545454545
  0
MTEXT
  5
1F7
330
63
100
AcDbEntity
  8
1
 62
     7
100
AcDbMText
 10
171.5
 20
15.0
 30
0.0
 40
2.5
 41
0.0
 71
     5
 72
     1
  1
株式会社
  7
CONVERTER_11
 73
     1
 44
1.0
  0
MTEXT
  5
1F8
330
63
100
AcDbEntity
  8
1
 62
     7
100
AcDbMText
 10
188.5
 20
15.0
 30
0.0
 40
3.0
 41
0.0
 71
     5
 72
     1
  1
三栄水栓製作所
  7
CONVERTER_11
 73
     1
 44
1.0
  0
ENDBLK
  5
65
330
63
100
AcDbEntity
  8
0
100
AcDbBlockEnd
  0
BLOCK
  5
67
330
66
100
AcDbEntity
  8
0
100
AcDbBlockBegin
  2
A2310-0-13-M1
 70
     0
 10
135.2572704266855
 20
204.9659284573584
 30
0.0
  3
A2310-0-13-M1
  1

  0
LINE
  5
1F9
330
66
100
AcDbEntity
  8
1
  6
PHANTOM
 62
     4
100
AcDbLine
 10
405.3975925059947
 20
260.9659284573583
 30
0.0
 11
405.3975925059947
 21
210.9659284573583
 31
0.0
  0
LINE
  5
1FA
330
66
100
AcDbEntity
  8
1
  6
PHANTOM
 62
     4
100
AcDbLine
 10
388.3975925059947
 20
227.9659284573583
 30
0.0
 11
467.4353990377479
 21
227.9659284573583
 31
0.0
  0
LINE
  5
1FB
330
66
100
AcDbEntity
  8
1
  6
Continuous
 62
     7
100
AcDbLine
 10
392.0417796773608
 20
232.6865551892375
 30
0.0
 11
391.5910408168065
 21
230.0522794543586
 31
0.0
  0
LINE
  5
1FC
330
66
100
AcDbEntity
  8
1
  6
Continuous
 62
     7
100
AcDbLine
 10
423.7278952858179
 20
218.9659284573583
 30
0.0
 11
431.7096375628213
 21
219.2159284573587
 31
0.0
  0
LINE
  5
1FD
330
66
100
AcDbEntity
  8
1
  6
Continuous
 62
     7
100
AcDbLine
 10
401.0225925059934
 20
251.4659284573587
 30
0.0
 11
392.397592505994
 21
251.4659284573587
 31
0.0
  0
LINE
  5
1FE
330
66
100
AcDbEntity
  8
1
  6
Continuous
 62
     7
100
AcDbLine
 10
443.897592505994
 20
219.2159284573587
 30
0.0
 11
431.7096375628213
 21
219.2159284573587
 31
0.0
  0
LINE
  5
1FF
330
66
100
AcDbEntity
  8
1
  6
Continuous
 62
     7
100
AcDbLine
 10
412.0111733771012
 20
251.4659284573587
 30
0.0
 11
409.7725925059934
 21
251.4659284573587
 31
0.0
  0
LINE
  5
200
330
66
100
AcDbEntity
  8
1
  6
Continuous
 62
     7
100
AcDbLine
 10
452.129643313563
 20
217.4659284573587
 30
0.0
 11
452.129643313563
 21
218.4659284573587
 31
0.0
  0
LINE
  5
201
330
66
100
AcDbEntity
  8
1
  6
Continuous
 62
     7
100
AcDbLine
 10
463.397592505994
 20
217.4659284573587
 30
0.0
 11
450.397592505994
 21
217.4659284573587
 31
0.0
  0
LINE
  5
202
330
66
100
AcDbEntity
  8
1
  6
Continuous
 62
     7
100
AcDbLine
 10
450.397592505994
 20
238.4659284573588
 30
0.0
 11
463.397592505994
 21
238.4659284573588
 31
0.0
  0
LINE
  5
203
330
66
100
AcDbEntity
  8
1
  6
Continuous
 62
     7
100
AcDbLine
 10
464.397592505994
 20
237.4659284573588
 30
0.0
 11
463.397592505994
 21
238.4659284573588
 31
0.0
  0
LINE
  5
204
330
66
100
AcDbEntity
  8
1
  6
Continuous
 62
     7
100
AcDbLine
 10
452.129643313563
 20
237.4659284573588
 30
0.0
 11
452.129643313563
 21
238.4659284573588
 31
0.0
  0
LINE
  5
205
330
66
100
AcDbEntity
  8
1
  6
Continuous
 62
     7
100
AcDbLine
 10
463.397592505994
 20
238.4659284573588
 30
0.0
 11
463.397592505994
 21
237.4659284573588
 31
0.0
  0
LINE
  5
206
330
66
100
AcDbEntity
  8
1
  6
Continuous
 62
     7
100
AcDbLine
 10
463.397592505994
 20
218.4659284573587
 30
0.0
 11
463.397592505994
 21
217.4659284573587
 31
0.0
  0
LINE
  5
207
330
66
100
AcDbEntity
  8
1
  6
Continuous
 62
     7
100
AcDbLine
 10
463.397592505994
 20
217.4659284573587
 30
0.0
 11
464.397592505994
 21
218.4659284573587
 31
0.0
  0
LINE
  5
208
330
66
100
AcDbEntity
  8
1
  6
Continuous
 62
     7
100
AcDbLine
 10
464.397592505994
 20
237.4659284573588
 30
0.0
 11
464.397592505994
 21
218.4659284573587
 31
0.0
  0
LINE
  5
209
330
66
100
AcDbEntity
  8
1
  6
Continuous
 62
     7
100
AcDbLine
 10
418.397592505994
 20
249.7338776497899
 30
0.0
 11
418.397592505994
 21
252.9659284573587
 31
0.0
  0
LINE
  5
20A
330
66
100
AcDbEntity
  8
1
  6
Continuous
 62
     7
100
AcDbLine
 10
418.397592505994
 20
251.4659284573587
 30
0.0
 11
412.0111733771012
 21
251.4659284573587
 31
0.0
  0
LINE
  5
20B
330
66
100
AcDbEntity
  8
1
  6
Continuous
 62
     7
100
AcDbLine
 10
392.397592505994
 20
252.9659284573587
 30
0.0
 11
392.397592505994
 21
237.2933075104476
 31
0.0
  0
LINE
  5
20C
330
66
100
AcDbEntity
  8
1
  6
Continuous
 62
     7
100
AcDbLine
 10
418.397592505994
 20
249.7338776497899
 30
0.0
 11
418.397592505994
 21
248.7159284573587
 31
0.0
  0
LINE
  5
20D
330
66
100
AcDbEntity
  8
1
  6
Continuous
 62
     2
100
AcDbLine
 10
393.397592505994
 20
251.4659284573587
 30
0.0
 11
393.397592505994
 21
252.9659284573587
 31
0.0
  0
LINE
  5
20E
330
66
100
AcDbEntity
  8
1
  6
Continuous
 62
     2
100
AcDbLine
 10
393.397592505994
 20
251.4659284573587
 30
0.0
 11
392.397592505994
 21
249.7338776497899
 31
0.0
  0
LINE
  5
20F
330
66
100
AcDbEntity
  8
1
  6
Continuous
 62
     2
100
AcDbLine
 10
418.397592505994
 20
249.7338776497899
 30
0.0
 11
417.397592505994
 21
251.4659284573587
 31
0.0
  0
LINE
  5
210
330
66
100
AcDbEntity
  8
1
  6
Continuous
 62
     7
100
AcDbLine
 10
447.897592505994
 20
240.7159284573588
 30
0.0
 11
447.897592505994
 21
250.4659284573587
 31
0.0
  0
LINE
  5
211
330
66
100
AcDbEntity
  8
1
  6
Continuous
 62
     7
100
AcDbLine
 10
443.897592505994
 20
236.7159284573588
 30
0.0
 11
430.397592505994
 21
236.7159284573588
 31
0.0
  0
LINE
  5
212
330
66
100
AcDbEntity
  8
1
  6
Continuous
 62
     2
100
AcDbLine
 10
452.129643313563
 20
237.4659284573588
 30
0.0
 11
464.397592505994
 21
237.4659284573588
 31
0.0
  0
LINE
  5
213
330
66
100
AcDbEntity
  8
1
  6
Continuous
 62
     2
100
AcDbLine
 10
450.397592505994
 20
238.4659284573588
 30
0.0
 11
452.129643313563
 21
237.4659284573588
 31
0.0
  0
LINE
  5
214
330
66
100
AcDbEntity
  8
1
  6
Continuous
 62
     7
100
AcDbLine
 10
450.397592505994
 20
250.9659284573587
 30
0.0
 11
450.397592505994
 21
238.4659284573588
 31
0.0
  0
LINE
  5
215
330
66
100
AcDbEntity
  8
1
  6
Continuous
 62
     7
100
AcDbLine
 10
450.397592505994
 20
250.9659284573587
 30
0.0
 11
448.397592505994
 21
250.9659284573587
 31
0.0
  0
LINE
  5
216
330
66
100
AcDbEntity
  8
1
  6
Continuous
 62
     2
100
AcDbLine
 10
464.397592505994
 20
218.4659284573587
 30
0.0
 11
452.129643313563
 21
218.4659284573587
 31
0.0
  0
LINE
  5
217
330
66
100
AcDbEntity
  8
1
  6
Continuous
 62
     7
100
AcDbLine
 10
447.897592505994
 20
205.4659284573588
 30
0.0
 11
447.897592505994
 21
215.2159284573587
 31
0.0
  0
LINE
  5
218
330
66
100
AcDbEntity
  8
1
  6
Continuous
 62
     7
100
AcDbLine
 10
448.397592505994
 20
204.9659284573588
 30
0.0
 11
450.397592505994
 21
204.9659284573588
 31
0.0
  0
LINE
  5
219
330
66
100
AcDbEntity
  8
1
  6
Continuous
 62
     7
100
AcDbLine
 10
450.397592505994
 20
217.4659284573587
 30
0.0
 11
450.397592505994
 21
204.9659284573588
 31
0.0
  0
LINE
  5
21A
330
66
100
AcDbEntity
  8
1
  6
Continuous
 62
     2
100
AcDbLine
 10
452.129643313563
 20
218.4659284573587
 30
0.0
 11
450.397592505994
 21
217.4659284573587
 31
0.0
  0
LINE
  5
21B
330
66
100
AcDbEntity
  8
1
  6
Continuous
 62
     2
100
AcDbLine
 10
417.397592505994
 20
252.9659284573587
 30
0.0
 11
417.397592505994
 21
251.4659284573587
 31
0.0
  0
LINE
  5
21C
330
66
100
AcDbEntity
  8
1
  6
Continuous
 62
     7
100
AcDbLine
 10
447.897592505994
 20
240.7159284573588
 30
0.0
 11
447.897592505994
 21
215.2159284573587
 31
0.0
  0
LINE
  5
21D
330
66
100
AcDbEntity
  8
1
  6
Continuous
 62
     7
100
AcDbLine
 10
450.397592505994
 20
238.4659284573588
 30
0.0
 11
450.397592505994
 21
217.4659284573587
 31
0.0
  0
LINE
  5
21E
330
66
100
AcDbEntity
  8
1
  6
Continuous
 62
     7
100
AcDbLine
 10
452.129643313563
 20
218.4659284573587
 30
0.0
 11
452.129643313563
 21
237.4659284573588
 31
0.0
  0
LINE
  5
21F
330
66
100
AcDbEntity
  8
1
  6
Continuous
 62
     7
100
AcDbLine
 10
463.397592505994
 20
237.4659284573588
 30
0.0
 11
463.397592505994
 21
218.4659284573587
 31
0.0
  0
LINE
  5
220
330
66
100
AcDbEntity
  8
1
  6
Continuous
 62
     2
100
AcDbLine
 10
92.757270426686
 20
610.0396846472986
 30
0.0
 11
92.757270426686
 21
622.3076338397295
 31
0.0
  0
LINE
  5
221
330
66
100
AcDbEntity
  8
1
  6
Continuous
 62
     2
100
AcDbLine
 10
91.757270426686
 20
608.3076338397295
 30
0.0
 11
92.757270426686
 21
610.0396846472986
 31
0.0
  0
LINE
  5
222
330
66
100
AcDbEntity
  8
1
  6
Continuous
 62
     7
100
AcDbLine
 10
79.257270426686
 20
608.3076338397295
 30
0.0
 11
125.257270426686
 21
608.3076338397295
 31
0.0
  0
LINE
  5
223
330
66
100
AcDbEntity
  8
1
  6
Continuous
 62
     7
100
AcDbLine
 10
79.257270426686
 20
608.3076338397295
 30
0.0
 11
79.257270426686
 21
606.3076338397295
 31
0.0
  0
LINE
  5
224
330
66
100
AcDbEntity
  8
1
  6
Continuous
 62
     7
100
AcDbLine
 10
124.757270426686
 20
605.8076338397295
 30
0.0
 11
79.757270426686
 21
605.8076338397295
 31
0.0
  0
LINE
  5
225
330
66
100
AcDbEntity
  8
1
  6
Continuous
 62
     7
100
AcDbLine
 10
93.507270426686
 20
582.1739397844569
 30
0.0
 11
93.507270426686
 21
601.8076338397295
 31
0.0
  0
LINE
  5
226
330
66
100
AcDbEntity
  8
1
  6
Continuous
 62
     7
100
AcDbLine
 10
125.257270426686
 20
606.3076338397295
 30
0.0
 11
125.257270426686
 21
608.3076338397295
 31
0.0
  0
LINE
  5
227
330
66
100
AcDbEntity
  8
1
  6
Continuous
 62
     2
100
AcDbLine
 10
111.757270426686
 20
610.0396846472986
 30
0.0
 11
112.757270426686
 21
608.3076338397295
 31
0.0
  0
LINE
  5
228
330
66
100
AcDbEntity
  8
1
  6
Continuous
 62
     2
100
AcDbLine
 10
111.757270426686
 20
622.3076338397295
 30
0.0
 11
111.757270426686
 21
610.0396846472986
 31
0.0
  0
LINE
  5
229
330
66
100
AcDbEntity
  8
1
  6
Continuous
 62
     7
100
AcDbLine
 10
111.007270426686
 20
587.9358165980227
 30
0.0
 11
111.007270426686
 21
601.8076338397295
 31
0.0
  0
LINE
  5
22A
330
66
100
AcDbEntity
  8
1
  6
Continuous
 62
     7
100
AcDbLine
 10
112.757270426686
 20
621.3076338397295
 30
0.0
 11
112.757270426686
 21
608.3076338397295
 31
0.0
  0
LINE
  5
22B
330
66
100
AcDbEntity
  8
1
  6
Continuous
 62
     7
100
AcDbLine
 10
112.757270426686
 20
621.3076338397295
 30
0.0
 11
111.757270426686
 21
622.3076338397295
 31
0.0
  0
LINE
  5
22C
330
66
100
AcDbEntity
  8
1
  6
Continuous
 62
     7
100
AcDbLine
 10
112.757270426686
 20
610.0396846472986
 30
0.0
 11
91.757270426686
 21
610.0396846472986
 31
0.0
  0
LINE
  5
22D
330
66
100
AcDbEntity
  8
1
  6
Continuous
 62
     7
100
AcDbLine
 10
91.757270426686
 20
621.3076338397295
 30
0.0
 11
112.757270426686
 21
621.3076338397295
 31
0.0
  0
LINE
  5
22E
330
66
100
AcDbEntity
  8
1
  6
Continuous
 62
     7
100
AcDbLine
 10
91.757270426686
 20
608.3076338397295
 30
0.0
 11
91.757270426686
 21
621.3076338397295
 31
0.0
  0
LINE
  5
22F
330
66
100
AcDbEntity
  8
1
  6
Continuous
 62
     7
100
AcDbLine
 10
92.757270426686
 20
622.3076338397295
 30
0.0
 11
91.757270426686
 21
621.3076338397295
 31
0.0
  0
LINE
  5
230
330
66
100
AcDbEntity
  8
1
  6
Continuous
 62
     7
100
AcDbLine
 10
92.757270426686
 20
622.3076338397295
 30
0.0
 11
111.757270426686
 21
622.3076338397295
 31
0.0
  0
LINE
  5
231
330
66
100
AcDbEntity
  8
1
  6
Continuous
 62
     7
100
AcDbLine
 10
124.2572704266855
 20
575.3076338397302
 30
0.0
 11
124.2572704266855
 21
575.816883592553
 31
0.0
  0
LINE
  5
232
330
66
100
AcDbEntity
  8
1
  6
Continuous
 62
     7
100
AcDbLine
 10
124.5252196191167
 20
575.3076338397302
 30
0.0
 11
124.2572704266855
 21
575.3076338397302
 31
0.0
  0
LINE
  5
233
330
66
100
AcDbEntity
  8
1
  6
Continuous
 62
     7
100
AcDbLine
 10
126.2572704266855
 20
575.3076338397302
 30
0.0
 11
124.5252196191167
 21
575.3076338397302
 31
0.0
  0
LINE
  5
234
330
66
100
AcDbEntity
  8
1
  6
Continuous
 62
     2
100
AcDbLine
 10
126.2572704266855
 20
574.3076338397302
 30
0.0
 11
127.7572704266855
 21
574.3076338397302
 31
0.0
  0
LINE
  5
235
330
66
100
AcDbEntity
  8
1
  6
Continuous
 62
     2
100
AcDbLine
 10
126.2572704266855
 20
574.3076338397302
 30
0.0
 11
124.5252196191167
 21
575.3076338397302
 31
0.0
  0
LINE
  5
236
330
66
100
AcDbEntity
  8
1
  6
Continuous
 62
     7
100
AcDbLine
 10
126.2572704266855
 20
551.3076338397302
 30
0.0
 11
126.2572704266855
 21
575.3076338397302
 31
0.0
  0
LINE
  5
237
330
66
100
AcDbEntity
  8
1
  6
Continuous
 62
     2
100
AcDbLine
 10
124.5252196191167
 20
551.3076338397302
 30
0.0
 11
126.2572704266855
 21
552.3076338397302
 31
0.0
  0
LINE
  5
238
330
66
100
AcDbEntity
  8
1
  6
Continuous
 62
     2
100
AcDbLine
 10
126.2572704266855
 20
552.3076338397302
 30
0.0
 11
127.7572704266855
 21
552.3076338397302
 31
0.0
  0
LINE
  5
239
330
66
100
AcDbEntity
  8
1
  6
Continuous
 62
     7
100
AcDbLine
 10
126.2572704266855
 20
551.3076338397302
 30
0.0
 11
127.7572704266855
 21
551.3076338397302
 31
0.0
  0
LINE
  5
23A
330
66
100
AcDbEntity
  8
1
  6
Continuous
 62
     7
100
AcDbLine
 10
124.5252196191167
 20
551.3076338397302
 30
0.0
 11
126.2572704266855
 21
551.3076338397302
 31
0.0
  0
LINE
  5
23B
330
66
100
AcDbEntity
  8
1
  6
Continuous
 62
     7
100
AcDbLine
 10
124.2572704266855
 20
551.3076338397302
 30
0.0
 11
124.5252196191167
 21
551.3076338397302
 31
0.0
  0
LINE
  5
23C
330
66
100
AcDbEntity
  8
1
  6
Continuous
 62
     7
100
AcDbLine
 10
124.2572704266855
 20
550.7983840869072
 30
0.0
 11
124.2572704266855
 21
551.3076338397302
 31
0.0
  0
LINE
  5
23D
330
66
100
AcDbEntity
  8
1
  6
Continuous
 62
     7
100
AcDbLine
 10
124.2572704266855
 20
575.3076338397302
 30
0.0
 11
124.2572704266855
 21
551.3076338397302
 31
0.0
  0
LINE
  5
23E
330
66
100
AcDbEntity
  8
1
  6
Continuous
 62
     7
100
AcDbLine
 10
124.2572704266855
 20
575.816883592553
 30
0.0
 11
122.1575514513022
 21
575.9659386678652
 31
0.0
  0
LINE
  5
23F
330
66
100
AcDbEntity
  8
1
  6
Continuous
 62
     7
100
AcDbLine
 10
121.4262655184052
 20
550.5974164075369
 30
0.0
 11
124.2572704266855
 21
550.7983840869072
 31
0.0
  0
LINE
  5
240
330
66
100
AcDbEntity
  8
1
  6
PHANTOM
 62
     4
100
AcDbLine
 10
82.5977831766993
 20
563.3076338397302
 30
0.0
 11
164.6264059671872
 21
563.3076338397302
 31
0.0
  0
LINE
  5
241
330
66
100
AcDbEntity
  8
1
  6
Continuous
 62
     7
100
AcDbLine
 10
127.7572704266855
 20
575.3076338397302
 30
0.0
 11
126.2572704266855
 21
575.3076338397302
 31
0.0
  0
LINE
  5
242
330
66
100
AcDbEntity
  8
1
  6
Continuous
 62
     7
100
AcDbLine
 10
110.2572704266855
 20
549.8045505887892
 30
0.0
 11
121.4262655184052
 21
550.5974164075369
 31
0.0
  0
LINE
  5
243
330
66
100
AcDbEntity
  8
1
  6
Continuous
 62
     2
100
AcDbLine
 10
114.2572704266855
 20
251.4659284573585
 30
0.0
 11
114.2572704266855
 21
252.9659284573585
 31
0.0
  0
LINE
  5
244
330
66
100
AcDbEntity
  8
1
  6
Continuous
 62
     2
100
AcDbLine
 10
115.2572704266855
 20
249.7338776497896
 30
0.0
 11
114.2572704266855
 21
251.4659284573585
 31
0.0
  0
LINE
  5
245
330
66
100
AcDbEntity
  8
1
  6
Continuous
 62
     7
100
AcDbLine
 10
115.2572704266855
 20
249.7338776497896
 30
0.0
 11
115.2572704266855
 21
248.7159284573585
 31
0.0
  0
LINE
  5
246
330
66
100
AcDbEntity
  8
1
  6
Continuous
 62
     2
100
AcDbLine
 10
90.2572704266855
 20
251.4659284573585
 30
0.0
 11
89.2572704266855
 21
249.7338776497896
 31
0.0
  0
LINE
  5
247
330
66
100
AcDbEntity
  8
1
  6
Continuous
 62
     2
100
AcDbLine
 10
90.2572704266855
 20
251.4659284573585
 30
0.0
 11
90.2572704266855
 21
252.9659284573585
 31
0.0
  0
LINE
  5
248
330
66
100
AcDbEntity
  8
1
  6
Continuous
 62
     7
100
AcDbLine
 10
89.2572704266855
 20
249.7338776497896
 30
0.0
 11
89.2572704266855
 21
246.9395944183689
 31
0.0
  0
LINE
  5
249
330
66
100
AcDbEntity
  8
1
  6
Continuous
 62
     7
100
AcDbLine
 10
89.2572704266855
 20
249.7338776497896
 30
0.0
 11
89.2572704266855
 21
251.4659284573585
 31
0.0
  0
LINE
  5
24A
330
66
100
AcDbEntity
  8
1
  6
Continuous
 62
     7
100
AcDbLine
 10
89.2572704266855
 20
251.4659284573585
 30
0.0
 11
89.2572704266855
 21
252.9659284573585
 31
0.0
  0
LINE
  5
24B
330
66
100
AcDbEntity
  8
1
  6
Continuous
 62
     7
100
AcDbLine
 10
115.2572704266855
 20
251.4659284573585
 30
0.0
 11
115.2572704266855
 21
249.7338776497896
 31
0.0
  0
LINE
  5
24C
330
66
100
AcDbEntity
  8
1
  6
Continuous
 62
     7
100
AcDbLine
 10
115.2572704266855
 20
251.4659284573585
 30
0.0
 11
89.2572704266855
 21
251.4659284573585
 31
0.0
  0
LINE
  5
24D
330
66
100
AcDbEntity
  8
1
  6
Continuous
 62
     7
100
AcDbLine
 10
124.2572704266855
 20
240.4751782101814
 30
0.0
 11
121.4262655184052
 21
240.6761458895518
 31
0.0
  0
LINE
  5
24E
330
66
100
AcDbEntity
  8
1
  6
Continuous
 62
     7
100
AcDbLine
 10
124.2572704266855
 20
239.9659284573585
 30
0.0
 11
124.2572704266855
 21
240.4751782101814
 31
0.0
  0
LINE
  5
24F
330
66
100
AcDbEntity
  8
1
  6
Continuous
 62
     7
100
AcDbLine
 10
124.5252196191166
 20
239.9659284573585
 30
0.0
 11
124.2572704266855
 21
239.9659284573585
 31
0.0
  0
LINE
  5
250
330
66
100
AcDbEntity
  8
1
  6
Continuous
 62
     7
100
AcDbLine
 10
126.2572704266855
 20
239.9659284573585
 30
0.0
 11
124.5252196191166
 21
239.9659284573585
 31
0.0
  0
LINE
  5
251
330
66
100
AcDbEntity
  8
1
  6
Continuous
 62
     7
100
AcDbLine
 10
127.7572704266855
 20
239.9659284573585
 30
0.0
 11
126.2572704266855
 21
239.9659284573585
 31
0.0
  0
LINE
  5
252
330
66
100
AcDbEntity
  8
1
  6
Continuous
 62
     2
100
AcDbLine
 10
126.2572704266855
 20
238.9659284573585
 30
0.0
 11
127.7572704266855
 21
238.9659284573585
 31
0.0
  0
LINE
  5
253
330
66
100
AcDbEntity
  8
1
  6
Continuous
 62
     2
100
AcDbLine
 10
126.2572704266855
 20
238.9659284573585
 30
0.0
 11
124.5252196191166
 21
239.9659284573585
 31
0.0
  0
LINE
  5
254
330
66
100
AcDbEntity
  8
1
  6
Continuous
 62
     7
100
AcDbLine
 10
126.2572704266855
 20
215.9659284573584
 30
0.0
 11
126.2572704266855
 21
239.9659284573585
 31
0.0
  0
LINE
  5
255
330
66
100
AcDbEntity
  8
1
  6
Continuous
 62
     2
100
AcDbLine
 10
124.5252196191166
 20
215.9659284573584
 30
0.0
 11
126.2572704266855
 21
216.9659284573584
 31
0.0
  0
LINE
  5
256
330
66
100
AcDbEntity
  8
1
  6
Continuous
 62
     2
100
AcDbLine
 10
126.2572704266855
 20
216.9659284573584
 30
0.0
 11
127.7572704266855
 21
216.9659284573585
 31
0.0
  0
LINE
  5
257
330
66
100
AcDbEntity
  8
1
  6
Continuous
 62
     7
100
AcDbLine
 10
126.2572704266855
 20
215.9659284573584
 30
0.0
 11
127.7572704266855
 21
215.9659284573584
 31
0.0
  0
LINE
  5
258
330
66
100
AcDbEntity
  8
1
  6
Continuous
 62
     7
100
AcDbLine
 10
124.5252196191166
 20
215.9659284573584
 30
0.0
 11
126.2572704266855
 21
215.9659284573584
 31
0.0
  0
LINE
  5
259
330
66
100
AcDbEntity
  8
1
  6
Continuous
 62
     7
100
AcDbLine
 10
124.2572704266855
 20
215.9659284573584
 30
0.0
 11
124.5252196191166
 21
215.9659284573584
 31
0.0
  0
LINE
  5
25A
330
66
100
AcDbEntity
  8
1
  6
Continuous
 62
     7
100
AcDbLine
 10
124.2572704266855
 20
215.4566787045355
 30
0.0
 11
124.2572704266855
 21
215.9659284573584
 31
0.0
  0
LINE
  5
25B
330
66
100
AcDbEntity
  8
1
  6
Continuous
 62
     7
100
AcDbLine
 10
103.2572704266855
 20
213.9659284573585
 30
0.0
 11
121.4262655184052
 21
215.2557110251651
 31
0.0
  0
LINE
  5
25C
330
66
100
AcDbEntity
  8
1
  6
Continuous
 62
     7
100
AcDbLine
 10
115.2572704266855
 20
248.7159284573585
 30
0.0
 11
115.2572704266855
 21
246.9395944183688
 31
0.0
  0
LINE
  5
25D
330
66
100
AcDbEntity
  8
1
  6
Continuous
 62
     7
100
AcDbLine
 10
121.4262655184052
 20
215.2557110251651
 30
0.0
 11
124.2572704266855
 21
215.4566787045355
 31
0.0
  0
LINE
  5
25E
330
66
100
AcDbEntity
  8
1
  6
Continuous
 62
     7
100
AcDbLine
 10
124.2572704266855
 20
239.9659284573585
 30
0.0
 11
124.2572704266855
 21
215.9659284573584
 31
0.0
  0
LINE
  5
25F
330
66
100
AcDbEntity
  8
1
  6
Continuous
 62
     7
100
AcDbLine
 10
121.4262655184052
 20
240.6761458895518
 30
0.0
 11
120.8324109389936
 21
240.7183025019825
 31
0.0
  0
LINE
  5
260
330
66
100
AcDbEntity
  8
1
  6
Continuous
 62
     7
100
AcDbLine
 10
89.2572704266855
 20
246.9395944183689
 30
0.0
 11
89.2572704266855
 21
227.9659284573585
 31
0.0
  0
LINE
  5
261
330
66
100
AcDbEntity
  8
1
  6
Continuous
 62
     7
100
AcDbLine
 10
115.2572704266855
 20
246.9395944183688
 30
0.0
 11
115.2572704266855
 21
246.7032414670613
 31
0.0
  0
LINE
  5
262
330
66
100
AcDbEntity
  8
1
  6
Continuous
 62
     7
100
AcDbLine
 10
115.9481716340509
 20
241.4675443156387
 30
0.0
 11
104.1636983897632
 21
229.8459988507605
 31
0.0
  0
LINE
  5
263
330
66
100
AcDbEntity
  8
1
  6
Continuous
 62
     7
100
AcDbLine
 10
115.2572704266855
 20
252.9659284573585
 30
0.0
 11
115.2572704266855
 21
251.4659284573585
 31
0.0
  0
ARC
  5
264
330
66
100
AcDbEntity
  8
1
  6
Continuous
 62
     7
100
AcDbCircle
 10
430.397592505994
 20
248.7159284573587
 30
0.0
 40
12.0
100
AcDbArc
 50
180.0
 51
270.0
  0
ARC
  5
265
330
66
100
AcDbEntity
  8
1
  6
Continuous
 62
     7
100
AcDbCircle
 10
362.397592505994
 20
237.2933075104476
 30
0.0
 40
30.00000000000005
100
AcDbArc
 50
351.1668016303223
 51
0.0
  0
ARC
  5
266
330
66
100
AcDbEntity
  8
1
  6
Continuous
 62
     7
100
AcDbCircle
 10
102.2572704266855
 20
227.9659284573585
 30
0.0
 40
23.0000000000001
100
AcDbArc
 50
124.4173887104414
 51
326.4531849841857
  0
ARC
  5
267
330
66
100
AcDbEntity
  8
1
  6
Continuous
 62
     7
100
AcDbCircle
 10
103.2572704266855
 20
227.9659284573585
 30
0.0
 40
14.0
100
AcDbArc
 50
180.0
 51
270.0
  0
ARC
  5
268
330
66
100
AcDbEntity
  8
1
  6
Continuous
 62
     7
100
AcDbCircle
 10
102.2572704266855
 20
227.9659284573585
 30
0.0
 40
23.0000000000001
100
AcDbArc
 50
33.54681501581417
 51
55.58261128955849
  0
ARC
  5
269
330
66
100
AcDbEntity
  8
1
  6
Continuous
 62
     7
100
AcDbCircle
 10
423.7278952858179
 20
188.9659284573583
 30
0.0
 40
30.0
100
AcDbArc
 50
90.0
 51
108.2293149942997
  0
ARC
  5
26A
330
66
100
AcDbEntity
  8
1
  6
Continuous
 62
     7
100
AcDbCircle
 10
448.397592505994
 20
250.4659284573587
 30
0.0
 40
0.5
100
AcDbArc
 50
90.0
 51
180.0
  0
ARC
  5
26B
330
66
100
AcDbEntity
  8
1
  6
Continuous
 62
     7
100
AcDbCircle
 10
443.897592505994
 20
240.7159284573588
 30
0.0
 40
4.0
100
AcDbArc
 50
270.0
 51
0.0
  0
ARC
  5
26C
330
66
100
AcDbEntity
  8
1
  6
Continuous
 62
     7
100
AcDbCircle
 10
448.397592505994
 20
205.4659284573588
 30
0.0
 40
0.5
100
AcDbArc
 50
180.0
 51
270.0
  0
ARC
  5
26D
330
66
100
AcDbEntity
  8
1
  6
Continuous
 62
     7
100
AcDbCircle
 10
443.897592505994
 20
215.2159284573587
 30
0.0
 40
4.0
100
AcDbArc
 50
0.0
 51
90.0
  0
ARC
  5
26E
330
66
100
AcDbEntity
  8
1
  6
Continuous
 62
     7
100
AcDbCircle
 10
89.507270426686
 20
601.8076338397295
 30
0.0
 40
4.0
100
AcDbArc
 50
0.0
 51
90.0
  0
ARC
  5
26F
330
66
100
AcDbEntity
  8
1
  6
Continuous
 62
     7
100
AcDbCircle
 10
115.007270426686
 20
601.8076338397295
 30
0.0
 40
4.0
100
AcDbArc
 50
90.0
 51
180.0
  0
ARC
  5
270
330
66
100
AcDbEntity
  8
1
  6
Continuous
 62
     7
100
AcDbCircle
 10
124.757270426686
 20
606.3076338397295
 30
0.0
 40
0.5
100
AcDbArc
 50
270.0
 51
0.0
  0
ARC
  5
271
330
66
100
AcDbEntity
  8
1
  6
Continuous
 62
     7
100
AcDbCircle
 10
79.757270426686
 20
606.3076338397295
 30
0.0
 40
0.5
100
AcDbArc
 50
180.0
 51
270.0
  0
ARC
  5
272
330
66
100
AcDbEntity
  8
1
  6
Continuous
 62
     7
100
AcDbCircle
 10
63.50727042668599
 20
582.1739397844569
 30
0.0
 40
29.99999999999999
100
AcDbArc
 50
344.8973630808142
 51
0.0
  0
ARC
  5
273
330
66
100
AcDbEntity
  8
1
  6
Continuous
 62
     7
100
AcDbCircle
 10
123.007270426686
 20
587.9358165980227
 30
0.0
 40
12.0
100
AcDbArc
 50
180.0
 51
265.9394926513525
  0
ARC
  5
274
330
66
100
AcDbEntity
  8
1
  6
Continuous
 62
     7
100
AcDbCircle
 10
121.2572704266855
 20
246.7032414670613
 30
0.0
 40
6.0
100
AcDbArc
 50
180.0
 51
265.9394926513527
  0
ENDBLK
  5
68
330
66
100
AcDbEntity
  8
0
100
AcDbBlockEnd
  0
BLOCK
  5
299
330
292
100
AcDbEntity
  8
0
100
AcDbBlockBegin
  2
*D11
 70
     1
 10
0.0
 20
0.0
 30
0.0
  3
*D11
  1

  0
LINE
  5
293
330
292
100
AcDbEntity
  8
1
  6
Continuous
 62
     2
100
AcDbLine
 10
102.2572704266855
 20
179.9659284573588
 30
0.0
 11
192.2527263044975
 21
179.9659284573588
 31
0.0
  0
LINE
  5
294
330
292
100
AcDbEntity
  8
1
  6
Continuous
 62
     2
100
AcDbLine
 10
192.2527263044975
 20
288.9659284573585
 30
0.0
 11
192.2527263044975
 21
177.4659284573588
 31
0.0
  0
LINE
  5
295
330
292
100
AcDbEntity
  8
1
  6
Continuous
 62
     2
100
AcDbLine
 10
102.2572704266855
 20
201.9659284573586
 30
0.0
 11
102.2572704266855
 21
177.4659284573588
 31
0.0
  0
SOLID
  5
296
330
292
100
AcDbEntity
  8
1
 62
     2
100
AcDbTrace
 10
111.0072704266855
 20
181.1178878112485
 30
0.0
 11
111.0072704266855
 21
178.8139691034691
 31
0.0
 12
102.2572704266855
 22
179.9659284573588
 32
0.0
 13
102.2572704266855
 23
179.9659284573588
 33
0.0
  0
SOLID
  5
297
330
292
100
AcDbEntity
  8
1
 62
     2
100
AcDbTrace
 10
183.5027263044975
 20
178.8139691034691
 30
0.0
 11
183.5027263044975
 21
181.1178878112485
 31
0.0
 12
192.2527263044975
 22
179.9659284573588
 32
0.0
 13
192.2527263044975
 23
179.9659284573588
 33
0.0
  0
MTEXT
  5
298
330
292
100
AcDbEntity
  8
1
 62
     7
100
AcDbMText
 10
123.6299983655915
 20
182.4659284573588
 30
0.0
 40
8.75
 41
0.0
 71
     7
 72
     1
  1
90リフト3
  7
CONVERTER_11
 11
0.9999999999970619
 21
2.424068405545306E-6
 31
0.0
 73
     1
 44
0.45454545454545
  0
ENDBLK
  5
29A
330
292
100
AcDbEntity
  8
0
100
AcDbBlockEnd
  0
BLOCK
  5
2A4
330
29D
100
AcDbEntity
  8
0
100
AcDbBlockBegin
  2
*D12
 70
     1
 10
0.0
 20
0.0
 30
0.0
  3
*D12
  1

  0
LINE
  5
29E
330
29D
100
AcDbEntity
  8
1
  6
Continuous
 62
     2
100
AcDbLine
 10
405.397592505994
 20
179.9659284573588
 30
0.0
 11
450.397592505994
 21
179.9659284573588
 31
0.0
  0
LINE
  5
29F
330
29D
100
AcDbEntity
  8
1
  6
Continuous
 62
     2
100
AcDbLine
 10
405.397592505994
 20
210.9659284573588
 30
0.0
 11
405.397592505994
 21
177.4659284573588
 31
0.0
  0
LINE
  5
2A0
330
29D
100
AcDbEntity
  8
1
  6
Continuous
 62
     2
100
AcDbLine
 10
450.397592505994
 20
204.9659284573588
 30
0.0
 11
450.397592505994
 21
177.4659284573588
 31
0.0
  0
SOLID
  5
2A1
330
29D
100
AcDbEntity
  8
1
 62
     2
100
AcDbTrace
 10
414.147592505994
 20
181.1178878112485
 30
0.0
 11
414.147592505994
 21
178.8139691034691
 31
0.0
 12
405.397592505994
 22
179.9659284573588
 32
0.0
 13
405.397592505994
 23
179.9659284573588
 33
0.0
  0
SOLID
  5
2A2
330
29D
100
AcDbEntity
  8
1
 62
     2
100
AcDbTrace
 10
441.647592505994
 20
178.8139691034691
 30
0.0
 11
441.647592505994
 21
181.1178878112485
 31
0.0
 12
450.397592505994
 22
179.9659284573588
 32
0.0
 13
450.397592505994
 23
179.9659284573588
 33
0.0
  0
MTEXT
  5
2A3
330
29D
100
AcDbEntity
  8
1
 62
     7
100
AcDbMText
 10
421.3350925059944
 20
182.4659284573588
 30
0.0
 40
8.75
 41
0.0
 71
     7
 72
     1
  1
45
  7
CONVERTER_12
 11
0.9999999999970619
 21
2.424068405545306E-6
 31
0.0
 73
     1
 44
0.60024009603842
  0
ENDBLK
  5
2A5
330
29D
100
AcDbEntity
  8
0
100
AcDbBlockEnd
  0
BLOCK
  5
2AF
330
2A8
100
AcDbEntity
  8
0
100
AcDbBlockBegin
  2
*D13
 70
     1
 10
0.0
 20
0.0
 30
0.0
  3
*D13
  1

  0
LINE
  5
2A9
330
2A8
100
AcDbEntity
  8
1
  6
Continuous
 62
     2
100
AcDbLine
 10
489.397592505994
 20
250.9659284573588
 30
0.0
 11
489.397592505994
 21
204.9659284573588
 31
0.0
  0
LINE
  5
2AA
330
2A8
100
AcDbEntity
  8
1
  6
Continuous
 62
     2
100
AcDbLine
 10
450.397592505994
 20
250.9659284573588
 30
0.0
 11
491.897592505994
 21
250.9659284573588
 31
0.0
  0
LINE
  5
2AB
330
2A8
100
AcDbEntity
  8
1
  6
Continuous
 62
     2
100
AcDbLine
 10
450.397592505994
 20
204.9659284573588
 30
0.0
 11
491.897592505994
 21
204.9659284573588
 31
0.0
  0
SOLID
  5
2AC
330
2A8
100
AcDbEntity
  8
1
 62
     2
100
AcDbTrace
 10
490.5495518598837
 20
242.2159284573588
 30
0.0
 11
488.2456331521043
 21
242.2159284573588
 31
0.0
 12
489.397592505994
 22
250.9659284573588
 32
0.0
 13
489.397592505994
 23
250.9659284573588
 33
0.0
  0
SOLID
  5
2AD
330
2A8
100
AcDbEntity
  8
1
 62
     2
100
AcDbTrace
 10
488.2456331521043
 20
213.7159284573588
 30
0.0
 11
490.5495518598837
 21
213.7159284573588
 31
0.0
 12
489.397592505994
 22
204.9659284573588
 32
0.0
 13
489.397592505994
 23
204.9659284573588
 33
0.0
  0
MTEXT
  5
2AE
330
2A8
100
AcDbEntity
  8
1
 62
     7
100
AcDbMText
 10
486.897592505994
 20
219.4784284573589
 30
0.0
 40
8.75
 41
0.0
 71
     7
 72
     1
  1
\C7;{\Fgdt;n}\C7;46
  7
CONVERTER_12
 11
0.0
 21
1.0
 31
0.0
 73
     1
 44
0.60024009603842
  0
ENDBLK
  5
2B0
330
2A8
100
AcDbEntity
  8
0
100
AcDbBlockEnd
  0
BLOCK
  5
2BA
330
2B3
100
AcDbEntity
  8
0
100
AcDbBlockBegin
  2
*D14
 70
     1
 10
0.0
 20
0.0
 30
0.0
  3
*D14
  1

  0
LINE
  5
2B4
330
2B3
100
AcDbEntity
  8
1
  6
Continuous
 62
     2
100
AcDbLine
 10
235.397592505994
 20
179.9659284573588
 30
0.0
 11
405.397592505994
 21
179.9659284573588
 31
0.0
  0
LINE
  5
2B5
330
2B3
100
AcDbEntity
  8
1
  6
Continuous
 62
     2
100
AcDbLine
 10
235.397592505994
 20
259.4659284573587
 30
0.0
 11
235.397592505994
 21
177.4659284573588
 31
0.0
  0
LINE
  5
2B6
330
2B3
100
AcDbEntity
  8
1
  6
Continuous
 62
     2
100
AcDbLine
 10
405.397592505994
 20
210.9659284573588
 30
0.0
 11
405.397592505994
 21
177.4659284573588
 31
0.0
  0
SOLID
  5
2B7
330
2B3
100
AcDbEntity
  8
1
 62
     2
100
AcDbTrace
 10
244.147592505994
 20
181.1178878112485
 30
0.0
 11
244.147592505994
 21
178.8139691034691
 31
0.0
 12
235.397592505994
 22
179.9659284573588
 32
0.0
 13
235.397592505994
 23
179.9659284573588
 33
0.0
  0
SOLID
  5
2B8
330
2B3
100
AcDbEntity
  8
1
 62
     2
100
AcDbTrace
 10
396.647592505994
 20
178.8139691034691
 30
0.0
 11
396.647592505994
 21
181.1178878112485
 31
0.0
 12
405.397592505994
 22
179.9659284573588
 32
0.0
 13
405.397592505994
 23
179.9659284573588
 33
0.0
  0
MTEXT
  5
2B9
330
2B3
100
AcDbEntity
  8
1
 62
     7
100
AcDbMText
 10
311.2100925059944
 20
182.4659284573588
 30
0.0
 40
8.75
 41
0.0
 71
     7
 72
     1
  1
170
  7
CONVERTER_12
 11
0.9999999999970619
 21
2.424068405545306E-6
 31
0.0
 73
     1
 44
0.60024009603842
  0
ENDBLK
  5
2BB
330
2B3
100
AcDbEntity
  8
0
100
AcDbBlockEnd
  0
BLOCK
  5
2C5
330
2BE
100
AcDbEntity
  8
0
100
AcDbBlockBegin
  2
*D15
 70
     1
 10
0.0
 20
0.0
 30
0.0
  3
*D15
  1

  0
LINE
  5
2BF
330
2BE
100
AcDbEntity
  8
0
  6
Continuous
 62
     2
100
AcDbLine
 10
269.047592505994
 20
227.9659284573582
 30
0.0
 11
269.047592505994
 21
262.4659284573587
 31
0.0
  0
LINE
  5
2C0
330
2BE
100
AcDbEntity
  8
0
  6
Continuous
 62
     2
100
AcDbLine
 10
368.457121007759
 20
227.9659284573582
 30
0.0
 11
266.547592505994
 21
227.9659284573582
 31
0.0
  0
LINE
  5
2C1
330
2BE
100
AcDbEntity
  8
0
  6
Continuous
 62
     2
100
AcDbLine
 10
242.78399951198
 20
262.4659284573587
 30
0.0
 11
271.547592505994
 21
262.4659284573587
 31
0.0
  0
SOLID
  5
2C2
330
2BE
100
AcDbEntity
  8
0
 62
     2
100
AcDbTrace
 10
267.8956331521043
 20
236.7159284573582
 30
0.0
 11
270.1995518598837
 21
236.7159284573582
 31
0.0
 12
269.047592505994
 22
227.9659284573582
 32
0.0
 13
269.047592505994
 23
227.9659284573582
 33
0.0
  0
SOLID
  5
2C3
330
2BE
100
AcDbEntity
  8
0
 62
     2
100
AcDbTrace
 10
270.1995518598837
 20
253.7159284573587
 30
0.0
 11
267.8956331521043
 21
253.7159284573587
 31
0.0
 12
269.047592505994
 22
262.4659284573587
 32
0.0
 13
269.047592505994
 23
262.4659284573587
 33
0.0
  0
MTEXT
  5
2C4
330
2BE
100
AcDbEntity
  8
0
 62
     7
100
AcDbMText
 10
266.547592505994
 20
238.6534284573585
 30
0.0
 40
8.75
 41
0.0
 71
     7
 72
     1
  1
35
  7
CONVERTER_12
 11
0.0
 21
1.0
 31
0.0
 73
     1
 44
0.60024009603842
  0
ENDBLK
  5
2C6
330
2BE
100
AcDbEntity
  8
0
100
AcDbBlockEnd
  0
BLOCK
  5
2D0
330
2C9
100
AcDbEntity
  8
0
100
AcDbBlockBegin
  2
*D16
 70
     1
 10
0.0
 20
0.0
 30
0.0
  3
*D16
  1

  0
LINE
  5
2CA
330
2C9
100
AcDbEntity
  8
0
  6
Continuous
 62
     2
100
AcDbLine
 10
289.047592505994
 20
227.9659284573581
 30
0.0
 11
289.047592505994
 21
295.4659284573588
 31
0.0
  0
LINE
  5
2CB
330
2C9
100
AcDbEntity
  8
0
  6
Continuous
 62
     2
100
AcDbLine
 10
368.4571210077591
 20
227.9659284573581
 30
0.0
 11
286.547592505994
 21
227.9659284573581
 31
0.0
  0
LINE
  5
2CC
330
2C9
100
AcDbEntity
  8
0
  6
Continuous
 62
     2
100
AcDbLine
 10
262.3975925059939
 20
295.4659284573588
 30
0.0
 11
291.547592505994
 21
295.4659284573588
 31
0.0
  0
SOLID
  5
2CD
330
2C9
100
AcDbEntity
  8
0
 62
     2
100
AcDbTrace
 10
287.8956331521043
 20
236.7159284573581
 30
0.0
 11
290.1995518598837
 21
236.7159284573581
 31
0.0
 12
289.047592505994
 22
227.9659284573581
 32
0.0
 13
289.047592505994
 23
227.9659284573581
 33
0.0
  0
SOLID
  5
2CE
330
2C9
100
AcDbEntity
  8
0
 62
     2
100
AcDbTrace
 10
290.1995518598837
 20
286.7159284573588
 30
0.0
 11
287.8956331521043
 21
286.7159284573588
 31
0.0
 12
289.047592505994
 22
295.4659284573588
 32
0.0
 13
289.047592505994
 23
295.4659284573588
 33
0.0
  0
MTEXT
  5
2CF
330
2C9
100
AcDbEntity
  8
0
 62
     7
100
AcDbMText
 10
286.547592505994
 20
255.1534284573586
 30
0.0
 40
8.75
 41
0.0
 71
     7
 72
     1
  1
68
  7
CONVERTER_12
 11
0.0
 21
1.0
 31
0.0
 73
     1
 44
0.60024009603842
  0
ENDBLK
  5
2D1
330
2C9
100
AcDbEntity
  8
0
100
AcDbBlockEnd
  0
BLOCK
  5
2DB
330
2D4
100
AcDbEntity
  8
0
100
AcDbBlockBegin
  2
*D17
 70
     1
 10
0.0
 20
0.0
 30
0.0
  3
*D17
  1

  0
LINE
  5
2D5
330
2D4
100
AcDbEntity
  8
1
  6
Continuous
 62
     2
100
AcDbLine
 10
217.2527263044975
 20
302.9659284573585
 30
0.0
 11
217.2527263044975
 21
227.9659284573588
 31
0.0
  0
LINE
  5
2D6
330
2D4
100
AcDbEntity
  8
1
  6
Continuous
 62
     2
100
AcDbLine
 10
178.2527263044974
 20
302.9659284573585
 30
0.0
 11
219.7527263044975
 21
302.9659284573585
 31
0.0
  0
LINE
  5
2D7
330
2D4
100
AcDbEntity
  8
1
  6
Continuous
 62
     2
100
AcDbLine
 10
178.2527263044974
 20
227.9659284573588
 30
0.0
 11
219.7527263044975
 21
227.9659284573588
 31
0.0
  0
SOLID
  5
2D8
330
2D4
100
AcDbEntity
  8
1
 62
     2
100
AcDbTrace
 10
218.4046856583872
 20
294.2159284573585
 30
0.0
 11
216.1007669506078
 21
294.2159284573585
 31
0.0
 12
217.2527263044975
 22
302.9659284573585
 32
0.0
 13
217.2527263044975
 23
302.9659284573585
 33
0.0
  0
SOLID
  5
2D9
330
2D4
100
AcDbEntity
  8
1
 62
     2
100
AcDbTrace
 10
216.1007669506078
 20
236.7159284573588
 30
0.0
 11
218.4046856583872
 21
236.7159284573588
 31
0.0
 12
217.2527263044975
 22
227.9659284573588
 32
0.0
 13
217.2527263044975
 23
227.9659284573588
 33
0.0
  0
MTEXT
  5
2DA
330
2D4
100
AcDbEntity
  8
1
 62
     7
100
AcDbMText
 10
214.7527263044975
 20
258.9034284573584
 30
0.0
 40
8.75
 41
0.0
 71
     7
 72
     1
  1
75
  7
CONVERTER_12
 11
0.0
 21
1.0
 31
0.0
 73
     1
 44
0.60024009603842
  0
ENDBLK
  5
2DC
330
2D4
100
AcDbEntity
  8
0
100
AcDbBlockEnd
  0
BLOCK
  5
2E6
330
2DF
100
AcDbEntity
  8
0
100
AcDbBlockBegin
  2
*D18
 70
     1
 10
0.0
 20
0.0
 30
0.0
  3
*D18
  1

  0
LINE
  5
2E0
330
2DF
100
AcDbEntity
  8
1
  6
Continuous
 62
     2
100
AcDbLine
 10
464.397592505994
 20
179.9659284573588
 30
0.0
 11
450.397592505994
 21
179.9659284573588
 31
0.0
  0
LINE
  5
2E1
330
2DF
100
AcDbEntity
  8
1
  6
Continuous
 62
     2
100
AcDbLine
 10
483.1477595483721
 20
179.9659284573588
 30
0.0
 11
464.397592505994
 21
179.9659284573588
 31
0.0
  0
LINE
  5
2E2
330
2DF
100
AcDbEntity
  8
1
  6
Continuous
 62
     2
100
AcDbLine
 10
464.397592505994
 20
218.4659284573587
 30
0.0
 11
464.397592505994
 21
177.4659284573588
 31
0.0
  0
LINE
  5
2E3
330
2DF
100
AcDbEntity
  8
1
  6
Continuous
 62
     2
100
AcDbLine
 10
450.397592505994
 20
204.9659284573588
 30
0.0
 11
450.397592505994
 21
177.4659284573588
 31
0.0
  0
SOLID
  5
2E4
330
2DF
100
AcDbEntity
  8
1
 62
     2
100
AcDbTrace
 10
473.147592505994
 20
181.1178878112485
 30
0.0
 11
473.147592505994
 21
178.8139691034691
 31
0.0
 12
464.397592505994
 22
179.9659284573588
 32
0.0
 13
464.397592505994
 23
179.9659284573588
 33
0.0
  0
MTEXT
  5
2E5
330
2DF
100
AcDbEntity
  8
1
 62
     7
100
AcDbMText
 10
472.6477595483721
 20
182.4659284573588
 30
0.0
 40
8.75
 41
0.0
 71
     7
 72
     1
  1
14
  7
CONVERTER_12
 11
0.9999999999970619
 21
2.424068405545306E-6
 31
0.0
 73
     1
 44
0.60024009603842
  0
ENDBLK
  5
2E7
330
2DF
100
AcDbEntity
  8
0
100
AcDbBlockEnd
  0
BLOCK
  5
2E9
330
2E8
100
AcDbEntity
  8
0
100
AcDbBlockBegin
  2
_NONE
 70
     0
 10
0.0
 20
0.0
 30
0.0
  3
_NONE
  1

  0
ENDBLK
  5
2EA
330
2E8
100
AcDbEntity
  8
0
100
AcDbBlockEnd
  0
ENDSEC
  0
SECTION
  2
ENTITIES
  0
INSERT
  5
69
330
1F
100
AcDbEntity
  8
1
100
AcDbBlockReference
  2
27-2A-M1
 10
668.8403318129677
 20
474.835792414527
 30
0.0
 41
1.0
 42
1.0
 43
1.0
  0
INSERT
  5
6A
330
1F
100
AcDbEntity
  8
1
100
AcDbBlockReference
  2
U360S-13
 10
489.8403318129679
 20
572.7428428916229
 30
0.0
 41
1.0
 42
1.0
 43
1.0
  0
INSERT
  5
6B
330
1F
100
AcDbEntity
  8
1
100
AcDbBlockReference
  2
42-29
 10
325.2237530811045
 20
501.9970761096862
 30
0.0
 41
1.0
 42
1.0
 43
1.0
  0
INSERT
  5
6C
330
1F
100
AcDbEntity
  8
1
100
AcDbBlockReference
  2
61-1X-16-170
 10
59.36579310158329
 20
245.4659284573585
 30
0.0
 41
1.0
 42
1.0
 43
1.0
  0
INSERT
  5
6D
330
1F
100
AcDbEntity
  8
1
100
AcDbBlockReference
  2
開示A4
 10
0.0
 20
0.0
 30
0.0
 41
2.5
 42
2.5
 43
2.5
  0
INSERT
  5
6E
330
1F
100
AcDbEntity
  8
1
100
AcDbBlockReference
  2
A2310-0-13-M1
 10
135.2572704266855
 20
204.9659284573584
 30
0.0
 41
1.0
 42
1.0
 43
1.0
  0
LINE
  5
275
330
1F
100
AcDbEntity
  8
1
  6
DASH_CENTER
 62
     2
100
AcDbLine
 10
405.3975925059934
 20
305.9659284573584
 30
0.0
 11
405.397592505994
 21
268.4659284573587
 31
0.0
  0
LINE
  5
276
330
1F
100
AcDbEntity
  8
1
  6
DASH_CENTER
 62
     2
100
AcDbLine
 10
397.3975925059935
 20
288.9659284573584
 30
0.0
 11
413.3975925059934
 21
288.9659284573584
 31
0.0
  0
LINE
  5
277
330
1F
100
AcDbEntity
  8
1
  6
DASH_CENTER
 62
     2
100
AcDbLine
 10
178.2527263044975
 20
310.4659284573585
 30
0.0
 11
178.2527263044975
 21
268.7375806569615
 31
0.0
  0
LINE
  5
278
330
1F
100
AcDbEntity
  8
1
  6
DASH_CENTER
 62
     2
100
AcDbLine
 10
156.7527263044975
 20
288.9659284573585
 30
0.0
 11
199.7527263044975
 21
288.9659284573585
 31
0.0
  0
LINE
  5
279
330
1F
100
AcDbEntity
  8
1
  6
DASH_CENTER
 62
     2
100
AcDbLine
 10
178.2527263044975
 20
571.30763383973
 30
0.0
 11
178.2527263044975
 21
555.3076338397302
 31
0.0
  0
LINE
  5
27A
330
1F
100
AcDbEntity
  8
1
  6
DASH_CENTER
 62
     2
100
AcDbLine
 10
262.397592505994
 20
295.4659284573588
 30
0.0
 11
378.397592505994
 21
295.4659284573588
 31
0.0
  0
LINE
  5
27B
330
1F
100
AcDbEntity
  8
1
  6
DASH_CENTER
 62
     2
100
AcDbLine
 10
102.2572704266855
 20
307.617409450079
 30
0.0
 11
102.2572704266855
 21
246.4659284573585
 31
0.0
  0
LINE
  5
27C
330
1F
100
AcDbEntity
  8
1
  6
DASH_CENTER
 62
     2
100
AcDbLine
 10
91.74405001732651
 20
295.4659284573588
 30
0.0
 11
113.1499864351131
 21
295.4659284573588
 31
0.0
  0
LINE
  5
27D
330
1F
100
AcDbEntity
  8
1
  6
DASH_CENTER
 62
     2
100
AcDbLine
 10
91.2793192144646
 20
393.30763383973
 30
0.0
 11
113.6314926205475
 21
393.30763383973
 31
0.0
  0
LINE
  5
27E
330
1F
100
AcDbEntity
  8
1
  6
DASH_CENTER
 62
     2
100
AcDbLine
 10
82.5977831766993
 20
563.3076338397302
 30
0.0
 11
195.2527263044975
 21
563.3076338397302
 31
0.0
  0
LINE
  5
27F
330
1F
100
AcDbEntity
  8
0
  6
DASH_CENTER
 62
     2
100
AcDbLine
 10
145.6346073703562
 20
227.9659284573585
 30
0.0
 11
76.2572704266855
 21
227.9659284573585
 31
0.0
  0
LINE
  5
280
330
1F
100
AcDbEntity
  8
1
  6
DASH_CENTER
 62
     2
100
AcDbLine
 10
102.2572704266855
 20
246.4659284573585
 30
0.0
 11
102.2572704266855
 21
201.9659284573586
 31
0.0
  0
LINE
  5
281
330
1F
100
AcDbEntity
  8
1
  6
DASH_CENTER
 62
     2
100
AcDbLine
 10
467.435399037748
 20
227.9659284573588
 30
0.0
 11
368.4571210077591
 21
227.9659284573582
 31
0.0
  0
LINE
  5
282
330
1F
100
AcDbEntity
  8
1
  6
DASH_CENTER
 62
     2
100
AcDbLine
 10
405.397592505994
 20
210.9659284573588
 30
0.0
 11
405.397592505994
 21
268.4659284573587
 31
0.0
  0
LINE
  5
283
330
1F
100
AcDbEntity
  8
1
  6
DASH_CENTER
 62
     2
100
AcDbLine
 10
102.2572704266855
 20
628.0312514382845
 30
0.0
 11
102.2572704266855
 21
381.3314365741755
 31
0.0
  0
LINE
  5
284
330
1F
100
AcDbEntity
  8
1
  6
DASH_CENTER
 62
     2
100
AcDbLine
 10
235.397592505994
 20
259.4659284573587
 30
0.0
 11
235.397592505994
 21
268.4659284573587
 31
0.0
  0
LINE
  5
285
330
1F
100
AcDbEntity
  8
1
  6
DASH_CENTER
 62
     2
100
AcDbLine
 10
146.5527263044975
 20
227.9659284573587
 30
0.0
 11
178.2527263044975
 21
227.9659284573587
 31
0.0
  0
ARC
  5
286
330
1F
100
AcDbEntity
  8
1
  6
DASH_CENTER
 62
     2
100
AcDbCircle
 10
262.397592505994
 20
268.4659284573587
 30
0.0
 40
27.00000000000011
100
AcDbArc
 50
90.0
 51
180.0
  0
ARC
  5
287
330
1F
100
AcDbEntity
  8
1
  6
DASH_CENTER
 62
     2
100
AcDbCircle
 10
378.397592505994
 20
268.4659284573588
 30
0.0
 40
27.0
100
AcDbArc
 50
359.9999999999998
 51
90.0
  0
SOLID
  5
288
330
1F
100
AcDbEntity
  8
1
 62
     2
100
AcDbTrace
 10
116.1346443620905
 20
622.9613357997882
 30
0.0
 11
118.1298964912817
 21
621.8093764458985
 31
0.0
 12
112.757270426686
 22
614.8076338397295
 32
0.0
 13
112.757270426686
 23
614.8076338397295
 33
0.0
  0
LEADER
  5
289
330
1F
100
AcDbEntity
  8
1
  6
Continuous
 62
     2
100
AcDbLeader
  3
Standard
 71
     0
 76
     3
 10
112.757270426686
 20
614.8076338397295
 30
0.0
 10
125.2918607485995
 20
636.5181811293448
 30
0.0
 10
160.373464907703
 20
636.5181811293448
 30
0.0
  0
MTEXT
  5
28B
330
1F
100
AcDbEntity
  8
1
 62
     7
100
AcDbMText
 10
234.375
 20
42.5
 30
0.0
 40
8.75
 41
0.0
 71
     5
 72
     1
  1
2,5
  7
CONVERTER_12
 73
     1
 44
0.7202881152461
  0
MTEXT
  5
28C
330
1F
100
AcDbEntity
  8
1
 62
     7
100
AcDbMText
 10
213.125
 20
42.5
 30
0.0
 40
8.75
 41
0.0
 71
     5
 72
     1
  1
1
  7
CONVERTER_12
 73
     1
 44
0.7202881152461
  0
MTEXT
  5
28D
330
1F
100
AcDbEntity
  8
0
 62
     7
100
AcDbMText
 10
142.5
 20
56.87500000000004
 30
0.0
 40
8.75
 41
0.0
 71
     5
 72
     1
  1
厨房用横形自在水栓
  7
CONVERTER_11
 73
     1
 44
1.0
  0
MTEXT
  5
28E
330
1F
100
AcDbEntity
  8
0
 62
     7
100
AcDbMText
 10
142.5
 20
35.625
 30
0.0
 40
8.75
 41
0.0
 71
     5
 72
     1
  1
A2310-13
  7
CONVERTER_12
 73
     1
 44
1.32052821128451
  0
MTEXT
  5
28F
330
1F
100
AcDbEntity
  8
1
 62
     7
100
AcDbMText
 10
142.8326628281513
 20
644.0181811293448
 30
0.0
 40
8.75
 41
0.0
 71
     5
 72
     1
  1
PJ1/2
  7
CONVERTER_12
 73
     1
 44
1.32052821128451
  0
MTEXT
  5
290
330
1F
100
AcDbEntity
  8
0
 62
     7
100
AcDbMText
 10
85.0
 20
93.75
 30
0.0
 40
8.75
 41
0.0
 71
     4
 72
     1
  1
JIS
  7
CONVERTER_12
 73
     1
 44
1.32052821128451
  0
MTEXT
  5
291
330
1F
100
AcDbEntity
  8
0
 62
     7
100
AcDbMText
 10
85.0
 20
76.25000000000003
 30
0.0
 40
8.75
 41
0.0
 71
     4
 72
     1
  1
共用形
  7
CONVERTER_11
 73
     1
 44
1.0
  0
DIMENSION
  5
29C
330
1F
100
AcDbEntity
  8
1
100
AcDbDimension
  2
*D11
 10
102.2572704266855
 20
179.9659284573588
 30
0.0
 11
147.2549983655915
 21
186.8409284573588
 31
0.0
 70
    32
  1
90リフト3
 71
     5
 42
-1.0
 53
0.00013888888889
  3
ME10_DIM_10
100
AcDbAlignedDimension
 13
192.2527263044975
 23
288.9659284573584
 33
0.0
 14
102.2572704266855
 24
201.9659284573586
 34
0.0
100
AcDbRotatedDimension
  0
DIMENSION
  5
2A7
330
1F
100
AcDbEntity
  8
1
100
AcDbDimension
  2
*D12
 10
405.397592505994
 20
179.9659284573588
 30
0.0
 11
427.8975925059944
 21
186.8409284573588
 31
0.0
 70
    32
  1
<>
 71
     5
 42
-1.0
 53
0.00013888888889
  3
ME10_DIM_11
100
AcDbAlignedDimension
 13
450.3975925059939
 23
204.9659284573588
 33
0.0
 14
405.397592505994
 24
210.9659284573588
 34
0.0
100
AcDbRotatedDimension
  0
DIMENSION
  5
2B2
330
1F
100
AcDbEntity
  8
1
100
AcDbDimension
  2
*D13
 10
489.397592505994
 20
250.9659284573588
 30
0.0
 11
482.522592505994
 21
227.9659284573589
 31
0.0
 70
    32
  1
<>
 71
     5
 42
-1.0
 53
90.0
  3
ME10_DIM_12
100
AcDbAlignedDimension
 13
450.3975925059939
 23
204.9659284573588
 33
0.0
 14
450.3975925059939
 24
250.9659284573586
 34
0.0
 50
90.0
100
AcDbRotatedDimension
  0
DIMENSION
  5
2BD
330
1F
100
AcDbEntity
  8
1
100
AcDbDimension
  2
*D14
 10
235.397592505994
 20
179.9659284573588
 30
0.0
 11
320.3975925059944
 21
186.8409284573588
 31
0.0
 70
    32
  1
<>
 71
     5
 42
-1.0
 53
0.00013888888889
  3
ME10_DIM_13
100
AcDbAlignedDimension
 13
405.397592505994
 23
210.9659284573588
 33
0.0
 14
235.397592505994
 24
259.4659284573587
 34
0.0
100
AcDbRotatedDimension
  0
DIMENSION
  5
2C8
330
1F
100
AcDbEntity
  8
0
100
AcDbDimension
  2
*D15
 10
269.047592505994
 20
227.9659284573582
 30
0.0
 11
262.172592505994
 21
245.2159284573585
 31
0.0
 70
    32
  1
35
 71
     5
 42
-1.0
 53
90.0
  3
ME10_DIM_14
100
AcDbAlignedDimension
 13
242.78399951198
 23
262.4659284573586
 33
0.0
 14
368.4571210077591
 24
227.9659284573582
 34
0.0
 50
90.0
100
AcDbRotatedDimension
  0
DIMENSION
  5
2D3
330
1F
100
AcDbEntity
  8
0
100
AcDbDimension
  2
*D16
 10
289.047592505994
 20
227.9659284573581
 30
0.0
 11
282.172592505994
 21
261.7159284573586
 31
0.0
 70
    32
  1
68
 71
     5
 42
-1.0
 53
90.0
  3
ME10_DIM_15
100
AcDbAlignedDimension
 13
262.3975925059939
 23
295.4659284573588
 33
0.0
 14
368.4571210077591
 24
227.9659284573582
 34
0.0
 50
90.0
100
AcDbRotatedDimension
  0
DIMENSION
  5
2DE
330
1F
100
AcDbEntity
  8
1
100
AcDbDimension
  2
*D17
 10
217.2527263044975
 20
302.9659284573585
 30
0.0
 11
210.3777263044975
 21
265.4659284573584
 31
0.0
 70
    32
  1
<>
 71
     5
 42
-1.0
 53
90.0
  3
ME10_DIM_16
100
AcDbAlignedDimension
 13
178.2527263044975
 23
227.9659284573587
 33
0.0
 14
178.2527263044974
 24
302.9659284573584
 34
0.0
 50
90.0
100
AcDbRotatedDimension
  0
DIMENSION
  5
2EC
330
1F
100
AcDbEntity
  8
1
100
AcDbDimension
  2
*D18
 10
464.397592505994
 20
179.9659284573588
 30
0.0
 11
477.8977595483721
 21
186.8409284573588
 31
0.0
 70
    32
  1
<>
 71
     5
 42
-1.0
 53
0.00013888888889
  3
ME10_DIM_17
100
AcDbAlignedDimension
 13
450.3975925059939
 23
204.9659284573588
 33
0.0
 14
464.3975925059939
 24
218.4659284573586
 34
0.0
100
AcDbRotatedDimension
  0
ENDSEC
  0
SECTION
  2
OBJECTS
  0
DICTIONARY
  5
C
330
0
100
AcDbDictionary
281
     1
  3
ACAD_GROUP
350
D
  3
ACAD_LAYOUT
350
1A
  3
ACAD_MATERIAL
350
3B
  3
ACAD_MLEADERSTYLE
350
2EF
  3
ACAD_MLINESTYLE
350
17
  3
ACAD_PLOTSETTINGS
350
19
  3
ACAD_PLOTSTYLENAME
350
E
  3
ACAD_VISUALSTYLE
350
2A
  3
AcDbVariableDictionary
350
2ED
  0
DICTIONARY
  5
D
102
{ACAD_REACTORS
330
C
102
}
330
C
100
AcDbDictionary
281
     1
  0
DICTIONARY
  5
1A
102
{ACAD_REACTORS
330
C
102
}
330
C
100
AcDbDictionary
281
     1
  3
Layout1
350
1E
  3
Layout2
350
26
  3
Model
350
22
  0
DICTIONARY
  5
3B
102
{ACAD_REACTORS
330
C
102
}
330
C
100
AcDbDictionary
281
     1
  3
ByBlock
350
3D
  3
ByLayer
350
3C
  3
Global
350
3E
  0
DICTIONARY
  5
2EF
102
{ACAD_REACTORS
330
C
102
}
330
C
100
AcDbDictionary
281
     1
  0
DICTIONARY
  5
17
102
{ACAD_REACTORS
330
C
102
}
330
C
100
AcDbDictionary
281
     1
  3
Standard
350
18
  0
DICTIONARY
  5
19
102
{ACAD_REACTORS
330
C
102
}
330
C
100
AcDbDictionary
281
     1
  0
ACDBDICTIONARYWDFLT
  5
E
102
{ACAD_REACTORS
330
C
102
}
330
C
100
AcDbDictionary
281
     1
  3
Normal
350
F
100
AcDbDictionaryWithDefault
340
F
  0
DICTIONARY
  5
2A
102
{ACAD_REACTORS
330
C
102
}
330
C
100
AcDbDictionary
281
     1
  3
2dWireframe
350
2F
  3
3D Hidden
350
31
  3
3dWireframe
350
30
  3
Basic
350
32
  3
Brighten
350
36
  3
ColorChange
350
3A
  3
Conceptual
350
34
  3
Dim
350
35
  3
Facepattern
350
39
  3
Flat
350
2B
  3
FlatWithEdges
350
2C
  3
Gouraud
350
2D
  3
GouraudWithEdges
350
2E
  3
Linepattern
350
38
  3
Realistic
350
33
  3
Thicken
350
37
  0
DICTIONARY
  5
2ED
102
{ACAD_REACTORS
330
C
102
}
330
C
100
AcDbDictionary
281
     1
  3
DIMASSOC
350
2F0
  3
HIDETEXT
350
2F1
  0
LAYOUT
  5
1E
102
{ACAD_REACTORS
330
1A
102
}
330
1A
100
AcDbPlotSettings
  1

  2
none_device
  4

  6

 40
0.0
 41
0.0
 42
0.0
 43
0.0
 44
0.0
 45
0.0
 46
0.0
 47
0.0
 48
0.0
 49
0.0
140
0.0
141
0.0
142
1.0
143
1.0
 70
   688
 72
     0
 73
     0
 74
     5
  7

 75
    16
147
1.0
148
0.0
149
0.0
100
AcDbLayout
  1
Layout1
 70
     1
 71
     1
 10
0.0
 20
0.0
 11
12.0
 21
9.0
 12
0.0
 22
0.0
 32
0.0
 14
1.00000000000000E+20
 24
1.00000000000000E+20
 34
1.00000000000000E+20
 15
-1.00000000000000E+20
 25
-1.00000000000000E+20
 35
-1.00000000000000E+20
146
0.0
 13
0.0
 23
0.0
 33
0.0
 16
1.0
 26
0.0
 36
0.0
 17
0.0
 27
1.0
 37
0.0
 76
     0
330
1B
  0
LAYOUT
  5
26
102
{ACAD_REACTORS
330
1A
102
}
330
1A
100
AcDbPlotSettings
  1

  2
none_device
  4

  6

 40
0.0
 41
0.0
 42
0.0
 43
0.0
 44
0.0
 45
0.0
 46
0.0
 47
0.0
 48
0.0
 49
0.0
140
0.0
141
0.0
142
1.0
143
1.0
 70
   688
 72
     0
 73
     0
 74
     5
  7

 75
    16
147
1.0
148
0.0
149
0.0
100
AcDbLayout
  1
Layout2
 70
     1
 71
     2
 10
0.0
 20
0.0
 11
0.0
 21
0.0
 12
0.0
 22
0.0
 32
0.0
 14
0.0
 24
0.0
 34
0.0
 15
0.0
 25
0.0
 35
0.0
146
0.0
 13
0.0
 23
0.0
 33
0.0
 16
1.0
 26
0.0
 36
0.0
 17
0.0
 27
1.0
 37
0.0
 76
     0
330
23
  0
LAYOUT
  5
22
102
{ACAD_REACTORS
330
1A
102
}
330
1A
100
AcDbPlotSettings
  1

  2
none_device
  4

  6

 40
0.0
 41
0.0
 42
0.0
 43
0.0
 44
0.0
 45
0.0
 46
0.0
 47
0.0
 48
0.0
 49
0.0
140
0.0
141
0.0
142
1.0
143
1.0
 70
  1712
 72
     0
 73
     0
 74
     0
  7

 75
     0
147
1.0
148
0.0
149
0.0
100
AcDbLayout
  1
Model
 70
     1
 71
     0
 10
0.0
 20
0.0
 11
12.0
 21
9.0
 12
0.0
 22
0.0
 32
0.0
 14
0.0
 24
0.0
 34
0.0
 15
525.0
 25
742.5
 35
0.0
146
0.0
 13
0.0
 23
0.0
 33
0.0
 16
1.0
 26
0.0
 36
0.0
 17
0.0
 27
1.0
 37
0.0
 76
     0
330
1F
331
29
  0
MATERIAL
  5
3D
102
{ACAD_REACTORS
330
3B
102
}
102
{ACAD_XDICTIONARY
360
314
102
}
330
3B
100
AcDbMaterial
  1
ByBlock
  0
MATERIAL
  5
3C
102
{ACAD_REACTORS
330
3B
102
}
102
{ACAD_XDICTIONARY
360
312
102
}
330
3B
100
AcDbMaterial
  1
ByLayer
  0
MATERIAL
  5
3E
102
{ACAD_REACTORS
330
3B
102
}
102
{ACAD_XDICTIONARY
360
316
102
}
330
3B
100
AcDbMaterial
  1
Global
  0
MLINESTYLE
  5
18
102
{ACAD_REACTORS
330
17
102
}
330
17
100
AcDbMlineStyle
  2
Standard
 70
     0
  3

 62
   256
 51
90.0
 52
90.0
 71
     2
 49
0.5
 62
   256
  6
BYLAYER
 49
-0.5
 62
   256
  6
BYLAYER
  0
ACDBPLACEHOLDER
  5
F
102
{ACAD_REACTORS
330
E
102
}
330
E
  0
VISUALSTYLE
  5
2F
102
{ACAD_REACTORS
330
2A
102
}
102
{ACAD_XDICTIONARY
360
2FA
102
}
330
2A
100
AcDbVisualStyle
  2
2dWireframe
 70
     4
 71
     0
 72
     2
 73
     0
 90
        0
 40
-0.6
 41
-30.0
 62
     5
 63
     7
 74
     1
 91
        4
 64
     7
 65
   257
 75
     1
175
     1
 42
1.0
 92
        0
 66
   257
 43
1.0
 76
     1
 77
     6
 78
     2
 67
     7
 79
     5
170
     0
171
     0
290
     0
174
     0
 93
        1
 44
0.0
173
     0
291
     0
 45
0.0
1001
ACAD
1000
AcDbSavedByObjectVersion
1070
     0
  0
VISUALSTYLE
  5
31
102
{ACAD_REACTORS
330
2A
102
}
102
{ACAD_XDICTIONARY
360
2FE
102
}
330
2A
100
AcDbVisualStyle
  2
3D Hidden
 70
     6
 71
     1
 72
     2
 73
     2
 90
        0
 40
-0.6
 41
-30.0
 62
     5
 63
     7
 74
     2
 91
        2
 64
     7
 65
   257
 75
     2
175
     1
 42
40.0
 92
        0
 66
   257
 43
1.0
 76
     1
 77
     6
 78
     2
 67
     7
 79
     3
170
     0
171
     0
290
     0
174
     0
 93
        1
 44
0.0
173
     0
291
     0
 45
0.0
1001
ACAD
1000
AcDbSavedByObjectVersion
1070
     0
  0
VISUALSTYLE
  5
30
102
{ACAD_REACTORS
330
2A
102
}
102
{ACAD_XDICTIONARY
360
2FC
102
}
330
2A
100
AcDbVisualStyle
  2
3dWireframe
 70
     5
 71
     0
 72
     2
 73
     0
 90
        0
 40
-0.6
 41
-30.0
 62
     5
 63
     7
 74
     1
 91
        4
 64
     7
 65
   257
 75
     1
175
     1
 42
1.0
 92
        0
 66
   257
 43
1.0
 76
     1
 77
     6
 78
     2
 67
     7
 79
     5
170
     0
171
     0
290
     0
174
     0
 93
        1
 44
0.0
173
     0
291
     0
 45
0.0
1001
ACAD
1000
AcDbSavedByObjectVersion
1070
     0
  0
VISUALSTYLE
  5
32
102
{ACAD_REACTORS
330
2A
102
}
102
{ACAD_XDICTIONARY
360
300
102
}
330
2A
100
AcDbVisualStyle
  2
Basic
 70
     7
 71
     1
 72
     0
 73
     1
 90
        0
 40
-0.6
 41
-30.0
 62
     5
 63
     7
 74
     0
 91
        4
 64
     7
 65
   257
 75
     1
175
     1
 42
1.0
 92
        8
 66
     7
 43
1.0
 76
     1
 77
     6
 78
     2
 67
     7
 79
     5
170
     0
171
     0
290
     0
174
     0
 93
        1
 44
0.0
173
     0
291
     1
 45
0.0
1001
ACAD
1000
AcDbSavedByObjectVersion
1070
     0
  0
VISUALSTYLE
  5
36
102
{ACAD_REACTORS
330
2A
102
}
102
{ACAD_XDICTIONARY
360
308
102
}
330
2A
100
AcDbVisualStyle
  2
Brighten
 70
    12
 71
     2
 72
     2
 73
     0
 90
        0
 40
-0.6
 41
-30.0
 62
     5
 63
     7
 74
     1
 91
        4
 64
     7
 65
   257
 75
     1
175
     1
 42
1.0
 92
        8
 66
     7
 43
1.0
 76
     1
 77
     6
 78
     2
 67
     7
 79
     5
170
     0
171
     0
290
     0
174
     0
 93
        1
 44
50.0
173
     0
291
     1
 45
0.0
1001
ACAD
1000
AcDbSavedByObjectVersion
1070
     0
  0
VISUALSTYLE
  5
3A
102
{ACAD_REACTORS
330
2A
102
}
102
{ACAD_XDICTIONARY
360
310
102
}
330
2A
100
AcDbVisualStyle
  2
ColorChange
 70
    16
 71
     2
 72
     2
 73
     3
 90
        0
 40
-0.6
 41
-30.0
 62
     5
 63
     8
 74
     1
 91
        4
 64
     7
 65
   257
 75
     1
175
     1
 42
1.0
 92
        8
 66
     8
 43
1.0
 76
     1
 77
     6
 78
     2
 67
     7
 79
     5
170
     0
171
     0
290
     0
174
     0
 93
        1
 44
0.0
173
     0
291
     1
 45
0.0
1001
ACAD
1000
AcDbSavedByObjectVersion
1070
     0
  0
VISUALSTYLE
  5
34
102
{ACAD_REACTORS
330
2A
102
}
102
{ACAD_XDICTIONARY
360
304
102
}
330
2A
100
AcDbVisualStyle
  2
Conceptual
 70
     9
 71
     3
 72
     2
 73
     0
 90
        0
 40
-0.6
 41
-30.0
 62
     5
 63
     7
 74
     2
 91
        2
 64
     7
 65
   257
 75
     1
175
     1
 42
40.0
 92
        8
 66
     7
 43
1.0
 76
     1
 77
     6
 78
     2
 67
     7
 79
     3
170
     0
171
     0
290
     0
174
     0
 93
        1
 44
0.0
173
     0
291
     0
 45
0.0
1001
ACAD
1000
AcDbSavedByObjectVersion
1070
     0
  0
VISUALSTYLE
  5
35
102
{ACAD_REACTORS
330
2A
102
}
102
{ACAD_XDICTIONARY
360
306
102
}
330
2A
100
AcDbVisualStyle
  2
Dim
 70
    11
 71
     2
 72
     2
 73
     0
 90
        0
 40
-0.6
 41
-30.0
 62
     5
 63
     7
 74
     1
 91
        4
 64
     7
 65
   257
 75
     1
175
     1
 42
1.0
 92
        8
 66
     7
 43
1.0
 76
     1
 77
     6
 78
     2
 67
     7
 79
     5
170
     0
171
     0
290
     0
174
     0
 93
        1
 44
-50.0
173
     0
291
     1
 45
0.0
1001
ACAD
1000
AcDbSavedByObjectVersion
1070
     0
  0
VISUALSTYLE
  5
39
102
{ACAD_REACTORS
330
2A
102
}
102
{ACAD_XDICTIONARY
360
30E
102
}
330
2A
100
AcDbVisualStyle
  2
Facepattern
 70
    15
 71
     2
 72
     2
 73
     0
 90
        0
 40
-0.6
 41
-30.0
 62
     5
 63
     7
 74
     1
 91
        4
 64
     7
 65
   257
 75
     1
175
     1
 42
1.0
 92
        8
 66
     7
 43
1.0
 76
     1
 77
     6
 78
     2
 67
     7
 79
     5
170
     0
171
     0
290
     0
174
     0
 93
        1
 44
0.0
173
     0
291
     1
 45
0.0
1001
ACAD
1000
AcDbSavedByObjectVersion
1070
     0
  0
VISUALSTYLE
  5
2B
102
{ACAD_REACTORS
330
2A
102
}
102
{ACAD_XDICTIONARY
360
2F2
102
}
330
2A
100
AcDbVisualStyle
  2
Flat
 70
     0
 71
     2
 72
     1
 73
     1
 90
        2
 40
-0.6
 41
30.0
 62
     5
 63
     7
 74
     0
 91
        4
 64
     7
 65
   257
 75
     1
175
     1
 42
1.0
 92
        8
 66
     7
 43
1.0
 76
     1
 77
     6
 78
     2
 67
     7
 79
     5
170
     0
171
     0
290
     0
174
     0
 93
       13
 44
0.0
173
     0
291
     1
 45
0.0
1001
ACAD
1000
AcDbSavedByObjectVersion
1070
     0
  0
VISUALSTYLE
  5
2C
102
{ACAD_REACTORS
330
2A
102
}
102
{ACAD_XDICTIONARY
360
2F4
102
}
330
2A
100
AcDbVisualStyle
  2
FlatWithEdges
 70
     1
 71
     2
 72
     1
 73
     1
 90
        2
 40
-0.6
 41
30.0
 62
     5
 63
     7
 74
     1
 91
        4
 64
     7
 65
   257
 75
     1
175
     1
 42
1.0
 92
        0
 66
   257
 43
1.0
 76
     1
 77
     6
 78
     2
 67
     7
 79
     5
170
     0
171
     0
290
     0
174
     0
 93
       13
 44
0.0
173
     0
291
     1
 45
0.0
1001
ACAD
1000
AcDbSavedByObjectVersion
1070
     0
  0
VISUALSTYLE
  5
2D
102
{ACAD_REACTORS
330
2A
102
}
102
{ACAD_XDICTIONARY
360
2F6
102
}
330
2A
100
AcDbVisualStyle
  2
Gouraud
 70
     2
 71
     2
 72
     2
 73
     1
 90
        2
 40
-0.6
 41
30.0
 62
     5
 63
     7
 74
     0
 91
        4
 64
     7
 65
   257
 75
     1
175
     1
 42
1.0
 92
        0
 66
     7
 43
1.0
 76
     1
 77
     6
 78
     2
 67
     7
 79
     5
170
     0
171
     0
290
     0
174
     0
 93
       13
 44
0.0
173
     0
291
     1
 45
0.0
1001
ACAD
1000
AcDbSavedByObjectVersion
1070
     0
  0
VISUALSTYLE
  5
2E
102
{ACAD_REACTORS
330
2A
102
}
102
{ACAD_XDICTIONARY
360
2F8
102
}
330
2A
100
AcDbVisualStyle
  2
GouraudWithEdges
 70
     3
 71
     2
 72
     2
 73
     1
 90
        2
 40
-0.6
 41
30.0
 62
     5
 63
     7
 74
     1
 91
        4
 64
     7
 65
   257
 75
     1
175
     1
 42
1.0
 92
        0
 66
   257
 43
1.0
 76
     1
 77
     6
 78
     2
 67
     7
 79
     5
170
     0
171
     0
290
     0
174
     0
 93
       13
 44
0.0
173
     0
291
     1
 45
0.0
1001
ACAD
1000
AcDbSavedByObjectVersion
1070
     0
  0
VISUALSTYLE
  5
38
102
{ACAD_REACTORS
330
2A
102
}
102
{ACAD_XDICTIONARY
360
30C
102
}
330
2A
100
AcDbVisualStyle
  2
Linepattern
 70
    14
 71
     2
 72
     2
 73
     0
 90
        0
 40
-0.6
 41
-30.0
 62
     5
 63
     7
 74
     1
 91
        4
 64
     7
 65
   257
 75
     7
175
     7
 42
1.0
 92
        8
 66
     7
 43
1.0
 76
     1
 77
     6
 78
     2
 67
     7
 79
     5
170
     0
171
     0
290
     0
174
     0
 93
        1
 44
0.0
173
     0
291
     1
 45
0.0
1001
ACAD
1000
AcDbSavedByObjectVersion
1070
     0
  0
VISUALSTYLE
  5
33
102
{ACAD_REACTORS
330
2A
102
}
102
{ACAD_XDICTIONARY
360
302
102
}
330
2A
100
AcDbVisualStyle
  2
Realistic
 70
     8
 71
     2
 72
     2
 73
     0
 90
        0
 40
-0.6
 41
-30.0
 62
     5
 63
     7
 74
     1
 91
        0
 64
     7
 65
   257
 75
     1
175
     1
 42
1.0
 92
        8
 66
     8
 43
1.0
 76
     1
 77
     6
 78
     2
 67
     7
 79
     5
170
     0
171
     0
290
     0
174
     0
 93
       13
 44
0.0
173
     0
291
     0
 45
0.0
1001
ACAD
1000
AcDbSavedByObjectVersion
1070
     0
  0
VISUALSTYLE
  5
37
102
{ACAD_REACTORS
330
2A
102
}
102
{ACAD_XDICTIONARY
360
30A
102
}
330
2A
100
AcDbVisualStyle
  2
Thicken
 70
    13
 71
     2
 72
     2
 73
     0
 90
        0
 40
-0.6
 41
-30.0
 62
     5
 63
     7
 74
     1
 91
        4
 64
     7
 65
   257
 75
     1
175
     1
 42
1.0
 92
       12
 66
     7
 43
1.0
 76
     1
 77
     6
 78
     2
 67
     7
 79
     5
170
     0
171
     0
290
     0
174
     0
 93
        1
 44
0.0
173
     0
291
     1
 45
0.0
1001
ACAD
1000
AcDbSavedByObjectVersion
1070
     0
  0
DICTIONARYVAR
  5
2F0
102
{ACAD_REACTORS
330
2ED
102
}
330
2ED
100
DictionaryVariables
280
     0
  1
2
  0
DICTIONARYVAR
  5
2F1
102
{ACAD_REACTORS
330
2ED
102
}
330
2ED
100
DictionaryVariables
280
     0
  1
1
  0
DICTIONARY
  5
314
330
3D
100
AcDbDictionary
280
     1
281
     1
  3
ACAD_XREC_ROUNDTRIP
360
315
  0
DICTIONARY
  5
312
330
3C
100
AcDbDictionary
280
     1
281
     1
  3
ACAD_XREC_ROUNDTRIP
360
313
  0
DICTIONARY
  5
316
330
3E
100
AcDbDictionary
280
     1
281
     1
  3
ACAD_XREC_ROUNDTRIP
360
317
  0
DICTIONARY
  5
2FA
330
2F
100
AcDbDictionary
280
     1
281
     1
  3
ACAD_XREC_ROUNDTRIP
360
2FB
  0
DICTIONARY
  5
2FE
330
31
100
AcDbDictionary
280
     1
281
     1
  3
ACAD_XREC_ROUNDTRIP
360
2FF
  0
DICTIONARY
  5
2FC
330
30
100
AcDbDictionary
280
     1
281
     1
  3
ACAD_XREC_ROUNDTRIP
360
2FD
  0
DICTIONARY
  5
300
330
32
100
AcDbDictionary
280
     1
281
     1
  3
ACAD_XREC_ROUNDTRIP
360
301
  0
DICTIONARY
  5
308
330
36
100
AcDbDictionary
280
     1
281
     1
  3
ACAD_XREC_ROUNDTRIP
360
309
  0
DICTIONARY
  5
310
330
3A
100
AcDbDictionary
280
     1
281
     1
  3
ACAD_XREC_ROUNDTRIP
360
311
  0
DICTIONARY
  5
304
330
34
100
AcDbDictionary
280
     1
281
     1
  3
ACAD_XREC_ROUNDTRIP
360
305
  0
DICTIONARY
  5
306
330
35
100
AcDbDictionary
280
     1
281
     1
  3
ACAD_XREC_ROUNDTRIP
360
307
  0
DICTIONARY
  5
30E
330
39
100
AcDbDictionary
280
     1
281
     1
  3
ACAD_XREC_ROUNDTRIP
360
30F
  0
DICTIONARY
  5
2F2
330
2B
100
AcDbDictionary
280
     1
281
     1
  3
ACAD_XREC_ROUNDTRIP
360
2F3
  0
DICTIONARY
  5
2F4
330
2C
100
AcDbDictionary
280
     1
281
     1
  3
ACAD_XREC_ROUNDTRIP
360
2F5
  0
DICTIONARY
  5
2F6
330
2D
100
AcDbDictionary
280
     1
281
     1
  3
ACAD_XREC_ROUNDTRIP
360
2F7
  0
DICTIONARY
  5
2F8
330
2E
100
AcDbDictionary
280
     1
281
     1
  3
ACAD_XREC_ROUNDTRIP
360
2F9
  0
DICTIONARY
  5
30C
330
38
100
AcDbDictionary
280
     1
281
     1
  3
ACAD_XREC_ROUNDTRIP
360
30D
  0
DICTIONARY
  5
302
330
33
100
AcDbDictionary
280
     1
281
     1
  3
ACAD_XREC_ROUNDTRIP
360
303
  0
DICTIONARY
  5
30A
330
37
100
AcDbDictionary
280
     1
281
     1
  3
ACAD_XREC_ROUNDTRIP
360
30B
  0
XRECORD
  5
315
102
{ACAD_REACTORS
330
314
102
}
330
314
100
AcDbXrecord
280
     1
102
MATERIAL
148
0.0
149
0.0
149
0.0
 93
        0
 94
      127
282
     0
 72
     1
 77
     1
171
     1
175
     1
179
     1
273
     0
  0
XRECORD
  5
313
102
{ACAD_REACTORS
330
312
102
}
330
312
100
AcDbXrecord
280
     1
102
MATERIAL
148
0.0
149
0.0
149
0.0
 93
        0
 94
      127
282
     0
 72
     1
 77
     1
171
     1
175
     1
179
     1
273
     0
  0
XRECORD
  5
317
102
{ACAD_REACTORS
330
316
102
}
330
316
100
AcDbXrecord
280
     1
102
MATERIAL
148
0.0
149
0.0
149
0.0
 93
        0
 94
      127
282
     0
 72
     1
 77
     1
171
     1
175
     1
179
     1
273
     0
  0
XRECORD
  5
2FB
102
{ACAD_REACTORS
330
2FA
102
}
330
2FA
100
AcDbXrecord
280
     1
102
RTVSPropertyOp0
 70
     1
102
RTVSPropertyOp1
 70
     1
102
RTVSPropertyOp2
 70
     1
102
RTVSPropertyOp3
 70
     1
102
RTVSPropertyOp4
 70
     1
102
RTVSPropertyOp5
 70
     1
102
RTVSPropertyOp6
 70
     1
102
RTVSPropertyOp7
 70
     1
102
RTVSPropertyOp8
 70
     1
102
RTVSPropertyOp9
 70
     1
102
RTVSPropertyOp10
 70
     1
102
RTVSPropertyOp11
 70
     1
102
RTVSPropertyOp12
 70
     1
102
RTVSPropertyOp13
 70
     1
102
RTVSPropertyOp14
 70
     1
102
RTVSPropertyOp15
 70
     1
102
RTVSPropertyOp16
 70
     1
102
RTVSPropertyOp17
 70
     1
102
RTVSPropertyOp18
 70
     1
102
RTVSPropertyOp19
 70
     1
102
RTVSPropertyOp20
 70
     1
102
RTVSPropertyOp21
 70
     1
102
RTVSPropertyOp22
 70
     1
102
RTVSPropertyOp23
 70
     1
102
RTVSPropertyOp24
 70
     1
102
RTVSPropertyOp25
 70
     1
102
RTVSPropertyOp26
 70
     1
102
RTVSPropertyOp27
 70
     1
102
RTVSPropertyOp28
 70
     1
102
RTVSPropertyOp29
 70
     1
102
RTVSPropertyOp30
 70
     1
102
RTVSPropertyOp31
 70
     1
102
RTVSPropertyOp32
 70
     1
  0
XRECORD
  5
2FF
102
{ACAD_REACTORS
330
2FE
102
}
330
2FE
100
AcDbXrecord
280
     1
102
RTVSPropertyOp0
 70
     1
102
RTVSPropertyOp1
 70
     1
102
RTVSPropertyOp2
 70
     1
102
RTVSPropertyOp3
 70
     1
102
RTVSPropertyOp4
 70
     1
102
RTVSPropertyOp5
 70
     1
102
RTVSPropertyOp6
 70
     1
102
RTVSPropertyOp7
 70
     1
102
RTVSPropertyOp8
 70
     1
102
RTVSPropertyOp9
 70
     1
102
RTVSPropertyOp10
 70
     1
102
RTVSPropertyOp11
 70
     1
102
RTVSPropertyOp12
 70
     1
102
RTVSPropertyOp13
 70
     1
102
RTVSPropertyOp14
 70
     1
102
RTVSPropertyOp15
 70
     1
102
RTVSPropertyOp16
 70
     1
102
RTVSPropertyOp17
 70
     1
102
RTVSPropertyOp18
 70
     1
102
RTVSPropertyOp19
 70
     1
102
RTVSPropertyOp20
 70
     1
102
RTVSPropertyOp21
 70
     1
102
RTVSPropertyOp22
 70
     1
102
RTVSPropertyOp23
 70
     1
102
RTVSPropertyOp24
 70
     1
102
RTVSPropertyOp25
 70
     1
102
RTVSPropertyOp26
 70
     1
102
RTVSPropertyOp27
 70
     1
102
RTVSPropertyOp28
 70
     1
102
RTVSPropertyOp29
 70
     1
102
RTVSPropertyOp30
 70
     1
102
RTVSPropertyOp31
 70
     1
102
RTVSPropertyOp32
 70
     1
  0
XRECORD
  5
2FD
102
{ACAD_REACTORS
330
2FC
102
}
330
2FC
100
AcDbXrecord
280
     1
102
RTVSPropertyOp0
 70
     1
102
RTVSPropertyOp1
 70
     1
102
RTVSPropertyOp2
 70
     1
102
RTVSPropertyOp3
 70
     1
102
RTVSPropertyOp4
 70
     1
102
RTVSPropertyOp5
 70
     1
102
RTVSPropertyOp6
 70
     1
102
RTVSPropertyOp7
 70
     1
102
RTVSPropertyOp8
 70
     1
102
RTVSPropertyOp9
 70
     1
102
RTVSPropertyOp10
 70
     1
102
RTVSPropertyOp11
 70
     1
102
RTVSPropertyOp12
 70
     1
102
RTVSPropertyOp13
 70
     1
102
RTVSPropertyOp14
 70
     1
102
RTVSPropertyOp15
 70
     1
102
RTVSPropertyOp16
 70
     1
102
RTVSPropertyOp17
 70
     1
102
RTVSPropertyOp18
 70
     1
102
RTVSPropertyOp19
 70
     1
102
RTVSPropertyOp20
 70
     1
102
RTVSPropertyOp21
 70
     1
102
RTVSPropertyOp22
 70
     1
102
RTVSPropertyOp23
 70
     1
102
RTVSPropertyOp24
 70
     1
102
RTVSPropertyOp25
 70
     1
102
RTVSPropertyOp26
 70
     1
102
RTVSPropertyOp27
 70
     1
102
RTVSPropertyOp28
 70
     1
102
RTVSPropertyOp29
 70
     1
102
RTVSPropertyOp30
 70
     1
102
RTVSPropertyOp31
 70
     1
102
RTVSPropertyOp32
 70
     1
  0
XRECORD
  5
301
102
{ACAD_REACTORS
330
300
102
}
330
300
100
AcDbXrecord
280
     1
102
RTVSPropertyOp0
 70
     1
102
RTVSPropertyOp1
 70
     1
102
RTVSPropertyOp2
 70
     1
102
RTVSPropertyOp3
 70
     1
102
RTVSPropertyOp4
 70
     1
102
RTVSPropertyOp5
 70
     1
102
RTVSPropertyOp6
 70
     1
102
RTVSPropertyOp7
 70
     1
102
RTVSPropertyOp8
 70
     1
102
RTVSPropertyOp9
 70
     1
102
RTVSPropertyOp10
 70
     1
102
RTVSPropertyOp11
 70
     1
102
RTVSPropertyOp12
 70
     1
102
RTVSPropertyOp13
 70
     1
102
RTVSPropertyOp14
 70
     1
102
RTVSPropertyOp15
 70
     1
102
RTVSPropertyOp16
 70
     1
102
RTVSPropertyOp17
 70
     1
102
RTVSPropertyOp18
 70
     1
102
RTVSPropertyOp19
 70
     1
102
RTVSPropertyOp20
 70
     1
102
RTVSPropertyOp21
 70
     1
102
RTVSPropertyOp22
 70
     1
102
RTVSPropertyOp23
 70
     1
102
RTVSPropertyOp24
 70
     1
102
RTVSPropertyOp25
 70
     1
102
RTVSPropertyOp26
 70
     1
102
RTVSPropertyOp27
 70
     1
102
RTVSPropertyOp28
 70
     1
102
RTVSPropertyOp29
 70
     1
102
RTVSPropertyOp30
 70
     1
102
RTVSPropertyOp31
 70
     1
102
RTVSPropertyOp32
 70
     1
  0
XRECORD
  5
309
102
{ACAD_REACTORS
330
308
102
}
330
308
100
AcDbXrecord
280
     1
102
RTVSPropertyOp0
 70
     1
102
RTVSPropertyOp1
 70
     1
102
RTVSPropertyOp2
 70
     1
102
RTVSPropertyOp3
 70
     1
102
RTVSPropertyOp4
 70
     1
102
RTVSPropertyOp5
 70
     1
102
RTVSPropertyOp6
 70
     1
102
RTVSPropertyOp7
 70
     1
102
RTVSPropertyOp8
 70
     1
102
RTVSPropertyOp9
 70
     1
102
RTVSPropertyOp10
 70
     1
102
RTVSPropertyOp11
 70
     1
102
RTVSPropertyOp12
 70
     1
102
RTVSPropertyOp13
 70
     1
102
RTVSPropertyOp14
 70
     1
102
RTVSPropertyOp15
 70
     1
102
RTVSPropertyOp16
 70
     1
102
RTVSPropertyOp17
 70
     1
102
RTVSPropertyOp18
 70
     1
102
RTVSPropertyOp19
 70
     1
102
RTVSPropertyOp20
 70
     1
102
RTVSPropertyOp21
 70
     1
102
RTVSPropertyOp22
 70
     1
102
RTVSPropertyOp23
 70
     1
102
RTVSPropertyOp24
 70
     1
102
RTVSPropertyOp25
 70
     1
102
RTVSPropertyOp26
 70
     1
102
RTVSPropertyOp27
 70
     1
102
RTVSPropertyOp28
 70
     1
102
RTVSPropertyOp29
 70
     1
102
RTVSPropertyOp30
 70
     1
102
RTVSPropertyOp31
 70
     1
102
RTVSPropertyOp32
 70
     1
  0
XRECORD
  5
311
102
{ACAD_REACTORS
330
310
102
}
330
310
100
AcDbXrecord
280
     1
102
RTVSPropertyOp0
 70
     1
102
RTVSPropertyOp1
 70
     1
102
RTVSPropertyOp2
 70
     1
102
RTVSPropertyOp3
 70
     1
102
RTVSPropertyOp4
 70
     1
102
RTVSPropertyOp5
 70
     1
102
RTVSPropertyOp6
 70
     1
102
RTVSPropertyOp7
 70
     1
102
RTVSPropertyOp8
 70
     1
102
RTVSPropertyOp9
 70
     1
102
RTVSPropertyOp10
 70
     1
102
RTVSPropertyOp11
 70
     1
102
RTVSPropertyOp12
 70
     1
102
RTVSPropertyOp13
 70
     1
102
RTVSPropertyOp14
 70
     1
102
RTVSPropertyOp15
 70
     1
102
RTVSPropertyOp16
 70
     1
102
RTVSPropertyOp17
 70
     1
102
RTVSPropertyOp18
 70
     1
102
RTVSPropertyOp19
 70
     1
102
RTVSPropertyOp20
 70
     1
102
RTVSPropertyOp21
 70
     1
102
RTVSPropertyOp22
 70
     1
102
RTVSPropertyOp23
 70
     1
102
RTVSPropertyOp24
 70
     1
102
RTVSPropertyOp25
 70
     1
102
RTVSPropertyOp26
 70
     1
102
RTVSPropertyOp27
 70
     1
102
RTVSPropertyOp28
 70
     1
102
RTVSPropertyOp29
 70
     1
102
RTVSPropertyOp30
 70
     1
102
RTVSPropertyOp31
 70
     1
102
RTVSPropertyOp32
 70
     1
  0
XRECORD
  5
305
102
{ACAD_REACTORS
330
304
102
}
330
304
100
AcDbXrecord
280
     1
102
RTVSPropertyOp0
 70
     1
102
RTVSPropertyOp1
 70
     1
102
RTVSPropertyOp2
 70
     1
102
RTVSPropertyOp3
 70
     1
102
RTVSPropertyOp4
 70
     1
102
RTVSPropertyOp5
 70
     1
102
RTVSPropertyOp6
 70
     1
102
RTVSPropertyOp7
 70
     1
102
RTVSPropertyOp8
 70
     1
102
RTVSPropertyOp9
 70
     1
102
RTVSPropertyOp10
 70
     1
102
RTVSPropertyOp11
 70
     1
102
RTVSPropertyOp12
 70
     1
102
RTVSPropertyOp13
 70
     1
102
RTVSPropertyOp14
 70
     1
102
RTVSPropertyOp15
 70
     1
102
RTVSPropertyOp16
 70
     1
102
RTVSPropertyOp17
 70
     1
102
RTVSPropertyOp18
 70
     1
102
RTVSPropertyOp19
 70
     1
102
RTVSPropertyOp20
 70
     1
102
RTVSPropertyOp21
 70
     1
102
RTVSPropertyOp22
 70
     1
102
RTVSPropertyOp23
 70
     1
102
RTVSPropertyOp24
 70
     1
102
RTVSPropertyOp25
 70
     1
102
RTVSPropertyOp26
 70
     1
102
RTVSPropertyOp27
 70
     1
102
RTVSPropertyOp28
 70
     1
102
RTVSPropertyOp29
 70
     1
102
RTVSPropertyOp30
 70
     1
102
RTVSPropertyOp31
 70
     1
102
RTVSPropertyOp32
 70
     1
  0
XRECORD
  5
307
102
{ACAD_REACTORS
330
306
102
}
330
306
100
AcDbXrecord
280
     1
102
RTVSPropertyOp0
 70
     1
102
RTVSPropertyOp1
 70
     1
102
RTVSPropertyOp2
 70
     1
102
RTVSPropertyOp3
 70
     1
102
RTVSPropertyOp4
 70
     1
102
RTVSPropertyOp5
 70
     1
102
RTVSPropertyOp6
 70
     1
102
RTVSPropertyOp7
 70
     1
102
RTVSPropertyOp8
 70
     1
102
RTVSPropertyOp9
 70
     1
102
RTVSPropertyOp10
 70
     1
102
RTVSPropertyOp11
 70
     1
102
RTVSPropertyOp12
 70
     1
102
RTVSPropertyOp13
 70
     1
102
RTVSPropertyOp14
 70
     1
102
RTVSPropertyOp15
 70
     1
102
RTVSPropertyOp16
 70
     1
102
RTVSPropertyOp17
 70
     1
102
RTVSPropertyOp18
 70
     1
102
RTVSPropertyOp19
 70
     1
102
RTVSPropertyOp20
 70
     1
102
RTVSPropertyOp21
 70
     1
102
RTVSPropertyOp22
 70
     1
102
RTVSPropertyOp23
 70
     1
102
RTVSPropertyOp24
 70
     1
102
RTVSPropertyOp25
 70
     1
102
RTVSPropertyOp26
 70
     1
102
RTVSPropertyOp27
 70
     1
102
RTVSPropertyOp28
 70
     1
102
RTVSPropertyOp29
 70
     1
102
RTVSPropertyOp30
 70
     1
102
RTVSPropertyOp31
 70
     1
102
RTVSPropertyOp32
 70
     1
  0
XRECORD
  5
30F
102
{ACAD_REACTORS
330
30E
102
}
330
30E
100
AcDbXrecord
280
     1
102
RTVSPropertyOp0
 70
     1
102
RTVSPropertyOp1
 70
     1
102
RTVSPropertyOp2
 70
     1
102
RTVSPropertyOp3
 70
     1
102
RTVSPropertyOp4
 70
     1
102
RTVSPropertyOp5
 70
     1
102
RTVSPropertyOp6
 70
     1
102
RTVSPropertyOp7
 70
     1
102
RTVSPropertyOp8
 70
     1
102
RTVSPropertyOp9
 70
     1
102
RTVSPropertyOp10
 70
     1
102
RTVSPropertyOp11
 70
     1
102
RTVSPropertyOp12
 70
     1
102
RTVSPropertyOp13
 70
     1
102
RTVSPropertyOp14
 70
     1
102
RTVSPropertyOp15
 70
     1
102
RTVSPropertyOp16
 70
     1
102
RTVSPropertyOp17
 70
     1
102
RTVSPropertyOp18
 70
     1
102
RTVSPropertyOp19
 70
     1
102
RTVSPropertyOp20
 70
     1
102
RTVSPropertyOp21
 70
     1
102
RTVSPropertyOp22
 70
     1
102
RTVSPropertyOp23
 70
     1
102
RTVSPropertyOp24
 70
     1
102
RTVSPropertyOp25
 70
     1
102
RTVSPropertyOp26
 70
     1
102
RTVSPropertyOp27
 70
     1
102
RTVSPropertyOp28
 70
     1
102
RTVSPropertyOp29
 70
     1
102
RTVSPropertyOp30
 70
     1
102
RTVSPropertyOp31
 70
     1
102
RTVSPropertyOp32
 70
     1
  0
XRECORD
  5
2F3
102
{ACAD_REACTORS
330
2F2
102
}
330
2F2
100
AcDbXrecord
280
     1
102
RTVSPropertyOp0
 70
     1
102
RTVSPropertyOp1
 70
     1
102
RTVSPropertyOp2
 70
     1
102
RTVSPropertyOp3
 70
     1
102
RTVSPropertyOp4
 70
     1
102
RTVSPropertyOp5
 70
     1
102
RTVSPropertyOp6
 70
     1
102
RTVSPropertyOp7
 70
     1
102
RTVSPropertyOp8
 70
     1
102
RTVSPropertyOp9
 70
     1
102
RTVSPropertyOp10
 70
     1
102
RTVSPropertyOp11
 70
     1
102
RTVSPropertyOp12
 70
     1
102
RTVSPropertyOp13
 70
     1
102
RTVSPropertyOp14
 70
     1
102
RTVSPropertyOp15
 70
     1
102
RTVSPropertyOp16
 70
     1
102
RTVSPropertyOp17
 70
     1
102
RTVSPropertyOp18
 70
     1
102
RTVSPropertyOp19
 70
     1
102
RTVSPropertyOp20
 70
     1
102
RTVSPropertyOp21
 70
     1
102
RTVSPropertyOp22
 70
     1
102
RTVSPropertyOp23
 70
     1
102
RTVSPropertyOp24
 70
     1
102
RTVSPropertyOp25
 70
     1
102
RTVSPropertyOp26
 70
     1
102
RTVSPropertyOp27
 70
     1
102
RTVSPropertyOp28
 70
     1
102
RTVSPropertyOp29
 70
     1
102
RTVSPropertyOp30
 70
     1
102
RTVSPropertyOp31
 70
     1
102
RTVSPropertyOp32
 70
     1
  0
XRECORD
  5
2F5
102
{ACAD_REACTORS
330
2F4
102
}
330
2F4
100
AcDbXrecord
280
     1
102
RTVSPropertyOp0
 70
     1
102
RTVSPropertyOp1
 70
     1
102
RTVSPropertyOp2
 70
     1
102
RTVSPropertyOp3
 70
     1
102
RTVSPropertyOp4
 70
     1
102
RTVSPropertyOp5
 70
     1
102
RTVSPropertyOp6
 70
     1
102
RTVSPropertyOp7
 70
     1
102
RTVSPropertyOp8
 70
     1
102
RTVSPropertyOp9
 70
     1
102
RTVSPropertyOp10
 70
     1
102
RTVSPropertyOp11
 70
     1
102
RTVSPropertyOp12
 70
     1
102
RTVSPropertyOp13
 70
     1
102
RTVSPropertyOp14
 70
     1
102
RTVSPropertyOp15
 70
     1
102
RTVSPropertyOp16
 70
     1
102
RTVSPropertyOp17
 70
     1
102
RTVSPropertyOp18
 70
     1
102
RTVSPropertyOp19
 70
     1
102
RTVSPropertyOp20
 70
     1
102
RTVSPropertyOp21
 70
     1
102
RTVSPropertyOp22
 70
     1
102
RTVSPropertyOp23
 70
     1
102
RTVSPropertyOp24
 70
     1
102
RTVSPropertyOp25
 70
     1
102
RTVSPropertyOp26
 70
     1
102
RTVSPropertyOp27
 70
     1
102
RTVSPropertyOp28
 70
     1
102
RTVSPropertyOp29
 70
     1
102
RTVSPropertyOp30
 70
     1
102
RTVSPropertyOp31
 70
     1
102
RTVSPropertyOp32
 70
     1
  0
XRECORD
  5
2F7
102
{ACAD_REACTORS
330
2F6
102
}
330
2F6
100
AcDbXrecord
280
     1
102
RTVSPropertyOp0
 70
     1
102
RTVSPropertyOp1
 70
     1
102
RTVSPropertyOp2
 70
     1
102
RTVSPropertyOp3
 70
     1
102
RTVSPropertyOp4
 70
     1
102
RTVSPropertyOp5
 70
     1
102
RTVSPropertyOp6
 70
     1
102
RTVSPropertyOp7
 70
     1
102
RTVSPropertyOp8
 70
     1
102
RTVSPropertyOp9
 70
     1
102
RTVSPropertyOp10
 70
     1
102
RTVSPropertyOp11
 70
     1
102
RTVSPropertyOp12
 70
     1
102
RTVSPropertyOp13
 70
     1
102
RTVSPropertyOp14
 70
     1
102
RTVSPropertyOp15
 70
     1
102
RTVSPropertyOp16
 70
     1
102
RTVSPropertyOp17
 70
     1
102
RTVSPropertyOp18
 70
     1
102
RTVSPropertyOp19
 70
     1
102
RTVSPropertyOp20
 70
     1
102
RTVSPropertyOp21
 70
     1
102
RTVSPropertyOp22
 70
     1
102
RTVSPropertyOp23
 70
     1
102
RTVSPropertyOp24
 70
     1
102
RTVSPropertyOp25
 70
     1
102
RTVSPropertyOp26
 70
     1
102
RTVSPropertyOp27
 70
     1
102
RTVSPropertyOp28
 70
     1
102
RTVSPropertyOp29
 70
     1
102
RTVSPropertyOp30
 70
     1
102
RTVSPropertyOp31
 70
     1
102
RTVSPropertyOp32
 70
     1
  0
XRECORD
  5
2F9
102
{ACAD_REACTORS
330
2F8
102
}
330
2F8
100
AcDbXrecord
280
     1
102
RTVSPropertyOp0
 70
     1
102
RTVSPropertyOp1
 70
     1
102
RTVSPropertyOp2
 70
     1
102
RTVSPropertyOp3
 70
     1
102
RTVSPropertyOp4
 70
     1
102
RTVSPropertyOp5
 70
     1
102
RTVSPropertyOp6
 70
     1
102
RTVSPropertyOp7
 70
     1
102
RTVSPropertyOp8
 70
     1
102
RTVSPropertyOp9
 70
     1
102
RTVSPropertyOp10
 70
     1
102
RTVSPropertyOp11
 70
     1
102
RTVSPropertyOp12
 70
     1
102
RTVSPropertyOp13
 70
     1
102
RTVSPropertyOp14
 70
     1
102
RTVSPropertyOp15
 70
     1
102
RTVSPropertyOp16
 70
     1
102
RTVSPropertyOp17
 70
     1
102
RTVSPropertyOp18
 70
     1
102
RTVSPropertyOp19
 70
     1
102
RTVSPropertyOp20
 70
     1
102
RTVSPropertyOp21
 70
     1
102
RTVSPropertyOp22
 70
     1
102
RTVSPropertyOp23
 70
     1
102
RTVSPropertyOp24
 70
     1
102
RTVSPropertyOp25
 70
     1
102
RTVSPropertyOp26
 70
     1
102
RTVSPropertyOp27
 70
     1
102
RTVSPropertyOp28
 70
     1
102
RTVSPropertyOp29
 70
     1
102
RTVSPropertyOp30
 70
     1
102
RTVSPropertyOp31
 70
     1
102
RTVSPropertyOp32
 70
     1
  0
XRECORD
  5
30D
102
{ACAD_REACTORS
330
30C
102
}
330
30C
100
AcDbXrecord
280
     1
102
RTVSPropertyOp0
 70
     1
102
RTVSPropertyOp1
 70
     1
102
RTVSPropertyOp2
 70
     1
102
RTVSPropertyOp3
 70
     1
102
RTVSPropertyOp4
 70
     1
102
RTVSPropertyOp5
 70
     1
102
RTVSPropertyOp6
 70
     1
102
RTVSPropertyOp7
 70
     1
102
RTVSPropertyOp8
 70
     1
102
RTVSPropertyOp9
 70
     1
102
RTVSPropertyOp10
 70
     1
102
RTVSPropertyOp11
 70
     1
102
RTVSPropertyOp12
 70
     1
102
RTVSPropertyOp13
 70
     1
102
RTVSPropertyOp14
 70
     1
102
RTVSPropertyOp15
 70
     1
102
RTVSPropertyOp16
 70
     1
102
RTVSPropertyOp17
 70
     1
102
RTVSPropertyOp18
 70
     1
102
RTVSPropertyOp19
 70
     1
102
RTVSPropertyOp20
 70
     1
102
RTVSPropertyOp21
 70
     1
102
RTVSPropertyOp22
 70
     1
102
RTVSPropertyOp23
 70
     1
102
RTVSPropertyOp24
 70
     1
102
RTVSPropertyOp25
 70
     1
102
RTVSPropertyOp26
 70
     1
102
RTVSPropertyOp27
 70
     1
102
RTVSPropertyOp28
 70
     1
102
RTVSPropertyOp29
 70
     1
102
RTVSPropertyOp30
 70
     1
102
RTVSPropertyOp31
 70
     1
102
RTVSPropertyOp32
 70
     1
  0
XRECORD
  5
303
102
{ACAD_REACTORS
330
302
102
}
330
302
100
AcDbXrecord
280
     1
102
RTVSPropertyOp0
 70
     1
102
RTVSPropertyOp1
 70
     1
102
RTVSPropertyOp2
 70
     1
102
RTVSPropertyOp3
 70
     1
102
RTVSPropertyOp4
 70
     1
102
RTVSPropertyOp5
 70
     1
102
RTVSPropertyOp6
 70
     1
102
RTVSPropertyOp7
 70
     1
102
RTVSPropertyOp8
 70
     1
102
RTVSPropertyOp9
 70
     1
102
RTVSPropertyOp10
 70
     1
102
RTVSPropertyOp11
 70
     1
102
RTVSPropertyOp12
 70
     1
102
RTVSPropertyOp13
 70
     1
102
RTVSPropertyOp14
 70
     1
102
RTVSPropertyOp15
 70
     1
102
RTVSPropertyOp16
 70
     1
102
RTVSPropertyOp17
 70
     1
102
RTVSPropertyOp18
 70
     1
102
RTVSPropertyOp19
 70
     1
102
RTVSPropertyOp20
 70
     1
102
RTVSPropertyOp21
 70
     1
102
RTVSPropertyOp22
 70
     1
102
RTVSPropertyOp23
 70
     1
102
RTVSPropertyOp24
 70
     1
102
RTVSPropertyOp25
 70
     1
102
RTVSPropertyOp26
 70
     1
102
RTVSPropertyOp27
 70
     1
102
RTVSPropertyOp28
 70
     1
102
RTVSPropertyOp29
 70
     1
102
RTVSPropertyOp30
 70
     1
102
RTVSPropertyOp31
 70
     1
102
RTVSPropertyOp32
 70
     1
  0
XRECORD
  5
30B
102
{ACAD_REACTORS
330
30A
102
}
330
30A
100
AcDbXrecord
280
     1
102
RTVSPropertyOp0
 70
     1
102
RTVSPropertyOp1
 70
     1
102
RTVSPropertyOp2
 70
     1
102
RTVSPropertyOp3
 70
     1
102
RTVSPropertyOp4
 70
     1
102
RTVSPropertyOp5
 70
     1
102
RTVSPropertyOp6
 70
     1
102
RTVSPropertyOp7
 70
     1
102
RTVSPropertyOp8
 70
     1
102
RTVSPropertyOp9
 70
     1
102
RTVSPropertyOp10
 70
     1
102
RTVSPropertyOp11
 70
     1
102
RTVSPropertyOp12
 70
     1
102
RTVSPropertyOp13
 70
     1
102
RTVSPropertyOp14
 70
     1
102
RTVSPropertyOp15
 70
     1
102
RTVSPropertyOp16
 70
     1
102
RTVSPropertyOp17
 70
     1
102
RTVSPropertyOp18
 70
     1
102
RTVSPropertyOp19
 70
     1
102
RTVSPropertyOp20
 70
     1
102
RTVSPropertyOp21
 70
     1
102
RTVSPropertyOp22
 70
     1
102
RTVSPropertyOp23
 70
     1
102
RTVSPropertyOp24
 70
     1
102
RTVSPropertyOp25
 70
     1
102
RTVSPropertyOp26
 70
     1
102
RTVSPropertyOp27
 70
     1
102
RTVSPropertyOp28
 70
     1
102
RTVSPropertyOp29
 70
     1
102
RTVSPropertyOp30
 70
     1
102
RTVSPropertyOp31
 70
     1
102
RTVSPropertyOp32
 70
     1
  0
ENDSEC
  0
EOF
