  0
SECTION
  2
HEADER
  9
$ACADVER
  1
AC1015
  9
$ACADMAINTVER
 70
     6
  9
$DWGCODEPAGE
  3
ANSI_932
  9
$INSBASE
 10
0.0
 20
0.0
 30
0.0
  9
$EXTMIN
 10
0.0
 20
0.0
 30
0.0
  9
$EXTMAX
 10
420.0
 20
594.0
 30
0.0
  9
$LIMMIN
 10
0.0
 20
0.0
  9
$LIMMAX
 10
12.0
 20
9.0
  9
$ORTHOMODE
 70
     0
  9
$REGENMODE
 70
     1
  9
$FILLMODE
 70
     1
  9
$QTEXTMODE
 70
     0
  9
$MIRRTEXT
 70
     1
  9
$LTSCALE
 40
1.0
  9
$ATTMODE
 70
     1
  9
$TEXTSIZE
 40
0.2
  9
$TRACEWID
 40
0.05
  9
$TEXTSTYLE
  7
Standard
  9
$CLAYER
  8
0
  9
$CELTYPE
  6
ByLayer
  9
$CECOLOR
 62
   256
  9
$CELTSCALE
 40
1.0
  9
$DISPSILH
 70
     0
  9
$DIMSCALE
 40
1.0
  9
$DIMASZ
 40
0.18
  9
$DIMEXO
 40
0.0625
  9
$DIMDLI
 40
0.38
  9
$DIMRND
 40
0.0
  9
$DIMDLE
 40
0.0
  9
$DIMEXE
 40
0.18
  9
$DIMTP
 40
0.0
  9
$DIMTM
 40
0.0
  9
$DIMTXT
 40
0.18
  9
$DIMCEN
 40
0.09
  9
$DIMTSZ
 40
0.0
  9
$DIMTOL
 70
     0
  9
$DIMLIM
 70
     0
  9
$DIMTIH
 70
     1
  9
$DIMTOH
 70
     1
  9
$DIMSE1
 70
     0
  9
$DIMSE2
 70
     0
  9
$DIMTAD
 70
     0
  9
$DIMZIN
 70
     0
  9
$DIMBLK
  1

  9
$DIMASO
 70
     1
  9
$DIMSHO
 70
     1
  9
$DIMPOST
  1

  9
$DIMAPOST
  1

  9
$DIMALT
 70
     0
  9
$DIMALTD
 70
     2
  9
$DIMALTF
 40
25.4
  9
$DIMLFAC
 40
1.0
  9
$DIMTOFL
 70
     0
  9
$DIMTVP
 40
0.0
  9
$DIMTIX
 70
     0
  9
$DIMSOXD
 70
     0
  9
$DIMSAH
 70
     0
  9
$DIMBLK1
  1

  9
$DIMBLK2
  1

  9
$DIMSTYLE
  2
Standard
  9
$DIMCLRD
 70
     0
  9
$DIMCLRE
 70
     0
  9
$DIMCLRT
 70
     0
  9
$DIMTFAC
 40
1.0
  9
$DIMGAP
 40
0.09
  9
$DIMJUST
 70
     0
  9
$DIMSD1
 70
     0
  9
$DIMSD2
 70
     0
  9
$DIMTOLJ
 70
     1
  9
$DIMTZIN
 70
     0
  9
$DIMALTZ
 70
     0
  9
$DIMALTTZ
 70
     0
  9
$DIMUPT
 70
     0
  9
$DIMDEC
 70
     4
  9
$DIMTDEC
 70
     4
  9
$DIMALTU
 70
     2
  9
$DIMALTTD
 70
     2
  9
$DIMTXSTY
  7
Standard
  9
$DIMAUNIT
 70
     0
  9
$DIMADEC
 70
     0
  9
$DIMALTRND
 40
0.0
  9
$DIMAZIN
 70
     0
  9
$DIMDSEP
 70
    46
  9
$DIMATFIT
 70
     3
  9
$DIMFRAC
 70
     0
  9
$DIMLDRBLK
  1

  9
$DIMLUNIT
 70
     2
  9
$DIMLWD
 70
    -2
  9
$DIMLWE
 70
    -2
  9
$DIMTMOVE
 70
     0
  9
$LUNITS
 70
     2
  9
$LUPREC
 70
     4
  9
$SKETCHINC
 40
0.1
  9
$FILLETRAD
 40
0.5
  9
$AUNITS
 70
     0
  9
$AUPREC
 70
     0
  9
$MENU
  1
.
  9
$ELEVATION
 40
0.0
  9
$PELEVATION
 40
0.0
  9
$THICKNESS
 40
0.0
  9
$LIMCHECK
 70
     0
  9
$CHAMFERA
 40
0.5
  9
$CHAMFERB
 40
0.5
  9
$CHAMFERC
 40
1.0
  9
$CHAMFERD
 40
0.0
  9
$SKPOLY
 70
     0
  9
$TDCREATE
 40
2456548.600896968
  9
$TDUCREATE
 40
2456548.225896968
  9
$TDUPDATE
 40
2456548.600898044
  9
$TDUUPDATE
 40
2456548.225898044
  9
$TDINDWG
 40
0.0000000116
  9
$TDUSRTIMER
 40
0.0000000116
  9
$USRTIMER
 70
     1
  9
$ANGBASE
 50
0.0
  9
$ANGDIR
 70
     0
  9
$PDMODE
 70
     0
  9
$PDSIZE
 40
0.0
  9
$PLINEWID
 40
0.0
  9
$SPLFRAME
 70
     0
  9
$SPLINETYPE
 70
     6
  9
$SPLINESEGS
 70
     8
  9
$HANDSEED
  5
2A7
  9
$SURFTAB1
 70
     6
  9
$SURFTAB2
 70
     6
  9
$SURFTYPE
 70
     6
  9
$SURFU
 70
     6
  9
$SURFV
 70
     6
  9
$UCSBASE
  2

  9
$UCSNAME
  2

  9
$UCSORG
 10
0.0
 20
0.0
 30
0.0
  9
$UCSXDIR
 10
1.0
 20
0.0
 30
0.0
  9
$UCSYDIR
 10
0.0
 20
1.0
 30
0.0
  9
$UCSORTHOREF
  2

  9
$UCSORTHOVIEW
 70
     0
  9
$UCSORGTOP
 10
0.0
 20
0.0
 30
0.0
  9
$UCSORGBOTTOM
 10
0.0
 20
0.0
 30
0.0
  9
$UCSORGLEFT
 10
0.0
 20
0.0
 30
0.0
  9
$UCSORGRIGHT
 10
0.0
 20
0.0
 30
0.0
  9
$UCSORGFRONT
 10
0.0
 20
0.0
 30
0.0
  9
$UCSORGBACK
 10
0.0
 20
0.0
 30
0.0
  9
$PUCSBASE
  2

  9
$PUCSNAME
  2

  9
$PUCSORG
 10
0.0
 20
0.0
 30
0.0
  9
$PUCSXDIR
 10
1.0
 20
0.0
 30
0.0
  9
$PUCSYDIR
 10
0.0
 20
1.0
 30
0.0
  9
$PUCSORTHOREF
  2

  9
$PUCSORTHOVIEW
 70
     0
  9
$PUCSORGTOP
 10
0.0
 20
0.0
 30
0.0
  9
$PUCSORGBOTTOM
 10
0.0
 20
0.0
 30
0.0
  9
$PUCSORGLEFT
 10
0.0
 20
0.0
 30
0.0
  9
$PUCSORGRIGHT
 10
0.0
 20
0.0
 30
0.0
  9
$PUCSORGFRONT
 10
0.0
 20
0.0
 30
0.0
  9
$PUCSORGBACK
 10
0.0
 20
0.0
 30
0.0
  9
$USERI1
 70
     0
  9
$USERI2
 70
     0
  9
$USERI3
 70
     0
  9
$USERI4
 70
     0
  9
$USERI5
 70
     0
  9
$USERR1
 40
18.1
  9
$USERR2
 40
0.0
  9
$USERR3
 40
0.0
  9
$USERR4
 40
0.0
  9
$USERR5
 40
0.0
  9
$WORLDVIEW
 70
     1
  9
$SHADEDGE
 70
     3
  9
$SHADEDIF
 70
    70
  9
$TILEMODE
 70
     1
  9
$MAXACTVP
 70
    64
  9
$PINSBASE
 10
0.0
 20
0.0
 30
0.0
  9
$PLIMCHECK
 70
     0
  9
$PEXTMIN
 10
1.00000000000000E+20
 20
1.00000000000000E+20
 30
1.00000000000000E+20
  9
$PEXTMAX
 10
-1.00000000000000E+20
 20
-1.00000000000000E+20
 30
-1.00000000000000E+20
  9
$PLIMMIN
 10
0.0
 20
0.0
  9
$PLIMMAX
 10
12.0
 20
9.0
  9
$UNITMODE
 70
     0
  9
$VISRETAIN
 70
     1
  9
$PLINEGEN
 70
     0
  9
$PSLTSCALE
 70
     1
  9
$TREEDEPTH
 70
  3020
  9
$CMLSTYLE
  2
Standard
  9
$CMLJUST
 70
     0
  9
$CMLSCALE
 40
1.0
  9
$PROXYGRAPHICS
 70
     1
  9
$MEASUREMENT
 70
     1
  9
$CELWEIGHT
370
    -1
  9
$ENDCAPS
280
     0
  9
$JOINSTYLE
280
     0
  9
$LWDISPLAY
290
     0
  9
$INSUNITS
 70
     4
  9
$HYPERLINKBASE
  1

  9
$STYLESHEET
  1

  9
$XEDIT
290
     1
  9
$CEPSNTYPE
380
     0
  9
$PSTYLEMODE
290
     1
  9
$FINGERPRINTGUID
  2
{80CCC56D-E8B0-4086-9661-8423FE84EF18}
  9
$VERSIONGUID
  2
{FAEB1C32-E019-11D5-929B-00C0DF256EC4}
  9
$EXTNAMES
290
     1
  9
$PSVPSCALE
 40
0.0
  9
$OLESTARTUP
290
     0
  0
ENDSEC
  0
SECTION
  2
CLASSES
  0
CLASS
  1
ACDBDICTIONARYWDFLT
  2
AcDbDictionaryWithDefault
  3
ObjectDBX Classes
 90
        0
280
     0
281
     0
  0
CLASS
  1
VISUALSTYLE
  2
AcDbVisualStyle
  3
ObjectDBX Classes
 90
     4095
280
     0
281
     0
  0
CLASS
  1
MATERIAL
  2
AcDbMaterial
  3
ObjectDBX Classes
 90
     1153
280
     0
281
     0
  0
CLASS
  1
DICTIONARYVAR
  2
AcDbDictionaryVar
  3
ObjectDBX Classes
 90
        0
280
     0
281
     0
  0
CLASS
  1
ACDBPLACEHOLDER
  2
AcDbPlaceHolder
  3
ObjectDBX Classes
 90
        0
280
     0
281
     0
  0
CLASS
  1
LAYOUT
  2
AcDbLayout
  3
ObjectDBX Classes
 90
        0
280
     0
281
     0
  0
ENDSEC
  0
SECTION
  2
TABLES
  0
TABLE
  2
VPORT
  5
8
330
0
100
AcDbSymbolTable
 70
     1
  0
VPORT
  5
29
330
8
100
AcDbSymbolTableRecord
100
AcDbViewportTableRecord
  2
*Active
 70
     0
 10
0.0
 20
0.0
 11
1.0
 21
1.0
 12
210.0
 22
297.0
 13
0.0
 23
0.0
 14
0.5
 24
0.5
 15
0.5
 25
0.5
 16
0.0
 26
0.0
 36
1.0
 17
0.0
 27
0.0
 37
0.0
 40
653.4000000000001
 41
1.60267857142857
 42
50.0
 43
0.0
 44
0.0
 50
0.0
 51
0.0
 71
     0
 72
   100
 73
     1
 74
     3
 75
     0
 76
     0
 77
     0
 78
     0
281
     0
 65
     1
110
0.0
120
0.0
130
0.0
111
1.0
121
0.0
131
0.0
112
0.0
122
1.0
132
0.0
 79
     0
146
0.0
  0
ENDTAB
  0
TABLE
  2
LTYPE
  5
5
330
0
100
AcDbSymbolTable
 70
     8
  0
LTYPE
  5
14
330
5
100
AcDbSymbolTableRecord
100
AcDbLinetypeTableRecord
  2
ByBlock
 70
     0
  3

 72
    65
 73
     0
 40
0.0
  0
LTYPE
  5
15
330
5
100
AcDbSymbolTableRecord
100
AcDbLinetypeTableRecord
  2
ByLayer
 70
     0
  3

 72
    65
 73
     0
 40
0.0
  0
LTYPE
  5
16
330
5
100
AcDbSymbolTableRecord
100
AcDbLinetypeTableRecord
  2
Continuous
 70
     0
  3
Solid line
 72
    65
 73
     0
 40
0.0
  0
LTYPE
  5
3F
330
5
100
AcDbSymbolTableRecord
100
AcDbLinetypeTableRecord
  2
DASHED
 70
     0
  3
Dashed
 72
    65
 73
     2
 40
15.0
 49
7.0
 74
     0
 49
-8.0
 74
     0
  0
LTYPE
  5
40
330
5
100
AcDbSymbolTableRecord
100
AcDbLinetypeTableRecord
  2
DOTTED
 70
     0
  3
Dotted
 72
    65
 73
     2
 40
1.0
 49
0.0
 74
     0
 49
-1.0
 74
     0
  0
LTYPE
  5
41
330
5
100
AcDbSymbolTableRecord
100
AcDbLinetypeTableRecord
  2
DOT_CENTER
 70
     0
  3
Dot_Center
 72
    65
 73
     4
 40
14.0
 49
12.0
 74
     0
 49
-1.0
 74
     0
 49
0.0
 74
     0
 49
-1.0
 74
     0
  0
LTYPE
  5
42
330
5
100
AcDbSymbolTableRecord
100
AcDbLinetypeTableRecord
  2
LONG_DASHED
 70
     0
  3
Long_Dashed
 72
    65
 73
     2
 40
15.0
 49
10.0
 74
     0
 49
-5.0
 74
     0
  0
LTYPE
  5
43
330
5
100
AcDbSymbolTableRecord
100
AcDbLinetypeTableRecord
  2
DASH_CENTER
 70
     0
  3
Dash_Center
 72
    65
 73
     4
 40
14.0
 49
11.0
 74
     0
 49
-1.0
 74
     0
 49
1.0
 74
     0
 49
-1.0
 74
     0
  0
LTYPE
  5
44
330
5
100
AcDbSymbolTableRecord
100
AcDbLinetypeTableRecord
  2
PHANTOM
 70
     0
  3
Phantom
 72
    65
 73
     6
 40
13.0
 49
10.0
 74
     0
 49
-1.0
 74
     0
 49
0.0
 74
     0
 49
-1.0
 74
     0
 49
0.0
 74
     0
 49
-1.0
 74
     0
  0
LTYPE
  5
45
330
5
100
AcDbSymbolTableRecord
100
AcDbLinetypeTableRecord
  2
CENTER_DASH_DASH
 70
     0
  3
Center_Dash_Dash
 72
    65
 73
     6
 40
14.0
 49
9.0
 74
     0
 49
-1.0
 74
     0
 49
1.0
 74
     0
 49
-1.0
 74
     0
 49
1.0
 74
     0
 49
-1.0
 74
     0
  0
ENDTAB
  0
TABLE
  2
LAYER
  5
2
330
0
100
AcDbSymbolTable
 70
     2
  0
LAYER
  5
10
330
2
100
AcDbSymbolTableRecord
100
AcDbLayerTableRecord
  2
0
 70
     0
 62
     7
  6
Continuous
370
    -3
390
F
  0
LAYER
  5
46
330
2
100
AcDbSymbolTableRecord
100
AcDbLayerTableRecord
  2
1
 70
     0
 62
     7
  6
Continuous
370
    -3
390
F
  0
ENDTAB
  0
TABLE
  2
STYLE
  5
3
330
0
100
AcDbSymbolTable
 70
     3
  0
STYLE
  5
11
330
3
100
AcDbSymbolTableRecord
100
AcDbTextStyleTableRecord
  2
Standard
 70
     0
 40
0.0
 41
1.0
 50
0.0
 71
     0
 42
0.2
  3
txt
  4

  0
STYLE
  5
186
330
3
100
AcDbSymbolTableRecord
100
AcDbTextStyleTableRecord
  2
CONVERTER_11
 70
     0
 40
0.0
 41
0.89
 50
0.0
 71
     0
 42
0.2
  3
MS Mincho.ttf
  4

1001
ACAD
1000
MS Mincho
1071
    32785
  0
STYLE
  5
23C
330
3
100
AcDbSymbolTableRecord
100
AcDbTextStyleTableRecord
  2
CONVERTER_12
 70
     0
 40
0.0
 41
0.9
 50
0.0
 71
     0
 42
0.2
  3
txt.shx
  4

  0
ENDTAB
  0
TABLE
  2
VIEW
  5
6
330
0
100
AcDbSymbolTable
 70
     0
  0
ENDTAB
  0
TABLE
  2
UCS
  5
7
330
0
100
AcDbSymbolTable
 70
     0
  0
ENDTAB
  0
TABLE
  2
APPID
  5
9
330
0
100
AcDbSymbolTable
 70
     1
  0
APPID
  5
12
330
9
100
AcDbSymbolTableRecord
100
AcDbRegAppTableRecord
  2
ACAD
 70
     0
  0
ENDTAB
  0
TABLE
  2
DIMSTYLE
  5
A
330
0
100
AcDbSymbolTable
 70
     6
100
AcDbDimStyleTable
  0
DIMSTYLE
105
27
330
A
100
AcDbSymbolTableRecord
100
AcDbDimStyleTableRecord
  2
Standard
 70
     0
178
     0
340
11
  0
DIMSTYLE
105
24B
102
{ACAD_REACTORS
330
24C
102
}
330
A
100
AcDbSymbolTableRecord
100
AcDbDimStyleTableRecord
  2
ME10_DIM_10
 70
     0
  3
{\Fgdt;n}<>
 41
7.0
 42
0.0
 44
2.0
 73
     0
 74
     0
 77
     1
 78
     8
140
7.0
147
2.0
172
     1
173
     1
174
     1
175
     1
176
     2
177
     2
271
     2
178
     7
271
     2
340
23C
  0
DIMSTYLE
105
256
102
{ACAD_REACTORS
330
257
102
}
330
A
100
AcDbSymbolTableRecord
100
AcDbDimStyleTableRecord
  2
ME10_DIM_11
 70
     0
 41
7.0
 42
0.0
 44
2.0
 73
     0
 74
     0
 77
     1
 78
     8
140
7.0
147
2.0
172
     1
173
     1
174
     1
175
     1
176
     2
177
     2
271
     2
178
     7
271
     2
340
23C
  0
DIMSTYLE
105
261
102
{ACAD_REACTORS
330
262
102
}
330
A
100
AcDbSymbolTableRecord
100
AcDbDimStyleTableRecord
  2
ME10_DIM_12
 70
     0
 41
7.0
 42
0.0
 44
2.0
 73
     0
 74
     0
 77
     1
 78
     8
140
7.0
147
2.0
172
     1
173
     1
174
     1
175
     1
176
     2
177
     2
271
     2
178
     7
271
     2
340
23C
  0
DIMSTYLE
105
26C
102
{ACAD_REACTORS
330
26D
102
}
330
A
100
AcDbSymbolTableRecord
100
AcDbDimStyleTableRecord
  2
ME10_DIM_13
 70
     0
 41
7.0
 42
0.0
 44
2.0
 73
     0
 74
     0
 77
     1
 78
     8
140
7.0
147
2.0
172
     1
173
     1
174
     1
175
     1
176
     2
177
     2
271
     2
178
     7
271
     2
340
186
  0
DIMSTYLE
105
27A
102
{ACAD_REACTORS
330
27B
102
}
330
A
100
AcDbSymbolTableRecord
100
AcDbDimStyleTableRecord
  2
ME10_DIM_14
 70
     0
 41
7.0
 42
0.0
 44
2.0
 73
     0
 74
     0
 77
     1
 78
     8
140
7.0
147
2.0
172
     1
173
     1
174
     1
175
     1
176
     2
177
     2
271
     2
178
     7
271
     2
340
23C
343
277
  0
ENDTAB
  0
TABLE
  2
BLOCK_RECORD
  5
1
330
0
100
AcDbSymbolTable
 70
    17
  0
BLOCK_RECORD
  5
1F
330
1
100
AcDbSymbolTableRecord
100
AcDbBlockTableRecord
  2
*Model_Space
340
22
  0
BLOCK_RECORD
  5
1B
330
1
100
AcDbSymbolTableRecord
100
AcDbBlockTableRecord
  2
*Paper_Space
340
1E
  0
BLOCK_RECORD
  5
23
330
1
100
AcDbSymbolTableRecord
100
AcDbBlockTableRecord
  2
*Paper_Space0
340
26
  0
BLOCK_RECORD
  5
47
330
1
100
AcDbSymbolTableRecord
100
AcDbBlockTableRecord
  2
A231-0-13-M1
340
0
102
{BLKREFS
331
69
102
}
  0
BLOCK_RECORD
  5
4A
330
1
100
AcDbSymbolTableRecord
100
AcDbBlockTableRecord
  2
42-29
340
0
102
{BLKREFS
331
6A
102
}
  0
BLOCK_RECORD
  5
4D
330
1
100
AcDbSymbolTableRecord
100
AcDbBlockTableRecord
  2
開示A4
340
0
102
{BLKREFS
331
6B
102
}
  0
BLOCK_RECORD
  5
50
330
1
100
AcDbSymbolTableRecord
100
AcDbBlockTableRecord
  2
27-2A-M1
340
0
102
{BLKREFS
331
6C
102
}
  0
BLOCK_RECORD
  5
53
330
1
100
AcDbSymbolTableRecord
100
AcDbBlockTableRecord
  2
36-190-M11
340
0
102
{BLKREFS
331
5A
102
}
  0
BLOCK_RECORD
  5
56
330
1
100
AcDbSymbolTableRecord
100
AcDbBlockTableRecord
  2
37-119
340
0
102
{BLKREFS
331
5B
102
}
  0
BLOCK_RECORD
  5
59
330
1
100
AcDbSymbolTableRecord
100
AcDbBlockTableRecord
  2
U360S-13
340
0
102
{BLKREFS
331
6D
102
}
  0
BLOCK_RECORD
  5
5E
330
1
100
AcDbSymbolTableRecord
100
AcDbBlockTableRecord
  2
41-1-15
340
0
102
{BLKREFS
331
65
102
}
  0
BLOCK_RECORD
  5
61
330
1
100
AcDbSymbolTableRecord
100
AcDbBlockTableRecord
  2
91-1
340
0
102
{BLKREFS
331
66
102
}
  0
BLOCK_RECORD
  5
64
330
1
100
AcDbSymbolTableRecord
100
AcDbBlockTableRecord
  2
P82A-15
340
0
102
{BLKREFS
331
6E
102
}
  0
BLOCK_RECORD
  5
242
330
1
100
AcDbSymbolTableRecord
100
AcDbBlockTableRecord
  2
*D11
340
0
  0
BLOCK_RECORD
  5
24D
330
1
100
AcDbSymbolTableRecord
100
AcDbBlockTableRecord
  2
*D12
340
0
  0
BLOCK_RECORD
  5
258
330
1
100
AcDbSymbolTableRecord
100
AcDbBlockTableRecord
  2
*D13
340
0
  0
BLOCK_RECORD
  5
263
330
1
100
AcDbSymbolTableRecord
100
AcDbBlockTableRecord
  2
*D14
340
0
  0
BLOCK_RECORD
  5
26E
330
1
100
AcDbSymbolTableRecord
100
AcDbBlockTableRecord
  2
*D15
340
0
  0
BLOCK_RECORD
  5
277
330
1
100
AcDbSymbolTableRecord
100
AcDbBlockTableRecord
  2
_NONE
340
0
  0
ENDTAB
  0
ENDSEC
  0
SECTION
  2
BLOCKS
  0
BLOCK
  5
20
330
1F
100
AcDbEntity
  8
0
100
AcDbBlockBegin
  2
*Model_Space
 70
     0
 10
0.0
 20
0.0
 30
0.0
  3
*Model_Space
  1

  0
ENDBLK
  5
21
330
1F
100
AcDbEntity
  8
0
100
AcDbBlockEnd
  0
BLOCK
  5
1C
330
1B
100
AcDbEntity
 67
     1
  8
0
100
AcDbBlockBegin
  2
*Paper_Space
 70
     0
 10
0.0
 20
0.0
 30
0.0
  3
*Paper_Space
  1

  0
ENDBLK
  5
1D
330
1B
100
AcDbEntity
 67
     1
  8
0
100
AcDbBlockEnd
  0
BLOCK
  5
24
330
23
100
AcDbEntity
  8
0
100
AcDbBlockBegin
  2
*Paper_Space0
 70
     0
 10
0.0
 20
0.0
 30
0.0
  3
*Paper_Space0
  1

  0
ENDBLK
  5
25
330
23
100
AcDbEntity
  8
0
100
AcDbBlockEnd
  0
BLOCK
  5
48
330
47
100
AcDbEntity
  8
0
100
AcDbBlockBegin
  2
A231-0-13-M1
 70
     0
 10
135.2572704266855
 20
204.9659284573584
 30
0.0
  3
A231-0-13-M1
  1

  0
LINE
  5
6F
330
47
100
AcDbEntity
  8
1
  6
Continuous
 62
     7
100
AcDbLine
 10
104.2527263044977
 20
421.106393730873
 30
0.0
 11
104.2527263044977
 21
405.5088739485866
 31
0.0
  0
LINE
  5
70
330
47
100
AcDbEntity
  8
1
  6
Continuous
 62
     7
100
AcDbLine
 10
103.2572704266855
 20
407.3076338397302
 30
0.0
 11
103.2572704266855
 21
405.3199871274622
 31
0.0
  0
LINE
  5
71
330
47
100
AcDbEntity
  8
1
  6
Continuous
 62
     7
100
AcDbLine
 10
103.2572704266855
 20
419.3076338397302
 30
0.0
 11
103.2572704266855
 21
407.3076338397302
 31
0.0
  0
LINE
  5
72
330
47
100
AcDbEntity
  8
1
  6
Continuous
 62
     7
100
AcDbLine
 10
103.2572704266855
 20
421.2952805519974
 30
0.0
 11
103.2572704266855
 21
419.3076338397302
 31
0.0
  0
LINE
  5
73
330
47
100
AcDbEntity
  8
1
  6
Continuous
 62
     7
100
AcDbLine
 10
115.2572704266855
 20
252.9659284573585
 30
0.0
 11
115.2572704266855
 21
251.4659284573585
 31
0.0
  0
LINE
  5
74
330
47
100
AcDbEntity
  8
1
  6
Continuous
 62
     7
100
AcDbLine
 10
115.9481716340509
 20
241.4675443156387
 30
0.0
 11
104.1636983897632
 21
229.8459988507605
 31
0.0
  0
LINE
  5
75
330
47
100
AcDbEntity
  8
1
  6
Continuous
 62
     7
100
AcDbLine
 10
115.2572704266855
 20
246.9395944183688
 30
0.0
 11
115.2572704266855
 21
246.7032414670613
 31
0.0
  0
LINE
  5
76
330
47
100
AcDbEntity
  8
1
  6
Continuous
 62
     7
100
AcDbLine
 10
89.2572704266855
 20
246.9395944183689
 30
0.0
 11
89.2572704266855
 21
227.9659284573585
 31
0.0
  0
LINE
  5
77
330
47
100
AcDbEntity
  8
1
  6
Continuous
 62
     7
100
AcDbLine
 10
121.4262655184052
 20
240.6761458895518
 30
0.0
 11
120.8324109389936
 21
240.7183025019825
 31
0.0
  0
LINE
  5
78
330
47
100
AcDbEntity
  8
1
  6
Continuous
 62
     7
100
AcDbLine
 10
124.2572704266855
 20
239.9659284573585
 30
0.0
 11
124.2572704266855
 21
215.9659284573584
 31
0.0
  0
LINE
  5
79
330
47
100
AcDbEntity
  8
1
  6
Continuous
 62
     7
100
AcDbLine
 10
121.4262655184052
 20
215.2557110251651
 30
0.0
 11
124.2572704266855
 21
215.4566787045355
 31
0.0
  0
LINE
  5
7A
330
47
100
AcDbEntity
  8
1
  6
Continuous
 62
     7
100
AcDbLine
 10
115.2572704266855
 20
248.7159284573585
 30
0.0
 11
115.2572704266855
 21
246.9395944183688
 31
0.0
  0
LINE
  5
7B
330
47
100
AcDbEntity
  8
1
  6
Continuous
 62
     7
100
AcDbLine
 10
103.2572704266855
 20
213.9659284573585
 30
0.0
 11
121.4262655184052
 21
215.2557110251651
 31
0.0
  0
LINE
  5
7C
330
47
100
AcDbEntity
  8
1
  6
Continuous
 62
     7
100
AcDbLine
 10
124.2572704266855
 20
215.4566787045355
 30
0.0
 11
124.2572704266855
 21
215.9659284573584
 31
0.0
  0
LINE
  5
7D
330
47
100
AcDbEntity
  8
1
  6
Continuous
 62
     7
100
AcDbLine
 10
124.2572704266855
 20
215.9659284573584
 30
0.0
 11
124.5252196191166
 21
215.9659284573584
 31
0.0
  0
LINE
  5
7E
330
47
100
AcDbEntity
  8
1
  6
Continuous
 62
     7
100
AcDbLine
 10
124.5252196191166
 20
215.9659284573584
 30
0.0
 11
126.2572704266855
 21
215.9659284573584
 31
0.0
  0
LINE
  5
7F
330
47
100
AcDbEntity
  8
1
  6
Continuous
 62
     7
100
AcDbLine
 10
126.2572704266855
 20
215.9659284573584
 30
0.0
 11
127.7572704266855
 21
215.9659284573584
 31
0.0
  0
LINE
  5
80
330
47
100
AcDbEntity
  8
1
  6
Continuous
 62
     2
100
AcDbLine
 10
126.2572704266855
 20
216.9659284573584
 30
0.0
 11
127.7572704266855
 21
216.9659284573585
 31
0.0
  0
LINE
  5
81
330
47
100
AcDbEntity
  8
1
  6
Continuous
 62
     2
100
AcDbLine
 10
124.5252196191166
 20
215.9659284573584
 30
0.0
 11
126.2572704266855
 21
216.9659284573584
 31
0.0
  0
LINE
  5
82
330
47
100
AcDbEntity
  8
1
  6
Continuous
 62
     7
100
AcDbLine
 10
126.2572704266855
 20
215.9659284573584
 30
0.0
 11
126.2572704266855
 21
239.9659284573585
 31
0.0
  0
LINE
  5
83
330
47
100
AcDbEntity
  8
1
  6
Continuous
 62
     2
100
AcDbLine
 10
126.2572704266855
 20
238.9659284573585
 30
0.0
 11
124.5252196191166
 21
239.9659284573585
 31
0.0
  0
LINE
  5
84
330
47
100
AcDbEntity
  8
1
  6
Continuous
 62
     2
100
AcDbLine
 10
126.2572704266855
 20
238.9659284573585
 30
0.0
 11
127.7572704266855
 21
238.9659284573585
 31
0.0
  0
LINE
  5
85
330
47
100
AcDbEntity
  8
1
  6
Continuous
 62
     7
100
AcDbLine
 10
127.7572704266855
 20
239.9659284573585
 30
0.0
 11
126.2572704266855
 21
239.9659284573585
 31
0.0
  0
LINE
  5
86
330
47
100
AcDbEntity
  8
1
  6
Continuous
 62
     7
100
AcDbLine
 10
126.2572704266855
 20
239.9659284573585
 30
0.0
 11
124.5252196191166
 21
239.9659284573585
 31
0.0
  0
LINE
  5
87
330
47
100
AcDbEntity
  8
1
  6
Continuous
 62
     7
100
AcDbLine
 10
124.5252196191166
 20
239.9659284573585
 30
0.0
 11
124.2572704266855
 21
239.9659284573585
 31
0.0
  0
LINE
  5
88
330
47
100
AcDbEntity
  8
1
  6
Continuous
 62
     7
100
AcDbLine
 10
124.2572704266855
 20
239.9659284573585
 30
0.0
 11
124.2572704266855
 21
240.4751782101814
 31
0.0
  0
LINE
  5
89
330
47
100
AcDbEntity
  8
1
  6
Continuous
 62
     7
100
AcDbLine
 10
124.2572704266855
 20
240.4751782101814
 30
0.0
 11
121.4262655184052
 21
240.6761458895518
 31
0.0
  0
LINE
  5
8A
330
47
100
AcDbEntity
  8
1
  6
Continuous
 62
     7
100
AcDbLine
 10
115.2572704266855
 20
251.4659284573585
 30
0.0
 11
89.2572704266855
 21
251.4659284573585
 31
0.0
  0
LINE
  5
8B
330
47
100
AcDbEntity
  8
1
  6
Continuous
 62
     7
100
AcDbLine
 10
115.2572704266855
 20
251.4659284573585
 30
0.0
 11
115.2572704266855
 21
249.7338776497896
 31
0.0
  0
LINE
  5
8C
330
47
100
AcDbEntity
  8
1
  6
Continuous
 62
     7
100
AcDbLine
 10
89.2572704266855
 20
251.4659284573585
 30
0.0
 11
89.2572704266855
 21
252.9659284573585
 31
0.0
  0
LINE
  5
8D
330
47
100
AcDbEntity
  8
1
  6
Continuous
 62
     7
100
AcDbLine
 10
89.2572704266855
 20
249.7338776497896
 30
0.0
 11
89.2572704266855
 21
251.4659284573585
 31
0.0
  0
LINE
  5
8E
330
47
100
AcDbEntity
  8
1
  6
Continuous
 62
     7
100
AcDbLine
 10
89.2572704266855
 20
249.7338776497896
 30
0.0
 11
89.2572704266855
 21
246.9395944183689
 31
0.0
  0
LINE
  5
8F
330
47
100
AcDbEntity
  8
1
  6
Continuous
 62
     2
100
AcDbLine
 10
90.2572704266855
 20
251.4659284573585
 30
0.0
 11
90.2572704266855
 21
252.9659284573585
 31
0.0
  0
LINE
  5
90
330
47
100
AcDbEntity
  8
1
  6
Continuous
 62
     2
100
AcDbLine
 10
90.2572704266855
 20
251.4659284573585
 30
0.0
 11
89.2572704266855
 21
249.7338776497896
 31
0.0
  0
LINE
  5
91
330
47
100
AcDbEntity
  8
1
  6
Continuous
 62
     7
100
AcDbLine
 10
115.2572704266855
 20
249.7338776497896
 30
0.0
 11
115.2572704266855
 21
248.7159284573585
 31
0.0
  0
LINE
  5
92
330
47
100
AcDbEntity
  8
1
  6
Continuous
 62
     2
100
AcDbLine
 10
115.2572704266855
 20
249.7338776497896
 30
0.0
 11
114.2572704266855
 21
251.4659284573585
 31
0.0
  0
LINE
  5
93
330
47
100
AcDbEntity
  8
1
  6
Continuous
 62
     2
100
AcDbLine
 10
114.2572704266855
 20
251.4659284573585
 30
0.0
 11
114.2572704266855
 21
252.9659284573585
 31
0.0
  0
LINE
  5
94
330
47
100
AcDbEntity
  8
1
  6
Continuous
 62
     7
100
AcDbLine
 10
110.2572704266855
 20
399.8045505887892
 30
0.0
 11
121.4262655184052
 21
400.5974164075369
 31
0.0
  0
LINE
  5
95
330
47
100
AcDbEntity
  8
1
  6
Continuous
 62
     7
100
AcDbLine
 10
127.7572704266855
 20
425.3076338397302
 30
0.0
 11
126.2572704266855
 21
425.3076338397302
 31
0.0
  0
LINE
  5
96
330
47
100
AcDbEntity
  8
1
  6
Continuous
 62
     7
100
AcDbLine
 10
121.4262655184052
 20
400.5974164075369
 30
0.0
 11
124.2572704266855
 21
400.7983840869072
 31
0.0
  0
LINE
  5
97
330
47
100
AcDbEntity
  8
1
  6
Continuous
 62
     7
100
AcDbLine
 10
124.2572704266855
 20
425.816883592553
 30
0.0
 11
122.1575514513022
 21
425.9659386678652
 31
0.0
  0
LINE
  5
98
330
47
100
AcDbEntity
  8
1
  6
Continuous
 62
     7
100
AcDbLine
 10
124.2572704266855
 20
425.3076338397302
 30
0.0
 11
124.2572704266855
 21
401.3076338397302
 31
0.0
  0
LINE
  5
99
330
47
100
AcDbEntity
  8
1
  6
Continuous
 62
     7
100
AcDbLine
 10
124.2572704266855
 20
400.7983840869072
 30
0.0
 11
124.2572704266855
 21
401.3076338397302
 31
0.0
  0
LINE
  5
9A
330
47
100
AcDbEntity
  8
1
  6
Continuous
 62
     7
100
AcDbLine
 10
124.2572704266855
 20
401.3076338397302
 30
0.0
 11
124.5252196191167
 21
401.3076338397302
 31
0.0
  0
LINE
  5
9B
330
47
100
AcDbEntity
  8
1
  6
Continuous
 62
     7
100
AcDbLine
 10
124.5252196191167
 20
401.3076338397302
 30
0.0
 11
126.2572704266855
 21
401.3076338397302
 31
0.0
  0
LINE
  5
9C
330
47
100
AcDbEntity
  8
1
  6
Continuous
 62
     7
100
AcDbLine
 10
126.2572704266855
 20
401.3076338397302
 30
0.0
 11
127.7572704266855
 21
401.3076338397302
 31
0.0
  0
LINE
  5
9D
330
47
100
AcDbEntity
  8
1
  6
Continuous
 62
     2
100
AcDbLine
 10
126.2572704266855
 20
402.3076338397302
 30
0.0
 11
127.7572704266855
 21
402.3076338397302
 31
0.0
  0
LINE
  5
9E
330
47
100
AcDbEntity
  8
1
  6
Continuous
 62
     2
100
AcDbLine
 10
124.5252196191167
 20
401.3076338397302
 30
0.0
 11
126.2572704266855
 21
402.3076338397302
 31
0.0
  0
LINE
  5
9F
330
47
100
AcDbEntity
  8
1
  6
Continuous
 62
     7
100
AcDbLine
 10
126.2572704266855
 20
401.3076338397302
 30
0.0
 11
126.2572704266855
 21
425.3076338397302
 31
0.0
  0
LINE
  5
A0
330
47
100
AcDbEntity
  8
1
  6
Continuous
 62
     2
100
AcDbLine
 10
126.2572704266855
 20
424.3076338397302
 30
0.0
 11
124.5252196191167
 21
425.3076338397302
 31
0.0
  0
LINE
  5
A1
330
47
100
AcDbEntity
  8
1
  6
Continuous
 62
     2
100
AcDbLine
 10
126.2572704266855
 20
424.3076338397302
 30
0.0
 11
127.7572704266855
 21
424.3076338397302
 31
0.0
  0
LINE
  5
A2
330
47
100
AcDbEntity
  8
1
  6
Continuous
 62
     7
100
AcDbLine
 10
126.2572704266855
 20
425.3076338397302
 30
0.0
 11
124.5252196191167
 21
425.3076338397302
 31
0.0
  0
LINE
  5
A3
330
47
100
AcDbEntity
  8
1
  6
Continuous
 62
     7
100
AcDbLine
 10
124.5252196191167
 20
425.3076338397302
 30
0.0
 11
124.2572704266855
 21
425.3076338397302
 31
0.0
  0
LINE
  5
A4
330
47
100
AcDbEntity
  8
1
  6
Continuous
 62
     7
100
AcDbLine
 10
124.2572704266855
 20
425.3076338397302
 30
0.0
 11
124.2572704266855
 21
425.816883592553
 31
0.0
  0
LINE
  5
A5
330
47
100
AcDbEntity
  8
1
  6
Continuous
 62
     7
100
AcDbLine
 10
92.757270426686
 20
472.3076338397295
 30
0.0
 11
111.757270426686
 21
472.3076338397295
 31
0.0
  0
LINE
  5
A6
330
47
100
AcDbEntity
  8
1
  6
Continuous
 62
     7
100
AcDbLine
 10
92.757270426686
 20
472.3076338397295
 30
0.0
 11
91.757270426686
 21
471.3076338397295
 31
0.0
  0
LINE
  5
A7
330
47
100
AcDbEntity
  8
1
  6
Continuous
 62
     7
100
AcDbLine
 10
91.757270426686
 20
458.3076338397295
 30
0.0
 11
91.757270426686
 21
471.3076338397295
 31
0.0
  0
LINE
  5
A8
330
47
100
AcDbEntity
  8
1
  6
Continuous
 62
     7
100
AcDbLine
 10
91.757270426686
 20
471.3076338397295
 30
0.0
 11
112.757270426686
 21
471.3076338397295
 31
0.0
  0
LINE
  5
A9
330
47
100
AcDbEntity
  8
1
  6
Continuous
 62
     7
100
AcDbLine
 10
112.757270426686
 20
460.0396846472986
 30
0.0
 11
91.757270426686
 21
460.0396846472986
 31
0.0
  0
LINE
  5
AA
330
47
100
AcDbEntity
  8
1
  6
Continuous
 62
     7
100
AcDbLine
 10
112.757270426686
 20
471.3076338397295
 30
0.0
 11
111.757270426686
 21
472.3076338397295
 31
0.0
  0
LINE
  5
AB
330
47
100
AcDbEntity
  8
1
  6
Continuous
 62
     7
100
AcDbLine
 10
112.757270426686
 20
471.3076338397295
 30
0.0
 11
112.757270426686
 21
458.3076338397295
 31
0.0
  0
LINE
  5
AC
330
47
100
AcDbEntity
  8
1
  6
Continuous
 62
     7
100
AcDbLine
 10
111.007270426686
 20
437.9358165980227
 30
0.0
 11
111.007270426686
 21
451.8076338397295
 31
0.0
  0
LINE
  5
AD
330
47
100
AcDbEntity
  8
1
  6
Continuous
 62
     2
100
AcDbLine
 10
111.757270426686
 20
472.3076338397295
 30
0.0
 11
111.757270426686
 21
460.0396846472986
 31
0.0
  0
LINE
  5
AE
330
47
100
AcDbEntity
  8
1
  6
Continuous
 62
     2
100
AcDbLine
 10
111.757270426686
 20
460.0396846472986
 30
0.0
 11
112.757270426686
 21
458.3076338397295
 31
0.0
  0
LINE
  5
AF
330
47
100
AcDbEntity
  8
1
  6
Continuous
 62
     7
100
AcDbLine
 10
125.257270426686
 20
456.3076338397295
 30
0.0
 11
125.257270426686
 21
458.3076338397295
 31
0.0
  0
LINE
  5
B0
330
47
100
AcDbEntity
  8
1
  6
Continuous
 62
     7
100
AcDbLine
 10
93.507270426686
 20
432.1739397844569
 30
0.0
 11
93.507270426686
 21
451.8076338397295
 31
0.0
  0
LINE
  5
B1
330
47
100
AcDbEntity
  8
1
  6
Continuous
 62
     7
100
AcDbLine
 10
124.757270426686
 20
455.8076338397295
 30
0.0
 11
79.757270426686
 21
455.8076338397295
 31
0.0
  0
LINE
  5
B2
330
47
100
AcDbEntity
  8
1
  6
Continuous
 62
     7
100
AcDbLine
 10
79.257270426686
 20
458.3076338397295
 30
0.0
 11
79.257270426686
 21
456.3076338397295
 31
0.0
  0
LINE
  5
B3
330
47
100
AcDbEntity
  8
1
  6
Continuous
 62
     7
100
AcDbLine
 10
79.257270426686
 20
458.3076338397295
 30
0.0
 11
125.257270426686
 21
458.3076338397295
 31
0.0
  0
LINE
  5
B4
330
47
100
AcDbEntity
  8
1
  6
Continuous
 62
     2
100
AcDbLine
 10
91.757270426686
 20
458.3076338397295
 30
0.0
 11
92.757270426686
 21
460.0396846472986
 31
0.0
  0
LINE
  5
B5
330
47
100
AcDbEntity
  8
1
  6
Continuous
 62
     2
100
AcDbLine
 10
92.757270426686
 20
460.0396846472986
 30
0.0
 11
92.757270426686
 21
472.3076338397295
 31
0.0
  0
LINE
  5
B6
330
47
100
AcDbEntity
  8
1
  6
Continuous
 62
     7
100
AcDbLine
 10
333.397592505994
 20
237.4659284573588
 30
0.0
 11
333.397592505994
 21
218.4659284573587
 31
0.0
  0
LINE
  5
B7
330
47
100
AcDbEntity
  8
1
  6
Continuous
 62
     7
100
AcDbLine
 10
322.129643313563
 20
218.4659284573587
 30
0.0
 11
322.129643313563
 21
237.4659284573588
 31
0.0
  0
LINE
  5
B8
330
47
100
AcDbEntity
  8
1
  6
Continuous
 62
     7
100
AcDbLine
 10
320.397592505994
 20
238.4659284573588
 30
0.0
 11
320.397592505994
 21
217.4659284573587
 31
0.0
  0
LINE
  5
B9
330
47
100
AcDbEntity
  8
1
  6
Continuous
 62
     7
100
AcDbLine
 10
317.897592505994
 20
240.7159284573588
 30
0.0
 11
317.897592505994
 21
215.2159284573587
 31
0.0
  0
LINE
  5
BA
330
47
100
AcDbEntity
  8
1
  6
Continuous
 62
     2
100
AcDbLine
 10
322.129643313563
 20
218.4659284573587
 30
0.0
 11
320.397592505994
 21
217.4659284573587
 31
0.0
  0
LINE
  5
BB
330
47
100
AcDbEntity
  8
1
  6
Continuous
 62
     7
100
AcDbLine
 10
320.397592505994
 20
217.4659284573587
 30
0.0
 11
320.397592505994
 21
204.9659284573588
 31
0.0
  0
LINE
  5
BC
330
47
100
AcDbEntity
  8
1
  6
Continuous
 62
     7
100
AcDbLine
 10
318.397592505994
 20
204.9659284573588
 30
0.0
 11
320.397592505994
 21
204.9659284573588
 31
0.0
  0
LINE
  5
BD
330
47
100
AcDbEntity
  8
1
  6
Continuous
 62
     7
100
AcDbLine
 10
317.897592505994
 20
205.4659284573588
 30
0.0
 11
317.897592505994
 21
215.2159284573587
 31
0.0
  0
LINE
  5
BE
330
47
100
AcDbEntity
  8
1
  6
Continuous
 62
     2
100
AcDbLine
 10
334.397592505994
 20
218.4659284573587
 30
0.0
 11
322.129643313563
 21
218.4659284573587
 31
0.0
  0
LINE
  5
BF
330
47
100
AcDbEntity
  8
1
  6
Continuous
 62
     7
100
AcDbLine
 10
320.397592505994
 20
250.9659284573587
 30
0.0
 11
318.397592505994
 21
250.9659284573587
 31
0.0
  0
LINE
  5
C0
330
47
100
AcDbEntity
  8
1
  6
Continuous
 62
     7
100
AcDbLine
 10
320.397592505994
 20
250.9659284573587
 30
0.0
 11
320.397592505994
 21
238.4659284573588
 31
0.0
  0
LINE
  5
C1
330
47
100
AcDbEntity
  8
1
  6
Continuous
 62
     2
100
AcDbLine
 10
320.397592505994
 20
238.4659284573588
 30
0.0
 11
322.129643313563
 21
237.4659284573588
 31
0.0
  0
LINE
  5
C2
330
47
100
AcDbEntity
  8
1
  6
Continuous
 62
     2
100
AcDbLine
 10
322.129643313563
 20
237.4659284573588
 30
0.0
 11
334.397592505994
 21
237.4659284573588
 31
0.0
  0
LINE
  5
C3
330
47
100
AcDbEntity
  8
1
  6
Continuous
 62
     7
100
AcDbLine
 10
313.897592505994
 20
236.7159284573588
 30
0.0
 11
300.397592505994
 21
236.7159284573588
 31
0.0
  0
LINE
  5
C4
330
47
100
AcDbEntity
  8
1
  6
Continuous
 62
     7
100
AcDbLine
 10
317.897592505994
 20
240.7159284573588
 30
0.0
 11
317.897592505994
 21
250.4659284573587
 31
0.0
  0
LINE
  5
C5
330
47
100
AcDbEntity
  8
1
  6
Continuous
 62
     2
100
AcDbLine
 10
288.397592505994
 20
249.7338776497899
 30
0.0
 11
287.397592505994
 21
251.4659284573587
 31
0.0
  0
LINE
  5
C6
330
47
100
AcDbEntity
  8
1
  6
Continuous
 62
     2
100
AcDbLine
 10
263.397592505994
 20
251.4659284573587
 30
0.0
 11
262.397592505994
 21
249.7338776497899
 31
0.0
  0
LINE
  5
C7
330
47
100
AcDbEntity
  8
1
  6
Continuous
 62
     2
100
AcDbLine
 10
263.397592505994
 20
251.4659284573587
 30
0.0
 11
263.397592505994
 21
257.2159284573588
 31
0.0
  0
LINE
  5
C8
330
47
100
AcDbEntity
  8
1
  6
Continuous
 62
     7
100
AcDbLine
 10
288.397592505994
 20
249.7338776497899
 30
0.0
 11
288.397592505994
 21
248.7159284573587
 31
0.0
  0
LINE
  5
C9
330
47
100
AcDbEntity
  8
1
  6
Continuous
 62
     7
100
AcDbLine
 10
262.397592505994
 20
256.2159284573588
 30
0.0
 11
262.397592505994
 21
237.2933075104476
 31
0.0
  0
LINE
  5
CA
330
47
100
AcDbEntity
  8
1
  6
Continuous
 62
     7
100
AcDbLine
 10
288.397592505994
 20
251.4659284573587
 30
0.0
 11
282.0111733771012
 21
251.4659284573587
 31
0.0
  0
LINE
  5
CB
330
47
100
AcDbEntity
  8
1
  6
Continuous
 62
     7
100
AcDbLine
 10
288.397592505994
 20
249.7338776497899
 30
0.0
 11
288.397592505994
 21
256.2159284573588
 31
0.0
  0
LINE
  5
CC
330
47
100
AcDbEntity
  8
1
  6
Continuous
 62
     7
100
AcDbLine
 10
334.397592505994
 20
237.4659284573588
 30
0.0
 11
334.397592505994
 21
218.4659284573587
 31
0.0
  0
LINE
  5
CD
330
47
100
AcDbEntity
  8
1
  6
Continuous
 62
     7
100
AcDbLine
 10
333.397592505994
 20
217.4659284573587
 30
0.0
 11
334.397592505994
 21
218.4659284573587
 31
0.0
  0
LINE
  5
CE
330
47
100
AcDbEntity
  8
1
  6
Continuous
 62
     7
100
AcDbLine
 10
333.397592505994
 20
218.4659284573587
 30
0.0
 11
333.397592505994
 21
217.4659284573587
 31
0.0
  0
LINE
  5
CF
330
47
100
AcDbEntity
  8
1
  6
Continuous
 62
     7
100
AcDbLine
 10
333.397592505994
 20
238.4659284573588
 30
0.0
 11
333.397592505994
 21
237.4659284573588
 31
0.0
  0
LINE
  5
D0
330
47
100
AcDbEntity
  8
1
  6
Continuous
 62
     7
100
AcDbLine
 10
322.129643313563
 20
237.4659284573588
 30
0.0
 11
322.129643313563
 21
238.4659284573588
 31
0.0
  0
LINE
  5
D1
330
47
100
AcDbEntity
  8
1
  6
Continuous
 62
     7
100
AcDbLine
 10
334.397592505994
 20
237.4659284573588
 30
0.0
 11
333.397592505994
 21
238.4659284573588
 31
0.0
  0
LINE
  5
D2
330
47
100
AcDbEntity
  8
1
  6
Continuous
 62
     7
100
AcDbLine
 10
320.397592505994
 20
238.4659284573588
 30
0.0
 11
333.397592505994
 21
238.4659284573588
 31
0.0
  0
LINE
  5
D3
330
47
100
AcDbEntity
  8
1
  6
Continuous
 62
     7
100
AcDbLine
 10
333.397592505994
 20
217.4659284573587
 30
0.0
 11
320.397592505994
 21
217.4659284573587
 31
0.0
  0
LINE
  5
D4
330
47
100
AcDbEntity
  8
1
  6
Continuous
 62
     7
100
AcDbLine
 10
322.129643313563
 20
217.4659284573587
 30
0.0
 11
322.129643313563
 21
218.4659284573587
 31
0.0
  0
LINE
  5
D5
330
47
100
AcDbEntity
  8
1
  6
Continuous
 62
     7
100
AcDbLine
 10
282.0111733771012
 20
251.4659284573587
 30
0.0
 11
279.7725925059934
 21
251.4659284573587
 31
0.0
  0
LINE
  5
D6
330
47
100
AcDbEntity
  8
1
  6
Continuous
 62
     7
100
AcDbLine
 10
313.897592505994
 20
219.2159284573587
 30
0.0
 11
301.7096375628213
 21
219.2159284573587
 31
0.0
  0
LINE
  5
D7
330
47
100
AcDbEntity
  8
1
  6
Continuous
 62
     7
100
AcDbLine
 10
271.0225925059934
 20
251.4659284573587
 30
0.0
 11
262.397592505994
 21
251.4659284573587
 31
0.0
  0
LINE
  5
D8
330
47
100
AcDbEntity
  8
1
  6
Continuous
 62
     7
100
AcDbLine
 10
293.7278952858179
 20
218.9659284573583
 30
0.0
 11
301.7096375628213
 21
219.2159284573587
 31
0.0
  0
LINE
  5
D9
330
47
100
AcDbEntity
  8
1
  6
Continuous
 62
     7
100
AcDbLine
 10
262.0417796773608
 20
232.6865551892375
 30
0.0
 11
261.5910408168065
 21
230.0522794543586
 31
0.0
  0
LINE
  5
DA
330
47
100
AcDbEntity
  8
1
  6
Continuous
 62
     2
100
AcDbLine
 10
287.3975925059947
 20
257.2159284573588
 30
0.0
 11
287.397592505994
 21
251.4659284573587
 31
0.0
  0
LINE
  5
DB
330
47
100
AcDbEntity
  8
1
  6
Continuous
 62
     7
100
AcDbLine
 10
262.397592505994
 20
256.2159284573588
 30
0.0
 11
271.1650925059948
 21
256.2159284573586
 31
0.0
  0
LINE
  5
DC
330
47
100
AcDbEntity
  8
1
  6
Continuous
 62
     7
100
AcDbLine
 10
279.6300925059947
 20
256.2159284573587
 30
0.0
 11
288.397592505994
 21
256.2159284573588
 31
0.0
  0
LINE
  5
DD
330
47
100
AcDbEntity
  8
1
  6
Continuous
 62
     7
100
AcDbLine
 10
262.397592505994
 20
256.2159284573588
 30
0.0
 11
263.6475925059947
 21
257.4659284573588
 31
0.0
  0
LINE
  5
DE
330
47
100
AcDbEntity
  8
1
  6
Continuous
 62
     7
100
AcDbLine
 10
263.6475925059947
 20
257.4659284573588
 30
0.0
 11
271.2025925059949
 21
257.4659284573588
 31
0.0
  0
LINE
  5
DF
330
47
100
AcDbEntity
  8
1
  6
Continuous
 62
     7
100
AcDbLine
 10
263.6475925059947
 20
258.9659284573588
 30
0.0
 11
263.6475925059947
 21
257.4659284573588
 31
0.0
  0
LINE
  5
E0
330
47
100
AcDbEntity
  8
1
  6
Continuous
 62
     7
100
AcDbLine
 10
263.6475925059947
 20
258.9659284573588
 30
0.0
 11
271.2475925059948
 21
258.9659284573584
 31
0.0
  0
LINE
  5
E1
330
47
100
AcDbEntity
  8
1
  6
Continuous
 62
     7
100
AcDbLine
 10
279.5475925059947
 20
258.9659284573584
 30
0.0
 11
287.1475925059947
 21
258.9659284573588
 31
0.0
  0
LINE
  5
E2
330
47
100
AcDbEntity
  8
1
  6
Continuous
 62
     7
100
AcDbLine
 10
287.1475925059947
 20
258.9659284573588
 30
0.0
 11
287.1475925059947
 21
257.4659284573588
 31
0.0
  0
LINE
  5
E3
330
47
100
AcDbEntity
  8
1
  6
Continuous
 62
     7
100
AcDbLine
 10
287.1475925059947
 20
257.4659284573588
 30
0.0
 11
288.397592505994
 21
256.2159284573588
 31
0.0
  0
LINE
  5
E4
330
47
100
AcDbEntity
  8
1
  6
Continuous
 62
     7
100
AcDbLine
 10
287.1475925059947
 20
257.4659284573588
 30
0.0
 11
279.5925925059947
 21
257.4659284573588
 31
0.0
  0
LINE
  5
E5
330
47
100
AcDbEntity
  8
1
  6
Continuous
 62
     7
100
AcDbLine
 10
114.0072704266869
 20
257.4659284573588
 30
0.0
 11
98.06227042668706
 21
257.4659284573588
 31
0.0
  0
LINE
  5
E6
330
47
100
AcDbEntity
  8
1
  6
Continuous
 62
     7
100
AcDbLine
 10
114.0072704266869
 20
257.4659284573588
 30
0.0
 11
115.2572704266862
 21
256.2159284573588
 31
0.0
  0
LINE
  5
E7
330
47
100
AcDbEntity
  8
1
  6
Continuous
 62
     7
100
AcDbLine
 10
114.0072704266869
 20
258.9659284573588
 30
0.0
 11
114.0072704266869
 21
257.4659284573588
 31
0.0
  0
LINE
  5
E8
330
47
100
AcDbEntity
  8
1
  6
Continuous
 62
     7
100
AcDbLine
 10
90.50727042668689
 20
258.9659284573588
 30
0.0
 11
90.50727042668689
 21
257.4659284573588
 31
0.0
  0
LINE
  5
E9
330
47
100
AcDbEntity
  8
1
  6
Continuous
 62
     7
100
AcDbLine
 10
90.50727042668689
 20
257.4659284573588
 30
0.0
 11
98.06227042668706
 21
257.4659284573588
 31
0.0
  0
LINE
  5
EA
330
47
100
AcDbEntity
  8
1
  6
Continuous
 62
     7
100
AcDbLine
 10
89.2572704266862
 20
256.2159284573588
 30
0.0
 11
90.50727042668689
 21
257.4659284573588
 31
0.0
  0
LINE
  5
EB
330
47
100
AcDbEntity
  8
1
  6
Continuous
 62
     2
100
AcDbLine
 10
114.2572704266869
 20
257.2159284573588
 30
0.0
 11
114.2572704266855
 21
251.4659284573585
 31
0.0
  0
LINE
  5
EC
330
47
100
AcDbEntity
  8
1
  6
Continuous
 62
     7
100
AcDbLine
 10
97.88227042668558
 20
251.4659284573587
 30
0.0
 11
89.2572704266855
 21
251.4659284573585
 31
0.0
  0
LINE
  5
ED
330
47
100
AcDbEntity
  8
1
  6
Continuous
 62
     7
100
AcDbLine
 10
108.8708512977934
 20
251.4659284573587
 30
0.0
 11
106.6322704266856
 21
251.4659284573587
 31
0.0
  0
LINE
  5
EE
330
47
100
AcDbEntity
  8
1
  6
Continuous
 62
     7
100
AcDbLine
 10
115.2572704266855
 20
249.7338776497896
 30
0.0
 11
115.2572704266862
 21
256.2159284573588
 31
0.0
  0
LINE
  5
EF
330
47
100
AcDbEntity
  8
1
  6
Continuous
 62
     7
100
AcDbLine
 10
115.2572704266855
 20
251.4659284573585
 30
0.0
 11
108.8708512977934
 21
251.4659284573587
 31
0.0
  0
LINE
  5
F0
330
47
100
AcDbEntity
  8
1
  6
Continuous
 62
     7
100
AcDbLine
 10
115.2572704266855
 20
249.7338776497896
 30
0.0
 11
115.2572704266855
 21
248.7159284573585
 31
0.0
  0
LINE
  5
F1
330
47
100
AcDbEntity
  8
1
  6
Continuous
 62
     2
100
AcDbLine
 10
90.2572704266855
 20
251.4659284573585
 30
0.0
 11
90.2572704266862
 21
257.2159284573588
 31
0.0
  0
LINE
  5
F2
330
47
100
AcDbEntity
  8
1
  6
Continuous
 62
     2
100
AcDbLine
 10
90.2572704266855
 20
251.4659284573585
 30
0.0
 11
89.2572704266855
 21
249.7338776497896
 31
0.0
  0
LINE
  5
F3
330
47
100
AcDbEntity
  8
1
  6
Continuous
 62
     2
100
AcDbLine
 10
115.2572704266855
 20
249.7338776497896
 30
0.0
 11
114.2572704266855
 21
251.4659284573585
 31
0.0
  0
LINE
  5
F4
330
47
100
AcDbEntity
  8
1
  6
Continuous
 62
     7
100
AcDbLine
 10
89.2572704266862
 20
256.2159284573588
 30
0.0
 11
89.2572704266862
 21
237.2933075104476
 31
0.0
  0
LINE
  5
F5
330
47
100
AcDbEntity
  8
1
  6
Continuous
 62
     7
100
AcDbLine
 10
89.2572704266862
 20
256.2159284573588
 30
0.0
 11
89.2572704266862
 21
237.2933075104476
 31
0.0
  0
LINE
  5
F6
330
47
100
AcDbEntity
  8
1
  6
Continuous
 62
     7
100
AcDbLine
 10
90.50727042668689
 20
258.9659284573588
 30
0.0
 11
114.0072704266869
 21
258.9659284573588
 31
0.0
  0
LINE
  5
F7
330
47
100
AcDbEntity
  8
1
  6
Continuous
 62
     7
100
AcDbLine
 10
89.2572704266862
 20
256.2159284573588
 30
0.0
 11
115.2572704266862
 21
256.2159284573588
 31
0.0
  0
ARC
  5
F8
330
47
100
AcDbEntity
  8
1
  6
Continuous
 62
     7
100
AcDbCircle
 10
102.2572704266855
 20
227.9659284573585
 30
0.0
 40
23.0000000000001
100
AcDbArc
 50
33.54681501581417
 51
55.58261128955849
  0
ARC
  5
F9
330
47
100
AcDbEntity
  8
1
  6
Continuous
 62
     7
100
AcDbCircle
 10
103.2572704266855
 20
227.9659284573585
 30
0.0
 40
14.0
100
AcDbArc
 50
180.0
 51
270.0
  0
ARC
  5
FA
330
47
100
AcDbEntity
  8
1
  6
Continuous
 62
     7
100
AcDbCircle
 10
102.2572704266855
 20
227.9659284573585
 30
0.0
 40
23.0000000000001
100
AcDbArc
 50
124.4173887104414
 51
326.4531849841857
  0
ARC
  5
FB
330
47
100
AcDbEntity
  8
1
  6
Continuous
 62
     7
100
AcDbCircle
 10
232.397592505994
 20
237.2933075104476
 30
0.0
 40
30.00000000000005
100
AcDbArc
 50
351.1668016303223
 51
0.0
  0
ARC
  5
FC
330
47
100
AcDbEntity
  8
1
  6
Continuous
 62
     7
100
AcDbCircle
 10
300.397592505994
 20
248.7159284573587
 30
0.0
 40
12.0
100
AcDbArc
 50
180.0
 51
270.0
  0
ARC
  5
FD
330
47
100
AcDbEntity
  8
1
  6
Continuous
 62
     7
100
AcDbCircle
 10
102.2572704266855
 20
413.3076338397298
 30
0.0
 40
8.049999999999969
100
AcDbArc
 50
284.3522576254784
 51
75.64774237452146
  0
ARC
  5
FE
330
47
100
AcDbEntity
  8
1
  6
Continuous
 62
     7
100
AcDbCircle
 10
102.2572704266855
 20
413.3076338397298
 30
0.0
 40
8.049999999999914
100
AcDbArc
 50
75.64774237452146
 51
83.13488903318932
  0
ARC
  5
FF
330
47
100
AcDbEntity
  8
1
  6
Continuous
 62
     7
100
AcDbCircle
 10
102.2572704266855
 20
413.3076338397298
 30
0.0
 40
8.049999999999955
100
AcDbArc
 50
83.13488903318932
 51
284.3522576254784
  0
CIRCLE
  5
100
330
47
100
AcDbEntity
  8
1
  6
Continuous
 62
     2
100
AcDbCircle
 10
102.2572704266855
 20
413.3076338397298
 30
0.0
 40
12.18699999999897
  0
CIRCLE
  5
101
330
47
100
AcDbEntity
  8
1
  6
Continuous
 62
     7
100
AcDbCircle
 10
102.2572704266855
 20
413.3076338397298
 30
0.0
 40
11.74999999999999
  0
CIRCLE
  5
102
330
47
100
AcDbEntity
  8
1
  6
Continuous
 62
     7
100
AcDbCircle
 10
102.2572704266855
 20
413.3076338397298
 30
0.0
 40
10.49999999999999
  0
CIRCLE
  5
103
330
47
100
AcDbEntity
  8
1
  6
Continuous
 62
     7
100
AcDbCircle
 10
102.2572704266855
 20
413.3076338397298
 30
0.0
 40
13.0
  0
SPLINE
  5
104
330
47
100
AcDbEntity
  8
1
  6
Continuous
 62
     7
100
AcDbSpline
210
0.0
220
0.0
230
1.0
 70
     8
 71
     3
 72
    15
 73
    11
 74
     9
 42
0.000000001
 43
0.0000000001
 44
0.00000001
 40
0.0
 40
0.0
 40
0.0
 40
0.0
 40
5.874710625758024
 40
11.72670508565128
 40
13.84395271773374
 40
15.98588571426769
 40
18.73945284702524
 40
21.452329234225
 40
30.97550289690785
 40
40.73115751016385
 40
40.73115751016385
 40
40.73115751016385
 40
40.73115751016385
 10
92.47108964702852
 20
424.3574715173099
 30
0.0
 10
91.58476888910458
 20
422.6150623294527
 30
0.0
 10
89.81555458546298
 20
419.1369814470544
 30
0.0
 10
88.59247362965219
 20
414.5572420017145
 30
0.0
 10
88.8911502123506
 20
411.1791467002908
 30
0.0
 10
89.45725558370263
 20
408.9045329280291
 30
0.0
 10
90.43197897007839
 20
406.5496230035546
 30
0.0
 10
93.24841307824575
 20
402.3608417348713
 30
0.0
 10
100.5807744073338
 20
399.0960551119969
 30
0.0
 10
107.005944980487
 20
399.5664944358781
 30
0.0
 10
110.2572704266855
 20
399.8045505887892
 30
0.0
 11
92.47108964702852
 21
424.3574715173099
 31
0.0
 11
89.99613501341128
 21
419.0295427869843
 31
0.0
 11
88.76910723014271
 21
413.3076338397303
 31
0.0
 11
88.94429360659376
 21
411.1976463343627
 31
0.0
 11
89.45229030199842
 21
409.1168252649301
 31
0.0
 11
90.52010933206805
 21
406.578736519464
 31
0.0
 11
92.05633885063976
 21
404.3427362590871
 31
0.0
 11
100.5026084854277
 21
399.9437175117616
 31
0.0
 11
110.2572704266855
 21
399.8045505887892
 31
0.0
  0
ARC
  5
105
330
47
100
AcDbEntity
  8
1
  6
Continuous
 62
     7
100
AcDbCircle
 10
121.2572704266855
 20
246.7032414670613
 30
0.0
 40
6.0
100
AcDbArc
 50
180.0
 51
265.9394926513527
  0
ARC
  5
106
330
47
100
AcDbEntity
  8
1
  6
Continuous
 62
     7
100
AcDbCircle
 10
123.007270426686
 20
437.9358165980227
 30
0.0
 40
12.0
100
AcDbArc
 50
180.0
 51
265.9394926513525
  0
ARC
  5
107
330
47
100
AcDbEntity
  8
1
  6
Continuous
 62
     7
100
AcDbCircle
 10
63.50727042668599
 20
432.1739397844569
 30
0.0
 40
29.99999999999999
100
AcDbArc
 50
344.8973630808142
 51
0.0
  0
ARC
  5
108
330
47
100
AcDbEntity
  8
1
  6
Continuous
 62
     7
100
AcDbCircle
 10
79.757270426686
 20
456.3076338397295
 30
0.0
 40
0.5
100
AcDbArc
 50
180.0
 51
270.0
  0
ARC
  5
109
330
47
100
AcDbEntity
  8
1
  6
Continuous
 62
     7
100
AcDbCircle
 10
124.757270426686
 20
456.3076338397295
 30
0.0
 40
0.5
100
AcDbArc
 50
270.0
 51
0.0
  0
ARC
  5
10A
330
47
100
AcDbEntity
  8
1
  6
Continuous
 62
     7
100
AcDbCircle
 10
115.007270426686
 20
451.8076338397295
 30
0.0
 40
4.0
100
AcDbArc
 50
90.0
 51
180.0
  0
ARC
  5
10B
330
47
100
AcDbEntity
  8
1
  6
Continuous
 62
     7
100
AcDbCircle
 10
89.507270426686
 20
451.8076338397295
 30
0.0
 40
4.0
100
AcDbArc
 50
0.0
 51
90.0
  0
ARC
  5
10C
330
47
100
AcDbEntity
  8
1
  6
Continuous
 62
     7
100
AcDbCircle
 10
313.897592505994
 20
215.2159284573587
 30
0.0
 40
4.0
100
AcDbArc
 50
0.0
 51
90.0
  0
ARC
  5
10D
330
47
100
AcDbEntity
  8
1
  6
Continuous
 62
     7
100
AcDbCircle
 10
318.397592505994
 20
205.4659284573588
 30
0.0
 40
0.5
100
AcDbArc
 50
180.0
 51
270.0
  0
ARC
  5
10E
330
47
100
AcDbEntity
  8
1
  6
Continuous
 62
     7
100
AcDbCircle
 10
313.897592505994
 20
240.7159284573588
 30
0.0
 40
4.0
100
AcDbArc
 50
270.0
 51
0.0
  0
ARC
  5
10F
330
47
100
AcDbEntity
  8
1
  6
Continuous
 62
     7
100
AcDbCircle
 10
318.397592505994
 20
250.4659284573587
 30
0.0
 40
0.5
100
AcDbArc
 50
90.0
 51
180.0
  0
ARC
  5
110
330
47
100
AcDbEntity
  8
1
  6
Continuous
 62
     7
100
AcDbCircle
 10
293.7278952858179
 20
188.9659284573583
 30
0.0
 40
30.0
100
AcDbArc
 50
90.0
 51
108.2293149942997
  0
ENDBLK
  5
49
330
47
100
AcDbEntity
  8
0
100
AcDbBlockEnd
  0
BLOCK
  5
4B
330
4A
100
AcDbEntity
  8
0
100
AcDbBlockBegin
  2
42-29
 70
     0
 10
325.2237530811045
 20
501.9970761096863
 30
0.0
  3
42-29
  1

  0
LINE
  5
111
330
4A
100
AcDbEntity
  8
1
  6
Continuous
 62
     2
100
AcDbLine
 10
173.1527263044976
 20
408.3076338397301
 30
0.0
 11
174.8362236615437
 21
408.3076338397301
 31
0.0
  0
LINE
  5
112
330
4A
100
AcDbEntity
  8
1
  6
Continuous
 62
     7
100
AcDbLine
 10
175.0603014824438
 20
406.3076338397301
 30
0.0
 11
173.0527263044976
 21
406.3076338397301
 31
0.0
  0
LINE
  5
113
330
4A
100
AcDbEntity
  8
1
  6
Continuous
 62
     2
100
AcDbLine
 10
173.0527263044976
 20
407.3076338397301
 30
0.0
 11
175.0362236615437
 21
407.3076338397301
 31
0.0
  0
LINE
  5
114
330
4A
100
AcDbEntity
  8
1
  6
Continuous
 62
     2
100
AcDbLine
 10
173.2639009568724
 20
409.3076338397301
 30
0.0
 11
174.7503172194665
 21
409.3076338318149
 31
0.0
  0
LINE
  5
115
330
4A
100
AcDbEntity
  8
1
  6
Continuous
 62
     7
100
AcDbLine
 10
175.0362236615437
 20
406.3076338397301
 30
0.0
 11
175.0362236615437
 21
409.3076338397302
 31
0.0
  0
LINE
  5
116
330
4A
100
AcDbEntity
  8
1
  6
Continuous
 62
     2
100
AcDbLine
 10
174.7503172194665
 20
417.3076338476454
 30
0.0
 11
173.2639009568724
 21
417.3076338397301
 31
0.0
  0
LINE
  5
117
330
4A
100
AcDbEntity
  8
1
  6
Continuous
 62
     7
100
AcDbLine
 10
173.0527263044976
 20
420.3076338397301
 30
0.0
 11
173.0527263044975
 21
417.3076338397301
 31
0.0
  0
LINE
  5
118
330
4A
100
AcDbEntity
  8
1
  6
Continuous
 62
     2
100
AcDbLine
 10
175.0362236615437
 20
419.3076338397301
 30
0.0
 11
173.0527263044976
 21
419.3076338397301
 31
0.0
  0
LINE
  5
119
330
4A
100
AcDbEntity
  8
1
  6
Continuous
 62
     7
100
AcDbLine
 10
173.0527263044976
 20
420.3076338397301
 30
0.0
 11
175.0603014824438
 21
420.3076338397301
 31
0.0
  0
LINE
  5
11A
330
4A
100
AcDbEntity
  8
1
  6
Continuous
 62
     2
100
AcDbLine
 10
174.8362236615437
 20
418.3076338397301
 30
0.0
 11
173.1527263044976
 21
418.3076338397301
 31
0.0
  0
LINE
  5
11B
330
4A
100
AcDbEntity
  8
1
  6
Continuous
 62
     7
100
AcDbLine
 10
173.0527263044976
 20
409.3076338397302
 30
0.0
 11
173.0527263044976
 21
406.3076338397301
 31
0.0
  0
LINE
  5
11C
330
4A
100
AcDbEntity
  8
1
  6
Continuous
 62
     7
100
AcDbLine
 10
175.0362236615437
 20
417.3076338397301
 30
0.0
 11
175.0362236615437
 21
420.3076338397301
 31
0.0
  0
LINE
  5
11D
330
4A
100
AcDbEntity
  8
1
  6
Continuous
 62
     2
100
AcDbLine
 10
174.5592888656836
 20
230.9659284573585
 30
0.0
 11
173.3848229294006
 21
230.9659284573585
 31
0.0
  0
LINE
  5
11E
330
4A
100
AcDbEntity
  8
1
  6
Continuous
 62
     2
100
AcDbLine
 10
173.6011629390273
 20
229.9659284573585
 30
0.0
 11
174.3616717050217
 21
229.9659284573585
 31
0.0
  0
LINE
  5
11F
330
4A
100
AcDbEntity
  8
1
  6
Continuous
 62
     2
100
AcDbLine
 10
173.7457792918424
 20
228.9659284573585
 30
0.0
 11
174.1741272649731
 21
228.9659284573585
 31
0.0
  0
LINE
  5
120
330
4A
100
AcDbEntity
  8
1
  6
Continuous
 62
     2
100
AcDbLine
 10
173.8741272649732
 20
227.9659284573585
 30
0.0
 11
173.4457792918424
 21
227.9659284573585
 31
0.0
  0
LINE
  5
121
330
4A
100
AcDbEntity
  8
1
  6
Continuous
 62
     2
100
AcDbLine
 10
174.3616717050217
 20
225.9659284573585
 30
0.0
 11
173.6011629390273
 21
225.9659284573585
 31
0.0
  0
LINE
  5
122
330
4A
100
AcDbEntity
  8
1
  6
Continuous
 62
     2
100
AcDbLine
 10
174.1741272649731
 20
226.9659284573585
 30
0.0
 11
173.7457792918424
 21
226.9659284573585
 31
0.0
  0
LINE
  5
123
330
4A
100
AcDbEntity
  8
1
  6
Continuous
 62
     7
100
AcDbLine
 10
175.0362236615437
 20
223.9659284573586
 30
0.0
 11
175.0362236615437
 21
227.9659284573585
 31
0.0
  0
LINE
  5
124
330
4A
100
AcDbEntity
  8
1
  6
Continuous
 62
     7
100
AcDbLine
 10
173.0527263044975
 20
231.9659284573585
 30
0.0
 11
173.0527263044976
 21
227.9659284573585
 31
0.0
  0
LINE
  5
125
330
4A
100
AcDbEntity
  8
1
  6
Continuous
 62
     7
100
AcDbLine
 10
175.0362236615437
 20
227.9659284573585
 30
0.0
 11
175.0362236615437
 21
231.9659284573585
 31
0.0
  0
LINE
  5
126
330
4A
100
AcDbEntity
  8
1
  6
Continuous
 62
     7
100
AcDbLine
 10
173.0527263044976
 20
227.9659284573585
 30
0.0
 11
173.0527263044976
 21
223.9659284573586
 31
0.0
  0
LINE
  5
127
330
4A
100
AcDbEntity
  8
1
  6
Continuous
 62
     2
100
AcDbLine
 10
173.3848229294006
 20
224.9659284573585
 30
0.0
 11
174.5592888656836
 21
224.9659284573585
 31
0.0
  0
LINE
  5
128
330
4A
100
AcDbEntity
  8
1
  6
Continuous
 62
     7
100
AcDbLine
 10
175.0362236615437
 20
231.9659284573585
 30
0.0
 11
175.0362236615437
 21
234.9659284573585
 31
0.0
  0
LINE
  5
129
330
4A
100
AcDbEntity
  8
1
  6
Continuous
 62
     7
100
AcDbLine
 10
173.0527263044976
 20
223.9659284573586
 30
0.0
 11
173.0527263044976
 21
220.9659284573585
 31
0.0
  0
LINE
  5
12A
330
4A
100
AcDbEntity
  8
1
  6
Continuous
 62
     2
100
AcDbLine
 10
174.8362236615437
 20
232.9659284573585
 30
0.0
 11
173.1527263044976
 21
232.9659284573585
 31
0.0
  0
LINE
  5
12B
330
4A
100
AcDbEntity
  8
1
  6
Continuous
 62
     7
100
AcDbLine
 10
173.0527263044976
 20
234.9659284573585
 30
0.0
 11
175.0603014824438
 21
234.9659284573585
 31
0.0
  0
LINE
  5
12C
330
4A
100
AcDbEntity
  8
1
  6
Continuous
 62
     2
100
AcDbLine
 10
175.0362236615437
 20
233.9659284573585
 30
0.0
 11
173.0527263044976
 21
233.9659284573585
 31
0.0
  0
LINE
  5
12D
330
4A
100
AcDbEntity
  8
1
  6
Continuous
 62
     7
100
AcDbLine
 10
173.0527263044976
 20
234.9659284573585
 30
0.0
 11
173.0527263044975
 21
231.9659284573585
 31
0.0
  0
LINE
  5
12E
330
4A
100
AcDbEntity
  8
1
  6
Continuous
 62
     2
100
AcDbLine
 10
174.7503172194665
 20
231.9659284652738
 30
0.0
 11
173.2639009568724
 21
231.9659284573585
 31
0.0
  0
LINE
  5
12F
330
4A
100
AcDbEntity
  8
1
  6
Continuous
 62
     7
100
AcDbLine
 10
175.0362236615437
 20
220.9659284573585
 30
0.0
 11
175.0362236615437
 21
223.9659284573586
 31
0.0
  0
LINE
  5
130
330
4A
100
AcDbEntity
  8
1
  6
Continuous
 62
     2
100
AcDbLine
 10
173.2639009568724
 20
223.9659284573585
 30
0.0
 11
174.7503172194665
 21
223.9659284494433
 31
0.0
  0
LINE
  5
131
330
4A
100
AcDbEntity
  8
1
  6
Continuous
 62
     2
100
AcDbLine
 10
173.0527263044976
 20
221.9659284573585
 30
0.0
 11
175.0362236615437
 21
221.9659284573585
 31
0.0
  0
LINE
  5
132
330
4A
100
AcDbEntity
  8
1
  6
Continuous
 62
     7
100
AcDbLine
 10
175.0603014824438
 20
220.9659284573585
 30
0.0
 11
173.0527263044976
 21
220.9659284573585
 31
0.0
  0
LINE
  5
133
330
4A
100
AcDbEntity
  8
1
  6
Continuous
 62
     2
100
AcDbLine
 10
173.1527263044976
 20
222.9659284573585
 30
0.0
 11
174.8362236615437
 21
222.9659284573585
 31
0.0
  0
ARC
  5
134
330
4A
100
AcDbEntity
  8
0
  6
Continuous
 62
     7
100
AcDbCircle
 10
125.5527263044963
 20
413.3076338397301
 30
0.0
 40
50.00000000000124
100
AcDbArc
 50
4.58856573578572
 51
8.04784624731132
  0
ARC
  5
135
330
4A
100
AcDbEntity
  8
0
  6
Continuous
 62
     7
100
AcDbCircle
 10
125.5527263044963
 20
413.3076338397301
 30
0.0
 40
50.00000000000124
100
AcDbArc
 50
351.9521537526887
 51
355.4114342642144
  0
ARC
  5
136
330
4A
100
AcDbEntity
  8
0
  6
Continuous
 62
     7
100
AcDbCircle
 10
125.5527263044963
 20
227.9659284573585
 30
0.0
 40
50.00000000000131
100
AcDbArc
 50
0.0
 51
4.58856573578572
  0
ARC
  5
137
330
4A
100
AcDbEntity
  8
0
  6
Continuous
 62
     7
100
AcDbCircle
 10
125.5527263044963
 20
227.9659284573585
 30
0.0
 40
50.00000000000134
100
AcDbArc
 50
355.4114342642144
 51
0.0
  0
ARC
  5
138
330
4A
100
AcDbEntity
  8
0
  6
Continuous
 62
     7
100
AcDbCircle
 10
125.5527263044963
 20
227.9659284573585
 30
0.0
 40
50.00000000000124
100
AcDbArc
 50
351.9521537526887
 51
355.4114342642144
  0
ARC
  5
139
330
4A
100
AcDbEntity
  8
0
  6
Continuous
 62
     7
100
AcDbCircle
 10
125.5527263044963
 20
227.9659284573585
 30
0.0
 40
50.00000000000124
100
AcDbArc
 50
4.58856573578572
 51
8.04784624731132
  0
CIRCLE
  5
13A
330
4A
100
AcDbEntity
  8
1
  6
Continuous
 62
     7
100
AcDbCircle
 10
275.3975925059947
 20
227.9659284573584
 30
0.0
 40
7.000000000000114
  0
ENDBLK
  5
4C
330
4A
100
AcDbEntity
  8
0
100
AcDbBlockEnd
  0
BLOCK
  5
4E
330
4D
100
AcDbEntity
  8
0
100
AcDbBlockBegin
  2
開示A4
 70
     0
 10
0.0
 20
0.0
 30
0.0
  3
開示A4
  1

  0
POINT
  5
13B
330
4D
100
AcDbEntity
  8
1
 62
     4
100
AcDbPoint
 10
93.75
 20
17.0
 30
0.0
  0
POINT
  5
13C
330
4D
100
AcDbEntity
  8
1
 62
     4
100
AcDbPoint
 10
85.25
 20
17.0
 30
0.0
  0
POINT
  5
13D
330
4D
100
AcDbEntity
  8
1
 62
     4
100
AcDbPoint
 10
106.5
 20
19.00000000000001
 30
0.0
  0
POINT
  5
13E
330
4D
100
AcDbEntity
  8
1
 62
     4
100
AcDbPoint
 10
106.5
 20
12.5
 30
0.0
  0
POINT
  5
13F
330
4D
100
AcDbEntity
  8
1
 62
     4
100
AcDbPoint
 10
112.25
 20
12.5
 30
0.0
  0
POINT
  5
140
330
4D
100
AcDbEntity
  8
1
 62
     4
100
AcDbPoint
 10
100.75
 20
12.5
 30
0.0
  0
POINT
  5
141
330
4D
100
AcDbEntity
  8
1
 62
     4
100
AcDbPoint
 10
123.5
 20
19.00000000000001
 30
0.0
  0
POINT
  5
142
330
4D
100
AcDbEntity
  8
1
 62
     4
100
AcDbPoint
 10
123.5
 20
12.5
 30
0.0
  0
POINT
  5
143
330
4D
100
AcDbEntity
  8
1
 62
     4
100
AcDbPoint
 10
129.25
 20
12.5
 30
0.0
  0
POINT
  5
144
330
4D
100
AcDbEntity
  8
1
 62
     4
100
AcDbPoint
 10
117.75
 20
12.5
 30
0.0
  0
POINT
  5
145
330
4D
100
AcDbEntity
  8
1
 62
     4
100
AcDbPoint
 10
140.5
 20
19.00000000000001
 30
0.0
  0
POINT
  5
146
330
4D
100
AcDbEntity
  8
1
 62
     4
100
AcDbPoint
 10
140.5
 20
12.5
 30
0.0
  0
POINT
  5
147
330
4D
100
AcDbEntity
  8
1
 62
     4
100
AcDbPoint
 10
146.25
 20
12.5
 30
0.0
  0
POINT
  5
148
330
4D
100
AcDbEntity
  8
1
 62
     4
100
AcDbPoint
 10
134.75
 20
12.5
 30
0.0
  0
POINT
  5
149
330
4D
100
AcDbEntity
  8
1
 62
     4
100
AcDbPoint
 10
151.75
 20
12.5
 30
0.0
  0
POINT
  5
14A
330
4D
100
AcDbEntity
  8
1
 62
     4
100
AcDbPoint
 10
163.25
 20
12.5
 30
0.0
  0
POINT
  5
14B
330
4D
100
AcDbEntity
  8
1
 62
     4
100
AcDbPoint
 10
157.5
 20
12.5
 30
0.0
  0
POINT
  5
14C
330
4D
100
AcDbEntity
  8
1
 62
     4
100
AcDbPoint
 10
57.0
 20
14.25
 30
0.0
  0
POINT
  5
14D
330
4D
100
AcDbEntity
  8
1
 62
     4
100
AcDbPoint
 10
57.0
 20
22.75000000000001
 30
0.0
  0
POINT
  5
14E
330
4D
100
AcDbEntity
  8
1
 62
     4
100
AcDbPoint
 10
47.5
 20
282.0000000000003
 30
0.0
  0
POINT
  5
14F
330
4D
100
AcDbEntity
  8
1
 62
     4
100
AcDbPoint
 10
157.5
 20
19.00000000000001
 30
0.0
  0
POINT
  5
150
330
4D
100
AcDbEntity
  8
1
 62
     4
100
AcDbPoint
 10
57.0
 20
16.25
 30
0.0
  0
POINT
  5
151
330
4D
100
AcDbEntity
  8
1
 62
     4
100
AcDbPoint
 10
57.0
 20
24.75000000000001
 30
0.0
  0
POINT
  5
152
330
4D
100
AcDbEntity
  8
1
 62
     4
100
AcDbPoint
 10
57.0
 20
20.75000000000001
 30
0.0
  0
POINT
  5
153
330
4D
100
AcDbEntity
  8
1
 62
     4
100
AcDbPoint
 10
57.0
 20
12.25
 30
0.0
  0
POINT
  5
154
330
4D
100
AcDbEntity
  8
1
 62
     4
100
AcDbPoint
 10
34.0
 20
34.00000000000001
 30
0.0
  0
LINE
  5
155
330
4D
100
AcDbEntity
  8
1
  6
Continuous
 62
     7
100
AcDbLine
 10
105.0
 20
10.0
 30
0.0
 11
200.0
 21
10.0
 31
0.0
  0
LINE
  5
156
330
4D
100
AcDbEntity
  8
1
  6
Continuous
 62
     2
100
AcDbLine
 10
105.0
 20
10.0
 30
0.0
 11
105.0
 21
5.0
 31
0.0
  0
LINE
  5
157
330
4D
100
AcDbEntity
  8
1
  6
Continuous
 62
     7
100
AcDbLine
 10
200.0
 20
148.5
 30
0.0
 11
200.0
 21
287.0000000000003
 31
0.0
  0
LINE
  5
158
330
4D
100
AcDbEntity
  8
1
  6
Continuous
 62
     2
100
AcDbLine
 10
200.0
 20
148.5
 30
0.0
 11
205.0
 21
148.5
 31
0.0
  0
LINE
  5
159
330
4D
100
AcDbEntity
  8
1
  6
Continuous
 62
     7
100
AcDbLine
 10
25.0
 20
148.5
 30
0.0
 11
25.0
 21
287.0000000000003
 31
0.0
  0
LINE
  5
15A
330
4D
100
AcDbEntity
  8
1
  6
Continuous
 62
     2
100
AcDbLine
 10
25.0
 20
148.5
 30
0.0
 11
20.0
 21
148.5
 31
0.0
  0
LINE
  5
15B
330
4D
100
AcDbEntity
  8
1
  6
Continuous
 62
     7
100
AcDbLine
 10
105.0
 20
287.0000000000003
 30
0.0
 11
25.0
 21
287.0000000000003
 31
0.0
  0
LINE
  5
15C
330
4D
100
AcDbEntity
  8
1
  6
Continuous
 62
     2
100
AcDbLine
 10
105.0
 20
287.0000000000003
 30
0.0
 11
105.0
 21
292.0000000000003
 31
0.0
  0
LINE
  5
15D
330
4D
100
AcDbEntity
  8
1
  6
Continuous
 62
     2
100
AcDbLine
 10
166.0
 20
20.00000000000001
 30
0.0
 11
200.0
 21
20.00000000000001
 31
0.0
  0
LINE
  5
15E
330
4D
100
AcDbEntity
  8
1
  6
Continuous
 62
     2
100
AcDbLine
 10
98.0
 20
27.00000000000001
 30
0.0
 11
98.0
 21
9.99999999999999
 31
0.0
  0
LINE
  5
15F
330
4D
100
AcDbEntity
  8
1
  6
Continuous
 62
     2
100
AcDbLine
 10
115.0
 20
27.00000000000001
 30
0.0
 11
115.0
 21
9.99999999999999
 31
0.0
  0
LINE
  5
160
330
4D
100
AcDbEntity
  8
1
  6
Continuous
 62
     2
100
AcDbLine
 10
149.0
 20
27.00000000000001
 30
0.0
 11
149.0
 21
10.0
 31
0.0
  0
LINE
  5
161
330
4D
100
AcDbEntity
  8
1
  6
Continuous
 62
     2
100
AcDbLine
 10
132.0
 20
27.00000000000001
 30
0.0
 11
132.0
 21
9.99999999999999
 31
0.0
  0
LINE
  5
162
330
4D
100
AcDbEntity
  8
1
  6
Continuous
 62
     2
100
AcDbLine
 10
166.0
 20
27.00000000000001
 30
0.0
 11
166.0
 21
10.0
 31
0.0
  0
LINE
  5
163
330
4D
100
AcDbEntity
  8
1
  6
Continuous
 62
     2
100
AcDbLine
 10
55.0
 20
277.0000000000003
 30
0.0
 11
25.0
 21
277.0000000000003
 31
0.0
  0
LINE
  5
164
330
4D
100
AcDbEntity
  8
1
  6
Continuous
 62
     7
100
AcDbLine
 10
25.0
 20
10.0
 30
0.0
 11
25.0
 21
148.5
 31
0.0
  0
LINE
  5
165
330
4D
100
AcDbEntity
  8
1
  6
Continuous
 62
     2
100
AcDbLine
 10
40.0
 20
287.0000000000003
 30
0.0
 11
40.0
 21
277.0000000000003
 31
0.0
  0
LINE
  5
166
330
4D
100
AcDbEntity
  8
1
  6
Continuous
 62
     2
100
AcDbLine
 10
55.0
 20
287.0000000000003
 30
0.0
 11
55.0
 21
277.0000000000003
 31
0.0
  0
LINE
  5
167
330
4D
100
AcDbEntity
  8
1
  6
Continuous
 62
     2
100
AcDbLine
 10
33.0
 20
41.00000000000001
 30
0.0
 11
33.0
 21
27.0
 31
0.0
  0
LINE
  5
168
330
4D
100
AcDbEntity
  8
1
  6
Continuous
 62
     7
100
AcDbLine
 10
200.0
 20
27.00000000000001
 30
0.0
 11
25.0
 21
27.00000000000001
 31
0.0
  0
LINE
  5
169
330
4D
100
AcDbEntity
  8
1
  6
Continuous
 62
     7
100
AcDbLine
 10
25.0
 20
41.0
 30
0.0
 11
200.0
 21
41.0
 31
0.0
  0
LINE
  5
16A
330
4D
100
AcDbEntity
  8
1
  6
PHANTOM
 62
     4
100
AcDbLine
 10
0.0
 20
0.0
 30
0.0
 11
210.0
 21
0.0
 31
0.0
  0
LINE
  5
16B
330
4D
100
AcDbEntity
  8
1
  6
PHANTOM
 62
     4
100
AcDbLine
 10
210.0
 20
0.0
 30
0.0
 11
210.0
 21
297.0
 31
0.0
  0
LINE
  5
16C
330
4D
100
AcDbEntity
  8
1
  6
PHANTOM
 62
     4
100
AcDbLine
 10
210.0
 20
297.0
 30
0.0
 11
0.0
 21
297.0
 31
0.0
  0
LINE
  5
16D
330
4D
100
AcDbEntity
  8
1
  6
PHANTOM
 62
     4
100
AcDbLine
 10
0.0
 20
297.0
 30
0.0
 11
0.0
 21
0.0
 31
0.0
  0
LINE
  5
16E
330
4D
100
AcDbEntity
  8
1
  6
Continuous
 62
     7
100
AcDbLine
 10
25.0
 20
10.0
 30
0.0
 11
105.0
 21
10.0
 31
0.0
  0
LINE
  5
16F
330
4D
100
AcDbEntity
  8
1
  6
Continuous
 62
     7
100
AcDbLine
 10
200.0
 20
10.0
 30
0.0
 11
200.0
 21
148.5
 31
0.0
  0
LINE
  5
170
330
4D
100
AcDbEntity
  8
1
  6
Continuous
 62
     7
100
AcDbLine
 10
200.0
 20
287.0000000000003
 30
0.0
 11
105.0
 21
287.0000000000003
 31
0.0
  0
LINE
  5
171
330
4D
100
AcDbEntity
  8
1
  6
Continuous
 62
     2
100
AcDbLine
 10
25.0
 20
18.50000000000001
 30
0.0
 11
81.0
 21
18.50000000000001
 31
0.0
  0
LINE
  5
172
330
4D
100
AcDbEntity
  8
1
  6
Continuous
 62
     2
100
AcDbLine
 10
33.0
 20
27.0
 30
0.0
 11
33.0
 21
10.0
 31
0.0
  0
LINE
  5
173
330
4D
100
AcDbEntity
  8
1
  6
Continuous
 62
     7
100
AcDbLine
 10
191.0
 20
24.70000000000001
 30
0.0
 11
191.0
 21
22.30000000000001
 31
0.0
  0
LINE
  5
174
330
4D
100
AcDbEntity
  8
1
  6
Continuous
 62
     7
100
AcDbLine
 10
191.0
 20
24.70000000000001
 30
0.0
 11
196.0
 21
25.50000000000001
 31
0.0
  0
LINE
  5
175
330
4D
100
AcDbEntity
  8
1
  6
Continuous
 62
     7
100
AcDbLine
 10
196.0
 20
25.50000000000001
 30
0.0
 11
196.0
 21
21.50000000000001
 31
0.0
  0
LINE
  5
176
330
4D
100
AcDbEntity
  8
1
  6
Continuous
 62
     7
100
AcDbLine
 10
196.0
 20
21.50000000000001
 30
0.0
 11
191.0
 21
22.30000000000001
 31
0.0
  0
LINE
  5
177
330
4D
100
AcDbEntity
  8
1
  6
DOT_CENTER
 62
     2
100
AcDbLine
 10
184.0
 20
23.50000000000001
 30
0.0
 11
197.0
 21
23.50000000000001
 31
0.0
  0
LINE
  5
178
330
4D
100
AcDbEntity
  8
1
  6
DOT_CENTER
 62
     2
100
AcDbLine
 10
187.0
 20
26.50000000000001
 30
0.0
 11
187.0
 21
20.50000000000001
 31
0.0
  0
LINE
  5
179
330
4D
100
AcDbEntity
  8
1
  6
Continuous
 62
     2
100
AcDbLine
 10
81.0
 20
27.00000000000001
 30
0.0
 11
81.0
 21
10.0
 31
0.0
  0
CIRCLE
  5
17A
330
4D
100
AcDbEntity
  8
1
  6
Continuous
 62
     7
100
AcDbCircle
 10
103.5
 20
12.5
 30
0.0
 40
0.2999999999999972
  0
CIRCLE
  5
17B
330
4D
100
AcDbEntity
  8
1
  6
Continuous
 62
     7
100
AcDbCircle
 10
109.5
 20
12.5
 30
0.0
 40
0.2999999999999972
  0
CIRCLE
  5
17C
330
4D
100
AcDbEntity
  8
1
  6
Continuous
 62
     7
100
AcDbCircle
 10
120.5
 20
12.5
 30
0.0
 40
0.2999999999999972
  0
CIRCLE
  5
17D
330
4D
100
AcDbEntity
  8
1
  6
Continuous
 62
     7
100
AcDbCircle
 10
126.5
 20
12.5
 30
0.0
 40
0.2999999999999972
  0
CIRCLE
  5
17E
330
4D
100
AcDbEntity
  8
1
  6
Continuous
 62
     7
100
AcDbCircle
 10
137.5
 20
12.5
 30
0.0
 40
0.3000000000000114
  0
CIRCLE
  5
17F
330
4D
100
AcDbEntity
  8
1
  6
Continuous
 62
     7
100
AcDbCircle
 10
143.5
 20
12.5
 30
0.0
 40
0.3000000000000114
  0
CIRCLE
  5
180
330
4D
100
AcDbEntity
  8
1
  6
Continuous
 62
     7
100
AcDbCircle
 10
160.5
 20
12.5
 30
0.0
 40
0.3000000000000114
  0
CIRCLE
  5
181
330
4D
100
AcDbEntity
  8
1
  6
Continuous
 62
     7
100
AcDbCircle
 10
154.5
 20
12.5
 30
0.0
 40
0.3000000000000114
  0
CIRCLE
  5
182
330
4D
100
AcDbEntity
  8
1
  6
Continuous
 62
     7
100
AcDbCircle
 10
187.0
 20
23.50000000000001
 30
0.0
 40
1.200000000000102
  0
CIRCLE
  5
183
330
4D
100
AcDbEntity
  8
1
  6
Continuous
 62
     7
100
AcDbCircle
 10
187.0
 20
23.50000000000001
 30
0.0
 40
2.0
  0
CIRCLE
  5
184
330
4D
100
AcDbEntity
  8
1
  6
DOT_CENTER
 62
     7
100
AcDbCircle
 10
89.5
 20
16.0
 30
0.0
 40
0.1000000000000227
  0
CIRCLE
  5
185
330
4D
100
AcDbEntity
  8
1
  6
DOT_CENTER
 62
     7
100
AcDbCircle
 10
89.5
 20
18.0
 30
0.0
 40
0.1000000000000227
  0
MTEXT
  5
187
330
4D
100
AcDbEntity
  8
1
 62
     7
100
AcDbMText
 10
188.5
 20
15.0
 30
0.0
 40
3.0
 41
0.0
 71
     5
 72
     1
  1
三栄水栓製作所
  7
CONVERTER_11
 73
     1
 44
1.0
  0
MTEXT
  5
188
330
4D
100
AcDbEntity
  8
1
 62
     7
100
AcDbMText
 10
171.5
 20
15.0
 30
0.0
 40
2.5
 41
0.0
 71
     5
 72
     1
  1
株式会社
  7
CONVERTER_11
 73
     1
 44
1.0
  0
MTEXT
  5
189
330
4D
100
AcDbEntity
  8
1
 62
     2
100
AcDbMText
 10
32.5
 20
282.0000000000003
 30
0.0
 40
5.0
 41
0.0
 71
     5
 72
     1
  1
図番
  7
CONVERTER_11
 73
     1
 44
0.45454545454545
  0
MTEXT
  5
18A
330
4D
100
AcDbEntity
  8
1
 62
     2
100
AcDbMText
 10
29.0
 20
34.00000000000001
 30
0.0
 40
3.5
 41
0.0
 71
     5
 72
     1
  1
備考
  7
CONVERTER_11
 73
     1
 44
0.45454545454545
  0
MTEXT
  5
18B
330
4D
100
AcDbEntity
  8
1
 62
     2
100
AcDbMText
 10
29.0
 20
22.75
 30
0.0
 40
3.5
 41
0.0
 71
     5
 72
     1
  1
品名
  7
CONVERTER_11
 73
     1
 44
0.72727272727273
  0
MTEXT
  5
18C
330
4D
100
AcDbEntity
  8
1
 62
     2
100
AcDbMText
 10
29.0
 20
14.25
 30
0.0
 40
3.5
 41
0.0
 71
     5
 72
     1
  1
品番
  7
CONVERTER_11
 73
     1
 44
0.72727272727273
  0
MTEXT
  5
18D
330
4D
100
AcDbEntity
  8
1
 62
     2
100
AcDbMText
 10
101.5
 20
25.00000000000001
 30
0.0
 40
3.0
 41
0.0
 71
     5
 72
     1
  1
承認
  7
CONVERTER_11
 73
     1
 44
0.59090909090909
  0
MTEXT
  5
18E
330
4D
100
AcDbEntity
  8
1
 62
     2
100
AcDbMText
 10
175.0
 20
23.50000000000001
 30
0.0
 40
3.5
 41
0.0
 71
     5
 72
     1
  1
第三角法
  7
CONVERTER_11
 73
     1
 44
0.54545454545455
  0
MTEXT
  5
18F
330
4D
100
AcDbEntity
  8
1
 62
     2
100
AcDbMText
 10
118.5
 20
25.00000000000001
 30
0.0
 40
3.0
 41
0.0
 71
     5
 72
     1
  1
検図
  7
CONVERTER_11
 73
     1
 44
0.59090909090909
  0
MTEXT
  5
190
330
4D
100
AcDbEntity
  8
1
 62
     2
100
AcDbMText
 10
152.5
 20
25.00000000000001
 30
0.0
 40
3.0
 41
0.0
 71
     5
 72
     1
  1
設計
  7
CONVERTER_11
 73
     1
 44
0.59090909090909
  0
MTEXT
  5
191
330
4D
100
AcDbEntity
  8
1
 62
     2
100
AcDbMText
 10
135.5
 20
25.00000000000001
 30
0.0
 40
3.0
 41
0.0
 71
     5
 72
     1
  1
製図
  7
CONVERTER_11
 73
     1
 44
0.59090909090909
  0
MTEXT
  5
192
330
4D
100
AcDbEntity
  8
1
 62
     2
100
AcDbMText
 10
89.5
 20
24.00000000000001
 30
0.0
 40
3.5
 41
0.0
 71
     5
 72
     1
  1
尺度
  7
CONVERTER_11
 73
     1
 44
0.54545454545455
  0
MTEXT
  5
193
330
4D
100
AcDbEntity
  8
1
 62
   250
100
AcDbMText
 10
25.0
 20
5.0
 30
0.0
 40
3.5
 41
0.0
 71
     4
 72
     1
  1
備考欄の文字列 原点位置=4
  7
CONVERTER_11
 73
     1
 44
0.54545454545455
  0
ENDBLK
  5
4F
330
4D
100
AcDbEntity
  8
0
100
AcDbBlockEnd
  0
BLOCK
  5
51
330
50
100
AcDbEntity
  8
0
100
AcDbBlockBegin
  2
27-2A-M1
 70
     0
 10
668.8403318129679
 20
474.8357924145271
 30
0.0
  3
27-2A-M1
  1

  0
LINE
  5
194
330
50
100
AcDbEntity
  8
1
  6
Continuous
 62
     7
100
AcDbLine
 10
272.4589118131869
 20
263.9659284573584
 30
0.0
 11
278.1352891968849
 21
263.9659284573584
 31
0.0
  0
LINE
  5
195
330
50
100
AcDbEntity
  8
1
  6
Continuous
 62
     7
100
AcDbLine
 10
163.0036825424194
 20
240.0371976013372
 30
0.0
 11
172.0784536662367
 21
239.561608999236
 31
0.0
  0
LINE
  5
196
330
50
100
AcDbEntity
  8
1
  6
Continuous
 62
     7
100
AcDbLine
 10
173.0527263044975
 20
417.3076338397301
 30
0.0
 11
192.2527263044975
 21
417.3076338397301
 31
0.0
  0
LINE
  5
197
330
50
100
AcDbEntity
  8
1
  6
Continuous
 62
     7
100
AcDbLine
 10
173.0527263044975
 20
409.3076338397301
 30
0.0
 11
164.2527263044975
 21
409.3076338397301
 31
0.0
  0
LINE
  5
198
330
50
100
AcDbEntity
  8
1
  6
Continuous
 62
     7
100
AcDbLine
 10
192.2527263044975
 20
417.3076338397301
 30
0.0
 11
192.2527263044975
 21
409.3076338397301
 31
0.0
  0
LINE
  5
199
330
50
100
AcDbEntity
  8
1
  6
Continuous
 62
     7
100
AcDbLine
 10
164.2527263044975
 20
410.1324971173402
 30
0.0
 11
164.2527263044975
 21
409.3076338397301
 31
0.0
  0
LINE
  5
19A
330
50
100
AcDbEntity
  8
1
  6
Continuous
 62
     7
100
AcDbLine
 10
164.2527263044975
 20
416.4827705621202
 30
0.0
 11
164.2527263044975
 21
410.1324971173402
 31
0.0
  0
LINE
  5
19B
330
50
100
AcDbEntity
  8
1
  6
Continuous
 62
     7
100
AcDbLine
 10
164.2527263044975
 20
417.3076338397301
 30
0.0
 11
173.0527263044975
 21
417.3076338397301
 31
0.0
  0
LINE
  5
19C
330
50
100
AcDbEntity
  8
1
  6
PHANTOM
 62
     4
100
AcDbLine
 10
178.2527263044975
 20
420.3076338397301
 30
0.0
 11
178.2527263044975
 21
406.3076338397301
 31
0.0
  0
LINE
  5
19D
330
50
100
AcDbEntity
  8
1
  6
Continuous
 62
     7
100
AcDbLine
 10
192.2527263044975
 20
409.3076338397301
 30
0.0
 11
173.0527263044975
 21
409.3076338397301
 31
0.0
  0
LINE
  5
19E
330
50
100
AcDbEntity
  8
1
  6
Continuous
 62
     7
100
AcDbLine
 10
173.0527263044975
 20
409.3076338397301
 30
0.0
 11
173.0527263044975
 21
408.9589983958745
 31
0.0
  0
LINE
  5
19F
330
50
100
AcDbEntity
  8
1
  6
Continuous
 62
     7
100
AcDbLine
 10
149.5527263044975
 20
426.0838377293715
 30
0.0
 11
173.0527263044975
 21
424.8522549162202
 31
0.0
  0
LINE
  5
1A0
330
50
100
AcDbEntity
  8
1
  6
Continuous
 62
     7
100
AcDbLine
 10
149.5527263044975
 20
215.1897245677171
 30
0.0
 11
149.5527263044975
 21
240.7421323470002
 31
0.0
  0
LINE
  5
1A1
330
50
100
AcDbEntity
  8
1
  6
Continuous
 62
     7
100
AcDbLine
 10
173.0527263044975
 20
216.4213073808685
 30
0.0
 11
173.0527263044975
 21
227.9659284573587
 31
0.0
  0
LINE
  5
1A2
330
50
100
AcDbEntity
  8
1
  6
PHANTOM
 62
     4
100
AcDbLine
 10
275.3975925059934
 20
211.5473839075455
 30
0.0
 11
275.3975925059934
 21
240.9659284573583
 31
0.0
  0
LINE
  5
1A3
330
50
100
AcDbEntity
  8
1
  6
Continuous
 62
     7
100
AcDbLine
 10
162.0527263044975
 20
411.1176338397302
 30
0.0
 11
162.0527263044975
 21
409.3076338397301
 31
0.0
  0
LINE
  5
1A4
330
50
100
AcDbEntity
  8
1
  6
Continuous
 62
     7
100
AcDbLine
 10
163.4174103410606
 20
411.5257447397302
 30
0.0
 11
162.0527263044975
 21
411.1176338397302
 31
0.0
  0
LINE
  5
1A5
330
50
100
AcDbEntity
  8
1
  6
Continuous
 62
     7
100
AcDbLine
 10
162.0527263044975
 20
415.4976338397302
 30
0.0
 11
162.0527263044975
 21
411.1176338397302
 31
0.0
  0
LINE
  5
1A6
330
50
100
AcDbEntity
  8
1
  6
Continuous
 62
     7
100
AcDbLine
 10
163.4174103410606
 20
415.0895229397302
 30
0.0
 11
162.0527263044975
 21
415.4976338397302
 31
0.0
  0
LINE
  5
1A7
330
50
100
AcDbEntity
  8
1
  6
Continuous
 62
     7
100
AcDbLine
 10
160.0527263044975
 20
407.3076338397301
 30
0.0
 11
173.0527263044975
 21
408.9589983958745
 31
0.0
  0
LINE
  5
1A8
330
50
100
AcDbEntity
  8
1
  6
Continuous
 62
     7
100
AcDbLine
 10
161.3218369262723
 20
407.7618789336412
 30
0.0
 11
164.2527263044975
 21
410.1324971173402
 31
0.0
  0
LINE
  5
1A9
330
50
100
AcDbEntity
  8
1
  6
Continuous
 62
     7
100
AcDbLine
 10
173.0527263044975
 20
417.6562692835859
 30
0.0
 11
173.0527263044975
 21
424.8522549162202
 31
0.0
  0
LINE
  5
1AA
330
50
100
AcDbEntity
  8
1
  6
Continuous
 62
     7
100
AcDbLine
 10
173.0527263044975
 20
417.6562692835859
 30
0.0
 11
160.0527263044975
 21
419.3076338397301
 31
0.0
  0
LINE
  5
1AB
330
50
100
AcDbEntity
  8
1
  6
Continuous
 62
     7
100
AcDbLine
 10
164.2527263044975
 20
416.4827705621202
 30
0.0
 11
161.2990546242868
 21
418.8718159644494
 31
0.0
  0
LINE
  5
1AC
330
50
100
AcDbEntity
  8
1
  6
Continuous
 62
     7
100
AcDbLine
 10
162.0527263044975
 20
417.3076338397301
 30
0.0
 11
162.0527263044975
 21
415.4976338397302
 31
0.0
  0
LINE
  5
1AD
330
50
100
AcDbEntity
  8
1
  6
Continuous
 62
     7
100
AcDbLine
 10
173.0527263044975
 20
417.3076338397301
 30
0.0
 11
173.0527263044975
 21
417.6562692835859
 31
0.0
  0
LINE
  5
1AE
330
50
100
AcDbEntity
  8
1
  6
PHANTOM
 62
     4
100
AcDbLine
 10
146.5527263044975
 20
413.3076338397301
 30
0.0
 11
195.2527263044975
 21
413.3076338397301
 31
0.0
  0
LINE
  5
1AF
330
50
100
AcDbEntity
  8
1
  6
Continuous
 62
     7
100
AcDbLine
 10
163.4174103410606
 20
415.0895229397302
 30
0.0
 11
163.4174103410606
 21
411.5257447397302
 31
0.0
  0
LINE
  5
1B0
330
50
100
AcDbEntity
  8
1
  6
Continuous
 62
     7
100
AcDbLine
 10
164.2527263044975
 20
417.3076338397301
 30
0.0
 11
164.2527263044975
 21
416.4827705621202
 31
0.0
  0
LINE
  5
1B1
330
50
100
AcDbEntity
  8
1
  6
Continuous
 62
     7
100
AcDbLine
 10
173.0527263044975
 20
401.7630127632402
 30
0.0
 11
149.5527263044975
 21
400.5314299500886
 31
0.0
  0
LINE
  5
1B2
330
50
100
AcDbEntity
  8
1
  6
Continuous
 62
     7
100
AcDbLine
 10
149.5527263044975
 20
400.5314299500886
 30
0.0
 11
149.5527263044975
 21
426.0838377293715
 31
0.0
  0
LINE
  5
1B3
330
50
100
AcDbEntity
  8
1
  6
Continuous
 62
     7
100
AcDbLine
 10
162.1433198849752
 20
242.0998141780028
 30
0.0
 11
163.9934670389901
 21
283.2057893714044
 31
0.0
  0
LINE
  5
1B4
330
50
100
AcDbEntity
  8
1
  6
Continuous
 62
     7
100
AcDbLine
 10
168.6973686205814
 20
276.5147037437944
 30
0.0
 11
168.9884101502519
 21
282.9809709663358
 31
0.0
  0
LINE
  5
1B5
330
50
100
AcDbEntity
  8
1
  6
Continuous
 62
     7
100
AcDbLine
 10
184.6169001904563
 20
282.6021802890791
 30
0.0
 11
176.2803129769454
 21
274.2650353802495
 31
0.0
  0
LINE
  5
1B6
330
50
100
AcDbEntity
  8
1
  6
Continuous
 62
     7
100
AcDbLine
 10
188.1525523493223
 20
279.0667646400349
 30
0.0
 11
179.8158468848558
 21
270.7295014723391
 31
0.0
  0
LINE
  5
1B7
330
50
100
AcDbEntity
  8
1
  6
PHANTOM
 62
     4
100
AcDbLine
 10
178.2527263044975
 20
273.3842186964994
 30
0.0
 11
178.2527263044975
 21
305.0186685201705
 31
0.0
  0
LINE
  5
1B8
330
50
100
AcDbEntity
  8
1
  6
PHANTOM
 62
     4
100
AcDbLine
 10
269.3975925059934
 20
288.9659284573584
 30
0.0
 11
281.3975925059934
 21
288.9659284573584
 31
0.0
  0
LINE
  5
1B9
330
50
100
AcDbEntity
  8
1
  6
Continuous
 62
     7
100
AcDbLine
 10
271.3975925059934
 20
302.9659284573584
 30
0.0
 11
275.3975925059934
 21
302.9659284573584
 31
0.0
  0
LINE
  5
1BA
330
50
100
AcDbEntity
  8
1
  6
Continuous
 62
     7
100
AcDbLine
 10
271.3975925059934
 20
263.9659284573584
 30
0.0
 11
271.3975925059934
 21
302.9659284573584
 31
0.0
  0
LINE
  5
1BB
330
50
100
AcDbEntity
  8
1
  6
Continuous
 62
     7
100
AcDbLine
 10
270.8965784432451
 20
247.2654596990786
 30
0.0
 11
271.3975925059934
 21
263.9659284573584
 31
0.0
  0
LINE
  5
1BC
330
50
100
AcDbEntity
  8
1
  6
Continuous
 62
     7
100
AcDbLine
 10
279.3975925059934
 20
263.9659284573584
 30
0.0
 11
279.8986065687418
 21
247.2654596990786
 31
0.0
  0
LINE
  5
1BD
330
50
100
AcDbEntity
  8
1
  6
Continuous
 62
     7
100
AcDbLine
 10
279.3975925059934
 20
302.9659284573584
 30
0.0
 11
279.3975925059934
 21
263.9659284573584
 31
0.0
  0
LINE
  5
1BE
330
50
100
AcDbEntity
  8
1
  6
Continuous
 62
     7
100
AcDbLine
 10
275.3975925059934
 20
302.9659284573584
 30
0.0
 11
279.3975925059934
 21
302.9659284573584
 31
0.0
  0
LINE
  5
1BF
330
50
100
AcDbEntity
  8
1
  6
Continuous
 62
     7
100
AcDbLine
 10
176.2803129769454
 20
274.2650353802495
 30
0.0
 11
175.5218448366837
 21
273.5065165005042
 31
0.0
  0
LINE
  5
1C0
330
50
100
AcDbEntity
  8
1
  6
Continuous
 62
     7
100
AcDbLine
 10
168.9884101502519
 20
282.9809709663358
 30
0.0
 11
169.2577883128382
 21
288.9659284573585
 31
0.0
  0
LINE
  5
1C1
330
50
100
AcDbEntity
  8
1
  6
Continuous
 62
     7
100
AcDbLine
 10
179.8158468848558
 20
270.7295014723391
 30
0.0
 11
173.0527263044975
 21
263.9659284573585
 31
0.0
  0
LINE
  5
1C2
330
50
100
AcDbEntity
  8
1
  6
Continuous
 62
     7
100
AcDbLine
 10
173.0527263044975
 20
216.4213073808685
 30
0.0
 11
149.5527263044975
 21
215.1897245677171
 31
0.0
  0
LINE
  5
1C3
330
50
100
AcDbEntity
  8
1
  6
Continuous
 62
     7
100
AcDbLine
 10
173.0527263044975
 20
227.9659284573587
 30
0.0
 11
173.0527263044975
 21
263.9659284573585
 31
0.0
  0
LINE
  5
1C4
330
50
100
AcDbEntity
  8
1
  6
Continuous
 62
     7
100
AcDbLine
 10
149.5527263044975
 20
240.7421323470002
 30
0.0
 11
162.0527263044975
 21
240.0870351059621
 31
0.0
  0
LINE
  5
1C5
330
50
100
AcDbEntity
  8
1
  6
Continuous
 62
     7
100
AcDbLine
 10
163.9934670389901
 20
283.2057893714044
 30
0.0
 11
164.2527263044975
 21
288.9659284573585
 31
0.0
  0
LINE
  5
1C6
330
50
100
AcDbEntity
  8
1
  6
PHANTOM
 62
     4
100
AcDbLine
 10
260.7240332874303
 20
227.9659284573583
 30
0.0
 11
290.1895962726655
 21
227.9659284573583
 31
0.0
  0
LINE
  5
1C7
330
50
100
AcDbEntity
  8
1
  6
PHANTOM
 62
     4
100
AcDbLine
 10
146.5527263044975
 20
227.9659284573587
 30
0.0
 11
178.2527263044975
 21
227.9659284573587
 31
0.0
  0
LINE
  5
1C8
330
50
100
AcDbEntity
  8
1
  6
PHANTOM
 62
     4
100
AcDbLine
 10
157.0527263044975
 20
288.9659284573585
 30
0.0
 11
194.5000249731208
 21
288.9659284573585
 31
0.0
  0
LINE
  5
1C9
330
50
100
AcDbEntity
  8
1
  6
Continuous
 62
     7
100
AcDbLine
 10
173.0527263044975
 20
408.9589983958745
 30
0.0
 11
173.0527263044975
 21
401.7630127632402
 31
0.0
  0
ARC
  5
1CA
330
50
100
AcDbEntity
  8
1
  6
Continuous
 62
     7
100
AcDbCircle
 10
275.3975925059932
 20
227.9659284573584
 30
0.0
 40
12.74999999999988
100
AcDbArc
 50
134.6276164332753
 51
180.0
  0
ARC
  5
1CB
330
50
100
AcDbEntity
  8
1
  6
Continuous
 62
     7
100
AcDbCircle
 10
160.0527263044975
 20
409.3076338397301
 30
0.0
 40
2.0
100
AcDbArc
 50
270.0
 51
309.3870105052497
  0
ARC
  5
1CC
330
50
100
AcDbEntity
  8
1
  6
Continuous
 62
     7
100
AcDbCircle
 10
160.0527263044975
 20
417.3076338397301
 30
0.0
 40
2.0
100
AcDbArc
 50
0.0
 51
51.4524318300564
  0
ARC
  5
1CD
330
50
100
AcDbEntity
  8
1
  6
Continuous
 62
     7
100
AcDbCircle
 10
160.0527263044975
 20
409.3076338397301
 30
0.0
 40
1.999999999999903
100
AcDbArc
 50
309.3870105052497
 51
0.0
  0
ARC
  5
1CE
330
50
100
AcDbEntity
  8
1
  6
Continuous
 62
     7
100
AcDbCircle
 10
160.0527263044975
 20
417.3076338397301
 30
0.0
 40
2.000000000000067
100
AcDbArc
 50
51.4524318300564
 51
90.0
  0
ARC
  5
1CF
330
50
100
AcDbEntity
  8
1
  6
Continuous
 62
     7
100
AcDbCircle
 10
294.8918611215773
 20
247.7152573356636
 30
0.0
 40
14.99999999999998
100
AcDbArc
 50
181.7183580016552
 51
206.7408134221632
  0
ARC
  5
1D0
330
50
100
AcDbEntity
  8
1
  6
Continuous
 62
     7
100
AcDbCircle
 10
255.9033238904095
 20
247.7152573356636
 30
0.0
 40
14.99999999999998
100
AcDbArc
 50
314.627616433276
 51
333.2591865778368
  0
ARC
  5
1D1
330
50
100
AcDbEntity
  8
1
  6
Continuous
 62
     7
100
AcDbCircle
 10
255.9033238904095
 20
247.7152573356636
 30
0.0
 40
15.00000000000004
100
AcDbArc
 50
333.2591865778368
 51
358.2816419983448
  0
ARC
  5
1D2
330
50
100
AcDbEntity
  8
1
  6
Continuous
 62
     7
100
AcDbCircle
 10
275.3975925059932
 20
227.9659284573584
 30
0.0
 40
12.75000000000017
100
AcDbArc
 50
359.9999999999996
 51
45.37238356672344
  0
ARC
  5
1D3
330
50
100
AcDbEntity
  8
1
  6
Continuous
 62
     7
100
AcDbCircle
 10
294.8918611215773
 20
247.7152573356636
 30
0.0
 40
15.00000000000001
100
AcDbArc
 50
206.7408134221632
 51
225.3723835667241
  0
ARC
  5
1D4
330
50
100
AcDbEntity
  8
1
  6
Continuous
 62
     7
100
AcDbCircle
 10
172.6933231095909
 20
276.3348490197394
 30
0.0
 40
4.000000000000016
100
AcDbArc
 50
177.422901981416
 51
315.0019164028652
  0
ARC
  5
1D5
330
50
100
AcDbEntity
  8
1
  6
Continuous
 62
     7
100
AcDbCircle
 10
178.2527263044975
 20
288.9659284573585
 30
0.0
 40
8.994937991659297
100
AcDbArc
 50
315.0019164028644
 51
180.0
  0
ARC
  5
1D6
330
50
100
AcDbEntity
  8
1
  6
Continuous
 62
     7
100
AcDbCircle
 10
178.2527263044975
 20
288.9659284573585
 30
0.0
 40
14.00000000000001
100
AcDbArc
 50
315.0019164028643
 51
0.0
  0
ARC
  5
1D7
330
50
100
AcDbEntity
  8
1
  6
Continuous
 62
     7
100
AcDbCircle
 10
275.3975925059932
 20
227.9659284573584
 30
0.0
 40
12.75
100
AcDbArc
 50
180.0
 51
270.0
  0
ARC
  5
1D8
330
50
100
AcDbEntity
  8
1
  6
Continuous
 62
     7
100
AcDbCircle
 10
178.2527263044975
 20
288.9659284573585
 30
0.0
 40
14.0
100
AcDbArc
 50
90.0
 51
180.0
  0
ARC
  5
1D9
330
50
100
AcDbEntity
  8
1
  6
Continuous
 62
     7
100
AcDbCircle
 10
178.2527263044975
 20
288.9659284573585
 30
0.0
 40
14.0
100
AcDbArc
 50
0.0
 51
90.0
  0
ARC
  5
1DA
330
50
100
AcDbEntity
  8
1
  6
Continuous
 62
     7
100
AcDbCircle
 10
275.3975925059932
 20
227.9659284573584
 30
0.0
 40
12.75
100
AcDbArc
 50
270.0
 51
359.9999999999996
  0
ARC
  5
1DB
330
50
100
AcDbEntity
  8
1
  6
Continuous
 62
     7
100
AcDbCircle
 10
160.1453426404704
 20
242.1897415400304
 30
0.0
 40
2.000000000000159
100
AcDbArc
 50
267.0000000000028
 51
322.2725136501468
  0
ARC
  5
1DC
330
50
100
AcDbEntity
  8
1
  6
Continuous
 62
     7
100
AcDbCircle
 10
160.1453426404704
 20
242.1897415400304
 30
0.0
 40
2.000000000000036
100
AcDbArc
 50
322.2725136501468
 51
357.4229019814128
  0
ENDBLK
  5
52
330
50
100
AcDbEntity
  8
0
100
AcDbBlockEnd
  0
BLOCK
  5
54
330
53
100
AcDbEntity
  8
0
100
AcDbBlockBegin
  2
36-190-M11
 70
     0
 10
426.2434153957991
 20
1003.802331807142
 30
0.0
  3
36-190-M11
  1

  0
LINE
  5
1DD
330
53
100
AcDbEntity
  8
1
  6
Continuous
 62
     7
100
AcDbLine
 10
146.2572704266853
 20
418.0576338397302
 30
0.0
 11
149.5527263044975
 21
418.0576338397302
 31
0.0
  0
LINE
  5
1DE
330
53
100
AcDbEntity
  8
1
  6
Continuous
 62
     7
100
AcDbLine
 10
149.5527263044975
 20
408.5576338397302
 30
0.0
 11
146.2572704266853
 21
408.5576338397302
 31
0.0
  0
LINE
  5
1DF
330
53
100
AcDbEntity
  8
1
  6
Continuous
 62
     7
100
AcDbLine
 10
149.5527263044975
 20
223.2159284573586
 30
0.0
 11
146.2572704266853
 21
223.2159284573586
 31
0.0
  0
LINE
  5
1E0
330
53
100
AcDbEntity
  8
1
  6
Continuous
 62
     7
100
AcDbLine
 10
146.2572704266853
 20
232.7159284573586
 30
0.0
 11
149.5527263044975
 21
232.7159284573586
 31
0.0
  0
ENDBLK
  5
55
330
53
100
AcDbEntity
  8
0
100
AcDbBlockEnd
  0
BLOCK
  5
57
330
56
100
AcDbEntity
  8
0
100
AcDbBlockBegin
  2
37-119
 70
     0
 10
623.9661316756567
 20
740.9902526749138
 30
0.0
  3
37-119
  1

  0
LINE
  5
1E1
330
56
100
AcDbEntity
  8
1
  6
Continuous
 62
     7
100
AcDbLine
 10
145.2571717505985
 20
236.4659284573584
 30
0.0
 11
140.5708802495834
 21
236.4659284573586
 31
0.0
  0
LINE
  5
1E2
330
56
100
AcDbEntity
  8
1
  6
Continuous
 62
     7
100
AcDbLine
 10
134.7927056565315
 20
241.0014623632912
 30
0.0
 11
138.4495599060239
 21
237.344608113799
 31
0.0
  0
LINE
  5
1E3
330
56
100
AcDbEntity
  8
1
  6
Continuous
 62
     7
100
AcDbLine
 10
139.3282395624643
 20
235.4659284573586
 30
0.0
 11
139.328239562464
 21
227.9659284573586
 31
0.0
  0
LINE
  5
1E4
330
56
100
AcDbEntity
  8
1
  6
Continuous
 62
     7
100
AcDbLine
 10
127.7571717505986
 20
232.8659284573587
 30
0.0
 11
127.7571717505986
 21
235.4659284573587
 31
0.0
  0
LINE
  5
1E5
330
56
100
AcDbEntity
  8
1
  6
Continuous
 62
     7
100
AcDbLine
 10
127.7571717505986
 20
235.4659284573587
 30
0.0
 11
127.7571717505988
 21
241.0366426716301
 31
0.0
  0
LINE
  5
1E6
330
56
100
AcDbEntity
  8
1
  6
PHANTOM
 62
     4
100
AcDbLine
 10
127.7572704266855
 20
227.9659284573586
 30
0.0
 11
125.3312671621673
 21
227.9659284573588
 31
0.0
  0
LINE
  5
1E7
330
56
100
AcDbEntity
  8
1
  6
PHANTOM
 62
     4
100
AcDbLine
 10
127.7572704266855
 20
227.9659284573586
 30
0.0
 11
146.7979023146846
 21
227.9659284573584
 31
0.0
  0
LINE
  5
1E8
330
56
100
AcDbEntity
  8
1
  6
Continuous
 62
     7
100
AcDbLine
 10
127.7571717505986
 20
227.9659284573587
 30
0.0
 11
127.7571717505986
 21
232.8659284573587
 31
0.0
  0
LINE
  5
1E9
330
56
100
AcDbEntity
  8
1
  6
Continuous
 62
     7
100
AcDbLine
 10
146.2571717505986
 20
227.9659284573584
 30
0.0
 11
146.2571717505986
 21
235.4659284573584
 31
0.0
  0
LINE
  5
1EA
330
56
100
AcDbEntity
  8
1
  6
Continuous
 62
     7
100
AcDbLine
 10
146.2571717505984
 20
220.4659284573583
 30
0.0
 11
146.2571717505986
 21
227.9659284573584
 31
0.0
  0
LINE
  5
1EB
330
56
100
AcDbEntity
  8
1
  6
Continuous
 62
     7
100
AcDbLine
 10
127.7571717505986
 20
223.0659284573586
 30
0.0
 11
127.7571717505986
 21
227.9659284573587
 31
0.0
  0
LINE
  5
1EC
330
56
100
AcDbEntity
  8
1
  6
Continuous
 62
     7
100
AcDbLine
 10
127.7571717505983
 20
214.895214243087
 30
0.0
 11
127.7571717505985
 21
220.4659284573586
 31
0.0
  0
LINE
  5
1ED
330
56
100
AcDbEntity
  8
1
  6
Continuous
 62
     7
100
AcDbLine
 10
127.7571717505985
 20
220.4659284573586
 30
0.0
 11
127.7571717505986
 21
223.0659284573586
 31
0.0
  0
LINE
  5
1EE
330
56
100
AcDbEntity
  8
1
  6
Continuous
 62
     7
100
AcDbLine
 10
139.328239562464
 20
227.9659284573586
 30
0.0
 11
139.3282395624639
 21
220.4659284573583
 31
0.0
  0
LINE
  5
1EF
330
56
100
AcDbEntity
  8
1
  6
Continuous
 62
     7
100
AcDbLine
 10
138.4495599060235
 20
218.5872488009181
 30
0.0
 11
134.7927056565312
 21
214.9303945514257
 31
0.0
  0
LINE
  5
1F0
330
56
100
AcDbEntity
  8
1
  6
Continuous
 62
     7
100
AcDbLine
 10
140.5708802495832
 20
219.4659284573583
 30
0.0
 11
145.2571717505985
 21
219.4659284573583
 31
0.0
  0
LINE
  5
1F1
330
56
100
AcDbEntity
  8
1
  6
Continuous
 62
     7
100
AcDbLine
 10
134.8278859648693
 20
214.9659284573586
 30
0.0
 11
127.7571717505977
 21
214.9659284573587
 31
0.0
  0
LINE
  5
1F2
330
56
100
AcDbEntity
  8
1
  6
Continuous
 62
     7
100
AcDbLine
 10
127.7571717505981
 20
240.9659284573587
 30
0.0
 11
134.8278859648695
 21
240.9659284573586
 31
0.0
  0
LINE
  5
1F3
330
56
100
AcDbEntity
  8
1
  6
Continuous
 62
     7
100
AcDbLine
 10
140.5709789256702
 20
404.8076338397304
 30
0.0
 11
145.2572704266853
 21
404.8076338397304
 31
0.0
  0
LINE
  5
1F4
330
56
100
AcDbEntity
  8
1
  6
Continuous
 62
     7
100
AcDbLine
 10
138.4496585821106
 20
403.92895418329
 30
0.0
 11
134.7928043326182
 21
400.2720999337977
 31
0.0
  0
LINE
  5
1F5
330
56
100
AcDbEntity
  8
1
  6
Continuous
 62
     7
100
AcDbLine
 10
139.3283382385508
 20
413.3076338397303
 30
0.0
 11
139.3283382385508
 21
405.8076338397304
 31
0.0
  0
LINE
  5
1F6
330
56
100
AcDbEntity
  8
1
  6
Continuous
 62
     7
100
AcDbLine
 10
127.7572704266855
 20
405.8076338397301
 30
0.0
 11
127.7572704266855
 21
408.40763383973
 31
0.0
  0
LINE
  5
1F7
330
56
100
AcDbEntity
  8
1
  6
Continuous
 62
     7
100
AcDbLine
 10
127.7572704266855
 20
400.2369196254587
 30
0.0
 11
127.7572704266855
 21
405.8076338397301
 31
0.0
  0
LINE
  5
1F8
330
56
100
AcDbEntity
  8
1
  6
Continuous
 62
     7
100
AcDbLine
 10
146.2572704266853
 20
405.8076338397304
 30
0.0
 11
146.2572704266853
 21
413.3076338397303
 31
0.0
  0
LINE
  5
1F9
330
56
100
AcDbEntity
  8
1
  6
Continuous
 62
     7
100
AcDbLine
 10
127.7572704266855
 20
408.40763383973
 30
0.0
 11
127.7572704266854
 21
413.3076338397302
 31
0.0
  0
LINE
  5
1FA
330
56
100
AcDbEntity
  8
1
  6
Continuous
 62
     7
100
AcDbLine
 10
127.7572704266854
 20
413.3076338397302
 30
0.0
 11
127.7572704266855
 21
418.2076338397304
 31
0.0
  0
LINE
  5
1FB
330
56
100
AcDbEntity
  8
1
  6
Continuous
 62
     7
100
AcDbLine
 10
146.2572704266853
 20
413.3076338397303
 30
0.0
 11
146.2572704266853
 21
420.8076338397303
 31
0.0
  0
LINE
  5
1FC
330
56
100
AcDbEntity
  8
1
  6
Continuous
 62
     7
100
AcDbLine
 10
127.7572704266855
 20
420.8076338397303
 30
0.0
 11
127.7572704266855
 21
426.3783480540018
 31
0.0
  0
LINE
  5
1FD
330
56
100
AcDbEntity
  8
1
  6
Continuous
 62
     7
100
AcDbLine
 10
127.7572704266855
 20
418.2076338397304
 30
0.0
 11
127.7572704266855
 21
420.8076338397303
 31
0.0
  0
LINE
  5
1FE
330
56
100
AcDbEntity
  8
1
  6
Continuous
 62
     7
100
AcDbLine
 10
139.3283382385508
 20
420.8076338397303
 30
0.0
 11
139.3283382385508
 21
413.3076338397303
 31
0.0
  0
LINE
  5
1FF
330
56
100
AcDbEntity
  8
1
  6
Continuous
 62
     7
100
AcDbLine
 10
134.7928043326182
 20
426.3431677456631
 30
0.0
 11
138.4496585821106
 21
422.6863134961707
 31
0.0
  0
LINE
  5
200
330
56
100
AcDbEntity
  8
1
  6
Continuous
 62
     7
100
AcDbLine
 10
145.2572704266853
 20
421.8076338397303
 30
0.0
 11
140.5709789256702
 21
421.8076338397303
 31
0.0
  0
LINE
  5
201
330
56
100
AcDbEntity
  8
1
  6
PHANTOM
 62
     4
100
AcDbLine
 10
275.3975925059947
 20
243.5322385124039
 30
0.0
 11
275.3975925059947
 21
212.4692317143606
 31
0.0
  0
LINE
  5
202
330
56
100
AcDbEntity
  8
1
  6
PHANTOM
 62
     4
100
AcDbLine
 10
257.3986839355151
 20
227.9659284573584
 30
0.0
 11
293.1025782033854
 21
227.9659284573584
 31
0.0
  0
LINE
  5
203
330
56
100
AcDbEntity
  8
1
  6
Continuous
 62
     7
100
AcDbLine
 10
267.3505704014634
 20
215.9037795920367
 30
0.0
 11
260.9279541121308
 21
227.0280773226803
 31
0.0
  0
LINE
  5
204
330
56
100
AcDbEntity
  8
1
  6
Continuous
 62
     7
100
AcDbLine
 10
281.8202087953274
 20
214.9659284573584
 30
0.0
 11
268.9749762166621
 21
214.9659284573584
 31
0.0
  0
LINE
  5
205
330
56
100
AcDbEntity
  8
1
  6
Continuous
 62
     7
100
AcDbLine
 10
289.8672308998587
 20
227.0280773226803
 30
0.0
 11
283.4446146105261
 21
215.9037795920367
 31
0.0
  0
LINE
  5
206
330
56
100
AcDbEntity
  8
1
  6
Continuous
 62
     7
100
AcDbLine
 10
283.4446146105261
 20
240.0280773226803
 30
0.0
 11
289.8672308998587
 21
228.9037795920367
 31
0.0
  0
LINE
  5
207
330
56
100
AcDbEntity
  8
1
  6
Continuous
 62
     7
100
AcDbLine
 10
268.9749762166621
 20
240.9659284573584
 30
0.0
 11
269.299090374358
 21
240.9659284573584
 31
0.0
  0
LINE
  5
208
330
56
100
AcDbEntity
  8
1
  6
Continuous
 62
     7
100
AcDbLine
 10
260.9279541121308
 20
228.9037795920367
 30
0.0
 11
267.3505704014634
 21
240.0280773226803
 31
0.0
  0
LINE
  5
209
330
56
100
AcDbEntity
  8
1
  6
PHANTOM
 62
     4
100
AcDbLine
 10
127.7573691027723
 20
413.3076338397303
 30
0.0
 11
146.7980009907714
 21
413.3076338397303
 31
0.0
  0
LINE
  5
20A
330
56
100
AcDbEntity
  8
1
  6
DOT_CENTER
 62
     2
100
AcDbLine
 10
127.7573691027723
 20
413.3076338397303
 30
0.0
 11
125.3313658382543
 21
413.3076338397303
 31
0.0
  0
LINE
  5
20B
330
56
100
AcDbEntity
  8
1
  6
Continuous
 62
     7
100
AcDbLine
 10
281.4960946376289
 20
240.9659284573584
 30
0.0
 11
281.8202087953274
 21
240.9659284573584
 31
0.0
  0
ARC
  5
20C
330
56
100
AcDbEntity
  8
1
  6
Continuous
 62
     7
100
AcDbCircle
 10
131.2572704266853
 20
403.8076338397303
 30
0.0
 40
4.999999999999958
100
AcDbArc
 50
225.572995999197
 51
315.0000000000026
  0
ARC
  5
20D
330
56
100
AcDbEntity
  8
1
  6
Continuous
 62
     7
100
AcDbCircle
 10
275.3975925059947
 20
227.9659284573584
 30
0.0
 40
14.50000000000005
100
AcDbArc
 50
356.2915552747301
 51
0.0
  0
ARC
  5
20E
330
56
100
AcDbEntity
  8
1
  6
Continuous
 62
     7
100
AcDbCircle
 10
275.3975925059947
 20
227.9659284573584
 30
0.0
 40
14.49999999999989
100
AcDbArc
 50
176.2915552747291
 51
180.0
  0
ARC
  5
20F
330
56
100
AcDbEntity
  8
1
  6
Continuous
 62
     7
100
AcDbCircle
 10
131.2572704266853
 20
422.8076338397303
 30
0.0
 40
5.000000000000181
100
AcDbArc
 50
44.99999999999931
 51
134.4270040008035
  0
ARC
  5
210
330
56
100
AcDbEntity
  8
1
  6
Continuous
 62
     7
100
AcDbCircle
 10
275.3975925059947
 20
227.9659284573584
 30
0.0
 40
14.5
100
AcDbArc
 50
180.0
 51
183.70844472527
  0
ARC
  5
211
330
56
100
AcDbEntity
  8
1
  6
Continuous
 62
     7
100
AcDbCircle
 10
275.3975925059947
 20
227.9659284573584
 30
0.0
 40
14.49999999999986
100
AcDbArc
 50
236.2915552747298
 51
243.7084447252707
  0
ARC
  5
212
330
56
100
AcDbEntity
  8
1
  6
Continuous
 62
     7
100
AcDbCircle
 10
275.3975925059947
 20
227.9659284573584
 30
0.0
 40
14.50000000000007
100
AcDbArc
 50
296.2915552747299
 51
303.7084447252709
  0
ARC
  5
213
330
56
100
AcDbEntity
  8
1
  6
Continuous
 62
     7
100
AcDbCircle
 10
275.3975925059947
 20
227.9659284573584
 30
0.0
 40
14.5
100
AcDbArc
 50
0.0
 51
3.70844472527085
  0
ARC
  5
214
330
56
100
AcDbEntity
  8
1
  6
Continuous
 62
     7
100
AcDbCircle
 10
275.3975925059947
 20
227.9659284573584
 30
0.0
 40
14.50000000000015
100
AcDbArc
 50
56.29155527472969
 51
63.70844472527008
  0
ARC
  5
215
330
56
100
AcDbEntity
  8
1
  6
Continuous
 62
     7
100
AcDbCircle
 10
275.3975925059947
 20
227.9659284573584
 30
0.0
 40
14.49999999999999
100
AcDbArc
 50
116.2915552747293
 51
123.7084447252698
  0
SPLINE
  5
216
330
56
100
AcDbEntity
  8
1
  6
Continuous
 62
     7
100
AcDbSpline
210
0.0
220
0.0
230
1.0
 70
     8
 71
     3
 72
    29
 73
    25
 74
    23
 42
0.000000001
 43
0.0000000001
 44
0.00000001
 40
0.0
 40
0.0
 40
0.0
 40
0.0
 40
0.6069077071334358
 40
1.212222618922074
 40
1.842666699980963
 40
2.474631891987724
 40
3.102420163135068
 40
3.729333881624576
 40
4.271042929453201
 40
4.812985317241478
 40
5.340107969104172
 40
5.866248914948783
 40
6.26387482444032
 40
6.661485222726708
 40
7.280966483141142
 40
7.902596723210277
 40
8.549168899022769
 40
9.195896755584927
 40
9.722415956712032
 40
10.2491183992392
 40
11.07897535377083
 40
11.90732205839657
 40
12.67331707894452
 40
13.44191268485679
 40
13.44191268485679
 40
13.44191268485679
 40
13.44191268485679
 10
134.7572704266853
 20
413.3076338397303
 30
0.0
 10
134.7473950533213
 20
413.509693667276
 30
0.0
 10
134.7276702121086
 20
413.9132830269533
 30
0.0
 10
134.6638798638872
 20
414.5249885750368
 30
0.0
 10
134.5296965661469
 20
415.1344056361793
 30
0.0
 10
134.3292409466203
 20
415.7328118111573
 30
0.0
 10
134.0706798303902
 20
416.3073743426312
 30
0.0
 10
133.7617504412858
 20
416.8222721399998
 30
0.0
 10
133.4079335173413
 20
417.2712910137558
 30
0.0
 10
133.0199088498243
 20
417.6452326160535
 30
0.0
 10
132.5829784467493
 20
417.9521985173606
 30
0.0
 10
132.142764480313
 20
418.1595071747997
 30
0.0
 10
131.7160553602605
 20
418.2754097630203
 30
0.0
 10
131.2451399184584
 20
418.3261129678979
 30
0.0
 10
130.6961653262176
 20
418.2656566446569
 30
0.0
 10
130.0984192608957
 20
418.0527094130274
 30
0.0
 10
129.5568170157553
 20
417.705472475875
 30
0.0
 10
129.1162090483653
 20
417.2841147502947
 30
0.0
 10
128.7663351253957
 20
416.8367012603146
 30
0.0
 10
128.4374247430542
 20
416.3008648747694
 30
0.0
 10
128.1336861226522
 20
415.6359738253836
 30
0.0
 10
127.9089162569359
 20
414.8563127647469
 30
0.0
 10
127.804529457545
 20
414.0739071486427
 30
0.0
 10
127.773106967039
 20
413.5633466824689
 30
0.0
 10
127.7573691027723
 20
413.3076338397303
 30
0.0
 11
134.7572704266853
 21
413.3076338397303
 31
0.0
 11
134.722069560923
 21
413.9135198614885
 31
0.0
 11
134.6537125688388
 21
414.5149626809699
 31
0.0
 11
134.5190360830145
 21
415.130853892711
 31
0.0
 11
134.3189711910694
 21
415.7303153542597
 31
0.0
 11
134.0595899528192
 21
416.3020141275799
 31
0.0
 11
133.7353699980412
 21
416.838579344593
 31
0.0
 11
133.3987608580601
 21
417.263011883372
 31
0.0
 11
133.0072704266853
 21
417.6377608586525
 31
0.0
 11
132.5749252654668
 21
417.9393167446125
 31
0.0
 11
132.0979228798507
 21
418.1613370584463
 31
0.0
 11
131.7140738497211
 21
418.2650977755895
 31
0.0
 11
131.3186623039068
 21
418.3068558734102
 31
0.0
 11
130.7025578496969
 21
418.2422622617888
 31
0.0
 11
130.1166236794201
 21
418.0346440916374
 31
0.0
 11
129.5700220455062
 21
417.6892714907824
 31
0.0
 11
129.1000460654258
 21
417.2449973641794
 31
0.0
 11
128.7745714178546
 21
416.8311269454048
 31
0.0
 11
128.4976659196749
 21
416.3830880981806
 31
0.0
 11
128.1527038314974
 21
415.6283273915432
 31
0.0
 11
127.9240263417511
 21
414.832171081155
 31
0.0
 11
127.8137062127364
 21
414.0741619505554
 31
0.0
 11
127.7573691027723
 21
413.3076338397303
 31
0.0
  0
SPLINE
  5
217
330
56
100
AcDbEntity
  8
1
  6
Continuous
 62
     7
100
AcDbSpline
210
0.0
220
0.0
230
1.0
 70
    11
 71
     3
 72
    79
 73
    75
 74
    73
 42
0.000000001
 43
0.0000000001
 44
0.00000001
 40
0.0
 40
0.0
 40
0.0
 40
0.0
 40
0.2803981055170699
 40
0.5607977780794449
 40
0.8427454767815301
 40
1.1246974659429
 40
1.409536444711997
 40
1.694381494092254
 40
1.983071303433851
 40
2.271767836809227
 40
2.564776135645461
 40
2.857790848031628
 40
3.15505569206352
 40
3.452325972452762
 40
3.7532848209096
 40
4.054247736388344
 40
4.357919800455265
 40
4.661594361771473
 40
4.966700742338134
 40
5.271807963175757
 40
5.576915184002916
 40
5.882021564538372
 40
6.185696125802557
 40
6.489368189795973
 40
6.790331105179765
 40
7.091289953518575
 40
7.388560233767327
 40
7.685825077633707
 40
7.978839789830444
 40
8.271848088449067
 40
8.560544621579684
 40
8.849234430642408
 40
9.134079479707264
 40
9.418918458106177
 40
9.700870446812742
 40
9.982818144856097
 40
10.26321781600882
 40
10.54361593035238
 40
10.82401404469595
 40
11.10441371584873
 40
11.38636141389192
 40
11.66831340259854
 40
11.95315238099745
 40
12.23799743006225
 40
12.52668723912498
 40
12.81538377225564
 40
13.10839207087428
 40
13.40140678307108
 40
13.69867162693728
 40
13.99594190718608
 40
14.29690075552494
 40
14.59786367090875
 40
14.9015357349022
 40
15.20521029616635
 40
15.51031667670181
 40
15.81542389752897
 40
16.12053111836659
 40
16.42563749893326
 40
16.72931206024945
 40
17.03298412431639
 40
17.33394703979512
 40
17.63490588825203
 40
17.93217616864127
 40
18.22944101267304
 40
18.5224557250592
 40
18.81546402389553
 40
19.10416055727095
 40
19.39285036661254
 40
19.67769541599279
 40
19.96253439476179
 40
20.24448638392316
 40
20.52643408262519
 40
20.80683375518762
 40
21.08723186070469
 40
21.08723186070469
 40
21.08723186070469
 40
21.08723186070469
 10
134.7572704266853
 20
424.565964088928
 30
0.0
 10
134.7546890408792
 20
424.6594646289703
 30
0.0
 10
134.7495262601746
 20
424.8464662317722
 30
0.0
 10
134.7080539116112
 20
425.1249506429653
 30
0.0
 10
134.6421537517695
 20
425.3988928401179
 30
0.0
 10
134.5499216428123
 20
425.6668210058867
 30
0.0
 10
134.4328394536834
 20
425.9258667937576
 30
0.0
 10
134.2913631722843
 20
426.1750260881741
 30
0.0
 10
134.127080826448
 20
426.4113361085884
 30
0.0
 10
133.9406206783693
 20
426.6341111027261
 30
0.0
 10
133.7341962035563
 20
426.8405671352319
 30
0.0
 10
133.5084785092328
 20
427.0301798790721
 30
0.0
 10
133.2661877109879
 20
427.2005790551909
 30
0.0
 10
133.008130218244
 20
427.3512918629865
 30
0.0
 10
132.7373030148513
 20
427.4805149996956
 30
0.0
 10
132.4547861614381
 20
427.5877946730607
 30
0.0
 10
132.1635981909232
 20
427.671949176794
 30
0.0
 10
131.8652194180818
 20
427.7325924508016
 30
0.0
 10
131.5624584462708
 20
427.7691262132483
 30
0.0
 10
131.2572704360882
 20
427.78134524416
 30
0.0
 10
130.9520824259036
 20
427.7691262135984
 30
0.0
 10
130.6493214540772
 20
427.7325924515028
 30
0.0
 10
130.3509426812342
 20
427.6719491778484
 30
0.0
 10
130.0597547106303
 20
427.5877946744713
 30
0.0
 10
129.7772378574141
 20
427.4805150014669
 30
0.0
 10
129.5064106531182
 20
427.3512918651235
 30
0.0
 10
129.2483531634916
 20
427.2005790576998
 30
0.0
 10
129.0060623534352
 20
427.0301798819606
 30
0.0
 10
128.7803447022734
 20
426.8405671385095
 30
0.0
 10
128.5739200672793
 20
426.6341111064029
 30
0.0
 10
128.3874605081313
 20
426.4113361126792
 30
0.0
 10
128.2231759804455
 20
426.1750260926973
 30
0.0
 10
128.0817077373974
 20
425.925866798743
 30
0.0
 10
127.9645957338137
 20
425.6668210113825
 30
0.0
 10
127.8724738153545
 20
425.3988928462487
 30
0.0
 10
127.8061640497969
 20
425.1249506500488
 30
0.0
 10
127.7662123847072
 20
424.8464662370121
 30
0.0
 10
127.7527994750863
 20
424.565964088928
 30
0.0
 10
127.7662123847072
 20
424.2854619408438
 30
0.0
 10
127.8061640497968
 20
424.0069775278072
 30
0.0
 10
127.8724738153546
 20
423.7330353316073
 30
0.0
 10
127.9645957338136
 20
423.4651071664736
 30
0.0
 10
128.0817077373974
 20
423.2060613791131
 30
0.0
 10
128.2231759804455
 20
422.9569020851588
 30
0.0
 10
128.3874605081313
 20
422.7205920651769
 30
0.0
 10
128.5739200672793
 20
422.4978170714533
 30
0.0
 10
128.7803447022734
 20
422.2913610393464
 30
0.0
 10
129.0060623534352
 20
422.1017482958954
 30
0.0
 10
129.2483531634916
 20
421.9313491201563
 30
0.0
 10
129.5064106531182
 20
421.780636312733
 30
0.0
 10
129.7772378574141
 20
421.651413176389
 30
0.0
 10
130.0597547106303
 20
421.5441335033848
 30
0.0
 10
130.3509426812343
 20
421.4599790000076
 30
0.0
 10
130.6493214540771
 20
421.3993357263534
 30
0.0
 10
130.9520824259036
 20
421.3628019642575
 30
0.0
 10
131.2572704360882
 20
421.350582933696
 30
0.0
 10
131.5624584462708
 20
421.3628019646076
 30
0.0
 10
131.8652194180818
 20
421.3993357270544
 30
0.0
 10
132.1635981909232
 20
421.4599790010621
 30
0.0
 10
132.4547861614381
 20
421.5441335047954
 30
0.0
 10
132.7373030148513
 20
421.6514131781605
 30
0.0
 10
133.0081302182439
 20
421.7806363148696
 30
0.0
 10
133.2661877109879
 20
421.9313491226655
 30
0.0
 10
133.5084785092329
 20
422.1017482987838
 30
0.0
 10
133.7341962035563
 20
422.2913610426238
 30
0.0
 10
133.9406206783693
 20
422.49781707513
 30
0.0
 10
134.1270808264479
 20
422.7205920692678
 30
0.0
 10
134.2913631722844
 20
422.9569020896819
 30
0.0
 10
134.4328394536834
 20
423.2060613840987
 30
0.0
 10
134.5499216428123
 20
423.4651071719692
 30
0.0
 10
134.6421537517695
 20
423.733035337738
 30
0.0
 10
134.7080539116112
 20
424.0069775348908
 30
0.0
 10
134.7495262601746
 20
424.2854619460836
 30
0.0
 10
134.7546890408792
 20
424.4724635488859
 30
0.0
 10
134.7572704266853
 20
424.565964088928
 30
0.0
 11
134.7572704266853
 21
424.565964088928
 31
0.0
 11
134.7439176413872
 21
424.8460440877976
 31
0.0
 11
134.704097562228
 21
425.1236018961763
 31
0.0
 11
134.6378379795041
 21
425.3976533005552
 31
0.0
 11
134.546194599436
 21
425.6642961608296
 31
0.0
 11
134.4289465991509
 21
425.9238845853657
 31
0.0
 11
134.2883593399309
 21
426.1716181612612
 31
0.0
 11
134.1236621445788
 21
426.4087186458702
 31
0.0
 11
133.9384259776017
 21
426.630153175205
 31
0.0
 11
133.7313331006865
 21
426.8374365645147
 31
0.0
 11
133.5070270605883
 21
427.0259688482923
 31
0.0
 11
133.2639322298875
 21
427.197057394866
 31
0.0
 11
133.0072704266853
 21
427.347038521589
 31
0.0
 11
132.7356822067142
 21
427.4767153014633
 31
0.0
 11
132.4543409283252
 21
427.5836066555406
 31
0.0
 11
132.1626234447798
 21
427.6679727168708
 31
0.0
 11
131.8650390485196
 21
427.7284852471066
 31
0.0
 11
131.5621333139853
 21
427.7650641956696
 31
0.0
 11
131.2572704266853
 21
427.7772722335943
 31
0.0
 11
130.9524075393854
 21
427.7650641956696
 31
0.0
 11
130.6495018048512
 21
427.7284852471066
 31
0.0
 11
130.351917408591
 21
427.6679727168709
 31
0.0
 11
130.0601999250456
 21
427.5836066555406
 31
0.0
 11
129.7788586466566
 21
427.4767153014633
 31
0.0
 11
129.5072704266855
 21
427.347038521589
 31
0.0
 11
129.2506086234834
 21
427.197057394866
 31
0.0
 11
129.0075137927826
 21
427.0259688482923
 31
0.0
 11
128.7832077526843
 21
426.8374365645147
 31
0.0
 11
128.5761148757691
 21
426.630153175205
 31
0.0
 11
128.390878708792
 21
426.4087186458702
 31
0.0
 11
128.2261815134399
 21
426.1716181612612
 31
0.0
 11
128.08559425422
 21
425.9238845853657
 31
0.0
 11
127.9683462539348
 21
425.6642961608297
 31
0.0
 11
127.8767028738666
 21
425.3976533005552
 31
0.0
 11
127.8104432911426
 21
425.1236018961763
 31
0.0
 11
127.7706232119835
 21
424.8460440877977
 31
0.0
 11
127.7572704266855
 21
424.565964088928
 31
0.0
 11
127.7706232119835
 21
424.2858840900583
 31
0.0
 11
127.8104432911426
 21
424.0083262816797
 31
0.0
 11
127.8767028738666
 21
423.7342748773009
 31
0.0
 11
127.9683462539348
 21
423.4676320170264
 31
0.0
 11
128.08559425422
 21
423.2080435924904
 31
0.0
 11
128.2261815134399
 21
422.9603100165949
 31
0.0
 11
128.390878708792
 21
422.723209531986
 31
0.0
 11
128.5761148757691
 21
422.5017750026511
 31
0.0
 11
128.7832077526843
 21
422.2944916133413
 31
0.0
 11
129.0075137927826
 21
422.1059593295637
 31
0.0
 11
129.2506086234834
 21
421.9348707829902
 31
0.0
 11
129.5072704266855
 21
421.7848896562672
 31
0.0
 11
129.7788586466566
 21
421.6552128763927
 31
0.0
 11
130.0601999250456
 21
421.5483215223154
 31
0.0
 11
130.351917408591
 21
421.4639554609851
 31
0.0
 11
130.6495018048512
 21
421.4034429307494
 31
0.0
 11
130.9524075393854
 21
421.3668639821864
 31
0.0
 11
131.2572704266853
 21
421.3546559442617
 31
0.0
 11
131.5621333139853
 21
421.3668639821864
 31
0.0
 11
131.8650390485196
 21
421.4034429307494
 31
0.0
 11
132.1626234447798
 21
421.4639554609851
 31
0.0
 11
132.4543409283252
 21
421.5483215223154
 31
0.0
 11
132.7356822067142
 21
421.6552128763928
 31
0.0
 11
133.0072704266853
 21
421.7848896562672
 31
0.0
 11
133.2639322298875
 21
421.9348707829901
 31
0.0
 11
133.5070270605883
 21
422.1059593295637
 31
0.0
 11
133.7313331006865
 21
422.2944916133412
 31
0.0
 11
133.9384259776017
 21
422.5017750026511
 31
0.0
 11
134.1236621445788
 21
422.723209531986
 31
0.0
 11
134.2883593399309
 21
422.9603100165949
 31
0.0
 11
134.4289465991509
 21
423.2080435924904
 31
0.0
 11
134.546194599436
 21
423.4676320170264
 31
0.0
 11
134.6378379795041
 21
423.7342748773008
 31
0.0
 11
134.704097562228
 21
424.0083262816797
 31
0.0
 11
134.7439176413872
 21
424.2858840900584
 31
0.0
 11
134.7572704266853
 21
424.565964088928
 31
0.0
  0
SPLINE
  5
218
330
56
100
AcDbEntity
  8
1
  6
Continuous
 62
     7
100
AcDbSpline
210
0.0
220
0.0
230
1.0
 70
    11
 71
     3
 72
    79
 73
    75
 74
    73
 42
0.000000001
 43
0.0000000001
 44
0.00000001
 40
0.0
 40
0.0
 40
0.0
 40
0.0
 40
0.2803981055170712
 40
0.5607977780794422
 40
0.8427454767815827
 40
1.124697465943006
 40
1.409536444712
 40
1.694381494092158
 40
1.983071303433725
 40
2.271767836809126
 40
2.56477613564546
 40
2.857790848031686
 40
3.155055692063401
 40
3.452325972452692
 40
3.753284820909582
 40
4.054247736388267
 40
4.35791980045525
 40
4.661594361771459
 40
4.966700742338107
 40
5.271807963175725
 40
5.576915184002877
 40
5.882021564538326
 40
6.185696125802534
 40
6.489368189795981
 40
6.790331105179768
 40
7.091289953518578
 40
7.388560233767351
 40
7.685825077633587
 40
7.978839789830404
 40
8.271848088449108
 40
8.560544621579725
 40
8.849234430642449
 40
9.13407947970722
 40
9.418918458106068
 40
9.700870446812742
 40
9.98281814485604
 40
10.26321781600865
 40
10.54361593035204
 40
10.82401404469561
 40
11.1044137158485
 40
11.38636141389191
 40
11.66831340259858
 40
11.95315238099749
 40
12.23799743006231
 40
12.52668723912498
 40
12.81538377225556
 40
13.10839207087424
 40
13.40140678307104
 40
13.69867162693734
 40
13.99594190718608
 40
14.29690075552489
 40
14.59786367090872
 40
14.90153573490216
 40
15.20521029616632
 40
15.51031667670178
 40
15.81542389752894
 40
16.12053111836656
 40
16.42563749893322
 40
16.72931206024944
 40
17.03298412431635
 40
17.33394703979513
 40
17.63490588825197
 40
17.93217616864118
 40
18.22944101267302
 40
18.52245572505924
 40
18.81546402389554
 40
19.10416055727083
 40
19.39285036661241
 40
19.67769541599267
 40
19.96253439476166
 40
20.24448638392319
 40
20.52643408262533
 40
20.80683375518765
 40
21.08723186070466
 40
21.08723186070466
 40
21.08723186070466
 40
21.08723186070466
 10
134.7572704266853
 20
402.0493035905327
 30
0.0
 10
134.7546890408792
 20
401.9558030504907
 30
0.0
 10
134.7495262601747
 20
401.7688014476885
 30
0.0
 10
134.7080539116111
 20
401.4903170364952
 30
0.0
 10
134.6421537517695
 20
401.2163748393428
 30
0.0
 10
134.5499216428123
 20
400.9484466735738
 30
0.0
 10
134.4328394536834
 20
400.6894008857034
 30
0.0
 10
134.2913631722843
 20
400.4402415912865
 30
0.0
 10
134.127080826448
 20
400.2039315708724
 30
0.0
 10
133.9406206783693
 20
399.9811565767348
 30
0.0
 10
133.7341962035563
 20
399.7747005442285
 30
0.0
 10
133.5084785092329
 20
399.5850878003886
 30
0.0
 10
133.2661877109878
 20
399.41468862427
 30
0.0
 10
133.008130218244
 20
399.2639758164744
 30
0.0
 10
132.7373030148512
 20
399.1347526797652
 30
0.0
 10
132.4547861614381
 20
399.0274730064003
 30
0.0
 10
132.1635981909232
 20
398.9433185026666
 30
0.0
 10
131.8652194180819
 20
398.882675228659
 30
0.0
 10
131.5624584462708
 20
398.8461414662124
 30
0.0
 10
131.2572704360882
 20
398.833922435301
 30
0.0
 10
130.9520824259037
 20
398.8461414658622
 30
0.0
 10
130.6493214540771
 20
398.8826752279578
 30
0.0
 10
130.3509426812343
 20
398.9433185016123
 30
0.0
 10
130.0597547106303
 20
399.0274730049896
 30
0.0
 10
129.7772378574142
 20
399.1347526779938
 30
0.0
 10
129.5064106531182
 20
399.2639758143375
 30
0.0
 10
129.2483531634916
 20
399.4146886217608
 30
0.0
 10
129.0060623534352
 20
399.5850877975
 30
0.0
 10
128.7803447022733
 20
399.7747005409511
 30
0.0
 10
128.5739200672793
 20
399.9811565730579
 30
0.0
 10
128.3874605081313
 20
400.2039315667818
 30
0.0
 10
128.2231759804455
 20
400.4402415867634
 30
0.0
 10
128.0817077373974
 20
400.6894008807177
 30
0.0
 10
127.9645957338136
 20
400.9484466680783
 30
0.0
 10
127.8724738153545
 20
401.2163748332119
 30
0.0
 10
127.8061640497969
 20
401.4903170294119
 30
0.0
 10
127.7662123847072
 20
401.7688014424484
 30
0.0
 10
127.7527994750863
 20
402.0493035905325
 30
0.0
 10
127.7662123847072
 20
402.3298057386168
 30
0.0
 10
127.8061640497968
 20
402.6082901516534
 30
0.0
 10
127.8724738153546
 20
402.8822323478534
 30
0.0
 10
127.9645957338136
 20
403.1501605129873
 30
0.0
 10
128.0817077373974
 20
403.4092063003475
 30
0.0
 10
128.2231759804455
 20
403.6583655943021
 30
0.0
 10
128.3874605081313
 20
403.8946756142836
 30
0.0
 10
128.5739200672794
 20
404.1174506080076
 30
0.0
 10
128.7803447022733
 20
404.323906640114
 30
0.0
 10
129.0060623534352
 20
404.5135193835654
 30
0.0
 10
129.2483531634915
 20
404.6839185593046
 30
0.0
 10
129.5064106531182
 20
404.8346313667279
 30
0.0
 10
129.7772378574142
 20
404.9638545030714
 30
0.0
 10
130.0597547106303
 20
405.071134176076
 30
0.0
 10
130.3509426812343
 20
405.1552886794531
 30
0.0
 10
130.6493214540772
 20
405.2159319531075
 30
0.0
 10
130.9520824259036
 20
405.252465715203
 30
0.0
 10
131.2572704360882
 20
405.2646847457647
 30
0.0
 10
131.5624584462708
 20
405.2524657148529
 30
0.0
 10
131.8652194180819
 20
405.2159319524065
 30
0.0
 10
132.1635981909231
 20
405.1552886783984
 30
0.0
 10
132.4547861614382
 20
405.0711341746654
 30
0.0
 10
132.7373030148514
 20
404.9638545013002
 30
0.0
 10
133.0081302182439
 20
404.834631364591
 30
0.0
 10
133.2661877109879
 20
404.6839185567954
 30
0.0
 10
133.5084785092329
 20
404.5135193806769
 30
0.0
 10
133.7341962035563
 20
404.3239066368367
 30
0.0
 10
133.9406206783693
 20
404.1174506043308
 30
0.0
 10
134.1270808264479
 20
403.8946756101928
 30
0.0
 10
134.2913631722844
 20
403.6583655897792
 30
0.0
 10
134.4328394536833
 20
403.409206295362
 30
0.0
 10
134.5499216428124
 20
403.1501605074915
 30
0.0
 10
134.6421537517694
 20
402.8822323417225
 30
0.0
 10
134.7080539116112
 20
402.60829014457
 30
0.0
 10
134.7495262601746
 20
402.3298057333769
 30
0.0
 10
134.7546890408792
 20
402.1428041305748
 30
0.0
 10
134.7572704266853
 20
402.0493035905327
 30
0.0
 11
134.7572704266853
 21
402.0493035905327
 31
0.0
 11
134.7439176413872
 21
401.7692235916631
 31
0.0
 11
134.704097562228
 21
401.4916657832844
 31
0.0
 11
134.6378379795041
 21
401.2176143789055
 31
0.0
 11
134.546194599436
 21
400.950971518631
 31
0.0
 11
134.4289465991509
 21
400.691383094095
 31
0.0
 11
134.2883593399309
 21
400.4436495181996
 31
0.0
 11
134.1236621445788
 21
400.2065490335907
 31
0.0
 11
133.9384259776017
 21
399.9851145042558
 31
0.0
 11
133.7313331006865
 21
399.777831114946
 31
0.0
 11
133.5070270605883
 21
399.5892988311683
 31
0.0
 11
133.2639322298875
 21
399.4182102845948
 31
0.0
 11
133.0072704266853
 21
399.2682291578718
 31
0.0
 11
132.7356822067141
 21
399.1385523779975
 31
0.0
 11
132.4543409283252
 21
399.0316610239202
 31
0.0
 11
132.1626234447798
 21
398.9472949625898
 31
0.0
 11
131.8650390485196
 21
398.886782432354
 31
0.0
 11
131.5621333139853
 21
398.8502034837911
 31
0.0
 11
131.2572704266853
 21
398.8379954458665
 31
0.0
 11
130.9524075393854
 21
398.8502034837911
 31
0.0
 11
130.6495018048512
 21
398.886782432354
 31
0.0
 11
130.351917408591
 21
398.9472949625898
 31
0.0
 11
130.0601999250456
 21
399.0316610239202
 31
0.0
 11
129.7788586466566
 21
399.1385523779975
 31
0.0
 11
129.5072704266855
 21
399.2682291578718
 31
0.0
 11
129.2506086234834
 21
399.4182102845947
 31
0.0
 11
129.0075137927826
 21
399.5892988311683
 31
0.0
 11
128.7832077526843
 21
399.777831114946
 31
0.0
 11
128.5761148757691
 21
399.9851145042558
 31
0.0
 11
128.390878708792
 21
400.2065490335906
 31
0.0
 11
128.2261815134399
 21
400.4436495181996
 31
0.0
 11
128.08559425422
 21
400.691383094095
 31
0.0
 11
127.9683462539348
 21
400.950971518631
 31
0.0
 11
127.8767028738666
 21
401.2176143789055
 31
0.0
 11
127.8104432911426
 21
401.4916657832844
 31
0.0
 11
127.7706232119835
 21
401.7692235916629
 31
0.0
 11
127.7572704266855
 21
402.0493035905324
 31
0.0
 11
127.7706232119835
 21
402.3293835894021
 31
0.0
 11
127.8104432911426
 21
402.6069413977809
 31
0.0
 11
127.8767028738666
 21
402.8809928021599
 31
0.0
 11
127.9683462539348
 21
403.1476356624344
 31
0.0
 11
128.08559425422
 21
403.4072240869704
 31
0.0
 11
128.2261815134399
 21
403.6549576628659
 31
0.0
 11
128.390878708792
 21
403.8920581474748
 31
0.0
 11
128.5761148757691
 21
404.1134926768096
 31
0.0
 11
128.7832077526843
 21
404.3207760661194
 31
0.0
 11
129.0075137927826
 21
404.509308349897
 31
0.0
 11
129.2506086234834
 21
404.6803968964707
 31
0.0
 11
129.5072704266855
 21
404.8303780231936
 31
0.0
 11
129.7788586466566
 21
404.9600548030679
 31
0.0
 11
130.0601999250456
 21
405.0669461571453
 31
0.0
 11
130.351917408591
 21
405.1513122184756
 31
0.0
 11
130.6495018048512
 21
405.2118247487113
 31
0.0
 11
130.9524075393854
 21
405.2484036972743
 31
0.0
 11
131.2572704266853
 21
405.260611735199
 31
0.0
 11
131.5621333139853
 21
405.2484036972743
 31
0.0
 11
131.8650390485196
 21
405.2118247487113
 31
0.0
 11
132.1626234447798
 21
405.1513122184755
 31
0.0
 11
132.4543409283252
 21
405.0669461571453
 31
0.0
 11
132.7356822067142
 21
404.9600548030679
 31
0.0
 11
133.0072704266853
 21
404.8303780231936
 31
0.0
 11
133.2639322298875
 21
404.6803968964707
 31
0.0
 11
133.5070270605883
 21
404.509308349897
 31
0.0
 11
133.7313331006865
 21
404.3207760661194
 31
0.0
 11
133.9384259776017
 21
404.1134926768096
 31
0.0
 11
134.1236621445788
 21
403.8920581474748
 31
0.0
 11
134.2883593399309
 21
403.6549576628659
 31
0.0
 11
134.4289465991509
 21
403.4072240869704
 31
0.0
 11
134.546194599436
 21
403.1476356624344
 31
0.0
 11
134.637837979504
 21
402.8809928021598
 31
0.0
 11
134.704097562228
 21
402.6069413977809
 31
0.0
 11
134.7439176413872
 21
402.3293835894023
 31
0.0
 11
134.7572704266853
 21
402.0493035905327
 31
0.0
  0
SPLINE
  5
219
330
56
100
AcDbEntity
  8
1
  6
Continuous
 62
     7
100
AcDbSpline
210
0.0
220
0.0
230
1.0
 70
     8
 71
     3
 72
    29
 73
    25
 74
    23
 42
0.000000001
 43
0.0000000001
 44
0.00000001
 40
0.0
 40
0.0
 40
0.0
 40
0.0
 40
0.606907707133379
 40
1.212222618922017
 40
1.842666699980851
 40
2.474631891987558
 40
3.10242016313485
 40
3.729333881624358
 40
4.271042929453072
 40
4.812985317241388
 40
5.34010796910405
 40
5.866248914948637
 40
6.263874824440199
 40
6.661485222726537
 40
7.280966483140949
 40
7.90259672321011
 40
8.549168899022572
 40
9.195896755584613
 40
9.722415956711718
 40
10.24911839923899
 40
11.07897535377075
 40
11.90732205839645
 40
12.67331707894434
 40
13.44191268485639
 40
13.44191268485639
 40
13.44191268485639
 40
13.44191268485639
 10
134.7572704266853
 20
413.3076338397303
 30
0.0
 10
134.7473950533213
 20
413.1055740121847
 30
0.0
 10
134.7276702121086
 20
412.7019846525075
 30
0.0
 10
134.6638798638873
 20
412.0902791044235
 30
0.0
 10
134.5296965661469
 20
411.4808620432816
 30
0.0
 10
134.3292409466202
 20
410.8824558683034
 30
0.0
 10
134.0706798303902
 20
410.3078933368296
 30
0.0
 10
133.7617504412858
 20
409.7929955394608
 30
0.0
 10
133.4079335173413
 20
409.343976665705
 30
0.0
 10
133.0199088498243
 20
408.970035063407
 30
0.0
 10
132.5829784467493
 20
408.6630691621002
 30
0.0
 10
132.142764480313
 20
408.4557605046608
 30
0.0
 10
131.7160553602605
 20
408.3398579164406
 30
0.0
 10
131.2451399184584
 20
408.2891547115629
 30
0.0
 10
130.6961653262176
 20
408.3496110348038
 30
0.0
 10
130.0984192608958
 20
408.5625582664336
 30
0.0
 10
129.5568170157553
 20
408.9097952035857
 30
0.0
 10
129.1162090483653
 20
409.3311529291659
 30
0.0
 10
128.7663351253956
 20
409.778566419146
 30
0.0
 10
128.4374247430542
 20
410.3144028046914
 30
0.0
 10
128.1336861226523
 20
410.9792938540772
 30
0.0
 10
127.9089162569358
 20
411.7589549147139
 30
0.0
 10
127.804529457545
 20
412.5413605308181
 30
0.0
 10
127.773106967039
 20
413.0519209969918
 30
0.0
 10
127.7573691027723
 20
413.3076338397303
 30
0.0
 11
134.7572704266853
 21
413.3076338397303
 31
0.0
 11
134.722069560923
 21
412.7017478179721
 31
0.0
 11
134.6537125688388
 21
412.1003049984907
 31
0.0
 11
134.5190360830145
 21
411.4844137867497
 31
0.0
 11
134.3189711910694
 21
410.884952325201
 31
0.0
 11
134.0595899528192
 21
410.3132535518808
 31
0.0
 11
133.7353699980412
 21
409.7766883348678
 31
0.0
 11
133.3987608580601
 21
409.3522557960887
 31
0.0
 11
133.0072704266853
 21
408.9775068208081
 31
0.0
 11
132.5749252654668
 21
408.6759509348482
 31
0.0
 11
132.0979228798507
 21
408.4539306210144
 31
0.0
 11
131.714073849721
 21
408.3501699038713
 31
0.0
 11
131.3186623039068
 21
408.3084118060506
 31
0.0
 11
130.7025578496969
 21
408.373005417672
 31
0.0
 11
130.1166236794201
 21
408.5806235878234
 31
0.0
 11
129.5700220455062
 21
408.9259961886784
 31
0.0
 11
129.1000460654258
 21
409.3702703152812
 31
0.0
 11
128.7745714178546
 21
409.7841407340558
 31
0.0
 11
128.4976659196749
 21
410.2321795812801
 31
0.0
 11
128.1527038314974
 21
410.9869402879177
 31
0.0
 11
127.9240263417511
 21
411.7830965983058
 31
0.0
 11
127.8137062127364
 21
412.5411057289053
 31
0.0
 11
127.7573691027723
 21
413.3076338397303
 31
0.0
  0
SPLINE
  5
21A
330
56
100
AcDbEntity
  8
1
  6
Continuous
 62
     7
100
AcDbSpline
210
0.0
220
0.0
230
1.0
 70
    11
 71
     3
 72
    79
 73
    75
 74
    73
 42
0.000000001
 43
0.0000000001
 44
0.00000001
 40
0.0
 40
0.0
 40
0.0
 40
0.0
 40
0.3102615582249602
 40
0.6205595420816021
 40
0.9422162975284025
 40
1.263944872753469
 40
1.606039020844619
 40
1.948193468906612
 40
2.316051885190128
 40
2.683951048239681
 40
3.079084664080122
 40
3.474244780173499
 40
3.894897959207252
 40
4.31556820749385
 40
4.757452126736168
 40
5.199346674241363
 40
5.656354161986762
 40
6.113367478657791
 40
6.578223037732911
 40
7.043080455842503
 40
7.507937873950073
 40
7.972793433018439
 40
8.429806749677262
 40
8.886814237403174
 40
9.328708784879923
 40
9.770592704080867
 40
10.19126295231224
 40
10.6119161312689
 40
11.00707624726285
 40
11.40220986296842
 40
11.77010902584957
 40
12.13796744190963
 40
12.48012188969593
 40
12.82221603741857
 40
13.14394461216097
 40
13.46560136682447
 40
13.77589934864111
 40
14.08616091447213
 40
14.39642248030328
 40
14.70672046211998
 40
15.02837721678333
 40
15.35010579152555
 40
15.69219993924843
 40
16.03435438703487
 40
16.40221280309482
 40
16.77011196597593
 40
17.16524558168156
 40
17.56040569767551
 40
17.98105887663211
 40
18.40172912486343
 40
18.84361304406454
 40
19.28550759154145
 40
19.74251507926731
 40
20.19952839592615
 40
20.66438395499446
 40
21.12924137310189
 40
21.59409879121154
 40
22.0589543502867
 40
22.51596766695778
 40
22.97297515470327
 40
23.41486970220849
 40
23.85675362145077
 40
24.27742386973733
 40
24.69807704877112
 40
25.09323716486441
 40
25.48837078070478
 40
25.85626994375436
 40
26.22412836003786
 40
26.56628280809985
 40
26.90837695619109
 40
27.23010553141593
 40
27.55176228686258
 40
27.86206027071969
 40
28.17232182894507
 40
28.17232182894507
 40
28.17232182894507
 40
28.17232182894507
 10
131.2925288577338
 20
228.9037795920369
 30
0.0
 10
131.3960190396559
 20
228.9078127837529
 30
0.0
 10
131.6030115540004
 20
228.9158796324237
 30
0.0
 10
131.9118604220229
 20
228.9798636102331
 30
0.0
 10
132.2138273357569
 20
229.0812844065304
 30
0.0
 10
132.5107369918718
 20
229.2237069066283
 30
0.0
 10
132.7950551002319
 20
229.4028094793882
 30
0.0
 10
133.0705561465284
 20
229.6207797472488
 30
0.0
 10
133.329162167197
 20
229.8710619012837
 30
0.0
 10
133.57492005681
 20
230.1575240630553
 30
0.0
 10
133.8005653170046
 20
230.4713548153426
 30
0.0
 10
134.0093369848922
 20
230.817268980374
 30
0.0
 10
134.1955577531637
 20
231.1853877725244
 30
0.0
 10
134.3612422835103
 20
231.5800817074412
 30
0.0
 10
134.50255005636
 20
231.9916349074131
 30
0.0
 10
134.6203295449344
 20
232.4230606070077
 30
0.0
 10
134.712447846573
 20
232.8658346357181
 30
0.0
 10
134.7789337739661
 20
233.320892634312
 30
0.0
 10
134.8189913308762
 20
233.7816597363931
 30
0.0
 10
134.8323332881714
 20
234.2465819118241
 30
0.0
 10
134.8189913309547
 20
234.7115040872511
 30
0.0
 10
134.7789337741272
 20
235.1722711893439
 30
0.0
 10
134.7124478468256
 20
235.6273291878961
 30
0.0
 10
134.6203295452907
 20
236.0701032167609
 30
0.0
 10
134.5025500568379
 20
236.5015289158026
 30
0.0
 10
134.3612422841301
 20
236.9130821178014
 30
0.0
 10
134.195557753953
 20
237.3077760455237
 30
0.0
 10
134.0093369858792
 20
237.6758948637459
 30
0.0
 10
133.8005653182266
 20
238.0218089371688
 30
0.0
 10
133.5749200583037
 20
238.3356400191069
 30
0.0
 10
133.3291621690123
 20
238.6221010315798
 30
0.0
 10
133.0705561487135
 20
238.8723873106529
 30
0.0
 10
132.7950551028572
 20
239.0903432086599
 30
0.0
 10
132.510736995018
 20
239.2694975223991
 30
0.0
 10
132.2138273396056
 20
239.4117378737869
 30
0.0
 10
131.9118604270962
 20
239.5138215258268
 30
0.0
 10
131.6030115579497
 20
239.5754147657548
 30
0.0
 10
131.2925288577338
 20
239.5963685692164
 30
0.0
 10
130.9820461575177
 20
239.5754147657549
 30
0.0
 10
130.6731972883713
 20
239.5138215258271
 30
0.0
 10
130.371230375862
 20
239.4117378737868
 30
0.0
 10
130.0743207204497
 20
239.2694975223991
 30
0.0
 10
129.7900026126103
 20
239.09034320866
 30
0.0
 10
129.5145015667538
 20
238.8723873106531
 30
0.0
 10
129.2558955464548
 20
238.6221010315802
 30
0.0
 10
129.0101376571636
 20
238.3356400191072
 30
0.0
 10
128.7844923972409
 20
238.021808937169
 30
0.0
 10
128.5757207295885
 20
237.6758948637459
 30
0.0
 10
128.3894999615147
 20
237.3077760455237
 30
0.0
 10
128.2238154313374
 20
236.9130821178015
 30
0.0
 10
128.0825076586295
 20
236.5015289158027
 30
0.0
 10
127.9647281701767
 20
236.0701032167609
 30
0.0
 10
127.8726098686415
 20
235.627329187896
 30
0.0
 10
127.8061239413398
 20
235.1722711893439
 30
0.0
 10
127.7660663845123
 20
234.7115040872511
 30
0.0
 10
127.7527244272958
 20
234.2465819118243
 30
0.0
 10
127.7660663845909
 20
233.7816597363933
 30
0.0
 10
127.8061239415009
 20
233.3208926343121
 30
0.0
 10
127.8726098688941
 20
232.8658346357182
 30
0.0
 10
127.964728170533
 20
232.4230606070077
 30
0.0
 10
128.0825076591074
 20
231.9916349074132
 30
0.0
 10
128.223815431957
 20
231.5800817074411
 30
0.0
 10
128.3894999623035
 20
231.1853877725244
 30
0.0
 10
128.5757207305748
 20
230.8172689803739
 30
0.0
 10
128.7844923984626
 20
230.4713548153427
 30
0.0
 10
129.0101376586571
 20
230.1575240630553
 30
0.0
 10
129.25589554827
 20
229.8710619012838
 30
0.0
 10
129.5145015689386
 20
229.6207797472488
 30
0.0
 10
129.7900026152351
 20
229.4028094793883
 30
0.0
 10
130.0743207235953
 20
229.2237069066283
 30
0.0
 10
130.37123037971
 20
229.0812844065305
 30
0.0
 10
130.673197293444
 20
228.979863610233
 30
0.0
 10
130.9820461614667
 20
228.9158796324236
 30
0.0
 10
131.1890386758116
 20
228.907812783753
 30
0.0
 10
131.2925288577338
 20
228.9037795920369
 30
0.0
 11
131.2925288577338
 21
228.9037795920369
 31
0.0
 11
131.6021046558702
 21
228.9243966852377
 31
0.0
 11
131.9064371767892
 21
228.9849487646356
 31
0.0
 11
132.2113365120526
 21
229.0874156532675
 31
0.0
 11
132.5016922022234
 21
229.2259899981965
 31
0.0
 11
132.7914853329148
 21
229.4077820425538
 31
0.0
 11
133.0602074113013
 21
229.61957937681
 31
0.0
 11
133.3249957550703
 21
229.8749358870838
 31
0.0
 11
133.5650126020177
 21
230.153757886373
 31
0.0
 11
133.7961305343429
 21
230.474249813998
 31
0.0
 11
134.000769524096
 21
230.81229478318
 31
0.0
 11
134.1910358566872
 21
231.1874585070241
 31
0.0
 11
134.3542379239629
 21
231.5751807568568
 31
0.0
 11
134.4980231945449
 21
231.9930170813182
 31
0.0
 11
134.614677843152
 21
232.4192359031328
 31
0.0
 11
134.7079412448514
 21
232.8666258692227
 31
0.0
 11
134.7741759465076
 21
233.3188140335003
 31
0.0
 11
134.8145009352743
 21
233.7819172467126
 31
0.0
 11
134.8278859648692
 21
234.2465819216769
 31
0.0
 11
134.8145009352743
 21
234.7112465966413
 31
0.0
 11
134.7741759465076
 21
235.1743498098537
 31
0.0
 11
134.7079412448514
 21
235.6265379741314
 31
0.0
 11
134.614677843152
 21
236.0739279402213
 31
0.0
 11
134.498023194545
 21
236.5001467620357
 31
0.0
 11
134.3542379239631
 21
236.9179830864968
 31
0.0
 11
134.1910358566875
 21
237.3057053363298
 31
0.0
 11
134.0007695240964
 21
237.680869060174
 31
0.0
 11
133.7961305343431
 21
238.018914029356
 31
0.0
 11
133.5650126020177
 21
238.3394059569809
 31
0.0
 11
133.3249957550703
 21
238.6182279562701
 31
0.0
 11
133.0602074113014
 21
238.873584466544
 31
0.0
 11
132.7914853329152
 21
239.0853818008002
 31
0.0
 11
132.501692202224
 21
239.2671738451574
 31
0.0
 11
132.2113365120532
 21
239.4057481900863
 31
0.0
 11
131.9064371767896
 21
239.5082150787182
 31
0.0
 11
131.6021046558704
 21
239.5687671581163
 31
0.0
 11
131.2925288577338
 21
239.5893842513171
 31
0.0
 11
130.9829530595971
 21
239.5687671581164
 31
0.0
 11
130.6786205386778
 21
239.5082150787183
 31
0.0
 11
130.3737212034144
 21
239.4057481900863
 31
0.0
 11
130.0833655132438
 21
239.2671738451574
 31
0.0
 11
129.7935723825523
 21
239.0853818008003
 31
0.0
 11
129.5248503041658
 21
238.8735844665442
 31
0.0
 11
129.2600619603968
 21
238.6182279562704
 31
0.0
 11
129.0200451134496
 21
238.3394059569812
 31
0.0
 11
128.7889271811244
 21
238.0189140293561
 31
0.0
 11
128.5842881913713
 21
237.680869060174
 31
0.0
 11
128.3940218587802
 21
237.3057053363298
 31
0.0
 11
128.2308197915044
 21
236.917983086497
 31
0.0
 11
128.0870345209224
 21
236.5001467620357
 31
0.0
 11
127.9703798723153
 21
236.0739279402212
 31
0.0
 11
127.8771164706157
 21
235.6265379741314
 31
0.0
 11
127.8108817689594
 21
235.1743498098537
 31
0.0
 11
127.7705567801928
 21
234.7112465966414
 31
0.0
 11
127.7571717505979
 21
234.2465819216771
 31
0.0
 11
127.7705567801927
 21
233.7819172467128
 31
0.0
 11
127.8108817689594
 21
233.3188140335004
 31
0.0
 11
127.8771164706157
 21
232.8666258692228
 31
0.0
 11
127.9703798723153
 21
232.4192359031328
 31
0.0
 11
128.0870345209225
 21
231.9930170813182
 31
0.0
 11
128.2308197915044
 21
231.5751807568568
 31
0.0
 11
128.39402185878
 21
231.1874585070241
 31
0.0
 11
128.5842881913711
 21
230.8122947831799
 31
0.0
 11
128.7889271811242
 21
230.4742498139981
 31
0.0
 11
129.0200451134494
 21
230.1537578863731
 31
0.0
 11
129.2600619603968
 21
229.8749358870838
 31
0.0
 11
129.5248503041657
 21
229.61957937681
 31
0.0
 11
129.7935723825522
 21
229.4077820425538
 31
0.0
 11
130.0833655132437
 21
229.2259899981965
 31
0.0
 11
130.3737212034142
 21
229.0874156532676
 31
0.0
 11
130.6786205386775
 21
228.9849487646356
 31
0.0
 11
130.982953059597
 21
228.9243966852376
 31
0.0
 11
131.2925288577338
 21
228.9037795920369
 31
0.0
  0
SPLINE
  5
21B
330
56
100
AcDbEntity
  8
1
  6
Continuous
 62
     7
100
AcDbSpline
210
0.0
220
0.0
230
1.0
 70
    11
 71
     3
 72
    79
 73
    75
 74
    73
 42
0.000000001
 43
0.0000000001
 44
0.00000001
 40
0.0
 40
0.0
 40
0.0
 40
0.0
 40
0.3102615582252098
 40
0.6205595420821193
 40
0.9422162975288116
 40
1.263944872753726
 40
1.606039020844894
 40
1.94819346890695
 40
2.316051885190543
 40
2.683951048240089
 40
3.079084664080467
 40
3.474244780173737
 40
3.894897959207503
 40
4.315568207494139
 40
4.757452126736339
 40
5.199346674241484
 40
5.656354161987061
 40
6.113367478658239
 40
6.578223037733308
 40
7.043080455842762
 40
7.50793787395022
 40
7.972793433018588
 40
8.429806749677535
 40
8.886814237403582
 40
9.328708784880408
 40
9.770592704081498
 40
10.19126295231279
 40
10.61191613126937
 40
11.00707624726319
 40
11.40220986296863
 40
11.77010902584979
 40
12.13796744190982
 40
12.4801218896963
 40
12.82221603741916
 40
13.14394461216141
 40
13.46560136682469
 40
13.77589934864149
 40
14.08616091447273
 40
14.39642248030361
 40
14.70672046212009
 40
15.02837721678337
 40
15.35010579152563
 40
15.69219993924856
 40
16.03435438703502
 40
16.40221280309499
 40
16.77011196597616
 40
17.16524558168168
 40
17.56040569767551
 40
17.98105887663225
 40
18.40172912486364
 40
18.84361304406481
 40
19.28550759154171
 40
19.74251507926761
 40
20.19952839592639
 40
20.66438395499462
 40
21.12924137310193
 40
21.59409879121158
 40
22.05895435028676
 40
22.5159676669578
 40
22.9729751547032
 40
23.41486970220848
 40
23.85675362145081
 40
24.27742386973744
 40
24.69807704877124
 40
25.09323716486449
 40
25.48837078070477
 40
25.85626994375435
 40
26.2241283600379
 40
26.56628280810001
 40
26.90837695619135
 40
27.23010553141619
 40
27.55176228686299
 40
27.86206027071981
 40
28.17232182894487
 40
28.17232182894487
 40
28.17232182894487
 40
28.17232182894487
 10
131.2925288577335
 20
227.0280773226802
 30
0.0
 10
131.3960190396556
 20
227.0240441309643
 30
0.0
 10
131.6030115540004
 20
227.0159772822934
 30
0.0
 10
131.911860422023
 20
226.9519933044841
 30
0.0
 10
132.2138273357571
 20
226.8505725081868
 30
0.0
 10
132.5107369918718
 20
226.708150008089
 30
0.0
 10
132.7950551002321
 20
226.5290474353291
 30
0.0
 10
133.0705561465285
 20
226.3110771674685
 30
0.0
 10
133.329162167197
 20
226.0607950134335
 30
0.0
 10
133.5749200568099
 20
225.7743328516617
 30
0.0
 10
133.8005653170044
 20
225.4605020993744
 30
0.0
 10
134.0093369848922
 20
225.1145879343432
 30
0.0
 10
134.1955577531637
 20
224.7464691421929
 30
0.0
 10
134.3612422835103
 20
224.3517752072761
 30
0.0
 10
134.5025500563599
 20
223.9402220073042
 30
0.0
 10
134.6203295449342
 20
223.5087963077095
 30
0.0
 10
134.7124478465728
 20
223.0660222789989
 30
0.0
 10
134.778933773966
 20
222.6109642804051
 30
0.0
 10
134.8189913308761
 20
222.1501971783239
 30
0.0
 10
134.8323332881715
 20
221.6852750028931
 30
0.0
 10
134.8189913309547
 20
221.2203528274661
 30
0.0
 10
134.7789337741272
 20
220.7595857253735
 30
0.0
 10
134.7124478468255
 20
220.3045277268211
 30
0.0
 10
134.6203295452905
 20
219.8617536979562
 30
0.0
 10
134.5025500568377
 20
219.4303279989145
 30
0.0
 10
134.3612422841297
 20
219.0187747969157
 30
0.0
 10
134.1955577539525
 20
218.6240808691934
 30
0.0
 10
134.0093369858789
 20
218.2559620509712
 30
0.0
 10
133.8005653182263
 20
217.9100479775483
 30
0.0
 10
133.5749200583036
 20
217.5962168956102
 30
0.0
 10
133.3291621690122
 20
217.3097558831375
 30
0.0
 10
133.0705561487132
 20
217.0594696040645
 30
0.0
 10
132.7950551028568
 20
216.8415137060574
 30
0.0
 10
132.5107369950175
 20
216.662359392318
 30
0.0
 10
132.2138273396052
 20
216.5201190409304
 30
0.0
 10
131.9118604270959
 20
216.4180353888902
 30
0.0
 10
131.6030115579494
 20
216.3564421489625
 30
0.0
 10
131.2925288577333
 20
216.3354883455009
 30
0.0
 10
130.9820461575175
 20
216.3564421489627
 30
0.0
 10
130.6731972883711
 20
216.4180353888905
 30
0.0
 10
130.3712303758619
 20
216.5201190409306
 30
0.0
 10
130.0743207204494
 20
216.6623593923181
 30
0.0
 10
129.7900026126101
 20
216.8415137060573
 30
0.0
 10
129.5145015667535
 20
217.059469604064
 30
0.0
 10
129.2558955464546
 20
217.3097558831371
 30
0.0
 10
129.0101376571635
 20
217.5962168956103
 30
0.0
 10
128.7844923972406
 20
217.9100479775482
 30
0.0
 10
128.5757207295881
 20
218.2559620509712
 30
0.0
 10
128.3894999615142
 20
218.6240808691934
 30
0.0
 10
128.2238154313372
 20
219.0187747969158
 30
0.0
 10
128.0825076586294
 20
219.4303279989147
 30
0.0
 10
127.9647281701766
 20
219.8617536979565
 30
0.0
 10
127.8726098686416
 20
220.3045277268214
 30
0.0
 10
127.8061239413398
 20
220.7595857253735
 30
0.0
 10
127.7660663845123
 20
221.2203528274661
 30
0.0
 10
127.7527244272955
 20
221.685275002893
 30
0.0
 10
127.7660663845907
 20
222.1501971783239
 30
0.0
 10
127.8061239415009
 20
222.6109642804051
 30
0.0
 10
127.872609868894
 20
223.0660222789989
 30
0.0
 10
127.9647281705327
 20
223.5087963077095
 30
0.0
 10
128.0825076591072
 20
223.940222007304
 30
0.0
 10
128.2238154319567
 20
224.351775207276
 30
0.0
 10
128.3894999623035
 20
224.7464691421928
 30
0.0
 10
128.5757207305747
 20
225.1145879343432
 30
0.0
 10
128.7844923984625
 20
225.4605020993745
 30
0.0
 10
129.010137658657
 20
225.7743328516617
 30
0.0
 10
129.25589554827
 20
226.0607950134334
 30
0.0
 10
129.5145015689385
 20
226.3110771674684
 30
0.0
 10
129.790002615235
 20
226.529047435329
 30
0.0
 10
130.0743207235952
 20
226.7081500080892
 30
0.0
 10
130.3712303797101
 20
226.8505725081867
 30
0.0
 10
130.6731972934442
 20
226.9519933044841
 30
0.0
 10
130.9820461614667
 20
227.0159772822934
 30
0.0
 10
131.1890386758114
 20
227.0240441309642
 30
0.0
 10
131.2925288577335
 20
227.0280773226802
 30
0.0
 11
131.2925288577335
 21
227.0280773226802
 31
0.0
 11
131.6021046558702
 21
227.0074602294795
 31
0.0
 11
131.9064371767894
 21
226.9469081500815
 31
0.0
 11
132.2113365120528
 21
226.8444412614497
 31
0.0
 11
132.5016922022234
 21
226.7058669165208
 31
0.0
 11
132.7914853329149
 21
226.5240748721635
 31
0.0
 11
133.0602074113014
 21
226.3122775379073
 31
0.0
 11
133.3249957550703
 21
226.0569210276333
 31
0.0
 11
133.5650126020176
 21
225.778099028344
 31
0.0
 11
133.7961305343428
 21
225.457607100719
 31
0.0
 11
134.0007695240959
 21
225.1195621315372
 31
0.0
 11
134.1910358566871
 21
224.7443984076932
 31
0.0
 11
134.3542379239629
 21
224.3566761578604
 31
0.0
 11
134.4980231945448
 21
223.9388398333991
 31
0.0
 11
134.6146778431518
 21
223.5126210115845
 31
0.0
 11
134.7079412448513
 21
223.0652310454944
 31
0.0
 11
134.7741759465075
 21
222.6130428812167
 31
0.0
 11
134.8145009352743
 21
222.1499396680044
 31
0.0
 11
134.8278859648693
 21
221.6852749930403
 31
0.0
 11
134.8145009352743
 21
221.220610318076
 31
0.0
 11
134.7741759465076
 21
220.7575071048636
 31
0.0
 11
134.7079412448514
 21
220.3053189405858
 31
0.0
 11
134.6146778431518
 21
219.8579289744958
 31
0.0
 11
134.4980231945447
 21
219.4317101526813
 31
0.0
 11
134.3542379239627
 21
219.0138738282201
 31
0.0
 11
134.1910358566871
 21
218.6261515783873
 31
0.0
 11
134.000769524096
 21
218.2509878545431
 31
0.0
 11
133.7961305343428
 21
217.9129428853612
 31
0.0
 11
133.5650126020176
 21
217.5924509577363
 31
0.0
 11
133.3249957550702
 21
217.3136289584472
 31
0.0
 11
133.0602074113012
 21
217.0582724481733
 31
0.0
 11
132.7914853329148
 21
216.8464751139171
 31
0.0
 11
132.5016922022234
 21
216.6646830695598
 31
0.0
 11
132.2113365120528
 21
216.5261087246309
 31
0.0
 11
131.9064371767894
 21
216.423641835999
 31
0.0
 11
131.60210465587
 21
216.3630897566009
 31
0.0
 11
131.2925288577332
 21
216.3424726634002
 31
0.0
 11
130.9829530595968
 21
216.3630897566011
 31
0.0
 11
130.6786205386777
 21
216.4236418359992
 31
0.0
 11
130.3737212034143
 21
216.5261087246311
 31
0.0
 11
130.0833655132436
 21
216.6646830695598
 31
0.0
 11
129.7935723825521
 21
216.8464751139169
 31
0.0
 11
129.5248503041655
 21
217.058272448173
 31
0.0
 11
129.2600619603967
 21
217.3136289584469
 31
0.0
 11
129.0200451134494
 21
217.5924509577362
 31
0.0
 11
128.7889271811241
 21
217.9129428853611
 31
0.0
 11
128.5842881913709
 21
218.250987854543
 31
0.0
 11
128.3940218587798
 21
218.6261515783873
 31
0.0
 11
128.2308197915042
 21
219.0138738282203
 31
0.0
 11
128.0870345209223
 21
219.4317101526817
 31
0.0
 11
127.9703798723152
 21
219.8579289744962
 31
0.0
 11
127.8771164706157
 21
220.3053189405861
 31
0.0
 11
127.8108817689594
 21
220.7575071048637
 31
0.0
 11
127.7705567801927
 21
221.220610318076
 31
0.0
 11
127.7571717505977
 21
221.6852749930401
 31
0.0
 11
127.7705567801926
 21
222.1499396680044
 31
0.0
 11
127.8108817689593
 21
222.6130428812168
 31
0.0
 11
127.8771164706156
 21
223.0652310454944
 31
0.0
 11
127.9703798723151
 21
223.5126210115843
 31
0.0
 11
128.0870345209222
 21
223.938839833399
 31
0.0
 11
128.2308197915042
 21
224.3566761578604
 31
0.0
 11
128.39402185878
 21
224.7443984076932
 31
0.0
 11
128.5842881913711
 21
225.1195621315373
 31
0.0
 11
128.7889271811242
 21
225.4576071007191
 31
0.0
 11
129.0200451134493
 21
225.778099028344
 31
0.0
 11
129.2600619603967
 21
226.0569210276333
 31
0.0
 11
129.5248503041656
 21
226.3122775379072
 31
0.0
 11
129.7935723825521
 21
226.5240748721635
 31
0.0
 11
130.0833655132437
 21
226.7058669165209
 31
0.0
 11
130.3737212034143
 21
226.8444412614497
 31
0.0
 11
130.6786205386778
 21
226.9469081500815
 31
0.0
 11
130.982953059597
 21
227.0074602294794
 31
0.0
 11
131.2925288577335
 21
227.0280773226802
 31
0.0
  0
ARC
  5
21C
330
56
100
AcDbEntity
  8
1
  6
Continuous
 62
     7
100
AcDbCircle
 10
140.5708802495835
 20
239.4659284573586
 30
0.0
 40
2.999999999999924
100
AcDbArc
 50
224.9999999999996
 51
269.9999999999984
  0
ARC
  5
21D
330
56
100
AcDbEntity
  8
1
  6
Continuous
 62
     7
100
AcDbCircle
 10
145.2571717505987
 20
235.4659284573586
 30
0.0
 40
0.9999999999998863
100
AcDbArc
 50
359.9999999999886
 51
90.0000000000114
  0
ARC
  5
21E
330
56
100
AcDbEntity
  8
1
  6
Continuous
 62
     7
100
AcDbCircle
 10
145.2571717505984
 20
220.4659284573583
 30
0.0
 40
1.0
100
AcDbArc
 50
270.0000000000065
 51
0.0
  0
ARC
  5
21F
330
56
100
AcDbEntity
  8
1
  6
Continuous
 62
     7
100
AcDbCircle
 10
140.570880249583
 20
216.4659284573583
 30
0.0
 40
3.0
100
AcDbArc
 50
89.99999999999622
 51
134.9999999999962
  0
ARC
  5
220
330
56
100
AcDbEntity
  8
1
  6
Continuous
 62
     7
100
AcDbCircle
 10
140.5709789256702
 20
401.8076338397304
 30
0.0
 40
3.0
100
AcDbArc
 50
90.0
 51
135.0
  0
ARC
  5
221
330
56
100
AcDbEntity
  8
1
  6
Continuous
 62
     7
100
AcDbCircle
 10
145.2572704266853
 20
405.8076338397304
 30
0.0
 40
1.0
100
AcDbArc
 50
270.0
 51
0.0
  0
ARC
  5
222
330
56
100
AcDbEntity
  8
1
  6
Continuous
 62
     7
100
AcDbCircle
 10
145.2572704266853
 20
420.8076338397303
 30
0.0
 40
1.0
100
AcDbArc
 50
0.0
 51
90.0
  0
ARC
  5
223
330
56
100
AcDbEntity
  8
1
  6
Continuous
 62
     7
100
AcDbCircle
 10
140.5709789256702
 20
424.8076338397303
 30
0.0
 40
2.999999999999904
100
AcDbArc
 50
224.9999999999992
 51
270.0
  0
ENDBLK
  5
58
330
56
100
AcDbEntity
  8
0
100
AcDbBlockEnd
  0
BLOCK
  5
5C
330
59
100
AcDbEntity
  8
0
100
AcDbBlockBegin
  2
U360S-13
 70
     0
 10
125.3312671621673
 20
212.4692317143606
 30
0.0
  3
U360S-13
  1

  0
INSERT
  5
5A
330
59
100
AcDbEntity
  8
1
100
AcDbBlockReference
  2
36-190-M11
 10
426.2434153957991
 20
1003.802331807142
 30
0.0
  0
INSERT
  5
5B
330
59
100
AcDbEntity
  8
1
100
AcDbBlockReference
  2
37-119
 10
623.9661316756567
 20
740.9902526749138
 30
0.0
  0
LINE
  5
224
330
59
100
AcDbEntity
  8
1
  6
PHANTOM
 62
     4
100
AcDbLine
 10
161.356742993677
 20
413.3076338397303
 30
0.0
 11
144.578395856966
 21
413.3076338397303
 31
0.0
  0
ENDBLK
  5
5D
330
59
100
AcDbEntity
  8
0
100
AcDbBlockEnd
  0
BLOCK
  5
5F
330
5E
100
AcDbEntity
  8
0
100
AcDbBlockBegin
  2
41-1-15
 70
     0
 10
-60.03491981398878
 20
408.4314168557878
 30
0.0
  3
41-1-15
  1

  0
LINE
  5
225
330
5E
100
AcDbEntity
  8
1
  6
Continuous
 62
     7
100
AcDbLine
 10
109.5027263044977
 20
409.7996616159693
 30
0.0
 11
109.5027263044977
 21
416.8156060634904
 31
0.0
  0
LINE
  5
226
330
5E
100
AcDbEntity
  8
1
  6
Continuous
 62
     7
100
AcDbLine
 10
107.2527263044977
 20
419.6201547761569
 30
0.0
 11
107.2527263044977
 21
406.9951129033028
 31
0.0
  0
ENDBLK
  5
60
330
5E
100
AcDbEntity
  8
0
100
AcDbBlockEnd
  0
BLOCK
  5
62
330
61
100
AcDbEntity
  8
0
100
AcDbBlockBegin
  2
91-1
 70
     0
 10
363.5424153963568
 20
40.56044027156428
 30
0.0
  3
91-1
  1

  0
LINE
  5
227
330
61
100
AcDbEntity
  8
1
  6
Continuous
 62
     7
100
AcDbLine
 10
104.2527263044977
 20
420.3076338397302
 30
0.0
 11
104.2527263044977
 21
406.3076338397302
 31
0.0
  0
LINE
  5
228
330
61
100
AcDbEntity
  8
1
  6
Continuous
 62
     7
100
AcDbLine
 10
107.2527263044977
 20
406.9951129033028
 30
0.0
 11
107.2527263044977
 21
419.6201547761569
 31
0.0
  0
LINE
  5
229
330
61
100
AcDbEntity
  8
1
  6
Continuous
 62
     7
100
AcDbLine
 10
106.2325062687449
 20
420.3076338397302
 30
0.0
 11
104.2527263044977
 21
420.3076338397302
 31
0.0
  0
LINE
  5
22A
330
61
100
AcDbEntity
  8
1
  6
Continuous
 62
     7
100
AcDbLine
 10
104.2527263044977
 20
406.3076338397302
 30
0.0
 11
106.2325062687463
 21
406.3076338397302
 31
0.0
  0
ENDBLK
  5
63
330
61
100
AcDbEntity
  8
0
100
AcDbBlockEnd
  0
BLOCK
  5
67
330
64
100
AcDbEntity
  8
0
100
AcDbBlockBegin
  2
P82A-15
 70
     0
 10
104.2527263044977
 20
406.3076338397302
 30
0.0
  3
P82A-15
  1

  0
INSERT
  5
65
330
64
100
AcDbEntity
  8
0
100
AcDbBlockReference
  2
41-1-15
 10
-60.03491981398878
 20
408.4314168557878
 30
0.0
  0
INSERT
  5
66
330
64
100
AcDbEntity
  8
0
100
AcDbBlockReference
  2
91-1
 10
363.5424153963568
 20
40.56044027156428
 30
0.0
  0
ENDBLK
  5
68
330
64
100
AcDbEntity
  8
0
100
AcDbBlockEnd
  0
BLOCK
  5
249
330
242
100
AcDbEntity
  8
0
100
AcDbBlockBegin
  2
*D11
 70
     1
 10
0.0
 20
0.0
 30
0.0
  3
*D11
  1

  0
LINE
  5
243
330
242
100
AcDbEntity
  8
1
  6
Continuous
 62
     2
100
AcDbLine
 10
354.397592505994
 20
250.9659284573587
 30
0.0
 11
354.397592505994
 21
204.9659284573588
 31
0.0
  0
LINE
  5
244
330
242
100
AcDbEntity
  8
1
  6
Continuous
 62
     2
100
AcDbLine
 10
320.397592505994
 20
204.9659284573588
 30
0.0
 11
356.397592505994
 21
204.9659284573588
 31
0.0
  0
LINE
  5
245
330
242
100
AcDbEntity
  8
1
  6
Continuous
 62
     2
100
AcDbLine
 10
320.397592505994
 20
250.9659284573587
 30
0.0
 11
356.397592505994
 21
250.9659284573587
 31
0.0
  0
SOLID
  5
246
330
242
100
AcDbEntity
  8
1
 62
     2
100
AcDbTrace
 10
355.3191599891057
 20
243.9659284573587
 30
0.0
 11
353.4760250228823
 21
243.9659284573587
 31
0.0
 12
354.397592505994
 22
250.9659284573587
 32
0.0
 13
354.397592505994
 23
250.9659284573587
 33
0.0
  0
SOLID
  5
247
330
242
100
AcDbEntity
  8
1
 62
     2
100
AcDbTrace
 10
353.4760250228823
 20
211.9659284573588
 30
0.0
 11
355.3191599891057
 21
211.9659284573588
 31
0.0
 12
354.397592505994
 22
204.9659284573588
 32
0.0
 13
354.397592505994
 23
204.9659284573588
 33
0.0
  0
MTEXT
  5
248
330
242
100
AcDbEntity
  8
1
 62
     7
100
AcDbMText
 10
352.397592505994
 20
221.1759284573583
 30
0.0
 40
7.0
 41
0.0
 71
     7
 72
     1
  1
\C7;{\Fgdt;n}\C7;46
  7
CONVERTER_12
 11
0.0
 21
1.0
 31
0.0
 73
     1
 44
0.60024009603842
  0
ENDBLK
  5
24A
330
242
100
AcDbEntity
  8
0
100
AcDbBlockEnd
  0
BLOCK
  5
254
330
24D
100
AcDbEntity
  8
0
100
AcDbBlockBegin
  2
*D12
 70
     1
 10
0.0
 20
0.0
 30
0.0
  3
*D12
  1

  0
LINE
  5
24E
330
24D
100
AcDbEntity
  8
1
  6
Continuous
 62
     2
100
AcDbLine
 10
275.3975925059934
 20
185.1703734996244
 30
0.0
 11
320.397592505994
 21
185.1703734996244
 31
0.0
  0
LINE
  5
24F
330
24D
100
AcDbEntity
  8
1
  6
Continuous
 62
     2
100
AcDbLine
 10
320.397592505994
 20
204.9659284573588
 30
0.0
 11
320.397592505994
 21
183.1703734996244
 31
0.0
  0
LINE
  5
250
330
24D
100
AcDbEntity
  8
1
  6
Continuous
 62
     2
100
AcDbLine
 10
275.3975925059934
 20
208.9659284573584
 30
0.0
 11
275.3975925059934
 21
183.1703734996244
 31
0.0
  0
SOLID
  5
251
330
24D
100
AcDbEntity
  8
1
 62
     2
100
AcDbTrace
 10
282.3975925059934
 20
186.0919409827362
 30
0.0
 11
282.3975925059934
 21
184.2488060165126
 31
0.0
 12
275.3975925059934
 22
185.1703734996244
 32
0.0
 13
275.3975925059934
 23
185.1703734996244
 33
0.0
  0
SOLID
  5
252
330
24D
100
AcDbEntity
  8
1
 62
     2
100
AcDbTrace
 10
313.397592505994
 20
184.2488060165126
 30
0.0
 11
313.397592505994
 21
186.0919409827362
 31
0.0
 12
320.397592505994
 22
185.1703734996244
 32
0.0
 13
320.397592505994
 23
185.1703734996244
 33
0.0
  0
MTEXT
  5
253
330
24D
100
AcDbEntity
  8
1
 62
     7
100
AcDbMText
 10
292.647592505994
 20
187.1703734996244
 30
0.0
 40
7.0
 41
0.0
 71
     7
 72
     1
  1
45
  7
CONVERTER_12
 11
0.9999999999970619
 21
2.424068405545306E-6
 31
0.0
 73
     1
 44
0.60024009603842
  0
ENDBLK
  5
255
330
24D
100
AcDbEntity
  8
0
100
AcDbBlockEnd
  0
BLOCK
  5
25F
330
258
100
AcDbEntity
  8
0
100
AcDbBlockBegin
  2
*D13
 70
     1
 10
0.0
 20
0.0
 30
0.0
  3
*D13
  1

  0
LINE
  5
259
330
258
100
AcDbEntity
  8
1
  6
Continuous
 62
     2
100
AcDbLine
 10
207.2527263044975
 20
302.9659284573585
 30
0.0
 11
207.2527263044975
 21
227.9659284573588
 31
0.0
  0
LINE
  5
25A
330
258
100
AcDbEntity
  8
1
  6
Continuous
 62
     2
100
AcDbLine
 10
181.5527263044976
 20
227.9659284573588
 30
0.0
 11
209.2527263044975
 21
227.9659284573588
 31
0.0
  0
LINE
  5
25B
330
258
100
AcDbEntity
  8
1
  6
Continuous
 62
     2
100
AcDbLine
 10
178.2527263044975
 20
302.9659284573585
 30
0.0
 11
209.2527263044975
 21
302.9659284573585
 31
0.0
  0
SOLID
  5
25C
330
258
100
AcDbEntity
  8
1
 62
     2
100
AcDbTrace
 10
208.1742937876093
 20
295.9659284573585
 30
0.0
 11
206.3311588213857
 21
295.9659284573585
 31
0.0
 12
207.2527263044975
 22
302.9659284573585
 32
0.0
 13
207.2527263044975
 23
302.9659284573585
 33
0.0
  0
SOLID
  5
25D
330
258
100
AcDbEntity
  8
1
 62
     2
100
AcDbTrace
 10
206.3311588213857
 20
234.9659284573588
 30
0.0
 11
208.1742937876093
 21
234.9659284573588
 31
0.0
 12
207.2527263044975
 22
227.9659284573588
 32
0.0
 13
207.2527263044975
 23
227.9659284573588
 33
0.0
  0
MTEXT
  5
25E
330
258
100
AcDbEntity
  8
1
 62
     7
100
AcDbMText
 10
205.2527263044975
 20
260.2159284573584
 30
0.0
 40
7.0
 41
0.0
 71
     7
 72
     1
  1
75
  7
CONVERTER_12
 11
0.0
 21
1.0
 31
0.0
 73
     1
 44
0.60024009603842
  0
ENDBLK
  5
260
330
258
100
AcDbEntity
  8
0
100
AcDbBlockEnd
  0
BLOCK
  5
26A
330
263
100
AcDbEntity
  8
0
100
AcDbBlockBegin
  2
*D14
 70
     1
 10
0.0
 20
0.0
 30
0.0
  3
*D14
  1

  0
LINE
  5
264
330
263
100
AcDbEntity
  8
1
  6
Continuous
 62
     2
100
AcDbLine
 10
102.2572704266855
 20
185.1703734996244
 30
0.0
 11
192.2527263044975
 21
185.1703734996244
 31
0.0
  0
LINE
  5
265
330
263
100
AcDbEntity
  8
1
  6
Continuous
 62
     2
100
AcDbLine
 10
192.2527263044975
 20
288.9659284573585
 30
0.0
 11
192.2527263044975
 21
183.1703734996244
 31
0.0
  0
LINE
  5
266
330
263
100
AcDbEntity
  8
1
  6
Continuous
 62
     2
100
AcDbLine
 10
102.2572704266855
 20
197.4659284573584
 30
0.0
 11
102.2572704266855
 21
183.1703734996244
 31
0.0
  0
SOLID
  5
267
330
263
100
AcDbEntity
  8
1
 62
     2
100
AcDbTrace
 10
109.2572704266855
 20
186.0919409827362
 30
0.0
 11
109.2572704266855
 21
184.2488060165126
 31
0.0
 12
102.2572704266855
 22
185.1703734996244
 32
0.0
 13
102.2572704266855
 23
185.1703734996244
 33
0.0
  0
SOLID
  5
268
330
263
100
AcDbEntity
  8
1
 62
     2
100
AcDbTrace
 10
185.2527263044975
 20
184.2488060165126
 30
0.0
 11
185.2527263044975
 21
186.0919409827362
 31
0.0
 12
192.2527263044975
 22
185.1703734996244
 32
0.0
 13
192.2527263044975
 23
185.1703734996244
 33
0.0
  0
MTEXT
  5
269
330
263
100
AcDbEntity
  8
1
 62
     7
100
AcDbMText
 10
127.007022628409
 20
187.1703734996244
 30
0.0
 40
7.0
 41
0.0
 71
     7
 72
     1
  1
90リフト3
  7
CONVERTER_11
 11
0.9999999999970619
 21
2.424068405545306E-6
 31
0.0
 73
     1
 44
0.45454545454545
  0
ENDBLK
  5
26B
330
263
100
AcDbEntity
  8
0
100
AcDbBlockEnd
  0
BLOCK
  5
275
330
26E
100
AcDbEntity
  8
0
100
AcDbBlockBegin
  2
*D15
 70
     1
 10
0.0
 20
0.0
 30
0.0
  3
*D15
  1

  0
LINE
  5
26F
330
26E
100
AcDbEntity
  8
1
  6
Continuous
 62
     2
100
AcDbLine
 10
334.397592505994
 20
185.1703734996244
 30
0.0
 11
320.397592505994
 21
185.1703734996244
 31
0.0
  0
LINE
  5
270
330
26E
100
AcDbEntity
  8
1
  6
Continuous
 62
     2
100
AcDbLine
 10
348.397592505994
 20
185.1703734996244
 30
0.0
 11
334.397592505994
 21
185.1703734996244
 31
0.0
  0
LINE
  5
271
330
26E
100
AcDbEntity
  8
1
  6
Continuous
 62
     2
100
AcDbLine
 10
334.397592505994
 20
218.4659284573587
 30
0.0
 11
334.397592505994
 21
183.1703734996244
 31
0.0
  0
LINE
  5
272
330
26E
100
AcDbEntity
  8
1
  6
Continuous
 62
     2
100
AcDbLine
 10
320.397592505994
 20
204.9659284573588
 30
0.0
 11
320.397592505994
 21
183.1703734996244
 31
0.0
  0
SOLID
  5
273
330
26E
100
AcDbEntity
  8
1
 62
     2
100
AcDbTrace
 10
341.397592505994
 20
186.0919409827362
 30
0.0
 11
341.397592505994
 21
184.2488060165126
 31
0.0
 12
334.397592505994
 22
185.1703734996244
 32
0.0
 13
334.397592505994
 23
185.1703734996244
 33
0.0
  0
MTEXT
  5
274
330
26E
100
AcDbEntity
  8
1
 62
     7
100
AcDbMText
 10
324.018640598137
 20
187.1703734996244
 30
0.0
 40
7.0
 41
0.0
 71
     7
 72
     1
  1
14
  7
CONVERTER_12
 11
0.9999999999970619
 21
2.424068405545306E-6
 31
0.0
 73
     1
 44
0.60024009603842
  0
ENDBLK
  5
276
330
26E
100
AcDbEntity
  8
0
100
AcDbBlockEnd
  0
BLOCK
  5
278
330
277
100
AcDbEntity
  8
0
100
AcDbBlockBegin
  2
_NONE
 70
     0
 10
0.0
 20
0.0
 30
0.0
  3
_NONE
  1

  0
ENDBLK
  5
279
330
277
100
AcDbEntity
  8
0
100
AcDbBlockEnd
  0
ENDSEC
  0
SECTION
  2
ENTITIES
  0
INSERT
  5
69
330
1F
100
AcDbEntity
  8
1
100
AcDbBlockReference
  2
A231-0-13-M1
 10
135.2572704266855
 20
204.9659284573584
 30
0.0
  0
INSERT
  5
6A
330
1F
100
AcDbEntity
  8
1
100
AcDbBlockReference
  2
42-29
 10
325.2237530811045
 20
501.9970761096863
 30
0.0
  0
INSERT
  5
6B
330
1F
100
AcDbEntity
  8
1
100
AcDbBlockReference
  2
開示A4
 10
0.0
 20
0.0
 30
0.0
 41
2.0
 42
2.0
 43
2.0
  0
INSERT
  5
6C
330
1F
100
AcDbEntity
  8
1
100
AcDbBlockReference
  2
27-2A-M1
 10
668.8403318129679
 20
474.8357924145271
 30
0.0
  0
INSERT
  5
6D
330
1F
100
AcDbEntity
  8
1
100
AcDbBlockReference
  2
U360S-13
 10
125.3312671621673
 20
212.4692317143606
 30
0.0
  0
INSERT
  5
6E
330
1F
100
AcDbEntity
  8
1
100
AcDbBlockReference
  2
P82A-15
 10
104.2527263044977
 20
406.3076338397302
 30
0.0
  0
LINE
  5
22B
330
1F
100
AcDbEntity
  8
1
  6
DASH_CENTER
 62
     2
100
AcDbLine
 10
102.2572704266855
 20
197.4659284573584
 30
0.0
 11
102.2572704266855
 21
266.4659284573588
 31
0.0
  0
LINE
  5
22C
330
1F
100
AcDbEntity
  8
0
  6
DASH_CENTER
 62
     2
100
AcDbLine
 10
181.5527263044976
 20
227.9659284573587
 30
0.0
 11
76.2572704266855
 21
227.9659284573585
 31
0.0
  0
LINE
  5
22D
330
1F
100
AcDbEntity
  8
1
  6
DASH_CENTER
 62
     2
100
AcDbLine
 10
102.2572704266855
 20
478.3076338397295
 30
0.0
 11
102.2572704266855
 21
393.6594360408476
 31
0.0
  0
LINE
  5
22E
330
1F
100
AcDbEntity
  8
1
  6
DASH_CENTER
 62
     2
100
AcDbLine
 10
275.3975925059934
 20
208.9659284573584
 30
0.0
 11
275.3975925059934
 21
302.9659284573584
 31
0.0
  0
LINE
  5
22F
330
1F
100
AcDbEntity
  8
1
  6
DASH_CENTER
 62
     2
100
AcDbLine
 10
275.3975925059934
 20
302.9659284573584
 30
0.0
 11
275.3975925059934
 21
305.9659284573584
 31
0.0
  0
LINE
  5
230
330
1F
100
AcDbEntity
  8
1
  6
DASH_CENTER
 62
     2
100
AcDbLine
 10
82.76910723014271
 20
413.3076338397302
 30
0.0
 11
198.2527263044975
 21
413.3076338397301
 31
0.0
  0
LINE
  5
231
330
1F
100
AcDbEntity
  8
1
  6
DASH_CENTER
 62
     2
100
AcDbLine
 10
198.2527263044975
 20
288.9659284573585
 30
0.0
 11
158.2527263044975
 21
288.9659284573585
 31
0.0
  0
LINE
  5
232
330
1F
100
AcDbEntity
  8
1
  6
DASH_CENTER
 62
     2
100
AcDbLine
 10
178.2527263044975
 20
270.2375806569615
 30
0.0
 11
178.2527263044975
 21
308.9659284573585
 31
0.0
  0
LINE
  5
233
330
1F
100
AcDbEntity
  8
1
  6
DASH_CENTER
 62
     2
100
AcDbLine
 10
267.3975925059934
 20
288.9659284573584
 30
0.0
 11
283.3975925059934
 21
288.9659284573584
 31
0.0
  0
LINE
  5
234
330
1F
100
AcDbEntity
  8
1
  6
DASH_CENTER
 62
     2
100
AcDbLine
 10
178.2527263044975
 20
421.3076338397301
 30
0.0
 11
178.2527263044975
 21
405.3076338397301
 31
0.0
  0
LINE
  5
235
330
1F
100
AcDbEntity
  8
1
  6
DASH_CENTER
 62
     2
100
AcDbLine
 10
254.8975925059948
 20
227.9659284573584
 30
0.0
 11
340.397592505994
 21
227.9659284573583
 31
0.0
  0
SOLID
  5
236
330
1F
100
AcDbEntity
  8
1
 62
     2
100
AcDbTrace
 10
258.0994916543175
 20
258.7606946309988
 30
0.0
 11
259.6956933576705
 21
259.6822621141106
 31
0.0
 12
262.397592505994
 22
253.1593005460636
 32
0.0
 13
262.397592505994
 23
253.1593005460636
 33
0.0
  0
LEADER
  5
237
330
1F
100
AcDbEntity
  8
1
  6
Continuous
 62
     2
100
AcDbLeader
  3
Standard
 71
     0
 76
     3
 10
262.397592505994
 20
253.1593005460636
 30
0.0
 10
250.9425593353534
 20
273.0
 30
0.0
 10
211.8413146128154
 20
273.0
 30
0.0
  0
SOLID
  5
238
330
1F
100
AcDbEntity
  8
1
 62
     2
100
AcDbTrace
 10
115.4591695750096
 20
471.3305954077764
 30
0.0
 11
117.0553712783625
 21
470.4090279246646
 31
0.0
 12
112.757270426686
 22
464.8076338397295
 32
0.0
 13
112.757270426686
 23
464.8076338397295
 33
0.0
  0
LEADER
  5
239
330
1F
100
AcDbEntity
  8
1
  6
Continuous
 62
     2
100
AcDbLeader
  3
Standard
 71
     0
 76
     3
 10
112.757270426686
 20
464.8076338397295
 30
0.0
 10
125.2918607485995
 20
486.5181811293448
 30
0.0
 10
152.373464907703
 20
486.5181811293448
 30
0.0
  0
MTEXT
  5
23A
330
1F
100
AcDbEntity
  8
0
 62
     7
100
AcDbMText
 10
68.0
 20
68.00000000000001
 30
0.0
 40
7.0
 41
0.0
 71
     4
 72
     1
  1
共用形
  7
CONVERTER_11
 73
     1
 44
1.0
  0
MTEXT
  5
23B
330
1F
100
AcDbEntity
  8
1
 62
     7
100
AcDbMText
 10
231.5569648767274
 20
279.0
 30
0.0
 40
7.0
 41
0.0
 71
     5
 72
     1
  1
W26山20
  7
CONVERTER_11
 73
     1
 44
0.54545454545455
  0
MTEXT
  5
23D
330
1F
100
AcDbEntity
  8
1
 62
     7
100
AcDbMText
 10
187.5
 20
34.0
 30
0.0
 40
7.0
 41
0.0
 71
     5
 72
     1
  1
2
  7
CONVERTER_12
 73
     1
 44
0.7202881152461
  0
MTEXT
  5
23E
330
1F
100
AcDbEntity
  8
1
 62
     7
100
AcDbMText
 10
170.5
 20
34.0
 30
0.0
 40
7.0
 41
0.0
 71
     5
 72
     1
  1
1
  7
CONVERTER_12
 73
     1
 44
0.7202881152461
  0
MTEXT
  5
23F
330
1F
100
AcDbEntity
  8
1
 62
     7
100
AcDbMText
 10
138.8326628281513
 20
492.5181811293448
 30
0.0
 40
7.0
 41
0.0
 71
     5
 72
     1
  1
PJ1/2
  7
CONVERTER_12
 73
     1
 44
1.32052821128451
  0
MTEXT
  5
240
330
1F
100
AcDbEntity
  8
1
 62
     7
100
AcDbMText
 10
114.0
 20
28.5
 30
0.0
 40
7.0
 41
0.0
 71
     5
 72
     1
  1
A2310F-13
  7
CONVERTER_12
 73
     1
 44
0.7202881152461
  0
MTEXT
  5
241
330
1F
100
AcDbEntity
  8
1
 62
     7
100
AcDbMText
 10
114.0
 20
45.50000000000002
 30
0.0
 40
7.0
 41
0.0
 71
     5
 72
     1
  1
厨房用横形自在水栓本体
  7
CONVERTER_11
 73
     1
 44
0.54545454545455
  0
DIMENSION
  5
24C
330
1F
100
AcDbEntity
  8
1
100
AcDbDimension
  2
*D11
 10
354.397592505994
 20
250.9659284573587
 30
0.0
 11
348.897592505994
 21
227.9659284573583
 31
0.0
 70
    32
  1
<>
 71
     5
 42
-1.0
 53
90.0
  3
ME10_DIM_10
100
AcDbAlignedDimension
 13
320.397592505994
 23
204.9659284573588
 33
0.0
 14
320.397592505994
 24
250.9659284573587
 34
0.0
 50
90.0
100
AcDbRotatedDimension
  0
DIMENSION
  5
257
330
1F
100
AcDbEntity
  8
1
100
AcDbDimension
  2
*D12
 10
275.3975925059934
 20
185.1703734996244
 30
0.0
 11
297.897592505994
 21
190.6703734996244
 31
0.0
 70
    32
  1
<>
 71
     5
 42
-1.0
 53
0.00013888888889
  3
ME10_DIM_11
100
AcDbAlignedDimension
 13
320.397592505994
 23
204.9659284573588
 33
0.0
 14
275.3975925059934
 24
208.9659284573584
 34
0.0
100
AcDbRotatedDimension
  0
DIMENSION
  5
262
330
1F
100
AcDbEntity
  8
1
100
AcDbDimension
  2
*D13
 10
207.2527263044975
 20
302.9659284573585
 30
0.0
 11
201.7527263044975
 21
265.4659284573584
 31
0.0
 70
    32
  1
<>
 71
     5
 42
-1.0
 53
90.0
  3
ME10_DIM_12
100
AcDbAlignedDimension
 13
181.5527263044976
 23
227.9659284573587
 33
0.0
 14
178.2527263044975
 24
302.9659284573585
 34
0.0
 50
90.0
100
AcDbRotatedDimension
  0
DIMENSION
  5
26D
330
1F
100
AcDbEntity
  8
1
100
AcDbDimension
  2
*D14
 10
102.2572704266855
 20
185.1703734996244
 30
0.0
 11
145.907022628409
 21
190.6703734996244
 31
0.0
 70
    32
  1
90リフト3
 71
     5
 42
-1.0
 53
0.00013888888889
  3
ME10_DIM_13
100
AcDbAlignedDimension
 13
192.2527263044975
 23
288.9659284573585
 33
0.0
 14
102.2572704266855
 24
197.4659284573584
 34
0.0
100
AcDbRotatedDimension
  0
DIMENSION
  5
27B
330
1F
100
AcDbEntity
  8
1
100
AcDbDimension
  2
*D15
 10
334.397592505994
 20
185.1703734996244
 30
0.0
 11
328.218640598137
 21
190.6703734996244
 31
0.0
 70
    32
  1
<>
 71
     5
 42
-1.0
 53
0.00013888888889
  3
ME10_DIM_14
100
AcDbAlignedDimension
 13
320.397592505994
 23
204.9659284573588
 33
0.0
 14
334.397592505994
 24
218.4659284573587
 34
0.0
100
AcDbRotatedDimension
  0
ENDSEC
  0
SECTION
  2
OBJECTS
  0
DICTIONARY
  5
C
330
0
100
AcDbDictionary
281
     1
  3
ACAD_GROUP
350
D
  3
ACAD_LAYOUT
350
1A
  3
ACAD_MATERIAL
350
3B
  3
ACAD_MLEADERSTYLE
350
27E
  3
ACAD_MLINESTYLE
350
17
  3
ACAD_PLOTSETTINGS
350
19
  3
ACAD_PLOTSTYLENAME
350
E
  3
ACAD_VISUALSTYLE
350
2A
  3
AcDbVariableDictionary
350
27C
  0
DICTIONARY
  5
D
102
{ACAD_REACTORS
330
C
102
}
330
C
100
AcDbDictionary
281
     1
  0
DICTIONARY
  5
1A
102
{ACAD_REACTORS
330
C
102
}
330
C
100
AcDbDictionary
281
     1
  3
Layout1
350
1E
  3
Layout2
350
26
  3
Model
350
22
  0
DICTIONARY
  5
3B
102
{ACAD_REACTORS
330
C
102
}
330
C
100
AcDbDictionary
281
     1
  3
ByBlock
350
3D
  3
ByLayer
350
3C
  3
Global
350
3E
  0
DICTIONARY
  5
27E
102
{ACAD_REACTORS
330
C
102
}
330
C
100
AcDbDictionary
281
     1
  0
DICTIONARY
  5
17
102
{ACAD_REACTORS
330
C
102
}
330
C
100
AcDbDictionary
281
     1
  3
Standard
350
18
  0
DICTIONARY
  5
19
102
{ACAD_REACTORS
330
C
102
}
330
C
100
AcDbDictionary
281
     1
  0
ACDBDICTIONARYWDFLT
  5
E
102
{ACAD_REACTORS
330
C
102
}
330
C
100
AcDbDictionary
281
     1
  3
Normal
350
F
100
AcDbDictionaryWithDefault
340
F
  0
DICTIONARY
  5
2A
102
{ACAD_REACTORS
330
C
102
}
330
C
100
AcDbDictionary
281
     1
  3
2dWireframe
350
2F
  3
3D Hidden
350
31
  3
3dWireframe
350
30
  3
Basic
350
32
  3
Brighten
350
36
  3
ColorChange
350
3A
  3
Conceptual
350
34
  3
Dim
350
35
  3
Facepattern
350
39
  3
Flat
350
2B
  3
FlatWithEdges
350
2C
  3
Gouraud
350
2D
  3
GouraudWithEdges
350
2E
  3
Linepattern
350
38
  3
Realistic
350
33
  3
Thicken
350
37
  0
DICTIONARY
  5
27C
102
{ACAD_REACTORS
330
C
102
}
330
C
100
AcDbDictionary
281
     1
  3
DIMASSOC
350
27F
  3
HIDETEXT
350
280
  0
LAYOUT
  5
1E
102
{ACAD_REACTORS
330
1A
102
}
330
1A
100
AcDbPlotSettings
  1

  2
none_device
  4

  6

 40
0.0
 41
0.0
 42
0.0
 43
0.0
 44
0.0
 45
0.0
 46
0.0
 47
0.0
 48
0.0
 49
0.0
140
0.0
141
0.0
142
1.0
143
1.0
 70
   688
 72
     0
 73
     0
 74
     5
  7

 75
    16
147
1.0
148
0.0
149
0.0
100
AcDbLayout
  1
Layout1
 70
     1
 71
     1
 10
0.0
 20
0.0
 11
12.0
 21
9.0
 12
0.0
 22
0.0
 32
0.0
 14
1.00000000000000E+20
 24
1.00000000000000E+20
 34
1.00000000000000E+20
 15
-1.00000000000000E+20
 25
-1.00000000000000E+20
 35
-1.00000000000000E+20
146
0.0
 13
0.0
 23
0.0
 33
0.0
 16
1.0
 26
0.0
 36
0.0
 17
0.0
 27
1.0
 37
0.0
 76
     0
330
1B
  0
LAYOUT
  5
26
102
{ACAD_REACTORS
330
1A
102
}
330
1A
100
AcDbPlotSettings
  1

  2
none_device
  4

  6

 40
0.0
 41
0.0
 42
0.0
 43
0.0
 44
0.0
 45
0.0
 46
0.0
 47
0.0
 48
0.0
 49
0.0
140
0.0
141
0.0
142
1.0
143
1.0
 70
   688
 72
     0
 73
     0
 74
     5
  7

 75
    16
147
1.0
148
0.0
149
0.0
100
AcDbLayout
  1
Layout2
 70
     1
 71
     2
 10
0.0
 20
0.0
 11
0.0
 21
0.0
 12
0.0
 22
0.0
 32
0.0
 14
0.0
 24
0.0
 34
0.0
 15
0.0
 25
0.0
 35
0.0
146
0.0
 13
0.0
 23
0.0
 33
0.0
 16
1.0
 26
0.0
 36
0.0
 17
0.0
 27
1.0
 37
0.0
 76
     0
330
23
  0
LAYOUT
  5
22
102
{ACAD_REACTORS
330
1A
102
}
330
1A
100
AcDbPlotSettings
  1

  2
none_device
  4

  6

 40
0.0
 41
0.0
 42
0.0
 43
0.0
 44
0.0
 45
0.0
 46
0.0
 47
0.0
 48
0.0
 49
0.0
140
0.0
141
0.0
142
1.0
143
1.0
 70
  1712
 72
     0
 73
     0
 74
     0
  7

 75
     0
147
1.0
148
0.0
149
0.0
100
AcDbLayout
  1
Model
 70
     1
 71
     0
 10
0.0
 20
0.0
 11
12.0
 21
9.0
 12
0.0
 22
0.0
 32
0.0
 14
0.0
 24
0.0
 34
0.0
 15
420.0
 25
594.0
 35
0.0
146
0.0
 13
0.0
 23
0.0
 33
0.0
 16
1.0
 26
0.0
 36
0.0
 17
0.0
 27
1.0
 37
0.0
 76
     0
330
1F
331
29
  0
MATERIAL
  5
3D
102
{ACAD_REACTORS
330
3B
102
}
102
{ACAD_XDICTIONARY
360
2A3
102
}
330
3B
100
AcDbMaterial
  1
ByBlock
  0
MATERIAL
  5
3C
102
{ACAD_REACTORS
330
3B
102
}
102
{ACAD_XDICTIONARY
360
2A1
102
}
330
3B
100
AcDbMaterial
  1
ByLayer
  0
MATERIAL
  5
3E
102
{ACAD_REACTORS
330
3B
102
}
102
{ACAD_XDICTIONARY
360
2A5
102
}
330
3B
100
AcDbMaterial
  1
Global
  0
MLINESTYLE
  5
18
102
{ACAD_REACTORS
330
17
102
}
330
17
100
AcDbMlineStyle
  2
Standard
 70
     0
  3

 62
   256
 51
90.0
 52
90.0
 71
     2
 49
0.5
 62
   256
  6
BYLAYER
 49
-0.5
 62
   256
  6
BYLAYER
  0
ACDBPLACEHOLDER
  5
F
102
{ACAD_REACTORS
330
E
102
}
330
E
  0
VISUALSTYLE
  5
2F
102
{ACAD_REACTORS
330
2A
102
}
102
{ACAD_XDICTIONARY
360
289
102
}
330
2A
100
AcDbVisualStyle
  2
2dWireframe
 70
     4
 71
     0
 72
     2
 73
     0
 90
        0
 40
-0.6
 41
-30.0
 62
     5
 63
     7
 74
     1
 91
        4
 64
     7
 65
   257
 75
     1
175
     1
 42
1.0
 92
        0
 66
   257
 43
1.0
 76
     1
 77
     6
 78
     2
 67
     7
 79
     5
170
     0
171
     0
290
     0
174
     0
 93
        1
 44
0.0
173
     0
291
     0
 45
0.0
1001
ACAD
1000
AcDbSavedByObjectVersion
1070
     0
  0
VISUALSTYLE
  5
31
102
{ACAD_REACTORS
330
2A
102
}
102
{ACAD_XDICTIONARY
360
28D
102
}
330
2A
100
AcDbVisualStyle
  2
3D Hidden
 70
     6
 71
     1
 72
     2
 73
     2
 90
        0
 40
-0.6
 41
-30.0
 62
     5
 63
     7
 74
     2
 91
        2
 64
     7
 65
   257
 75
     2
175
     1
 42
40.0
 92
        0
 66
   257
 43
1.0
 76
     1
 77
     6
 78
     2
 67
     7
 79
     3
170
     0
171
     0
290
     0
174
     0
 93
        1
 44
0.0
173
     0
291
     0
 45
0.0
1001
ACAD
1000
AcDbSavedByObjectVersion
1070
     0
  0
VISUALSTYLE
  5
30
102
{ACAD_REACTORS
330
2A
102
}
102
{ACAD_XDICTIONARY
360
28B
102
}
330
2A
100
AcDbVisualStyle
  2
3dWireframe
 70
     5
 71
     0
 72
     2
 73
     0
 90
        0
 40
-0.6
 41
-30.0
 62
     5
 63
     7
 74
     1
 91
        4
 64
     7
 65
   257
 75
     1
175
     1
 42
1.0
 92
        0
 66
   257
 43
1.0
 76
     1
 77
     6
 78
     2
 67
     7
 79
     5
170
     0
171
     0
290
     0
174
     0
 93
        1
 44
0.0
173
     0
291
     0
 45
0.0
1001
ACAD
1000
AcDbSavedByObjectVersion
1070
     0
  0
VISUALSTYLE
  5
32
102
{ACAD_REACTORS
330
2A
102
}
102
{ACAD_XDICTIONARY
360
28F
102
}
330
2A
100
AcDbVisualStyle
  2
Basic
 70
     7
 71
     1
 72
     0
 73
     1
 90
        0
 40
-0.6
 41
-30.0
 62
     5
 63
     7
 74
     0
 91
        4
 64
     7
 65
   257
 75
     1
175
     1
 42
1.0
 92
        8
 66
     7
 43
1.0
 76
     1
 77
     6
 78
     2
 67
     7
 79
     5
170
     0
171
     0
290
     0
174
     0
 93
        1
 44
0.0
173
     0
291
     1
 45
0.0
1001
ACAD
1000
AcDbSavedByObjectVersion
1070
     0
  0
VISUALSTYLE
  5
36
102
{ACAD_REACTORS
330
2A
102
}
102
{ACAD_XDICTIONARY
360
297
102
}
330
2A
100
AcDbVisualStyle
  2
Brighten
 70
    12
 71
     2
 72
     2
 73
     0
 90
        0
 40
-0.6
 41
-30.0
 62
     5
 63
     7
 74
     1
 91
        4
 64
     7
 65
   257
 75
     1
175
     1
 42
1.0
 92
        8
 66
     7
 43
1.0
 76
     1
 77
     6
 78
     2
 67
     7
 79
     5
170
     0
171
     0
290
     0
174
     0
 93
        1
 44
50.0
173
     0
291
     1
 45
0.0
1001
ACAD
1000
AcDbSavedByObjectVersion
1070
     0
  0
VISUALSTYLE
  5
3A
102
{ACAD_REACTORS
330
2A
102
}
102
{ACAD_XDICTIONARY
360
29F
102
}
330
2A
100
AcDbVisualStyle
  2
ColorChange
 70
    16
 71
     2
 72
     2
 73
     3
 90
        0
 40
-0.6
 41
-30.0
 62
     5
 63
     8
 74
     1
 91
        4
 64
     7
 65
   257
 75
     1
175
     1
 42
1.0
 92
        8
 66
     8
 43
1.0
 76
     1
 77
     6
 78
     2
 67
     7
 79
     5
170
     0
171
     0
290
     0
174
     0
 93
        1
 44
0.0
173
     0
291
     1
 45
0.0
1001
ACAD
1000
AcDbSavedByObjectVersion
1070
     0
  0
VISUALSTYLE
  5
34
102
{ACAD_REACTORS
330
2A
102
}
102
{ACAD_XDICTIONARY
360
293
102
}
330
2A
100
AcDbVisualStyle
  2
Conceptual
 70
     9
 71
     3
 72
     2
 73
     0
 90
        0
 40
-0.6
 41
-30.0
 62
     5
 63
     7
 74
     2
 91
        2
 64
     7
 65
   257
 75
     1
175
     1
 42
40.0
 92
        8
 66
     7
 43
1.0
 76
     1
 77
     6
 78
     2
 67
     7
 79
     3
170
     0
171
     0
290
     0
174
     0
 93
        1
 44
0.0
173
     0
291
     0
 45
0.0
1001
ACAD
1000
AcDbSavedByObjectVersion
1070
     0
  0
VISUALSTYLE
  5
35
102
{ACAD_REACTORS
330
2A
102
}
102
{ACAD_XDICTIONARY
360
295
102
}
330
2A
100
AcDbVisualStyle
  2
Dim
 70
    11
 71
     2
 72
     2
 73
     0
 90
        0
 40
-0.6
 41
-30.0
 62
     5
 63
     7
 74
     1
 91
        4
 64
     7
 65
   257
 75
     1
175
     1
 42
1.0
 92
        8
 66
     7
 43
1.0
 76
     1
 77
     6
 78
     2
 67
     7
 79
     5
170
     0
171
     0
290
     0
174
     0
 93
        1
 44
-50.0
173
     0
291
     1
 45
0.0
1001
ACAD
1000
AcDbSavedByObjectVersion
1070
     0
  0
VISUALSTYLE
  5
39
102
{ACAD_REACTORS
330
2A
102
}
102
{ACAD_XDICTIONARY
360
29D
102
}
330
2A
100
AcDbVisualStyle
  2
Facepattern
 70
    15
 71
     2
 72
     2
 73
     0
 90
        0
 40
-0.6
 41
-30.0
 62
     5
 63
     7
 74
     1
 91
        4
 64
     7
 65
   257
 75
     1
175
     1
 42
1.0
 92
        8
 66
     7
 43
1.0
 76
     1
 77
     6
 78
     2
 67
     7
 79
     5
170
     0
171
     0
290
     0
174
     0
 93
        1
 44
0.0
173
     0
291
     1
 45
0.0
1001
ACAD
1000
AcDbSavedByObjectVersion
1070
     0
  0
VISUALSTYLE
  5
2B
102
{ACAD_REACTORS
330
2A
102
}
102
{ACAD_XDICTIONARY
360
281
102
}
330
2A
100
AcDbVisualStyle
  2
Flat
 70
     0
 71
     2
 72
     1
 73
     1
 90
        2
 40
-0.6
 41
30.0
 62
     5
 63
     7
 74
     0
 91
        4
 64
     7
 65
   257
 75
     1
175
     1
 42
1.0
 92
        8
 66
     7
 43
1.0
 76
     1
 77
     6
 78
     2
 67
     7
 79
     5
170
     0
171
     0
290
     0
174
     0
 93
       13
 44
0.0
173
     0
291
     1
 45
0.0
1001
ACAD
1000
AcDbSavedByObjectVersion
1070
     0
  0
VISUALSTYLE
  5
2C
102
{ACAD_REACTORS
330
2A
102
}
102
{ACAD_XDICTIONARY
360
283
102
}
330
2A
100
AcDbVisualStyle
  2
FlatWithEdges
 70
     1
 71
     2
 72
     1
 73
     1
 90
        2
 40
-0.6
 41
30.0
 62
     5
 63
     7
 74
     1
 91
        4
 64
     7
 65
   257
 75
     1
175
     1
 42
1.0
 92
        0
 66
   257
 43
1.0
 76
     1
 77
     6
 78
     2
 67
     7
 79
     5
170
     0
171
     0
290
     0
174
     0
 93
       13
 44
0.0
173
     0
291
     1
 45
0.0
1001
ACAD
1000
AcDbSavedByObjectVersion
1070
     0
  0
VISUALSTYLE
  5
2D
102
{ACAD_REACTORS
330
2A
102
}
102
{ACAD_XDICTIONARY
360
285
102
}
330
2A
100
AcDbVisualStyle
  2
Gouraud
 70
     2
 71
     2
 72
     2
 73
     1
 90
        2
 40
-0.6
 41
30.0
 62
     5
 63
     7
 74
     0
 91
        4
 64
     7
 65
   257
 75
     1
175
     1
 42
1.0
 92
        0
 66
     7
 43
1.0
 76
     1
 77
     6
 78
     2
 67
     7
 79
     5
170
     0
171
     0
290
     0
174
     0
 93
       13
 44
0.0
173
     0
291
     1
 45
0.0
1001
ACAD
1000
AcDbSavedByObjectVersion
1070
     0
  0
VISUALSTYLE
  5
2E
102
{ACAD_REACTORS
330
2A
102
}
102
{ACAD_XDICTIONARY
360
287
102
}
330
2A
100
AcDbVisualStyle
  2
GouraudWithEdges
 70
     3
 71
     2
 72
     2
 73
     1
 90
        2
 40
-0.6
 41
30.0
 62
     5
 63
     7
 74
     1
 91
        4
 64
     7
 65
   257
 75
     1
175
     1
 42
1.0
 92
        0
 66
   257
 43
1.0
 76
     1
 77
     6
 78
     2
 67
     7
 79
     5
170
     0
171
     0
290
     0
174
     0
 93
       13
 44
0.0
173
     0
291
     1
 45
0.0
1001
ACAD
1000
AcDbSavedByObjectVersion
1070
     0
  0
VISUALSTYLE
  5
38
102
{ACAD_REACTORS
330
2A
102
}
102
{ACAD_XDICTIONARY
360
29B
102
}
330
2A
100
AcDbVisualStyle
  2
Linepattern
 70
    14
 71
     2
 72
     2
 73
     0
 90
        0
 40
-0.6
 41
-30.0
 62
     5
 63
     7
 74
     1
 91
        4
 64
     7
 65
   257
 75
     7
175
     7
 42
1.0
 92
        8
 66
     7
 43
1.0
 76
     1
 77
     6
 78
     2
 67
     7
 79
     5
170
     0
171
     0
290
     0
174
     0
 93
        1
 44
0.0
173
     0
291
     1
 45
0.0
1001
ACAD
1000
AcDbSavedByObjectVersion
1070
     0
  0
VISUALSTYLE
  5
33
102
{ACAD_REACTORS
330
2A
102
}
102
{ACAD_XDICTIONARY
360
291
102
}
330
2A
100
AcDbVisualStyle
  2
Realistic
 70
     8
 71
     2
 72
     2
 73
     0
 90
        0
 40
-0.6
 41
-30.0
 62
     5
 63
     7
 74
     1
 91
        0
 64
     7
 65
   257
 75
     1
175
     1
 42
1.0
 92
        8
 66
     8
 43
1.0
 76
     1
 77
     6
 78
     2
 67
     7
 79
     5
170
     0
171
     0
290
     0
174
     0
 93
       13
 44
0.0
173
     0
291
     0
 45
0.0
1001
ACAD
1000
AcDbSavedByObjectVersion
1070
     0
  0
VISUALSTYLE
  5
37
102
{ACAD_REACTORS
330
2A
102
}
102
{ACAD_XDICTIONARY
360
299
102
}
330
2A
100
AcDbVisualStyle
  2
Thicken
 70
    13
 71
     2
 72
     2
 73
     0
 90
        0
 40
-0.6
 41
-30.0
 62
     5
 63
     7
 74
     1
 91
        4
 64
     7
 65
   257
 75
     1
175
     1
 42
1.0
 92
       12
 66
     7
 43
1.0
 76
     1
 77
     6
 78
     2
 67
     7
 79
     5
170
     0
171
     0
290
     0
174
     0
 93
        1
 44
0.0
173
     0
291
     1
 45
0.0
1001
ACAD
1000
AcDbSavedByObjectVersion
1070
     0
  0
DICTIONARYVAR
  5
27F
102
{ACAD_REACTORS
330
27C
102
}
330
27C
100
DictionaryVariables
280
     0
  1
2
  0
DICTIONARYVAR
  5
280
102
{ACAD_REACTORS
330
27C
102
}
330
27C
100
DictionaryVariables
280
     0
  1
1
  0
DICTIONARY
  5
2A3
330
3D
100
AcDbDictionary
280
     1
281
     1
  3
ACAD_XREC_ROUNDTRIP
360
2A4
  0
DICTIONARY
  5
2A1
330
3C
100
AcDbDictionary
280
     1
281
     1
  3
ACAD_XREC_ROUNDTRIP
360
2A2
  0
DICTIONARY
  5
2A5
330
3E
100
AcDbDictionary
280
     1
281
     1
  3
ACAD_XREC_ROUNDTRIP
360
2A6
  0
DICTIONARY
  5
289
330
2F
100
AcDbDictionary
280
     1
281
     1
  3
ACAD_XREC_ROUNDTRIP
360
28A
  0
DICTIONARY
  5
28D
330
31
100
AcDbDictionary
280
     1
281
     1
  3
ACAD_XREC_ROUNDTRIP
360
28E
  0
DICTIONARY
  5
28B
330
30
100
AcDbDictionary
280
     1
281
     1
  3
ACAD_XREC_ROUNDTRIP
360
28C
  0
DICTIONARY
  5
28F
330
32
100
AcDbDictionary
280
     1
281
     1
  3
ACAD_XREC_ROUNDTRIP
360
290
  0
DICTIONARY
  5
297
330
36
100
AcDbDictionary
280
     1
281
     1
  3
ACAD_XREC_ROUNDTRIP
360
298
  0
DICTIONARY
  5
29F
330
3A
100
AcDbDictionary
280
     1
281
     1
  3
ACAD_XREC_ROUNDTRIP
360
2A0
  0
DICTIONARY
  5
293
330
34
100
AcDbDictionary
280
     1
281
     1
  3
ACAD_XREC_ROUNDTRIP
360
294
  0
DICTIONARY
  5
295
330
35
100
AcDbDictionary
280
     1
281
     1
  3
ACAD_XREC_ROUNDTRIP
360
296
  0
DICTIONARY
  5
29D
330
39
100
AcDbDictionary
280
     1
281
     1
  3
ACAD_XREC_ROUNDTRIP
360
29E
  0
DICTIONARY
  5
281
330
2B
100
AcDbDictionary
280
     1
281
     1
  3
ACAD_XREC_ROUNDTRIP
360
282
  0
DICTIONARY
  5
283
330
2C
100
AcDbDictionary
280
     1
281
     1
  3
ACAD_XREC_ROUNDTRIP
360
284
  0
DICTIONARY
  5
285
330
2D
100
AcDbDictionary
280
     1
281
     1
  3
ACAD_XREC_ROUNDTRIP
360
286
  0
DICTIONARY
  5
287
330
2E
100
AcDbDictionary
280
     1
281
     1
  3
ACAD_XREC_ROUNDTRIP
360
288
  0
DICTIONARY
  5
29B
330
38
100
AcDbDictionary
280
     1
281
     1
  3
ACAD_XREC_ROUNDTRIP
360
29C
  0
DICTIONARY
  5
291
330
33
100
AcDbDictionary
280
     1
281
     1
  3
ACAD_XREC_ROUNDTRIP
360
292
  0
DICTIONARY
  5
299
330
37
100
AcDbDictionary
280
     1
281
     1
  3
ACAD_XREC_ROUNDTRIP
360
29A
  0
XRECORD
  5
2A4
102
{ACAD_REACTORS
330
2A3
102
}
330
2A3
100
AcDbXrecord
280
     1
102
MATERIAL
148
0.0
149
0.0
149
0.0
 93
        0
 94
      127
282
     0
 72
     1
 77
     1
171
     1
175
     1
179
     1
273
     0
  0
XRECORD
  5
2A2
102
{ACAD_REACTORS
330
2A1
102
}
330
2A1
100
AcDbXrecord
280
     1
102
MATERIAL
148
0.0
149
0.0
149
0.0
 93
        0
 94
      127
282
     0
 72
     1
 77
     1
171
     1
175
     1
179
     1
273
     0
  0
XRECORD
  5
2A6
102
{ACAD_REACTORS
330
2A5
102
}
330
2A5
100
AcDbXrecord
280
     1
102
MATERIAL
148
0.0
149
0.0
149
0.0
 93
        0
 94
      127
282
     0
 72
     1
 77
     1
171
     1
175
     1
179
     1
273
     0
  0
XRECORD
  5
28A
102
{ACAD_REACTORS
330
289
102
}
330
289
100
AcDbXrecord
280
     1
102
RTVSPropertyOp0
 70
     1
102
RTVSPropertyOp1
 70
     1
102
RTVSPropertyOp2
 70
     1
102
RTVSPropertyOp3
 70
     1
102
RTVSPropertyOp4
 70
     1
102
RTVSPropertyOp5
 70
     1
102
RTVSPropertyOp6
 70
     1
102
RTVSPropertyOp7
 70
     1
102
RTVSPropertyOp8
 70
     1
102
RTVSPropertyOp9
 70
     1
102
RTVSPropertyOp10
 70
     1
102
RTVSPropertyOp11
 70
     1
102
RTVSPropertyOp12
 70
     1
102
RTVSPropertyOp13
 70
     1
102
RTVSPropertyOp14
 70
     1
102
RTVSPropertyOp15
 70
     1
102
RTVSPropertyOp16
 70
     1
102
RTVSPropertyOp17
 70
     1
102
RTVSPropertyOp18
 70
     1
102
RTVSPropertyOp19
 70
     1
102
RTVSPropertyOp20
 70
     1
102
RTVSPropertyOp21
 70
     1
102
RTVSPropertyOp22
 70
     1
102
RTVSPropertyOp23
 70
     1
102
RTVSPropertyOp24
 70
     1
102
RTVSPropertyOp25
 70
     1
102
RTVSPropertyOp26
 70
     1
102
RTVSPropertyOp27
 70
     1
102
RTVSPropertyOp28
 70
     1
102
RTVSPropertyOp29
 70
     1
102
RTVSPropertyOp30
 70
     1
102
RTVSPropertyOp31
 70
     1
102
RTVSPropertyOp32
 70
     1
  0
XRECORD
  5
28E
102
{ACAD_REACTORS
330
28D
102
}
330
28D
100
AcDbXrecord
280
     1
102
RTVSPropertyOp0
 70
     1
102
RTVSPropertyOp1
 70
     1
102
RTVSPropertyOp2
 70
     1
102
RTVSPropertyOp3
 70
     1
102
RTVSPropertyOp4
 70
     1
102
RTVSPropertyOp5
 70
     1
102
RTVSPropertyOp6
 70
     1
102
RTVSPropertyOp7
 70
     1
102
RTVSPropertyOp8
 70
     1
102
RTVSPropertyOp9
 70
     1
102
RTVSPropertyOp10
 70
     1
102
RTVSPropertyOp11
 70
     1
102
RTVSPropertyOp12
 70
     1
102
RTVSPropertyOp13
 70
     1
102
RTVSPropertyOp14
 70
     1
102
RTVSPropertyOp15
 70
     1
102
RTVSPropertyOp16
 70
     1
102
RTVSPropertyOp17
 70
     1
102
RTVSPropertyOp18
 70
     1
102
RTVSPropertyOp19
 70
     1
102
RTVSPropertyOp20
 70
     1
102
RTVSPropertyOp21
 70
     1
102
RTVSPropertyOp22
 70
     1
102
RTVSPropertyOp23
 70
     1
102
RTVSPropertyOp24
 70
     1
102
RTVSPropertyOp25
 70
     1
102
RTVSPropertyOp26
 70
     1
102
RTVSPropertyOp27
 70
     1
102
RTVSPropertyOp28
 70
     1
102
RTVSPropertyOp29
 70
     1
102
RTVSPropertyOp30
 70
     1
102
RTVSPropertyOp31
 70
     1
102
RTVSPropertyOp32
 70
     1
  0
XRECORD
  5
28C
102
{ACAD_REACTORS
330
28B
102
}
330
28B
100
AcDbXrecord
280
     1
102
RTVSPropertyOp0
 70
     1
102
RTVSPropertyOp1
 70
     1
102
RTVSPropertyOp2
 70
     1
102
RTVSPropertyOp3
 70
     1
102
RTVSPropertyOp4
 70
     1
102
RTVSPropertyOp5
 70
     1
102
RTVSPropertyOp6
 70
     1
102
RTVSPropertyOp7
 70
     1
102
RTVSPropertyOp8
 70
     1
102
RTVSPropertyOp9
 70
     1
102
RTVSPropertyOp10
 70
     1
102
RTVSPropertyOp11
 70
     1
102
RTVSPropertyOp12
 70
     1
102
RTVSPropertyOp13
 70
     1
102
RTVSPropertyOp14
 70
     1
102
RTVSPropertyOp15
 70
     1
102
RTVSPropertyOp16
 70
     1
102
RTVSPropertyOp17
 70
     1
102
RTVSPropertyOp18
 70
     1
102
RTVSPropertyOp19
 70
     1
102
RTVSPropertyOp20
 70
     1
102
RTVSPropertyOp21
 70
     1
102
RTVSPropertyOp22
 70
     1
102
RTVSPropertyOp23
 70
     1
102
RTVSPropertyOp24
 70
     1
102
RTVSPropertyOp25
 70
     1
102
RTVSPropertyOp26
 70
     1
102
RTVSPropertyOp27
 70
     1
102
RTVSPropertyOp28
 70
     1
102
RTVSPropertyOp29
 70
     1
102
RTVSPropertyOp30
 70
     1
102
RTVSPropertyOp31
 70
     1
102
RTVSPropertyOp32
 70
     1
  0
XRECORD
  5
290
102
{ACAD_REACTORS
330
28F
102
}
330
28F
100
AcDbXrecord
280
     1
102
RTVSPropertyOp0
 70
     1
102
RTVSPropertyOp1
 70
     1
102
RTVSPropertyOp2
 70
     1
102
RTVSPropertyOp3
 70
     1
102
RTVSPropertyOp4
 70
     1
102
RTVSPropertyOp5
 70
     1
102
RTVSPropertyOp6
 70
     1
102
RTVSPropertyOp7
 70
     1
102
RTVSPropertyOp8
 70
     1
102
RTVSPropertyOp9
 70
     1
102
RTVSPropertyOp10
 70
     1
102
RTVSPropertyOp11
 70
     1
102
RTVSPropertyOp12
 70
     1
102
RTVSPropertyOp13
 70
     1
102
RTVSPropertyOp14
 70
     1
102
RTVSPropertyOp15
 70
     1
102
RTVSPropertyOp16
 70
     1
102
RTVSPropertyOp17
 70
     1
102
RTVSPropertyOp18
 70
     1
102
RTVSPropertyOp19
 70
     1
102
RTVSPropertyOp20
 70
     1
102
RTVSPropertyOp21
 70
     1
102
RTVSPropertyOp22
 70
     1
102
RTVSPropertyOp23
 70
     1
102
RTVSPropertyOp24
 70
     1
102
RTVSPropertyOp25
 70
     1
102
RTVSPropertyOp26
 70
     1
102
RTVSPropertyOp27
 70
     1
102
RTVSPropertyOp28
 70
     1
102
RTVSPropertyOp29
 70
     1
102
RTVSPropertyOp30
 70
     1
102
RTVSPropertyOp31
 70
     1
102
RTVSPropertyOp32
 70
     1
  0
XRECORD
  5
298
102
{ACAD_REACTORS
330
297
102
}
330
297
100
AcDbXrecord
280
     1
102
RTVSPropertyOp0
 70
     1
102
RTVSPropertyOp1
 70
     1
102
RTVSPropertyOp2
 70
     1
102
RTVSPropertyOp3
 70
     1
102
RTVSPropertyOp4
 70
     1
102
RTVSPropertyOp5
 70
     1
102
RTVSPropertyOp6
 70
     1
102
RTVSPropertyOp7
 70
     1
102
RTVSPropertyOp8
 70
     1
102
RTVSPropertyOp9
 70
     1
102
RTVSPropertyOp10
 70
     1
102
RTVSPropertyOp11
 70
     1
102
RTVSPropertyOp12
 70
     1
102
RTVSPropertyOp13
 70
     1
102
RTVSPropertyOp14
 70
     1
102
RTVSPropertyOp15
 70
     1
102
RTVSPropertyOp16
 70
     1
102
RTVSPropertyOp17
 70
     1
102
RTVSPropertyOp18
 70
     1
102
RTVSPropertyOp19
 70
     1
102
RTVSPropertyOp20
 70
     1
102
RTVSPropertyOp21
 70
     1
102
RTVSPropertyOp22
 70
     1
102
RTVSPropertyOp23
 70
     1
102
RTVSPropertyOp24
 70
     1
102
RTVSPropertyOp25
 70
     1
102
RTVSPropertyOp26
 70
     1
102
RTVSPropertyOp27
 70
     1
102
RTVSPropertyOp28
 70
     1
102
RTVSPropertyOp29
 70
     1
102
RTVSPropertyOp30
 70
     1
102
RTVSPropertyOp31
 70
     1
102
RTVSPropertyOp32
 70
     1
  0
XRECORD
  5
2A0
102
{ACAD_REACTORS
330
29F
102
}
330
29F
100
AcDbXrecord
280
     1
102
RTVSPropertyOp0
 70
     1
102
RTVSPropertyOp1
 70
     1
102
RTVSPropertyOp2
 70
     1
102
RTVSPropertyOp3
 70
     1
102
RTVSPropertyOp4
 70
     1
102
RTVSPropertyOp5
 70
     1
102
RTVSPropertyOp6
 70
     1
102
RTVSPropertyOp7
 70
     1
102
RTVSPropertyOp8
 70
     1
102
RTVSPropertyOp9
 70
     1
102
RTVSPropertyOp10
 70
     1
102
RTVSPropertyOp11
 70
     1
102
RTVSPropertyOp12
 70
     1
102
RTVSPropertyOp13
 70
     1
102
RTVSPropertyOp14
 70
     1
102
RTVSPropertyOp15
 70
     1
102
RTVSPropertyOp16
 70
     1
102
RTVSPropertyOp17
 70
     1
102
RTVSPropertyOp18
 70
     1
102
RTVSPropertyOp19
 70
     1
102
RTVSPropertyOp20
 70
     1
102
RTVSPropertyOp21
 70
     1
102
RTVSPropertyOp22
 70
     1
102
RTVSPropertyOp23
 70
     1
102
RTVSPropertyOp24
 70
     1
102
RTVSPropertyOp25
 70
     1
102
RTVSPropertyOp26
 70
     1
102
RTVSPropertyOp27
 70
     1
102
RTVSPropertyOp28
 70
     1
102
RTVSPropertyOp29
 70
     1
102
RTVSPropertyOp30
 70
     1
102
RTVSPropertyOp31
 70
     1
102
RTVSPropertyOp32
 70
     1
  0
XRECORD
  5
294
102
{ACAD_REACTORS
330
293
102
}
330
293
100
AcDbXrecord
280
     1
102
RTVSPropertyOp0
 70
     1
102
RTVSPropertyOp1
 70
     1
102
RTVSPropertyOp2
 70
     1
102
RTVSPropertyOp3
 70
     1
102
RTVSPropertyOp4
 70
     1
102
RTVSPropertyOp5
 70
     1
102
RTVSPropertyOp6
 70
     1
102
RTVSPropertyOp7
 70
     1
102
RTVSPropertyOp8
 70
     1
102
RTVSPropertyOp9
 70
     1
102
RTVSPropertyOp10
 70
     1
102
RTVSPropertyOp11
 70
     1
102
RTVSPropertyOp12
 70
     1
102
RTVSPropertyOp13
 70
     1
102
RTVSPropertyOp14
 70
     1
102
RTVSPropertyOp15
 70
     1
102
RTVSPropertyOp16
 70
     1
102
RTVSPropertyOp17
 70
     1
102
RTVSPropertyOp18
 70
     1
102
RTVSPropertyOp19
 70
     1
102
RTVSPropertyOp20
 70
     1
102
RTVSPropertyOp21
 70
     1
102
RTVSPropertyOp22
 70
     1
102
RTVSPropertyOp23
 70
     1
102
RTVSPropertyOp24
 70
     1
102
RTVSPropertyOp25
 70
     1
102
RTVSPropertyOp26
 70
     1
102
RTVSPropertyOp27
 70
     1
102
RTVSPropertyOp28
 70
     1
102
RTVSPropertyOp29
 70
     1
102
RTVSPropertyOp30
 70
     1
102
RTVSPropertyOp31
 70
     1
102
RTVSPropertyOp32
 70
     1
  0
XRECORD
  5
296
102
{ACAD_REACTORS
330
295
102
}
330
295
100
AcDbXrecord
280
     1
102
RTVSPropertyOp0
 70
     1
102
RTVSPropertyOp1
 70
     1
102
RTVSPropertyOp2
 70
     1
102
RTVSPropertyOp3
 70
     1
102
RTVSPropertyOp4
 70
     1
102
RTVSPropertyOp5
 70
     1
102
RTVSPropertyOp6
 70
     1
102
RTVSPropertyOp7
 70
     1
102
RTVSPropertyOp8
 70
     1
102
RTVSPropertyOp9
 70
     1
102
RTVSPropertyOp10
 70
     1
102
RTVSPropertyOp11
 70
     1
102
RTVSPropertyOp12
 70
     1
102
RTVSPropertyOp13
 70
     1
102
RTVSPropertyOp14
 70
     1
102
RTVSPropertyOp15
 70
     1
102
RTVSPropertyOp16
 70
     1
102
RTVSPropertyOp17
 70
     1
102
RTVSPropertyOp18
 70
     1
102
RTVSPropertyOp19
 70
     1
102
RTVSPropertyOp20
 70
     1
102
RTVSPropertyOp21
 70
     1
102
RTVSPropertyOp22
 70
     1
102
RTVSPropertyOp23
 70
     1
102
RTVSPropertyOp24
 70
     1
102
RTVSPropertyOp25
 70
     1
102
RTVSPropertyOp26
 70
     1
102
RTVSPropertyOp27
 70
     1
102
RTVSPropertyOp28
 70
     1
102
RTVSPropertyOp29
 70
     1
102
RTVSPropertyOp30
 70
     1
102
RTVSPropertyOp31
 70
     1
102
RTVSPropertyOp32
 70
     1
  0
XRECORD
  5
29E
102
{ACAD_REACTORS
330
29D
102
}
330
29D
100
AcDbXrecord
280
     1
102
RTVSPropertyOp0
 70
     1
102
RTVSPropertyOp1
 70
     1
102
RTVSPropertyOp2
 70
     1
102
RTVSPropertyOp3
 70
     1
102
RTVSPropertyOp4
 70
     1
102
RTVSPropertyOp5
 70
     1
102
RTVSPropertyOp6
 70
     1
102
RTVSPropertyOp7
 70
     1
102
RTVSPropertyOp8
 70
     1
102
RTVSPropertyOp9
 70
     1
102
RTVSPropertyOp10
 70
     1
102
RTVSPropertyOp11
 70
     1
102
RTVSPropertyOp12
 70
     1
102
RTVSPropertyOp13
 70
     1
102
RTVSPropertyOp14
 70
     1
102
RTVSPropertyOp15
 70
     1
102
RTVSPropertyOp16
 70
     1
102
RTVSPropertyOp17
 70
     1
102
RTVSPropertyOp18
 70
     1
102
RTVSPropertyOp19
 70
     1
102
RTVSPropertyOp20
 70
     1
102
RTVSPropertyOp21
 70
     1
102
RTVSPropertyOp22
 70
     1
102
RTVSPropertyOp23
 70
     1
102
RTVSPropertyOp24
 70
     1
102
RTVSPropertyOp25
 70
     1
102
RTVSPropertyOp26
 70
     1
102
RTVSPropertyOp27
 70
     1
102
RTVSPropertyOp28
 70
     1
102
RTVSPropertyOp29
 70
     1
102
RTVSPropertyOp30
 70
     1
102
RTVSPropertyOp31
 70
     1
102
RTVSPropertyOp32
 70
     1
  0
XRECORD
  5
282
102
{ACAD_REACTORS
330
281
102
}
330
281
100
AcDbXrecord
280
     1
102
RTVSPropertyOp0
 70
     1
102
RTVSPropertyOp1
 70
     1
102
RTVSPropertyOp2
 70
     1
102
RTVSPropertyOp3
 70
     1
102
RTVSPropertyOp4
 70
     1
102
RTVSPropertyOp5
 70
     1
102
RTVSPropertyOp6
 70
     1
102
RTVSPropertyOp7
 70
     1
102
RTVSPropertyOp8
 70
     1
102
RTVSPropertyOp9
 70
     1
102
RTVSPropertyOp10
 70
     1
102
RTVSPropertyOp11
 70
     1
102
RTVSPropertyOp12
 70
     1
102
RTVSPropertyOp13
 70
     1
102
RTVSPropertyOp14
 70
     1
102
RTVSPropertyOp15
 70
     1
102
RTVSPropertyOp16
 70
     1
102
RTVSPropertyOp17
 70
     1
102
RTVSPropertyOp18
 70
     1
102
RTVSPropertyOp19
 70
     1
102
RTVSPropertyOp20
 70
     1
102
RTVSPropertyOp21
 70
     1
102
RTVSPropertyOp22
 70
     1
102
RTVSPropertyOp23
 70
     1
102
RTVSPropertyOp24
 70
     1
102
RTVSPropertyOp25
 70
     1
102
RTVSPropertyOp26
 70
     1
102
RTVSPropertyOp27
 70
     1
102
RTVSPropertyOp28
 70
     1
102
RTVSPropertyOp29
 70
     1
102
RTVSPropertyOp30
 70
     1
102
RTVSPropertyOp31
 70
     1
102
RTVSPropertyOp32
 70
     1
  0
XRECORD
  5
284
102
{ACAD_REACTORS
330
283
102
}
330
283
100
AcDbXrecord
280
     1
102
RTVSPropertyOp0
 70
     1
102
RTVSPropertyOp1
 70
     1
102
RTVSPropertyOp2
 70
     1
102
RTVSPropertyOp3
 70
     1
102
RTVSPropertyOp4
 70
     1
102
RTVSPropertyOp5
 70
     1
102
RTVSPropertyOp6
 70
     1
102
RTVSPropertyOp7
 70
     1
102
RTVSPropertyOp8
 70
     1
102
RTVSPropertyOp9
 70
     1
102
RTVSPropertyOp10
 70
     1
102
RTVSPropertyOp11
 70
     1
102
RTVSPropertyOp12
 70
     1
102
RTVSPropertyOp13
 70
     1
102
RTVSPropertyOp14
 70
     1
102
RTVSPropertyOp15
 70
     1
102
RTVSPropertyOp16
 70
     1
102
RTVSPropertyOp17
 70
     1
102
RTVSPropertyOp18
 70
     1
102
RTVSPropertyOp19
 70
     1
102
RTVSPropertyOp20
 70
     1
102
RTVSPropertyOp21
 70
     1
102
RTVSPropertyOp22
 70
     1
102
RTVSPropertyOp23
 70
     1
102
RTVSPropertyOp24
 70
     1
102
RTVSPropertyOp25
 70
     1
102
RTVSPropertyOp26
 70
     1
102
RTVSPropertyOp27
 70
     1
102
RTVSPropertyOp28
 70
     1
102
RTVSPropertyOp29
 70
     1
102
RTVSPropertyOp30
 70
     1
102
RTVSPropertyOp31
 70
     1
102
RTVSPropertyOp32
 70
     1
  0
XRECORD
  5
286
102
{ACAD_REACTORS
330
285
102
}
330
285
100
AcDbXrecord
280
     1
102
RTVSPropertyOp0
 70
     1
102
RTVSPropertyOp1
 70
     1
102
RTVSPropertyOp2
 70
     1
102
RTVSPropertyOp3
 70
     1
102
RTVSPropertyOp4
 70
     1
102
RTVSPropertyOp5
 70
     1
102
RTVSPropertyOp6
 70
     1
102
RTVSPropertyOp7
 70
     1
102
RTVSPropertyOp8
 70
     1
102
RTVSPropertyOp9
 70
     1
102
RTVSPropertyOp10
 70
     1
102
RTVSPropertyOp11
 70
     1
102
RTVSPropertyOp12
 70
     1
102
RTVSPropertyOp13
 70
     1
102
RTVSPropertyOp14
 70
     1
102
RTVSPropertyOp15
 70
     1
102
RTVSPropertyOp16
 70
     1
102
RTVSPropertyOp17
 70
     1
102
RTVSPropertyOp18
 70
     1
102
RTVSPropertyOp19
 70
     1
102
RTVSPropertyOp20
 70
     1
102
RTVSPropertyOp21
 70
     1
102
RTVSPropertyOp22
 70
     1
102
RTVSPropertyOp23
 70
     1
102
RTVSPropertyOp24
 70
     1
102
RTVSPropertyOp25
 70
     1
102
RTVSPropertyOp26
 70
     1
102
RTVSPropertyOp27
 70
     1
102
RTVSPropertyOp28
 70
     1
102
RTVSPropertyOp29
 70
     1
102
RTVSPropertyOp30
 70
     1
102
RTVSPropertyOp31
 70
     1
102
RTVSPropertyOp32
 70
     1
  0
XRECORD
  5
288
102
{ACAD_REACTORS
330
287
102
}
330
287
100
AcDbXrecord
280
     1
102
RTVSPropertyOp0
 70
     1
102
RTVSPropertyOp1
 70
     1
102
RTVSPropertyOp2
 70
     1
102
RTVSPropertyOp3
 70
     1
102
RTVSPropertyOp4
 70
     1
102
RTVSPropertyOp5
 70
     1
102
RTVSPropertyOp6
 70
     1
102
RTVSPropertyOp7
 70
     1
102
RTVSPropertyOp8
 70
     1
102
RTVSPropertyOp9
 70
     1
102
RTVSPropertyOp10
 70
     1
102
RTVSPropertyOp11
 70
     1
102
RTVSPropertyOp12
 70
     1
102
RTVSPropertyOp13
 70
     1
102
RTVSPropertyOp14
 70
     1
102
RTVSPropertyOp15
 70
     1
102
RTVSPropertyOp16
 70
     1
102
RTVSPropertyOp17
 70
     1
102
RTVSPropertyOp18
 70
     1
102
RTVSPropertyOp19
 70
     1
102
RTVSPropertyOp20
 70
     1
102
RTVSPropertyOp21
 70
     1
102
RTVSPropertyOp22
 70
     1
102
RTVSPropertyOp23
 70
     1
102
RTVSPropertyOp24
 70
     1
102
RTVSPropertyOp25
 70
     1
102
RTVSPropertyOp26
 70
     1
102
RTVSPropertyOp27
 70
     1
102
RTVSPropertyOp28
 70
     1
102
RTVSPropertyOp29
 70
     1
102
RTVSPropertyOp30
 70
     1
102
RTVSPropertyOp31
 70
     1
102
RTVSPropertyOp32
 70
     1
  0
XRECORD
  5
29C
102
{ACAD_REACTORS
330
29B
102
}
330
29B
100
AcDbXrecord
280
     1
102
RTVSPropertyOp0
 70
     1
102
RTVSPropertyOp1
 70
     1
102
RTVSPropertyOp2
 70
     1
102
RTVSPropertyOp3
 70
     1
102
RTVSPropertyOp4
 70
     1
102
RTVSPropertyOp5
 70
     1
102
RTVSPropertyOp6
 70
     1
102
RTVSPropertyOp7
 70
     1
102
RTVSPropertyOp8
 70
     1
102
RTVSPropertyOp9
 70
     1
102
RTVSPropertyOp10
 70
     1
102
RTVSPropertyOp11
 70
     1
102
RTVSPropertyOp12
 70
     1
102
RTVSPropertyOp13
 70
     1
102
RTVSPropertyOp14
 70
     1
102
RTVSPropertyOp15
 70
     1
102
RTVSPropertyOp16
 70
     1
102
RTVSPropertyOp17
 70
     1
102
RTVSPropertyOp18
 70
     1
102
RTVSPropertyOp19
 70
     1
102
RTVSPropertyOp20
 70
     1
102
RTVSPropertyOp21
 70
     1
102
RTVSPropertyOp22
 70
     1
102
RTVSPropertyOp23
 70
     1
102
RTVSPropertyOp24
 70
     1
102
RTVSPropertyOp25
 70
     1
102
RTVSPropertyOp26
 70
     1
102
RTVSPropertyOp27
 70
     1
102
RTVSPropertyOp28
 70
     1
102
RTVSPropertyOp29
 70
     1
102
RTVSPropertyOp30
 70
     1
102
RTVSPropertyOp31
 70
     1
102
RTVSPropertyOp32
 70
     1
  0
XRECORD
  5
292
102
{ACAD_REACTORS
330
291
102
}
330
291
100
AcDbXrecord
280
     1
102
RTVSPropertyOp0
 70
     1
102
RTVSPropertyOp1
 70
     1
102
RTVSPropertyOp2
 70
     1
102
RTVSPropertyOp3
 70
     1
102
RTVSPropertyOp4
 70
     1
102
RTVSPropertyOp5
 70
     1
102
RTVSPropertyOp6
 70
     1
102
RTVSPropertyOp7
 70
     1
102
RTVSPropertyOp8
 70
     1
102
RTVSPropertyOp9
 70
     1
102
RTVSPropertyOp10
 70
     1
102
RTVSPropertyOp11
 70
     1
102
RTVSPropertyOp12
 70
     1
102
RTVSPropertyOp13
 70
     1
102
RTVSPropertyOp14
 70
     1
102
RTVSPropertyOp15
 70
     1
102
RTVSPropertyOp16
 70
     1
102
RTVSPropertyOp17
 70
     1
102
RTVSPropertyOp18
 70
     1
102
RTVSPropertyOp19
 70
     1
102
RTVSPropertyOp20
 70
     1
102
RTVSPropertyOp21
 70
     1
102
RTVSPropertyOp22
 70
     1
102
RTVSPropertyOp23
 70
     1
102
RTVSPropertyOp24
 70
     1
102
RTVSPropertyOp25
 70
     1
102
RTVSPropertyOp26
 70
     1
102
RTVSPropertyOp27
 70
     1
102
RTVSPropertyOp28
 70
     1
102
RTVSPropertyOp29
 70
     1
102
RTVSPropertyOp30
 70
     1
102
RTVSPropertyOp31
 70
     1
102
RTVSPropertyOp32
 70
     1
  0
XRECORD
  5
29A
102
{ACAD_REACTORS
330
299
102
}
330
299
100
AcDbXrecord
280
     1
102
RTVSPropertyOp0
 70
     1
102
RTVSPropertyOp1
 70
     1
102
RTVSPropertyOp2
 70
     1
102
RTVSPropertyOp3
 70
     1
102
RTVSPropertyOp4
 70
     1
102
RTVSPropertyOp5
 70
     1
102
RTVSPropertyOp6
 70
     1
102
RTVSPropertyOp7
 70
     1
102
RTVSPropertyOp8
 70
     1
102
RTVSPropertyOp9
 70
     1
102
RTVSPropertyOp10
 70
     1
102
RTVSPropertyOp11
 70
     1
102
RTVSPropertyOp12
 70
     1
102
RTVSPropertyOp13
 70
     1
102
RTVSPropertyOp14
 70
     1
102
RTVSPropertyOp15
 70
     1
102
RTVSPropertyOp16
 70
     1
102
RTVSPropertyOp17
 70
     1
102
RTVSPropertyOp18
 70
     1
102
RTVSPropertyOp19
 70
     1
102
RTVSPropertyOp20
 70
     1
102
RTVSPropertyOp21
 70
     1
102
RTVSPropertyOp22
 70
     1
102
RTVSPropertyOp23
 70
     1
102
RTVSPropertyOp24
 70
     1
102
RTVSPropertyOp25
 70
     1
102
RTVSPropertyOp26
 70
     1
102
RTVSPropertyOp27
 70
     1
102
RTVSPropertyOp28
 70
     1
102
RTVSPropertyOp29
 70
     1
102
RTVSPropertyOp30
 70
     1
102
RTVSPropertyOp31
 70
     1
102
RTVSPropertyOp32
 70
     1
  0
ENDSEC
  0
EOF
