  0
SECTION
  2
HEADER
  9
$ACADVER
  1
AC1015
  9
$ACADMAINTVER
 70
     6
  9
$DWGCODEPAGE
  3
ANSI_932
  9
$INSBASE
 10
0.0
 20
0.0
 30
0.0
  9
$EXTMIN
 10
0.0
 20
0.0
 30
0.0
  9
$EXTMAX
 10
525.0
 20
742.5
 30
0.0
  9
$LIMMIN
 10
0.0
 20
0.0
  9
$LIMMAX
 10
12.0
 20
9.0
  9
$ORTHOMODE
 70
     0
  9
$REGENMODE
 70
     1
  9
$FILLMODE
 70
     1
  9
$QTEXTMODE
 70
     0
  9
$MIRRTEXT
 70
     1
  9
$LTSCALE
 40
1.0
  9
$ATTMODE
 70
     1
  9
$TEXTSIZE
 40
0.2
  9
$TRACEWID
 40
0.05
  9
$TEXTSTYLE
  7
Standard
  9
$CLAYER
  8
0
  9
$CELTYPE
  6
ByLayer
  9
$CECOLOR
 62
   256
  9
$CELTSCALE
 40
1.0
  9
$DISPSILH
 70
     0
  9
$DIMSCALE
 40
1.0
  9
$DIMASZ
 40
0.18
  9
$DIMEXO
 40
0.0625
  9
$DIMDLI
 40
0.38
  9
$DIMRND
 40
0.0
  9
$DIMDLE
 40
0.0
  9
$DIMEXE
 40
0.18
  9
$DIMTP
 40
0.0
  9
$DIMTM
 40
0.0
  9
$DIMTXT
 40
0.18
  9
$DIMCEN
 40
0.09
  9
$DIMTSZ
 40
0.0
  9
$DIMTOL
 70
     0
  9
$DIMLIM
 70
     0
  9
$DIMTIH
 70
     1
  9
$DIMTOH
 70
     1
  9
$DIMSE1
 70
     0
  9
$DIMSE2
 70
     0
  9
$DIMTAD
 70
     0
  9
$DIMZIN
 70
     0
  9
$DIMBLK
  1

  9
$DIMASO
 70
     1
  9
$DIMSHO
 70
     1
  9
$DIMPOST
  1

  9
$DIMAPOST
  1

  9
$DIMALT
 70
     0
  9
$DIMALTD
 70
     2
  9
$DIMALTF
 40
25.4
  9
$DIMLFAC
 40
1.0
  9
$DIMTOFL
 70
     0
  9
$DIMTVP
 40
0.0
  9
$DIMTIX
 70
     0
  9
$DIMSOXD
 70
     0
  9
$DIMSAH
 70
     0
  9
$DIMBLK1
  1

  9
$DIMBLK2
  1

  9
$DIMSTYLE
  2
Standard
  9
$DIMCLRD
 70
     0
  9
$DIMCLRE
 70
     0
  9
$DIMCLRT
 70
     0
  9
$DIMTFAC
 40
1.0
  9
$DIMGAP
 40
0.09
  9
$DIMJUST
 70
     0
  9
$DIMSD1
 70
     0
  9
$DIMSD2
 70
     0
  9
$DIMTOLJ
 70
     1
  9
$DIMTZIN
 70
     0
  9
$DIMALTZ
 70
     0
  9
$DIMALTTZ
 70
     0
  9
$DIMUPT
 70
     0
  9
$DIMDEC
 70
     4
  9
$DIMTDEC
 70
     4
  9
$DIMALTU
 70
     2
  9
$DIMALTTD
 70
     2
  9
$DIMTXSTY
  7
Standard
  9
$DIMAUNIT
 70
     0
  9
$DIMADEC
 70
     0
  9
$DIMALTRND
 40
0.0
  9
$DIMAZIN
 70
     0
  9
$DIMDSEP
 70
    46
  9
$DIMATFIT
 70
     3
  9
$DIMFRAC
 70
     0
  9
$DIMLDRBLK
  1

  9
$DIMLUNIT
 70
     2
  9
$DIMLWD
 70
    -2
  9
$DIMLWE
 70
    -2
  9
$DIMTMOVE
 70
     0
  9
$LUNITS
 70
     2
  9
$LUPREC
 70
     4
  9
$SKETCHINC
 40
0.1
  9
$FILLETRAD
 40
0.5
  9
$AUNITS
 70
     0
  9
$AUPREC
 70
     0
  9
$MENU
  1
.
  9
$ELEVATION
 40
0.0
  9
$PELEVATION
 40
0.0
  9
$THICKNESS
 40
0.0
  9
$LIMCHECK
 70
     0
  9
$CHAMFERA
 40
0.5
  9
$CHAMFERB
 40
0.5
  9
$CHAMFERC
 40
1.0
  9
$CHAMFERD
 40
0.0
  9
$SKPOLY
 70
     0
  9
$TDCREATE
 40
2456548.602123646
  9
$TDUCREATE
 40
2456548.227123646
  9
$TDUPDATE
 40
2456548.602125081
  9
$TDUUPDATE
 40
2456548.227125081
  9
$TDINDWG
 40
0.0000000116
  9
$TDUSRTIMER
 40
0.0000000116
  9
$USRTIMER
 70
     1
  9
$ANGBASE
 50
0.0
  9
$ANGDIR
 70
     0
  9
$PDMODE
 70
     0
  9
$PDSIZE
 40
0.0
  9
$PLINEWID
 40
0.0
  9
$SPLFRAME
 70
     0
  9
$SPLINETYPE
 70
     6
  9
$SPLINESEGS
 70
     8
  9
$HANDSEED
  5
30B
  9
$SURFTAB1
 70
     6
  9
$SURFTAB2
 70
     6
  9
$SURFTYPE
 70
     6
  9
$SURFU
 70
     6
  9
$SURFV
 70
     6
  9
$UCSBASE
  2

  9
$UCSNAME
  2

  9
$UCSORG
 10
0.0
 20
0.0
 30
0.0
  9
$UCSXDIR
 10
1.0
 20
0.0
 30
0.0
  9
$UCSYDIR
 10
0.0
 20
1.0
 30
0.0
  9
$UCSORTHOREF
  2

  9
$UCSORTHOVIEW
 70
     0
  9
$UCSORGTOP
 10
0.0
 20
0.0
 30
0.0
  9
$UCSORGBOTTOM
 10
0.0
 20
0.0
 30
0.0
  9
$UCSORGLEFT
 10
0.0
 20
0.0
 30
0.0
  9
$UCSORGRIGHT
 10
0.0
 20
0.0
 30
0.0
  9
$UCSORGFRONT
 10
0.0
 20
0.0
 30
0.0
  9
$UCSORGBACK
 10
0.0
 20
0.0
 30
0.0
  9
$PUCSBASE
  2

  9
$PUCSNAME
  2

  9
$PUCSORG
 10
0.0
 20
0.0
 30
0.0
  9
$PUCSXDIR
 10
1.0
 20
0.0
 30
0.0
  9
$PUCSYDIR
 10
0.0
 20
1.0
 30
0.0
  9
$PUCSORTHOREF
  2

  9
$PUCSORTHOVIEW
 70
     0
  9
$PUCSORGTOP
 10
0.0
 20
0.0
 30
0.0
  9
$PUCSORGBOTTOM
 10
0.0
 20
0.0
 30
0.0
  9
$PUCSORGLEFT
 10
0.0
 20
0.0
 30
0.0
  9
$PUCSORGRIGHT
 10
0.0
 20
0.0
 30
0.0
  9
$PUCSORGFRONT
 10
0.0
 20
0.0
 30
0.0
  9
$PUCSORGBACK
 10
0.0
 20
0.0
 30
0.0
  9
$USERI1
 70
     0
  9
$USERI2
 70
     0
  9
$USERI3
 70
     0
  9
$USERI4
 70
     0
  9
$USERI5
 70
     0
  9
$USERR1
 40
18.1
  9
$USERR2
 40
0.0
  9
$USERR3
 40
0.0
  9
$USERR4
 40
0.0
  9
$USERR5
 40
0.0
  9
$WORLDVIEW
 70
     1
  9
$SHADEDGE
 70
     3
  9
$SHADEDIF
 70
    70
  9
$TILEMODE
 70
     1
  9
$MAXACTVP
 70
    64
  9
$PINSBASE
 10
0.0
 20
0.0
 30
0.0
  9
$PLIMCHECK
 70
     0
  9
$PEXTMIN
 10
1.00000000000000E+20
 20
1.00000000000000E+20
 30
1.00000000000000E+20
  9
$PEXTMAX
 10
-1.00000000000000E+20
 20
-1.00000000000000E+20
 30
-1.00000000000000E+20
  9
$PLIMMIN
 10
0.0
 20
0.0
  9
$PLIMMAX
 10
12.0
 20
9.0
  9
$UNITMODE
 70
     0
  9
$VISRETAIN
 70
     1
  9
$PLINEGEN
 70
     0
  9
$PSLTSCALE
 70
     1
  9
$TREEDEPTH
 70
  3020
  9
$CMLSTYLE
  2
Standard
  9
$CMLJUST
 70
     0
  9
$CMLSCALE
 40
1.0
  9
$PROXYGRAPHICS
 70
     1
  9
$MEASUREMENT
 70
     1
  9
$CELWEIGHT
370
    -1
  9
$ENDCAPS
280
     0
  9
$JOINSTYLE
280
     0
  9
$LWDISPLAY
290
     0
  9
$INSUNITS
 70
     4
  9
$HYPERLINKBASE
  1

  9
$STYLESHEET
  1

  9
$XEDIT
290
     1
  9
$CEPSNTYPE
380
     0
  9
$PSTYLEMODE
290
     1
  9
$FINGERPRINTGUID
  2
{D410A779-0927-4CB1-B520-C93BD4B729B9}
  9
$VERSIONGUID
  2
{FAEB1C32-E019-11D5-929B-00C0DF256EC4}
  9
$EXTNAMES
290
     1
  9
$PSVPSCALE
 40
0.0
  9
$OLESTARTUP
290
     0
  0
ENDSEC
  0
SECTION
  2
CLASSES
  0
CLASS
  1
ACDBDICTIONARYWDFLT
  2
AcDbDictionaryWithDefault
  3
ObjectDBX Classes
 90
        0
280
     0
281
     0
  0
CLASS
  1
VISUALSTYLE
  2
AcDbVisualStyle
  3
ObjectDBX Classes
 90
     4095
280
     0
281
     0
  0
CLASS
  1
MATERIAL
  2
AcDbMaterial
  3
ObjectDBX Classes
 90
     1153
280
     0
281
     0
  0
CLASS
  1
DICTIONARYVAR
  2
AcDbDictionaryVar
  3
ObjectDBX Classes
 90
        0
280
     0
281
     0
  0
CLASS
  1
ACDBPLACEHOLDER
  2
AcDbPlaceHolder
  3
ObjectDBX Classes
 90
        0
280
     0
281
     0
  0
CLASS
  1
LAYOUT
  2
AcDbLayout
  3
ObjectDBX Classes
 90
        0
280
     0
281
     0
  0
ENDSEC
  0
SECTION
  2
TABLES
  0
TABLE
  2
VPORT
  5
8
330
0
100
AcDbSymbolTable
 70
     1
  0
VPORT
  5
29
330
8
100
AcDbSymbolTableRecord
100
AcDbViewportTableRecord
  2
*Active
 70
     0
 10
0.0
 20
0.0
 11
1.0
 21
1.0
 12
262.5
 22
371.25
 13
0.0
 23
0.0
 14
0.5
 24
0.5
 15
0.5
 25
0.5
 16
0.0
 26
0.0
 36
1.0
 17
0.0
 27
0.0
 37
0.0
 40
816.7500000000001
 41
1.60267857142857
 42
50.0
 43
0.0
 44
0.0
 50
0.0
 51
0.0
 71
     0
 72
   100
 73
     1
 74
     3
 75
     0
 76
     0
 77
     0
 78
     0
281
     0
 65
     1
110
0.0
120
0.0
130
0.0
111
1.0
121
0.0
131
0.0
112
0.0
122
1.0
132
0.0
 79
     0
146
0.0
  0
ENDTAB
  0
TABLE
  2
LTYPE
  5
5
330
0
100
AcDbSymbolTable
 70
     8
  0
LTYPE
  5
14
330
5
100
AcDbSymbolTableRecord
100
AcDbLinetypeTableRecord
  2
ByBlock
 70
     0
  3

 72
    65
 73
     0
 40
0.0
  0
LTYPE
  5
15
330
5
100
AcDbSymbolTableRecord
100
AcDbLinetypeTableRecord
  2
ByLayer
 70
     0
  3

 72
    65
 73
     0
 40
0.0
  0
LTYPE
  5
16
330
5
100
AcDbSymbolTableRecord
100
AcDbLinetypeTableRecord
  2
Continuous
 70
     0
  3
Solid line
 72
    65
 73
     0
 40
0.0
  0
LTYPE
  5
3F
330
5
100
AcDbSymbolTableRecord
100
AcDbLinetypeTableRecord
  2
DASHED
 70
     0
  3
Dashed
 72
    65
 73
     2
 40
15.0
 49
7.0
 74
     0
 49
-8.0
 74
     0
  0
LTYPE
  5
40
330
5
100
AcDbSymbolTableRecord
100
AcDbLinetypeTableRecord
  2
DOTTED
 70
     0
  3
Dotted
 72
    65
 73
     2
 40
1.0
 49
0.0
 74
     0
 49
-1.0
 74
     0
  0
LTYPE
  5
41
330
5
100
AcDbSymbolTableRecord
100
AcDbLinetypeTableRecord
  2
DOT_CENTER
 70
     0
  3
Dot_Center
 72
    65
 73
     4
 40
14.0
 49
12.0
 74
     0
 49
-1.0
 74
     0
 49
0.0
 74
     0
 49
-1.0
 74
     0
  0
LTYPE
  5
42
330
5
100
AcDbSymbolTableRecord
100
AcDbLinetypeTableRecord
  2
LONG_DASHED
 70
     0
  3
Long_Dashed
 72
    65
 73
     2
 40
15.0
 49
10.0
 74
     0
 49
-5.0
 74
     0
  0
LTYPE
  5
43
330
5
100
AcDbSymbolTableRecord
100
AcDbLinetypeTableRecord
  2
DASH_CENTER
 70
     0
  3
Dash_Center
 72
    65
 73
     4
 40
14.0
 49
11.0
 74
     0
 49
-1.0
 74
     0
 49
1.0
 74
     0
 49
-1.0
 74
     0
  0
LTYPE
  5
44
330
5
100
AcDbSymbolTableRecord
100
AcDbLinetypeTableRecord
  2
PHANTOM
 70
     0
  3
Phantom
 72
    65
 73
     6
 40
13.0
 49
10.0
 74
     0
 49
-1.0
 74
     0
 49
0.0
 74
     0
 49
-1.0
 74
     0
 49
0.0
 74
     0
 49
-1.0
 74
     0
  0
LTYPE
  5
45
330
5
100
AcDbSymbolTableRecord
100
AcDbLinetypeTableRecord
  2
CENTER_DASH_DASH
 70
     0
  3
Center_Dash_Dash
 72
    65
 73
     6
 40
14.0
 49
9.0
 74
     0
 49
-1.0
 74
     0
 49
1.0
 74
     0
 49
-1.0
 74
     0
 49
1.0
 74
     0
 49
-1.0
 74
     0
  0
ENDTAB
  0
TABLE
  2
LAYER
  5
2
330
0
100
AcDbSymbolTable
 70
     2
  0
LAYER
  5
10
330
2
100
AcDbSymbolTableRecord
100
AcDbLayerTableRecord
  2
0
 70
     0
 62
     7
  6
Continuous
370
    -3
390
F
  0
LAYER
  5
46
330
2
100
AcDbSymbolTableRecord
100
AcDbLayerTableRecord
  2
1
 70
     0
 62
     7
  6
Continuous
370
    -3
390
F
  0
ENDTAB
  0
TABLE
  2
STYLE
  5
3
330
0
100
AcDbSymbolTable
 70
     3
  0
STYLE
  5
11
330
3
100
AcDbSymbolTableRecord
100
AcDbTextStyleTableRecord
  2
Standard
 70
     0
 40
0.0
 41
1.0
 50
0.0
 71
     0
 42
0.2
  3
txt
  4

  0
STYLE
  5
1CD
330
3
100
AcDbSymbolTableRecord
100
AcDbTextStyleTableRecord
  2
CONVERTER_11
 70
     0
 40
0.0
 41
0.89
 50
0.0
 71
     0
 42
0.2
  3
MS Mincho.ttf
  4

1001
ACAD
1000
MS Mincho
1071
    32785
  0
STYLE
  5
27C
330
3
100
AcDbSymbolTableRecord
100
AcDbTextStyleTableRecord
  2
CONVERTER_12
 70
     0
 40
0.0
 41
0.9
 50
0.0
 71
     0
 42
0.2
  3
txt.shx
  4

  0
ENDTAB
  0
TABLE
  2
VIEW
  5
6
330
0
100
AcDbSymbolTable
 70
     0
  0
ENDTAB
  0
TABLE
  2
UCS
  5
7
330
0
100
AcDbSymbolTable
 70
     0
  0
ENDTAB
  0
TABLE
  2
APPID
  5
9
330
0
100
AcDbSymbolTable
 70
     1
  0
APPID
  5
12
330
9
100
AcDbSymbolTableRecord
100
AcDbRegAppTableRecord
  2
ACAD
 70
     0
  0
ENDTAB
  0
TABLE
  2
DIMSTYLE
  5
A
330
0
100
AcDbSymbolTable
 70
     9
100
AcDbDimStyleTable
  0
DIMSTYLE
105
27
330
A
100
AcDbSymbolTableRecord
100
AcDbDimStyleTableRecord
  2
Standard
 70
     0
178
     0
340
11
  0
DIMSTYLE
105
28E
102
{ACAD_REACTORS
330
28F
102
}
330
A
100
AcDbSymbolTableRecord
100
AcDbDimStyleTableRecord
  2
ME10_DIM_10
 70
     0
 41
8.75
 42
0.0
 44
2.5
 73
     0
 74
     0
 77
     1
 78
     8
140
8.75
147
2.5
172
     1
173
     1
174
     1
175
     1
176
     2
177
     2
271
     2
178
     7
271
     2
340
27C
  0
DIMSTYLE
105
299
102
{ACAD_REACTORS
330
29A
102
}
330
A
100
AcDbSymbolTableRecord
100
AcDbDimStyleTableRecord
  2
ME10_DIM_11
 70
     0
  3
{\Fgdt;n}<>
 41
8.75
 42
0.0
 44
2.5
 73
     0
 74
     0
 77
     1
 78
     8
140
8.75
147
2.5
172
     1
173
     1
174
     1
175
     1
176
     2
177
     2
271
     2
178
     7
271
     2
340
27C
  0
DIMSTYLE
105
2A4
102
{ACAD_REACTORS
330
2A5
102
}
330
A
100
AcDbSymbolTableRecord
100
AcDbDimStyleTableRecord
  2
ME10_DIM_12
 70
     0
 41
8.75
 42
0.0
 44
2.5
 73
     0
 74
     0
 77
     1
 78
     8
140
8.75
147
2.5
172
     1
173
     1
174
     1
175
     1
176
     2
177
     2
271
     2
178
     7
271
     2
340
27C
  0
DIMSTYLE
105
2AF
102
{ACAD_REACTORS
330
2B0
102
}
330
A
100
AcDbSymbolTableRecord
100
AcDbDimStyleTableRecord
  2
ME10_DIM_13
 70
     0
 41
8.75
 42
0.0
 44
2.5
 73
     0
 74
     0
 77
     1
 78
     8
140
8.75
147
2.5
172
     1
173
     1
174
     1
175
     1
176
     2
177
     2
271
     2
178
     7
271
     2
340
1CD
  0
DIMSTYLE
105
2BA
102
{ACAD_REACTORS
330
2BB
102
}
330
A
100
AcDbSymbolTableRecord
100
AcDbDimStyleTableRecord
  2
ME10_DIM_14
 70
     0
 41
8.75
 42
0.0
 44
2.5
 73
     0
 74
     0
 77
     1
 78
     8
140
8.75
147
2.5
172
     1
173
     1
174
     1
175
     1
176
     2
177
     2
271
     2
178
     7
271
     2
340
27C
  0
DIMSTYLE
105
2C5
102
{ACAD_REACTORS
330
2C6
102
}
330
A
100
AcDbSymbolTableRecord
100
AcDbDimStyleTableRecord
  2
ME10_DIM_15
 70
     0
 41
8.75
 42
0.0
 44
2.5
 73
     0
 74
     0
 77
     1
 78
     8
140
8.75
147
2.5
172
     1
173
     1
174
     1
175
     1
176
     2
177
     2
271
     2
178
     7
271
     2
340
27C
  0
DIMSTYLE
105
2D0
102
{ACAD_REACTORS
330
2D1
102
}
330
A
100
AcDbSymbolTableRecord
100
AcDbDimStyleTableRecord
  2
ME10_DIM_16
 70
     0
 41
8.75
 42
0.0
 44
2.5
 73
     0
 74
     0
 77
     1
 78
     8
140
8.75
147
2.5
172
     1
173
     1
174
     1
175
     1
176
     2
177
     2
271
     2
178
     7
271
     2
340
27C
  0
DIMSTYLE
105
2DE
102
{ACAD_REACTORS
330
2DF
102
}
330
A
100
AcDbSymbolTableRecord
100
AcDbDimStyleTableRecord
  2
ME10_DIM_17
 70
     0
 41
8.75
 42
0.0
 44
2.5
 73
     0
 74
     0
 77
     1
 78
     8
140
8.75
147
2.5
172
     1
173
     1
174
     1
175
     1
176
     2
177
     2
271
     2
178
     7
271
     2
340
27C
343
2DB
  0
ENDTAB
  0
TABLE
  2
BLOCK_RECORD
  5
1
330
0
100
AcDbSymbolTable
 70
    20
  0
BLOCK_RECORD
  5
1F
330
1
100
AcDbSymbolTableRecord
100
AcDbBlockTableRecord
  2
*Model_Space
340
22
  0
BLOCK_RECORD
  5
1B
330
1
100
AcDbSymbolTableRecord
100
AcDbBlockTableRecord
  2
*Paper_Space
340
1E
  0
BLOCK_RECORD
  5
23
330
1
100
AcDbSymbolTableRecord
100
AcDbBlockTableRecord
  2
*Paper_Space0
340
26
  0
BLOCK_RECORD
  5
47
330
1
100
AcDbSymbolTableRecord
100
AcDbBlockTableRecord
  2
27-2A-M1
340
0
102
{BLKREFS
331
69
102
}
  0
BLOCK_RECORD
  5
4A
330
1
100
AcDbSymbolTableRecord
100
AcDbBlockTableRecord
  2
36-190-M11
340
0
102
{BLKREFS
331
51
102
}
  0
BLOCK_RECORD
  5
4D
330
1
100
AcDbSymbolTableRecord
100
AcDbBlockTableRecord
  2
37-119
340
0
102
{BLKREFS
331
52
102
}
  0
BLOCK_RECORD
  5
50
330
1
100
AcDbSymbolTableRecord
100
AcDbBlockTableRecord
  2
U360LS-13
340
0
102
{BLKREFS
331
6A
102
}
  0
BLOCK_RECORD
  5
55
330
1
100
AcDbSymbolTableRecord
100
AcDbBlockTableRecord
  2
A231L-0-13-M1
340
0
102
{BLKREFS
331
6B
102
}
  0
BLOCK_RECORD
  5
58
330
1
100
AcDbSymbolTableRecord
100
AcDbBlockTableRecord
  2
開示A4
340
0
102
{BLKREFS
331
6C
102
}
  0
BLOCK_RECORD
  5
5B
330
1
100
AcDbSymbolTableRecord
100
AcDbBlockTableRecord
  2
32-1-16
340
0
102
{BLKREFS
331
62
102
}
  0
BLOCK_RECORD
  5
5E
330
1
100
AcDbSymbolTableRecord
100
AcDbBlockTableRecord
  2
61-1-16-170
340
0
102
{BLKREFS
331
63
102
}
  0
BLOCK_RECORD
  5
61
330
1
100
AcDbSymbolTableRecord
100
AcDbBlockTableRecord
  2
61-1X-16-170
340
0
102
{BLKREFS
331
6D
102
}
  0
BLOCK_RECORD
  5
66
330
1
100
AcDbSymbolTableRecord
100
AcDbBlockTableRecord
  2
42-29
340
0
102
{BLKREFS
331
6E
102
}
  0
BLOCK_RECORD
  5
285
330
1
100
AcDbSymbolTableRecord
100
AcDbBlockTableRecord
  2
*D11
340
0
  0
BLOCK_RECORD
  5
290
330
1
100
AcDbSymbolTableRecord
100
AcDbBlockTableRecord
  2
*D12
340
0
  0
BLOCK_RECORD
  5
29B
330
1
100
AcDbSymbolTableRecord
100
AcDbBlockTableRecord
  2
*D13
340
0
  0
BLOCK_RECORD
  5
2A6
330
1
100
AcDbSymbolTableRecord
100
AcDbBlockTableRecord
  2
*D14
340
0
  0
BLOCK_RECORD
  5
2B1
330
1
100
AcDbSymbolTableRecord
100
AcDbBlockTableRecord
  2
*D15
340
0
  0
BLOCK_RECORD
  5
2BC
330
1
100
AcDbSymbolTableRecord
100
AcDbBlockTableRecord
  2
*D16
340
0
  0
BLOCK_RECORD
  5
2C7
330
1
100
AcDbSymbolTableRecord
100
AcDbBlockTableRecord
  2
*D17
340
0
  0
BLOCK_RECORD
  5
2D2
330
1
100
AcDbSymbolTableRecord
100
AcDbBlockTableRecord
  2
*D18
340
0
  0
BLOCK_RECORD
  5
2DB
330
1
100
AcDbSymbolTableRecord
100
AcDbBlockTableRecord
  2
_NONE
340
0
  0
ENDTAB
  0
ENDSEC
  0
SECTION
  2
BLOCKS
  0
BLOCK
  5
20
330
1F
100
AcDbEntity
  8
0
100
AcDbBlockBegin
  2
*Model_Space
 70
     0
 10
0.0
 20
0.0
 30
0.0
  3
*Model_Space
  1

  0
ENDBLK
  5
21
330
1F
100
AcDbEntity
  8
0
100
AcDbBlockEnd
  0
BLOCK
  5
1C
330
1B
100
AcDbEntity
 67
     1
  8
0
100
AcDbBlockBegin
  2
*Paper_Space
 70
     0
 10
0.0
 20
0.0
 30
0.0
  3
*Paper_Space
  1

  0
ENDBLK
  5
1D
330
1B
100
AcDbEntity
 67
     1
  8
0
100
AcDbBlockEnd
  0
BLOCK
  5
24
330
23
100
AcDbEntity
  8
0
100
AcDbBlockBegin
  2
*Paper_Space0
 70
     0
 10
0.0
 20
0.0
 30
0.0
  3
*Paper_Space0
  1

  0
ENDBLK
  5
25
330
23
100
AcDbEntity
  8
0
100
AcDbBlockEnd
  0
BLOCK
  5
48
330
47
100
AcDbEntity
  8
0
100
AcDbBlockBegin
  2
27-2A-M1
 70
     0
 10
-103.3403318129679
 20
474.8357924145271
 30
0.0
  3
27-2A-M1
  1

  0
LINE
  5
6F
330
47
100
AcDbEntity
  8
1
  6
PHANTOM
 62
     4
100
AcDbLine
 10
157.3647108031151
 20
263.9659284573584
 30
0.0
 11
163.0410881868131
 21
263.9659284573584
 31
0.0
  0
LINE
  5
70
330
47
100
AcDbEntity
  8
1
  6
PHANTOM
 62
     4
100
AcDbLine
 10
160.1024074940066
 20
240.9659284573583
 30
0.0
 11
160.1024074940066
 21
270.6012444207953
 31
0.0
  0
LINE
  5
71
330
47
100
AcDbEntity
  8
1
  6
Continuous
 62
     7
100
AcDbLine
 10
393.4215463337633
 20
239.561608999236
 30
0.0
 11
402.4963174575806
 21
240.0371976013372
 31
0.0
  0
LINE
  5
72
330
47
100
AcDbEntity
  8
1
  6
Continuous
 62
     7
100
AcDbLine
 10
373.2472736955025
 20
567.3076338397301
 30
0.0
 11
392.4472736955025
 21
567.3076338397301
 31
0.0
  0
LINE
  5
73
330
47
100
AcDbEntity
  8
1
  6
Continuous
 62
     7
100
AcDbLine
 10
401.2472736955025
 20
559.3076338397301
 30
0.0
 11
392.4472736955025
 21
559.3076338397301
 31
0.0
  0
LINE
  5
74
330
47
100
AcDbEntity
  8
1
  6
Continuous
 62
     7
100
AcDbLine
 10
373.2472736955025
 20
559.3076338397301
 30
0.0
 11
373.2472736955025
 21
567.3076338397301
 31
0.0
  0
LINE
  5
75
330
47
100
AcDbEntity
  8
1
  6
Continuous
 62
     7
100
AcDbLine
 10
401.2472736955025
 20
559.3076338397301
 30
0.0
 11
401.2472736955025
 21
560.1324971173402
 31
0.0
  0
LINE
  5
76
330
47
100
AcDbEntity
  8
1
  6
Continuous
 62
     7
100
AcDbLine
 10
401.2472736955025
 20
560.1324971173402
 30
0.0
 11
401.2472736955025
 21
566.4827705621202
 31
0.0
  0
LINE
  5
77
330
47
100
AcDbEntity
  8
1
  6
Continuous
 62
     7
100
AcDbLine
 10
392.4472736955025
 20
567.3076338397301
 30
0.0
 11
401.2472736955025
 21
567.3076338397301
 31
0.0
  0
LINE
  5
78
330
47
100
AcDbEntity
  8
1
  6
PHANTOM
 62
     4
100
AcDbLine
 10
387.2472736955025
 20
556.3076338397301
 30
0.0
 11
387.2472736955025
 21
570.3076338397301
 31
0.0
  0
LINE
  5
79
330
47
100
AcDbEntity
  8
1
  6
Continuous
 62
     7
100
AcDbLine
 10
392.4472736955025
 20
559.3076338397301
 30
0.0
 11
373.2472736955025
 21
559.3076338397301
 31
0.0
  0
LINE
  5
7A
330
47
100
AcDbEntity
  8
1
  6
Continuous
 62
     7
100
AcDbLine
 10
392.4472736955025
 20
558.9589983958745
 30
0.0
 11
392.4472736955025
 21
559.3076338397301
 31
0.0
  0
LINE
  5
7B
330
47
100
AcDbEntity
  8
1
  6
Continuous
 62
     7
100
AcDbLine
 10
392.4472736955025
 20
574.8522549162202
 30
0.0
 11
415.9472736955025
 21
576.0838377293715
 31
0.0
  0
LINE
  5
7C
330
47
100
AcDbEntity
  8
1
  6
Continuous
 62
     7
100
AcDbLine
 10
415.9472736955025
 20
240.7421323470002
 30
0.0
 11
415.9472736955025
 21
215.1897245677171
 31
0.0
  0
LINE
  5
7D
330
47
100
AcDbEntity
  8
1
  6
Continuous
 62
     7
100
AcDbLine
 10
392.4472736955025
 20
227.9659284573587
 30
0.0
 11
392.4472736955025
 21
216.4213073808685
 31
0.0
  0
LINE
  5
7E
330
47
100
AcDbEntity
  8
1
  6
PHANTOM
 62
     4
100
AcDbLine
 10
160.1024074940066
 20
231.9659284573583
 30
0.0
 11
160.1024074940068
 21
227.9659284573584
 31
0.0
  0
LINE
  5
7F
330
47
100
AcDbEntity
  8
1
  6
PHANTOM
 62
     4
100
AcDbLine
 10
145.3104037273345
 20
227.9659284573583
 30
0.0
 11
160.1024074940068
 21
227.9659284573584
 31
0.0
  0
LINE
  5
80
330
47
100
AcDbEntity
  8
1
  6
Continuous
 62
     7
100
AcDbLine
 10
403.4472736955025
 20
559.3076338397301
 30
0.0
 11
403.4472736955025
 21
561.1176338397302
 31
0.0
  0
LINE
  5
81
330
47
100
AcDbEntity
  8
1
  6
Continuous
 62
     7
100
AcDbLine
 10
403.4472736955025
 20
561.1176338397302
 30
0.0
 11
402.0825896589394
 21
561.5257447397302
 31
0.0
  0
LINE
  5
82
330
47
100
AcDbEntity
  8
1
  6
Continuous
 62
     7
100
AcDbLine
 10
403.4472736955025
 20
561.1176338397302
 30
0.0
 11
403.4472736955025
 21
565.4976338397302
 31
0.0
  0
LINE
  5
83
330
47
100
AcDbEntity
  8
1
  6
Continuous
 62
     7
100
AcDbLine
 10
403.4472736955025
 20
565.4976338397302
 30
0.0
 11
402.0825896589394
 21
565.0895229397302
 31
0.0
  0
LINE
  5
84
330
47
100
AcDbEntity
  8
1
  6
Continuous
 62
     7
100
AcDbLine
 10
392.4472736955025
 20
558.9589983958745
 30
0.0
 11
405.4472736955025
 21
557.3076338397301
 31
0.0
  0
LINE
  5
85
330
47
100
AcDbEntity
  8
1
  6
Continuous
 62
     7
100
AcDbLine
 10
401.2472736955025
 20
560.1324971173402
 30
0.0
 11
404.1781630737277
 21
557.7618789336412
 31
0.0
  0
LINE
  5
86
330
47
100
AcDbEntity
  8
1
  6
Continuous
 62
     7
100
AcDbLine
 10
392.4472736955025
 20
574.8522549162202
 30
0.0
 11
392.4472736955025
 21
567.6562692835859
 31
0.0
  0
LINE
  5
87
330
47
100
AcDbEntity
  8
1
  6
Continuous
 62
     7
100
AcDbLine
 10
405.4472736955025
 20
569.3076338397301
 30
0.0
 11
392.4472736955025
 21
567.6562692835859
 31
0.0
  0
LINE
  5
88
330
47
100
AcDbEntity
  8
1
  6
Continuous
 62
     7
100
AcDbLine
 10
404.2009453757132
 20
568.8718159644494
 30
0.0
 11
401.2472736955025
 21
566.4827705621202
 31
0.0
  0
LINE
  5
89
330
47
100
AcDbEntity
  8
1
  6
Continuous
 62
     7
100
AcDbLine
 10
403.4472736955025
 20
565.4976338397302
 30
0.0
 11
403.4472736955025
 21
567.3076338397301
 31
0.0
  0
LINE
  5
8A
330
47
100
AcDbEntity
  8
1
  6
Continuous
 62
     7
100
AcDbLine
 10
392.4472736955025
 20
567.6562692835859
 30
0.0
 11
392.4472736955025
 21
567.3076338397301
 31
0.0
  0
LINE
  5
8B
330
47
100
AcDbEntity
  8
1
  6
PHANTOM
 62
     4
100
AcDbLine
 10
370.2472736955025
 20
563.3076338397301
 30
0.0
 11
418.9472736955025
 21
563.3076338397301
 31
0.0
  0
LINE
  5
8C
330
47
100
AcDbEntity
  8
1
  6
Continuous
 62
     7
100
AcDbLine
 10
402.0825896589394
 20
561.5257447397302
 30
0.0
 11
402.0825896589394
 21
565.0895229397302
 31
0.0
  0
LINE
  5
8D
330
47
100
AcDbEntity
  8
1
  6
Continuous
 62
     7
100
AcDbLine
 10
401.2472736955025
 20
566.4827705621202
 30
0.0
 11
401.2472736955025
 21
567.3076338397301
 31
0.0
  0
LINE
  5
8E
330
47
100
AcDbEntity
  8
1
  6
Continuous
 62
     7
100
AcDbLine
 10
415.9472736955025
 20
550.5314299500886
 30
0.0
 11
392.4472736955025
 21
551.7630127632402
 31
0.0
  0
LINE
  5
8F
330
47
100
AcDbEntity
  8
1
  6
Continuous
 62
     7
100
AcDbLine
 10
415.9472736955025
 20
576.0838377293715
 30
0.0
 11
415.9472736955025
 21
550.5314299500886
 31
0.0
  0
LINE
  5
90
330
47
100
AcDbEntity
  8
1
  6
Continuous
 62
     7
100
AcDbLine
 10
401.5065329610099
 20
283.2057893714044
 30
0.0
 11
403.3566801150248
 21
242.0998141780028
 31
0.0
  0
LINE
  5
91
330
47
100
AcDbEntity
  8
1
  6
Continuous
 62
     7
100
AcDbLine
 10
396.5115898497481
 20
282.9809709663358
 30
0.0
 11
396.8026313794186
 21
276.5147037437944
 31
0.0
  0
LINE
  5
92
330
47
100
AcDbEntity
  8
1
  6
Continuous
 62
     7
100
AcDbLine
 10
389.2196870230546
 20
274.2650353802495
 30
0.0
 11
380.8830998095437
 21
282.6021802890791
 31
0.0
  0
LINE
  5
93
330
47
100
AcDbEntity
  8
1
  6
Continuous
 62
     7
100
AcDbLine
 10
385.6841531151442
 20
270.7295014723391
 30
0.0
 11
377.3474476506777
 21
279.0667646400349
 31
0.0
  0
LINE
  5
94
330
47
100
AcDbEntity
  8
1
  6
PHANTOM
 62
     4
100
AcDbLine
 10
387.2472736955025
 20
305.0186685201705
 30
0.0
 11
387.2472736955025
 21
273.3842186964994
 31
0.0
  0
LINE
  5
95
330
47
100
AcDbEntity
  8
1
  6
PHANTOM
 62
     4
100
AcDbLine
 10
154.1024074940066
 20
288.9659284573584
 30
0.0
 11
166.1024074940066
 21
288.9659284573584
 31
0.0
  0
LINE
  5
96
330
47
100
AcDbEntity
  8
1
  6
Continuous
 62
     7
100
AcDbLine
 10
160.1024074940066
 20
302.9659284573584
 30
0.0
 11
164.1024074940066
 21
302.9659284573584
 31
0.0
  0
LINE
  5
97
330
47
100
AcDbEntity
  8
1
  6
Continuous
 62
     7
100
AcDbLine
 10
164.1024074940066
 20
302.9659284573584
 30
0.0
 11
164.1024074940066
 21
263.9659284573584
 31
0.0
  0
LINE
  5
98
330
47
100
AcDbEntity
  8
1
  6
Continuous
 62
     7
100
AcDbLine
 10
164.1024074940066
 20
263.9659284573584
 30
0.0
 11
164.6034215567549
 21
247.2654596990786
 31
0.0
  0
LINE
  5
99
330
47
100
AcDbEntity
  8
1
  6
Continuous
 62
     7
100
AcDbLine
 10
155.6013934312582
 20
247.2654596990786
 30
0.0
 11
156.1024074940066
 21
263.9659284573584
 31
0.0
  0
LINE
  5
9A
330
47
100
AcDbEntity
  8
1
  6
Continuous
 62
     7
100
AcDbLine
 10
156.1024074940066
 20
263.9659284573584
 30
0.0
 11
156.1024074940066
 21
302.9659284573584
 31
0.0
  0
LINE
  5
9B
330
47
100
AcDbEntity
  8
1
  6
PHANTOM
 62
     4
100
AcDbLine
 10
160.1024074940066
 20
305.9659284573584
 30
0.0
 11
160.1024074940066
 21
302.9659284573584
 31
0.0
  0
LINE
  5
9C
330
47
100
AcDbEntity
  8
1
  6
Continuous
 62
     7
100
AcDbLine
 10
156.1024074940066
 20
302.9659284573584
 30
0.0
 11
160.1024074940066
 21
302.9659284573584
 31
0.0
  0
LINE
  5
9D
330
47
100
AcDbEntity
  8
1
  6
PHANTOM
 62
     4
100
AcDbLine
 10
160.1024074940066
 20
302.9659284573584
 30
0.0
 11
160.1024074940066
 21
270.6012444207953
 31
0.0
  0
LINE
  5
9E
330
47
100
AcDbEntity
  8
1
  6
Continuous
 62
     7
100
AcDbLine
 10
389.9781551633163
 20
273.5065165005042
 30
0.0
 11
389.2196870230546
 21
274.2650353802495
 31
0.0
  0
LINE
  5
9F
330
47
100
AcDbEntity
  8
1
  6
Continuous
 62
     7
100
AcDbLine
 10
396.2422116871618
 20
288.9659284573585
 30
0.0
 11
396.5115898497481
 21
282.9809709663358
 31
0.0
  0
LINE
  5
A0
330
47
100
AcDbEntity
  8
1
  6
PHANTOM
 62
     4
100
AcDbLine
 10
396.2422116871618
 20
288.9659284573585
 30
0.0
 11
408.4472736955025
 21
288.9659284573585
 31
0.0
  0
LINE
  5
A1
330
47
100
AcDbEntity
  8
1
  6
Continuous
 62
     7
100
AcDbLine
 10
392.4472736955025
 20
263.9659284573585
 30
0.0
 11
385.6841531151442
 21
270.7295014723391
 31
0.0
  0
LINE
  5
A2
330
47
100
AcDbEntity
  8
1
  6
Continuous
 62
     7
100
AcDbLine
 10
415.9472736955025
 20
215.1897245677171
 30
0.0
 11
392.4472736955025
 21
216.4213073808685
 31
0.0
  0
LINE
  5
A3
330
47
100
AcDbEntity
  8
1
  6
Continuous
 62
     7
100
AcDbLine
 10
392.4472736955025
 20
263.9659284573585
 30
0.0
 11
392.4472736955025
 21
227.9659284573587
 31
0.0
  0
LINE
  5
A4
330
47
100
AcDbEntity
  8
1
  6
Continuous
 62
     7
100
AcDbLine
 10
403.4472736955025
 20
240.0870351059621
 30
0.0
 11
415.9472736955025
 21
240.7421323470002
 31
0.0
  0
LINE
  5
A5
330
47
100
AcDbEntity
  8
1
  6
Continuous
 62
     7
100
AcDbLine
 10
401.2472736955025
 20
288.9659284573585
 30
0.0
 11
401.5065329610099
 21
283.2057893714044
 31
0.0
  0
LINE
  5
A6
330
47
100
AcDbEntity
  8
1
  6
PHANTOM
 62
     4
100
AcDbLine
 10
160.1024074940068
 20
227.9659284573584
 30
0.0
 11
160.1024074940066
 21
211.5473839075455
 31
0.0
  0
LINE
  5
A7
330
47
100
AcDbEntity
  8
1
  6
PHANTOM
 62
     4
100
AcDbLine
 10
160.1024074940068
 20
227.9659284573584
 30
0.0
 11
174.7759667125697
 21
227.9659284573583
 31
0.0
  0
LINE
  5
A8
330
47
100
AcDbEntity
  8
1
  6
PHANTOM
 62
     4
100
AcDbLine
 10
387.2472736955025
 20
227.9659284573587
 30
0.0
 11
418.9472736955025
 21
227.9659284573587
 31
0.0
  0
LINE
  5
A9
330
47
100
AcDbEntity
  8
1
  6
PHANTOM
 62
     4
100
AcDbLine
 10
370.9999750268792
 20
288.9659284573585
 30
0.0
 11
396.2422116871618
 21
288.9659284573585
 31
0.0
  0
LINE
  5
AA
330
47
100
AcDbEntity
  8
1
  6
PHANTOM
 62
     4
100
AcDbLine
 10
160.1024074940066
 20
231.9659284573583
 30
0.0
 11
160.1024074940066
 21
240.9659284573583
 31
0.0
  0
LINE
  5
AB
330
47
100
AcDbEntity
  8
1
  6
Continuous
 62
     7
100
AcDbLine
 10
392.4472736955025
 20
551.7630127632402
 30
0.0
 11
392.4472736955025
 21
558.9589983958745
 31
0.0
  0
ARC
  5
AC
330
47
100
AcDbEntity
  8
1
  6
Continuous
 62
     7
100
AcDbCircle
 10
160.1024074940068
 20
227.9659284573584
 30
0.0
 40
12.75
100
AcDbArc
 50
0.0
 51
45.37238356672472
  0
ARC
  5
AD
330
47
100
AcDbEntity
  8
1
  6
Continuous
 62
     7
100
AcDbCircle
 10
405.4472736955025
 20
559.3076338397301
 30
0.0
 40
1.999999999999823
100
AcDbArc
 50
230.6129894947505
 51
270.0
  0
ARC
  5
AE
330
47
100
AcDbEntity
  8
1
  6
Continuous
 62
     7
100
AcDbCircle
 10
405.4472736955025
 20
567.3076338397301
 30
0.0
 40
2.000000000000031
100
AcDbArc
 50
128.5475681699423
 51
180.0
  0
ARC
  5
AF
330
47
100
AcDbEntity
  8
1
  6
Continuous
 62
     7
100
AcDbCircle
 10
405.4472736955025
 20
559.3076338397301
 30
0.0
 40
2.0
100
AcDbArc
 50
180.0
 51
230.6129894947505
  0
ARC
  5
B0
330
47
100
AcDbEntity
  8
1
  6
Continuous
 62
     7
100
AcDbCircle
 10
405.4472736955025
 20
567.3076338397301
 30
0.0
 40
2.0
100
AcDbArc
 50
90.0
 51
128.5475681699423
  0
ARC
  5
B1
330
47
100
AcDbEntity
  8
1
  6
Continuous
 62
     7
100
AcDbCircle
 10
140.6081388784227
 20
247.7152573356636
 30
0.0
 40
15.00000000000006
100
AcDbArc
 50
333.2591865778369
 51
358.2816419983448
  0
ARC
  5
B2
330
47
100
AcDbEntity
  8
1
  6
Continuous
 62
     7
100
AcDbCircle
 10
179.5966761095905
 20
247.7152573356636
 30
0.0
 40
15.00000000000004
100
AcDbArc
 50
206.7408134221631
 51
225.3723835667241
  0
ARC
  5
B3
330
47
100
AcDbEntity
  8
1
  6
Continuous
 62
     7
100
AcDbCircle
 10
179.5966761095905
 20
247.7152573356636
 30
0.0
 40
15.00000000000009
100
AcDbArc
 50
181.7183580016552
 51
206.7408134221631
  0
ARC
  5
B4
330
47
100
AcDbEntity
  8
1
  6
Continuous
 62
     7
100
AcDbCircle
 10
160.1024074940068
 20
227.9659284573584
 30
0.0
 40
12.75000000000016
100
AcDbArc
 50
134.6276164332766
 51
180.0000000000004
  0
ARC
  5
B5
330
47
100
AcDbEntity
  8
1
  6
Continuous
 62
     7
100
AcDbCircle
 10
140.6081388784227
 20
247.7152573356636
 30
0.0
 40
14.99999999999998
100
AcDbArc
 50
314.627616433276
 51
333.2591865778369
  0
ARC
  5
B6
330
47
100
AcDbEntity
  8
1
  6
Continuous
 62
     7
100
AcDbCircle
 10
392.8066768904091
 20
276.3348490197394
 30
0.0
 40
3.999999999999968
100
AcDbArc
 50
224.9980835971345
 51
2.57709801858404
  0
ARC
  5
B7
330
47
100
AcDbEntity
  8
1
  6
Continuous
 62
     7
100
AcDbCircle
 10
387.2472736955025
 20
288.9659284573585
 30
0.0
 40
8.994937991659299
100
AcDbArc
 50
0.0
 51
224.9980835971356
  0
ARC
  5
B8
330
47
100
AcDbEntity
  8
1
  6
Continuous
 62
     7
100
AcDbCircle
 10
387.2472736955025
 20
288.9659284573585
 30
0.0
 40
14.0
100
AcDbArc
 50
180.0
 51
224.9980835971356
  0
ARC
  5
B9
330
47
100
AcDbEntity
  8
1
  6
Continuous
 62
     7
100
AcDbCircle
 10
160.1024074940068
 20
227.9659284573584
 30
0.0
 40
12.75
100
AcDbArc
 50
270.0
 51
0.0
  0
ARC
  5
BA
330
47
100
AcDbEntity
  8
1
  6
Continuous
 62
     7
100
AcDbCircle
 10
387.2472736955025
 20
288.9659284573585
 30
0.0
 40
14.0
100
AcDbArc
 50
0.0
 51
90.0
  0
ARC
  5
BB
330
47
100
AcDbEntity
  8
1
  6
Continuous
 62
     7
100
AcDbCircle
 10
387.2472736955025
 20
288.9659284573585
 30
0.0
 40
14.0
100
AcDbArc
 50
90.0
 51
180.0
  0
ARC
  5
BC
330
47
100
AcDbEntity
  8
1
  6
Continuous
 62
     7
100
AcDbCircle
 10
160.1024074940068
 20
227.9659284573584
 30
0.0
 40
12.7500000000002
100
AcDbArc
 50
180.0000000000004
 51
270.0
  0
ARC
  5
BD
330
47
100
AcDbEntity
  8
1
  6
Continuous
 62
     7
100
AcDbCircle
 10
405.3546573595296
 20
242.1897415400304
 30
0.0
 40
2.000000000000013
100
AcDbArc
 50
217.7274863498536
 51
272.9999999999972
  0
ARC
  5
BE
330
47
100
AcDbEntity
  8
1
  6
Continuous
 62
     7
100
AcDbCircle
 10
405.3546573595296
 20
242.1897415400304
 30
0.0
 40
2.000000000000056
100
AcDbArc
 50
182.5770980185872
 51
217.7274863498536
  0
ENDBLK
  5
49
330
47
100
AcDbEntity
  8
0
100
AcDbBlockEnd
  0
BLOCK
  5
4B
330
4A
100
AcDbEntity
  8
0
100
AcDbBlockBegin
  2
36-190-M11
 70
     0
 10
139.2565846042009
 20
1003.802331807142
 30
0.0
  3
36-190-M11
  1

  0
LINE
  5
BF
330
4A
100
AcDbEntity
  8
1
  6
PHANTOM
 62
     4
100
AcDbLine
 10
420.921604143034
 20
563.3076338397302
 30
0.0
 11
404.143257006323
 21
563.3076338397302
 31
0.0
  0
LINE
  5
C0
330
4A
100
AcDbEntity
  8
1
  6
Continuous
 62
     7
100
AcDbLine
 10
415.9472736955025
 20
568.0576338397302
 30
0.0
 11
419.2427295733147
 21
568.0576338397302
 31
0.0
  0
LINE
  5
C1
330
4A
100
AcDbEntity
  8
1
  6
Continuous
 62
     7
100
AcDbLine
 10
419.2427295733147
 20
558.5576338397302
 30
0.0
 11
415.9472736955025
 21
558.5576338397302
 31
0.0
  0
LINE
  5
C2
330
4A
100
AcDbEntity
  8
1
  6
Continuous
 62
     7
100
AcDbLine
 10
419.2427295733147
 20
223.2159284573586
 30
0.0
 11
415.9472736955025
 21
223.2159284573586
 31
0.0
  0
LINE
  5
C3
330
4A
100
AcDbEntity
  8
1
  6
Continuous
 62
     7
100
AcDbLine
 10
415.9472736955025
 20
232.7159284573586
 30
0.0
 11
419.2427295733147
 21
232.7159284573586
 31
0.0
  0
ENDBLK
  5
4C
330
4A
100
AcDbEntity
  8
0
100
AcDbBlockEnd
  0
BLOCK
  5
4E
330
4D
100
AcDbEntity
  8
0
100
AcDbBlockBegin
  2
37-119
 70
     0
 10
-58.4661316756567
 20
740.9902526749138
 30
0.0
  3
37-119
  1

  0
LINE
  5
C4
330
4D
100
AcDbEntity
  8
1
  6
Continuous
 62
     7
100
AcDbLine
 10
424.9291197504166
 20
236.4659284573586
 30
0.0
 11
420.2428282494015
 21
236.4659284573584
 31
0.0
  0
LINE
  5
C5
330
4D
100
AcDbEntity
  8
1
  6
Continuous
 62
     7
100
AcDbLine
 10
427.0504400939761
 20
237.344608113799
 30
0.0
 11
430.7072943434685
 21
241.0014623632912
 31
0.0
  0
LINE
  5
C6
330
4D
100
AcDbEntity
  8
1
  6
Continuous
 62
     7
100
AcDbLine
 10
426.171760437536
 20
227.9659284573586
 30
0.0
 11
426.1717604375357
 21
235.4659284573586
 31
0.0
  0
LINE
  5
C7
330
4D
100
AcDbEntity
  8
1
  6
Continuous
 62
     7
100
AcDbLine
 10
437.7428282494014
 20
235.4659284573587
 30
0.0
 11
437.7428282494014
 21
232.8659284573587
 31
0.0
  0
LINE
  5
C8
330
4D
100
AcDbEntity
  8
1
  6
Continuous
 62
     7
100
AcDbLine
 10
437.7428282494012
 20
241.0366426716301
 30
0.0
 11
437.7428282494014
 21
235.4659284573587
 31
0.0
  0
LINE
  5
C9
330
4D
100
AcDbEntity
  8
1
  6
PHANTOM
 62
     4
100
AcDbLine
 10
440.1687328378327
 20
227.9659284573588
 30
0.0
 11
437.7427295733145
 21
227.9659284573586
 31
0.0
  0
LINE
  5
CA
330
4D
100
AcDbEntity
  8
1
  6
PHANTOM
 62
     4
100
AcDbLine
 10
418.7020976853154
 20
227.9659284573584
 30
0.0
 11
437.7427295733145
 21
227.9659284573586
 31
0.0
  0
LINE
  5
CB
330
4D
100
AcDbEntity
  8
1
  6
Continuous
 62
     7
100
AcDbLine
 10
437.7428282494014
 20
232.8659284573587
 30
0.0
 11
437.7428282494014
 21
227.9659284573587
 31
0.0
  0
LINE
  5
CC
330
4D
100
AcDbEntity
  8
1
  6
Continuous
 62
     7
100
AcDbLine
 10
419.2428282494014
 20
235.4659284573584
 30
0.0
 11
419.2428282494014
 21
227.9659284573584
 31
0.0
  0
LINE
  5
CD
330
4D
100
AcDbEntity
  8
1
  6
Continuous
 62
     7
100
AcDbLine
 10
419.2428282494014
 20
227.9659284573584
 30
0.0
 11
419.2428282494016
 21
220.4659284573583
 31
0.0
  0
LINE
  5
CE
330
4D
100
AcDbEntity
  8
1
  6
Continuous
 62
     7
100
AcDbLine
 10
437.7428282494014
 20
227.9659284573587
 30
0.0
 11
437.7428282494014
 21
223.0659284573586
 31
0.0
  0
LINE
  5
CF
330
4D
100
AcDbEntity
  8
1
  6
Continuous
 62
     7
100
AcDbLine
 10
437.7428282494015
 20
220.4659284573586
 30
0.0
 11
437.7428282494017
 21
214.895214243087
 31
0.0
  0
LINE
  5
D0
330
4D
100
AcDbEntity
  8
1
  6
Continuous
 62
     7
100
AcDbLine
 10
437.7428282494014
 20
223.0659284573586
 30
0.0
 11
437.7428282494015
 21
220.4659284573586
 31
0.0
  0
LINE
  5
D1
330
4D
100
AcDbEntity
  8
1
  6
Continuous
 62
     7
100
AcDbLine
 10
426.1717604375361
 20
220.4659284573583
 30
0.0
 11
426.171760437536
 21
227.9659284573586
 31
0.0
  0
LINE
  5
D2
330
4D
100
AcDbEntity
  8
1
  6
Continuous
 62
     7
100
AcDbLine
 10
430.7072943434688
 20
214.9303945514257
 30
0.0
 11
427.0504400939765
 21
218.5872488009181
 31
0.0
  0
LINE
  5
D3
330
4D
100
AcDbEntity
  8
1
  6
Continuous
 62
     7
100
AcDbLine
 10
420.2428282494015
 20
219.4659284573583
 30
0.0
 11
424.9291197504168
 21
219.4659284573583
 31
0.0
  0
LINE
  5
D4
330
4D
100
AcDbEntity
  8
1
  6
Continuous
 62
     7
100
AcDbLine
 10
437.7428282494023
 20
214.9659284573587
 30
0.0
 11
430.6721140351307
 21
214.9659284573586
 31
0.0
  0
LINE
  5
D5
330
4D
100
AcDbEntity
  8
1
  6
Continuous
 62
     7
100
AcDbLine
 10
430.6721140351305
 20
240.9659284573586
 30
0.0
 11
437.7428282494019
 21
240.9659284573587
 31
0.0
  0
LINE
  5
D6
330
4D
100
AcDbEntity
  8
1
  6
Continuous
 62
     7
100
AcDbLine
 10
420.2427295733147
 20
554.8076338397304
 30
0.0
 11
424.9290210743298
 21
554.8076338397304
 31
0.0
  0
LINE
  5
D7
330
4D
100
AcDbEntity
  8
1
  6
Continuous
 62
     7
100
AcDbLine
 10
430.7071956673818
 20
550.2720999337977
 30
0.0
 11
427.0503414178894
 21
553.92895418329
 31
0.0
  0
LINE
  5
D8
330
4D
100
AcDbEntity
  8
1
  6
Continuous
 62
     7
100
AcDbLine
 10
426.1716617614492
 20
555.8076338397304
 30
0.0
 11
426.1716617614492
 21
563.3076338397303
 31
0.0
  0
LINE
  5
D9
330
4D
100
AcDbEntity
  8
1
  6
Continuous
 62
     7
100
AcDbLine
 10
437.7427295733145
 20
558.40763383973
 30
0.0
 11
437.7427295733145
 21
555.8076338397301
 31
0.0
  0
LINE
  5
DA
330
4D
100
AcDbEntity
  8
1
  6
Continuous
 62
     7
100
AcDbLine
 10
437.7427295733145
 20
555.8076338397301
 30
0.0
 11
437.7427295733145
 21
550.2369196254587
 31
0.0
  0
LINE
  5
DB
330
4D
100
AcDbEntity
  8
1
  6
Continuous
 62
     7
100
AcDbLine
 10
419.2427295733147
 20
563.3076338397303
 30
0.0
 11
419.2427295733147
 21
555.8076338397304
 31
0.0
  0
LINE
  5
DC
330
4D
100
AcDbEntity
  8
1
  6
Continuous
 62
     7
100
AcDbLine
 10
437.7427295733146
 20
563.3076338397302
 30
0.0
 11
437.7427295733145
 21
558.40763383973
 31
0.0
  0
LINE
  5
DD
330
4D
100
AcDbEntity
  8
1
  6
Continuous
 62
     7
100
AcDbLine
 10
437.7427295733145
 20
568.2076338397304
 30
0.0
 11
437.7427295733146
 21
563.3076338397302
 31
0.0
  0
LINE
  5
DE
330
4D
100
AcDbEntity
  8
1
  6
Continuous
 62
     7
100
AcDbLine
 10
419.2427295733147
 20
570.8076338397303
 30
0.0
 11
419.2427295733147
 21
563.3076338397303
 31
0.0
  0
LINE
  5
DF
330
4D
100
AcDbEntity
  8
1
  6
Continuous
 62
     7
100
AcDbLine
 10
437.7427295733145
 20
576.3783480540018
 30
0.0
 11
437.7427295733145
 21
570.8076338397303
 31
0.0
  0
LINE
  5
E0
330
4D
100
AcDbEntity
  8
1
  6
Continuous
 62
     7
100
AcDbLine
 10
437.7427295733145
 20
570.8076338397303
 30
0.0
 11
437.7427295733145
 21
568.2076338397304
 31
0.0
  0
LINE
  5
E1
330
4D
100
AcDbEntity
  8
1
  6
Continuous
 62
     7
100
AcDbLine
 10
426.1716617614492
 20
563.3076338397303
 30
0.0
 11
426.1716617614492
 21
570.8076338397303
 31
0.0
  0
LINE
  5
E2
330
4D
100
AcDbEntity
  8
1
  6
Continuous
 62
     7
100
AcDbLine
 10
427.0503414178894
 20
572.6863134961707
 30
0.0
 11
430.7071956673818
 21
576.3431677456631
 31
0.0
  0
LINE
  5
E3
330
4D
100
AcDbEntity
  8
1
  6
Continuous
 62
     7
100
AcDbLine
 10
424.9290210743298
 20
571.8076338397303
 30
0.0
 11
420.2427295733147
 21
571.8076338397303
 31
0.0
  0
LINE
  5
E4
330
4D
100
AcDbEntity
  8
1
  6
PHANTOM
 62
     4
100
AcDbLine
 10
160.1024074940053
 20
212.4692317143606
 30
0.0
 11
160.1024074940053
 21
243.5322385124039
 31
0.0
  0
LINE
  5
E5
330
4D
100
AcDbEntity
  8
1
  6
PHANTOM
 62
     4
100
AcDbLine
 10
142.3974217966146
 20
227.9659284573584
 30
0.0
 11
178.1013160644849
 21
227.9659284573584
 31
0.0
  0
LINE
  5
E6
330
4D
100
AcDbEntity
  8
1
  6
Continuous
 62
     7
100
AcDbLine
 10
174.5720458878692
 20
227.0280773226803
 30
0.0
 11
168.1494295985366
 21
215.9037795920367
 31
0.0
  0
LINE
  5
E7
330
4D
100
AcDbEntity
  8
1
  6
Continuous
 62
     7
100
AcDbLine
 10
166.5250237833379
 20
214.9659284573584
 30
0.0
 11
153.6797912046726
 21
214.9659284573584
 31
0.0
  0
LINE
  5
E8
330
4D
100
AcDbEntity
  8
1
  6
Continuous
 62
     7
100
AcDbLine
 10
152.0553853894739
 20
215.9037795920367
 30
0.0
 11
145.6327691001413
 21
227.0280773226803
 31
0.0
  0
LINE
  5
E9
330
4D
100
AcDbEntity
  8
1
  6
Continuous
 62
     7
100
AcDbLine
 10
145.6327691001413
 20
228.9037795920367
 30
0.0
 11
152.0553853894739
 21
240.0280773226803
 31
0.0
  0
LINE
  5
EA
330
4D
100
AcDbEntity
  8
1
  6
Continuous
 62
     7
100
AcDbLine
 10
166.200909625642
 20
240.9659284573584
 30
0.0
 11
166.5250237833379
 21
240.9659284573584
 31
0.0
  0
LINE
  5
EB
330
4D
100
AcDbEntity
  8
1
  6
Continuous
 62
     7
100
AcDbLine
 10
168.1494295985366
 20
240.0280773226803
 30
0.0
 11
174.5720458878692
 21
228.9037795920367
 31
0.0
  0
LINE
  5
EC
330
4D
100
AcDbEntity
  8
1
  6
PHANTOM
 62
     4
100
AcDbLine
 10
418.7019990092286
 20
563.3076338397303
 30
0.0
 11
437.7426308972277
 21
563.3076338397303
 31
0.0
  0
LINE
  5
ED
330
4D
100
AcDbEntity
  8
1
  6
PHANTOM
 62
     4
100
AcDbLine
 10
440.1686341617457
 20
563.3076338397303
 30
0.0
 11
437.7426308972277
 21
563.3076338397303
 31
0.0
  0
LINE
  5
EE
330
4D
100
AcDbEntity
  8
1
  6
Continuous
 62
     7
100
AcDbLine
 10
153.6797912046726
 20
240.9659284573584
 30
0.0
 11
154.0039053623711
 21
240.9659284573584
 31
0.0
  0
ARC
  5
EF
330
4D
100
AcDbEntity
  8
1
  6
Continuous
 62
     7
100
AcDbCircle
 10
434.2427295733147
 20
553.8076338397303
 30
0.0
 40
5.000000000000041
100
AcDbArc
 50
224.9999999999982
 51
314.4270040008018
  0
ARC
  5
F0
330
4D
100
AcDbEntity
  8
1
  6
Continuous
 62
     7
100
AcDbCircle
 10
160.1024074940053
 20
227.9659284573584
 30
0.0
 40
14.5
100
AcDbArc
 50
180.0
 51
183.70844472527
  0
ARC
  5
F1
330
4D
100
AcDbEntity
  8
1
  6
Continuous
 62
     7
100
AcDbCircle
 10
160.1024074940053
 20
227.9659284573584
 30
0.0
 40
14.5
100
AcDbArc
 50
0.0
 51
3.70844472527089
  0
ARC
  5
F2
330
4D
100
AcDbEntity
  8
1
  6
Continuous
 62
     7
100
AcDbCircle
 10
434.2427295733147
 20
572.8076338397303
 30
0.0
 40
4.999999999999857
100
AcDbArc
 50
45.57299599919634
 51
135.0000000000009
  0
ARC
  5
F3
330
4D
100
AcDbEntity
  8
1
  6
Continuous
 62
     7
100
AcDbCircle
 10
160.1024074940053
 20
227.9659284573584
 30
0.0
 40
14.49999999999991
100
AcDbArc
 50
356.29155527473
 51
0.0
  0
ARC
  5
F4
330
4D
100
AcDbEntity
  8
1
  6
Continuous
 62
     7
100
AcDbCircle
 10
160.1024074940053
 20
227.9659284573584
 30
0.0
 40
14.50000000000002
100
AcDbArc
 50
296.2915552747295
 51
303.7084447252704
  0
ARC
  5
F5
330
4D
100
AcDbEntity
  8
1
  6
Continuous
 62
     7
100
AcDbCircle
 10
160.1024074940053
 20
227.9659284573584
 30
0.0
 40
14.49999999999993
100
AcDbArc
 50
236.2915552747294
 51
243.7084447252702
  0
ARC
  5
F6
330
4D
100
AcDbEntity
  8
1
  6
Continuous
 62
     7
100
AcDbCircle
 10
160.1024074940053
 20
227.9659284573584
 30
0.0
 40
14.50000000000001
100
AcDbArc
 50
176.2915552747291
 51
180.0
  0
ARC
  5
F7
330
4D
100
AcDbEntity
  8
1
  6
Continuous
 62
     7
100
AcDbCircle
 10
160.1024074940053
 20
227.9659284573584
 30
0.0
 40
14.50000000000006
100
AcDbArc
 50
116.2915552747298
 51
123.7084447252701
  0
ARC
  5
F8
330
4D
100
AcDbEntity
  8
1
  6
Continuous
 62
     7
100
AcDbCircle
 10
160.1024074940053
 20
227.9659284573584
 30
0.0
 40
14.50000000000009
100
AcDbArc
 50
56.29155527473007
 51
63.70844472527049
  0
SPLINE
  5
F9
330
4D
100
AcDbEntity
  8
1
  6
Continuous
 62
     7
100
AcDbSpline
210
0.0
220
0.0
230
1.0
 70
     8
 71
     3
 72
    29
 73
    25
 74
    23
 42
0.000000001
 43
0.0000000001
 44
0.00000001
 40
0.0
 40
0.0
 40
0.0
 40
0.0
 40
0.6069077071335492
 40
1.212222618922021
 40
1.842666699980916
 40
2.474631891987704
 40
3.102420163134893
 40
3.729333881624546
 40
4.271042929453287
 40
4.812985317241503
 40
5.340107969104165
 40
5.8662489149487
 40
6.263874824440332
 40
6.661485222726635
 40
7.280966483141047
 40
7.902596723210181
 40
8.549168899022686
 40
9.195896755584805
 40
9.722415956711936
 40
10.24911839923916
 40
11.07897535377075
 40
11.90732205839655
 40
12.67331707894448
 40
13.44191268485664
 40
13.44191268485664
 40
13.44191268485664
 40
13.44191268485664
 10
430.7427295733147
 20
563.3076338397303
 30
0.0
 10
430.7526049466786
 20
563.509693667276
 30
0.0
 10
430.7723297878915
 20
563.9132830269534
 30
0.0
 10
430.8361201361125
 20
564.5249885750368
 30
0.0
 10
430.9703034338535
 20
565.1344056361793
 30
0.0
 10
431.1707590533796
 20
565.7328118111573
 30
0.0
 10
431.4293201696099
 20
566.3073743426311
 30
0.0
 10
431.738249558714
 20
566.82227214
 30
0.0
 10
432.0920664826589
 20
567.2712910137557
 30
0.0
 10
432.4800911501757
 20
567.6452326160537
 30
0.0
 10
432.9170215532508
 20
567.9521985173606
 30
0.0
 10
433.357235519687
 20
568.1595071748
 30
0.0
 10
433.7839446397395
 20
568.2754097630203
 30
0.0
 10
434.2548600815415
 20
568.3261129678978
 30
0.0
 10
434.8038346737823
 20
568.2656566446567
 30
0.0
 10
435.4015807391042
 20
568.0527094130273
 30
0.0
 10
435.9431829842447
 20
567.705472475875
 30
0.0
 10
436.3837909516348
 20
567.2841147502947
 30
0.0
 10
436.7336648746042
 20
566.8367012603144
 30
0.0
 10
437.0625752569459
 20
566.3008648747693
 30
0.0
 10
437.366313877348
 20
565.6359738253836
 30
0.0
 10
437.5910837430641
 20
564.8563127647469
 30
0.0
 10
437.695470542455
 20
564.0739071486425
 30
0.0
 10
437.726893032961
 20
563.563346682469
 30
0.0
 10
437.7426308972277
 20
563.3076338397303
 30
0.0
 11
430.7427295733147
 21
563.3076338397303
 31
0.0
 11
430.7779304390771
 21
563.9135198614886
 31
0.0
 11
430.8462874311612
 21
564.5149626809699
 31
0.0
 11
430.9809639169856
 21
565.130853892711
 31
0.0
 11
431.1810288089306
 21
565.7303153542597
 31
0.0
 11
431.4404100471808
 21
566.3020141275798
 31
0.0
 11
431.7646300019588
 21
566.838579344593
 31
0.0
 11
432.10123914194
 21
567.2630118833721
 31
0.0
 11
432.4927295733147
 21
567.6377608586525
 31
0.0
 11
432.9250747345332
 21
567.9393167446126
 31
0.0
 11
433.4020771201493
 21
568.1613370584463
 31
0.0
 11
433.785926150279
 21
568.2650977755894
 31
0.0
 11
434.1813376960932
 21
568.3068558734102
 31
0.0
 11
434.7974421503031
 21
568.2422622617887
 31
0.0
 11
435.3833763205799
 21
568.0346440916373
 31
0.0
 11
435.9299779544938
 21
567.6892714907824
 31
0.0
 11
436.3999539345742
 21
567.2449973641794
 31
0.0
 11
436.7254285821454
 21
566.8311269454048
 31
0.0
 11
437.0023340803251
 21
566.3830880981806
 31
0.0
 11
437.3472961685026
 21
565.6283273915432
 31
0.0
 11
437.5759736582489
 21
564.832171081155
 31
0.0
 11
437.6862937872635
 21
564.0741619505554
 31
0.0
 11
437.7426308972277
 21
563.3076338397303
 31
0.0
  0
SPLINE
  5
FA
330
4D
100
AcDbEntity
  8
1
  6
Continuous
 62
     7
100
AcDbSpline
210
0.0
220
0.0
230
1.0
 70
    11
 71
     3
 72
    79
 73
    75
 74
    73
 42
0.000000001
 43
0.0000000001
 44
0.00000001
 40
0.0
 40
0.0
 40
0.0
 40
0.0
 40
0.2803981055170699
 40
0.560797778079493
 40
0.8427454767816049
 40
1.124697465942921
 40
1.409536444711955
 40
1.694381494092247
 40
1.983071303433798
 40
2.271767836809235
 40
2.564776135645469
 40
2.857790848031672
 40
3.155055692063434
 40
3.452325972452754
 40
3.753284820909593
 40
4.054247736388345
 40
4.357919800455321
 40
4.66159436177149
 40
4.966700742338151
 40
5.271807963175772
 40
5.576915184002874
 40
5.882021564538408
 40
6.185696125802576
 40
6.489368189795949
 40
6.790331105179763
 40
7.091289953518572
 40
7.388560233767423
 40
7.685825077633599
 40
7.978839789830365
 40
8.271848088448987
 40
8.56054462157972
 40
8.849234430642476
 40
9.134079479707204
 40
9.418918458106129
 40
9.700870446812747
 40
9.982818144856049
 40
10.26321781600888
 40
10.54361593035238
 40
10.82401404469589
 40
11.10441371584871
 40
11.386361413892
 40
11.66831340259853
 40
11.95315238099741
 40
12.23799743006219
 40
12.52668723912498
 40
12.81538377225568
 40
13.10839207087434
 40
13.40140678307115
 40
13.69867162693737
 40
13.99594190718612
 40
14.29690075552498
 40
14.59786367090878
 40
14.90153573490224
 40
15.20521029616633
 40
15.51031667670186
 40
15.81542389752896
 40
16.12053111836658
 40
16.42563749893324
 40
16.72931206024949
 40
17.03298412431638
 40
17.33394703979518
 40
17.63490588825202
 40
17.93217616864134
 40
18.22944101267304
 40
18.52245572505931
 40
18.81546402389555
 40
19.10416055727098
 40
19.39285036661254
 40
19.6776954159928
 40
19.96253439476175
 40
20.24448638392307
 40
20.52643408262518
 40
20.80683375518761
 40
21.08723186070468
 40
21.08723186070468
 40
21.08723186070468
 40
21.08723186070468
 10
430.7427295733147
 20
574.565964088928
 30
0.0
 10
430.7453109591208
 20
574.6594646289702
 30
0.0
 10
430.7504737398253
 20
574.8464662317722
 30
0.0
 10
430.7919460883887
 20
575.1249506429655
 30
0.0
 10
430.8578462482305
 20
575.3988928401178
 30
0.0
 10
430.9500783571879
 20
575.666821005887
 30
0.0
 10
431.0671605463166
 20
575.9258667937572
 30
0.0
 10
431.2086368277155
 20
576.1750260881743
 30
0.0
 10
431.372919173552
 20
576.4113361085883
 30
0.0
 10
431.5593793216308
 20
576.6341111027261
 30
0.0
 10
431.7658037964436
 20
576.840567135232
 30
0.0
 10
431.9915214907671
 20
577.0301798790724
 30
0.0
 10
432.2338122890122
 20
577.2005790551905
 30
0.0
 10
432.491869781756
 20
577.3512918629864
 30
0.0
 10
432.7626969851488
 20
577.4805149996955
 30
0.0
 10
433.0452138385617
 20
577.5877946730607
 30
0.0
 10
433.3364018090769
 20
577.671949176794
 30
0.0
 10
433.6347805819183
 20
577.7325924508017
 30
0.0
 10
433.9375415537292
 20
577.7691262132482
 30
0.0
 10
434.2427295639118
 20
577.78134524416
 30
0.0
 10
434.5479175740963
 20
577.7691262135984
 30
0.0
 10
434.850678545923
 20
577.732592451503
 30
0.0
 10
435.1490573187658
 20
577.6719491778483
 30
0.0
 10
435.4402452893697
 20
577.5877946744713
 30
0.0
 10
435.7227621425859
 20
577.4805150014669
 30
0.0
 10
435.9935893468818
 20
577.3512918651232
 30
0.0
 10
436.2516468365084
 20
577.2005790576998
 30
0.0
 10
436.4939376465647
 20
577.0301798819607
 30
0.0
 10
436.7196552977266
 20
576.8405671385095
 30
0.0
 10
436.9260799327207
 20
576.634111106403
 30
0.0
 10
437.1125394918688
 20
576.4113361126791
 30
0.0
 10
437.2768240195546
 20
576.1750260926973
 30
0.0
 10
437.4182922626025
 20
575.925866798743
 30
0.0
 10
437.5354042661864
 20
575.6668210113825
 30
0.0
 10
437.6275261846454
 20
575.3988928462488
 30
0.0
 10
437.6938359502032
 20
575.1249506500487
 30
0.0
 10
437.733787615293
 20
574.8464662370124
 30
0.0
 10
437.7472005249136
 20
574.565964088928
 30
0.0
 10
437.7337876152928
 20
574.2854619408438
 30
0.0
 10
437.693835950203
 20
574.0069775278071
 30
0.0
 10
437.6275261846456
 20
573.7330353316073
 30
0.0
 10
437.5354042661863
 20
573.4651071664737
 30
0.0
 10
437.4182922626028
 20
573.2060613791133
 30
0.0
 10
437.2768240195545
 20
572.9569020851586
 30
0.0
 10
437.1125394918688
 20
572.720592065177
 30
0.0
 10
436.9260799327207
 20
572.4978170714535
 30
0.0
 10
436.7196552977267
 20
572.2913610393462
 30
0.0
 10
436.4939376465646
 20
572.1017482958955
 30
0.0
 10
436.2516468365085
 20
571.9313491201563
 30
0.0
 10
435.9935893468819
 20
571.7806363127328
 30
0.0
 10
435.7227621425857
 20
571.6514131763894
 30
0.0
 10
435.4402452893697
 20
571.5441335033847
 30
0.0
 10
435.1490573187657
 20
571.4599790000075
 30
0.0
 10
434.8506785459228
 20
571.3993357263532
 30
0.0
 10
434.5479175740966
 20
571.3628019642578
 30
0.0
 10
434.2427295639117
 20
571.3505829336962
 30
0.0
 10
433.9375415537293
 20
571.3628019646078
 30
0.0
 10
433.6347805819181
 20
571.3993357270542
 30
0.0
 10
433.336401809077
 20
571.4599790010623
 30
0.0
 10
433.0452138385618
 20
571.5441335047952
 30
0.0
 10
432.7626969851486
 20
571.6514131781605
 30
0.0
 10
432.4918697817561
 20
571.7806363148698
 30
0.0
 10
432.2338122890121
 20
571.9313491226656
 30
0.0
 10
431.991521490767
 20
572.1017482987837
 30
0.0
 10
431.7658037964437
 20
572.291361042624
 30
0.0
 10
431.5593793216308
 20
572.4978170751301
 30
0.0
 10
431.3729191735521
 20
572.7205920692678
 30
0.0
 10
431.2086368277155
 20
572.9569020896818
 30
0.0
 10
431.0671605463168
 20
573.2060613840989
 30
0.0
 10
430.9500783571876
 20
573.4651071719692
 30
0.0
 10
430.8578462482306
 20
573.7330353377382
 30
0.0
 10
430.7919460883888
 20
574.0069775348906
 30
0.0
 10
430.7504737398253
 20
574.2854619460837
 30
0.0
 10
430.7453109591207
 20
574.4724635488859
 30
0.0
 10
430.7427295733147
 20
574.565964088928
 30
0.0
 11
430.7427295733147
 21
574.565964088928
 31
0.0
 11
430.7560823586128
 21
574.8460440877976
 31
0.0
 11
430.795902437772
 21
575.1236018961763
 31
0.0
 11
430.862162020496
 21
575.3976533005552
 31
0.0
 11
430.953805400564
 21
575.6642961608296
 31
0.0
 11
431.0710534008491
 21
575.9238845853657
 31
0.0
 11
431.2116406600691
 21
576.1716181612612
 31
0.0
 11
431.3763378554212
 21
576.4087186458702
 31
0.0
 11
431.5615740223983
 21
576.630153175205
 31
0.0
 11
431.7686668993135
 21
576.8374365645147
 31
0.0
 11
431.9929729394117
 21
577.0259688482923
 31
0.0
 11
432.2360677701125
 21
577.197057394866
 31
0.0
 11
432.4927295733147
 21
577.347038521589
 31
0.0
 11
432.7643177932858
 21
577.4767153014633
 31
0.0
 11
433.0456590716748
 21
577.5836066555406
 31
0.0
 11
433.3373765552203
 21
577.667972716871
 31
0.0
 11
433.6349609514804
 21
577.7284852471066
 31
0.0
 11
433.9378666860147
 21
577.7650641956695
 31
0.0
 11
434.2427295733147
 21
577.7772722335943
 31
0.0
 11
434.5475924606146
 21
577.7650641956695
 31
0.0
 11
434.8504981951488
 21
577.7284852471066
 31
0.0
 11
435.148082591409
 21
577.6679727168708
 31
0.0
 11
435.4398000749544
 21
577.5836066555406
 31
0.0
 11
435.7211413533435
 21
577.4767153014633
 31
0.0
 11
435.9927295733145
 21
577.347038521589
 31
0.0
 11
436.2493913765167
 21
577.197057394866
 31
0.0
 11
436.4924862072174
 21
577.0259688482923
 31
0.0
 11
436.7167922473157
 21
576.8374365645147
 31
0.0
 11
436.9238851242309
 21
576.630153175205
 31
0.0
 11
437.1091212912081
 21
576.4087186458702
 31
0.0
 11
437.2738184865601
 21
576.1716181612612
 31
0.0
 11
437.41440574578
 21
575.9238845853657
 31
0.0
 11
437.5316537460652
 21
575.6642961608297
 31
0.0
 11
437.6232971261334
 21
575.3976533005552
 31
0.0
 11
437.6895567088574
 21
575.1236018961763
 31
0.0
 11
437.7293767880165
 21
574.8460440877976
 31
0.0
 11
437.7427295733145
 21
574.565964088928
 31
0.0
 11
437.7293767880164
 21
574.2858840900584
 31
0.0
 11
437.6895567088574
 21
574.0083262816797
 31
0.0
 11
437.6232971261335
 21
573.7342748773008
 31
0.0
 11
437.5316537460652
 21
573.4676320170264
 31
0.0
 11
437.4144057457801
 21
573.2080435924904
 31
0.0
 11
437.2738184865601
 21
572.9603100165949
 31
0.0
 11
437.109121291208
 21
572.723209531986
 31
0.0
 11
436.9238851242309
 21
572.5017750026511
 31
0.0
 11
436.7167922473157
 21
572.2944916133413
 31
0.0
 11
436.4924862072174
 21
572.1059593295637
 31
0.0
 11
436.2493913765166
 21
571.9348707829901
 31
0.0
 11
435.9927295733145
 21
571.7848896562672
 31
0.0
 11
435.7211413533434
 21
571.6552128763929
 31
0.0
 11
435.4398000749544
 21
571.5483215223154
 31
0.0
 11
435.1480825914089
 21
571.4639554609851
 31
0.0
 11
434.8504981951488
 21
571.4034429307494
 31
0.0
 11
434.5475924606146
 21
571.3668639821865
 31
0.0
 11
434.2427295733147
 21
571.3546559442617
 31
0.0
 11
433.9378666860147
 21
571.3668639821865
 31
0.0
 11
433.6349609514804
 21
571.4034429307494
 31
0.0
 11
433.3373765552202
 21
571.4639554609852
 31
0.0
 11
433.0456590716748
 21
571.5483215223154
 31
0.0
 11
432.7643177932858
 21
571.6552128763927
 31
0.0
 11
432.4927295733147
 21
571.7848896562672
 31
0.0
 11
432.2360677701125
 21
571.9348707829902
 31
0.0
 11
431.9929729394117
 21
572.1059593295637
 31
0.0
 11
431.7686668993135
 21
572.2944916133414
 31
0.0
 11
431.5615740223983
 21
572.5017750026511
 31
0.0
 11
431.3763378554212
 21
572.723209531986
 31
0.0
 11
431.2116406600691
 21
572.9603100165949
 31
0.0
 11
431.0710534008492
 21
573.2080435924904
 31
0.0
 11
430.953805400564
 21
573.4676320170264
 31
0.0
 11
430.862162020496
 21
573.7342748773008
 31
0.0
 11
430.795902437772
 21
574.0083262816797
 31
0.0
 11
430.7560823586128
 21
574.2858840900584
 31
0.0
 11
430.7427295733147
 21
574.565964088928
 31
0.0
  0
SPLINE
  5
FB
330
4D
100
AcDbEntity
  8
1
  6
Continuous
 62
     7
100
AcDbSpline
210
0.0
220
0.0
230
1.0
 70
    11
 71
     3
 72
    79
 73
    75
 74
    73
 42
0.000000001
 43
0.0000000001
 44
0.00000001
 40
0.0
 40
0.0
 40
0.0
 40
0.0
 40
0.2803981055170699
 40
0.560797778079493
 40
0.8427454767814945
 40
1.124697465942918
 40
1.409536444711895
 40
1.694381494092131
 40
1.983071303433747
 40
2.271767836809111
 40
2.564776135645425
 40
2.857790848031629
 40
3.155055692063344
 40
3.452325972452656
 40
3.753284820909494
 40
4.054247736388247
 40
4.357919800455222
 40
4.661594361771414
 40
4.966700742338018
 40
5.27180796317569
 40
5.576915184002788
 40
5.882021564538322
 40
6.18569612580249
 40
6.489368189795894
 40
6.790331105179694
 40
7.091289953518506
 40
7.388560233767299
 40
7.685825077633474
 40
7.978839789830241
 40
8.271848088448944
 40
8.560544621579714
 40
8.849234430642436
 40
9.134079479707164
 40
9.41891845810609
 40
9.700870446812708
 40
9.9828181448559
 40
10.26321781600861
 40
10.54361593035201
 40
10.82401404469563
 40
11.10441371584857
 40
11.38636141389186
 40
11.6683134025985
 40
11.95315238099748
 40
12.23799743006216
 40
12.52668723912504
 40
12.81538377225565
 40
13.10839207087428
 40
13.40140678307104
 40
13.69867162693726
 40
13.99594190718607
 40
14.29690075552498
 40
14.59786367090868
 40
14.90153573490203
 40
15.20521029616624
 40
15.51031667670173
 40
15.81542389752888
 40
16.1205311183665
 40
16.42563749893317
 40
16.72931206024931
 40
17.0329841243163
 40
17.33394703979511
 40
17.6349058882519
 40
17.93217616864122
 40
18.22944101267298
 40
18.52245572505918
 40
18.81546402389542
 40
19.10416055727085
 40
19.3928503666124
 40
19.67769541599267
 40
19.96253439476162
 40
20.24448638392305
 40
20.52643408262516
 40
20.80683375518758
 40
21.08723186070465
 40
21.08723186070465
 40
21.08723186070465
 40
21.08723186070465
 10
430.7427295733147
 20
552.0493035905326
 30
0.0
 10
430.7453109591208
 20
551.9558030504907
 30
0.0
 10
430.7504737398253
 20
551.7688014476882
 30
0.0
 10
430.7919460883887
 20
551.4903170364954
 30
0.0
 10
430.8578462482306
 20
551.2163748393427
 30
0.0
 10
430.9500783571877
 20
550.9484466735739
 30
0.0
 10
431.067160546317
 20
550.6894008857037
 30
0.0
 10
431.2086368277155
 20
550.4402415912863
 30
0.0
 10
431.3729191735521
 20
550.2039315708724
 30
0.0
 10
431.5593793216307
 20
549.9811565767346
 30
0.0
 10
431.7658037964437
 20
549.7747005442285
 30
0.0
 10
431.991521490767
 20
549.5850878003884
 30
0.0
 10
432.2338122890122
 20
549.4146886242701
 30
0.0
 10
432.491869781756
 20
549.2639758164744
 30
0.0
 10
432.7626969851486
 20
549.1347526797651
 30
0.0
 10
433.0452138385619
 20
549.0274730064002
 30
0.0
 10
433.3364018090767
 20
548.9433185026667
 30
0.0
 10
433.6347805819182
 20
548.8826752286591
 30
0.0
 10
433.9375415537292
 20
548.8461414662122
 30
0.0
 10
434.2427295639118
 20
548.833922435301
 30
0.0
 10
434.5479175740963
 20
548.846141465862
 30
0.0
 10
434.850678545923
 20
548.8826752279581
 30
0.0
 10
435.1490573187657
 20
548.9433185016122
 30
0.0
 10
435.4402452893698
 20
549.0274730049895
 30
0.0
 10
435.7227621425857
 20
549.134752677994
 30
0.0
 10
435.9935893468819
 20
549.2639758143375
 30
0.0
 10
436.2516468365085
 20
549.4146886217608
 30
0.0
 10
436.4939376465647
 20
549.5850877974999
 30
0.0
 10
436.7196552977268
 20
549.7747005409511
 30
0.0
 10
436.9260799327205
 20
549.9811565730578
 30
0.0
 10
437.112539491869
 20
550.2039315667815
 30
0.0
 10
437.2768240195546
 20
550.4402415867636
 30
0.0
 10
437.4182922626025
 20
550.6894008807178
 30
0.0
 10
437.5354042661863
 20
550.9484466680781
 30
0.0
 10
437.6275261846455
 20
551.2163748332121
 30
0.0
 10
437.6938359502033
 20
551.4903170294119
 30
0.0
 10
437.7337876152928
 20
551.7688014424483
 30
0.0
 10
437.7472005249136
 20
552.0493035905325
 30
0.0
 10
437.7337876152928
 20
552.3298057386168
 30
0.0
 10
437.6938359502031
 20
552.6082901516533
 30
0.0
 10
437.6275261846456
 20
552.8822323478535
 30
0.0
 10
437.5354042661863
 20
553.150160512987
 30
0.0
 10
437.4182922626028
 20
553.4092063003477
 30
0.0
 10
437.2768240195546
 20
553.6583655943023
 30
0.0
 10
437.1125394918688
 20
553.8946756142839
 30
0.0
 10
436.9260799327205
 20
554.1174506080075
 30
0.0
 10
436.7196552977266
 20
554.3239066401143
 30
0.0
 10
436.4939376465647
 20
554.5135193835654
 30
0.0
 10
436.2516468365084
 20
554.6839185593044
 30
0.0
 10
435.9935893468819
 20
554.8346313667281
 30
0.0
 10
435.7227621425857
 20
554.9638545030715
 30
0.0
 10
435.4402452893697
 20
555.0711341760758
 30
0.0
 10
435.1490573187657
 20
555.1552886794532
 30
0.0
 10
434.850678545923
 20
555.2159319531074
 30
0.0
 10
434.5479175740965
 20
555.2524657152031
 30
0.0
 10
434.2427295639117
 20
555.2646847457645
 30
0.0
 10
433.9375415537294
 20
555.2524657148531
 30
0.0
 10
433.6347805819181
 20
555.2159319524062
 30
0.0
 10
433.336401809077
 20
555.1552886783986
 30
0.0
 10
433.0452138385618
 20
555.0711341746653
 30
0.0
 10
432.7626969851486
 20
554.9638545013
 30
0.0
 10
432.4918697817562
 20
554.8346313645912
 30
0.0
 10
432.233812289012
 20
554.6839185567951
 30
0.0
 10
431.991521490767
 20
554.5135193806768
 30
0.0
 10
431.7658037964438
 20
554.3239066368369
 30
0.0
 10
431.5593793216307
 20
554.1174506043307
 30
0.0
 10
431.3729191735521
 20
553.8946756101932
 30
0.0
 10
431.2086368277156
 20
553.6583655897787
 30
0.0
 10
431.0671605463167
 20
553.4092062953621
 30
0.0
 10
430.9500783571879
 20
553.1501605074916
 30
0.0
 10
430.8578462482305
 20
552.8822323417224
 30
0.0
 10
430.7919460883888
 20
552.6082901445702
 30
0.0
 10
430.7504737398253
 20
552.3298057333768
 30
0.0
 10
430.7453109591208
 20
552.142804130575
 30
0.0
 10
430.7427295733147
 20
552.0493035905326
 30
0.0
 11
430.7427295733147
 21
552.0493035905326
 31
0.0
 11
430.7560823586128
 21
551.769223591663
 31
0.0
 11
430.795902437772
 21
551.4916657832844
 31
0.0
 11
430.862162020496
 21
551.2176143789055
 31
0.0
 11
430.953805400564
 21
550.950971518631
 31
0.0
 11
431.0710534008492
 21
550.691383094095
 31
0.0
 11
431.2116406600691
 21
550.4436495181995
 31
0.0
 11
431.3763378554213
 21
550.2065490335906
 31
0.0
 11
431.5615740223983
 21
549.9851145042558
 31
0.0
 11
431.7686668993135
 21
549.7778311149459
 31
0.0
 11
431.9929729394117
 21
549.5892988311683
 31
0.0
 11
432.2360677701125
 21
549.4182102845947
 31
0.0
 11
432.4927295733147
 21
549.2682291578718
 31
0.0
 11
432.7643177932858
 21
549.1385523779975
 31
0.0
 11
433.0456590716748
 21
549.0316610239202
 31
0.0
 11
433.3373765552203
 21
548.9472949625898
 31
0.0
 11
433.6349609514804
 21
548.886782432354
 31
0.0
 11
433.9378666860147
 21
548.8502034837911
 31
0.0
 11
434.2427295733147
 21
548.8379954458665
 31
0.0
 11
434.5475924606146
 21
548.8502034837911
 31
0.0
 11
434.8504981951488
 21
548.886782432354
 31
0.0
 11
435.148082591409
 21
548.9472949625898
 31
0.0
 11
435.4398000749544
 21
549.0316610239202
 31
0.0
 11
435.7211413533434
 21
549.1385523779976
 31
0.0
 11
435.9927295733145
 21
549.2682291578718
 31
0.0
 11
436.2493913765167
 21
549.4182102845947
 31
0.0
 11
436.4924862072174
 21
549.5892988311683
 31
0.0
 11
436.7167922473157
 21
549.7778311149459
 31
0.0
 11
436.9238851242309
 21
549.9851145042558
 31
0.0
 11
437.1091212912081
 21
550.2065490335906
 31
0.0
 11
437.2738184865601
 21
550.4436495181995
 31
0.0
 11
437.41440574578
 21
550.691383094095
 31
0.0
 11
437.5316537460652
 21
550.950971518631
 31
0.0
 11
437.6232971261334
 21
551.2176143789055
 31
0.0
 11
437.6895567088574
 21
551.4916657832844
 31
0.0
 11
437.7293767880165
 21
551.7692235916629
 31
0.0
 11
437.7427295733145
 21
552.0493035905324
 31
0.0
 11
437.7293767880165
 21
552.3293835894021
 31
0.0
 11
437.6895567088574
 21
552.6069413977809
 31
0.0
 11
437.6232971261335
 21
552.8809928021599
 31
0.0
 11
437.5316537460652
 21
553.1476356624344
 31
0.0
 11
437.4144057457801
 21
553.4072240869705
 31
0.0
 11
437.2738184865601
 21
553.6549576628659
 31
0.0
 11
437.109121291208
 21
553.8920581474749
 31
0.0
 11
436.9238851242309
 21
554.1134926768096
 31
0.0
 11
436.7167922473157
 21
554.3207760661194
 31
0.0
 11
436.4924862072174
 21
554.509308349897
 31
0.0
 11
436.2493913765166
 21
554.6803968964706
 31
0.0
 11
435.9927295733145
 21
554.8303780231936
 31
0.0
 11
435.7211413533433
 21
554.9600548030679
 31
0.0
 11
435.4398000749544
 21
555.0669461571453
 31
0.0
 11
435.148082591409
 21
555.1513122184756
 31
0.0
 11
434.8504981951488
 21
555.2118247487113
 31
0.0
 11
434.5475924606146
 21
555.2484036972743
 31
0.0
 11
434.2427295733147
 21
555.260611735199
 31
0.0
 11
433.9378666860147
 21
555.2484036972743
 31
0.0
 11
433.6349609514804
 21
555.2118247487113
 31
0.0
 11
433.3373765552203
 21
555.1513122184755
 31
0.0
 11
433.0456590716748
 21
555.0669461571453
 31
0.0
 11
432.7643177932858
 21
554.9600548030679
 31
0.0
 11
432.4927295733147
 21
554.8303780231936
 31
0.0
 11
432.2360677701125
 21
554.6803968964706
 31
0.0
 11
431.9929729394117
 21
554.509308349897
 31
0.0
 11
431.7686668993135
 21
554.3207760661194
 31
0.0
 11
431.5615740223983
 21
554.1134926768096
 31
0.0
 11
431.3763378554212
 21
553.8920581474748
 31
0.0
 11
431.2116406600691
 21
553.6549576628659
 31
0.0
 11
431.0710534008492
 21
553.4072240869704
 31
0.0
 11
430.953805400564
 21
553.1476356624344
 31
0.0
 11
430.862162020496
 21
552.8809928021599
 31
0.0
 11
430.795902437772
 21
552.6069413977809
 31
0.0
 11
430.7560823586128
 21
552.3293835894023
 31
0.0
 11
430.7427295733147
 21
552.0493035905326
 31
0.0
  0
SPLINE
  5
FC
330
4D
100
AcDbEntity
  8
1
  6
Continuous
 62
     7
100
AcDbSpline
210
0.0
220
0.0
230
1.0
 70
     8
 71
     3
 72
    29
 73
    25
 74
    23
 42
0.000000001
 43
0.0000000001
 44
0.00000001
 40
0.0
 40
0.0
 40
0.0
 40
0.0
 40
0.6069077071334358
 40
1.212222618922021
 40
1.842666699980916
 40
2.474631891987704
 40
3.102420163134916
 40
3.729333881624442
 40
4.271042929453182
 40
4.812985317241476
 40
5.340107969104072
 40
5.866248914948656
 40
6.263874824440258
 40
6.661485222726561
 40
7.28096648314096
 40
7.902596723210133
 40
8.549168899022698
 40
9.195896755584661
 40
9.722415956711883
 40
10.24911839923901
 40
11.07897535377071
 40
11.9073220583965
 40
12.67331707894433
 40
13.44191268485649
 40
13.44191268485649
 40
13.44191268485649
 40
13.44191268485649
 10
430.7427295733147
 20
563.3076338397303
 30
0.0
 10
430.7526049466786
 20
563.1055740121845
 30
0.0
 10
430.7723297878914
 20
562.7019846525075
 30
0.0
 10
430.8361201361128
 20
562.0902791044236
 30
0.0
 10
430.9703034338531
 20
561.4808620432815
 30
0.0
 10
431.1707590533798
 20
560.8824558683034
 30
0.0
 10
431.4293201696098
 20
560.3078933368295
 30
0.0
 10
431.7382495587141
 20
559.7929955394609
 30
0.0
 10
432.0920664826588
 20
559.343976665705
 30
0.0
 10
432.4800911501757
 20
558.9700350634068
 30
0.0
 10
432.9170215532508
 20
558.6630691621003
 30
0.0
 10
433.3572355196869
 20
558.4557605046607
 30
0.0
 10
433.7839446397395
 20
558.3398579164406
 30
0.0
 10
434.2548600815416
 20
558.289154711563
 30
0.0
 10
434.8038346737824
 20
558.3496110348038
 30
0.0
 10
435.4015807391041
 20
558.5625582664336
 30
0.0
 10
435.9431829842447
 20
558.909795203586
 30
0.0
 10
436.3837909516349
 20
559.3311529291658
 30
0.0
 10
436.7336648746043
 20
559.7785664191463
 30
0.0
 10
437.0625752569459
 20
560.3144028046913
 30
0.0
 10
437.3663138773479
 20
560.9792938540772
 30
0.0
 10
437.5910837430642
 20
561.758954914714
 30
0.0
 10
437.6954705424549
 20
562.5413605308179
 30
0.0
 10
437.7268930329609
 20
563.051920996992
 30
0.0
 10
437.7426308972277
 20
563.3076338397303
 30
0.0
 11
430.7427295733147
 21
563.3076338397303
 31
0.0
 11
430.7779304390771
 21
562.7017478179722
 31
0.0
 11
430.8462874311612
 21
562.1003049984907
 31
0.0
 11
430.9809639169856
 21
561.4844137867497
 31
0.0
 11
431.1810288089306
 21
560.884952325201
 31
0.0
 11
431.4404100471808
 21
560.3132535518808
 31
0.0
 11
431.7646300019588
 21
559.7766883348678
 31
0.0
 11
432.10123914194
 21
559.3522557960887
 31
0.0
 11
432.4927295733147
 21
558.9775068208081
 31
0.0
 11
432.9250747345332
 21
558.6759509348482
 31
0.0
 11
433.4020771201493
 21
558.4539306210144
 31
0.0
 11
433.785926150279
 21
558.3501699038713
 31
0.0
 11
434.1813376960932
 21
558.3084118060506
 31
0.0
 11
434.7974421503031
 21
558.373005417672
 31
0.0
 11
435.3833763205799
 21
558.5806235878234
 31
0.0
 11
435.9299779544938
 21
558.9259961886785
 31
0.0
 11
436.3999539345742
 21
559.3702703152812
 31
0.0
 11
436.7254285821454
 21
559.784140734056
 31
0.0
 11
437.0023340803251
 21
560.2321795812801
 31
0.0
 11
437.3472961685026
 21
560.9869402879176
 31
0.0
 11
437.5759736582489
 21
561.7830965983057
 31
0.0
 11
437.6862937872635
 21
562.5411057289052
 31
0.0
 11
437.7426308972277
 21
563.3076338397303
 31
0.0
  0
SPLINE
  5
FD
330
4D
100
AcDbEntity
  8
1
  6
Continuous
 62
     7
100
AcDbSpline
210
0.0
220
0.0
230
1.0
 70
    11
 71
     3
 72
    79
 73
    75
 74
    73
 42
0.000000001
 43
0.0000000001
 44
0.00000001
 40
0.0
 40
0.0
 40
0.0
 40
0.0
 40
0.3102615582250169
 40
0.6205595420815753
 40
0.9422162975283487
 40
1.26394487275344
 40
1.60603902084459
 40
1.948193468906584
 40
2.31605188519012
 40
2.683951048239636
 40
3.079084664080077
 40
3.474244780173468
 40
3.894897959207221
 40
4.31556820749382
 40
4.757452126736119
 40
5.199346674241322
 40
5.65635416198672
 40
6.113367478657762
 40
6.578223037732874
 40
7.043080455842468
 40
7.507937873950037
 40
7.972793433018405
 40
8.429806749677232
 40
8.88681423740315
 40
9.3287087848799
 40
9.770592704080817
 40
10.19126295231218
 40
10.61191613126883
 40
11.00707624726275
 40
11.40220986296837
 40
11.7701090258496
 40
12.13796744190959
 40
12.4801218896959
 40
12.82221603741857
 40
13.14394461216094
 40
13.46560136682443
 40
13.77589934864107
 40
14.08616091447206
 40
14.3964224803031
 40
14.70672046211991
 40
15.02837721678325
 40
15.35010579152551
 40
15.69219993924844
 40
16.03435438703483
 40
16.40221280309474
 40
16.77011196597591
 40
17.16524558168154
 40
17.56040569767548
 40
17.98105887663206
 40
18.40172912486338
 40
18.84361304406449
 40
19.28550759154141
 40
19.74251507926728
 40
20.19952839592611
 40
20.66438395499442
 40
21.12924137310185
 40
21.5940987912115
 40
22.05895435028667
 40
22.51596766695774
 40
22.97297515470323
 40
23.41486970220845
 40
23.85675362145075
 40
24.27742386973728
 40
24.69807704877108
 40
25.09323716486432
 40
25.48837078070475
 40
25.85626994375427
 40
26.22412836003781
 40
26.56628280809983
 40
26.90837695619105
 40
27.23010553141586
 40
27.55176228686254
 40
27.86206027071962
 40
28.17232182894509
 40
28.17232182894509
 40
28.17232182894509
 40
28.17232182894509
 10
434.2074711422662
 20
228.9037795920369
 30
0.0
 10
434.1039809603441
 20
228.9078127837528
 30
0.0
 10
433.8969884459995
 20
228.9158796324238
 30
0.0
 10
433.5881395779771
 20
228.979863610233
 30
0.0
 10
433.2861726642431
 20
229.0812844065305
 30
0.0
 10
432.9892630081282
 20
229.2237069066281
 30
0.0
 10
432.704944899768
 20
229.4028094793883
 30
0.0
 10
432.4294438534718
 20
229.6207797472489
 30
0.0
 10
432.1708378328028
 20
229.8710619012836
 30
0.0
 10
431.9250799431901
 20
230.1575240630553
 30
0.0
 10
431.6994346829954
 20
230.4713548153427
 30
0.0
 10
431.4906630151077
 20
230.8172689803739
 30
0.0
 10
431.3044422468364
 20
231.1853877725245
 30
0.0
 10
431.1387577164897
 20
231.5800817074412
 30
0.0
 10
430.99744994364
 20
231.9916349074131
 30
0.0
 10
430.8796704550655
 20
232.4230606070076
 30
0.0
 10
430.7875521534271
 20
232.8658346357182
 30
0.0
 10
430.721066226034
 20
233.3208926343121
 30
0.0
 10
430.6810086691237
 20
233.7816597363931
 30
0.0
 10
430.6676667118288
 20
234.2465819118241
 30
0.0
 10
430.6810086690452
 20
234.7115040872511
 30
0.0
 10
430.7210662258728
 20
235.1722711893438
 30
0.0
 10
430.7875521531744
 20
235.6273291878962
 30
0.0
 10
430.8796704547095
 20
236.0701032167609
 30
0.0
 10
430.9974499431621
 20
236.5015289158025
 30
0.0
 10
431.1387577158699
 20
236.9130821178014
 30
0.0
 10
431.3044422460469
 20
237.3077760455236
 30
0.0
 10
431.4906630141207
 20
237.6758948637459
 30
0.0
 10
431.6994346817733
 20
238.0218089371688
 30
0.0
 10
431.9250799416961
 20
238.3356400191069
 30
0.0
 10
432.1708378309878
 20
238.6221010315797
 30
0.0
 10
432.4294438512865
 20
238.8723873106528
 30
0.0
 10
432.7049448971428
 20
239.09034320866
 30
0.0
 10
432.989263004982
 20
239.2694975223992
 30
0.0
 10
433.2861726603944
 20
239.4117378737867
 30
0.0
 10
433.5881395729039
 20
239.5138215258269
 30
0.0
 10
433.8969884420503
 20
239.5754147657548
 30
0.0
 10
434.2074711422662
 20
239.5963685692163
 30
0.0
 10
434.5179538424823
 20
239.5754147657549
 30
0.0
 10
434.8268027116288
 20
239.5138215258271
 30
0.0
 10
435.128769624138
 20
239.4117378737869
 30
0.0
 10
435.4256792795503
 20
239.269497522399
 30
0.0
 10
435.7099973873896
 20
239.09034320866
 30
0.0
 10
435.9854984332462
 20
238.8723873106532
 30
0.0
 10
436.2441044535452
 20
238.6221010315801
 30
0.0
 10
436.4898623428364
 20
238.3356400191072
 30
0.0
 10
436.7155076027591
 20
238.021808937169
 30
0.0
 10
436.9242792704115
 20
237.6758948637458
 30
0.0
 10
437.1105000384854
 20
237.3077760455237
 30
0.0
 10
437.2761845686625
 20
236.9130821178015
 30
0.0
 10
437.4174923413704
 20
236.5015289158026
 30
0.0
 10
437.5352718298234
 20
236.0701032167609
 30
0.0
 10
437.6273901313584
 20
235.627329187896
 30
0.0
 10
437.6938760586602
 20
235.1722711893438
 30
0.0
 10
437.7339336154877
 20
234.7115040872512
 30
0.0
 10
437.7472755727043
 20
234.2465819118243
 30
0.0
 10
437.7339336154091
 20
233.7816597363932
 30
0.0
 10
437.6938760584991
 20
233.3208926343121
 30
0.0
 10
437.6273901311059
 20
232.8658346357182
 30
0.0
 10
437.5352718294671
 20
232.4230606070077
 30
0.0
 10
437.4174923408927
 20
231.9916349074132
 30
0.0
 10
437.2761845680429
 20
231.5800817074411
 30
0.0
 10
437.1105000376965
 20
231.1853877725244
 30
0.0
 10
436.9242792694251
 20
230.8172689803739
 30
0.0
 10
436.7155076015376
 20
230.4713548153428
 30
0.0
 10
436.4898623413428
 20
230.1575240630554
 30
0.0
 10
436.24410445173
 20
229.8710619012837
 30
0.0
 10
435.9854984310614
 20
229.6207797472489
 30
0.0
 10
435.709997384765
 20
229.4028094793883
 30
0.0
 10
435.4256792764047
 20
229.2237069066283
 30
0.0
 10
435.1287696202902
 20
229.0812844065305
 30
0.0
 10
434.8268027065559
 20
228.9798636102329
 30
0.0
 10
434.5179538385333
 20
228.9158796324236
 30
0.0
 10
434.3109613241884
 20
228.9078127837529
 30
0.0
 10
434.2074711422662
 20
228.9037795920369
 30
0.0
 11
434.2074711422662
 21
228.9037795920369
 31
0.0
 11
433.8978953441297
 21
228.9243966852377
 31
0.0
 11
433.5935628232108
 21
228.9849487646356
 31
0.0
 11
433.2886634879474
 21
229.0874156532675
 31
0.0
 11
432.9983077977766
 21
229.2259899981965
 31
0.0
 11
432.7085146670852
 21
229.4077820425538
 31
0.0
 11
432.4397925886987
 21
229.61957937681
 31
0.0
 11
432.1750042449297
 21
229.8749358870838
 31
0.0
 11
431.9349873979823
 21
230.153757886373
 31
0.0
 11
431.7038694656571
 21
230.474249813998
 31
0.0
 11
431.499230475904
 21
230.81229478318
 31
0.0
 11
431.3089641433128
 21
231.1874585070241
 31
0.0
 11
431.1457620760371
 21
231.5751807568568
 31
0.0
 11
431.0019768054551
 21
231.9930170813182
 31
0.0
 11
430.885322156848
 21
232.4192359031328
 31
0.0
 11
430.7920587551486
 21
232.8666258692227
 31
0.0
 11
430.7258240534924
 21
233.3188140335003
 31
0.0
 11
430.6854990647257
 21
233.7819172467126
 31
0.0
 11
430.6721140351308
 21
234.2465819216769
 31
0.0
 11
430.6854990647257
 21
234.7112465966413
 31
0.0
 11
430.7258240534924
 21
235.1743498098537
 31
0.0
 11
430.7920587551486
 21
235.6265379741314
 31
0.0
 11
430.885322156848
 21
236.0739279402213
 31
0.0
 11
431.0019768054551
 21
236.5001467620357
 31
0.0
 11
431.1457620760369
 21
236.9179830864968
 31
0.0
 11
431.3089641433124
 21
237.3057053363298
 31
0.0
 11
431.4992304759036
 21
237.680869060174
 31
0.0
 11
431.7038694656569
 21
238.0189140293559
 31
0.0
 11
431.9349873979823
 21
238.3394059569809
 31
0.0
 11
432.1750042449297
 21
238.6182279562701
 31
0.0
 11
432.4397925886986
 21
238.873584466544
 31
0.0
 11
432.7085146670848
 21
239.0853818008002
 31
0.0
 11
432.998307797776
 21
239.2671738451574
 31
0.0
 11
433.2886634879468
 21
239.4057481900863
 31
0.0
 11
433.5935628232104
 21
239.5082150787182
 31
0.0
 11
433.8978953441296
 21
239.5687671581163
 31
0.0
 11
434.2074711422662
 21
239.5893842513171
 31
0.0
 11
434.5170469404028
 21
239.5687671581164
 31
0.0
 11
434.8213794613222
 21
239.5082150787183
 31
0.0
 11
435.1262787965856
 21
239.4057481900863
 31
0.0
 11
435.4166344867562
 21
239.2671738451574
 31
0.0
 11
435.7064276174477
 21
239.0853818008003
 31
0.0
 11
435.9751496958342
 21
238.8735844665442
 31
0.0
 11
436.2399380396031
 21
238.6182279562704
 31
0.0
 11
436.4799548865504
 21
238.3394059569812
 31
0.0
 11
436.7110728188756
 21
238.0189140293561
 31
0.0
 11
436.9157118086287
 21
237.680869060174
 31
0.0
 11
437.1059781412198
 21
237.3057053363298
 31
0.0
 11
437.2691802084956
 21
236.917983086497
 31
0.0
 11
437.4129654790776
 21
236.5001467620357
 31
0.0
 11
437.5296201276847
 21
236.0739279402212
 31
0.0
 11
437.6228835293843
 21
235.6265379741314
 31
0.0
 11
437.6891182310406
 21
235.1743498098537
 31
0.0
 11
437.7294432198073
 21
234.7112465966414
 31
0.0
 11
437.7428282494021
 21
234.2465819216771
 31
0.0
 11
437.7294432198073
 21
233.7819172467128
 31
0.0
 11
437.6891182310406
 21
233.3188140335004
 31
0.0
 11
437.6228835293843
 21
232.8666258692228
 31
0.0
 11
437.5296201276847
 21
232.4192359031328
 31
0.0
 11
437.4129654790776
 21
231.9930170813182
 31
0.0
 11
437.2691802084956
 21
231.5751807568568
 31
0.0
 11
437.10597814122
 21
231.1874585070241
 31
0.0
 11
436.9157118086289
 21
230.8122947831799
 31
0.0
 11
436.7110728188758
 21
230.4742498139981
 31
0.0
 11
436.4799548865506
 21
230.1537578863731
 31
0.0
 11
436.2399380396033
 21
229.8749358870838
 31
0.0
 11
435.9751496958343
 21
229.61957937681
 31
0.0
 11
435.7064276174478
 21
229.4077820425538
 31
0.0
 11
435.4166344867563
 21
229.2259899981965
 31
0.0
 11
435.1262787965858
 21
229.0874156532676
 31
0.0
 11
434.8213794613225
 21
228.9849487646356
 31
0.0
 11
434.5170469404031
 21
228.9243966852376
 31
0.0
 11
434.2074711422662
 21
228.9037795920369
 31
0.0
  0
SPLINE
  5
FE
330
4D
100
AcDbEntity
  8
1
  6
Continuous
 62
     7
100
AcDbSpline
210
0.0
220
0.0
230
1.0
 70
    11
 71
     3
 72
    79
 73
    75
 74
    73
 42
0.000000001
 43
0.0000000001
 44
0.00000001
 40
0.0
 40
0.0
 40
0.0
 40
0.0
 40
0.3102615582252382
 40
0.620559542082092
 40
0.9422162975287843
 40
1.263944872753724
 40
1.606039020844941
 40
1.948193468906952
 40
2.316051885190544
 40
2.683951048240072
 40
3.079084664080467
 40
3.474244780173767
 40
3.89489795920752
 40
4.315568207494145
 40
4.757452126736345
 40
5.19934667424149
 40
5.656354161987068
 40
6.113367478658249
 40
6.57822303773332
 40
7.043080455842773
 40
7.50793787395023
 40
7.972793433018603
 40
8.429806749677551
 40
8.886814237403604
 40
9.328708784880408
 40
9.770592704081507
 40
10.19126295231281
 40
10.61191613126939
 40
11.00707624726316
 40
11.40220986296865
 40
11.77010902584988
 40
12.13796744190987
 40
12.48012188969633
 40
12.82221603741918
 40
13.14394461216137
 40
13.46560136682474
 40
13.7758993486416
 40
14.08616091447275
 40
14.39642248030363
 40
14.70672046212011
 40
15.0283772167834
 40
15.35010579152564
 40
15.69219993924852
 40
16.03435438703504
 40
16.40221280309501
 40
16.77011196597622
 40
17.16524558168172
 40
17.56040569767556
 40
17.98105887663226
 40
18.40172912486367
 40
18.84361304406482
 40
19.28550759154172
 40
19.74251507926764
 40
20.19952839592641
 40
20.66438395499465
 40
21.12924137310196
 40
21.59409879121161
 40
22.05895435028679
 40
22.51596766695783
 40
22.97297515470324
 40
23.41486970220856
 40
23.85675362145085
 40
24.27742386973753
 40
24.69807704877128
 40
25.09323716486452
 40
25.48837078070484
 40
25.8562699437544
 40
26.22412836003796
 40
26.56628280810006
 40
26.90837695619135
 40
27.23010553141632
 40
27.55176228686305
 40
27.86206027071984
 40
28.17232182894491
 40
28.17232182894491
 40
28.17232182894491
 40
28.17232182894491
 10
434.2074711422665
 20
227.0280773226802
 30
0.0
 10
434.1039809603443
 20
227.0240441309642
 30
0.0
 10
433.8969884459996
 20
227.0159772822935
 30
0.0
 10
433.588139577977
 20
226.9519933044841
 30
0.0
 10
433.286172664243
 20
226.8505725081868
 30
0.0
 10
432.9892630081282
 20
226.708150008089
 30
0.0
 10
432.7049448997678
 20
226.529047435329
 30
0.0
 10
432.4294438534715
 20
226.3110771674684
 30
0.0
 10
432.1708378328029
 20
226.0607950134335
 30
0.0
 10
431.9250799431901
 20
225.7743328516616
 30
0.0
 10
431.6994346829957
 20
225.4605020993744
 30
0.0
 10
431.4906630151078
 20
225.1145879343433
 30
0.0
 10
431.3044422468362
 20
224.7464691421928
 30
0.0
 10
431.1387577164897
 20
224.3517752072761
 30
0.0
 10
430.9974499436401
 20
223.9402220073042
 30
0.0
 10
430.8796704550658
 20
223.5087963077096
 30
0.0
 10
430.7875521534272
 20
223.066022278999
 30
0.0
 10
430.7210662260341
 20
222.610964280405
 30
0.0
 10
430.6810086691237
 20
222.150197178324
 30
0.0
 10
430.6676667118285
 20
221.6852750028931
 30
0.0
 10
430.6810086690451
 20
221.2203528274662
 30
0.0
 10
430.7210662258728
 20
220.7595857253734
 30
0.0
 10
430.7875521531744
 20
220.3045277268211
 30
0.0
 10
430.8796704547097
 20
219.8617536979562
 30
0.0
 10
430.9974499431622
 20
219.4303279989144
 30
0.0
 10
431.1387577158704
 20
219.0187747969157
 30
0.0
 10
431.3044422460474
 20
218.6240808691934
 30
0.0
 10
431.4906630141212
 20
218.2559620509713
 30
0.0
 10
431.6994346817735
 20
217.9100479775482
 30
0.0
 10
431.9250799416965
 20
217.5962168956104
 30
0.0
 10
432.1708378309879
 20
217.3097558831374
 30
0.0
 10
432.4294438512869
 20
217.0594696040644
 30
0.0
 10
432.7049448971432
 20
216.8415137060574
 30
0.0
 10
432.9892630049824
 20
216.6623593923181
 30
0.0
 10
433.2861726603948
 20
216.5201190409304
 30
0.0
 10
433.5881395729043
 20
216.4180353888903
 30
0.0
 10
433.8969884420505
 20
216.3564421489624
 30
0.0
 10
434.2074711422669
 20
216.335488345501
 30
0.0
 10
434.5179538424825
 20
216.3564421489626
 30
0.0
 10
434.8268027116288
 20
216.4180353888905
 30
0.0
 10
435.1287696241379
 20
216.5201190409305
 30
0.0
 10
435.4256792795505
 20
216.6623593923181
 30
0.0
 10
435.7099973873899
 20
216.8415137060573
 30
0.0
 10
435.9854984332466
 20
217.0594696040639
 30
0.0
 10
436.2441044535452
 20
217.3097558831372
 30
0.0
 10
436.4898623428367
 20
217.5962168956102
 30
0.0
 10
436.7155076027594
 20
217.9100479775482
 30
0.0
 10
436.9242792704119
 20
218.2559620509712
 30
0.0
 10
437.1105000384857
 20
218.6240808691935
 30
0.0
 10
437.2761845686629
 20
219.0187747969159
 30
0.0
 10
437.4174923413706
 20
219.4303279989147
 30
0.0
 10
437.5352718298233
 20
219.8617536979565
 30
0.0
 10
437.6273901313584
 20
220.3045277268213
 30
0.0
 10
437.6938760586602
 20
220.7595857253736
 30
0.0
 10
437.7339336154878
 20
221.2203528274661
 30
0.0
 10
437.7472755727044
 20
221.685275002893
 30
0.0
 10
437.7339336154094
 20
222.150197178324
 30
0.0
 10
437.6938760584993
 20
222.6109642804051
 30
0.0
 10
437.6273901311059
 20
223.0660222789989
 30
0.0
 10
437.5352718294673
 20
223.5087963077096
 30
0.0
 10
437.417492340893
 20
223.940222007304
 30
0.0
 10
437.2761845680432
 20
224.3517752072761
 30
0.0
 10
437.1105000376964
 20
224.7464691421928
 30
0.0
 10
436.9242792694252
 20
225.1145879343433
 30
0.0
 10
436.7155076015376
 20
225.4605020993745
 30
0.0
 10
436.4898623413429
 20
225.7743328516617
 30
0.0
 10
436.2441044517302
 20
226.0607950134334
 30
0.0
 10
435.9854984310614
 20
226.3110771674684
 30
0.0
 10
435.7099973847651
 20
226.529047435329
 30
0.0
 10
435.4256792764047
 20
226.7081500080891
 30
0.0
 10
435.12876962029
 20
226.8505725081869
 30
0.0
 10
434.8268027065557
 20
226.9519933044839
 30
0.0
 10
434.5179538385332
 20
227.0159772822935
 30
0.0
 10
434.3109613241886
 20
227.0240441309642
 30
0.0
 10
434.2074711422665
 20
227.0280773226802
 30
0.0
 11
434.2074711422665
 21
227.0280773226802
 31
0.0
 11
433.8978953441298
 21
227.0074602294795
 31
0.0
 11
433.5935628232106
 21
226.9469081500815
 31
0.0
 11
433.2886634879472
 21
226.8444412614497
 31
0.0
 11
432.9983077977766
 21
226.7058669165208
 31
0.0
 11
432.7085146670851
 21
226.5240748721635
 31
0.0
 11
432.4397925886986
 21
226.3122775379073
 31
0.0
 11
432.1750042449297
 21
226.0569210276333
 31
0.0
 11
431.9349873979824
 21
225.778099028344
 31
0.0
 11
431.7038694656572
 21
225.457607100719
 31
0.0
 11
431.4992304759041
 21
225.1195621315372
 31
0.0
 11
431.3089641433128
 21
224.7443984076932
 31
0.0
 11
431.1457620760371
 21
224.3566761578604
 31
0.0
 11
431.0019768054552
 21
223.9388398333991
 31
0.0
 11
430.8853221568482
 21
223.5126210115845
 31
0.0
 11
430.7920587551487
 21
223.0652310454944
 31
0.0
 11
430.7258240534925
 21
222.6130428812167
 31
0.0
 11
430.6854990647257
 21
222.1499396680044
 31
0.0
 11
430.6721140351307
 21
221.6852749930403
 31
0.0
 11
430.6854990647256
 21
221.220610318076
 31
0.0
 11
430.7258240534924
 21
220.7575071048636
 31
0.0
 11
430.7920587551487
 21
220.3053189405858
 31
0.0
 11
430.8853221568482
 21
219.8579289744958
 31
0.0
 11
431.0019768054552
 21
219.4317101526813
 31
0.0
 11
431.1457620760373
 21
219.0138738282201
 31
0.0
 11
431.3089641433129
 21
218.6261515783873
 31
0.0
 11
431.499230475904
 21
218.2509878545431
 31
0.0
 11
431.7038694656571
 21
217.9129428853612
 31
0.0
 11
431.9349873979824
 21
217.5924509577363
 31
0.0
 11
432.1750042449298
 21
217.3136289584471
 31
0.0
 11
432.4397925886988
 21
217.0582724481733
 31
0.0
 11
432.7085146670852
 21
216.8464751139171
 31
0.0
 11
432.9983077977766
 21
216.6646830695598
 31
0.0
 11
433.2886634879472
 21
216.5261087246309
 31
0.0
 11
433.5935628232106
 21
216.423641835999
 31
0.0
 11
433.8978953441301
 21
216.3630897566009
 31
0.0
 11
434.2074711422668
 21
216.3424726634002
 31
0.0
 11
434.5170469404032
 21
216.3630897566011
 31
0.0
 11
434.8213794613223
 21
216.4236418359992
 31
0.0
 11
435.1262787965857
 21
216.526108724631
 31
0.0
 11
435.4166344867564
 21
216.6646830695598
 31
0.0
 11
435.7064276174478
 21
216.8464751139169
 31
0.0
 11
435.9751496958345
 21
217.058272448173
 31
0.0
 11
436.2399380396034
 21
217.3136289584469
 31
0.0
 11
436.4799548865506
 21
217.5924509577362
 31
0.0
 11
436.7110728188759
 21
217.9129428853611
 31
0.0
 11
436.9157118086291
 21
218.250987854543
 31
0.0
 11
437.1059781412202
 21
218.6261515783873
 31
0.0
 11
437.2691802084958
 21
219.0138738282203
 31
0.0
 11
437.4129654790777
 21
219.4317101526817
 31
0.0
 11
437.5296201276848
 21
219.8579289744962
 31
0.0
 11
437.6228835293843
 21
220.3053189405861
 31
0.0
 11
437.6891182310406
 21
220.7575071048637
 31
0.0
 11
437.7294432198074
 21
221.220610318076
 31
0.0
 11
437.7428282494023
 21
221.6852749930401
 31
0.0
 11
437.7294432198075
 21
222.1499396680044
 31
0.0
 11
437.6891182310407
 21
222.6130428812168
 31
0.0
 11
437.6228835293845
 21
223.0652310454944
 31
0.0
 11
437.5296201276849
 21
223.5126210115843
 31
0.0
 11
437.4129654790779
 21
223.938839833399
 31
0.0
 11
437.2691802084958
 21
224.3566761578604
 31
0.0
 11
437.10597814122
 21
224.7443984076932
 31
0.0
 11
436.9157118086289
 21
225.1195621315373
 31
0.0
 11
436.7110728188758
 21
225.4576071007191
 31
0.0
 11
436.4799548865507
 21
225.778099028344
 31
0.0
 11
436.2399380396033
 21
226.0569210276333
 31
0.0
 11
435.9751496958344
 21
226.3122775379072
 31
0.0
 11
435.7064276174478
 21
226.5240748721635
 31
0.0
 11
435.4166344867563
 21
226.7058669165209
 31
0.0
 11
435.1262787965856
 21
226.8444412614497
 31
0.0
 11
434.8213794613222
 21
226.9469081500815
 31
0.0
 11
434.517046940403
 21
227.0074602294794
 31
0.0
 11
434.2074711422665
 21
227.0280773226802
 31
0.0
  0
ARC
  5
FF
330
4D
100
AcDbEntity
  8
1
  6
Continuous
 62
     7
100
AcDbCircle
 10
424.9291197504165
 20
239.4659284573586
 30
0.0
 40
3.0
100
AcDbArc
 50
270.0000000000021
 51
315.0000000000003
  0
ARC
  5
100
330
4D
100
AcDbEntity
  8
1
  6
Continuous
 62
     7
100
AcDbCircle
 10
420.2428282494013
 20
235.4659284573586
 30
0.0
 40
0.999999999999801
100
AcDbArc
 50
89.99999999999022
 51
180.0000000000114
  0
ARC
  5
101
330
4D
100
AcDbEntity
  8
1
  6
Continuous
 62
     7
100
AcDbCircle
 10
420.2428282494016
 20
220.4659284573583
 30
0.0
 40
1.0
100
AcDbArc
 50
180.0
 51
269.9999999999935
  0
ARC
  5
102
330
4D
100
AcDbEntity
  8
1
  6
Continuous
 62
     7
100
AcDbCircle
 10
424.929119750417
 20
216.4659284573583
 30
0.0
 40
3.000000000000004
100
AcDbArc
 50
45.00000000000423
 51
90.00000000000325
  0
ARC
  5
103
330
4D
100
AcDbEntity
  8
1
  6
Continuous
 62
     7
100
AcDbCircle
 10
424.9290210743298
 20
551.8076338397304
 30
0.0
 40
2.999999999999904
100
AcDbArc
 50
44.99999999999923
 51
90.0
  0
ARC
  5
104
330
4D
100
AcDbEntity
  8
1
  6
Continuous
 62
     7
100
AcDbCircle
 10
420.2427295733147
 20
555.8076338397304
 30
0.0
 40
1.0
100
AcDbArc
 50
180.0
 51
270.0
  0
ARC
  5
105
330
4D
100
AcDbEntity
  8
1
  6
Continuous
 62
     7
100
AcDbCircle
 10
420.2427295733147
 20
570.8076338397303
 30
0.0
 40
1.0
100
AcDbArc
 50
90.0
 51
180.0
  0
ARC
  5
106
330
4D
100
AcDbEntity
  8
1
  6
Continuous
 62
     7
100
AcDbCircle
 10
424.9290210743298
 20
574.8076338397303
 30
0.0
 40
3.0
100
AcDbArc
 50
270.0
 51
314.9999999999993
  0
ENDBLK
  5
4F
330
4D
100
AcDbEntity
  8
0
100
AcDbBlockEnd
  0
BLOCK
  5
53
330
50
100
AcDbEntity
  8
0
100
AcDbBlockBegin
  2
U360LS-13
 70
     0
 10
75.65966818703208
 20
572.742842891623
 30
0.0
  3
U360LS-13
  1

  0
INSERT
  5
51
330
50
100
AcDbEntity
  8
1
100
AcDbBlockReference
  2
36-190-M11
 10
139.2565846042009
 20
1003.802331807142
 30
0.0
 41
1.0
 42
1.0
 43
1.0
  0
INSERT
  5
52
330
50
100
AcDbEntity
  8
1
100
AcDbBlockReference
  2
37-119
 10
-58.46613167565669
 20
740.9902526749137
 30
0.0
 41
1.0
 42
1.0
 43
1.0
  0
ENDBLK
  5
54
330
50
100
AcDbEntity
  8
0
100
AcDbBlockEnd
  0
BLOCK
  5
56
330
55
100
AcDbEntity
  8
0
100
AcDbBlockBegin
  2
A231L-0-13-M1
 70
     0
 10
430.2427295733145
 20
204.9659284573584
 30
0.0
  3
A231L-0-13-M1
  1

  0
LINE
  5
107
330
55
100
AcDbEntity
  8
1
  6
PHANTOM
 62
     4
100
AcDbLine
 10
160.1024074940053
 20
210.9659284573583
 30
0.0
 11
160.1024074940053
 21
260.9659284573583
 31
0.0
  0
LINE
  5
108
330
55
100
AcDbEntity
  8
1
  6
Continuous
 62
     7
100
AcDbLine
 10
450.2427295733145
 20
251.4659284573585
 30
0.0
 11
450.2427295733145
 21
252.9659284573585
 31
0.0
  0
LINE
  5
109
330
55
100
AcDbEntity
  8
1
  6
Continuous
 62
     7
100
AcDbLine
 10
461.3363016102368
 20
229.8459988507605
 30
0.0
 11
449.5518283659491
 21
241.4675443156387
 31
0.0
  0
LINE
  5
10A
330
55
100
AcDbEntity
  8
1
  6
Continuous
 62
     7
100
AcDbLine
 10
450.2427295733145
 20
246.7032414670613
 30
0.0
 11
450.2427295733145
 21
246.9395944183688
 31
0.0
  0
LINE
  5
10B
330
55
100
AcDbEntity
  8
1
  6
Continuous
 62
     7
100
AcDbLine
 10
476.2427295733145
 20
227.9659284573585
 30
0.0
 11
476.2427295733145
 21
246.9395944183689
 31
0.0
  0
LINE
  5
10C
330
55
100
AcDbEntity
  8
1
  6
Continuous
 62
     7
100
AcDbLine
 10
444.6675890610064
 20
240.7183025019825
 30
0.0
 11
444.0737344815948
 21
240.6761458895518
 31
0.0
  0
LINE
  5
10D
330
55
100
AcDbEntity
  8
1
  6
Continuous
 62
     7
100
AcDbLine
 10
441.2427295733145
 20
215.9659284573584
 30
0.0
 11
441.2427295733145
 21
239.9659284573585
 31
0.0
  0
LINE
  5
10E
330
55
100
AcDbEntity
  8
1
  6
Continuous
 62
     7
100
AcDbLine
 10
441.2427295733145
 20
215.4566787045355
 30
0.0
 11
444.0737344815948
 21
215.2557110251651
 31
0.0
  0
LINE
  5
10F
330
55
100
AcDbEntity
  8
1
  6
Continuous
 62
     7
100
AcDbLine
 10
450.2427295733145
 20
246.9395944183688
 30
0.0
 11
450.2427295733145
 21
248.7159284573585
 31
0.0
  0
LINE
  5
110
330
55
100
AcDbEntity
  8
1
  6
Continuous
 62
     7
100
AcDbLine
 10
444.0737344815948
 20
215.2557110251651
 30
0.0
 11
462.2427295733145
 21
213.9659284573585
 31
0.0
  0
LINE
  5
111
330
55
100
AcDbEntity
  8
1
  6
Continuous
 62
     7
100
AcDbLine
 10
441.2427295733145
 20
215.9659284573584
 30
0.0
 11
441.2427295733145
 21
215.4566787045355
 31
0.0
  0
LINE
  5
112
330
55
100
AcDbEntity
  8
1
  6
Continuous
 62
     7
100
AcDbLine
 10
440.9747803808834
 20
215.9659284573584
 30
0.0
 11
441.2427295733145
 21
215.9659284573584
 31
0.0
  0
LINE
  5
113
330
55
100
AcDbEntity
  8
1
  6
Continuous
 62
     7
100
AcDbLine
 10
439.2427295733145
 20
215.9659284573584
 30
0.0
 11
440.9747803808834
 21
215.9659284573584
 31
0.0
  0
LINE
  5
114
330
55
100
AcDbEntity
  8
1
  6
Continuous
 62
     7
100
AcDbLine
 10
437.7427295733145
 20
215.9659284573584
 30
0.0
 11
439.2427295733145
 21
215.9659284573584
 31
0.0
  0
LINE
  5
115
330
55
100
AcDbEntity
  8
1
  6
Continuous
 62
     2
100
AcDbLine
 10
437.7427295733145
 20
216.9659284573585
 30
0.0
 11
439.2427295733145
 21
216.9659284573584
 31
0.0
  0
LINE
  5
116
330
55
100
AcDbEntity
  8
1
  6
Continuous
 62
     2
100
AcDbLine
 10
439.2427295733145
 20
216.9659284573584
 30
0.0
 11
440.9747803808834
 21
215.9659284573584
 31
0.0
  0
LINE
  5
117
330
55
100
AcDbEntity
  8
1
  6
Continuous
 62
     7
100
AcDbLine
 10
439.2427295733145
 20
239.9659284573585
 30
0.0
 11
439.2427295733145
 21
215.9659284573584
 31
0.0
  0
LINE
  5
118
330
55
100
AcDbEntity
  8
1
  6
Continuous
 62
     2
100
AcDbLine
 10
440.9747803808834
 20
239.9659284573585
 30
0.0
 11
439.2427295733145
 21
238.9659284573585
 31
0.0
  0
LINE
  5
119
330
55
100
AcDbEntity
  8
1
  6
Continuous
 62
     2
100
AcDbLine
 10
437.7427295733145
 20
238.9659284573585
 30
0.0
 11
439.2427295733145
 21
238.9659284573585
 31
0.0
  0
LINE
  5
11A
330
55
100
AcDbEntity
  8
1
  6
Continuous
 62
     7
100
AcDbLine
 10
439.2427295733145
 20
239.9659284573585
 30
0.0
 11
437.7427295733145
 21
239.9659284573585
 31
0.0
  0
LINE
  5
11B
330
55
100
AcDbEntity
  8
1
  6
Continuous
 62
     7
100
AcDbLine
 10
440.9747803808834
 20
239.9659284573585
 30
0.0
 11
439.2427295733145
 21
239.9659284573585
 31
0.0
  0
LINE
  5
11C
330
55
100
AcDbEntity
  8
1
  6
Continuous
 62
     7
100
AcDbLine
 10
441.2427295733145
 20
239.9659284573585
 30
0.0
 11
440.9747803808834
 21
239.9659284573585
 31
0.0
  0
LINE
  5
11D
330
55
100
AcDbEntity
  8
1
  6
Continuous
 62
     7
100
AcDbLine
 10
441.2427295733145
 20
240.4751782101814
 30
0.0
 11
441.2427295733145
 21
239.9659284573585
 31
0.0
  0
LINE
  5
11E
330
55
100
AcDbEntity
  8
1
  6
Continuous
 62
     7
100
AcDbLine
 10
444.0737344815948
 20
240.6761458895518
 30
0.0
 11
441.2427295733145
 21
240.4751782101814
 31
0.0
  0
LINE
  5
11F
330
55
100
AcDbEntity
  8
1
  6
Continuous
 62
     7
100
AcDbLine
 10
476.2427295733145
 20
251.4659284573585
 30
0.0
 11
450.2427295733145
 21
251.4659284573585
 31
0.0
  0
LINE
  5
120
330
55
100
AcDbEntity
  8
1
  6
Continuous
 62
     7
100
AcDbLine
 10
450.2427295733145
 20
249.7338776497896
 30
0.0
 11
450.2427295733145
 21
251.4659284573585
 31
0.0
  0
LINE
  5
121
330
55
100
AcDbEntity
  8
1
  6
Continuous
 62
     7
100
AcDbLine
 10
476.2427295733145
 20
252.9659284573585
 30
0.0
 11
476.2427295733145
 21
251.4659284573585
 31
0.0
  0
LINE
  5
122
330
55
100
AcDbEntity
  8
1
  6
Continuous
 62
     7
100
AcDbLine
 10
476.2427295733145
 20
251.4659284573585
 30
0.0
 11
476.2427295733145
 21
249.7338776497896
 31
0.0
  0
LINE
  5
123
330
55
100
AcDbEntity
  8
1
  6
Continuous
 62
     7
100
AcDbLine
 10
476.2427295733145
 20
246.9395944183689
 30
0.0
 11
476.2427295733145
 21
249.7338776497896
 31
0.0
  0
LINE
  5
124
330
55
100
AcDbEntity
  8
1
  6
Continuous
 62
     2
100
AcDbLine
 10
475.2427295733145
 20
252.9659284573585
 30
0.0
 11
475.2427295733145
 21
251.4659284573585
 31
0.0
  0
LINE
  5
125
330
55
100
AcDbEntity
  8
1
  6
Continuous
 62
     2
100
AcDbLine
 10
476.2427295733145
 20
249.7338776497896
 30
0.0
 11
475.2427295733145
 21
251.4659284573585
 31
0.0
  0
LINE
  5
126
330
55
100
AcDbEntity
  8
1
  6
Continuous
 62
     7
100
AcDbLine
 10
450.2427295733145
 20
248.7159284573585
 30
0.0
 11
450.2427295733145
 21
249.7338776497896
 31
0.0
  0
LINE
  5
127
330
55
100
AcDbEntity
  8
1
  6
Continuous
 62
     2
100
AcDbLine
 10
451.2427295733145
 20
251.4659284573585
 30
0.0
 11
450.2427295733145
 21
249.7338776497896
 31
0.0
  0
LINE
  5
128
330
55
100
AcDbEntity
  8
1
  6
Continuous
 62
     2
100
AcDbLine
 10
451.2427295733145
 20
252.9659284573585
 30
0.0
 11
451.2427295733145
 21
251.4659284573585
 31
0.0
  0
LINE
  5
129
330
55
100
AcDbEntity
  8
1
  6
Continuous
 62
     7
100
AcDbLine
 10
444.0737344815948
 20
550.5974164075369
 30
0.0
 11
455.2427295733145
 21
549.8045505887892
 31
0.0
  0
LINE
  5
12A
330
55
100
AcDbEntity
  8
1
  6
Continuous
 62
     7
100
AcDbLine
 10
439.2427295733145
 20
575.3076338397302
 30
0.0
 11
437.7427295733145
 21
575.3076338397302
 31
0.0
  0
LINE
  5
12B
330
55
100
AcDbEntity
  8
1
  6
PHANTOM
 62
     4
100
AcDbLine
 10
400.8735940328128
 20
563.3076338397302
 30
0.0
 11
482.9022168233007
 21
563.3076338397302
 31
0.0
  0
LINE
  5
12C
330
55
100
AcDbEntity
  8
1
  6
Continuous
 62
     7
100
AcDbLine
 10
441.2427295733145
 20
550.7983840869072
 30
0.0
 11
444.0737344815948
 21
550.5974164075369
 31
0.0
  0
LINE
  5
12D
330
55
100
AcDbEntity
  8
1
  6
Continuous
 62
     7
100
AcDbLine
 10
443.3424485486978
 20
575.9659386678652
 30
0.0
 11
441.2427295733145
 21
575.816883592553
 31
0.0
  0
LINE
  5
12E
330
55
100
AcDbEntity
  8
1
  6
Continuous
 62
     7
100
AcDbLine
 10
441.2427295733145
 20
551.3076338397302
 30
0.0
 11
441.2427295733145
 21
575.3076338397302
 31
0.0
  0
LINE
  5
12F
330
55
100
AcDbEntity
  8
1
  6
Continuous
 62
     7
100
AcDbLine
 10
441.2427295733145
 20
551.3076338397302
 30
0.0
 11
441.2427295733145
 21
550.7983840869072
 31
0.0
  0
LINE
  5
130
330
55
100
AcDbEntity
  8
1
  6
Continuous
 62
     7
100
AcDbLine
 10
440.9747803808833
 20
551.3076338397302
 30
0.0
 11
441.2427295733145
 21
551.3076338397302
 31
0.0
  0
LINE
  5
131
330
55
100
AcDbEntity
  8
1
  6
Continuous
 62
     7
100
AcDbLine
 10
439.2427295733145
 20
551.3076338397302
 30
0.0
 11
440.9747803808833
 21
551.3076338397302
 31
0.0
  0
LINE
  5
132
330
55
100
AcDbEntity
  8
1
  6
Continuous
 62
     7
100
AcDbLine
 10
437.7427295733145
 20
551.3076338397302
 30
0.0
 11
439.2427295733145
 21
551.3076338397302
 31
0.0
  0
LINE
  5
133
330
55
100
AcDbEntity
  8
1
  6
Continuous
 62
     2
100
AcDbLine
 10
437.7427295733145
 20
552.3076338397302
 30
0.0
 11
439.2427295733145
 21
552.3076338397302
 31
0.0
  0
LINE
  5
134
330
55
100
AcDbEntity
  8
1
  6
Continuous
 62
     2
100
AcDbLine
 10
439.2427295733145
 20
552.3076338397302
 30
0.0
 11
440.9747803808833
 21
551.3076338397302
 31
0.0
  0
LINE
  5
135
330
55
100
AcDbEntity
  8
1
  6
Continuous
 62
     7
100
AcDbLine
 10
439.2427295733145
 20
575.3076338397302
 30
0.0
 11
439.2427295733145
 21
551.3076338397302
 31
0.0
  0
LINE
  5
136
330
55
100
AcDbEntity
  8
1
  6
Continuous
 62
     2
100
AcDbLine
 10
440.9747803808833
 20
575.3076338397302
 30
0.0
 11
439.2427295733145
 21
574.3076338397302
 31
0.0
  0
LINE
  5
137
330
55
100
AcDbEntity
  8
1
  6
Continuous
 62
     2
100
AcDbLine
 10
437.7427295733145
 20
574.3076338397302
 30
0.0
 11
439.2427295733145
 21
574.3076338397302
 31
0.0
  0
LINE
  5
138
330
55
100
AcDbEntity
  8
1
  6
Continuous
 62
     7
100
AcDbLine
 10
440.9747803808833
 20
575.3076338397302
 30
0.0
 11
439.2427295733145
 21
575.3076338397302
 31
0.0
  0
LINE
  5
139
330
55
100
AcDbEntity
  8
1
  6
Continuous
 62
     7
100
AcDbLine
 10
441.2427295733145
 20
575.3076338397302
 30
0.0
 11
440.9747803808833
 21
575.3076338397302
 31
0.0
  0
LINE
  5
13A
330
55
100
AcDbEntity
  8
1
  6
Continuous
 62
     7
100
AcDbLine
 10
441.2427295733145
 20
575.816883592553
 30
0.0
 11
441.2427295733145
 21
575.3076338397302
 31
0.0
  0
LINE
  5
13B
330
55
100
AcDbEntity
  8
1
  6
Continuous
 62
     7
100
AcDbLine
 10
453.742729573314
 20
622.3076338397295
 30
0.0
 11
472.742729573314
 21
622.3076338397295
 31
0.0
  0
LINE
  5
13C
330
55
100
AcDbEntity
  8
1
  6
Continuous
 62
     7
100
AcDbLine
 10
473.742729573314
 20
621.3076338397295
 30
0.0
 11
472.742729573314
 21
622.3076338397295
 31
0.0
  0
LINE
  5
13D
330
55
100
AcDbEntity
  8
1
  6
Continuous
 62
     7
100
AcDbLine
 10
473.742729573314
 20
621.3076338397295
 30
0.0
 11
473.742729573314
 21
608.3076338397295
 31
0.0
  0
LINE
  5
13E
330
55
100
AcDbEntity
  8
1
  6
Continuous
 62
     7
100
AcDbLine
 10
452.742729573314
 20
621.3076338397295
 30
0.0
 11
473.742729573314
 21
621.3076338397295
 31
0.0
  0
LINE
  5
13F
330
55
100
AcDbEntity
  8
1
  6
Continuous
 62
     7
100
AcDbLine
 10
473.742729573314
 20
610.0396846472986
 30
0.0
 11
452.742729573314
 21
610.0396846472986
 31
0.0
  0
LINE
  5
140
330
55
100
AcDbEntity
  8
1
  6
Continuous
 62
     7
100
AcDbLine
 10
453.742729573314
 20
622.3076338397295
 30
0.0
 11
452.742729573314
 21
621.3076338397295
 31
0.0
  0
LINE
  5
141
330
55
100
AcDbEntity
  8
1
  6
Continuous
 62
     7
100
AcDbLine
 10
452.742729573314
 20
608.3076338397295
 30
0.0
 11
452.742729573314
 21
621.3076338397295
 31
0.0
  0
LINE
  5
142
330
55
100
AcDbEntity
  8
1
  6
Continuous
 62
     7
100
AcDbLine
 10
454.492729573314
 20
601.8076338397295
 30
0.0
 11
454.492729573314
 21
587.9358165980227
 31
0.0
  0
LINE
  5
143
330
55
100
AcDbEntity
  8
1
  6
Continuous
 62
     2
100
AcDbLine
 10
453.742729573314
 20
610.0396846472986
 30
0.0
 11
453.742729573314
 21
622.3076338397295
 31
0.0
  0
LINE
  5
144
330
55
100
AcDbEntity
  8
1
  6
Continuous
 62
     2
100
AcDbLine
 10
452.742729573314
 20
608.3076338397295
 30
0.0
 11
453.742729573314
 21
610.0396846472986
 31
0.0
  0
LINE
  5
145
330
55
100
AcDbEntity
  8
1
  6
Continuous
 62
     7
100
AcDbLine
 10
440.242729573314
 20
608.3076338397295
 30
0.0
 11
440.242729573314
 21
606.3076338397295
 31
0.0
  0
LINE
  5
146
330
55
100
AcDbEntity
  8
1
  6
Continuous
 62
     7
100
AcDbLine
 10
471.992729573314
 20
601.8076338397295
 30
0.0
 11
471.992729573314
 21
582.1739397844569
 31
0.0
  0
LINE
  5
147
330
55
100
AcDbEntity
  8
1
  6
Continuous
 62
     7
100
AcDbLine
 10
485.742729573314
 20
605.8076338397295
 30
0.0
 11
440.742729573314
 21
605.8076338397295
 31
0.0
  0
LINE
  5
148
330
55
100
AcDbEntity
  8
1
  6
Continuous
 62
     7
100
AcDbLine
 10
486.242729573314
 20
606.3076338397295
 30
0.0
 11
486.242729573314
 21
608.3076338397295
 31
0.0
  0
LINE
  5
149
330
55
100
AcDbEntity
  8
1
  6
Continuous
 62
     7
100
AcDbLine
 10
440.242729573314
 20
608.3076338397295
 30
0.0
 11
486.242729573314
 21
608.3076338397295
 31
0.0
  0
LINE
  5
14A
330
55
100
AcDbEntity
  8
1
  6
Continuous
 62
     2
100
AcDbLine
 10
472.742729573314
 20
610.0396846472986
 30
0.0
 11
473.742729573314
 21
608.3076338397295
 31
0.0
  0
LINE
  5
14B
330
55
100
AcDbEntity
  8
1
  6
Continuous
 62
     2
100
AcDbLine
 10
472.742729573314
 20
622.3076338397295
 30
0.0
 11
472.742729573314
 21
610.0396846472986
 31
0.0
  0
LINE
  5
14C
330
55
100
AcDbEntity
  8
1
  6
Continuous
 62
     7
100
AcDbLine
 10
102.102407494006
 20
218.4659284573587
 30
0.0
 11
102.102407494006
 21
237.4659284573588
 31
0.0
  0
LINE
  5
14D
330
55
100
AcDbEntity
  8
1
  6
Continuous
 62
     7
100
AcDbLine
 10
113.370356686437
 20
237.4659284573588
 30
0.0
 11
113.370356686437
 21
218.4659284573587
 31
0.0
  0
LINE
  5
14E
330
55
100
AcDbEntity
  8
1
  6
Continuous
 62
     7
100
AcDbLine
 10
115.102407494006
 20
217.4659284573587
 30
0.0
 11
115.102407494006
 21
238.4659284573588
 31
0.0
  0
LINE
  5
14F
330
55
100
AcDbEntity
  8
1
  6
Continuous
 62
     7
100
AcDbLine
 10
117.602407494006
 20
215.2159284573587
 30
0.0
 11
117.602407494006
 21
240.7159284573588
 31
0.0
  0
LINE
  5
150
330
55
100
AcDbEntity
  8
1
  6
Continuous
 62
     2
100
AcDbLine
 10
148.102407494006
 20
251.4659284573587
 30
0.0
 11
148.102407494006
 21
252.9659284573587
 31
0.0
  0
LINE
  5
151
330
55
100
AcDbEntity
  8
1
  6
Continuous
 62
     2
100
AcDbLine
 10
115.102407494006
 20
217.4659284573587
 30
0.0
 11
113.370356686437
 21
218.4659284573587
 31
0.0
  0
LINE
  5
152
330
55
100
AcDbEntity
  8
1
  6
Continuous
 62
     7
100
AcDbLine
 10
115.102407494006
 20
204.9659284573588
 30
0.0
 11
115.102407494006
 21
217.4659284573587
 31
0.0
  0
LINE
  5
153
330
55
100
AcDbEntity
  8
1
  6
Continuous
 62
     7
100
AcDbLine
 10
115.102407494006
 20
204.9659284573588
 30
0.0
 11
117.102407494006
 21
204.9659284573588
 31
0.0
  0
LINE
  5
154
330
55
100
AcDbEntity
  8
1
  6
Continuous
 62
     7
100
AcDbLine
 10
117.602407494006
 20
215.2159284573587
 30
0.0
 11
117.602407494006
 21
205.4659284573588
 31
0.0
  0
LINE
  5
155
330
55
100
AcDbEntity
  8
1
  6
Continuous
 62
     2
100
AcDbLine
 10
113.370356686437
 20
218.4659284573587
 30
0.0
 11
101.102407494006
 21
218.4659284573587
 31
0.0
  0
LINE
  5
156
330
55
100
AcDbEntity
  8
1
  6
Continuous
 62
     7
100
AcDbLine
 10
117.102407494006
 20
250.9659284573587
 30
0.0
 11
115.102407494006
 21
250.9659284573587
 31
0.0
  0
LINE
  5
157
330
55
100
AcDbEntity
  8
1
  6
Continuous
 62
     7
100
AcDbLine
 10
115.102407494006
 20
238.4659284573588
 30
0.0
 11
115.102407494006
 21
250.9659284573587
 31
0.0
  0
LINE
  5
158
330
55
100
AcDbEntity
  8
1
  6
Continuous
 62
     2
100
AcDbLine
 10
113.370356686437
 20
237.4659284573588
 30
0.0
 11
115.102407494006
 21
238.4659284573588
 31
0.0
  0
LINE
  5
159
330
55
100
AcDbEntity
  8
1
  6
Continuous
 62
     2
100
AcDbLine
 10
101.102407494006
 20
237.4659284573588
 30
0.0
 11
113.370356686437
 21
237.4659284573588
 31
0.0
  0
LINE
  5
15A
330
55
100
AcDbEntity
  8
1
  6
Continuous
 62
     7
100
AcDbLine
 10
135.102407494006
 20
236.7159284573588
 30
0.0
 11
121.602407494006
 21
236.7159284573588
 31
0.0
  0
LINE
  5
15B
330
55
100
AcDbEntity
  8
1
  6
Continuous
 62
     7
100
AcDbLine
 10
117.602407494006
 20
250.4659284573587
 30
0.0
 11
117.602407494006
 21
240.7159284573588
 31
0.0
  0
LINE
  5
15C
330
55
100
AcDbEntity
  8
1
  6
Continuous
 62
     2
100
AcDbLine
 10
148.102407494006
 20
251.4659284573587
 30
0.0
 11
147.102407494006
 21
249.7338776497899
 31
0.0
  0
LINE
  5
15D
330
55
100
AcDbEntity
  8
1
  6
Continuous
 62
     2
100
AcDbLine
 10
173.102407494006
 20
249.7338776497899
 30
0.0
 11
172.102407494006
 21
251.4659284573587
 31
0.0
  0
LINE
  5
15E
330
55
100
AcDbEntity
  8
1
  6
Continuous
 62
     2
100
AcDbLine
 10
172.102407494006
 20
252.9659284573587
 30
0.0
 11
172.102407494006
 21
251.4659284573587
 31
0.0
  0
LINE
  5
15F
330
55
100
AcDbEntity
  8
1
  6
Continuous
 62
     7
100
AcDbLine
 10
147.102407494006
 20
248.7159284573587
 30
0.0
 11
147.102407494006
 21
249.7338776497899
 31
0.0
  0
LINE
  5
160
330
55
100
AcDbEntity
  8
1
  6
Continuous
 62
     7
100
AcDbLine
 10
173.102407494006
 20
237.2933075104476
 30
0.0
 11
173.102407494006
 21
252.9659284573587
 31
0.0
  0
LINE
  5
161
330
55
100
AcDbEntity
  8
1
  6
Continuous
 62
     7
100
AcDbLine
 10
153.4888266228988
 20
251.4659284573587
 30
0.0
 11
147.102407494006
 21
251.4659284573587
 31
0.0
  0
LINE
  5
162
330
55
100
AcDbEntity
  8
1
  6
Continuous
 62
     7
100
AcDbLine
 10
147.102407494006
 20
252.9659284573587
 30
0.0
 11
147.102407494006
 21
249.7338776497899
 31
0.0
  0
LINE
  5
163
330
55
100
AcDbEntity
  8
1
  6
Continuous
 62
     7
100
AcDbLine
 10
101.102407494006
 20
218.4659284573587
 30
0.0
 11
101.102407494006
 21
237.4659284573588
 31
0.0
  0
LINE
  5
164
330
55
100
AcDbEntity
  8
1
  6
Continuous
 62
     7
100
AcDbLine
 10
101.102407494006
 20
218.4659284573587
 30
0.0
 11
102.102407494006
 21
217.4659284573587
 31
0.0
  0
LINE
  5
165
330
55
100
AcDbEntity
  8
1
  6
Continuous
 62
     7
100
AcDbLine
 10
102.102407494006
 20
217.4659284573587
 30
0.0
 11
102.102407494006
 21
218.4659284573587
 31
0.0
  0
LINE
  5
166
330
55
100
AcDbEntity
  8
1
  6
Continuous
 62
     7
100
AcDbLine
 10
102.102407494006
 20
237.4659284573588
 30
0.0
 11
102.102407494006
 21
238.4659284573588
 31
0.0
  0
LINE
  5
167
330
55
100
AcDbEntity
  8
1
  6
Continuous
 62
     7
100
AcDbLine
 10
113.370356686437
 20
238.4659284573588
 30
0.0
 11
113.370356686437
 21
237.4659284573588
 31
0.0
  0
LINE
  5
168
330
55
100
AcDbEntity
  8
1
  6
Continuous
 62
     7
100
AcDbLine
 10
102.102407494006
 20
238.4659284573588
 30
0.0
 11
101.102407494006
 21
237.4659284573588
 31
0.0
  0
LINE
  5
169
330
55
100
AcDbEntity
  8
1
  6
Continuous
 62
     7
100
AcDbLine
 10
102.102407494006
 20
238.4659284573588
 30
0.0
 11
115.102407494006
 21
238.4659284573588
 31
0.0
  0
LINE
  5
16A
330
55
100
AcDbEntity
  8
1
  6
Continuous
 62
     7
100
AcDbLine
 10
115.102407494006
 20
217.4659284573587
 30
0.0
 11
102.102407494006
 21
217.4659284573587
 31
0.0
  0
LINE
  5
16B
330
55
100
AcDbEntity
  8
1
  6
Continuous
 62
     7
100
AcDbLine
 10
113.370356686437
 20
218.4659284573587
 30
0.0
 11
113.370356686437
 21
217.4659284573587
 31
0.0
  0
LINE
  5
16C
330
55
100
AcDbEntity
  8
1
  6
Continuous
 62
     7
100
AcDbLine
 10
155.7274074940066
 20
251.4659284573587
 30
0.0
 11
153.4888266228988
 21
251.4659284573587
 31
0.0
  0
LINE
  5
16D
330
55
100
AcDbEntity
  8
1
  6
Continuous
 62
     7
100
AcDbLine
 10
133.7903624371787
 20
219.2159284573587
 30
0.0
 11
121.602407494006
 21
219.2159284573587
 31
0.0
  0
LINE
  5
16E
330
55
100
AcDbEntity
  8
1
  6
Continuous
 62
     7
100
AcDbLine
 10
173.102407494006
 20
251.4659284573587
 30
0.0
 11
164.4774074940066
 21
251.4659284573587
 31
0.0
  0
LINE
  5
16F
330
55
100
AcDbEntity
  8
1
  6
Continuous
 62
     7
100
AcDbLine
 10
133.7903624371787
 20
219.2159284573587
 30
0.0
 11
141.7721047141821
 21
218.9659284573583
 31
0.0
  0
LINE
  5
170
330
55
100
AcDbEntity
  8
1
  6
Continuous
 62
     7
100
AcDbLine
 10
173.9089591831935
 20
230.0522794543586
 30
0.0
 11
173.4582203226392
 21
232.6865551892375
 31
0.0
  0
ARC
  5
171
330
55
100
AcDbEntity
  8
1
  6
Continuous
 62
     7
100
AcDbCircle
 10
463.2427295733145
 20
227.9659284573585
 30
0.0
 40
23.00000000000003
100
AcDbArc
 50
124.4173887104415
 51
146.4531849841858
  0
ARC
  5
172
330
55
100
AcDbEntity
  8
1
  6
Continuous
 62
     7
100
AcDbCircle
 10
462.2427295733145
 20
227.9659284573585
 30
0.0
 40
14.0
100
AcDbArc
 50
270.0
 51
0.0
  0
ARC
  5
173
330
55
100
AcDbEntity
  8
1
  6
Continuous
 62
     7
100
AcDbCircle
 10
463.2427295733145
 20
227.9659284573585
 30
0.0
 40
23.00000000000014
100
AcDbArc
 50
213.5468150158143
 51
55.5826112895586
  0
ARC
  5
174
330
55
100
AcDbEntity
  8
1
  6
Continuous
 62
     7
100
AcDbCircle
 10
203.102407494006
 20
237.2933075104476
 30
0.0
 40
30.0
100
AcDbArc
 50
180.0
 51
188.8331983696777
  0
ARC
  5
175
330
55
100
AcDbEntity
  8
1
  6
Continuous
 62
     7
100
AcDbCircle
 10
135.102407494006
 20
248.7159284573587
 30
0.0
 40
11.99999999999989
100
AcDbArc
 50
270.0
 51
0.0
  0
ARC
  5
176
330
55
100
AcDbEntity
  8
1
  6
Continuous
 62
     7
100
AcDbCircle
 10
444.2427295733145
 20
246.7032414670613
 30
0.0
 40
6.000000000000041
100
AcDbArc
 50
274.0605073486478
 51
0.0
  0
ARC
  5
177
330
55
100
AcDbEntity
  8
1
  6
Continuous
 62
     7
100
AcDbCircle
 10
442.492729573314
 20
587.9358165980227
 30
0.0
 40
11.99999999999996
100
AcDbArc
 50
274.0605073486473
 51
0.0
  0
ARC
  5
178
330
55
100
AcDbEntity
  8
1
  6
Continuous
 62
     7
100
AcDbCircle
 10
501.992729573314
 20
582.1739397844569
 30
0.0
 40
30.0
100
AcDbArc
 50
180.0
 51
195.1026369191858
  0
ARC
  5
179
330
55
100
AcDbEntity
  8
1
  6
Continuous
 62
     7
100
AcDbCircle
 10
485.742729573314
 20
606.3076338397295
 30
0.0
 40
0.5
100
AcDbArc
 50
270.0
 51
0.0
  0
ARC
  5
17A
330
55
100
AcDbEntity
  8
1
  6
Continuous
 62
     7
100
AcDbCircle
 10
440.742729573314
 20
606.3076338397295
 30
0.0
 40
0.5
100
AcDbArc
 50
180.0
 51
270.0
  0
ARC
  5
17B
330
55
100
AcDbEntity
  8
1
  6
Continuous
 62
     7
100
AcDbCircle
 10
450.492729573314
 20
601.8076338397295
 30
0.0
 40
4.0
100
AcDbArc
 50
0.0
 51
90.0
  0
ARC
  5
17C
330
55
100
AcDbEntity
  8
1
  6
Continuous
 62
     7
100
AcDbCircle
 10
475.992729573314
 20
601.8076338397295
 30
0.0
 40
4.0
100
AcDbArc
 50
90.0
 51
180.0
  0
ARC
  5
17D
330
55
100
AcDbEntity
  8
1
  6
Continuous
 62
     7
100
AcDbCircle
 10
121.602407494006
 20
215.2159284573587
 30
0.0
 40
4.0
100
AcDbArc
 50
90.0
 51
180.0
  0
ARC
  5
17E
330
55
100
AcDbEntity
  8
1
  6
Continuous
 62
     7
100
AcDbCircle
 10
117.102407494006
 20
205.4659284573588
 30
0.0
 40
0.5
100
AcDbArc
 50
270.0
 51
0.0
  0
ARC
  5
17F
330
55
100
AcDbEntity
  8
1
  6
Continuous
 62
     7
100
AcDbCircle
 10
121.602407494006
 20
240.7159284573588
 30
0.0
 40
4.0
100
AcDbArc
 50
180.0
 51
270.0
  0
ARC
  5
180
330
55
100
AcDbEntity
  8
1
  6
Continuous
 62
     7
100
AcDbCircle
 10
117.102407494006
 20
250.4659284573587
 30
0.0
 40
0.5
100
AcDbArc
 50
0.0
 51
90.0
  0
ARC
  5
181
330
55
100
AcDbEntity
  8
1
  6
Continuous
 62
     7
100
AcDbCircle
 10
141.7721047141821
 20
188.9659284573583
 30
0.0
 40
30.00000000000016
100
AcDbArc
 50
71.77068500570023
 51
90.0
  0
ENDBLK
  5
57
330
55
100
AcDbEntity
  8
0
100
AcDbBlockEnd
  0
BLOCK
  5
59
330
58
100
AcDbEntity
  8
0
100
AcDbBlockBegin
  2
開示A4
 70
     0
 10
0.0
 20
0.0
 30
0.0
  3
開示A4
  1

  0
POINT
  5
182
330
58
100
AcDbEntity
  8
1
 62
     4
100
AcDbPoint
 10
93.75
 20
17.0
 30
0.0
  0
POINT
  5
183
330
58
100
AcDbEntity
  8
1
 62
     4
100
AcDbPoint
 10
85.25
 20
17.0
 30
0.0
  0
POINT
  5
184
330
58
100
AcDbEntity
  8
1
 62
     4
100
AcDbPoint
 10
106.5
 20
19.00000000000001
 30
0.0
  0
POINT
  5
185
330
58
100
AcDbEntity
  8
1
 62
     4
100
AcDbPoint
 10
106.5
 20
12.5
 30
0.0
  0
POINT
  5
186
330
58
100
AcDbEntity
  8
1
 62
     4
100
AcDbPoint
 10
112.25
 20
12.5
 30
0.0
  0
POINT
  5
187
330
58
100
AcDbEntity
  8
1
 62
     4
100
AcDbPoint
 10
100.75
 20
12.5
 30
0.0
  0
POINT
  5
188
330
58
100
AcDbEntity
  8
1
 62
     4
100
AcDbPoint
 10
123.5
 20
19.00000000000001
 30
0.0
  0
POINT
  5
189
330
58
100
AcDbEntity
  8
1
 62
     4
100
AcDbPoint
 10
123.5
 20
12.5
 30
0.0
  0
POINT
  5
18A
330
58
100
AcDbEntity
  8
1
 62
     4
100
AcDbPoint
 10
129.25
 20
12.5
 30
0.0
  0
POINT
  5
18B
330
58
100
AcDbEntity
  8
1
 62
     4
100
AcDbPoint
 10
117.75
 20
12.5
 30
0.0
  0
POINT
  5
18C
330
58
100
AcDbEntity
  8
1
 62
     4
100
AcDbPoint
 10
140.5
 20
19.00000000000001
 30
0.0
  0
POINT
  5
18D
330
58
100
AcDbEntity
  8
1
 62
     4
100
AcDbPoint
 10
140.5
 20
12.5
 30
0.0
  0
POINT
  5
18E
330
58
100
AcDbEntity
  8
1
 62
     4
100
AcDbPoint
 10
146.25
 20
12.5
 30
0.0
  0
POINT
  5
18F
330
58
100
AcDbEntity
  8
1
 62
     4
100
AcDbPoint
 10
134.75
 20
12.5
 30
0.0
  0
POINT
  5
190
330
58
100
AcDbEntity
  8
1
 62
     4
100
AcDbPoint
 10
151.75
 20
12.5
 30
0.0
  0
POINT
  5
191
330
58
100
AcDbEntity
  8
1
 62
     4
100
AcDbPoint
 10
163.25
 20
12.5
 30
0.0
  0
POINT
  5
192
330
58
100
AcDbEntity
  8
1
 62
     4
100
AcDbPoint
 10
157.5
 20
12.5
 30
0.0
  0
POINT
  5
193
330
58
100
AcDbEntity
  8
1
 62
     4
100
AcDbPoint
 10
57.0
 20
14.25
 30
0.0
  0
POINT
  5
194
330
58
100
AcDbEntity
  8
1
 62
     4
100
AcDbPoint
 10
57.0
 20
22.75000000000001
 30
0.0
  0
POINT
  5
195
330
58
100
AcDbEntity
  8
1
 62
     4
100
AcDbPoint
 10
47.5
 20
282.0000000000003
 30
0.0
  0
POINT
  5
196
330
58
100
AcDbEntity
  8
1
 62
     4
100
AcDbPoint
 10
157.5
 20
19.00000000000001
 30
0.0
  0
POINT
  5
197
330
58
100
AcDbEntity
  8
1
 62
     4
100
AcDbPoint
 10
57.0
 20
16.25
 30
0.0
  0
POINT
  5
198
330
58
100
AcDbEntity
  8
1
 62
     4
100
AcDbPoint
 10
57.0
 20
24.75000000000001
 30
0.0
  0
POINT
  5
199
330
58
100
AcDbEntity
  8
1
 62
     4
100
AcDbPoint
 10
57.0
 20
20.75000000000001
 30
0.0
  0
POINT
  5
19A
330
58
100
AcDbEntity
  8
1
 62
     4
100
AcDbPoint
 10
57.0
 20
12.25
 30
0.0
  0
POINT
  5
19B
330
58
100
AcDbEntity
  8
1
 62
     4
100
AcDbPoint
 10
34.0
 20
34.00000000000001
 30
0.0
  0
LINE
  5
19C
330
58
100
AcDbEntity
  8
1
  6
Continuous
 62
     7
100
AcDbLine
 10
105.0
 20
10.0
 30
0.0
 11
200.0
 21
10.0
 31
0.0
  0
LINE
  5
19D
330
58
100
AcDbEntity
  8
1
  6
Continuous
 62
     2
100
AcDbLine
 10
105.0
 20
10.0
 30
0.0
 11
105.0
 21
5.0
 31
0.0
  0
LINE
  5
19E
330
58
100
AcDbEntity
  8
1
  6
Continuous
 62
     7
100
AcDbLine
 10
200.0
 20
148.5
 30
0.0
 11
200.0
 21
287.0000000000003
 31
0.0
  0
LINE
  5
19F
330
58
100
AcDbEntity
  8
1
  6
Continuous
 62
     2
100
AcDbLine
 10
200.0
 20
148.5
 30
0.0
 11
205.0
 21
148.5
 31
0.0
  0
LINE
  5
1A0
330
58
100
AcDbEntity
  8
1
  6
Continuous
 62
     7
100
AcDbLine
 10
25.0
 20
148.5
 30
0.0
 11
25.0
 21
287.0000000000003
 31
0.0
  0
LINE
  5
1A1
330
58
100
AcDbEntity
  8
1
  6
Continuous
 62
     2
100
AcDbLine
 10
25.0
 20
148.5
 30
0.0
 11
20.0
 21
148.5
 31
0.0
  0
LINE
  5
1A2
330
58
100
AcDbEntity
  8
1
  6
Continuous
 62
     7
100
AcDbLine
 10
105.0
 20
287.0000000000003
 30
0.0
 11
25.0
 21
287.0000000000003
 31
0.0
  0
LINE
  5
1A3
330
58
100
AcDbEntity
  8
1
  6
Continuous
 62
     2
100
AcDbLine
 10
105.0
 20
287.0000000000003
 30
0.0
 11
105.0
 21
292.0000000000003
 31
0.0
  0
LINE
  5
1A4
330
58
100
AcDbEntity
  8
1
  6
Continuous
 62
     2
100
AcDbLine
 10
166.0
 20
20.00000000000001
 30
0.0
 11
200.0
 21
20.00000000000001
 31
0.0
  0
LINE
  5
1A5
330
58
100
AcDbEntity
  8
1
  6
Continuous
 62
     2
100
AcDbLine
 10
98.0
 20
27.00000000000001
 30
0.0
 11
98.0
 21
9.99999999999999
 31
0.0
  0
LINE
  5
1A6
330
58
100
AcDbEntity
  8
1
  6
Continuous
 62
     2
100
AcDbLine
 10
115.0
 20
27.00000000000001
 30
0.0
 11
115.0
 21
9.99999999999999
 31
0.0
  0
LINE
  5
1A7
330
58
100
AcDbEntity
  8
1
  6
Continuous
 62
     2
100
AcDbLine
 10
149.0
 20
27.00000000000001
 30
0.0
 11
149.0
 21
10.0
 31
0.0
  0
LINE
  5
1A8
330
58
100
AcDbEntity
  8
1
  6
Continuous
 62
     2
100
AcDbLine
 10
132.0
 20
27.00000000000001
 30
0.0
 11
132.0
 21
9.99999999999999
 31
0.0
  0
LINE
  5
1A9
330
58
100
AcDbEntity
  8
1
  6
Continuous
 62
     2
100
AcDbLine
 10
166.0
 20
27.00000000000001
 30
0.0
 11
166.0
 21
10.0
 31
0.0
  0
LINE
  5
1AA
330
58
100
AcDbEntity
  8
1
  6
Continuous
 62
     2
100
AcDbLine
 10
55.0
 20
277.0000000000003
 30
0.0
 11
25.0
 21
277.0000000000003
 31
0.0
  0
LINE
  5
1AB
330
58
100
AcDbEntity
  8
1
  6
Continuous
 62
     7
100
AcDbLine
 10
25.0
 20
10.0
 30
0.0
 11
25.0
 21
148.5
 31
0.0
  0
LINE
  5
1AC
330
58
100
AcDbEntity
  8
1
  6
Continuous
 62
     2
100
AcDbLine
 10
40.0
 20
287.0000000000003
 30
0.0
 11
40.0
 21
277.0000000000003
 31
0.0
  0
LINE
  5
1AD
330
58
100
AcDbEntity
  8
1
  6
Continuous
 62
     2
100
AcDbLine
 10
55.0
 20
287.0000000000003
 30
0.0
 11
55.0
 21
277.0000000000003
 31
0.0
  0
LINE
  5
1AE
330
58
100
AcDbEntity
  8
1
  6
Continuous
 62
     2
100
AcDbLine
 10
33.0
 20
41.00000000000001
 30
0.0
 11
33.0
 21
27.0
 31
0.0
  0
LINE
  5
1AF
330
58
100
AcDbEntity
  8
1
  6
Continuous
 62
     7
100
AcDbLine
 10
200.0
 20
27.00000000000001
 30
0.0
 11
25.0
 21
27.00000000000001
 31
0.0
  0
LINE
  5
1B0
330
58
100
AcDbEntity
  8
1
  6
Continuous
 62
     7
100
AcDbLine
 10
25.0
 20
41.0
 30
0.0
 11
200.0
 21
41.0
 31
0.0
  0
LINE
  5
1B1
330
58
100
AcDbEntity
  8
1
  6
PHANTOM
 62
     4
100
AcDbLine
 10
0.0
 20
0.0
 30
0.0
 11
210.0
 21
0.0
 31
0.0
  0
LINE
  5
1B2
330
58
100
AcDbEntity
  8
1
  6
PHANTOM
 62
     4
100
AcDbLine
 10
210.0
 20
0.0
 30
0.0
 11
210.0
 21
297.0
 31
0.0
  0
LINE
  5
1B3
330
58
100
AcDbEntity
  8
1
  6
PHANTOM
 62
     4
100
AcDbLine
 10
210.0
 20
297.0
 30
0.0
 11
0.0
 21
297.0
 31
0.0
  0
LINE
  5
1B4
330
58
100
AcDbEntity
  8
1
  6
PHANTOM
 62
     4
100
AcDbLine
 10
0.0
 20
297.0
 30
0.0
 11
0.0
 21
0.0
 31
0.0
  0
LINE
  5
1B5
330
58
100
AcDbEntity
  8
1
  6
Continuous
 62
     7
100
AcDbLine
 10
25.0
 20
10.0
 30
0.0
 11
105.0
 21
10.0
 31
0.0
  0
LINE
  5
1B6
330
58
100
AcDbEntity
  8
1
  6
Continuous
 62
     7
100
AcDbLine
 10
200.0
 20
10.0
 30
0.0
 11
200.0
 21
148.5
 31
0.0
  0
LINE
  5
1B7
330
58
100
AcDbEntity
  8
1
  6
Continuous
 62
     7
100
AcDbLine
 10
200.0
 20
287.0000000000003
 30
0.0
 11
105.0
 21
287.0000000000003
 31
0.0
  0
LINE
  5
1B8
330
58
100
AcDbEntity
  8
1
  6
Continuous
 62
     2
100
AcDbLine
 10
25.0
 20
18.50000000000001
 30
0.0
 11
81.0
 21
18.50000000000001
 31
0.0
  0
LINE
  5
1B9
330
58
100
AcDbEntity
  8
1
  6
Continuous
 62
     2
100
AcDbLine
 10
33.0
 20
27.0
 30
0.0
 11
33.0
 21
10.0
 31
0.0
  0
LINE
  5
1BA
330
58
100
AcDbEntity
  8
1
  6
Continuous
 62
     7
100
AcDbLine
 10
191.0
 20
24.70000000000001
 30
0.0
 11
191.0
 21
22.30000000000001
 31
0.0
  0
LINE
  5
1BB
330
58
100
AcDbEntity
  8
1
  6
Continuous
 62
     7
100
AcDbLine
 10
191.0
 20
24.70000000000001
 30
0.0
 11
196.0
 21
25.50000000000001
 31
0.0
  0
LINE
  5
1BC
330
58
100
AcDbEntity
  8
1
  6
Continuous
 62
     7
100
AcDbLine
 10
196.0
 20
25.50000000000001
 30
0.0
 11
196.0
 21
21.50000000000001
 31
0.0
  0
LINE
  5
1BD
330
58
100
AcDbEntity
  8
1
  6
Continuous
 62
     7
100
AcDbLine
 10
196.0
 20
21.50000000000001
 30
0.0
 11
191.0
 21
22.30000000000001
 31
0.0
  0
LINE
  5
1BE
330
58
100
AcDbEntity
  8
1
  6
DOT_CENTER
 62
     2
100
AcDbLine
 10
184.0
 20
23.50000000000001
 30
0.0
 11
197.0
 21
23.50000000000001
 31
0.0
  0
LINE
  5
1BF
330
58
100
AcDbEntity
  8
1
  6
DOT_CENTER
 62
     2
100
AcDbLine
 10
187.0
 20
26.50000000000001
 30
0.0
 11
187.0
 21
20.50000000000001
 31
0.0
  0
LINE
  5
1C0
330
58
100
AcDbEntity
  8
1
  6
Continuous
 62
     2
100
AcDbLine
 10
81.0
 20
27.00000000000001
 30
0.0
 11
81.0
 21
10.0
 31
0.0
  0
CIRCLE
  5
1C1
330
58
100
AcDbEntity
  8
1
  6
Continuous
 62
     7
100
AcDbCircle
 10
103.5
 20
12.5
 30
0.0
 40
0.2999999999999972
  0
CIRCLE
  5
1C2
330
58
100
AcDbEntity
  8
1
  6
Continuous
 62
     7
100
AcDbCircle
 10
109.5
 20
12.5
 30
0.0
 40
0.2999999999999972
  0
CIRCLE
  5
1C3
330
58
100
AcDbEntity
  8
1
  6
Continuous
 62
     7
100
AcDbCircle
 10
120.5
 20
12.5
 30
0.0
 40
0.2999999999999972
  0
CIRCLE
  5
1C4
330
58
100
AcDbEntity
  8
1
  6
Continuous
 62
     7
100
AcDbCircle
 10
126.5
 20
12.5
 30
0.0
 40
0.2999999999999972
  0
CIRCLE
  5
1C5
330
58
100
AcDbEntity
  8
1
  6
Continuous
 62
     7
100
AcDbCircle
 10
137.5
 20
12.5
 30
0.0
 40
0.3000000000000114
  0
CIRCLE
  5
1C6
330
58
100
AcDbEntity
  8
1
  6
Continuous
 62
     7
100
AcDbCircle
 10
143.5
 20
12.5
 30
0.0
 40
0.3000000000000114
  0
CIRCLE
  5
1C7
330
58
100
AcDbEntity
  8
1
  6
Continuous
 62
     7
100
AcDbCircle
 10
160.5
 20
12.5
 30
0.0
 40
0.3000000000000114
  0
CIRCLE
  5
1C8
330
58
100
AcDbEntity
  8
1
  6
Continuous
 62
     7
100
AcDbCircle
 10
154.5
 20
12.5
 30
0.0
 40
0.3000000000000114
  0
CIRCLE
  5
1C9
330
58
100
AcDbEntity
  8
1
  6
Continuous
 62
     7
100
AcDbCircle
 10
187.0
 20
23.50000000000001
 30
0.0
 40
1.200000000000102
  0
CIRCLE
  5
1CA
330
58
100
AcDbEntity
  8
1
  6
Continuous
 62
     7
100
AcDbCircle
 10
187.0
 20
23.50000000000001
 30
0.0
 40
2.0
  0
CIRCLE
  5
1CB
330
58
100
AcDbEntity
  8
1
  6
DOT_CENTER
 62
     7
100
AcDbCircle
 10
89.5
 20
16.0
 30
0.0
 40
0.1000000000000227
  0
CIRCLE
  5
1CC
330
58
100
AcDbEntity
  8
1
  6
DOT_CENTER
 62
     7
100
AcDbCircle
 10
89.5
 20
18.0
 30
0.0
 40
0.1000000000000227
  0
MTEXT
  5
1CE
330
58
100
AcDbEntity
  8
1
 62
     7
100
AcDbMText
 10
188.5
 20
15.0
 30
0.0
 40
3.0
 41
0.0
 71
     5
 72
     1
  1
三栄水栓製作所
  7
CONVERTER_11
 73
     1
 44
1.0
  0
MTEXT
  5
1CF
330
58
100
AcDbEntity
  8
1
 62
     7
100
AcDbMText
 10
171.5
 20
15.0
 30
0.0
 40
2.5
 41
0.0
 71
     5
 72
     1
  1
株式会社
  7
CONVERTER_11
 73
     1
 44
1.0
  0
MTEXT
  5
1D0
330
58
100
AcDbEntity
  8
1
 62
     2
100
AcDbMText
 10
32.5
 20
282.0000000000003
 30
0.0
 40
5.0
 41
0.0
 71
     5
 72
     1
  1
図番
  7
CONVERTER_11
 73
     1
 44
0.45454545454545
  0
MTEXT
  5
1D1
330
58
100
AcDbEntity
  8
1
 62
     2
100
AcDbMText
 10
29.0
 20
34.00000000000001
 30
0.0
 40
3.5
 41
0.0
 71
     5
 72
     1
  1
備考
  7
CONVERTER_11
 73
     1
 44
0.45454545454545
  0
MTEXT
  5
1D2
330
58
100
AcDbEntity
  8
1
 62
     2
100
AcDbMText
 10
29.0
 20
22.75
 30
0.0
 40
3.5
 41
0.0
 71
     5
 72
     1
  1
品名
  7
CONVERTER_11
 73
     1
 44
0.72727272727273
  0
MTEXT
  5
1D3
330
58
100
AcDbEntity
  8
1
 62
     2
100
AcDbMText
 10
29.0
 20
14.25
 30
0.0
 40
3.5
 41
0.0
 71
     5
 72
     1
  1
品番
  7
CONVERTER_11
 73
     1
 44
0.72727272727273
  0
MTEXT
  5
1D4
330
58
100
AcDbEntity
  8
1
 62
     2
100
AcDbMText
 10
101.5
 20
25.00000000000001
 30
0.0
 40
3.0
 41
0.0
 71
     5
 72
     1
  1
承認
  7
CONVERTER_11
 73
     1
 44
0.59090909090909
  0
MTEXT
  5
1D5
330
58
100
AcDbEntity
  8
1
 62
     2
100
AcDbMText
 10
175.0
 20
23.50000000000001
 30
0.0
 40
3.5
 41
0.0
 71
     5
 72
     1
  1
第三角法
  7
CONVERTER_11
 73
     1
 44
0.54545454545455
  0
MTEXT
  5
1D6
330
58
100
AcDbEntity
  8
1
 62
     2
100
AcDbMText
 10
118.5
 20
25.00000000000001
 30
0.0
 40
3.0
 41
0.0
 71
     5
 72
     1
  1
検図
  7
CONVERTER_11
 73
     1
 44
0.59090909090909
  0
MTEXT
  5
1D7
330
58
100
AcDbEntity
  8
1
 62
     2
100
AcDbMText
 10
152.5
 20
25.00000000000001
 30
0.0
 40
3.0
 41
0.0
 71
     5
 72
     1
  1
設計
  7
CONVERTER_11
 73
     1
 44
0.59090909090909
  0
MTEXT
  5
1D8
330
58
100
AcDbEntity
  8
1
 62
     2
100
AcDbMText
 10
135.5
 20
25.00000000000001
 30
0.0
 40
3.0
 41
0.0
 71
     5
 72
     1
  1
製図
  7
CONVERTER_11
 73
     1
 44
0.59090909090909
  0
MTEXT
  5
1D9
330
58
100
AcDbEntity
  8
1
 62
     2
100
AcDbMText
 10
89.5
 20
24.00000000000001
 30
0.0
 40
3.5
 41
0.0
 71
     5
 72
     1
  1
尺度
  7
CONVERTER_11
 73
     1
 44
0.54545454545455
  0
MTEXT
  5
1DA
330
58
100
AcDbEntity
  8
1
 62
   250
100
AcDbMText
 10
25.0
 20
5.0
 30
0.0
 40
3.5
 41
0.0
 71
     4
 72
     1
  1
備考欄の文字列 原点位置=4
  7
CONVERTER_11
 73
     1
 44
0.54545454545455
  0
ENDBLK
  5
5A
330
58
100
AcDbEntity
  8
0
100
AcDbBlockEnd
  0
BLOCK
  5
5C
330
5B
100
AcDbEntity
  8
0
100
AcDbBlockBegin
  2
32-1-16
 70
     0
 10
388.4554514668059
 20
486.0008396999621
 30
0.0
  3
32-1-16
  1

  0
LINE
  5
1DB
330
5B
100
AcDbEntity
  8
1
  6
Continuous
 62
     7
100
AcDbLine
 10
472.041051552384
 20
550.5467745288288
 30
0.0
 11
478.6931189002089
 21
562.0684931506316
 31
0.0
  0
LINE
  5
1DC
330
5B
100
AcDbEntity
  8
1
  6
Continuous
 62
     7
100
AcDbLine
 10
478.6931189002089
 20
564.5467745288288
 30
0.0
 11
472.041051552384
 21
576.0684931506316
 31
0.0
  0
LINE
  5
1DD
330
5B
100
AcDbEntity
  8
1
  6
Continuous
 62
     7
100
AcDbLine
 10
473.0106787657458
 20
262.9659284573585
 30
0.0
 11
471.0883122229008
 21
262.9659284573585
 31
0.0
  0
LINE
  5
1DE
330
5B
100
AcDbEntity
  8
1
  6
Continuous
 62
     7
100
AcDbLine
 10
449.9427295733145
 20
252.9659284573585
 30
0.0
 11
463.2427295733145
 21
252.9659284573585
 31
0.0
  0
LINE
  5
1DF
330
5B
100
AcDbEntity
  8
1
  6
Continuous
 62
     7
100
AcDbLine
 10
450.0557295733145
 20
252.9659284573585
 30
0.0
 11
449.9427295733145
 21
252.9659284573585
 31
0.0
  0
LINE
  5
1E0
330
5B
100
AcDbEntity
  8
1
  6
Continuous
 62
     7
100
AcDbLine
 10
451.684708511584
 20
261.9659284573585
 30
0.0
 11
451.7427295733145
 21
261.9659284573585
 31
0.0
  0
LINE
  5
1E1
330
5B
100
AcDbEntity
  8
1
  6
Continuous
 62
     7
100
AcDbLine
 10
455.4479816187932
 20
262.9659284573585
 30
0.0
 11
453.4747803808834
 21
262.9659284573585
 31
0.0
  0
LINE
  5
1E2
330
5B
100
AcDbEntity
  8
1
  6
Continuous
 62
     7
100
AcDbLine
 10
447.79234024642
 20
562.0684931506316
 30
0.0
 11
454.4444075942449
 21
550.5467745288288
 31
0.0
  0
LINE
  5
1E3
330
5B
100
AcDbEntity
  8
1
  6
Continuous
 62
     7
100
AcDbLine
 10
454.4444075942449
 20
576.0684931506316
 30
0.0
 11
447.79234024642
 21
564.5467745288288
 31
0.0
  0
LINE
  5
1E4
330
5B
100
AcDbEntity
  8
1
  6
Continuous
 62
     7
100
AcDbLine
 10
469.8947969211396
 20
577.3076338397302
 30
0.0
 11
456.5906622254895
 21
577.3076338397302
 31
0.0
  0
LINE
  5
1E5
330
5B
100
AcDbEntity
  8
1
  6
Continuous
 62
     7
100
AcDbLine
 10
463.2427295733145
 20
252.9659284573585
 30
0.0
 11
476.5427295733146
 21
252.9659284573585
 31
0.0
  0
LINE
  5
1E6
330
5B
100
AcDbEntity
  8
1
  6
Continuous
 62
     7
100
AcDbLine
 10
476.5427295733146
 20
252.9659284573585
 30
0.0
 11
476.4297295733145
 21
252.9659284573585
 31
0.0
  0
LINE
  5
1E7
330
5B
100
AcDbEntity
  8
1
  6
Continuous
 62
     7
100
AcDbLine
 10
474.7427295733145
 20
261.9659284573585
 30
0.0
 11
474.8007506350451
 21
261.9659284573585
 31
0.0
  0
LINE
  5
1E8
330
5B
100
AcDbEntity
  8
1
  6
Continuous
 62
     7
100
AcDbLine
 10
146.102407494006
 20
253.5376772785279
 30
0.0
 11
146.102407494006
 21
260.6791057070707
 31
0.0
  0
LINE
  5
1E9
330
5B
100
AcDbEntity
  8
1
  6
Continuous
 62
     7
100
AcDbLine
 10
174.102407494006
 20
260.6791057070708
 30
0.0
 11
174.102407494006
 21
253.5376772785279
 31
0.0
  0
LINE
  5
1EA
330
5B
100
AcDbEntity
  8
1
  6
Continuous
 62
     7
100
AcDbLine
 10
156.0724074940065
 20
262.9659284573577
 30
0.0
 11
150.3344583015748
 21
262.9659284573577
 31
0.0
  0
LINE
  5
1EB
330
5B
100
AcDbEntity
  8
1
  6
Continuous
 62
     7
100
AcDbLine
 10
153.8978293371015
 20
252.9659284573577
 30
0.0
 11
146.802407494006
 21
252.9659284573577
 31
0.0
  0
LINE
  5
1EC
330
5B
100
AcDbEntity
  8
1
  6
Continuous
 62
     7
100
AcDbLine
 10
171.602407494006
 20
261.9659284573577
 30
0.0
 11
171.6604285557366
 21
261.9659284573577
 31
0.0
  0
LINE
  5
1ED
330
5B
100
AcDbEntity
  8
1
  6
Continuous
 62
     7
100
AcDbLine
 10
173.402407494006
 20
252.9659284573577
 30
0.0
 11
173.289407494006
 21
252.9659284573577
 31
0.0
  0
LINE
  5
1EE
330
5B
100
AcDbEntity
  8
1
  6
Continuous
 62
     7
100
AcDbLine
 10
148.5443864322754
 20
261.9659284573577
 30
0.0
 11
148.602407494006
 21
261.9659284573577
 31
0.0
  0
LINE
  5
1EF
330
5B
100
AcDbEntity
  8
1
  6
Continuous
 62
     7
100
AcDbLine
 10
155.7724074940065
 20
252.9659284573577
 30
0.0
 11
153.8978293371015
 21
252.9659284573577
 31
0.0
  0
LINE
  5
1F0
330
5B
100
AcDbEntity
  8
1
  6
Continuous
 62
     7
100
AcDbLine
 10
169.8703566864371
 20
262.9659284573577
 30
0.0
 11
164.1324074940066
 21
262.9659284573577
 31
0.0
  0
LINE
  5
1F1
330
5B
100
AcDbEntity
  8
1
  6
Continuous
 62
     7
100
AcDbLine
 10
173.402407494006
 20
252.9659284573577
 30
0.0
 11
164.4324074940065
 21
252.9659284573577
 31
0.0
  0
ARC
  5
1F2
330
5B
100
AcDbEntity
  8
1
  6
Continuous
 62
     7
100
AcDbCircle
 10
463.2427295733146
 20
563.3076338397302
 30
0.0
 40
10.76794919243094
100
AcDbArc
 50
317.9829399353524
 51
90.00000000000063
  0
ARC
  5
1F3
330
5B
100
AcDbEntity
  8
1
  6
Continuous
 62
     7
100
AcDbCircle
 10
463.2427295733146
 20
563.3076338397302
 30
0.0
 40
10.76794919243116
100
AcDbArc
 50
90.00000000000063
 51
222.0170600646469
  0
ARC
  5
1F4
330
5B
100
AcDbEntity
  8
1
  6
Continuous
 62
     7
100
AcDbCircle
 10
463.2427295733146
 20
563.3076338397302
 30
0.0
 40
15.49999999999966
100
AcDbArc
 50
355.4146209151608
 51
0.0
  0
ARC
  5
1F5
330
5B
100
AcDbEntity
  8
1
  6
Continuous
 62
     7
100
AcDbCircle
 10
463.2427295733146
 20
563.3076338397302
 30
0.0
 40
15.49999999999994
100
AcDbArc
 50
301.072950972153
 51
304.5853790848384
  0
ARC
  5
1F6
330
5B
100
AcDbEntity
  8
1
  6
Continuous
 62
     7
100
AcDbCircle
 10
463.2427295733146
 20
563.3076338397302
 30
0.0
 40
15.49999999999972
100
AcDbArc
 50
0.0
 51
4.58537908483925
  0
ARC
  5
1F7
330
5B
100
AcDbEntity
  8
1
  6
Continuous
 62
     7
100
AcDbCircle
 10
463.2427295733146
 20
563.3076338397302
 30
0.0
 40
15.49999999999984
100
AcDbArc
 50
55.41462091516163
 51
64.5853790848392
  0
ARC
  5
1F8
330
5B
100
AcDbEntity
  8
1
  6
Continuous
 62
     7
100
AcDbCircle
 10
452.7427295733145
 20
257.1083914928001
 30
0.0
 40
4.999999999999985
100
AcDbArc
 50
105.3375576695541
 51
235.9442022574324
  0
ARC
  5
1F9
330
5B
100
AcDbEntity
  8
1
  6
Continuous
 62
     7
100
AcDbCircle
 10
463.2427295733146
 20
563.3076338397302
 30
0.0
 40
15.5
100
AcDbArc
 50
180.0
 51
184.5853790848391
  0
ARC
  5
1FA
330
5B
100
AcDbEntity
  8
1
  6
Continuous
 62
     7
100
AcDbCircle
 10
463.2427295733146
 20
563.3076338397302
 30
0.0
 40
15.5
100
AcDbArc
 50
235.4146209151608
 51
238.9270490278463
  0
ARC
  5
1FB
330
5B
100
AcDbEntity
  8
1
  6
Continuous
 62
     7
100
AcDbCircle
 10
463.2427295733146
 20
563.3076338397302
 30
0.0
 40
15.49999999999994
100
AcDbArc
 50
175.4146209151608
 51
180.0
  0
ARC
  5
1FC
330
5B
100
AcDbEntity
  8
1
  6
Continuous
 62
     7
100
AcDbCircle
 10
463.2427295733146
 20
563.3076338397302
 30
0.0
 40
15.50000000000002
100
AcDbArc
 50
115.4146209151612
 51
124.5853790848393
  0
ARC
  5
1FD
330
5B
100
AcDbEntity
  8
1
  6
Continuous
 62
     7
100
AcDbCircle
 10
473.7427295733145
 20
257.1083914928001
 30
0.0
 40
5.000000000000057
100
AcDbArc
 50
304.0557977425692
 51
74.66244233044596
  0
ARC
  5
1FE
330
5B
100
AcDbEntity
  8
1
  6
Continuous
 62
     7
100
AcDbCircle
 10
149.602407494006
 20
257.1083914927993
 30
0.0
 40
4.999999999999975
100
AcDbArc
 50
225.572995999194
 51
235.9442022574319
  0
ARC
  5
1FF
330
5B
100
AcDbEntity
  8
1
  6
Continuous
 62
     7
100
AcDbCircle
 10
170.602407494006
 20
257.1083914927993
 30
0.0
 40
5.000000000000057
100
AcDbArc
 50
45.57299599919494
 51
74.66244233044624
  0
ARC
  5
200
330
5B
100
AcDbEntity
  8
1
  6
Continuous
 62
     7
100
AcDbCircle
 10
170.602407494006
 20
257.1083914927993
 30
0.0
 40
4.999999999999993
100
AcDbArc
 50
304.0557977425681
 51
314.427004000806
  0
ARC
  5
201
330
5B
100
AcDbEntity
  8
1
  6
Continuous
 62
     7
100
AcDbCircle
 10
149.602407494006
 20
257.1083914927993
 30
0.0
 40
5.000000000000094
100
AcDbArc
 50
105.3375576695538
 51
134.427004000806
  0
SPLINE
  5
202
330
5B
100
AcDbEntity
  8
0
  6
Continuous
 62
     7
100
AcDbSpline
210
0.0
220
0.0
230
1.0
 70
    11
 71
     3
 72
    79
 73
    75
 74
    73
 42
0.000000001
 43
0.0000000001
 44
0.00000001
 40
0.0
 40
0.0
 40
0.0
 40
0.0
 40
0.2910229063172111
 40
0.5820342199790195
 40
0.8749339259795681
 40
1.16781254031177
 40
1.463561181730025
 40
1.759282799553751
 40
2.058487804326546
 40
2.357663878865411
 40
2.660503334662309
 40
2.963315618547931
 40
3.269530819653483
 40
3.575723462230612
 40
3.884662737575075
 40
4.193586021287205
 40
4.504289078951556
 40
4.814983875317454
 40
5.126294424223264
 40
5.437604973117995
 40
5.748299769450878
 40
6.059002827059635
 40
6.367926110693927
 40
6.676865385937109
 40
6.983058028389832
 40
7.289273229345897
 40
7.592085513057537
 40
7.894924968652751
 40
8.194101042962505
 40
8.493306047472633
 40
8.789027664996695
 40
9.08477630606206
 40
9.377654919956054
 40
9.670554625322842
 40
9.96156593761453
 40
10.2525888527919
 40
10.54295309049224
 40
10.83331732819151
 40
11.12434024336571
 40
11.41535155565217
 40
11.70825126101162
 40
12.0011298748966
 40
12.29687851595094
 40
12.59260013346231
 40
12.89180513795807
 40
13.19098121225223
 40
13.4938206678302
 40
13.79663295152361
 40
14.10284815246035
 40
14.4090407948927
 40
14.71798007011463
 40
15.02690335372695
 40
15.33760641131309
 40
15.64830120762267
 40
15.95961175649361
 40
16.27092230537508
 40
16.58161710171636
 40
16.8923201593555
 40
17.2012434430421
 40
17.51018271836052
 40
17.81637536091109
 40
18.12259056198924
 40
18.42540284584651
 40
18.7282423016133
 40
19.02741837611957
 40
19.3266233808544
 40
19.62234499863071
 40
19.91809363998158
 40
20.21097225419769
 40
20.50387195993828
 40
20.79488327268812
 40
21.08590618851571
 40
21.37627042760368
 40
21.66663465645588
 40
21.66663465645588
 40
21.66663465645588
 40
21.66663465645588
 10
475.0770417715462
 20
260.6654607442013
 30
0.0
 10
474.9806667158312
 20
260.6537850767636
 30
0.0
 10
474.7879204427632
 20
260.6304342121775
 30
0.0
 10
474.5039839354341
 20
260.5610782204121
 30
0.0
 10
474.2267196688086
 20
260.4676354632968
 30
0.0
 10
473.957967284516
 20
260.3477284775623
 30
0.0
 10
473.7003219006817
 20
260.20368297257
 30
0.0
 10
473.4550949531773
 20
260.0356163718814
 30
0.0
 10
473.2248315968818
 20
259.8457816389407
 30
0.0
 10
473.0105993881424
 20
259.6346455103919
 30
0.0
 10
472.8146449591695
 20
259.4048659068634
 30
0.0
 10
472.6378876153457
 20
259.1571373747356
 30
0.0
 10
472.4821167811823
 20
258.8944051349898
 30
0.0
 10
472.348148363621
 20
258.6176541234296
 30
0.0
 10
472.2372253321473
 20
258.3299221457415
 30
0.0
 10
472.1500485395898
 20
258.032568699389
 30
0.0
 10
472.0873005293128
 20
257.7285227033117
 30
0.0
 10
472.0495001499174
 20
257.4195811076188
 30
0.0
 10
472.0368230762467
 20
257.1083915023736
 30
0.0
 10
472.0495001495519
 20
256.7972018971187
 30
0.0
 10
472.0873005285828
 20
256.4882603014316
 30
0.0
 10
472.1500485384855
 20
256.184214305273
 30
0.0
 10
472.2372253306935
 20
255.8868608591225
 30
0.0
 10
472.3481483617119
 20
255.5991288805471
 30
0.0
 10
472.4821167791887
 20
255.3223778720914
 30
0.0
 10
472.6378876118654
 20
255.0596456205998
 30
0.0
 10
472.8146449593541
 20
254.8119171315708
 30
0.0
 10
473.0105993728624
 20
254.5821373678757
 30
0.0
 10
473.2248316367366
 20
254.3710018297897
 30
0.0
 10
473.4550947865721
 20
254.1811649066802
 30
0.0
 10
473.7003224939662
 20
254.0131063885996
 30
0.0
 10
473.9579650554434
 20
253.8690308868169
 30
0.0
 10
474.2267278731305
 20
253.7492348163432
 30
0.0
 10
474.5039533586177
 20
253.6553798195041
 30
0.0
 10
474.7880337119142
 20
253.5875529129121
 30
0.0
 10
475.0764011922205
 20
253.546857951282
 30
0.0
 10
475.3670852256934
 20
253.5330921577068
 30
0.0
 10
475.6577692591659
 20
253.5468579512568
 30
0.0
 10
475.9461367394729
 20
253.5875529128618
 30
0.0
 10
476.2302170927699
 20
253.6553798194287
 30
0.0
 10
476.5074425782581
 20
253.7492348162429
 30
0.0
 10
476.7762053959462
 20
253.8690308866917
 30
0.0
 10
477.0338479574245
 20
254.0131063884496
 30
0.0
 10
477.2790756648204
 20
254.1811649065058
 30
0.0
 10
477.5093388146577
 20
254.3710018295907
 30
0.0
 10
477.7235710785336
 20
254.5821373676524
 30
0.0
 10
477.919525492044
 20
254.8119171313236
 30
0.0
 10
478.0962828395349
 20
255.0596456203284
 30
0.0
 10
478.2520536722144
 20
255.322377871796
 30
0.0
 10
478.3860220896934
 20
255.5991288802281
 30
0.0
 10
478.4969451207151
 20
255.8868608587795
 30
0.0
 10
478.5841219129256
 20
256.1842143049064
 30
0.0
 10
478.6468699228323
 20
256.4882603010411
 30
0.0
 10
478.6846703018667
 20
256.7972018967047
 30
0.0
 10
478.6973473751762
 20
257.1083915019344
 30
0.0
 10
478.6846703015104
 20
257.4195811071597
 30
0.0
 10
478.6468699221188
 20
257.728522702813
 30
0.0
 10
478.5841219118544
 20
258.0325686989232
 30
0.0
 10
478.496945119281
 20
258.3299221450386
 30
0.0
 10
478.3860220879019
 20
258.6176541234923
 30
0.0
 10
478.2520536700333
 20
258.894405132104
 30
0.0
 10
478.0962828370615
 20
259.1571373826774
 30
0.0
 10
477.9195254889016
 20
259.4048658747109
 30
0.0
 10
477.7235710760886
 20
259.634645626823
 30
0.0
 10
477.5093388078376
 20
259.8457812071439
 30
0.0
 10
477.2790756723772
 20
260.0356179730629
 30
0.0
 10
477.0338479100416
 20
260.2036770706446
 30
0.0
 10
476.7762055505063
 20
260.3477504210551
 30
0.0
 10
476.5074419840918
 20
260.4675544455992
 30
0.0
 10
476.2302192792241
 20
260.5613798785455
 30
0.0
 10
475.9461286095668
 20
260.6293164428887
 30
0.0
 10
475.6577995478174
 20
260.6696029991995
 30
0.0
 10
475.3669724373556
 20
260.6848897435934
 30
0.0
 10
475.1736853257887
 20
260.6719370755031
 30
0.0
 10
475.0770417715463
 20
260.6654607442013
 30
0.0
 11
475.0770417715462
 21
260.6654607442013
 31
0.0
 11
474.7888822752714
 21
260.6247367711148
 31
0.0
 11
474.5058000688889
 21
260.5572679010494
 31
0.0
 11
474.2283760263451
 21
260.4633203724106
 31
0.0
 11
473.9608142742278
 21
260.3442044986112
 31
0.0
 11
473.7026819055126
 21
260.199861369154
 31
0.0
 11
473.4586692529014
 21
260.0328011987383
 31
0.0
 11
473.2277897473705
 21
259.8424901671376
 31
0.0
 11
473.0146144524194
 21
259.6325791927822
 31
0.0
 11
472.8180801284112
 21
259.4021752096558
 31
0.0
 11
472.6421065926116
 21
259.1557434869679
 31
0.0
 11
472.4859094521387
 21
258.8923612501301
 31
0.0
 11
472.3524137641745
 21
258.6168021173521
 31
0.0
 11
472.2412638386173
 21
258.3285501964548
 31
0.0
 11
472.154287184591
 21
258.0321237184145
 31
0.0
 11
472.0914821102695
 21
257.7278345258716
 31
0.0
 11
472.053706748598
 21
257.419444709951
 31
0.0
 11
472.0410515523844
 21
257.1083914928001
 31
0.0
 11
472.053706748598
 21
256.7973382756492
 31
0.0
 11
472.0914821102696
 21
256.4889484597286
 31
0.0
 11
472.154287184591
 21
256.1846592671857
 31
0.0
 11
472.2412638386174
 21
255.8882327891454
 31
0.0
 11
472.3524137641745
 21
255.5999808682481
 31
0.0
 11
472.4859094521387
 21
255.3244217354702
 31
0.0
 11
472.6421065926115
 21
255.0610394986323
 31
0.0
 11
472.8180801284112
 21
254.8146077759446
 31
0.0
 11
473.0146144524194
 21
254.5842037928181
 31
0.0
 11
473.2277897473705
 21
254.3742928184626
 31
0.0
 11
473.4586692529014
 21
254.1839817868619
 31
0.0
 11
473.7026819055125
 21
254.0169216164462
 31
0.0
 11
473.9608142742277
 21
253.8725784869889
 31
0.0
 11
474.2283760263451
 21
253.7534626131895
 31
0.0
 11
474.5058000688889
 21
253.6595150845508
 31
0.0
 11
474.7888822752714
 21
253.5920462144855
 31
0.0
 11
475.0770417715462
 21
253.5513222413989
 31
0.0
 11
475.3670852262967
 21
253.5376772785287
 31
0.0
 11
475.6571286810471
 21
253.5513222413989
 31
0.0
 11
475.945288177322
 21
253.5920462144854
 31
0.0
 11
476.2283703837045
 21
253.6595150845507
 31
0.0
 11
476.5057944262482
 21
253.7534626131895
 31
0.0
 11
476.7733561783656
 21
253.872578486989
 31
0.0
 11
477.0314885470809
 21
254.0169216164462
 31
0.0
 11
477.275501199692
 21
254.1839817868619
 31
0.0
 11
477.5063807052229
 21
254.3742928184626
 31
0.0
 11
477.7195560001741
 21
254.5842037928181
 31
0.0
 11
477.9160903241822
 21
254.8146077759446
 31
0.0
 11
478.0920638599819
 21
255.0610394986323
 31
0.0
 11
478.2482610004548
 21
255.3244217354703
 31
0.0
 11
478.381756688419
 21
255.5999808682481
 31
0.0
 11
478.4929066139761
 21
255.8882327891454
 31
0.0
 11
478.5798832680024
 21
256.1846592671857
 31
0.0
 11
478.6426883423239
 21
256.4889484597286
 31
0.0
 11
478.6804637039955
 21
256.7973382756492
 31
0.0
 11
478.6931189002091
 21
257.1083914928001
 31
0.0
 11
478.6804637039955
 21
257.419444709951
 31
0.0
 11
478.6426883423239
 21
257.7278345258716
 31
0.0
 11
478.5798832680024
 21
258.0321237184145
 31
0.0
 11
478.4929066139762
 21
258.3285501964548
 31
0.0
 11
478.381756688419
 21
258.6168021173521
 31
0.0
 11
478.2482610004548
 21
258.89236125013
 31
0.0
 11
478.0920638599819
 21
259.1557434869678
 31
0.0
 11
477.9160903241822
 21
259.4021752096556
 31
0.0
 11
477.719556000174
 21
259.6325791927821
 31
0.0
 11
477.5063807052228
 21
259.8424901671376
 31
0.0
 11
477.275501199692
 21
260.0328011987384
 31
0.0
 11
477.0314885470809
 21
260.1998613691541
 31
0.0
 11
476.7733561783656
 21
260.3442044986112
 31
0.0
 11
476.5057944262484
 21
260.4633203724107
 31
0.0
 11
476.2283703837045
 21
260.5572679010494
 31
0.0
 11
475.9452881773221
 21
260.6247367711147
 31
0.0
 11
475.6571286810471
 21
260.6654607442013
 31
0.0
 11
475.3670852262967
 21
260.6791057070715
 31
0.0
 11
475.0770417715463
 21
260.6654607442013
 31
0.0
  0
SPLINE
  5
203
330
5B
100
AcDbEntity
  8
0
  6
Continuous
 62
     7
100
AcDbSpline
210
0.0
220
0.0
230
1.0
 70
    11
 71
     3
 72
    79
 73
    75
 74
    73
 42
0.000000001
 43
0.0000000001
 44
0.00000001
 40
0.0
 40
0.0
 40
0.0
 40
0.0
 40
0.3261189815590133
 40
0.651724222786477
 40
1.007570730085579
 40
1.362786574479192
 40
1.75988631123688
 40
2.156516711364771
 40
2.599210004995302
 40
3.041603623772157
 40
3.52830720325303
 40
4.014826845817804
 40
4.53961631119259
 40
5.064295506276652
 40
5.618233629058172
 40
6.172109434340705
 40
6.74428096542171
 40
7.316424320423751
 40
7.894787041172098
 40
8.4731497619233
 40
9.045293116933726
 40
9.61746464802737
 40
10.17134045332481
 40
10.72527857612084
 40
11.24995777121493
 40
11.77474723659063
 40
12.2612668791416
 40
12.74797045858435
 40
13.19036407729345
 40
13.63305737080653
 40
14.02968777076458
 40
14.42678750725396
 40
14.78200335126249
 40
15.1378498578736
 40
15.46345509697315
 40
15.78957408501965
 40
16.10448971847113
 40
16.41940535192157
 40
16.74552433996511
 40
17.07112957905996
 40
17.42697608566503
 40
17.78219192966679
 40
18.17929166614859
 40
18.57592206609925
 40
19.01861535960449
 40
19.46100897830649
 40
19.94771255774198
 40
20.43423220028652
 40
20.95902166565622
 40
21.48370086074505
 40
22.03763898353652
 40
22.59151478883015
 40
23.16368631992119
 40
23.73582967493016
 40
24.31419239568131
 40
24.89255511643129
 40
25.46469847143705
 40
26.03687000252395
 40
26.59074580781464
 40
27.14468393060679
 40
27.6693631257037
 40
28.19415259109352
 40
28.68067223367416
 40
29.16737581317163
 40
29.60976943196307
 40
30.05246272560422
 40
30.4490931257326
 40
30.84619286246811
 40
31.20140870678663
 40
31.55725521382514
 40
31.88286045347711
 40
32.20897944233199
 40
32.52389507798053
 40
32.83881070538189
 40
32.83881070538189
 40
32.83881070538189
 40
32.83881070538189
 10
456.6169504164249
 20
256.7945750061618
 30
0.0
 10
456.639507689963
 20
256.6879852500486
 30
0.0
 10
456.684586692336
 20
256.4749736480043
 30
0.0
 10
456.8191144649874
 20
256.1651551544437
 30
0.0
 10
456.9958585545791
 20
255.8673713073854
 30
0.0
 10
457.22473996753
 20
255.5762252633443
 30
0.0
 10
457.4939578772475
 20
255.3028330459444
 30
0.0
 10
457.8112279931884
 20
255.038873318624
 30
0.0
 10
458.1632804138745
 20
254.7958671173974
 30
0.0
 10
458.5591537816709
 20
254.5662128666823
 30
0.0
 10
458.9838621963308
 20
254.3596619075339
 30
0.0
 10
459.4463795696811
 20
254.1706591523447
 30
0.0
 10
459.9316200714661
 20
254.0063453577175
 30
0.0
 10
460.4468615594964
 20
253.8633298559139
 30
0.0
 10
460.9785268202558
 20
253.7461774203172
 30
0.0
 10
461.5309758698567
 20
253.6532035293484
 30
0.0
 10
462.0933667097933
 20
253.5868844704456
 30
0.0
 10
462.6663833600442
 20
253.5465382124657
 30
0.0
 10
463.2427295633197
 20
253.5332478807491
 30
0.0
 10
463.8190757666181
 20
253.5465382125817
 30
0.0
 10
464.3920924168019
 20
253.586884470686
 30
0.0
 10
464.9544832569791
 20
253.6532035296504
 30
0.0
 10
465.5069323057099
 20
253.7461774208534
 30
0.0
 10
466.0385975696336
 20
253.8633298559814
 30
0.0
 10
466.5538390464426
 20
254.0063453597157
 30
0.0
 10
467.0390795886121
 20
254.1706591475379
 30
0.0
 10
467.5015968216853
 20
254.3596619263428
 30
0.0
 10
467.9263057358867
 20
254.5662128011846
 30
0.0
 10
468.322177400244
 20
254.795867338963
 30
0.0
 10
468.6742358350083
 20
255.0388725260011
 30
0.0
 10
468.9914857116923
 20
255.3028356654049
 30
0.0
 10
469.2607748408535
 20
255.5762158746983
 30
0.0
 10
469.4894168329718
 20
255.8674022849067
 30
0.0
 10
469.6670095582199
 20
256.1650430493954
 30
0.0
 10
469.7986226298563
 20
256.4753529672715
 30
0.0
 10
469.8760476059362
 20
256.7895115441797
 30
0.0
 10
469.9040077230528
 20
257.108391492483
 30
0.0
 10
469.8760476059442
 20
257.427271440786
 30
0.0
 10
469.7986226298721
 20
257.7414300176932
 30
0.0
 10
469.6670095582433
 20
258.0517399355677
 30
0.0
 10
469.4894168330018
 20
258.3493807000536
 30
0.0
 10
469.2607748408903
 20
258.6405671102588
 30
0.0
 10
468.9914857117348
 20
258.9139473195475
 30
0.0
 10
468.6742358350562
 20
259.1779104589463
 30
0.0
 10
468.3221774002971
 20
259.4209156459781
 30
0.0
 10
467.9263057359432
 20
259.650570183749
 30
0.0
 10
467.5015968217457
 20
259.8571210585819
 30
0.0
 10
467.0390795886752
 20
260.0461238373766
 30
0.0
 10
466.5538390465075
 20
260.2104376251865
 30
0.0
 10
466.0385975697002
 20
260.3534531289064
 30
0.0
 10
465.5069323057773
 20
260.4706055640174
 30
0.0
 10
464.9544832570467
 20
260.5635794552003
 30
0.0
 10
464.3920924168697
 20
260.6298985141415
 30
0.0
 10
463.819075766684
 20
260.6702447722186
 30
0.0
 10
463.2427295633893
 20
260.6835351040189
 30
0.0
 10
462.6663833600961
 20
260.6702447722695
 30
0.0
 10
462.0933667099052
 20
260.6298985142367
 30
0.0
 10
461.5309758697445
 20
260.5635794553317
 30
0.0
 10
460.9785268209517
 20
260.4706055641547
 30
0.0
 10
460.4468615572512
 20
260.3534531290737
 30
0.0
 10
459.9316200796522
 20
260.2104376251842
 30
0.0
 10
459.4463795403341
 20
260.0461238377829
 30
0.0
 10
458.9838622973718
 20
259.8571210572073
 30
0.0
 10
458.5591534184168
 20
259.6505701881562
 30
0.0
 10
458.163281633922
 20
259.4209156299129
 30
0.0
 10
457.8112236233938
 20
259.1779105141318
 30
0.0
 10
457.4939723191558
 20
258.9139471336963
 30
0.0
 10
457.2246882135888
 20
258.6405677709738
 30
0.0
 10
456.9960293337871
 20
258.3493785129601
 30
0.0
 10
456.8184964680158
 20
258.0517478402754
 30
0.0
 10
456.6866778052303
 20
257.7414032586063
 30
0.0
 10
456.6099979446994
 20
257.4273703080928
 30
0.0
 10
456.5793460425708
 20
257.1080365210543
 30
0.0
 10
456.60441562881
 20
256.8990621772152
 30
0.0
 10
456.6169504164249
 20
256.7945750061618
 30
0.0
 11
456.6169504164249
 21
256.7945750061618
 31
0.0
 11
456.6951230789786
 21
256.4779638420026
 31
0.0
 11
456.8208293340552
 21
256.1776028771108
 31
0.0
 11
457.0023857174902
 21
255.8715571028082
 31
0.0
 11
457.2207477773853
 21
255.5913851793634
 31
0.0
 11
457.4984953267604
 21
255.3075815507964
 31
0.0
 11
457.8027948789399
 21
255.0531852914826
 31
0.0
 11
458.1664425042588
 21
254.8007219144246
 31
0.0
 11
458.5487755111379
 21
254.5781604942535
 31
0.0
 11
458.9860440719131
 21
254.364439695038
 31
0.0
 11
459.4362394996122
 21
254.1799798363267
 31
0.0
 11
459.9330792212268
 21
254.0109997369104
 31
0.0
 11
460.4385658891461
 21
253.870388619573
 31
0.0
 11
460.9794236961533
 21
253.7507212619479
 31
0.0
 11
461.5255940042701
 21
253.6586538832607
 31
0.0
 11
462.0937939713094
 21
253.5913556036176
 31
0.0
 11
462.66452364936
 21
253.5511604140028
 31
0.0
 11
463.2427295733146
 21
253.5376939276641
 31
0.0
 11
463.8209354972693
 21
253.5511604140028
 31
0.0
 11
464.39166517532
 21
253.5913556036176
 31
0.0
 11
464.9598651423592
 21
253.6586538832607
 31
0.0
 11
465.5060354504761
 21
253.7507212619479
 31
0.0
 11
466.0468932574831
 21
253.870388619573
 31
0.0
 11
466.5523799254025
 21
254.0109997369104
 31
0.0
 11
467.049219647017
 21
254.1799798363267
 31
0.0
 11
467.4994150747162
 21
254.364439695038
 31
0.0
 11
467.9366836354913
 21
254.5781604942535
 31
0.0
 11
468.3190166423703
 21
254.8007219144246
 31
0.0
 11
468.6826642676893
 21
255.0531852914826
 31
0.0
 11
468.9869638198688
 21
255.3075815507964
 31
0.0
 11
469.264711369244
 21
255.5913851793634
 31
0.0
 11
469.483073429139
 21
255.8715571028082
 31
0.0
 11
469.664629812574
 21
256.1776028771108
 31
0.0
 11
469.7903360676506
 21
256.4779638420026
 31
0.0
 11
469.8685087302044
 21
256.7945750061618
 31
0.0
 11
469.8947969211396
 21
257.1083914928001
 31
0.0
 11
469.8685087302044
 21
257.4222079794384
 31
0.0
 11
469.7903360676506
 21
257.7388191435977
 31
0.0
 11
469.664629812574
 21
258.0391801084894
 31
0.0
 11
469.4830734291389
 21
258.345225882792
 31
0.0
 11
469.264711369244
 21
258.6253978062368
 31
0.0
 11
468.9869638198687
 21
258.9092014348038
 31
0.0
 11
468.6826642676893
 21
259.1635976941176
 31
0.0
 11
468.3190166423704
 21
259.4160610711756
 31
0.0
 11
467.9366836354914
 21
259.6386224913468
 31
0.0
 11
467.4994150747163
 21
259.8523432905623
 31
0.0
 11
467.0492196470171
 21
260.0368031492736
 31
0.0
 11
466.5523799254025
 21
260.2057832486899
 31
0.0
 11
466.0468932574831
 21
260.3463943660272
 31
0.0
 11
465.506035450476
 21
260.4660617236523
 31
0.0
 11
464.9598651423591
 21
260.5581291023395
 31
0.0
 11
464.3916651753199
 21
260.6254273819827
 31
0.0
 11
463.8209354972691
 21
260.6656225715975
 31
0.0
 11
463.2427295733146
 21
260.6790890579362
 31
0.0
 11
462.66452364936
 21
260.6656225715975
 31
0.0
 11
462.0937939713094
 21
260.6254273819828
 31
0.0
 11
461.5255940042701
 21
260.5581291023396
 31
0.0
 11
460.9794236961533
 21
260.4660617236524
 31
0.0
 11
460.4385658891462
 21
260.3463943660273
 31
0.0
 11
459.9330792212267
 21
260.2057832486898
 31
0.0
 11
459.4362394996121
 21
260.0368031492735
 31
0.0
 11
458.986044071913
 21
259.8523432905622
 31
0.0
 11
458.5487755111379
 21
259.6386224913468
 31
0.0
 11
458.1664425042589
 21
259.4160610711756
 31
0.0
 11
457.8027948789399
 21
259.1635976941176
 31
0.0
 11
457.4984953267605
 21
258.9092014348038
 31
0.0
 11
457.2207477773853
 21
258.6253978062368
 31
0.0
 11
457.0023857174903
 21
258.345225882792
 31
0.0
 11
456.8208293340552
 21
258.0391801084894
 31
0.0
 11
456.6951230789787
 21
257.7388191435977
 31
0.0
 11
456.6169504164249
 21
257.4222079794384
 31
0.0
 11
456.5906622254896
 21
257.1083914928001
 31
0.0
 11
456.6169504164249
 21
256.7945750061618
 31
0.0
  0
SPLINE
  5
204
330
5B
100
AcDbEntity
  8
0
  6
Continuous
 62
     7
100
AcDbSpline
210
0.0
220
0.0
230
1.0
 70
    11
 71
     3
 72
    79
 73
    75
 74
    73
 42
0.000000001
 43
0.0000000001
 44
0.00000001
 40
0.0
 40
0.0
 40
0.0
 40
0.0
 40
0.2910229063172673
 40
0.5820342199790626
 40
0.8749339259796112
 40
1.167812540311865
 40
1.46356118173012
 40
1.759282799553799
 40
2.05848780432663
 40
2.357663878865656
 40
2.660503334662641
 40
2.96331561854817
 40
3.269530819653703
 40
3.575723462230731
 40
3.884662737575226
 40
4.193586021287302
 40
4.504289078951707
 40
4.814983875317563
 40
5.126294424223373
 40
5.437604973118104
 40
5.748299769450925
 40
6.05900282705976
 40
6.367926110694079
 40
6.676865385937194
 40
6.983058028389967
 40
7.289273229346065
 40
7.592085513057705
 40
7.894924968652846
 40
8.19410104296258
 40
8.493306047472814
 40
8.78902766499686
 40
9.084776306062304
 40
9.377654919956235
 40
9.670554625323023
 40
9.961565937614814
 40
10.25258885279218
 40
10.54295309049252
 40
10.83331732819185
 40
11.124340243366
 40
11.41535155565252
 40
11.70825126101209
 40
12.00112987489699
 40
12.29687851595124
 40
12.59260013346265
 40
12.89180513795844
 40
13.19098121225252
 40
13.49382066783056
 40
13.79663295152394
 40
14.10284815246062
 40
14.40904079489303
 40
14.71798007011493
 40
15.02690335372724
 40
15.33760641131333
 40
15.64830120762297
 40
15.9596117564939
 40
16.27092230537544
 40
16.58161710171671
 40
16.89232015935585
 40
17.20124344304245
 40
17.51018271836087
 40
17.81637536091134
 40
18.12259056198949
 40
18.42540284584673
 40
18.72824230161364
 40
19.02741837611987
 40
19.32662338085479
 40
19.62234499863115
 40
19.91809363998202
 40
20.21097225419823
 40
20.50387195993866
 40
20.7948832726885
 40
21.08590618851609
 40
21.37627042760411
 40
21.66663465645637
 40
21.66663465645637
 40
21.66663465645637
 40
21.66663465645637
 10
451.4084173750829
 20
260.6654607442013
 30
0.0
 10
451.504792430798
 20
260.6537850767636
 30
0.0
 10
451.6975387038659
 20
260.6304342121776
 30
0.0
 10
451.9814752111951
 20
260.5610782204121
 30
0.0
 10
452.2587394778205
 20
260.4676354632969
 30
0.0
 10
452.5274918621134
 20
260.3477284775624
 30
0.0
 10
452.7851372459476
 20
260.20368297257
 30
0.0
 10
453.0303641934516
 20
260.0356163718814
 30
0.0
 10
453.2606275497475
 20
259.8457816389407
 30
0.0
 10
453.4748597584868
 20
259.6346455103917
 30
0.0
 10
453.6708141874598
 20
259.4048659068632
 30
0.0
 10
453.8475715312838
 20
259.1571373747356
 30
0.0
 10
454.0033423654468
 20
258.8944051349897
 30
0.0
 10
454.1373107830084
 20
258.6176541234296
 30
0.0
 10
454.2482338144816
 20
258.3299221457414
 30
0.0
 10
454.3354106070395
 20
258.0325686993891
 30
0.0
 10
454.3981586173164
 20
257.7285227033116
 30
0.0
 10
454.4359589967117
 20
257.4195811076189
 30
0.0
 10
454.4486360703828
 20
257.1083915023736
 30
0.0
 10
454.4359589970772
 20
256.7972018971187
 30
0.0
 10
454.3981586180467
 20
256.4882603014315
 30
0.0
 10
454.3354106081437
 20
256.1842143052731
 30
0.0
 10
454.2482338159357
 20
255.8868608591225
 30
0.0
 10
454.1373107849175
 20
255.5991288805471
 30
0.0
 10
454.0033423674405
 20
255.3223778720913
 30
0.0
 10
453.8475715347639
 20
255.0596456205998
 30
0.0
 10
453.6708141872751
 20
254.8119171315709
 30
0.0
 10
453.4748597737668
 20
254.5821373678757
 30
0.0
 10
453.2606275098929
 20
254.3710018297897
 30
0.0
 10
453.0303643600571
 20
254.1811649066803
 30
0.0
 10
452.7851366526629
 20
254.0131063885996
 30
0.0
 10
452.5274940911858
 20
253.8690308868169
 30
0.0
 10
452.2587312734987
 20
253.7492348163432
 30
0.0
 10
451.9815057880114
 20
253.655379819504
 30
0.0
 10
451.6974254347148
 20
253.5875529129121
 30
0.0
 10
451.4090579544086
 20
253.546857951282
 30
0.0
 10
451.1183739209357
 20
253.5330921577067
 30
0.0
 10
450.8276898874631
 20
253.5468579512568
 30
0.0
 10
450.5393224071562
 20
253.5875529128619
 30
0.0
 10
450.255242053859
 20
253.6553798194287
 30
0.0
 10
449.978016568371
 20
253.749234816243
 30
0.0
 10
449.7092537506828
 20
253.8690308866917
 30
0.0
 10
449.4516111892042
 20
254.0131063884496
 30
0.0
 10
449.2063834818086
 20
254.1811649065056
 30
0.0
 10
448.9761203319714
 20
254.3710018295908
 30
0.0
 10
448.7618880680954
 20
254.5821373676525
 30
0.0
 10
448.5659336545849
 20
254.8119171313235
 30
0.0
 10
448.3891763070941
 20
255.0596456203285
 30
0.0
 10
448.2334054744147
 20
255.322377871796
 30
0.0
 10
448.0994370569355
 20
255.5991288802281
 30
0.0
 10
447.9885140259138
 20
255.8868608587795
 30
0.0
 10
447.9013372337033
 20
256.1842143049065
 30
0.0
 10
447.8385892237966
 20
256.4882603010409
 30
0.0
 10
447.8007888447623
 20
256.7972018967047
 30
0.0
 10
447.7881117714527
 20
257.1083915019344
 30
0.0
 10
447.8007888451186
 20
257.4195811071598
 30
0.0
 10
447.8385892245102
 20
257.7285227028129
 30
0.0
 10
447.9013372347747
 20
258.0325686989233
 30
0.0
 10
447.988514027348
 20
258.3299221450385
 30
0.0
 10
448.0994370587271
 20
258.6176541234922
 30
0.0
 10
448.2334054765956
 20
258.8944051321039
 30
0.0
 10
448.3891763095677
 20
259.1571373826774
 30
0.0
 10
448.5659336577273
 20
259.4048658747108
 30
0.0
 10
448.7618880705403
 20
259.634645626823
 30
0.0
 10
448.9761203387914
 20
259.8457812071439
 30
0.0
 10
449.2063834742519
 20
260.035617973063
 30
0.0
 10
449.4516112365877
 20
260.2036770706445
 30
0.0
 10
449.7092535961227
 20
260.3477504210552
 30
0.0
 10
449.9780171625373
 20
260.4675544455991
 30
0.0
 10
450.2552398674049
 20
260.5613798785455
 30
0.0
 10
450.5393305370621
 20
260.6293164428887
 30
0.0
 10
450.8276595988119
 20
260.6696029991995
 30
0.0
 10
451.1184867092734
 20
260.6848897435935
 30
0.0
 10
451.3117738208406
 20
260.6719370755029
 30
0.0
 10
451.4084173750829
 20
260.6654607442013
 30
0.0
 11
451.4084173750829
 21
260.6654607442013
 31
0.0
 11
451.6965768713578
 21
260.6247367711148
 31
0.0
 11
451.9796590777403
 21
260.5572679010495
 31
0.0
 11
452.2570831202841
 21
260.4633203724107
 31
0.0
 11
452.5246448724014
 21
260.3442044986112
 31
0.0
 11
452.7827772411167
 21
260.1998613691541
 31
0.0
 11
453.0267898937278
 21
260.0328011987384
 31
0.0
 11
453.2576693992586
 21
259.8424901671376
 31
0.0
 11
453.4708446942099
 21
259.6325791927821
 31
0.0
 11
453.6673790182181
 21
259.4021752096555
 31
0.0
 11
453.8433525540177
 21
259.1557434869678
 31
0.0
 11
453.9995496944907
 21
258.89236125013
 31
0.0
 11
454.1330453824548
 21
258.6168021173521
 31
0.0
 11
454.2441953080119
 21
258.3285501964548
 31
0.0
 11
454.3311719620382
 21
258.0321237184145
 31
0.0
 11
454.3939770363597
 21
257.7278345258715
 31
0.0
 11
454.4317523980313
 21
257.419444709951
 31
0.0
 11
454.4444075942449
 21
257.1083914928001
 31
0.0
 11
454.4317523980313
 21
256.7973382756492
 31
0.0
 11
454.3939770363598
 21
256.4889484597286
 31
0.0
 11
454.3311719620382
 21
256.1846592671857
 31
0.0
 11
454.2441953080119
 21
255.8882327891453
 31
0.0
 11
454.1330453824548
 21
255.5999808682481
 31
0.0
 11
453.9995496944906
 21
255.3244217354702
 31
0.0
 11
453.8433525540177
 21
255.0610394986323
 31
0.0
 11
453.667379018218
 21
254.8146077759446
 31
0.0
 11
453.4708446942099
 21
254.5842037928181
 31
0.0
 11
453.2576693992588
 21
254.3742928184627
 31
0.0
 11
453.0267898937278
 21
254.1839817868619
 31
0.0
 11
452.7827772411167
 21
254.0169216164462
 31
0.0
 11
452.5246448724014
 21
253.8725784869889
 31
0.0
 11
452.2570831202841
 21
253.7534626131895
 31
0.0
 11
451.9796590777403
 21
253.6595150845508
 31
0.0
 11
451.6965768713577
 21
253.5920462144855
 31
0.0
 11
451.4084173750828
 21
253.551322241399
 31
0.0
 11
451.1183739203324
 21
253.5376772785287
 31
0.0
 11
450.8283304655819
 21
253.5513222413989
 31
0.0
 11
450.540170969307
 21
253.5920462144855
 31
0.0
 11
450.2570887629245
 21
253.6595150845508
 31
0.0
 11
449.9796647203807
 21
253.7534626131896
 31
0.0
 11
449.7121029682633
 21
253.872578486989
 31
0.0
 11
449.4539705995481
 21
254.0169216164462
 31
0.0
 11
449.2099579469369
 21
254.1839817868619
 31
0.0
 11
448.9790784414062
 21
254.3742928184627
 31
0.0
 11
448.765903146455
 21
254.5842037928181
 31
0.0
 11
448.5693688224467
 21
254.8146077759446
 31
0.0
 11
448.3933952866471
 21
255.0610394986323
 31
0.0
 11
448.2371981461743
 21
255.3244217354702
 31
0.0
 11
448.10370245821
 21
255.5999808682481
 31
0.0
 11
447.9925525326529
 21
255.8882327891453
 31
0.0
 11
447.9055758786266
 21
256.1846592671857
 31
0.0
 11
447.842770804305
 21
256.4889484597285
 31
0.0
 11
447.8049954426335
 21
256.7973382756491
 31
0.0
 11
447.7923402464199
 21
257.1083914928
 31
0.0
 11
447.8049954426335
 21
257.419444709951
 31
0.0
 11
447.8427708043051
 21
257.7278345258716
 31
0.0
 11
447.9055758786267
 21
258.0321237184145
 31
0.0
 11
447.9925525326529
 21
258.3285501964548
 31
0.0
 11
448.10370245821
 21
258.6168021173521
 31
0.0
 11
448.2371981461742
 21
258.8923612501299
 31
0.0
 11
448.393395286647
 21
259.1557434869678
 31
0.0
 11
448.5693688224467
 21
259.4021752096555
 31
0.0
 11
448.7659031464549
 21
259.6325791927821
 31
0.0
 11
448.9790784414062
 21
259.8424901671376
 31
0.0
 11
449.209957946937
 21
260.0328011987384
 31
0.0
 11
449.4539705995483
 21
260.1998613691541
 31
0.0
 11
449.7121029682635
 21
260.3442044986112
 31
0.0
 11
449.9796647203808
 21
260.4633203724107
 31
0.0
 11
450.2570887629246
 21
260.5572679010494
 31
0.0
 11
450.540170969307
 21
260.6247367711147
 31
0.0
 11
450.8283304655819
 21
260.6654607442013
 31
0.0
 11
451.1183739203324
 21
260.6791057070715
 31
0.0
 11
451.4084173750829
 21
260.6654607442013
 31
0.0
  0
SPLINE
  5
205
330
5B
100
AcDbEntity
  8
1
  6
Continuous
 62
     7
100
AcDbSpline
210
0.0
220
0.0
230
1.0
 70
     8
 71
     3
 72
    31
 73
    27
 74
    25
 42
0.000000001
 43
0.0000000001
 44
0.00000001
 40
0.0
 40
0.0
 40
0.0
 40
0.0
 40
0.3210813059899548
 40
0.6418951342664514
 40
0.9828988842095305
 40
1.323531047073861
 40
1.692967050917691
 40
2.062075174447065
 40
2.463733850648455
 40
2.865152858934428
 40
3.298564775899201
 40
3.731815220479214
 40
4.19313125744737
 40
4.654344164604789
 40
5.13724096358455
 40
5.620077096619826
 40
6.116559522534556
 40
6.61301390088656
 40
7.114121227691167
 40
7.61522855448108
 40
8.111682932791828
 40
8.608165358633407
 40
9.091001491589036
 40
9.573898291060582
 40
9.71532937414174
 40
9.856648873169013
 40
9.856648873169013
 40
9.856648873169013
 40
9.856648873169013
 10
172.8407758231048
 20
256.7954366412337
 30
0.0
 10
172.821495972336
 20
256.6899755580631
 30
0.0
 10
172.7829523186251
 20
256.4791412496597
 30
0.0
 10
172.6678990265392
 20
256.1708016224736
 30
0.0
 10
172.5155105600239
 20
255.8727135289144
 30
0.0
 10
172.3184339173434
 20
255.5820414433558
 30
0.0
 10
172.0852474075665
 20
255.3072758642468
 30
0.0
 10
171.8110789412993
 20
255.0432469183973
 30
0.0
 10
171.5055357413083
 20
254.7988629418326
 30
0.0
 10
171.1629181504918
 20
254.5689913669999
 30
0.0
 10
170.7942219337591
 20
254.3614241143511
 30
0.0
 10
170.3936671916512
 20
254.1722071543926
 30
0.0
 10
169.972562694448
 20
254.0072425386042
 30
0.0
 10
169.5262043886877
 20
253.8640585175194
 30
0.0
 10
169.0650085300078
 20
253.7465312867218
 30
0.0
 10
168.58631343677
 20
253.6534474933373
 30
0.0
 10
168.0986461156806
 20
253.5869446430743
 30
0.0
 10
167.6020283552973
 20
253.5465592739631
 30
0.0
 10
167.1024073687411
 20
253.5332150646565
 30
0.0
 10
166.6027871903498
 20
253.5465612616657
 30
0.0
 10
166.1061670279342
 20
253.5869367757019
 30
0.0
 10
165.6185084168159
 20
253.6534766604901
 30
0.0
 10
165.1397817156154
 20
253.7464257105953
 30
0.0
 10
164.7820305319278
 20
253.8379969770725
 30
0.0
 10
164.5372815013187
 20
253.910395084663
 30
0.0
 10
164.4475949385586
 20
253.9393797696523
 30
0.0
 10
164.4027693557837
 20
253.9538663984578
 30
0.0
 11
172.8407758231048
 21
256.7954366412337
 31
0.0
 11
172.7737802814019
 21
256.4814226176206
 31
0.0
 11
172.6648254492576
 21
256.1796770967507
 31
0.0
 11
172.5094005826803
 21
255.8761533453549
 31
0.0
 11
172.3191648585747
 21
255.593592486172
 31
0.0
 11
172.0806715620194
 21
255.3114508408264
 31
0.0
 11
171.8153344329144
 21
255.0548635954461
 31
0.0
 11
171.5021730756927
 21
254.8033488716993
 31
0.0
 11
171.1691459565118
 21
254.579228016106
 31
0.0
 11
170.7918175937935
 21
254.3659929432907
 31
0.0
 11
170.4002499246
 21
254.1805725883399
 31
0.0
 11
169.9709165728609
 21
254.0117965268929
 31
0.0
 11
169.5318274843604
 21
253.8706649642227
 31
0.0
 11
169.0639815939596
 21
253.7510424696717
 31
0.0
 11
168.5900495664609
 21
253.6587431490055
 31
0.0
 11
168.0981528597673
 21
253.5914198312322
 31
0.0
 11
167.6033333077851
 21
253.5511636428251
 31
0.0
 11
167.1024074940054
 21
253.5376772785279
 31
0.0
 11
166.6014816802257
 21
253.5511636428251
 31
0.0
 11
166.1066621282434
 21
253.5914198312322
 31
0.0
 11
165.6147654215498
 21
253.6587431490055
 31
0.0
 11
165.140833394051
 21
253.7510424696716
 31
0.0
 11
164.6729875036502
 21
253.8706649642228
 31
0.0
 11
164.5374205352722
 21
253.9109681614577
 31
0.0
 11
164.4027693557837
 21
253.9538663984578
 31
0.0
  0
SPLINE
  5
206
330
5B
100
AcDbEntity
  8
1
  6
Continuous
 62
     7
100
AcDbSpline
210
0.0
220
0.0
230
1.0
 70
     8
 71
     3
 72
    31
 73
    27
 74
    25
 42
0.000000001
 43
0.0000000001
 44
0.00000001
 40
0.0
 40
0.0
 40
0.0
 40
0.0
 40
0.3210813059899548
 40
0.641895134266461
 40
0.9828988842095272
 40
1.323531047073858
 40
1.692967050917688
 40
2.062075174447062
 40
2.463733850648474
 40
2.8651528589344
 40
3.298564775899172
 40
3.731815220479211
 40
4.193131257447368
 40
4.654344164604786
 40
5.13724096358452
 40
5.620077096619824
 40
6.116559522534554
 40
6.613013900886558
 40
7.114121227691137
 40
7.61522855448105
 40
8.111682932791826
 40
8.608165358633434
 40
9.09100149158903
 40
9.573898291060637
 40
9.715329374159928
 40
9.856648873205348
 40
9.856648873205348
 40
9.856648873205348
 40
9.856648873205348
 10
147.3640391649072
 20
256.7954366412337
 30
0.0
 10
147.383319015676
 20
256.6899755580631
 30
0.0
 10
147.4218626693869
 20
256.4791412496597
 30
0.0
 10
147.5369159614727
 20
256.1708016224736
 30
0.0
 10
147.6893044279882
 20
255.8727135289144
 30
0.0
 10
147.8863810706686
 20
255.5820414433558
 30
0.0
 10
148.1195675804456
 20
255.3072758642467
 30
0.0
 10
148.3937360467127
 20
255.0432469183973
 30
0.0
 10
148.6992792467037
 20
254.7988629418326
 30
0.0
 10
149.0418968375202
 20
254.5689913669999
 30
0.0
 10
149.4105930542528
 20
254.3614241143512
 30
0.0
 10
149.8111477963608
 20
254.1722071543926
 30
0.0
 10
150.232252293564
 20
254.0072425386042
 30
0.0
 10
150.6786105993243
 20
253.8640585175194
 30
0.0
 10
151.1398064580042
 20
253.7465312867217
 30
0.0
 10
151.618501551242
 20
253.6534474933372
 30
0.0
 10
152.1061688723314
 20
253.5869446430744
 30
0.0
 10
152.6027866327147
 20
253.546559273963
 30
0.0
 10
153.1024076192709
 20
253.5332150646564
 30
0.0
 10
153.6020277976621
 20
253.5465612616657
 30
0.0
 10
154.0986479600779
 20
253.5869367757018
 30
0.0
 10
154.5863065711961
 20
253.6534766604901
 30
0.0
 10
155.0650332723966
 20
253.7464257105952
 30
0.0
 10
155.4227844560901
 20
253.837996977074
 30
0.0
 10
155.6675334867107
 20
253.9103950846682
 30
0.0
 10
155.7572200494824
 20
253.9393797696616
 30
0.0
 10
155.8020456322628
 20
253.9538663984692
 30
0.0
 11
147.3640391649072
 21
256.7954366412337
 31
0.0
 11
147.4310347066101
 21
256.4814226176206
 31
0.0
 11
147.5399895387544
 21
256.1796770967507
 31
0.0
 11
147.6954144053317
 21
255.8761533453549
 31
0.0
 11
147.8856501294373
 21
255.593592486172
 31
0.0
 11
148.1241434259926
 21
255.3114508408264
 31
0.0
 11
148.3894805550976
 21
255.0548635954461
 31
0.0
 11
148.7026419123194
 21
254.8033488716993
 31
0.0
 11
149.0356690315002
 21
254.579228016106
 31
0.0
 11
149.4129973942185
 21
254.3659929432907
 31
0.0
 11
149.804565063412
 21
254.1805725883399
 31
0.0
 11
150.2338984151511
 21
254.0117965268929
 31
0.0
 11
150.6729875036516
 21
253.8706649642227
 31
0.0
 11
151.1408333940524
 21
253.7510424696717
 31
0.0
 11
151.6147654215511
 21
253.6587431490055
 31
0.0
 11
152.1066621282447
 21
253.5914198312322
 31
0.0
 11
152.6014816802269
 21
253.5511636428251
 31
0.0
 11
153.1024074940066
 21
253.5376772785279
 31
0.0
 11
153.6033333077863
 21
253.5511636428251
 31
0.0
 11
154.0981528597686
 21
253.5914198312322
 31
0.0
 11
154.5900495664623
 21
253.6587431490055
 31
0.0
 11
155.063981593961
 21
253.7510424696716
 31
0.0
 11
155.5318274843618
 21
253.8706649642228
 31
0.0
 11
155.6673944527572
 21
253.910968161463
 31
0.0
 11
155.8020456322628
 21
253.9538663984692
 31
0.0
  0
SPLINE
  5
207
330
5B
100
AcDbEntity
  8
1
  6
Continuous
 62
     7
100
AcDbSpline
210
0.0
220
0.0
230
1.0
 70
     8
 71
     3
 72
    33
 73
    29
 74
    27
 42
0.000000001
 43
0.0000000001
 44
0.00000001
 40
0.0
 40
0.0
 40
0.0
 40
0.0
 40
0.2403341503815628
 40
0.4808826349400627
 40
0.9637794345002318
 40
1.446615567563457
 40
1.94309799342325
 40
2.43955237170882
 40
2.940659698454721
 40
3.441767025202671
 40
3.938221403491597
 40
4.434703829335838
 40
4.917539962296754
 40
5.400436761194161
 40
5.861649668265086
 40
6.322965705135182
 40
6.756216149610504
 40
7.189628066451285
 40
7.591047074599055
 40
7.9927057506247
 40
8.36181387393764
 40
8.731249877465496
 40
9.071882039852673
 40
9.41288578917828
 40
9.733699621629613
 40
10.05478093508958
 40
10.3685429175471
 40
10.68230489467406
 40
10.68230489467406
 40
10.68230489467406
 40
10.68230489467406
 10
164.2154342739525
 20
260.1983691258939
 30
0.0
 10
164.2910738786209
 20
260.2247853794991
 30
0.0
 10
164.4424205484967
 20
260.2776414339144
 30
0.0
 10
164.7500194850785
 20
260.3705885185606
 30
0.0
 10
165.1397762270658
 20
260.4703571670746
 30
0.0
 10
165.618509933887
 20
260.5633063514727
 30
0.0
 10
166.1061666170422
 20
260.6298461993627
 30
0.0
 10
166.6027873018144
 20
260.6702217234636
 30
0.0
 10
167.1024073389127
 20
260.6835679178002
 30
0.0
 10
167.6020283633186
 20
260.6702237092528
 30
0.0
 10
168.0986461135325
 20
260.6298383399619
 30
0.0
 10
168.5863134373878
 20
260.5633354897946
 30
0.0
 10
169.065008529271
 20
260.4702516963122
 30
0.0
 10
169.5262043901826
 20
260.3527244658836
 30
0.0
 10
169.9725626882021
 20
260.2095404435454
 30
0.0
 10
170.3936672128573
 20
260.0445758323456
 30
0.0
 10
170.7942218580332
 20
259.8553588563293
 30
0.0
 10
171.1629184224877
 20
259.6477916614833
 30
0.0
 10
171.5055348059597
 20
259.4179198862325
 30
0.0
 10
171.8110823197987
 20
259.1735366261983
 30
0.0
 10
172.0852359205906
 20
258.9095052118759
 30
0.0
 10
172.3184755291575
 20
258.6347484512308
 30
0.0
 10
172.5153685851622
 20
258.3440458782622
 30
0.0
 10
172.6684176658391
 20
258.0460674920276
 30
0.0
 10
172.7811429587707
 20
257.737341253837
 30
0.0
 10
172.8470439043885
 20
257.424864337768
 30
0.0
 10
172.872895397682
 20
257.1081229712458
 30
0.0
 10
172.8514823516774
 20
256.8996654171613
 30
0.0
 10
172.8407758231048
 20
256.7954366412337
 30
0.0
 11
164.2154342739525
 21
260.1983691258939
 31
0.0
 11
164.4428854531211
 21
260.27599941555
 31
0.0
 11
164.67298750365
 21
260.3461180213759
 31
0.0
 11
165.1408333940508
 21
260.465740515927
 31
0.0
 11
165.6147654215496
 21
260.5580398365931
 31
0.0
 11
166.1066621282433
 21
260.6253631543664
 31
0.0
 11
166.6014816802257
 21
260.6656193427735
 31
0.0
 11
167.1024074940054
 21
260.6791057070708
 31
0.0
 11
167.6033333077851
 21
260.6656193427737
 31
0.0
 11
168.0981528597673
 21
260.6253631543665
 31
0.0
 11
168.5900495664609
 21
260.5580398365931
 31
0.0
 11
169.0639815939596
 21
260.465740515927
 31
0.0
 11
169.5318274843604
 21
260.3461180213759
 31
0.0
 11
169.9709165728609
 21
260.2049864587058
 31
0.0
 11
170.4002499246001
 21
260.0362103972587
 31
0.0
 11
170.7918175937936
 21
259.8507900423079
 31
0.0
 11
171.1691459565118
 21
259.6375549694927
 31
0.0
 11
171.5021730756927
 21
259.4134341138994
 31
0.0
 11
171.8153344329144
 21
259.1619193901527
 31
0.0
 11
172.0806715620193
 21
258.9053321447723
 31
0.0
 11
172.3191648585746
 21
258.6231904994266
 31
0.0
 11
172.5094005826802
 21
258.3406296402437
 31
0.0
 11
172.6648254492575
 21
258.0371058888481
 31
0.0
 11
172.7737802814019
 21
257.7353603679783
 31
0.0
 11
172.8407758231048
 21
257.4213463443651
 31
0.0
 11
172.8632668049067
 21
257.1083914927993
 31
0.0
 11
172.8407758231048
 21
256.7954366412337
 31
0.0
  0
SPLINE
  5
208
330
5B
100
AcDbEntity
  8
1
  6
Continuous
 62
     7
100
AcDbSpline
210
0.0
220
0.0
230
1.0
 70
     8
 71
     3
 72
    33
 73
    29
 74
    27
 42
0.000000001
 43
0.0000000001
 44
0.00000001
 40
0.0
 40
0.0
 40
0.0
 40
0.0
 40
0.2403341503830191
 40
0.4808826349434141
 40
0.9637794345035833
 40
1.446615567566752
 40
1.943097993426517
 40
2.439552371712115
 40
2.940659698458016
 40
3.441767025205909
 40
3.938221403494921
 40
4.434703829339134
 40
4.91753996230005
 40
5.400436761197457
 40
5.861649668268355
 40
6.322965705138504
 40
6.756216149613826
 40
7.189628066454583
 40
7.591047074602353
 40
7.992705750627998
 40
8.361813873940918
 40
8.731249877468828
 40
9.071882039855973
 40
9.412885789181606
 40
9.73369962163293
 40
10.05478093509288
 40
10.36854291755041
 40
10.68230489467736
 40
10.68230489467736
 40
10.68230489467736
 40
10.68230489467736
 10
155.9893807140626
 20
260.1983691258928
 30
0.0
 10
155.9137411093937
 20
260.2247853794981
 30
0.0
 10
155.7623944395169
 20
260.2776414339139
 30
0.0
 10
155.4547955029341
 20
260.3705885185603
 30
0.0
 10
155.0650387609461
 20
260.4703571670747
 30
0.0
 10
154.5863050541251
 20
260.5633063514726
 30
0.0
 10
154.0986483709697
 20
260.6298461993627
 30
0.0
 10
153.6020276861977
 20
260.6702217234636
 30
0.0
 10
153.1024076490992
 20
260.6835679178002
 30
0.0
 10
152.6027866246934
 20
260.6702237092527
 30
0.0
 10
152.1061688744796
 20
260.6298383399619
 30
0.0
 10
151.6185015506242
 20
260.5633354897946
 30
0.0
 10
151.1398064587409
 20
260.4702516963121
 30
0.0
 10
150.6786105978294
 20
260.3527244658835
 30
0.0
 10
150.2322522998099
 20
260.2095404435454
 30
0.0
 10
149.8111477751547
 20
260.0445758323456
 30
0.0
 10
149.4105931299788
 20
259.8553588563294
 30
0.0
 10
149.0418965655243
 20
259.6477916614832
 30
0.0
 10
148.6992801820523
 20
259.4179198862326
 30
0.0
 10
148.3937326682133
 20
259.1735366261983
 30
0.0
 10
148.1195790674215
 20
258.9095052118759
 30
0.0
 10
147.8863394588545
 20
258.6347484512308
 30
0.0
 10
147.6894464028499
 20
258.3440458782622
 30
0.0
 10
147.5363973221727
 20
258.0460674920275
 30
0.0
 10
147.4236720292413
 20
257.737341253837
 30
0.0
 10
147.3577710836236
 20
257.4248643377679
 30
0.0
 10
147.3319195903299
 20
257.1081229712457
 30
0.0
 10
147.3533326363345
 20
256.8996654171613
 30
0.0
 10
147.3640391649072
 20
256.7954366412337
 30
0.0
 11
155.9893807140626
 21
260.1983691258928
 31
0.0
 11
155.7619295348926
 21
260.2759994155493
 31
0.0
 11
155.5318274843619
 21
260.3461180213759
 31
0.0
 11
155.0639815939611
 21
260.465740515927
 31
0.0
 11
154.5900495664624
 21
260.5580398365931
 31
0.0
 11
154.0981528597688
 21
260.6253631543664
 31
0.0
 11
153.6033333077863
 21
260.6656193427735
 31
0.0
 11
153.1024074940066
 21
260.6791057070708
 31
0.0
 11
152.601481680227
 21
260.6656193427737
 31
0.0
 11
152.1066621282447
 21
260.6253631543665
 31
0.0
 11
151.6147654215511
 21
260.5580398365931
 31
0.0
 11
151.1408333940524
 21
260.465740515927
 31
0.0
 11
150.6729875036516
 21
260.3461180213759
 31
0.0
 11
150.2338984151511
 21
260.2049864587058
 31
0.0
 11
149.8045650634119
 21
260.0362103972587
 31
0.0
 11
149.4129973942184
 21
259.8507900423079
 31
0.0
 11
149.0356690315002
 21
259.6375549694927
 31
0.0
 11
148.7026419123193
 21
259.4134341138994
 31
0.0
 11
148.3894805550976
 21
259.1619193901527
 31
0.0
 11
148.1241434259927
 21
258.9053321447723
 31
0.0
 11
147.8856501294374
 21
258.6231904994266
 31
0.0
 11
147.6954144053318
 21
258.3406296402437
 31
0.0
 11
147.5399895387545
 21
258.0371058888481
 31
0.0
 11
147.4310347066101
 21
257.7353603679783
 31
0.0
 11
147.3640391649072
 21
257.4213463443651
 31
0.0
 11
147.3415481831053
 21
257.1083914927993
 31
0.0
 11
147.3640391649072
 21
256.7954366412337
 31
0.0
  0
ARC
  5
209
330
5B
100
AcDbEntity
  8
1
  6
Continuous
 62
     7
100
AcDbCircle
 10
451.684708511584
 20
260.9659284573585
 30
0.0
 40
1.0
100
AcDbArc
 50
90.0
 51
105.3375576695584
  0
ARC
  5
20A
330
5B
100
AcDbEntity
  8
1
  6
Continuous
 62
     7
100
AcDbCircle
 10
453.4747803808834
 20
261.9659284573585
 30
0.0
 40
1.0
100
AcDbArc
 50
90.0
 51
149.9999999999978
  0
ARC
  5
20B
330
5B
100
AcDbEntity
  8
1
  6
Continuous
 62
     7
100
AcDbCircle
 10
451.7427295733145
 20
262.9659284573585
 30
0.0
 40
1.0
100
AcDbArc
 50
270.0
 51
330.0000000000027
  0
ARC
  5
20C
330
5B
100
AcDbEntity
  8
1
  6
Continuous
 62
     7
100
AcDbCircle
 10
474.8007506350451
 20
260.9659284573585
 30
0.0
 40
1.000000000000218
100
AcDbArc
 50
74.6624423304514
 51
90.0
  0
ARC
  5
20D
330
5B
100
AcDbEntity
  8
1
  6
Continuous
 62
     7
100
AcDbCircle
 10
473.0106787657458
 20
261.9659284573585
 30
0.0
 40
0.9999999999998851
100
AcDbArc
 50
30.0000000000038
 51
90.0
  0
ARC
  5
20E
330
5B
100
AcDbEntity
  8
1
  6
Continuous
 62
     7
100
AcDbCircle
 10
474.7427295733145
 20
262.9659284573585
 30
0.0
 40
0.9999999999999344
100
AcDbArc
 50
210.0000000000022
 51
270.0
  0
ARC
  5
20F
330
5B
100
AcDbEntity
  8
1
  6
Continuous
 62
     7
100
AcDbCircle
 10
169.8703566864371
 20
261.9659284573577
 30
0.0
 40
0.9999999999999589
100
AcDbArc
 50
30.00000000000136
 51
42.94140286487899
  0
ARC
  5
210
330
5B
100
AcDbEntity
  8
1
  6
Continuous
 62
     7
100
AcDbCircle
 10
171.602407494006
 20
262.9659284573577
 30
0.0
 40
1.000000000000058
100
AcDbArc
 50
209.9999999999981
 51
270.0
  0
ARC
  5
211
330
5B
100
AcDbEntity
  8
1
  6
Continuous
 62
     7
100
AcDbCircle
 10
169.8703566864371
 20
261.9659284573577
 30
0.0
 40
1.000000000000011
100
AcDbArc
 50
42.94140286487899
 51
90.0
  0
ARC
  5
212
330
5B
100
AcDbEntity
  8
1
  6
Continuous
 62
     7
100
AcDbCircle
 10
171.6604285557366
 20
260.9659284573577
 30
0.0
 40
1.000000000000109
100
AcDbArc
 50
74.66244233044966
 51
90.0
  0
ARC
  5
213
330
5B
100
AcDbEntity
  8
1
  6
Continuous
 62
     7
100
AcDbCircle
 10
150.3344583015748
 20
261.9659284573577
 30
0.0
 40
0.9999999999999485
100
AcDbArc
 50
137.0585971351177
 51
149.9999999999995
  0
ARC
  5
214
330
5B
100
AcDbEntity
  8
1
  6
Continuous
 62
     7
100
AcDbCircle
 10
148.602407494006
 20
262.9659284573577
 30
0.0
 40
1.0
100
AcDbArc
 50
270.0
 51
329.9999999999987
  0
ARC
  5
215
330
5B
100
AcDbEntity
  8
1
  6
Continuous
 62
     7
100
AcDbCircle
 10
150.3344583015748
 20
261.9659284573577
 30
0.0
 40
1.0
100
AcDbArc
 50
90.0
 51
137.0585971351177
  0
ARC
  5
216
330
5B
100
AcDbEntity
  8
1
  6
Continuous
 62
     7
100
AcDbCircle
 10
148.5443864322754
 20
260.9659284573577
 30
0.0
 40
1.0
100
AcDbArc
 50
90.0
 51
105.3375576695488
  0
ENDBLK
  5
5D
330
5B
100
AcDbEntity
  8
0
100
AcDbBlockEnd
  0
BLOCK
  5
5F
330
5E
100
AcDbEntity
  8
0
100
AcDbBlockBegin
  2
61-1-16-170
 70
     0
 10
754.5731907088821
 20
304.3617257781405
 30
0.0
  3
61-1-16-170
  1

  0
LINE
  5
217
330
5E
100
AcDbEntity
  8
1
  6
PHANTOM
 62
     4
100
AcDbLine
 10
452.3500135648869
 20
295.4659284573588
 30
0.0
 11
473.7559499826735
 21
295.4659284573588
 31
0.0
  0
LINE
  5
218
330
5E
100
AcDbEntity
  8
1
  6
Continuous
 62
     7
100
AcDbLine
 10
471.2427295733145
 20
295.4659284573588
 30
0.0
 11
471.2427295733145
 21
267.4659284573588
 31
0.0
  0
LINE
  5
219
330
5E
100
AcDbEntity
  8
1
  6
Continuous
 62
     7
100
AcDbLine
 10
455.2427295733145
 20
295.4659284573588
 30
0.0
 11
455.2427295733145
 21
267.4659284573587
 31
0.0
  0
LINE
  5
21A
330
5E
100
AcDbEntity
  8
1
  6
Continuous
 62
     7
100
AcDbLine
 10
455.8563225673284
 20
262.4659284573587
 30
0.0
 11
470.6291365793006
 21
262.4659284573587
 31
0.0
  0
LINE
  5
21B
330
5E
100
AcDbEntity
  8
1
  6
Continuous
 62
     7
100
AcDbLine
 10
471.2427295733145
 20
267.4659284573588
 30
0.0
 11
455.2427295733145
 21
267.4659284573587
 31
0.0
  0
LINE
  5
21C
330
5E
100
AcDbEntity
  8
1
  6
PHANTOM
 62
     4
100
AcDbLine
 10
474.2206807855354
 20
393.30763383973
 30
0.0
 11
451.8685073794525
 21
393.30763383973
 31
0.0
  0
LINE
  5
21D
330
5E
100
AcDbEntity
  8
1
  6
Continuous
 62
     7
100
AcDbLine
 10
471.2427295733145
 20
393.30763383973
 30
0.0
 11
471.2427295733145
 21
563.3076338397302
 31
0.0
  0
LINE
  5
21E
330
5E
100
AcDbEntity
  8
1
  6
Continuous
 62
     7
100
AcDbLine
 10
455.2427295733145
 20
393.30763383973
 30
0.0
 11
455.2427295733145
 21
563.3076338397302
 31
0.0
  0
LINE
  5
21F
330
5E
100
AcDbEntity
  8
1
  6
Continuous
 62
     7
100
AcDbLine
 10
338.102407494006
 20
267.4659284573588
 30
0.0
 11
322.102407494006
 21
267.4659284573587
 31
0.0
  0
LINE
  5
220
330
5E
100
AcDbEntity
  8
1
  6
Continuous
 62
     7
100
AcDbLine
 10
337.4888144999921
 20
262.4659284573587
 30
0.0
 11
330.102407494006
 21
262.4659284573587
 31
0.0
  0
LINE
  5
221
330
5E
100
AcDbEntity
  8
1
  6
Continuous
 62
     7
100
AcDbLine
 10
330.102407494006
 20
262.4659284573587
 30
0.0
 11
322.7160004880199
 21
262.4659284573587
 31
0.0
  0
LINE
  5
222
330
5E
100
AcDbEntity
  8
1
  6
Continuous
 62
     7
100
AcDbLine
 10
303.102407494006
 20
303.4659284573588
 30
0.0
 11
187.102407494006
 21
303.4659284573588
 31
0.0
  0
LINE
  5
223
330
5E
100
AcDbEntity
  8
1
  6
Continuous
 62
     7
100
AcDbLine
 10
168.102407494006
 20
268.4659284573588
 30
0.0
 11
168.102407494006
 21
262.9659284573588
 31
0.0
  0
LINE
  5
224
330
5E
100
AcDbEntity
  8
1
  6
Continuous
 62
     7
100
AcDbLine
 10
152.102407494006
 20
262.9659284573588
 30
0.0
 11
152.102407494006
 21
268.4659284573588
 31
0.0
  0
LINE
  5
225
330
5E
100
AcDbEntity
  8
1
  6
Continuous
 62
     7
100
AcDbLine
 10
303.102407494006
 20
287.4659284573588
 30
0.0
 11
187.102407494006
 21
287.4659284573588
 31
0.0
  0
LINE
  5
226
330
5E
100
AcDbEntity
  8
1
  6
Continuous
 62
     7
100
AcDbLine
 10
338.102407494006
 20
268.4659284573588
 30
0.0
 11
338.102407494006
 21
267.4659284573588
 31
0.0
  0
LINE
  5
227
330
5E
100
AcDbEntity
  8
1
  6
Continuous
 62
     7
100
AcDbLine
 10
322.102407494006
 20
268.4659284573587
 30
0.0
 11
322.102407494006
 21
267.4659284573587
 31
0.0
  0
ARC
  5
228
330
5E
100
AcDbEntity
  8
1
  6
Continuous
 62
     7
100
AcDbCircle
 10
463.2427295733146
 20
563.3076338397302
 30
0.0
 40
7.999999999999886
100
AcDbArc
 50
0.0
 51
180.0
  0
ARC
  5
229
330
5E
100
AcDbEntity
  8
1
  6
Continuous
 62
     7
100
AcDbCircle
 10
463.2427295733145
 20
295.4659284573588
 30
0.0
 40
8.0
100
AcDbArc
 50
0.0
 51
180.0
  0
ARC
  5
22A
330
5E
100
AcDbEntity
  8
1
  6
Continuous
 62
     7
100
AcDbCircle
 10
458.4527558680327
 20
265.3222087501363
 30
0.0
 40
3.860026294718182
100
AcDbArc
 50
180.0
 51
227.7283445035814
  0
ARC
  5
22B
330
5E
100
AcDbEntity
  8
1
  6
Continuous
 62
     7
100
AcDbCircle
 10
468.0327032785962
 20
265.3222087501363
 30
0.0
 40
3.860026294718296
100
AcDbArc
 50
0.0
 51
33.73579100003019
  0
ARC
  5
22C
330
5E
100
AcDbEntity
  8
1
  6
Continuous
 62
     7
100
AcDbCircle
 10
468.0327032785962
 20
265.3222087501363
 30
0.0
 40
3.86002629471829
100
AcDbArc
 50
312.2716554964199
 51
0.0
  0
ARC
  5
22D
330
5E
100
AcDbEntity
  8
1
  6
Continuous
 62
     7
100
AcDbCircle
 10
458.4527558680327
 20
265.3222087501363
 30
0.0
 40
3.860026294718193
100
AcDbArc
 50
146.2642089999707
 51
180.0
  0
ARC
  5
22E
330
5E
100
AcDbEntity
  8
1
  6
Continuous
 62
     7
100
AcDbCircle
 10
463.2427295733145
 20
393.30763383973
 30
0.0
 40
8.650000000000205
100
AcDbArc
 50
270.0
 51
22.35342559933271
  0
ARC
  5
22F
330
5E
100
AcDbEntity
  8
1
  6
Continuous
 62
     7
100
AcDbCircle
 10
463.2427295733145
 20
393.30763383973
 30
0.0
 40
8.650000000000093
100
AcDbArc
 50
157.6465744006673
 51
270.0
  0
ARC
  5
230
330
5E
100
AcDbEntity
  8
1
  6
Continuous
 62
     7
100
AcDbCircle
 10
463.2427295733145
 20
393.30763383973
 30
0.0
 40
8.0
100
AcDbArc
 50
180.0
 51
0.0
  0
ARC
  5
231
330
5E
100
AcDbEntity
  8
1
  6
Continuous
 62
     7
100
AcDbCircle
 10
187.102407494006
 20
268.4659284573588
 30
0.0
 40
35.0
100
AcDbArc
 50
90.0
 51
131.0823331404505
  0
ARC
  5
232
330
5E
100
AcDbEntity
  8
1
  6
Continuous
 62
     7
100
AcDbCircle
 10
187.102407494006
 20
268.4659284573588
 30
0.0
 40
19.0
100
AcDbArc
 50
90.0
 51
180.0
  0
ARC
  5
233
330
5E
100
AcDbEntity
  8
1
  6
Continuous
 62
     7
100
AcDbCircle
 10
303.102407494006
 20
268.4659284573587
 30
0.0
 40
35.0
100
AcDbArc
 50
0.00000000000019
 51
90.0
  0
ARC
  5
234
330
5E
100
AcDbEntity
  8
1
  6
Continuous
 62
     7
100
AcDbCircle
 10
303.102407494006
 20
268.4659284573587
 30
0.0
 40
19.0
100
AcDbArc
 50
0.0
 51
90.0
  0
ARC
  5
235
330
5E
100
AcDbEntity
  8
1
  6
Continuous
 62
     7
100
AcDbCircle
 10
325.3124337887242
 20
265.3222087501363
 30
0.0
 40
3.860026294718182
100
AcDbArc
 50
180.0
 51
227.7283445035814
  0
ARC
  5
236
330
5E
100
AcDbEntity
  8
1
  6
Continuous
 62
     7
100
AcDbCircle
 10
334.8923811992877
 20
265.3222087501363
 30
0.0
 40
3.860026294718296
100
AcDbArc
 50
0.0
 51
33.73579100002972
  0
ARC
  5
237
330
5E
100
AcDbEntity
  8
1
  6
Continuous
 62
     7
100
AcDbCircle
 10
334.8923811992877
 20
265.3222087501363
 30
0.0
 40
3.86002629471829
100
AcDbArc
 50
312.2716554964199
 51
0.0
  0
ARC
  5
238
330
5E
100
AcDbEntity
  8
1
  6
Continuous
 62
     7
100
AcDbCircle
 10
325.3124337887242
 20
265.3222087501363
 30
0.0
 40
3.860026294718193
100
AcDbArc
 50
146.2642089999707
 51
180.0
  0
ARC
  5
239
330
5E
100
AcDbEntity
  8
1
  6
Continuous
 62
     7
100
AcDbCircle
 10
187.102407494006
 20
268.4659284573588
 30
0.0
 40
34.99999999999996
100
AcDbArc
 50
152.3395501006972
 51
180.0
  0
ENDBLK
  5
60
330
5E
100
AcDbEntity
  8
0
100
AcDbBlockEnd
  0
BLOCK
  5
64
330
61
100
AcDbEntity
  8
0
100
AcDbBlockBegin
  2
61-1X-16-170
 70
     0
 10
506.1342068984167
 20
245.4659284573585
 30
0.0
  3
61-1X-16-170
  1

  0
INSERT
  5
62
330
61
100
AcDbEntity
  8
0
100
AcDbBlockReference
  2
32-1-16
 10
388.4554514668059
 20
486.0008396999621
 30
0.0
 41
1.0
 42
1.0
 43
1.0
  0
INSERT
  5
63
330
61
100
AcDbEntity
  8
0
100
AcDbBlockReference
  2
61-1-16-170
 10
754.573190708882
 20
304.3617257781405
 30
0.0
 41
1.0
 42
1.0
 43
1.0
  0
LINE
  5
23A
330
61
100
AcDbEntity
  8
1
  6
PHANTOM
 62
     4
100
AcDbLine
 10
187.102407494006
 20
295.4659284573588
 30
0.0
 11
303.102407494006
 21
295.4659284573588
 31
0.0
  0
LINE
  5
23B
330
61
100
AcDbEntity
  8
1
  6
PHANTOM
 62
     4
100
AcDbLine
 10
463.2427295733145
 20
246.4659284573585
 30
0.0
 11
463.2427295733145
 21
307.617409450079
 31
0.0
  0
ARC
  5
23C
330
61
100
AcDbEntity
  8
1
  6
PHANTOM
 62
     4
100
AcDbCircle
 10
303.102407494006
 20
268.4659284573587
 30
0.0
 40
27.0
100
AcDbArc
 50
0.0
 51
90.0
  0
ARC
  5
23D
330
61
100
AcDbEntity
  8
1
  6
PHANTOM
 62
     4
100
AcDbCircle
 10
187.102407494006
 20
268.4659284573588
 30
0.0
 40
27.0
100
AcDbArc
 50
90.0
 51
180.0
  0
ENDBLK
  5
65
330
61
100
AcDbEntity
  8
0
100
AcDbBlockEnd
  0
BLOCK
  5
67
330
66
100
AcDbEntity
  8
0
100
AcDbBlockBegin
  2
42-29
 70
     0
 10
240.2762469188955
 20
501.9970761096863
 30
0.0
  3
42-29
  1

  0
LINE
  5
23E
330
66
100
AcDbEntity
  8
1
  6
Continuous
 62
     2
100
AcDbLine
 10
390.6637763384563
 20
558.3076338397301
 30
0.0
 11
392.3472736955024
 21
558.3076338397301
 31
0.0
  0
LINE
  5
23F
330
66
100
AcDbEntity
  8
1
  6
Continuous
 62
     7
100
AcDbLine
 10
392.4472736955024
 20
556.3076338397301
 30
0.0
 11
390.4396985175562
 21
556.3076338397301
 31
0.0
  0
LINE
  5
240
330
66
100
AcDbEntity
  8
1
  6
Continuous
 62
     2
100
AcDbLine
 10
390.4637763384563
 20
557.3076338397301
 30
0.0
 11
392.4472736955024
 21
557.3076338397301
 31
0.0
  0
LINE
  5
241
330
66
100
AcDbEntity
  8
1
  6
Continuous
 62
     2
100
AcDbLine
 10
390.7496827805335
 20
559.3076338318149
 30
0.0
 11
392.2360990431276
 21
559.3076338397301
 31
0.0
  0
LINE
  5
242
330
66
100
AcDbEntity
  8
1
  6
Continuous
 62
     7
100
AcDbLine
 10
390.4637763384563
 20
559.3076338397302
 30
0.0
 11
390.4637763384563
 21
556.3076338397301
 31
0.0
  0
LINE
  5
243
330
66
100
AcDbEntity
  8
1
  6
Continuous
 62
     2
100
AcDbLine
 10
392.2360990431276
 20
567.3076338397301
 30
0.0
 11
390.7496827805335
 21
567.3076338476454
 31
0.0
  0
LINE
  5
244
330
66
100
AcDbEntity
  8
1
  6
Continuous
 62
     7
100
AcDbLine
 10
392.4472736955025
 20
567.3076338397301
 30
0.0
 11
392.4472736955024
 21
570.3076338397301
 31
0.0
  0
LINE
  5
245
330
66
100
AcDbEntity
  8
1
  6
Continuous
 62
     2
100
AcDbLine
 10
392.4472736955024
 20
569.3076338397301
 30
0.0
 11
390.4637763384563
 21
569.3076338397301
 31
0.0
  0
LINE
  5
246
330
66
100
AcDbEntity
  8
1
  6
Continuous
 62
     7
100
AcDbLine
 10
390.4396985175562
 20
570.3076338397301
 30
0.0
 11
392.4472736955024
 21
570.3076338397301
 31
0.0
  0
LINE
  5
247
330
66
100
AcDbEntity
  8
1
  6
Continuous
 62
     2
100
AcDbLine
 10
392.3472736955024
 20
568.3076338397301
 30
0.0
 11
390.6637763384563
 21
568.3076338397301
 31
0.0
  0
LINE
  5
248
330
66
100
AcDbEntity
  8
1
  6
Continuous
 62
     7
100
AcDbLine
 10
392.4472736955024
 20
556.3076338397301
 30
0.0
 11
392.4472736955024
 21
559.3076338397302
 31
0.0
  0
LINE
  5
249
330
66
100
AcDbEntity
  8
1
  6
Continuous
 62
     7
100
AcDbLine
 10
390.4637763384563
 20
570.3076338397301
 30
0.0
 11
390.4637763384563
 21
567.3076338397301
 31
0.0
  0
LINE
  5
24A
330
66
100
AcDbEntity
  8
1
  6
Continuous
 62
     2
100
AcDbLine
 10
392.1151770705994
 20
230.9659284573585
 30
0.0
 11
390.9407111343164
 21
230.9659284573585
 31
0.0
  0
LINE
  5
24B
330
66
100
AcDbEntity
  8
1
  6
Continuous
 62
     2
100
AcDbLine
 10
391.1383282949783
 20
229.9659284573585
 30
0.0
 11
391.8988370609727
 21
229.9659284573585
 31
0.0
  0
LINE
  5
24C
330
66
100
AcDbEntity
  8
1
  6
Continuous
 62
     2
100
AcDbLine
 10
391.3258727350269
 20
228.9659284573585
 30
0.0
 11
391.7542207081576
 21
228.9659284573585
 31
0.0
  0
LINE
  5
24D
330
66
100
AcDbEntity
  8
1
  6
Continuous
 62
     2
100
AcDbLine
 10
392.0542207081576
 20
227.9659284573585
 30
0.0
 11
391.6258727350268
 21
227.9659284573585
 31
0.0
  0
LINE
  5
24E
330
66
100
AcDbEntity
  8
1
  6
Continuous
 62
     2
100
AcDbLine
 10
391.8988370609727
 20
225.9659284573585
 30
0.0
 11
391.1383282949783
 21
225.9659284573585
 31
0.0
  0
LINE
  5
24F
330
66
100
AcDbEntity
  8
1
  6
Continuous
 62
     2
100
AcDbLine
 10
391.7542207081576
 20
226.9659284573585
 30
0.0
 11
391.3258727350269
 21
226.9659284573585
 31
0.0
  0
LINE
  5
250
330
66
100
AcDbEntity
  8
1
  6
Continuous
 62
     7
100
AcDbLine
 10
390.4637763384563
 20
227.9659284573585
 30
0.0
 11
390.4637763384563
 21
223.9659284573586
 31
0.0
  0
LINE
  5
251
330
66
100
AcDbEntity
  8
1
  6
Continuous
 62
     7
100
AcDbLine
 10
392.4472736955024
 20
227.9659284573585
 30
0.0
 11
392.4472736955025
 21
231.9659284573585
 31
0.0
  0
LINE
  5
252
330
66
100
AcDbEntity
  8
1
  6
Continuous
 62
     7
100
AcDbLine
 10
390.4637763384563
 20
231.9659284573585
 30
0.0
 11
390.4637763384563
 21
227.9659284573585
 31
0.0
  0
LINE
  5
253
330
66
100
AcDbEntity
  8
1
  6
Continuous
 62
     7
100
AcDbLine
 10
392.4472736955024
 20
223.9659284573586
 30
0.0
 11
392.4472736955024
 21
227.9659284573585
 31
0.0
  0
LINE
  5
254
330
66
100
AcDbEntity
  8
1
  6
Continuous
 62
     2
100
AcDbLine
 10
390.9407111343164
 20
224.9659284573585
 30
0.0
 11
392.1151770705994
 21
224.9659284573585
 31
0.0
  0
LINE
  5
255
330
66
100
AcDbEntity
  8
1
  6
Continuous
 62
     7
100
AcDbLine
 10
390.4637763384563
 20
234.9659284573585
 30
0.0
 11
390.4637763384563
 21
231.9659284573585
 31
0.0
  0
LINE
  5
256
330
66
100
AcDbEntity
  8
1
  6
Continuous
 62
     7
100
AcDbLine
 10
392.4472736955024
 20
220.9659284573585
 30
0.0
 11
392.4472736955024
 21
223.9659284573586
 31
0.0
  0
LINE
  5
257
330
66
100
AcDbEntity
  8
1
  6
Continuous
 62
     2
100
AcDbLine
 10
392.3472736955024
 20
232.9659284573585
 30
0.0
 11
390.6637763384563
 21
232.9659284573585
 31
0.0
  0
LINE
  5
258
330
66
100
AcDbEntity
  8
1
  6
Continuous
 62
     7
100
AcDbLine
 10
390.4396985175562
 20
234.9659284573585
 30
0.0
 11
392.4472736955024
 21
234.9659284573585
 31
0.0
  0
LINE
  5
259
330
66
100
AcDbEntity
  8
1
  6
Continuous
 62
     2
100
AcDbLine
 10
392.4472736955024
 20
233.9659284573585
 30
0.0
 11
390.4637763384563
 21
233.9659284573585
 31
0.0
  0
LINE
  5
25A
330
66
100
AcDbEntity
  8
1
  6
Continuous
 62
     7
100
AcDbLine
 10
392.4472736955025
 20
231.9659284573585
 30
0.0
 11
392.4472736955024
 21
234.9659284573585
 31
0.0
  0
LINE
  5
25B
330
66
100
AcDbEntity
  8
1
  6
Continuous
 62
     2
100
AcDbLine
 10
392.2360990431276
 20
231.9659284573585
 30
0.0
 11
390.7496827805335
 21
231.9659284652738
 31
0.0
  0
LINE
  5
25C
330
66
100
AcDbEntity
  8
1
  6
Continuous
 62
     7
100
AcDbLine
 10
390.4637763384563
 20
223.9659284573586
 30
0.0
 11
390.4637763384563
 21
220.9659284573585
 31
0.0
  0
LINE
  5
25D
330
66
100
AcDbEntity
  8
1
  6
Continuous
 62
     2
100
AcDbLine
 10
390.7496827805335
 20
223.9659284494433
 30
0.0
 11
392.2360990431276
 21
223.9659284573585
 31
0.0
  0
LINE
  5
25E
330
66
100
AcDbEntity
  8
1
  6
Continuous
 62
     2
100
AcDbLine
 10
390.4637763384563
 20
221.9659284573585
 30
0.0
 11
392.4472736955024
 21
221.9659284573585
 31
0.0
  0
LINE
  5
25F
330
66
100
AcDbEntity
  8
1
  6
Continuous
 62
     7
100
AcDbLine
 10
392.4472736955024
 20
220.9659284573585
 30
0.0
 11
390.4396985175562
 21
220.9659284573585
 31
0.0
  0
LINE
  5
260
330
66
100
AcDbEntity
  8
1
  6
Continuous
 62
     2
100
AcDbLine
 10
390.6637763384563
 20
222.9659284573585
 30
0.0
 11
392.3472736955024
 21
222.9659284573585
 31
0.0
  0
ARC
  5
261
330
66
100
AcDbEntity
  8
0
  6
Continuous
 62
     7
100
AcDbCircle
 10
439.9472736955037
 20
563.3076338397301
 30
0.0
 40
50.00000000000124
100
AcDbArc
 50
171.9521537526887
 51
175.4114342642143
  0
ARC
  5
262
330
66
100
AcDbEntity
  8
0
  6
Continuous
 62
     7
100
AcDbCircle
 10
439.9472736955037
 20
563.3076338397301
 30
0.0
 40
50.00000000000137
100
AcDbArc
 50
184.5885657357856
 51
188.0478462473113
  0
ARC
  5
263
330
66
100
AcDbEntity
  8
0
  6
Continuous
 62
     7
100
AcDbCircle
 10
439.9472736955037
 20
227.9659284573585
 30
0.0
 40
50.00000000000126
100
AcDbArc
 50
175.4114342642143
 51
180.0
  0
ARC
  5
264
330
66
100
AcDbEntity
  8
0
  6
Continuous
 62
     7
100
AcDbCircle
 10
439.9472736955037
 20
227.9659284573585
 30
0.0
 40
50.00000000000131
100
AcDbArc
 50
180.0
 51
184.5885657357856
  0
ARC
  5
265
330
66
100
AcDbEntity
  8
0
  6
Continuous
 62
     7
100
AcDbCircle
 10
439.9472736955037
 20
227.9659284573585
 30
0.0
 40
50.00000000000137
100
AcDbArc
 50
184.5885657357856
 51
188.0478462473113
  0
ARC
  5
266
330
66
100
AcDbEntity
  8
0
  6
Continuous
 62
     7
100
AcDbCircle
 10
439.9472736955037
 20
227.9659284573585
 30
0.0
 40
50.00000000000124
100
AcDbArc
 50
171.9521537526887
 51
175.4114342642143
  0
CIRCLE
  5
267
330
66
100
AcDbEntity
  8
1
  6
Continuous
 62
     7
100
AcDbCircle
 10
160.1024074940053
 20
227.9659284573584
 30
0.0
 40
7.000000000000085
  0
ENDBLK
  5
68
330
66
100
AcDbEntity
  8
0
100
AcDbBlockEnd
  0
BLOCK
  5
28C
330
285
100
AcDbEntity
  8
0
100
AcDbBlockBegin
  2
*D11
 70
     1
 10
0.0
 20
0.0
 30
0.0
  3
*D11
  1

  0
LINE
  5
286
330
285
100
AcDbEntity
  8
1
  6
Continuous
 62
     2
100
AcDbLine
 10
330.102407494006
 20
179.9659284573588
 30
0.0
 11
160.102407494006
 21
179.9659284573588
 31
0.0
  0
LINE
  5
287
330
285
100
AcDbEntity
  8
1
  6
Continuous
 62
     2
100
AcDbLine
 10
330.102407494006
 20
259.4659284573587
 30
0.0
 11
330.102407494006
 21
177.4659284573588
 31
0.0
  0
LINE
  5
288
330
285
100
AcDbEntity
  8
1
  6
Continuous
 62
     2
100
AcDbLine
 10
160.102407494006
 20
210.9659284573588
 30
0.0
 11
160.102407494006
 21
177.4659284573588
 31
0.0
  0
SOLID
  5
289
330
285
100
AcDbEntity
  8
1
 62
     2
100
AcDbTrace
 10
321.352407494006
 20
178.8139691034691
 30
0.0
 11
321.352407494006
 21
181.1178878112485
 31
0.0
 12
330.102407494006
 22
179.9659284573588
 32
0.0
 13
330.102407494006
 23
179.9659284573588
 33
0.0
  0
SOLID
  5
28A
330
285
100
AcDbEntity
  8
1
 62
     2
100
AcDbTrace
 10
168.852407494006
 20
181.1178878112485
 30
0.0
 11
168.852407494006
 21
178.8139691034691
 31
0.0
 12
160.102407494006
 22
179.9659284573588
 32
0.0
 13
160.102407494006
 23
179.9659284573588
 33
0.0
  0
MTEXT
  5
28B
330
285
100
AcDbEntity
  8
1
 62
     7
100
AcDbMText
 10
235.914907494006
 20
182.4659284573588
 30
0.0
 40
8.75
 41
0.0
 71
     7
 72
     1
  1
170
  7
CONVERTER_12
 11
0.9999999999970619
 21
2.424068405545306E-6
 31
0.0
 73
     1
 44
0.60024009603842
  0
ENDBLK
  5
28D
330
285
100
AcDbEntity
  8
0
100
AcDbBlockEnd
  0
BLOCK
  5
297
330
290
100
AcDbEntity
  8
0
100
AcDbBlockBegin
  2
*D12
 70
     1
 10
0.0
 20
0.0
 30
0.0
  3
*D12
  1

  0
LINE
  5
291
330
290
100
AcDbEntity
  8
1
  6
Continuous
 62
     2
100
AcDbLine
 10
76.102407494006
 20
250.9659284573588
 30
0.0
 11
76.102407494006
 21
204.9659284573588
 31
0.0
  0
LINE
  5
292
330
290
100
AcDbEntity
  8
1
  6
Continuous
 62
     2
100
AcDbLine
 10
115.102407494006
 20
204.9659284573588
 30
0.0
 11
73.602407494006
 21
204.9659284573588
 31
0.0
  0
LINE
  5
293
330
290
100
AcDbEntity
  8
1
  6
Continuous
 62
     2
100
AcDbLine
 10
115.102407494006
 20
250.9659284573588
 30
0.0
 11
73.602407494006
 21
250.9659284573588
 31
0.0
  0
SOLID
  5
294
330
290
100
AcDbEntity
  8
1
 62
     2
100
AcDbTrace
 10
77.25436684789571
 20
242.2159284573588
 30
0.0
 11
74.9504481401163
 21
242.2159284573588
 31
0.0
 12
76.102407494006
 22
250.9659284573588
 32
0.0
 13
76.102407494006
 23
250.9659284573588
 33
0.0
  0
SOLID
  5
295
330
290
100
AcDbEntity
  8
1
 62
     2
100
AcDbTrace
 10
74.9504481401163
 20
213.7159284573588
 30
0.0
 11
77.25436684789571
 21
213.7159284573588
 31
0.0
 12
76.102407494006
 22
204.9659284573588
 32
0.0
 13
76.102407494006
 23
204.9659284573588
 33
0.0
  0
MTEXT
  5
296
330
290
100
AcDbEntity
  8
1
 62
     7
100
AcDbMText
 10
73.602407494006
 20
219.4784284573589
 30
0.0
 40
8.75
 41
0.0
 71
     7
 72
     1
  1
\C7;{\Fgdt;n}\C7;46
  7
CONVERTER_12
 11
0.0
 21
1.0
 31
0.0
 73
     1
 44
0.60024009603842
  0
ENDBLK
  5
298
330
290
100
AcDbEntity
  8
0
100
AcDbBlockEnd
  0
BLOCK
  5
2A2
330
29B
100
AcDbEntity
  8
0
100
AcDbBlockBegin
  2
*D13
 70
     1
 10
0.0
 20
0.0
 30
0.0
  3
*D13
  1

  0
LINE
  5
29C
330
29B
100
AcDbEntity
  8
1
  6
Continuous
 62
     2
100
AcDbLine
 10
160.102407494006
 20
179.9659284573588
 30
0.0
 11
115.102407494006
 21
179.9659284573588
 31
0.0
  0
LINE
  5
29D
330
29B
100
AcDbEntity
  8
1
  6
Continuous
 62
     2
100
AcDbLine
 10
160.102407494006
 20
210.9659284573588
 30
0.0
 11
160.102407494006
 21
177.4659284573588
 31
0.0
  0
LINE
  5
29E
330
29B
100
AcDbEntity
  8
1
  6
Continuous
 62
     2
100
AcDbLine
 10
115.102407494006
 20
204.9659284573588
 30
0.0
 11
115.102407494006
 21
177.4659284573588
 31
0.0
  0
SOLID
  5
29F
330
29B
100
AcDbEntity
  8
1
 62
     2
100
AcDbTrace
 10
151.352407494006
 20
178.8139691034691
 30
0.0
 11
151.352407494006
 21
181.1178878112485
 31
0.0
 12
160.102407494006
 22
179.9659284573588
 32
0.0
 13
160.102407494006
 23
179.9659284573588
 33
0.0
  0
SOLID
  5
2A0
330
29B
100
AcDbEntity
  8
1
 62
     2
100
AcDbTrace
 10
123.852407494006
 20
181.1178878112485
 30
0.0
 11
123.852407494006
 21
178.8139691034691
 31
0.0
 12
115.102407494006
 22
179.9659284573588
 32
0.0
 13
115.102407494006
 23
179.9659284573588
 33
0.0
  0
MTEXT
  5
2A1
330
29B
100
AcDbEntity
  8
1
 62
     7
100
AcDbMText
 10
131.039907494006
 20
182.4659284573588
 30
0.0
 40
8.75
 41
0.0
 71
     7
 72
     1
  1
45
  7
CONVERTER_12
 11
0.9999999999970619
 21
2.424068405545306E-6
 31
0.0
 73
     1
 44
0.60024009603842
  0
ENDBLK
  5
2A3
330
29B
100
AcDbEntity
  8
0
100
AcDbBlockEnd
  0
BLOCK
  5
2AD
330
2A6
100
AcDbEntity
  8
0
100
AcDbBlockBegin
  2
*D14
 70
     1
 10
0.0
 20
0.0
 30
0.0
  3
*D14
  1

  0
LINE
  5
2A7
330
2A6
100
AcDbEntity
  8
1
  6
Continuous
 62
     2
100
AcDbLine
 10
463.2427295733145
 20
179.9659284573588
 30
0.0
 11
373.2472736955025
 21
179.9659284573588
 31
0.0
  0
LINE
  5
2A8
330
2A6
100
AcDbEntity
  8
1
  6
Continuous
 62
     2
100
AcDbLine
 10
373.2472736955025
 20
288.9659284573585
 30
0.0
 11
373.2472736955025
 21
177.4659284573588
 31
0.0
  0
LINE
  5
2A9
330
2A6
100
AcDbEntity
  8
1
  6
Continuous
 62
     2
100
AcDbLine
 10
463.2427295733145
 20
201.9659284573586
 30
0.0
 11
463.2427295733145
 21
177.4659284573588
 31
0.0
  0
SOLID
  5
2AA
330
2A6
100
AcDbEntity
  8
1
 62
     2
100
AcDbTrace
 10
454.4927295733145
 20
178.8139691034691
 30
0.0
 11
454.4927295733145
 21
181.1178878112485
 31
0.0
 12
463.2427295733145
 22
179.9659284573588
 32
0.0
 13
463.2427295733145
 23
179.9659284573588
 33
0.0
  0
SOLID
  5
2AB
330
2A6
100
AcDbEntity
  8
1
 62
     2
100
AcDbTrace
 10
381.9972736955025
 20
181.1178878112485
 30
0.0
 11
381.9972736955025
 21
178.8139691034691
 31
0.0
 12
373.2472736955025
 22
179.9659284573588
 32
0.0
 13
373.2472736955025
 23
179.9659284573588
 33
0.0
  0
MTEXT
  5
2AC
330
2A6
100
AcDbEntity
  8
1
 62
     7
100
AcDbMText
 10
394.6200016344086
 20
182.4659284573588
 30
0.0
 40
8.75
 41
0.0
 71
     7
 72
     1
  1
90リフト3
  7
CONVERTER_11
 11
0.9999999999970619
 21
2.424068405545306E-6
 31
0.0
 73
     1
 44
0.45454545454545
  0
ENDBLK
  5
2AE
330
2A6
100
AcDbEntity
  8
0
100
AcDbBlockEnd
  0
BLOCK
  5
2B8
330
2B1
100
AcDbEntity
  8
0
100
AcDbBlockBegin
  2
*D15
 70
     1
 10
0.0
 20
0.0
 30
0.0
  3
*D15
  1

  0
LINE
  5
2B2
330
2B1
100
AcDbEntity
  8
1
  6
Continuous
 62
     2
100
AcDbLine
 10
358.2472736955025
 20
302.9659284573584
 30
0.0
 11
358.2472736955025
 21
227.9659284573584
 31
0.0
  0
LINE
  5
2B3
330
2B1
100
AcDbEntity
  8
1
  6
Continuous
 62
     2
100
AcDbLine
 10
387.2472736955024
 20
302.9659284573584
 30
0.0
 11
355.7472736955025
 21
302.9659284573584
 31
0.0
  0
LINE
  5
2B4
330
2B1
100
AcDbEntity
  8
1
  6
Continuous
 62
     2
100
AcDbLine
 10
389.9472736955023
 20
227.9659284573584
 30
0.0
 11
355.7472736955025
 21
227.9659284573584
 31
0.0
  0
SOLID
  5
2B5
330
2B1
100
AcDbEntity
  8
1
 62
     2
100
AcDbTrace
 10
359.3992330493922
 20
294.2159284573584
 30
0.0
 11
357.0953143416128
 21
294.2159284573584
 31
0.0
 12
358.2472736955025
 22
302.9659284573584
 32
0.0
 13
358.2472736955025
 23
302.9659284573584
 33
0.0
  0
SOLID
  5
2B6
330
2B1
100
AcDbEntity
  8
1
 62
     2
100
AcDbTrace
 10
357.0953143416128
 20
236.7159284573584
 30
0.0
 11
359.3992330493922
 21
236.7159284573584
 31
0.0
 12
358.2472736955025
 22
227.9659284573584
 32
0.0
 13
358.2472736955025
 23
227.9659284573584
 33
0.0
  0
MTEXT
  5
2B7
330
2B1
100
AcDbEntity
  8
1
 62
     7
100
AcDbMText
 10
355.7472736955025
 20
255.9034284573586
 30
0.0
 40
8.75
 41
0.0
 71
     7
 72
     1
  1
75
  7
CONVERTER_12
 11
0.0
 21
1.0
 31
0.0
 73
     1
 44
0.60024009603842
  0
ENDBLK
  5
2B9
330
2B1
100
AcDbEntity
  8
0
100
AcDbBlockEnd
  0
BLOCK
  5
2C3
330
2BC
100
AcDbEntity
  8
0
100
AcDbBlockBegin
  2
*D16
 70
     1
 10
0.0
 20
0.0
 30
0.0
  3
*D16
  1

  0
LINE
  5
2BD
330
2BC
100
AcDbEntity
  8
0
  6
Continuous
 62
     2
100
AcDbLine
 10
296.4524074940061
 20
227.9659284573582
 30
0.0
 11
296.4524074940061
 21
262.4659284573586
 31
0.0
  0
LINE
  5
2BE
330
2BC
100
AcDbEntity
  8
0
  6
Continuous
 62
     2
100
AcDbLine
 10
197.0428789922409
 20
227.9659284573582
 30
0.0
 11
298.9524074940061
 21
227.9659284573582
 31
0.0
  0
LINE
  5
2BF
330
2BC
100
AcDbEntity
  8
0
  6
Continuous
 62
     2
100
AcDbLine
 10
322.7160004880199
 20
262.4659284573586
 30
0.0
 11
293.9524074940061
 21
262.4659284573586
 31
0.0
  0
SOLID
  5
2C0
330
2BC
100
AcDbEntity
  8
0
 62
     2
100
AcDbTrace
 10
295.3004481401164
 20
236.7159284573582
 30
0.0
 11
297.6043668478958
 21
236.7159284573582
 31
0.0
 12
296.4524074940061
 22
227.9659284573582
 32
0.0
 13
296.4524074940061
 23
227.9659284573582
 33
0.0
  0
SOLID
  5
2C1
330
2BC
100
AcDbEntity
  8
0
 62
     2
100
AcDbTrace
 10
297.6043668478958
 20
253.7159284573586
 30
0.0
 11
295.3004481401164
 21
253.7159284573586
 31
0.0
 12
296.4524074940061
 22
262.4659284573586
 32
0.0
 13
296.4524074940061
 23
262.4659284573586
 33
0.0
  0
MTEXT
  5
2C2
330
2BC
100
AcDbEntity
  8
0
 62
     7
100
AcDbMText
 10
293.9524074940061
 20
238.6534284573586
 30
0.0
 40
8.75
 41
0.0
 71
     7
 72
     1
  1
35
  7
CONVERTER_12
 11
0.0
 21
1.0
 31
0.0
 73
     1
 44
0.60024009603842
  0
ENDBLK
  5
2C4
330
2BC
100
AcDbEntity
  8
0
100
AcDbBlockEnd
  0
BLOCK
  5
2CE
330
2C7
100
AcDbEntity
  8
0
100
AcDbBlockBegin
  2
*D17
 70
     1
 10
0.0
 20
0.0
 30
0.0
  3
*D17
  1

  0
LINE
  5
2C8
330
2C7
100
AcDbEntity
  8
0
  6
Continuous
 62
     2
100
AcDbLine
 10
276.4524074940061
 20
227.9659284573581
 30
0.0
 11
276.4524074940061
 21
295.4659284573588
 31
0.0
  0
LINE
  5
2C9
330
2C7
100
AcDbEntity
  8
0
  6
Continuous
 62
     2
100
AcDbLine
 10
197.0428789922408
 20
227.9659284573581
 30
0.0
 11
278.9524074940061
 21
227.9659284573581
 31
0.0
  0
LINE
  5
2CA
330
2C7
100
AcDbEntity
  8
0
  6
Continuous
 62
     2
100
AcDbLine
 10
303.102407494006
 20
295.4659284573588
 30
0.0
 11
273.9524074940061
 21
295.4659284573588
 31
0.0
  0
SOLID
  5
2CB
330
2C7
100
AcDbEntity
  8
0
 62
     2
100
AcDbTrace
 10
275.3004481401164
 20
236.7159284573581
 30
0.0
 11
277.6043668478958
 21
236.7159284573581
 31
0.0
 12
276.4524074940061
 22
227.9659284573581
 32
0.0
 13
276.4524074940061
 23
227.9659284573581
 33
0.0
  0
SOLID
  5
2CC
330
2C7
100
AcDbEntity
  8
0
 62
     2
100
AcDbTrace
 10
277.6043668478958
 20
286.7159284573588
 30
0.0
 11
275.3004481401164
 21
286.7159284573588
 31
0.0
 12
276.4524074940061
 22
295.4659284573588
 32
0.0
 13
276.4524074940061
 23
295.4659284573588
 33
0.0
  0
MTEXT
  5
2CD
330
2C7
100
AcDbEntity
  8
0
 62
     7
100
AcDbMText
 10
273.9524074940061
 20
255.1534284573586
 30
0.0
 40
8.75
 41
0.0
 71
     7
 72
     1
  1
68
  7
CONVERTER_12
 11
0.0
 21
1.0
 31
0.0
 73
     1
 44
0.60024009603842
  0
ENDBLK
  5
2CF
330
2C7
100
AcDbEntity
  8
0
100
AcDbBlockEnd
  0
BLOCK
  5
2D9
330
2D2
100
AcDbEntity
  8
0
100
AcDbBlockBegin
  2
*D18
 70
     1
 10
0.0
 20
0.0
 30
0.0
  3
*D18
  1

  0
LINE
  5
2D3
330
2D2
100
AcDbEntity
  8
1
  6
Continuous
 62
     2
100
AcDbLine
 10
101.102407494006
 20
179.9659284573588
 30
0.0
 11
115.102407494006
 21
179.9659284573588
 31
0.0
  0
LINE
  5
2D4
330
2D2
100
AcDbEntity
  8
1
  6
Continuous
 62
     2
100
AcDbLine
 10
81.8519658335851
 20
179.9659284573588
 30
0.0
 11
101.102407494006
 21
179.9659284573588
 31
0.0
  0
LINE
  5
2D5
330
2D2
100
AcDbEntity
  8
1
  6
Continuous
 62
     2
100
AcDbLine
 10
101.102407494006
 20
218.4659284573587
 30
0.0
 11
101.102407494006
 21
177.4659284573588
 31
0.0
  0
LINE
  5
2D6
330
2D2
100
AcDbEntity
  8
1
  6
Continuous
 62
     2
100
AcDbLine
 10
115.102407494006
 20
204.9659284573588
 30
0.0
 11
115.102407494006
 21
177.4659284573588
 31
0.0
  0
SOLID
  5
2D7
330
2D2
100
AcDbEntity
  8
1
 62
     2
100
AcDbTrace
 10
92.352407494006
 20
178.8139691034691
 30
0.0
 11
92.352407494006
 21
181.1178878112485
 31
0.0
 12
101.102407494006
 22
179.9659284573588
 32
0.0
 13
101.102407494006
 23
179.9659284573588
 33
0.0
  0
MTEXT
  5
2D8
330
2D2
100
AcDbEntity
  8
1
 62
     7
100
AcDbMText
 10
81.8519658335851
 20
182.4659284573588
 30
0.0
 40
8.75
 41
0.0
 71
     7
 72
     1
  1
14
  7
CONVERTER_12
 11
0.9999999999970619
 21
2.424068405545306E-6
 31
0.0
 73
     1
 44
0.60024009603842
  0
ENDBLK
  5
2DA
330
2D2
100
AcDbEntity
  8
0
100
AcDbBlockEnd
  0
BLOCK
  5
2DC
330
2DB
100
AcDbEntity
  8
0
100
AcDbBlockBegin
  2
_NONE
 70
     0
 10
0.0
 20
0.0
 30
0.0
  3
_NONE
  1

  0
ENDBLK
  5
2DD
330
2DB
100
AcDbEntity
  8
0
100
AcDbBlockEnd
  0
ENDSEC
  0
SECTION
  2
ENTITIES
  0
INSERT
  5
69
330
1F
100
AcDbEntity
  8
1
100
AcDbBlockReference
  2
27-2A-M1
 10
-103.3403318129679
 20
474.835792414527
 30
0.0
 41
1.0
 42
1.0
 43
1.0
  0
INSERT
  5
6A
330
1F
100
AcDbEntity
  8
1
100
AcDbBlockReference
  2
U360LS-13
 10
75.65966818703207
 20
572.7428428916229
 30
0.0
 41
1.0
 42
1.0
 43
1.0
  0
INSERT
  5
6B
330
1F
100
AcDbEntity
  8
1
100
AcDbBlockReference
  2
A231L-0-13-M1
 10
430.2427295733144
 20
204.9659284573584
 30
0.0
 41
1.0
 42
1.0
 43
1.0
  0
INSERT
  5
6C
330
1F
100
AcDbEntity
  8
1
100
AcDbBlockReference
  2
開示A4
 10
0.0
 20
0.0
 30
0.0
 41
2.5
 42
2.5
 43
2.5
  0
INSERT
  5
6D
330
1F
100
AcDbEntity
  8
1
100
AcDbBlockReference
  2
61-1X-16-170
 10
506.1342068984167
 20
245.4659284573585
 30
0.0
 41
1.0
 42
1.0
 43
1.0
  0
INSERT
  5
6E
330
1F
100
AcDbEntity
  8
1
100
AcDbBlockReference
  2
42-29
 10
240.2762469188955
 20
501.9970761096862
 30
0.0
 41
1.0
 42
1.0
 43
1.0
  0
LINE
  5
268
330
1F
100
AcDbEntity
  8
1
  6
DASH_CENTER
 62
     2
100
AcDbLine
 10
160.1024074940066
 20
305.9659284573584
 30
0.0
 11
160.1024074940066
 21
270.6012444207953
 31
0.0
  0
LINE
  5
269
330
1F
100
AcDbEntity
  8
1
  6
DASH_CENTER
 62
     2
100
AcDbLine
 10
152.1024074940066
 20
288.9659284573584
 30
0.0
 11
168.1024074940066
 21
288.9659284573584
 31
0.0
  0
LINE
  5
26A
330
1F
100
AcDbEntity
  8
1
  6
DASH_CENTER
 62
     2
100
AcDbLine
 10
365.7472736955025
 20
288.9659284573585
 30
0.0
 11
408.7472736955025
 21
288.9659284573585
 31
0.0
  0
LINE
  5
26B
330
1F
100
AcDbEntity
  8
1
  6
DASH_CENTER
 62
     2
100
AcDbLine
 10
387.2472736955025
 20
310.4659284573585
 30
0.0
 11
387.2472736955025
 21
268.7375806569615
 31
0.0
  0
LINE
  5
26C
330
1F
100
AcDbEntity
  8
1
  6
DASH_CENTER
 62
     2
100
AcDbLine
 10
463.2427295733145
 20
381.3314365741755
 30
0.0
 11
463.2427295733145
 21
628.0312514382845
 31
0.0
  0
LINE
  5
26D
330
1F
100
AcDbEntity
  8
1
  6
DASH_CENTER
 62
     2
100
AcDbLine
 10
160.102407494006
 20
268.4659284573587
 30
0.0
 11
160.102407494006
 21
210.9659284573588
 31
0.0
  0
LINE
  5
26E
330
1F
100
AcDbEntity
  8
1
  6
DASH_CENTER
 62
     2
100
AcDbLine
 10
463.2427295733145
 20
201.9659284573586
 30
0.0
 11
463.2427295733145
 21
246.4659284573585
 31
0.0
  0
LINE
  5
26F
330
1F
100
AcDbEntity
  8
0
  6
DASH_CENTER
 62
     2
100
AcDbLine
 10
489.2427295733145
 20
227.9659284573585
 30
0.0
 11
389.9472736955024
 21
227.9659284573585
 31
0.0
  0
LINE
  5
270
330
1F
100
AcDbEntity
  8
1
  6
DASH_CENTER
 62
     2
100
AcDbLine
 10
370.2472736955024
 20
563.3076338397302
 30
0.0
 11
482.9022168233007
 21
563.3076338397302
 31
0.0
  0
LINE
  5
271
330
1F
100
AcDbEntity
  8
1
  6
DASH_CENTER
 62
     2
100
AcDbLine
 10
451.8685073794525
 20
393.30763383973
 30
0.0
 11
474.2206807855354
 21
393.30763383973
 31
0.0
  0
LINE
  5
272
330
1F
100
AcDbEntity
  8
1
  6
DASH_CENTER
 62
     2
100
AcDbLine
 10
452.3500135648869
 20
295.4659284573588
 30
0.0
 11
473.7559499826735
 21
295.4659284573588
 31
0.0
  0
LINE
  5
273
330
1F
100
AcDbEntity
  8
1
  6
DASH_CENTER
 62
     2
100
AcDbLine
 10
463.2427295733145
 20
246.4659284573585
 30
0.0
 11
463.2427295733145
 21
307.617409450079
 31
0.0
  0
LINE
  5
274
330
1F
100
AcDbEntity
  8
1
  6
DASH_CENTER
 62
     2
100
AcDbLine
 10
187.102407494006
 20
295.4659284573588
 30
0.0
 11
303.102407494006
 21
295.4659284573588
 31
0.0
  0
LINE
  5
275
330
1F
100
AcDbEntity
  8
1
  6
DASH_CENTER
 62
     2
100
AcDbLine
 10
330.102407494006
 20
268.4659284573587
 30
0.0
 11
330.102407494006
 21
259.4659284573587
 31
0.0
  0
LINE
  5
276
330
1F
100
AcDbEntity
  8
1
  6
DASH_CENTER
 62
     2
100
AcDbLine
 10
197.0428789922409
 20
227.9659284573582
 30
0.0
 11
182.1024074940053
 21
227.9659284573583
 31
0.0
  0
LINE
  5
277
330
1F
100
AcDbEntity
  8
1
  6
DASH_CENTER
 62
     2
100
AcDbLine
 10
93.60240749400602
 20
227.9659284573589
 30
0.0
 11
182.1024074940053
 21
227.9659284573583
 31
0.0
  0
ARC
  5
278
330
1F
100
AcDbEntity
  8
1
  6
DASH_CENTER
 62
     2
100
AcDbCircle
 10
187.102407494006
 20
268.4659284573588
 30
0.0
 40
27.0
100
AcDbArc
 50
90.0
 51
180.0000000000002
  0
ARC
  5
279
330
1F
100
AcDbEntity
  8
1
  6
DASH_CENTER
 62
     2
100
AcDbCircle
 10
303.102407494006
 20
268.4659284573587
 30
0.0
 40
27.0
100
AcDbArc
 50
0.0
 51
90.0
  0
SOLID
  5
27A
330
1F
100
AcDbEntity
  8
1
 62
     2
100
AcDbTrace
 10
447.3701035087184
 20
621.8093764458985
 30
0.0
 11
449.3653556379095
 21
622.9613357997882
 31
0.0
 12
452.742729573314
 22
614.8076338397295
 32
0.0
 13
452.742729573314
 23
614.8076338397295
 33
0.0
  0
LEADER
  5
27B
330
1F
100
AcDbEntity
  8
1
  6
Continuous
 62
     2
100
AcDbLeader
  3
Standard
 71
     0
 76
     3
 10
452.742729573314
 20
614.8076338397295
 30
0.0
 10
440.2081392514005
 20
636.5181811293448
 30
0.0
 10
405.126535092297
 20
636.5181811293448
 30
0.0
  0
MTEXT
  5
27D
330
1F
100
AcDbEntity
  8
0
 62
     7
100
AcDbMText
 10
85.0
 20
93.75
 30
0.0
 40
8.75
 41
0.0
 71
     4
 72
     1
  1
JIS
  7
CONVERTER_12
 73
     1
 44
1.32052821128451
  0
MTEXT
  5
27E
330
1F
100
AcDbEntity
  8
0
 62
     7
100
AcDbMText
 10
142.5
 20
35.625
 30
0.0
 40
8.75
 41
0.0
 71
     5
 72
     1
  1
A2310L-13
  7
CONVERTER_12
 73
     1
 44
1.32052821128451
  0
MTEXT
  5
27F
330
1F
100
AcDbEntity
  8
1
 62
     7
100
AcDbMText
 10
213.125
 20
42.5
 30
0.0
 40
8.75
 41
0.0
 71
     5
 72
     1
  1
1
  7
CONVERTER_12
 73
     1
 44
0.7202881152461
  0
MTEXT
  5
280
330
1F
100
AcDbEntity
  8
1
 62
     7
100
AcDbMText
 10
234.375
 20
42.5
 30
0.0
 40
8.75
 41
0.0
 71
     5
 72
     1
  1
2,5
  7
CONVERTER_12
 73
     1
 44
0.7202881152461
  0
MTEXT
  5
281
330
1F
100
AcDbEntity
  8
1
 62
     7
100
AcDbMText
 10
422.8680022466721
 20
644.018181129345
 30
0.0
 40
8.75
 41
0.0
 71
     5
 72
     1
  1
PJ1/2
  7
CONVERTER_12
 73
     1
 44
0.7202881152461
  0
MTEXT
  5
282
330
1F
100
AcDbEntity
  8
1
 62
     7
100
AcDbMText
 10
142.5
 20
61.87500000000003
 30
0.0
 40
8.75
 41
0.0
 71
     5
 72
     1
  1
厨房用横形自在水栓
  7
CONVERTER_11
 73
     1
 44
0.54545454545455
  0
MTEXT
  5
283
330
1F
100
AcDbEntity
  8
1
 62
     7
100
AcDbMText
 10
142.5
 20
51.87500000000003
 30
0.0
 40
8.75
 41
0.0
 71
     5
 72
     1
  1
(左ハンドル)
  7
CONVERTER_11
 73
     1
 44
0.54545454545455
  0
MTEXT
  5
284
330
1F
100
AcDbEntity
  8
0
 62
     7
100
AcDbMText
 10
85.0
 20
76.25000000000003
 30
0.0
 40
8.75
 41
0.0
 71
     4
 72
     1
  1
共用形
  7
CONVERTER_11
 73
     1
 44
1.0
  0
DIMENSION
  5
28F
330
1F
100
AcDbEntity
  8
1
100
AcDbDimension
  2
*D11
 10
330.102407494006
 20
179.9659284573588
 30
0.0
 11
245.102407494006
 21
186.8409284573588
 31
0.0
 70
    32
  1
<>
 71
     5
 42
-1.0
 53
0.00013888888889
  3
ME10_DIM_10
100
AcDbAlignedDimension
 13
160.102407494006
 23
210.9659284573588
 33
0.0
 14
330.102407494006
 24
259.4659284573587
 34
0.0
100
AcDbRotatedDimension
  0
DIMENSION
  5
29A
330
1F
100
AcDbEntity
  8
1
100
AcDbDimension
  2
*D12
 10
76.102407494006
 20
250.9659284573588
 30
0.0
 11
69.227407494006
 21
227.9659284573589
 31
0.0
 70
    32
  1
<>
 71
     5
 42
-1.0
 53
90.0
  3
ME10_DIM_11
100
AcDbAlignedDimension
 13
115.102407494006
 23
204.9659284573588
 33
0.0
 14
115.102407494006
 24
250.9659284573586
 34
0.0
 50
90.0
100
AcDbRotatedDimension
  0
DIMENSION
  5
2A5
330
1F
100
AcDbEntity
  8
1
100
AcDbDimension
  2
*D13
 10
160.102407494006
 20
179.9659284573588
 30
0.0
 11
137.602407494006
 21
186.8409284573588
 31
0.0
 70
    32
  1
<>
 71
     5
 42
-1.0
 53
0.00013888888889
  3
ME10_DIM_12
100
AcDbAlignedDimension
 13
115.102407494006
 23
204.9659284573588
 33
0.0
 14
160.102407494006
 24
210.9659284573588
 34
0.0
100
AcDbRotatedDimension
  0
DIMENSION
  5
2B0
330
1F
100
AcDbEntity
  8
1
100
AcDbDimension
  2
*D14
 10
463.2427295733145
 20
179.9659284573588
 30
0.0
 11
418.2450016344086
 21
186.8409284573588
 31
0.0
 70
    32
  1
90リフト3
 71
     5
 42
-1.0
 53
0.00013888888889
  3
ME10_DIM_13
100
AcDbAlignedDimension
 13
373.2472736955024
 23
288.9659284573584
 33
0.0
 14
463.2427295733145
 24
201.9659284573586
 34
0.0
100
AcDbRotatedDimension
  0
DIMENSION
  5
2BB
330
1F
100
AcDbEntity
  8
1
100
AcDbDimension
  2
*D15
 10
358.2472736955025
 20
302.9659284573584
 30
0.0
 11
351.3722736955025
 21
262.4659284573586
 31
0.0
 70
    32
  1
<>
 71
     5
 42
-1.0
 53
90.0
  3
ME10_DIM_14
100
AcDbAlignedDimension
 13
389.9472736955024
 23
227.9659284573584
 33
0.0
 14
387.2472736955024
 24
302.9659284573584
 34
0.0
 50
90.0
100
AcDbRotatedDimension
  0
DIMENSION
  5
2C6
330
1F
100
AcDbEntity
  8
0
100
AcDbDimension
  2
*D16
 10
296.4524074940061
 20
227.9659284573582
 30
0.0
 11
289.5774074940061
 21
245.2159284573586
 31
0.0
 70
    32
  1
35
 71
     5
 42
-1.0
 53
90.0
  3
ME10_DIM_15
100
AcDbAlignedDimension
 13
322.7160004880198
 23
262.4659284573586
 33
0.0
 14
197.0428789922409
 24
227.9659284573582
 34
0.0
 50
90.0
100
AcDbRotatedDimension
  0
DIMENSION
  5
2D1
330
1F
100
AcDbEntity
  8
0
100
AcDbDimension
  2
*D17
 10
276.4524074940061
 20
227.9659284573581
 30
0.0
 11
269.5774074940061
 21
261.7159284573586
 31
0.0
 70
    32
  1
68
 71
     5
 42
-1.0
 53
90.0
  3
ME10_DIM_16
100
AcDbAlignedDimension
 13
303.1024074940059
 23
295.4659284573588
 33
0.0
 14
197.0428789922409
 24
227.9659284573582
 34
0.0
 50
90.0
100
AcDbRotatedDimension
  0
DIMENSION
  5
2DF
330
1F
100
AcDbEntity
  8
1
100
AcDbDimension
  2
*D18
 10
101.102407494006
 20
179.9659284573588
 30
0.0
 11
87.1019658335851
 21
186.8409284573588
 31
0.0
 70
    32
  1
<>
 71
     5
 42
-1.0
 53
0.00013888888889
  3
ME10_DIM_17
100
AcDbAlignedDimension
 13
115.102407494006
 23
204.9659284573588
 33
0.0
 14
101.102407494006
 24
218.4659284573586
 34
0.0
100
AcDbRotatedDimension
  0
ENDSEC
  0
SECTION
  2
OBJECTS
  0
DICTIONARY
  5
C
330
0
100
AcDbDictionary
281
     1
  3
ACAD_GROUP
350
D
  3
ACAD_LAYOUT
350
1A
  3
ACAD_MATERIAL
350
3B
  3
ACAD_MLEADERSTYLE
350
2E2
  3
ACAD_MLINESTYLE
350
17
  3
ACAD_PLOTSETTINGS
350
19
  3
ACAD_PLOTSTYLENAME
350
E
  3
ACAD_VISUALSTYLE
350
2A
  3
AcDbVariableDictionary
350
2E0
  0
DICTIONARY
  5
D
102
{ACAD_REACTORS
330
C
102
}
330
C
100
AcDbDictionary
281
     1
  0
DICTIONARY
  5
1A
102
{ACAD_REACTORS
330
C
102
}
330
C
100
AcDbDictionary
281
     1
  3
Layout1
350
1E
  3
Layout2
350
26
  3
Model
350
22
  0
DICTIONARY
  5
3B
102
{ACAD_REACTORS
330
C
102
}
330
C
100
AcDbDictionary
281
     1
  3
ByBlock
350
3D
  3
ByLayer
350
3C
  3
Global
350
3E
  0
DICTIONARY
  5
2E2
102
{ACAD_REACTORS
330
C
102
}
330
C
100
AcDbDictionary
281
     1
  0
DICTIONARY
  5
17
102
{ACAD_REACTORS
330
C
102
}
330
C
100
AcDbDictionary
281
     1
  3
Standard
350
18
  0
DICTIONARY
  5
19
102
{ACAD_REACTORS
330
C
102
}
330
C
100
AcDbDictionary
281
     1
  0
ACDBDICTIONARYWDFLT
  5
E
102
{ACAD_REACTORS
330
C
102
}
330
C
100
AcDbDictionary
281
     1
  3
Normal
350
F
100
AcDbDictionaryWithDefault
340
F
  0
DICTIONARY
  5
2A
102
{ACAD_REACTORS
330
C
102
}
330
C
100
AcDbDictionary
281
     1
  3
2dWireframe
350
2F
  3
3D Hidden
350
31
  3
3dWireframe
350
30
  3
Basic
350
32
  3
Brighten
350
36
  3
ColorChange
350
3A
  3
Conceptual
350
34
  3
Dim
350
35
  3
Facepattern
350
39
  3
Flat
350
2B
  3
FlatWithEdges
350
2C
  3
Gouraud
350
2D
  3
GouraudWithEdges
350
2E
  3
Linepattern
350
38
  3
Realistic
350
33
  3
Thicken
350
37
  0
DICTIONARY
  5
2E0
102
{ACAD_REACTORS
330
C
102
}
330
C
100
AcDbDictionary
281
     1
  3
DIMASSOC
350
2E3
  3
HIDETEXT
350
2E4
  0
LAYOUT
  5
1E
102
{ACAD_REACTORS
330
1A
102
}
330
1A
100
AcDbPlotSettings
  1

  2
none_device
  4

  6

 40
0.0
 41
0.0
 42
0.0
 43
0.0
 44
0.0
 45
0.0
 46
0.0
 47
0.0
 48
0.0
 49
0.0
140
0.0
141
0.0
142
1.0
143
1.0
 70
   688
 72
     0
 73
     0
 74
     5
  7

 75
    16
147
1.0
148
0.0
149
0.0
100
AcDbLayout
  1
Layout1
 70
     1
 71
     1
 10
0.0
 20
0.0
 11
12.0
 21
9.0
 12
0.0
 22
0.0
 32
0.0
 14
1.00000000000000E+20
 24
1.00000000000000E+20
 34
1.00000000000000E+20
 15
-1.00000000000000E+20
 25
-1.00000000000000E+20
 35
-1.00000000000000E+20
146
0.0
 13
0.0
 23
0.0
 33
0.0
 16
1.0
 26
0.0
 36
0.0
 17
0.0
 27
1.0
 37
0.0
 76
     0
330
1B
  0
LAYOUT
  5
26
102
{ACAD_REACTORS
330
1A
102
}
330
1A
100
AcDbPlotSettings
  1

  2
none_device
  4

  6

 40
0.0
 41
0.0
 42
0.0
 43
0.0
 44
0.0
 45
0.0
 46
0.0
 47
0.0
 48
0.0
 49
0.0
140
0.0
141
0.0
142
1.0
143
1.0
 70
   688
 72
     0
 73
     0
 74
     5
  7

 75
    16
147
1.0
148
0.0
149
0.0
100
AcDbLayout
  1
Layout2
 70
     1
 71
     2
 10
0.0
 20
0.0
 11
0.0
 21
0.0
 12
0.0
 22
0.0
 32
0.0
 14
0.0
 24
0.0
 34
0.0
 15
0.0
 25
0.0
 35
0.0
146
0.0
 13
0.0
 23
0.0
 33
0.0
 16
1.0
 26
0.0
 36
0.0
 17
0.0
 27
1.0
 37
0.0
 76
     0
330
23
  0
LAYOUT
  5
22
102
{ACAD_REACTORS
330
1A
102
}
330
1A
100
AcDbPlotSettings
  1

  2
none_device
  4

  6

 40
0.0
 41
0.0
 42
0.0
 43
0.0
 44
0.0
 45
0.0
 46
0.0
 47
0.0
 48
0.0
 49
0.0
140
0.0
141
0.0
142
1.0
143
1.0
 70
  1712
 72
     0
 73
     0
 74
     0
  7

 75
     0
147
1.0
148
0.0
149
0.0
100
AcDbLayout
  1
Model
 70
     1
 71
     0
 10
0.0
 20
0.0
 11
12.0
 21
9.0
 12
0.0
 22
0.0
 32
0.0
 14
0.0
 24
0.0
 34
0.0
 15
525.0
 25
742.5
 35
0.0
146
0.0
 13
0.0
 23
0.0
 33
0.0
 16
1.0
 26
0.0
 36
0.0
 17
0.0
 27
1.0
 37
0.0
 76
     0
330
1F
331
29
  0
MATERIAL
  5
3D
102
{ACAD_REACTORS
330
3B
102
}
102
{ACAD_XDICTIONARY
360
307
102
}
330
3B
100
AcDbMaterial
  1
ByBlock
  0
MATERIAL
  5
3C
102
{ACAD_REACTORS
330
3B
102
}
102
{ACAD_XDICTIONARY
360
305
102
}
330
3B
100
AcDbMaterial
  1
ByLayer
  0
MATERIAL
  5
3E
102
{ACAD_REACTORS
330
3B
102
}
102
{ACAD_XDICTIONARY
360
309
102
}
330
3B
100
AcDbMaterial
  1
Global
  0
MLINESTYLE
  5
18
102
{ACAD_REACTORS
330
17
102
}
330
17
100
AcDbMlineStyle
  2
Standard
 70
     0
  3

 62
   256
 51
90.0
 52
90.0
 71
     2
 49
0.5
 62
   256
  6
BYLAYER
 49
-0.5
 62
   256
  6
BYLAYER
  0
ACDBPLACEHOLDER
  5
F
102
{ACAD_REACTORS
330
E
102
}
330
E
  0
VISUALSTYLE
  5
2F
102
{ACAD_REACTORS
330
2A
102
}
102
{ACAD_XDICTIONARY
360
2ED
102
}
330
2A
100
AcDbVisualStyle
  2
2dWireframe
 70
     4
 71
     0
 72
     2
 73
     0
 90
        0
 40
-0.6
 41
-30.0
 62
     5
 63
     7
 74
     1
 91
        4
 64
     7
 65
   257
 75
     1
175
     1
 42
1.0
 92
        0
 66
   257
 43
1.0
 76
     1
 77
     6
 78
     2
 67
     7
 79
     5
170
     0
171
     0
290
     0
174
     0
 93
        1
 44
0.0
173
     0
291
     0
 45
0.0
1001
ACAD
1000
AcDbSavedByObjectVersion
1070
     0
  0
VISUALSTYLE
  5
31
102
{ACAD_REACTORS
330
2A
102
}
102
{ACAD_XDICTIONARY
360
2F1
102
}
330
2A
100
AcDbVisualStyle
  2
3D Hidden
 70
     6
 71
     1
 72
     2
 73
     2
 90
        0
 40
-0.6
 41
-30.0
 62
     5
 63
     7
 74
     2
 91
        2
 64
     7
 65
   257
 75
     2
175
     1
 42
40.0
 92
        0
 66
   257
 43
1.0
 76
     1
 77
     6
 78
     2
 67
     7
 79
     3
170
     0
171
     0
290
     0
174
     0
 93
        1
 44
0.0
173
     0
291
     0
 45
0.0
1001
ACAD
1000
AcDbSavedByObjectVersion
1070
     0
  0
VISUALSTYLE
  5
30
102
{ACAD_REACTORS
330
2A
102
}
102
{ACAD_XDICTIONARY
360
2EF
102
}
330
2A
100
AcDbVisualStyle
  2
3dWireframe
 70
     5
 71
     0
 72
     2
 73
     0
 90
        0
 40
-0.6
 41
-30.0
 62
     5
 63
     7
 74
     1
 91
        4
 64
     7
 65
   257
 75
     1
175
     1
 42
1.0
 92
        0
 66
   257
 43
1.0
 76
     1
 77
     6
 78
     2
 67
     7
 79
     5
170
     0
171
     0
290
     0
174
     0
 93
        1
 44
0.0
173
     0
291
     0
 45
0.0
1001
ACAD
1000
AcDbSavedByObjectVersion
1070
     0
  0
VISUALSTYLE
  5
32
102
{ACAD_REACTORS
330
2A
102
}
102
{ACAD_XDICTIONARY
360
2F3
102
}
330
2A
100
AcDbVisualStyle
  2
Basic
 70
     7
 71
     1
 72
     0
 73
     1
 90
        0
 40
-0.6
 41
-30.0
 62
     5
 63
     7
 74
     0
 91
        4
 64
     7
 65
   257
 75
     1
175
     1
 42
1.0
 92
        8
 66
     7
 43
1.0
 76
     1
 77
     6
 78
     2
 67
     7
 79
     5
170
     0
171
     0
290
     0
174
     0
 93
        1
 44
0.0
173
     0
291
     1
 45
0.0
1001
ACAD
1000
AcDbSavedByObjectVersion
1070
     0
  0
VISUALSTYLE
  5
36
102
{ACAD_REACTORS
330
2A
102
}
102
{ACAD_XDICTIONARY
360
2FB
102
}
330
2A
100
AcDbVisualStyle
  2
Brighten
 70
    12
 71
     2
 72
     2
 73
     0
 90
        0
 40
-0.6
 41
-30.0
 62
     5
 63
     7
 74
     1
 91
        4
 64
     7
 65
   257
 75
     1
175
     1
 42
1.0
 92
        8
 66
     7
 43
1.0
 76
     1
 77
     6
 78
     2
 67
     7
 79
     5
170
     0
171
     0
290
     0
174
     0
 93
        1
 44
50.0
173
     0
291
     1
 45
0.0
1001
ACAD
1000
AcDbSavedByObjectVersion
1070
     0
  0
VISUALSTYLE
  5
3A
102
{ACAD_REACTORS
330
2A
102
}
102
{ACAD_XDICTIONARY
360
303
102
}
330
2A
100
AcDbVisualStyle
  2
ColorChange
 70
    16
 71
     2
 72
     2
 73
     3
 90
        0
 40
-0.6
 41
-30.0
 62
     5
 63
     8
 74
     1
 91
        4
 64
     7
 65
   257
 75
     1
175
     1
 42
1.0
 92
        8
 66
     8
 43
1.0
 76
     1
 77
     6
 78
     2
 67
     7
 79
     5
170
     0
171
     0
290
     0
174
     0
 93
        1
 44
0.0
173
     0
291
     1
 45
0.0
1001
ACAD
1000
AcDbSavedByObjectVersion
1070
     0
  0
VISUALSTYLE
  5
34
102
{ACAD_REACTORS
330
2A
102
}
102
{ACAD_XDICTIONARY
360
2F7
102
}
330
2A
100
AcDbVisualStyle
  2
Conceptual
 70
     9
 71
     3
 72
     2
 73
     0
 90
        0
 40
-0.6
 41
-30.0
 62
     5
 63
     7
 74
     2
 91
        2
 64
     7
 65
   257
 75
     1
175
     1
 42
40.0
 92
        8
 66
     7
 43
1.0
 76
     1
 77
     6
 78
     2
 67
     7
 79
     3
170
     0
171
     0
290
     0
174
     0
 93
        1
 44
0.0
173
     0
291
     0
 45
0.0
1001
ACAD
1000
AcDbSavedByObjectVersion
1070
     0
  0
VISUALSTYLE
  5
35
102
{ACAD_REACTORS
330
2A
102
}
102
{ACAD_XDICTIONARY
360
2F9
102
}
330
2A
100
AcDbVisualStyle
  2
Dim
 70
    11
 71
     2
 72
     2
 73
     0
 90
        0
 40
-0.6
 41
-30.0
 62
     5
 63
     7
 74
     1
 91
        4
 64
     7
 65
   257
 75
     1
175
     1
 42
1.0
 92
        8
 66
     7
 43
1.0
 76
     1
 77
     6
 78
     2
 67
     7
 79
     5
170
     0
171
     0
290
     0
174
     0
 93
        1
 44
-50.0
173
     0
291
     1
 45
0.0
1001
ACAD
1000
AcDbSavedByObjectVersion
1070
     0
  0
VISUALSTYLE
  5
39
102
{ACAD_REACTORS
330
2A
102
}
102
{ACAD_XDICTIONARY
360
301
102
}
330
2A
100
AcDbVisualStyle
  2
Facepattern
 70
    15
 71
     2
 72
     2
 73
     0
 90
        0
 40
-0.6
 41
-30.0
 62
     5
 63
     7
 74
     1
 91
        4
 64
     7
 65
   257
 75
     1
175
     1
 42
1.0
 92
        8
 66
     7
 43
1.0
 76
     1
 77
     6
 78
     2
 67
     7
 79
     5
170
     0
171
     0
290
     0
174
     0
 93
        1
 44
0.0
173
     0
291
     1
 45
0.0
1001
ACAD
1000
AcDbSavedByObjectVersion
1070
     0
  0
VISUALSTYLE
  5
2B
102
{ACAD_REACTORS
330
2A
102
}
102
{ACAD_XDICTIONARY
360
2E5
102
}
330
2A
100
AcDbVisualStyle
  2
Flat
 70
     0
 71
     2
 72
     1
 73
     1
 90
        2
 40
-0.6
 41
30.0
 62
     5
 63
     7
 74
     0
 91
        4
 64
     7
 65
   257
 75
     1
175
     1
 42
1.0
 92
        8
 66
     7
 43
1.0
 76
     1
 77
     6
 78
     2
 67
     7
 79
     5
170
     0
171
     0
290
     0
174
     0
 93
       13
 44
0.0
173
     0
291
     1
 45
0.0
1001
ACAD
1000
AcDbSavedByObjectVersion
1070
     0
  0
VISUALSTYLE
  5
2C
102
{ACAD_REACTORS
330
2A
102
}
102
{ACAD_XDICTIONARY
360
2E7
102
}
330
2A
100
AcDbVisualStyle
  2
FlatWithEdges
 70
     1
 71
     2
 72
     1
 73
     1
 90
        2
 40
-0.6
 41
30.0
 62
     5
 63
     7
 74
     1
 91
        4
 64
     7
 65
   257
 75
     1
175
     1
 42
1.0
 92
        0
 66
   257
 43
1.0
 76
     1
 77
     6
 78
     2
 67
     7
 79
     5
170
     0
171
     0
290
     0
174
     0
 93
       13
 44
0.0
173
     0
291
     1
 45
0.0
1001
ACAD
1000
AcDbSavedByObjectVersion
1070
     0
  0
VISUALSTYLE
  5
2D
102
{ACAD_REACTORS
330
2A
102
}
102
{ACAD_XDICTIONARY
360
2E9
102
}
330
2A
100
AcDbVisualStyle
  2
Gouraud
 70
     2
 71
     2
 72
     2
 73
     1
 90
        2
 40
-0.6
 41
30.0
 62
     5
 63
     7
 74
     0
 91
        4
 64
     7
 65
   257
 75
     1
175
     1
 42
1.0
 92
        0
 66
     7
 43
1.0
 76
     1
 77
     6
 78
     2
 67
     7
 79
     5
170
     0
171
     0
290
     0
174
     0
 93
       13
 44
0.0
173
     0
291
     1
 45
0.0
1001
ACAD
1000
AcDbSavedByObjectVersion
1070
     0
  0
VISUALSTYLE
  5
2E
102
{ACAD_REACTORS
330
2A
102
}
102
{ACAD_XDICTIONARY
360
2EB
102
}
330
2A
100
AcDbVisualStyle
  2
GouraudWithEdges
 70
     3
 71
     2
 72
     2
 73
     1
 90
        2
 40
-0.6
 41
30.0
 62
     5
 63
     7
 74
     1
 91
        4
 64
     7
 65
   257
 75
     1
175
     1
 42
1.0
 92
        0
 66
   257
 43
1.0
 76
     1
 77
     6
 78
     2
 67
     7
 79
     5
170
     0
171
     0
290
     0
174
     0
 93
       13
 44
0.0
173
     0
291
     1
 45
0.0
1001
ACAD
1000
AcDbSavedByObjectVersion
1070
     0
  0
VISUALSTYLE
  5
38
102
{ACAD_REACTORS
330
2A
102
}
102
{ACAD_XDICTIONARY
360
2FF
102
}
330
2A
100
AcDbVisualStyle
  2
Linepattern
 70
    14
 71
     2
 72
     2
 73
     0
 90
        0
 40
-0.6
 41
-30.0
 62
     5
 63
     7
 74
     1
 91
        4
 64
     7
 65
   257
 75
     7
175
     7
 42
1.0
 92
        8
 66
     7
 43
1.0
 76
     1
 77
     6
 78
     2
 67
     7
 79
     5
170
     0
171
     0
290
     0
174
     0
 93
        1
 44
0.0
173
     0
291
     1
 45
0.0
1001
ACAD
1000
AcDbSavedByObjectVersion
1070
     0
  0
VISUALSTYLE
  5
33
102
{ACAD_REACTORS
330
2A
102
}
102
{ACAD_XDICTIONARY
360
2F5
102
}
330
2A
100
AcDbVisualStyle
  2
Realistic
 70
     8
 71
     2
 72
     2
 73
     0
 90
        0
 40
-0.6
 41
-30.0
 62
     5
 63
     7
 74
     1
 91
        0
 64
     7
 65
   257
 75
     1
175
     1
 42
1.0
 92
        8
 66
     8
 43
1.0
 76
     1
 77
     6
 78
     2
 67
     7
 79
     5
170
     0
171
     0
290
     0
174
     0
 93
       13
 44
0.0
173
     0
291
     0
 45
0.0
1001
ACAD
1000
AcDbSavedByObjectVersion
1070
     0
  0
VISUALSTYLE
  5
37
102
{ACAD_REACTORS
330
2A
102
}
102
{ACAD_XDICTIONARY
360
2FD
102
}
330
2A
100
AcDbVisualStyle
  2
Thicken
 70
    13
 71
     2
 72
     2
 73
     0
 90
        0
 40
-0.6
 41
-30.0
 62
     5
 63
     7
 74
     1
 91
        4
 64
     7
 65
   257
 75
     1
175
     1
 42
1.0
 92
       12
 66
     7
 43
1.0
 76
     1
 77
     6
 78
     2
 67
     7
 79
     5
170
     0
171
     0
290
     0
174
     0
 93
        1
 44
0.0
173
     0
291
     1
 45
0.0
1001
ACAD
1000
AcDbSavedByObjectVersion
1070
     0
  0
DICTIONARYVAR
  5
2E3
102
{ACAD_REACTORS
330
2E0
102
}
330
2E0
100
DictionaryVariables
280
     0
  1
2
  0
DICTIONARYVAR
  5
2E4
102
{ACAD_REACTORS
330
2E0
102
}
330
2E0
100
DictionaryVariables
280
     0
  1
1
  0
DICTIONARY
  5
307
330
3D
100
AcDbDictionary
280
     1
281
     1
  3
ACAD_XREC_ROUNDTRIP
360
308
  0
DICTIONARY
  5
305
330
3C
100
AcDbDictionary
280
     1
281
     1
  3
ACAD_XREC_ROUNDTRIP
360
306
  0
DICTIONARY
  5
309
330
3E
100
AcDbDictionary
280
     1
281
     1
  3
ACAD_XREC_ROUNDTRIP
360
30A
  0
DICTIONARY
  5
2ED
330
2F
100
AcDbDictionary
280
     1
281
     1
  3
ACAD_XREC_ROUNDTRIP
360
2EE
  0
DICTIONARY
  5
2F1
330
31
100
AcDbDictionary
280
     1
281
     1
  3
ACAD_XREC_ROUNDTRIP
360
2F2
  0
DICTIONARY
  5
2EF
330
30
100
AcDbDictionary
280
     1
281
     1
  3
ACAD_XREC_ROUNDTRIP
360
2F0
  0
DICTIONARY
  5
2F3
330
32
100
AcDbDictionary
280
     1
281
     1
  3
ACAD_XREC_ROUNDTRIP
360
2F4
  0
DICTIONARY
  5
2FB
330
36
100
AcDbDictionary
280
     1
281
     1
  3
ACAD_XREC_ROUNDTRIP
360
2FC
  0
DICTIONARY
  5
303
330
3A
100
AcDbDictionary
280
     1
281
     1
  3
ACAD_XREC_ROUNDTRIP
360
304
  0
DICTIONARY
  5
2F7
330
34
100
AcDbDictionary
280
     1
281
     1
  3
ACAD_XREC_ROUNDTRIP
360
2F8
  0
DICTIONARY
  5
2F9
330
35
100
AcDbDictionary
280
     1
281
     1
  3
ACAD_XREC_ROUNDTRIP
360
2FA
  0
DICTIONARY
  5
301
330
39
100
AcDbDictionary
280
     1
281
     1
  3
ACAD_XREC_ROUNDTRIP
360
302
  0
DICTIONARY
  5
2E5
330
2B
100
AcDbDictionary
280
     1
281
     1
  3
ACAD_XREC_ROUNDTRIP
360
2E6
  0
DICTIONARY
  5
2E7
330
2C
100
AcDbDictionary
280
     1
281
     1
  3
ACAD_XREC_ROUNDTRIP
360
2E8
  0
DICTIONARY
  5
2E9
330
2D
100
AcDbDictionary
280
     1
281
     1
  3
ACAD_XREC_ROUNDTRIP
360
2EA
  0
DICTIONARY
  5
2EB
330
2E
100
AcDbDictionary
280
     1
281
     1
  3
ACAD_XREC_ROUNDTRIP
360
2EC
  0
DICTIONARY
  5
2FF
330
38
100
AcDbDictionary
280
     1
281
     1
  3
ACAD_XREC_ROUNDTRIP
360
300
  0
DICTIONARY
  5
2F5
330
33
100
AcDbDictionary
280
     1
281
     1
  3
ACAD_XREC_ROUNDTRIP
360
2F6
  0
DICTIONARY
  5
2FD
330
37
100
AcDbDictionary
280
     1
281
     1
  3
ACAD_XREC_ROUNDTRIP
360
2FE
  0
XRECORD
  5
308
102
{ACAD_REACTORS
330
307
102
}
330
307
100
AcDbXrecord
280
     1
102
MATERIAL
148
0.0
149
0.0
149
0.0
 93
        0
 94
      127
282
     0
 72
     1
 77
     1
171
     1
175
     1
179
     1
273
     0
  0
XRECORD
  5
306
102
{ACAD_REACTORS
330
305
102
}
330
305
100
AcDbXrecord
280
     1
102
MATERIAL
148
0.0
149
0.0
149
0.0
 93
        0
 94
      127
282
     0
 72
     1
 77
     1
171
     1
175
     1
179
     1
273
     0
  0
XRECORD
  5
30A
102
{ACAD_REACTORS
330
309
102
}
330
309
100
AcDbXrecord
280
     1
102
MATERIAL
148
0.0
149
0.0
149
0.0
 93
        0
 94
      127
282
     0
 72
     1
 77
     1
171
     1
175
     1
179
     1
273
     0
  0
XRECORD
  5
2EE
102
{ACAD_REACTORS
330
2ED
102
}
330
2ED
100
AcDbXrecord
280
     1
102
RTVSPropertyOp0
 70
     1
102
RTVSPropertyOp1
 70
     1
102
RTVSPropertyOp2
 70
     1
102
RTVSPropertyOp3
 70
     1
102
RTVSPropertyOp4
 70
     1
102
RTVSPropertyOp5
 70
     1
102
RTVSPropertyOp6
 70
     1
102
RTVSPropertyOp7
 70
     1
102
RTVSPropertyOp8
 70
     1
102
RTVSPropertyOp9
 70
     1
102
RTVSPropertyOp10
 70
     1
102
RTVSPropertyOp11
 70
     1
102
RTVSPropertyOp12
 70
     1
102
RTVSPropertyOp13
 70
     1
102
RTVSPropertyOp14
 70
     1
102
RTVSPropertyOp15
 70
     1
102
RTVSPropertyOp16
 70
     1
102
RTVSPropertyOp17
 70
     1
102
RTVSPropertyOp18
 70
     1
102
RTVSPropertyOp19
 70
     1
102
RTVSPropertyOp20
 70
     1
102
RTVSPropertyOp21
 70
     1
102
RTVSPropertyOp22
 70
     1
102
RTVSPropertyOp23
 70
     1
102
RTVSPropertyOp24
 70
     1
102
RTVSPropertyOp25
 70
     1
102
RTVSPropertyOp26
 70
     1
102
RTVSPropertyOp27
 70
     1
102
RTVSPropertyOp28
 70
     1
102
RTVSPropertyOp29
 70
     1
102
RTVSPropertyOp30
 70
     1
102
RTVSPropertyOp31
 70
     1
102
RTVSPropertyOp32
 70
     1
  0
XRECORD
  5
2F2
102
{ACAD_REACTORS
330
2F1
102
}
330
2F1
100
AcDbXrecord
280
     1
102
RTVSPropertyOp0
 70
     1
102
RTVSPropertyOp1
 70
     1
102
RTVSPropertyOp2
 70
     1
102
RTVSPropertyOp3
 70
     1
102
RTVSPropertyOp4
 70
     1
102
RTVSPropertyOp5
 70
     1
102
RTVSPropertyOp6
 70
     1
102
RTVSPropertyOp7
 70
     1
102
RTVSPropertyOp8
 70
     1
102
RTVSPropertyOp9
 70
     1
102
RTVSPropertyOp10
 70
     1
102
RTVSPropertyOp11
 70
     1
102
RTVSPropertyOp12
 70
     1
102
RTVSPropertyOp13
 70
     1
102
RTVSPropertyOp14
 70
     1
102
RTVSPropertyOp15
 70
     1
102
RTVSPropertyOp16
 70
     1
102
RTVSPropertyOp17
 70
     1
102
RTVSPropertyOp18
 70
     1
102
RTVSPropertyOp19
 70
     1
102
RTVSPropertyOp20
 70
     1
102
RTVSPropertyOp21
 70
     1
102
RTVSPropertyOp22
 70
     1
102
RTVSPropertyOp23
 70
     1
102
RTVSPropertyOp24
 70
     1
102
RTVSPropertyOp25
 70
     1
102
RTVSPropertyOp26
 70
     1
102
RTVSPropertyOp27
 70
     1
102
RTVSPropertyOp28
 70
     1
102
RTVSPropertyOp29
 70
     1
102
RTVSPropertyOp30
 70
     1
102
RTVSPropertyOp31
 70
     1
102
RTVSPropertyOp32
 70
     1
  0
XRECORD
  5
2F0
102
{ACAD_REACTORS
330
2EF
102
}
330
2EF
100
AcDbXrecord
280
     1
102
RTVSPropertyOp0
 70
     1
102
RTVSPropertyOp1
 70
     1
102
RTVSPropertyOp2
 70
     1
102
RTVSPropertyOp3
 70
     1
102
RTVSPropertyOp4
 70
     1
102
RTVSPropertyOp5
 70
     1
102
RTVSPropertyOp6
 70
     1
102
RTVSPropertyOp7
 70
     1
102
RTVSPropertyOp8
 70
     1
102
RTVSPropertyOp9
 70
     1
102
RTVSPropertyOp10
 70
     1
102
RTVSPropertyOp11
 70
     1
102
RTVSPropertyOp12
 70
     1
102
RTVSPropertyOp13
 70
     1
102
RTVSPropertyOp14
 70
     1
102
RTVSPropertyOp15
 70
     1
102
RTVSPropertyOp16
 70
     1
102
RTVSPropertyOp17
 70
     1
102
RTVSPropertyOp18
 70
     1
102
RTVSPropertyOp19
 70
     1
102
RTVSPropertyOp20
 70
     1
102
RTVSPropertyOp21
 70
     1
102
RTVSPropertyOp22
 70
     1
102
RTVSPropertyOp23
 70
     1
102
RTVSPropertyOp24
 70
     1
102
RTVSPropertyOp25
 70
     1
102
RTVSPropertyOp26
 70
     1
102
RTVSPropertyOp27
 70
     1
102
RTVSPropertyOp28
 70
     1
102
RTVSPropertyOp29
 70
     1
102
RTVSPropertyOp30
 70
     1
102
RTVSPropertyOp31
 70
     1
102
RTVSPropertyOp32
 70
     1
  0
XRECORD
  5
2F4
102
{ACAD_REACTORS
330
2F3
102
}
330
2F3
100
AcDbXrecord
280
     1
102
RTVSPropertyOp0
 70
     1
102
RTVSPropertyOp1
 70
     1
102
RTVSPropertyOp2
 70
     1
102
RTVSPropertyOp3
 70
     1
102
RTVSPropertyOp4
 70
     1
102
RTVSPropertyOp5
 70
     1
102
RTVSPropertyOp6
 70
     1
102
RTVSPropertyOp7
 70
     1
102
RTVSPropertyOp8
 70
     1
102
RTVSPropertyOp9
 70
     1
102
RTVSPropertyOp10
 70
     1
102
RTVSPropertyOp11
 70
     1
102
RTVSPropertyOp12
 70
     1
102
RTVSPropertyOp13
 70
     1
102
RTVSPropertyOp14
 70
     1
102
RTVSPropertyOp15
 70
     1
102
RTVSPropertyOp16
 70
     1
102
RTVSPropertyOp17
 70
     1
102
RTVSPropertyOp18
 70
     1
102
RTVSPropertyOp19
 70
     1
102
RTVSPropertyOp20
 70
     1
102
RTVSPropertyOp21
 70
     1
102
RTVSPropertyOp22
 70
     1
102
RTVSPropertyOp23
 70
     1
102
RTVSPropertyOp24
 70
     1
102
RTVSPropertyOp25
 70
     1
102
RTVSPropertyOp26
 70
     1
102
RTVSPropertyOp27
 70
     1
102
RTVSPropertyOp28
 70
     1
102
RTVSPropertyOp29
 70
     1
102
RTVSPropertyOp30
 70
     1
102
RTVSPropertyOp31
 70
     1
102
RTVSPropertyOp32
 70
     1
  0
XRECORD
  5
2FC
102
{ACAD_REACTORS
330
2FB
102
}
330
2FB
100
AcDbXrecord
280
     1
102
RTVSPropertyOp0
 70
     1
102
RTVSPropertyOp1
 70
     1
102
RTVSPropertyOp2
 70
     1
102
RTVSPropertyOp3
 70
     1
102
RTVSPropertyOp4
 70
     1
102
RTVSPropertyOp5
 70
     1
102
RTVSPropertyOp6
 70
     1
102
RTVSPropertyOp7
 70
     1
102
RTVSPropertyOp8
 70
     1
102
RTVSPropertyOp9
 70
     1
102
RTVSPropertyOp10
 70
     1
102
RTVSPropertyOp11
 70
     1
102
RTVSPropertyOp12
 70
     1
102
RTVSPropertyOp13
 70
     1
102
RTVSPropertyOp14
 70
     1
102
RTVSPropertyOp15
 70
     1
102
RTVSPropertyOp16
 70
     1
102
RTVSPropertyOp17
 70
     1
102
RTVSPropertyOp18
 70
     1
102
RTVSPropertyOp19
 70
     1
102
RTVSPropertyOp20
 70
     1
102
RTVSPropertyOp21
 70
     1
102
RTVSPropertyOp22
 70
     1
102
RTVSPropertyOp23
 70
     1
102
RTVSPropertyOp24
 70
     1
102
RTVSPropertyOp25
 70
     1
102
RTVSPropertyOp26
 70
     1
102
RTVSPropertyOp27
 70
     1
102
RTVSPropertyOp28
 70
     1
102
RTVSPropertyOp29
 70
     1
102
RTVSPropertyOp30
 70
     1
102
RTVSPropertyOp31
 70
     1
102
RTVSPropertyOp32
 70
     1
  0
XRECORD
  5
304
102
{ACAD_REACTORS
330
303
102
}
330
303
100
AcDbXrecord
280
     1
102
RTVSPropertyOp0
 70
     1
102
RTVSPropertyOp1
 70
     1
102
RTVSPropertyOp2
 70
     1
102
RTVSPropertyOp3
 70
     1
102
RTVSPropertyOp4
 70
     1
102
RTVSPropertyOp5
 70
     1
102
RTVSPropertyOp6
 70
     1
102
RTVSPropertyOp7
 70
     1
102
RTVSPropertyOp8
 70
     1
102
RTVSPropertyOp9
 70
     1
102
RTVSPropertyOp10
 70
     1
102
RTVSPropertyOp11
 70
     1
102
RTVSPropertyOp12
 70
     1
102
RTVSPropertyOp13
 70
     1
102
RTVSPropertyOp14
 70
     1
102
RTVSPropertyOp15
 70
     1
102
RTVSPropertyOp16
 70
     1
102
RTVSPropertyOp17
 70
     1
102
RTVSPropertyOp18
 70
     1
102
RTVSPropertyOp19
 70
     1
102
RTVSPropertyOp20
 70
     1
102
RTVSPropertyOp21
 70
     1
102
RTVSPropertyOp22
 70
     1
102
RTVSPropertyOp23
 70
     1
102
RTVSPropertyOp24
 70
     1
102
RTVSPropertyOp25
 70
     1
102
RTVSPropertyOp26
 70
     1
102
RTVSPropertyOp27
 70
     1
102
RTVSPropertyOp28
 70
     1
102
RTVSPropertyOp29
 70
     1
102
RTVSPropertyOp30
 70
     1
102
RTVSPropertyOp31
 70
     1
102
RTVSPropertyOp32
 70
     1
  0
XRECORD
  5
2F8
102
{ACAD_REACTORS
330
2F7
102
}
330
2F7
100
AcDbXrecord
280
     1
102
RTVSPropertyOp0
 70
     1
102
RTVSPropertyOp1
 70
     1
102
RTVSPropertyOp2
 70
     1
102
RTVSPropertyOp3
 70
     1
102
RTVSPropertyOp4
 70
     1
102
RTVSPropertyOp5
 70
     1
102
RTVSPropertyOp6
 70
     1
102
RTVSPropertyOp7
 70
     1
102
RTVSPropertyOp8
 70
     1
102
RTVSPropertyOp9
 70
     1
102
RTVSPropertyOp10
 70
     1
102
RTVSPropertyOp11
 70
     1
102
RTVSPropertyOp12
 70
     1
102
RTVSPropertyOp13
 70
     1
102
RTVSPropertyOp14
 70
     1
102
RTVSPropertyOp15
 70
     1
102
RTVSPropertyOp16
 70
     1
102
RTVSPropertyOp17
 70
     1
102
RTVSPropertyOp18
 70
     1
102
RTVSPropertyOp19
 70
     1
102
RTVSPropertyOp20
 70
     1
102
RTVSPropertyOp21
 70
     1
102
RTVSPropertyOp22
 70
     1
102
RTVSPropertyOp23
 70
     1
102
RTVSPropertyOp24
 70
     1
102
RTVSPropertyOp25
 70
     1
102
RTVSPropertyOp26
 70
     1
102
RTVSPropertyOp27
 70
     1
102
RTVSPropertyOp28
 70
     1
102
RTVSPropertyOp29
 70
     1
102
RTVSPropertyOp30
 70
     1
102
RTVSPropertyOp31
 70
     1
102
RTVSPropertyOp32
 70
     1
  0
XRECORD
  5
2FA
102
{ACAD_REACTORS
330
2F9
102
}
330
2F9
100
AcDbXrecord
280
     1
102
RTVSPropertyOp0
 70
     1
102
RTVSPropertyOp1
 70
     1
102
RTVSPropertyOp2
 70
     1
102
RTVSPropertyOp3
 70
     1
102
RTVSPropertyOp4
 70
     1
102
RTVSPropertyOp5
 70
     1
102
RTVSPropertyOp6
 70
     1
102
RTVSPropertyOp7
 70
     1
102
RTVSPropertyOp8
 70
     1
102
RTVSPropertyOp9
 70
     1
102
RTVSPropertyOp10
 70
     1
102
RTVSPropertyOp11
 70
     1
102
RTVSPropertyOp12
 70
     1
102
RTVSPropertyOp13
 70
     1
102
RTVSPropertyOp14
 70
     1
102
RTVSPropertyOp15
 70
     1
102
RTVSPropertyOp16
 70
     1
102
RTVSPropertyOp17
 70
     1
102
RTVSPropertyOp18
 70
     1
102
RTVSPropertyOp19
 70
     1
102
RTVSPropertyOp20
 70
     1
102
RTVSPropertyOp21
 70
     1
102
RTVSPropertyOp22
 70
     1
102
RTVSPropertyOp23
 70
     1
102
RTVSPropertyOp24
 70
     1
102
RTVSPropertyOp25
 70
     1
102
RTVSPropertyOp26
 70
     1
102
RTVSPropertyOp27
 70
     1
102
RTVSPropertyOp28
 70
     1
102
RTVSPropertyOp29
 70
     1
102
RTVSPropertyOp30
 70
     1
102
RTVSPropertyOp31
 70
     1
102
RTVSPropertyOp32
 70
     1
  0
XRECORD
  5
302
102
{ACAD_REACTORS
330
301
102
}
330
301
100
AcDbXrecord
280
     1
102
RTVSPropertyOp0
 70
     1
102
RTVSPropertyOp1
 70
     1
102
RTVSPropertyOp2
 70
     1
102
RTVSPropertyOp3
 70
     1
102
RTVSPropertyOp4
 70
     1
102
RTVSPropertyOp5
 70
     1
102
RTVSPropertyOp6
 70
     1
102
RTVSPropertyOp7
 70
     1
102
RTVSPropertyOp8
 70
     1
102
RTVSPropertyOp9
 70
     1
102
RTVSPropertyOp10
 70
     1
102
RTVSPropertyOp11
 70
     1
102
RTVSPropertyOp12
 70
     1
102
RTVSPropertyOp13
 70
     1
102
RTVSPropertyOp14
 70
     1
102
RTVSPropertyOp15
 70
     1
102
RTVSPropertyOp16
 70
     1
102
RTVSPropertyOp17
 70
     1
102
RTVSPropertyOp18
 70
     1
102
RTVSPropertyOp19
 70
     1
102
RTVSPropertyOp20
 70
     1
102
RTVSPropertyOp21
 70
     1
102
RTVSPropertyOp22
 70
     1
102
RTVSPropertyOp23
 70
     1
102
RTVSPropertyOp24
 70
     1
102
RTVSPropertyOp25
 70
     1
102
RTVSPropertyOp26
 70
     1
102
RTVSPropertyOp27
 70
     1
102
RTVSPropertyOp28
 70
     1
102
RTVSPropertyOp29
 70
     1
102
RTVSPropertyOp30
 70
     1
102
RTVSPropertyOp31
 70
     1
102
RTVSPropertyOp32
 70
     1
  0
XRECORD
  5
2E6
102
{ACAD_REACTORS
330
2E5
102
}
330
2E5
100
AcDbXrecord
280
     1
102
RTVSPropertyOp0
 70
     1
102
RTVSPropertyOp1
 70
     1
102
RTVSPropertyOp2
 70
     1
102
RTVSPropertyOp3
 70
     1
102
RTVSPropertyOp4
 70
     1
102
RTVSPropertyOp5
 70
     1
102
RTVSPropertyOp6
 70
     1
102
RTVSPropertyOp7
 70
     1
102
RTVSPropertyOp8
 70
     1
102
RTVSPropertyOp9
 70
     1
102
RTVSPropertyOp10
 70
     1
102
RTVSPropertyOp11
 70
     1
102
RTVSPropertyOp12
 70
     1
102
RTVSPropertyOp13
 70
     1
102
RTVSPropertyOp14
 70
     1
102
RTVSPropertyOp15
 70
     1
102
RTVSPropertyOp16
 70
     1
102
RTVSPropertyOp17
 70
     1
102
RTVSPropertyOp18
 70
     1
102
RTVSPropertyOp19
 70
     1
102
RTVSPropertyOp20
 70
     1
102
RTVSPropertyOp21
 70
     1
102
RTVSPropertyOp22
 70
     1
102
RTVSPropertyOp23
 70
     1
102
RTVSPropertyOp24
 70
     1
102
RTVSPropertyOp25
 70
     1
102
RTVSPropertyOp26
 70
     1
102
RTVSPropertyOp27
 70
     1
102
RTVSPropertyOp28
 70
     1
102
RTVSPropertyOp29
 70
     1
102
RTVSPropertyOp30
 70
     1
102
RTVSPropertyOp31
 70
     1
102
RTVSPropertyOp32
 70
     1
  0
XRECORD
  5
2E8
102
{ACAD_REACTORS
330
2E7
102
}
330
2E7
100
AcDbXrecord
280
     1
102
RTVSPropertyOp0
 70
     1
102
RTVSPropertyOp1
 70
     1
102
RTVSPropertyOp2
 70
     1
102
RTVSPropertyOp3
 70
     1
102
RTVSPropertyOp4
 70
     1
102
RTVSPropertyOp5
 70
     1
102
RTVSPropertyOp6
 70
     1
102
RTVSPropertyOp7
 70
     1
102
RTVSPropertyOp8
 70
     1
102
RTVSPropertyOp9
 70
     1
102
RTVSPropertyOp10
 70
     1
102
RTVSPropertyOp11
 70
     1
102
RTVSPropertyOp12
 70
     1
102
RTVSPropertyOp13
 70
     1
102
RTVSPropertyOp14
 70
     1
102
RTVSPropertyOp15
 70
     1
102
RTVSPropertyOp16
 70
     1
102
RTVSPropertyOp17
 70
     1
102
RTVSPropertyOp18
 70
     1
102
RTVSPropertyOp19
 70
     1
102
RTVSPropertyOp20
 70
     1
102
RTVSPropertyOp21
 70
     1
102
RTVSPropertyOp22
 70
     1
102
RTVSPropertyOp23
 70
     1
102
RTVSPropertyOp24
 70
     1
102
RTVSPropertyOp25
 70
     1
102
RTVSPropertyOp26
 70
     1
102
RTVSPropertyOp27
 70
     1
102
RTVSPropertyOp28
 70
     1
102
RTVSPropertyOp29
 70
     1
102
RTVSPropertyOp30
 70
     1
102
RTVSPropertyOp31
 70
     1
102
RTVSPropertyOp32
 70
     1
  0
XRECORD
  5
2EA
102
{ACAD_REACTORS
330
2E9
102
}
330
2E9
100
AcDbXrecord
280
     1
102
RTVSPropertyOp0
 70
     1
102
RTVSPropertyOp1
 70
     1
102
RTVSPropertyOp2
 70
     1
102
RTVSPropertyOp3
 70
     1
102
RTVSPropertyOp4
 70
     1
102
RTVSPropertyOp5
 70
     1
102
RTVSPropertyOp6
 70
     1
102
RTVSPropertyOp7
 70
     1
102
RTVSPropertyOp8
 70
     1
102
RTVSPropertyOp9
 70
     1
102
RTVSPropertyOp10
 70
     1
102
RTVSPropertyOp11
 70
     1
102
RTVSPropertyOp12
 70
     1
102
RTVSPropertyOp13
 70
     1
102
RTVSPropertyOp14
 70
     1
102
RTVSPropertyOp15
 70
     1
102
RTVSPropertyOp16
 70
     1
102
RTVSPropertyOp17
 70
     1
102
RTVSPropertyOp18
 70
     1
102
RTVSPropertyOp19
 70
     1
102
RTVSPropertyOp20
 70
     1
102
RTVSPropertyOp21
 70
     1
102
RTVSPropertyOp22
 70
     1
102
RTVSPropertyOp23
 70
     1
102
RTVSPropertyOp24
 70
     1
102
RTVSPropertyOp25
 70
     1
102
RTVSPropertyOp26
 70
     1
102
RTVSPropertyOp27
 70
     1
102
RTVSPropertyOp28
 70
     1
102
RTVSPropertyOp29
 70
     1
102
RTVSPropertyOp30
 70
     1
102
RTVSPropertyOp31
 70
     1
102
RTVSPropertyOp32
 70
     1
  0
XRECORD
  5
2EC
102
{ACAD_REACTORS
330
2EB
102
}
330
2EB
100
AcDbXrecord
280
     1
102
RTVSPropertyOp0
 70
     1
102
RTVSPropertyOp1
 70
     1
102
RTVSPropertyOp2
 70
     1
102
RTVSPropertyOp3
 70
     1
102
RTVSPropertyOp4
 70
     1
102
RTVSPropertyOp5
 70
     1
102
RTVSPropertyOp6
 70
     1
102
RTVSPropertyOp7
 70
     1
102
RTVSPropertyOp8
 70
     1
102
RTVSPropertyOp9
 70
     1
102
RTVSPropertyOp10
 70
     1
102
RTVSPropertyOp11
 70
     1
102
RTVSPropertyOp12
 70
     1
102
RTVSPropertyOp13
 70
     1
102
RTVSPropertyOp14
 70
     1
102
RTVSPropertyOp15
 70
     1
102
RTVSPropertyOp16
 70
     1
102
RTVSPropertyOp17
 70
     1
102
RTVSPropertyOp18
 70
     1
102
RTVSPropertyOp19
 70
     1
102
RTVSPropertyOp20
 70
     1
102
RTVSPropertyOp21
 70
     1
102
RTVSPropertyOp22
 70
     1
102
RTVSPropertyOp23
 70
     1
102
RTVSPropertyOp24
 70
     1
102
RTVSPropertyOp25
 70
     1
102
RTVSPropertyOp26
 70
     1
102
RTVSPropertyOp27
 70
     1
102
RTVSPropertyOp28
 70
     1
102
RTVSPropertyOp29
 70
     1
102
RTVSPropertyOp30
 70
     1
102
RTVSPropertyOp31
 70
     1
102
RTVSPropertyOp32
 70
     1
  0
XRECORD
  5
300
102
{ACAD_REACTORS
330
2FF
102
}
330
2FF
100
AcDbXrecord
280
     1
102
RTVSPropertyOp0
 70
     1
102
RTVSPropertyOp1
 70
     1
102
RTVSPropertyOp2
 70
     1
102
RTVSPropertyOp3
 70
     1
102
RTVSPropertyOp4
 70
     1
102
RTVSPropertyOp5
 70
     1
102
RTVSPropertyOp6
 70
     1
102
RTVSPropertyOp7
 70
     1
102
RTVSPropertyOp8
 70
     1
102
RTVSPropertyOp9
 70
     1
102
RTVSPropertyOp10
 70
     1
102
RTVSPropertyOp11
 70
     1
102
RTVSPropertyOp12
 70
     1
102
RTVSPropertyOp13
 70
     1
102
RTVSPropertyOp14
 70
     1
102
RTVSPropertyOp15
 70
     1
102
RTVSPropertyOp16
 70
     1
102
RTVSPropertyOp17
 70
     1
102
RTVSPropertyOp18
 70
     1
102
RTVSPropertyOp19
 70
     1
102
RTVSPropertyOp20
 70
     1
102
RTVSPropertyOp21
 70
     1
102
RTVSPropertyOp22
 70
     1
102
RTVSPropertyOp23
 70
     1
102
RTVSPropertyOp24
 70
     1
102
RTVSPropertyOp25
 70
     1
102
RTVSPropertyOp26
 70
     1
102
RTVSPropertyOp27
 70
     1
102
RTVSPropertyOp28
 70
     1
102
RTVSPropertyOp29
 70
     1
102
RTVSPropertyOp30
 70
     1
102
RTVSPropertyOp31
 70
     1
102
RTVSPropertyOp32
 70
     1
  0
XRECORD
  5
2F6
102
{ACAD_REACTORS
330
2F5
102
}
330
2F5
100
AcDbXrecord
280
     1
102
RTVSPropertyOp0
 70
     1
102
RTVSPropertyOp1
 70
     1
102
RTVSPropertyOp2
 70
     1
102
RTVSPropertyOp3
 70
     1
102
RTVSPropertyOp4
 70
     1
102
RTVSPropertyOp5
 70
     1
102
RTVSPropertyOp6
 70
     1
102
RTVSPropertyOp7
 70
     1
102
RTVSPropertyOp8
 70
     1
102
RTVSPropertyOp9
 70
     1
102
RTVSPropertyOp10
 70
     1
102
RTVSPropertyOp11
 70
     1
102
RTVSPropertyOp12
 70
     1
102
RTVSPropertyOp13
 70
     1
102
RTVSPropertyOp14
 70
     1
102
RTVSPropertyOp15
 70
     1
102
RTVSPropertyOp16
 70
     1
102
RTVSPropertyOp17
 70
     1
102
RTVSPropertyOp18
 70
     1
102
RTVSPropertyOp19
 70
     1
102
RTVSPropertyOp20
 70
     1
102
RTVSPropertyOp21
 70
     1
102
RTVSPropertyOp22
 70
     1
102
RTVSPropertyOp23
 70
     1
102
RTVSPropertyOp24
 70
     1
102
RTVSPropertyOp25
 70
     1
102
RTVSPropertyOp26
 70
     1
102
RTVSPropertyOp27
 70
     1
102
RTVSPropertyOp28
 70
     1
102
RTVSPropertyOp29
 70
     1
102
RTVSPropertyOp30
 70
     1
102
RTVSPropertyOp31
 70
     1
102
RTVSPropertyOp32
 70
     1
  0
XRECORD
  5
2FE
102
{ACAD_REACTORS
330
2FD
102
}
330
2FD
100
AcDbXrecord
280
     1
102
RTVSPropertyOp0
 70
     1
102
RTVSPropertyOp1
 70
     1
102
RTVSPropertyOp2
 70
     1
102
RTVSPropertyOp3
 70
     1
102
RTVSPropertyOp4
 70
     1
102
RTVSPropertyOp5
 70
     1
102
RTVSPropertyOp6
 70
     1
102
RTVSPropertyOp7
 70
     1
102
RTVSPropertyOp8
 70
     1
102
RTVSPropertyOp9
 70
     1
102
RTVSPropertyOp10
 70
     1
102
RTVSPropertyOp11
 70
     1
102
RTVSPropertyOp12
 70
     1
102
RTVSPropertyOp13
 70
     1
102
RTVSPropertyOp14
 70
     1
102
RTVSPropertyOp15
 70
     1
102
RTVSPropertyOp16
 70
     1
102
RTVSPropertyOp17
 70
     1
102
RTVSPropertyOp18
 70
     1
102
RTVSPropertyOp19
 70
     1
102
RTVSPropertyOp20
 70
     1
102
RTVSPropertyOp21
 70
     1
102
RTVSPropertyOp22
 70
     1
102
RTVSPropertyOp23
 70
     1
102
RTVSPropertyOp24
 70
     1
102
RTVSPropertyOp25
 70
     1
102
RTVSPropertyOp26
 70
     1
102
RTVSPropertyOp27
 70
     1
102
RTVSPropertyOp28
 70
     1
102
RTVSPropertyOp29
 70
     1
102
RTVSPropertyOp30
 70
     1
102
RTVSPropertyOp31
 70
     1
102
RTVSPropertyOp32
 70
     1
  0
ENDSEC
  0
EOF
