  0
SECTION
  2
HEADER
  9
$ACADVER
  1
AC1015
  9
$ACADMAINTVER
 70
     6
  9
$DWGCODEPAGE
  3
ANSI_932
  9
$INSBASE
 10
0.0
 20
0.0
 30
0.0
  9
$EXTMIN
 10
0.0
 20
0.0
 30
0.0
  9
$EXTMAX
 10
420.0
 20
594.0
 30
0.0
  9
$LIMMIN
 10
0.0
 20
0.0
  9
$LIMMAX
 10
12.0
 20
9.0
  9
$ORTHOMODE
 70
     0
  9
$REGENMODE
 70
     1
  9
$FILLMODE
 70
     1
  9
$QTEXTMODE
 70
     0
  9
$MIRRTEXT
 70
     1
  9
$LTSCALE
 40
1.0
  9
$ATTMODE
 70
     1
  9
$TEXTSIZE
 40
0.2
  9
$TRACEWID
 40
0.05
  9
$TEXTSTYLE
  7
Standard
  9
$CLAYER
  8
0
  9
$CELTYPE
  6
ByLayer
  9
$CECOLOR
 62
   256
  9
$CELTSCALE
 40
1.0
  9
$DISPSILH
 70
     0
  9
$DIMSCALE
 40
1.0
  9
$DIMASZ
 40
0.18
  9
$DIMEXO
 40
0.0625
  9
$DIMDLI
 40
0.38
  9
$DIMRND
 40
0.0
  9
$DIMDLE
 40
0.0
  9
$DIMEXE
 40
0.18
  9
$DIMTP
 40
0.0
  9
$DIMTM
 40
0.0
  9
$DIMTXT
 40
0.18
  9
$DIMCEN
 40
0.09
  9
$DIMTSZ
 40
0.0
  9
$DIMTOL
 70
     0
  9
$DIMLIM
 70
     0
  9
$DIMTIH
 70
     1
  9
$DIMTOH
 70
     1
  9
$DIMSE1
 70
     0
  9
$DIMSE2
 70
     0
  9
$DIMTAD
 70
     0
  9
$DIMZIN
 70
     0
  9
$DIMBLK
  1

  9
$DIMASO
 70
     1
  9
$DIMSHO
 70
     1
  9
$DIMPOST
  1

  9
$DIMAPOST
  1

  9
$DIMALT
 70
     0
  9
$DIMALTD
 70
     2
  9
$DIMALTF
 40
25.4
  9
$DIMLFAC
 40
1.0
  9
$DIMTOFL
 70
     0
  9
$DIMTVP
 40
0.0
  9
$DIMTIX
 70
     0
  9
$DIMSOXD
 70
     0
  9
$DIMSAH
 70
     0
  9
$DIMBLK1
  1

  9
$DIMBLK2
  1

  9
$DIMSTYLE
  2
Standard
  9
$DIMCLRD
 70
     0
  9
$DIMCLRE
 70
     0
  9
$DIMCLRT
 70
     0
  9
$DIMTFAC
 40
1.0
  9
$DIMGAP
 40
0.09
  9
$DIMJUST
 70
     0
  9
$DIMSD1
 70
     0
  9
$DIMSD2
 70
     0
  9
$DIMTOLJ
 70
     1
  9
$DIMTZIN
 70
     0
  9
$DIMALTZ
 70
     0
  9
$DIMALTTZ
 70
     0
  9
$DIMUPT
 70
     0
  9
$DIMDEC
 70
     4
  9
$DIMTDEC
 70
     4
  9
$DIMALTU
 70
     2
  9
$DIMALTTD
 70
     2
  9
$DIMTXSTY
  7
Standard
  9
$DIMAUNIT
 70
     0
  9
$DIMADEC
 70
     0
  9
$DIMALTRND
 40
0.0
  9
$DIMAZIN
 70
     0
  9
$DIMDSEP
 70
    46
  9
$DIMATFIT
 70
     3
  9
$DIMFRAC
 70
     0
  9
$DIMLDRBLK
  1

  9
$DIMLUNIT
 70
     2
  9
$DIMLWD
 70
    -2
  9
$DIMLWE
 70
    -2
  9
$DIMTMOVE
 70
     0
  9
$LUNITS
 70
     2
  9
$LUPREC
 70
     4
  9
$SKETCHINC
 40
0.1
  9
$FILLETRAD
 40
0.5
  9
$AUNITS
 70
     0
  9
$AUPREC
 70
     0
  9
$MENU
  1
.
  9
$ELEVATION
 40
0.0
  9
$PELEVATION
 40
0.0
  9
$THICKNESS
 40
0.0
  9
$LIMCHECK
 70
     0
  9
$CHAMFERA
 40
0.5
  9
$CHAMFERB
 40
0.5
  9
$CHAMFERC
 40
1.0
  9
$CHAMFERD
 40
0.0
  9
$SKPOLY
 70
     0
  9
$TDCREATE
 40
2456548.602989583
  9
$TDUCREATE
 40
2456548.227989583
  9
$TDUPDATE
 40
2456548.602990845
  9
$TDUUPDATE
 40
2456548.227990845
  9
$TDINDWG
 40
0.0000000116
  9
$TDUSRTIMER
 40
0.0000000116
  9
$USRTIMER
 70
     1
  9
$ANGBASE
 50
0.0
  9
$ANGDIR
 70
     0
  9
$PDMODE
 70
     0
  9
$PDSIZE
 40
0.0
  9
$PLINEWID
 40
0.0
  9
$SPLFRAME
 70
     0
  9
$SPLINETYPE
 70
     6
  9
$SPLINESEGS
 70
     8
  9
$HANDSEED
  5
2A4
  9
$SURFTAB1
 70
     6
  9
$SURFTAB2
 70
     6
  9
$SURFTYPE
 70
     6
  9
$SURFU
 70
     6
  9
$SURFV
 70
     6
  9
$UCSBASE
  2

  9
$UCSNAME
  2

  9
$UCSORG
 10
0.0
 20
0.0
 30
0.0
  9
$UCSXDIR
 10
1.0
 20
0.0
 30
0.0
  9
$UCSYDIR
 10
0.0
 20
1.0
 30
0.0
  9
$UCSORTHOREF
  2

  9
$UCSORTHOVIEW
 70
     0
  9
$UCSORGTOP
 10
0.0
 20
0.0
 30
0.0
  9
$UCSORGBOTTOM
 10
0.0
 20
0.0
 30
0.0
  9
$UCSORGLEFT
 10
0.0
 20
0.0
 30
0.0
  9
$UCSORGRIGHT
 10
0.0
 20
0.0
 30
0.0
  9
$UCSORGFRONT
 10
0.0
 20
0.0
 30
0.0
  9
$UCSORGBACK
 10
0.0
 20
0.0
 30
0.0
  9
$PUCSBASE
  2

  9
$PUCSNAME
  2

  9
$PUCSORG
 10
0.0
 20
0.0
 30
0.0
  9
$PUCSXDIR
 10
1.0
 20
0.0
 30
0.0
  9
$PUCSYDIR
 10
0.0
 20
1.0
 30
0.0
  9
$PUCSORTHOREF
  2

  9
$PUCSORTHOVIEW
 70
     0
  9
$PUCSORGTOP
 10
0.0
 20
0.0
 30
0.0
  9
$PUCSORGBOTTOM
 10
0.0
 20
0.0
 30
0.0
  9
$PUCSORGLEFT
 10
0.0
 20
0.0
 30
0.0
  9
$PUCSORGRIGHT
 10
0.0
 20
0.0
 30
0.0
  9
$PUCSORGFRONT
 10
0.0
 20
0.0
 30
0.0
  9
$PUCSORGBACK
 10
0.0
 20
0.0
 30
0.0
  9
$USERI1
 70
     0
  9
$USERI2
 70
     0
  9
$USERI3
 70
     0
  9
$USERI4
 70
     0
  9
$USERI5
 70
     0
  9
$USERR1
 40
18.1
  9
$USERR2
 40
0.0
  9
$USERR3
 40
0.0
  9
$USERR4
 40
0.0
  9
$USERR5
 40
0.0
  9
$WORLDVIEW
 70
     1
  9
$SHADEDGE
 70
     3
  9
$SHADEDIF
 70
    70
  9
$TILEMODE
 70
     1
  9
$MAXACTVP
 70
    64
  9
$PINSBASE
 10
0.0
 20
0.0
 30
0.0
  9
$PLIMCHECK
 70
     0
  9
$PEXTMIN
 10
1.00000000000000E+20
 20
1.00000000000000E+20
 30
1.00000000000000E+20
  9
$PEXTMAX
 10
-1.00000000000000E+20
 20
-1.00000000000000E+20
 30
-1.00000000000000E+20
  9
$PLIMMIN
 10
0.0
 20
0.0
  9
$PLIMMAX
 10
12.0
 20
9.0
  9
$UNITMODE
 70
     0
  9
$VISRETAIN
 70
     1
  9
$PLINEGEN
 70
     0
  9
$PSLTSCALE
 70
     1
  9
$TREEDEPTH
 70
  3020
  9
$CMLSTYLE
  2
Standard
  9
$CMLJUST
 70
     0
  9
$CMLSCALE
 40
1.0
  9
$PROXYGRAPHICS
 70
     1
  9
$MEASUREMENT
 70
     1
  9
$CELWEIGHT
370
    -1
  9
$ENDCAPS
280
     0
  9
$JOINSTYLE
280
     0
  9
$LWDISPLAY
290
     0
  9
$INSUNITS
 70
     4
  9
$HYPERLINKBASE
  1

  9
$STYLESHEET
  1

  9
$XEDIT
290
     1
  9
$CEPSNTYPE
380
     0
  9
$PSTYLEMODE
290
     1
  9
$FINGERPRINTGUID
  2
{CC41D1C1-BD76-4704-B27B-F719E9A35BFE}
  9
$VERSIONGUID
  2
{FAEB1C32-E019-11D5-929B-00C0DF256EC4}
  9
$EXTNAMES
290
     1
  9
$PSVPSCALE
 40
0.0
  9
$OLESTARTUP
290
     0
  0
ENDSEC
  0
SECTION
  2
CLASSES
  0
CLASS
  1
ACDBDICTIONARYWDFLT
  2
AcDbDictionaryWithDefault
  3
ObjectDBX Classes
 90
        0
280
     0
281
     0
  0
CLASS
  1
VISUALSTYLE
  2
AcDbVisualStyle
  3
ObjectDBX Classes
 90
     4095
280
     0
281
     0
  0
CLASS
  1
MATERIAL
  2
AcDbMaterial
  3
ObjectDBX Classes
 90
     1153
280
     0
281
     0
  0
CLASS
  1
DICTIONARYVAR
  2
AcDbDictionaryVar
  3
ObjectDBX Classes
 90
        0
280
     0
281
     0
  0
CLASS
  1
ACDBPLACEHOLDER
  2
AcDbPlaceHolder
  3
ObjectDBX Classes
 90
        0
280
     0
281
     0
  0
CLASS
  1
LAYOUT
  2
AcDbLayout
  3
ObjectDBX Classes
 90
        0
280
     0
281
     0
  0
ENDSEC
  0
SECTION
  2
TABLES
  0
TABLE
  2
VPORT
  5
8
330
0
100
AcDbSymbolTable
 70
     1
  0
VPORT
  5
29
330
8
100
AcDbSymbolTableRecord
100
AcDbViewportTableRecord
  2
*Active
 70
     0
 10
0.0
 20
0.0
 11
1.0
 21
1.0
 12
210.0
 22
297.0
 13
0.0
 23
0.0
 14
0.5
 24
0.5
 15
0.5
 25
0.5
 16
0.0
 26
0.0
 36
1.0
 17
0.0
 27
0.0
 37
0.0
 40
653.4000000000001
 41
1.60267857142857
 42
50.0
 43
0.0
 44
0.0
 50
0.0
 51
0.0
 71
     0
 72
   100
 73
     1
 74
     3
 75
     0
 76
     0
 77
     0
 78
     0
281
     0
 65
     1
110
0.0
120
0.0
130
0.0
111
1.0
121
0.0
131
0.0
112
0.0
122
1.0
132
0.0
 79
     0
146
0.0
  0
ENDTAB
  0
TABLE
  2
LTYPE
  5
5
330
0
100
AcDbSymbolTable
 70
     8
  0
LTYPE
  5
14
330
5
100
AcDbSymbolTableRecord
100
AcDbLinetypeTableRecord
  2
ByBlock
 70
     0
  3

 72
    65
 73
     0
 40
0.0
  0
LTYPE
  5
15
330
5
100
AcDbSymbolTableRecord
100
AcDbLinetypeTableRecord
  2
ByLayer
 70
     0
  3

 72
    65
 73
     0
 40
0.0
  0
LTYPE
  5
16
330
5
100
AcDbSymbolTableRecord
100
AcDbLinetypeTableRecord
  2
Continuous
 70
     0
  3
Solid line
 72
    65
 73
     0
 40
0.0
  0
LTYPE
  5
3F
330
5
100
AcDbSymbolTableRecord
100
AcDbLinetypeTableRecord
  2
DASHED
 70
     0
  3
Dashed
 72
    65
 73
     2
 40
15.0
 49
7.0
 74
     0
 49
-8.0
 74
     0
  0
LTYPE
  5
40
330
5
100
AcDbSymbolTableRecord
100
AcDbLinetypeTableRecord
  2
DOTTED
 70
     0
  3
Dotted
 72
    65
 73
     2
 40
1.0
 49
0.0
 74
     0
 49
-1.0
 74
     0
  0
LTYPE
  5
41
330
5
100
AcDbSymbolTableRecord
100
AcDbLinetypeTableRecord
  2
DOT_CENTER
 70
     0
  3
Dot_Center
 72
    65
 73
     4
 40
14.0
 49
12.0
 74
     0
 49
-1.0
 74
     0
 49
0.0
 74
     0
 49
-1.0
 74
     0
  0
LTYPE
  5
42
330
5
100
AcDbSymbolTableRecord
100
AcDbLinetypeTableRecord
  2
LONG_DASHED
 70
     0
  3
Long_Dashed
 72
    65
 73
     2
 40
15.0
 49
10.0
 74
     0
 49
-5.0
 74
     0
  0
LTYPE
  5
43
330
5
100
AcDbSymbolTableRecord
100
AcDbLinetypeTableRecord
  2
DASH_CENTER
 70
     0
  3
Dash_Center
 72
    65
 73
     4
 40
14.0
 49
11.0
 74
     0
 49
-1.0
 74
     0
 49
1.0
 74
     0
 49
-1.0
 74
     0
  0
LTYPE
  5
44
330
5
100
AcDbSymbolTableRecord
100
AcDbLinetypeTableRecord
  2
PHANTOM
 70
     0
  3
Phantom
 72
    65
 73
     6
 40
13.0
 49
10.0
 74
     0
 49
-1.0
 74
     0
 49
0.0
 74
     0
 49
-1.0
 74
     0
 49
0.0
 74
     0
 49
-1.0
 74
     0
  0
LTYPE
  5
45
330
5
100
AcDbSymbolTableRecord
100
AcDbLinetypeTableRecord
  2
CENTER_DASH_DASH
 70
     0
  3
Center_Dash_Dash
 72
    65
 73
     6
 40
14.0
 49
9.0
 74
     0
 49
-1.0
 74
     0
 49
1.0
 74
     0
 49
-1.0
 74
     0
 49
1.0
 74
     0
 49
-1.0
 74
     0
  0
ENDTAB
  0
TABLE
  2
LAYER
  5
2
330
0
100
AcDbSymbolTable
 70
     2
  0
LAYER
  5
10
330
2
100
AcDbSymbolTableRecord
100
AcDbLayerTableRecord
  2
0
 70
     0
 62
     7
  6
Continuous
370
    -3
390
F
  0
LAYER
  5
46
330
2
100
AcDbSymbolTableRecord
100
AcDbLayerTableRecord
  2
1
 70
     0
 62
     7
  6
Continuous
370
    -3
390
F
  0
ENDTAB
  0
TABLE
  2
STYLE
  5
3
330
0
100
AcDbSymbolTable
 70
     3
  0
STYLE
  5
11
330
3
100
AcDbSymbolTableRecord
100
AcDbTextStyleTableRecord
  2
Standard
 70
     0
 40
0.0
 41
1.0
 50
0.0
 71
     0
 42
0.2
  3
txt
  4

  0
STYLE
  5
14C
330
3
100
AcDbSymbolTableRecord
100
AcDbTextStyleTableRecord
  2
CONVERTER_11
 70
     0
 40
0.0
 41
0.89
 50
0.0
 71
     0
 42
0.2
  3
MS Mincho.ttf
  4

1001
ACAD
1000
MS Mincho
1071
    32785
  0
STYLE
  5
236
330
3
100
AcDbSymbolTableRecord
100
AcDbTextStyleTableRecord
  2
CONVERTER_12
 70
     0
 40
0.0
 41
0.9
 50
0.0
 71
     0
 42
0.2
  3
txt.shx
  4

  0
ENDTAB
  0
TABLE
  2
VIEW
  5
6
330
0
100
AcDbSymbolTable
 70
     0
  0
ENDTAB
  0
TABLE
  2
UCS
  5
7
330
0
100
AcDbSymbolTable
 70
     0
  0
ENDTAB
  0
TABLE
  2
APPID
  5
9
330
0
100
AcDbSymbolTable
 70
     1
  0
APPID
  5
12
330
9
100
AcDbSymbolTableRecord
100
AcDbRegAppTableRecord
  2
ACAD
 70
     0
  0
ENDTAB
  0
TABLE
  2
DIMSTYLE
  5
A
330
0
100
AcDbSymbolTable
 70
     6
100
AcDbDimStyleTable
  0
DIMSTYLE
105
27
330
A
100
AcDbSymbolTableRecord
100
AcDbDimStyleTableRecord
  2
Standard
 70
     0
178
     0
340
11
  0
DIMSTYLE
105
248
102
{ACAD_REACTORS
330
249
102
}
330
A
100
AcDbSymbolTableRecord
100
AcDbDimStyleTableRecord
  2
ME10_DIM_10
 70
     0
 41
7.0
 42
0.0
 44
2.0
 73
     0
 74
     0
 77
     1
 78
     8
140
7.0
147
2.0
172
     1
173
     1
174
     1
175
     1
176
     2
177
     2
271
     2
178
     7
271
     2
340
14C
  0
DIMSTYLE
105
253
102
{ACAD_REACTORS
330
254
102
}
330
A
100
AcDbSymbolTableRecord
100
AcDbDimStyleTableRecord
  2
ME10_DIM_11
 70
     0
 41
7.0
 42
0.0
 44
2.0
 73
     0
 74
     0
 77
     1
 78
     8
140
7.0
147
2.0
172
     1
173
     1
174
     1
175
     1
176
     2
177
     2
271
     2
178
     7
271
     2
340
236
  0
DIMSTYLE
105
25E
102
{ACAD_REACTORS
330
25F
102
}
330
A
100
AcDbSymbolTableRecord
100
AcDbDimStyleTableRecord
  2
ME10_DIM_12
 70
     0
 41
7.0
 42
0.0
 44
2.0
 73
     0
 74
     0
 77
     1
 78
     8
140
7.0
147
2.0
172
     1
173
     1
174
     1
175
     1
176
     2
177
     2
271
     2
178
     7
271
     2
340
236
  0
DIMSTYLE
105
269
102
{ACAD_REACTORS
330
26A
102
}
330
A
100
AcDbSymbolTableRecord
100
AcDbDimStyleTableRecord
  2
ME10_DIM_13
 70
     0
  3
{\Fgdt;n}<>
 41
7.0
 42
0.0
 44
2.0
 73
     0
 74
     0
 77
     1
 78
     8
140
7.0
147
2.0
172
     1
173
     1
174
     1
175
     1
176
     2
177
     2
271
     2
178
     7
271
     2
340
236
  0
DIMSTYLE
105
277
102
{ACAD_REACTORS
330
278
102
}
330
A
100
AcDbSymbolTableRecord
100
AcDbDimStyleTableRecord
  2
ME10_DIM_14
 70
     0
 41
7.0
 42
0.0
 44
2.0
 73
     0
 74
     0
 77
     1
 78
     8
140
7.0
147
2.0
172
     1
173
     1
174
     1
175
     1
176
     2
177
     2
271
     2
178
     7
271
     2
340
236
343
274
  0
ENDTAB
  0
TABLE
  2
BLOCK_RECORD
  5
1
330
0
100
AcDbSymbolTable
 70
    17
  0
BLOCK_RECORD
  5
1F
330
1
100
AcDbSymbolTableRecord
100
AcDbBlockTableRecord
  2
*Model_Space
340
22
  0
BLOCK_RECORD
  5
1B
330
1
100
AcDbSymbolTableRecord
100
AcDbBlockTableRecord
  2
*Paper_Space
340
1E
  0
BLOCK_RECORD
  5
23
330
1
100
AcDbSymbolTableRecord
100
AcDbBlockTableRecord
  2
*Paper_Space0
340
26
  0
BLOCK_RECORD
  5
47
330
1
100
AcDbSymbolTableRecord
100
AcDbBlockTableRecord
  2
37-119
340
0
102
{BLKREFS
331
4E
102
}
  0
BLOCK_RECORD
  5
4A
330
1
100
AcDbSymbolTableRecord
100
AcDbBlockTableRecord
  2
36-190-M11
340
0
102
{BLKREFS
331
4F
102
}
  0
BLOCK_RECORD
  5
4D
330
1
100
AcDbSymbolTableRecord
100
AcDbBlockTableRecord
  2
U360LS-13
340
0
102
{BLKREFS
331
69
102
}
  0
BLOCK_RECORD
  5
52
330
1
100
AcDbSymbolTableRecord
100
AcDbBlockTableRecord
  2
41-1-15
340
0
102
{BLKREFS
331
59
102
}
  0
BLOCK_RECORD
  5
55
330
1
100
AcDbSymbolTableRecord
100
AcDbBlockTableRecord
  2
91-1
340
0
102
{BLKREFS
331
5A
102
}
  0
BLOCK_RECORD
  5
58
330
1
100
AcDbSymbolTableRecord
100
AcDbBlockTableRecord
  2
P82A-15
340
0
102
{BLKREFS
331
6A
102
}
  0
BLOCK_RECORD
  5
5D
330
1
100
AcDbSymbolTableRecord
100
AcDbBlockTableRecord
  2
27-2A-M1
340
0
102
{BLKREFS
331
6B
102
}
  0
BLOCK_RECORD
  5
60
330
1
100
AcDbSymbolTableRecord
100
AcDbBlockTableRecord
  2
開示A4
340
0
102
{BLKREFS
331
6C
102
}
  0
BLOCK_RECORD
  5
63
330
1
100
AcDbSymbolTableRecord
100
AcDbBlockTableRecord
  2
42-29
340
0
102
{BLKREFS
331
6D
102
}
  0
BLOCK_RECORD
  5
66
330
1
100
AcDbSymbolTableRecord
100
AcDbBlockTableRecord
  2
A231L-0-13-M1
340
0
102
{BLKREFS
331
6E
102
}
  0
BLOCK_RECORD
  5
23F
330
1
100
AcDbSymbolTableRecord
100
AcDbBlockTableRecord
  2
*D11
340
0
  0
BLOCK_RECORD
  5
24A
330
1
100
AcDbSymbolTableRecord
100
AcDbBlockTableRecord
  2
*D12
340
0
  0
BLOCK_RECORD
  5
255
330
1
100
AcDbSymbolTableRecord
100
AcDbBlockTableRecord
  2
*D13
340
0
  0
BLOCK_RECORD
  5
260
330
1
100
AcDbSymbolTableRecord
100
AcDbBlockTableRecord
  2
*D14
340
0
  0
BLOCK_RECORD
  5
26B
330
1
100
AcDbSymbolTableRecord
100
AcDbBlockTableRecord
  2
*D15
340
0
  0
BLOCK_RECORD
  5
274
330
1
100
AcDbSymbolTableRecord
100
AcDbBlockTableRecord
  2
_NONE
340
0
  0
ENDTAB
  0
ENDSEC
  0
SECTION
  2
BLOCKS
  0
BLOCK
  5
20
330
1F
100
AcDbEntity
  8
0
100
AcDbBlockBegin
  2
*Model_Space
 70
     0
 10
0.0
 20
0.0
 30
0.0
  3
*Model_Space
  1

  0
ENDBLK
  5
21
330
1F
100
AcDbEntity
  8
0
100
AcDbBlockEnd
  0
BLOCK
  5
1C
330
1B
100
AcDbEntity
 67
     1
  8
0
100
AcDbBlockBegin
  2
*Paper_Space
 70
     0
 10
0.0
 20
0.0
 30
0.0
  3
*Paper_Space
  1

  0
ENDBLK
  5
1D
330
1B
100
AcDbEntity
 67
     1
  8
0
100
AcDbBlockEnd
  0
BLOCK
  5
24
330
23
100
AcDbEntity
  8
0
100
AcDbBlockBegin
  2
*Paper_Space0
 70
     0
 10
0.0
 20
0.0
 30
0.0
  3
*Paper_Space0
  1

  0
ENDBLK
  5
25
330
23
100
AcDbEntity
  8
0
100
AcDbBlockEnd
  0
BLOCK
  5
48
330
47
100
AcDbEntity
  8
0
100
AcDbBlockBegin
  2
37-119
 70
     0
 10
-173.9661316756567
 20
740.9902526749138
 30
0.0
  3
37-119
  1

  0
LINE
  5
6F
330
47
100
AcDbEntity
  8
1
  6
Continuous
 62
     7
100
AcDbLine
 10
148.1797912046726
 20
240.9659284573584
 30
0.0
 11
148.5039053623711
 21
240.9659284573584
 31
0.0
  0
LINE
  5
70
330
47
100
AcDbEntity
  8
1
  6
PHANTOM
 62
     4
100
AcDbLine
 10
303.2019990092286
 20
413.3076338397303
 30
0.0
 11
324.6686341617457
 21
413.3076338397303
 31
0.0
  0
LINE
  5
71
330
47
100
AcDbEntity
  8
1
  6
Continuous
 62
     7
100
AcDbLine
 10
162.6494295985366
 20
240.0280773226803
 30
0.0
 11
169.0720458878692
 21
228.9037795920367
 31
0.0
  0
LINE
  5
72
330
47
100
AcDbEntity
  8
1
  6
Continuous
 62
     7
100
AcDbLine
 10
160.700909625642
 20
240.9659284573584
 30
0.0
 11
161.0250237833379
 21
240.9659284573584
 31
0.0
  0
LINE
  5
73
330
47
100
AcDbEntity
  8
1
  6
Continuous
 62
     7
100
AcDbLine
 10
140.1327691001413
 20
228.9037795920367
 30
0.0
 11
146.5553853894739
 21
240.0280773226803
 31
0.0
  0
LINE
  5
74
330
47
100
AcDbEntity
  8
1
  6
Continuous
 62
     7
100
AcDbLine
 10
146.5553853894739
 20
215.9037795920367
 30
0.0
 11
140.1327691001413
 21
227.0280773226803
 31
0.0
  0
LINE
  5
75
330
47
100
AcDbEntity
  8
1
  6
Continuous
 62
     7
100
AcDbLine
 10
161.0250237833379
 20
214.9659284573584
 30
0.0
 11
148.1797912046726
 21
214.9659284573584
 31
0.0
  0
LINE
  5
76
330
47
100
AcDbEntity
  8
1
  6
Continuous
 62
     7
100
AcDbLine
 10
169.0720458878692
 20
227.0280773226803
 30
0.0
 11
162.6494295985366
 21
215.9037795920367
 31
0.0
  0
LINE
  5
77
330
47
100
AcDbEntity
  8
1
  6
PHANTOM
 62
     4
100
AcDbLine
 10
136.8974217966146
 20
227.9659284573584
 30
0.0
 11
172.6013160644849
 21
227.9659284573584
 31
0.0
  0
LINE
  5
78
330
47
100
AcDbEntity
  8
1
  6
PHANTOM
 62
     4
100
AcDbLine
 10
154.6024074940053
 20
212.4692317143606
 30
0.0
 11
154.6024074940053
 21
243.5322385124039
 31
0.0
  0
LINE
  5
79
330
47
100
AcDbEntity
  8
1
  6
Continuous
 62
     7
100
AcDbLine
 10
309.4290210743298
 20
421.8076338397303
 30
0.0
 11
304.7427295733147
 21
421.8076338397303
 31
0.0
  0
LINE
  5
7A
330
47
100
AcDbEntity
  8
1
  6
Continuous
 62
     7
100
AcDbLine
 10
311.5503414178894
 20
422.6863134961707
 30
0.0
 11
315.2071956673818
 21
426.3431677456631
 31
0.0
  0
LINE
  5
7B
330
47
100
AcDbEntity
  8
1
  6
Continuous
 62
     7
100
AcDbLine
 10
310.6716617614492
 20
413.3076338397303
 30
0.0
 11
310.6716617614492
 21
420.8076338397303
 31
0.0
  0
LINE
  5
7C
330
47
100
AcDbEntity
  8
1
  6
Continuous
 62
     7
100
AcDbLine
 10
322.2427295733145
 20
420.8076338397303
 30
0.0
 11
322.2427295733145
 21
418.2076338397304
 31
0.0
  0
LINE
  5
7D
330
47
100
AcDbEntity
  8
1
  6
Continuous
 62
     7
100
AcDbLine
 10
322.2427295733145
 20
426.3783480540018
 30
0.0
 11
322.2427295733145
 21
420.8076338397303
 31
0.0
  0
LINE
  5
7E
330
47
100
AcDbEntity
  8
1
  6
Continuous
 62
     7
100
AcDbLine
 10
303.7427295733147
 20
420.8076338397303
 30
0.0
 11
303.7427295733147
 21
413.3076338397303
 31
0.0
  0
LINE
  5
7F
330
47
100
AcDbEntity
  8
1
  6
Continuous
 62
     7
100
AcDbLine
 10
322.2427295733145
 20
418.2076338397304
 30
0.0
 11
322.2427295733146
 21
413.3076338397302
 31
0.0
  0
LINE
  5
80
330
47
100
AcDbEntity
  8
1
  6
Continuous
 62
     7
100
AcDbLine
 10
322.2427295733146
 20
413.3076338397302
 30
0.0
 11
322.2427295733145
 21
408.40763383973
 31
0.0
  0
LINE
  5
81
330
47
100
AcDbEntity
  8
1
  6
Continuous
 62
     7
100
AcDbLine
 10
303.7427295733147
 20
413.3076338397303
 30
0.0
 11
303.7427295733147
 21
405.8076338397304
 31
0.0
  0
LINE
  5
82
330
47
100
AcDbEntity
  8
1
  6
Continuous
 62
     7
100
AcDbLine
 10
322.2427295733145
 20
405.8076338397301
 30
0.0
 11
322.2427295733145
 21
400.2369196254587
 31
0.0
  0
LINE
  5
83
330
47
100
AcDbEntity
  8
1
  6
Continuous
 62
     7
100
AcDbLine
 10
322.2427295733145
 20
408.40763383973
 30
0.0
 11
322.2427295733145
 21
405.8076338397301
 31
0.0
  0
LINE
  5
84
330
47
100
AcDbEntity
  8
1
  6
Continuous
 62
     7
100
AcDbLine
 10
310.6716617614492
 20
405.8076338397304
 30
0.0
 11
310.6716617614492
 21
413.3076338397303
 31
0.0
  0
LINE
  5
85
330
47
100
AcDbEntity
  8
1
  6
Continuous
 62
     7
100
AcDbLine
 10
315.2071956673818
 20
400.2720999337977
 30
0.0
 11
311.5503414178894
 21
403.92895418329
 31
0.0
  0
LINE
  5
86
330
47
100
AcDbEntity
  8
1
  6
Continuous
 62
     7
100
AcDbLine
 10
304.7427295733147
 20
404.8076338397304
 30
0.0
 11
309.4290210743298
 21
404.8076338397304
 31
0.0
  0
LINE
  5
87
330
47
100
AcDbEntity
  8
1
  6
Continuous
 62
     7
100
AcDbLine
 10
315.1721140351305
 20
240.9659284573586
 30
0.0
 11
322.2428282494019
 21
240.9659284573587
 31
0.0
  0
LINE
  5
88
330
47
100
AcDbEntity
  8
1
  6
Continuous
 62
     7
100
AcDbLine
 10
322.2428282494023
 20
214.9659284573587
 30
0.0
 11
315.1721140351307
 21
214.9659284573586
 31
0.0
  0
LINE
  5
89
330
47
100
AcDbEntity
  8
1
  6
Continuous
 62
     7
100
AcDbLine
 10
304.7428282494015
 20
219.4659284573583
 30
0.0
 11
309.4291197504168
 21
219.4659284573583
 31
0.0
  0
LINE
  5
8A
330
47
100
AcDbEntity
  8
1
  6
Continuous
 62
     7
100
AcDbLine
 10
315.2072943434688
 20
214.9303945514257
 30
0.0
 11
311.5504400939765
 21
218.5872488009181
 31
0.0
  0
LINE
  5
8B
330
47
100
AcDbEntity
  8
1
  6
Continuous
 62
     7
100
AcDbLine
 10
310.6717604375361
 20
220.4659284573583
 30
0.0
 11
310.671760437536
 21
227.9659284573586
 31
0.0
  0
LINE
  5
8C
330
47
100
AcDbEntity
  8
1
  6
Continuous
 62
     7
100
AcDbLine
 10
322.2428282494014
 20
223.0659284573586
 30
0.0
 11
322.2428282494015
 21
220.4659284573586
 31
0.0
  0
LINE
  5
8D
330
47
100
AcDbEntity
  8
1
  6
Continuous
 62
     7
100
AcDbLine
 10
322.2428282494015
 20
220.4659284573586
 30
0.0
 11
322.2428282494017
 21
214.895214243087
 31
0.0
  0
LINE
  5
8E
330
47
100
AcDbEntity
  8
1
  6
Continuous
 62
     7
100
AcDbLine
 10
322.2428282494014
 20
227.9659284573587
 30
0.0
 11
322.2428282494014
 21
223.0659284573586
 31
0.0
  0
LINE
  5
8F
330
47
100
AcDbEntity
  8
1
  6
Continuous
 62
     7
100
AcDbLine
 10
303.7428282494014
 20
227.9659284573584
 30
0.0
 11
303.7428282494016
 21
220.4659284573583
 31
0.0
  0
LINE
  5
90
330
47
100
AcDbEntity
  8
1
  6
Continuous
 62
     7
100
AcDbLine
 10
303.7428282494014
 20
235.4659284573584
 30
0.0
 11
303.7428282494014
 21
227.9659284573584
 31
0.0
  0
LINE
  5
91
330
47
100
AcDbEntity
  8
1
  6
Continuous
 62
     7
100
AcDbLine
 10
322.2428282494014
 20
232.8659284573587
 30
0.0
 11
322.2428282494014
 21
227.9659284573587
 31
0.0
  0
LINE
  5
92
330
47
100
AcDbEntity
  8
1
  6
PHANTOM
 62
     4
100
AcDbLine
 10
303.2020976853154
 20
227.9659284573584
 30
0.0
 11
322.2427295733145
 21
227.9659284573586
 31
0.0
  0
LINE
  5
93
330
47
100
AcDbEntity
  8
1
  6
PHANTOM
 62
     4
100
AcDbLine
 10
324.6687328378327
 20
227.9659284573588
 30
0.0
 11
322.2427295733145
 21
227.9659284573586
 31
0.0
  0
LINE
  5
94
330
47
100
AcDbEntity
  8
1
  6
Continuous
 62
     7
100
AcDbLine
 10
322.2428282494012
 20
241.0366426716301
 30
0.0
 11
322.2428282494014
 21
235.4659284573587
 31
0.0
  0
LINE
  5
95
330
47
100
AcDbEntity
  8
1
  6
Continuous
 62
     7
100
AcDbLine
 10
322.2428282494014
 20
235.4659284573587
 30
0.0
 11
322.2428282494014
 21
232.8659284573587
 31
0.0
  0
LINE
  5
96
330
47
100
AcDbEntity
  8
1
  6
Continuous
 62
     7
100
AcDbLine
 10
310.671760437536
 20
227.9659284573586
 30
0.0
 11
310.6717604375357
 21
235.4659284573586
 31
0.0
  0
LINE
  5
97
330
47
100
AcDbEntity
  8
1
  6
Continuous
 62
     7
100
AcDbLine
 10
311.5504400939761
 20
237.344608113799
 30
0.0
 11
315.2072943434685
 21
241.0014623632912
 31
0.0
  0
LINE
  5
98
330
47
100
AcDbEntity
  8
1
  6
Continuous
 62
     7
100
AcDbLine
 10
309.4291197504166
 20
236.4659284573586
 30
0.0
 11
304.7428282494015
 21
236.4659284573584
 31
0.0
  0
ARC
  5
99
330
47
100
AcDbEntity
  8
1
  6
Continuous
 62
     7
100
AcDbCircle
 10
154.6024074940053
 20
227.9659284573584
 30
0.0
 40
14.50000000000009
100
AcDbArc
 50
56.29155527473007
 51
63.70844472527049
  0
ARC
  5
9A
330
47
100
AcDbEntity
  8
1
  6
Continuous
 62
     7
100
AcDbCircle
 10
154.6024074940053
 20
227.9659284573584
 30
0.0
 40
14.50000000000006
100
AcDbArc
 50
116.2915552747298
 51
123.7084447252701
  0
ARC
  5
9B
330
47
100
AcDbEntity
  8
1
  6
Continuous
 62
     7
100
AcDbCircle
 10
154.6024074940053
 20
227.9659284573584
 30
0.0
 40
14.50000000000001
100
AcDbArc
 50
176.2915552747291
 51
180.0
  0
ARC
  5
9C
330
47
100
AcDbEntity
  8
1
  6
Continuous
 62
     7
100
AcDbCircle
 10
154.6024074940053
 20
227.9659284573584
 30
0.0
 40
14.49999999999993
100
AcDbArc
 50
236.2915552747294
 51
243.7084447252702
  0
ARC
  5
9D
330
47
100
AcDbEntity
  8
1
  6
Continuous
 62
     7
100
AcDbCircle
 10
154.6024074940053
 20
227.9659284573584
 30
0.0
 40
14.50000000000002
100
AcDbArc
 50
296.2915552747295
 51
303.7084447252704
  0
ARC
  5
9E
330
47
100
AcDbEntity
  8
1
  6
Continuous
 62
     7
100
AcDbCircle
 10
154.6024074940053
 20
227.9659284573584
 30
0.0
 40
14.49999999999991
100
AcDbArc
 50
356.29155527473
 51
0.0
  0
ARC
  5
9F
330
47
100
AcDbEntity
  8
1
  6
Continuous
 62
     7
100
AcDbCircle
 10
318.7427295733147
 20
422.8076338397303
 30
0.0
 40
4.999999999999898
100
AcDbArc
 50
45.5729959991968
 51
135.0000000000005
  0
ARC
  5
A0
330
47
100
AcDbEntity
  8
1
  6
Continuous
 62
     7
100
AcDbCircle
 10
154.6024074940053
 20
227.9659284573584
 30
0.0
 40
14.5
100
AcDbArc
 50
0.0
 51
3.70844472527089
  0
ARC
  5
A1
330
47
100
AcDbEntity
  8
1
  6
Continuous
 62
     7
100
AcDbCircle
 10
154.6024074940053
 20
227.9659284573584
 30
0.0
 40
14.5
100
AcDbArc
 50
180.0
 51
183.70844472527
  0
ARC
  5
A2
330
47
100
AcDbEntity
  8
1
  6
Continuous
 62
     7
100
AcDbCircle
 10
318.7427295733147
 20
403.8076338397303
 30
0.0
 40
5.0
100
AcDbArc
 50
224.9999999999977
 51
314.4270040008028
  0
SPLINE
  5
A3
330
47
100
AcDbEntity
  8
1
  6
Continuous
 62
     7
100
AcDbSpline
210
0.0
220
0.0
230
1.0
 70
    11
 71
     3
 72
    79
 73
    75
 74
    73
 42
0.000000001
 43
0.0000000001
 44
0.00000001
 40
0.0
 40
0.0
 40
0.0
 40
0.0
 40
0.3102615582252382
 40
0.620559542082092
 40
0.9422162975287843
 40
1.263944872753724
 40
1.606039020844941
 40
1.948193468906952
 40
2.316051885190544
 40
2.683951048240072
 40
3.079084664080467
 40
3.474244780173767
 40
3.89489795920752
 40
4.315568207494145
 40
4.757452126736345
 40
5.19934667424149
 40
5.656354161987068
 40
6.113367478658249
 40
6.578223037733324
 40
7.043080455842776
 40
7.507937873950233
 40
7.972793433018607
 40
8.429806749677555
 40
8.886814237403607
 40
9.328708784880442
 40
9.770592704081503
 40
10.19126295231281
 40
10.61191613126938
 40
11.00707624726315
 40
11.40220986296864
 40
11.77010902584987
 40
12.13796744190987
 40
12.48012188969632
 40
12.82221603741918
 40
13.14394461216136
 40
13.46560136682474
 40
13.7758993486416
 40
14.08616091447275
 40
14.39642248030363
 40
14.70672046212011
 40
15.02837721678345
 40
15.35010579152564
 40
15.69219993924852
 40
16.03435438703504
 40
16.40221280309506
 40
16.77011196597623
 40
17.16524558168173
 40
17.56040569767556
 40
17.98105887663227
 40
18.40172912486368
 40
18.84361304406483
 40
19.28550759154173
 40
19.74251507926764
 40
20.19952839592642
 40
20.66438395499465
 40
21.12924137310197
 40
21.59409879121162
 40
22.0589543502868
 40
22.51596766695784
 40
22.97297515470325
 40
23.41486970220858
 40
23.85675362145086
 40
24.27742386973753
 40
24.69807704877128
 40
25.09323716486452
 40
25.48837078070485
 40
25.85626994375441
 40
26.22412836003796
 40
26.56628280810007
 40
26.90837695619136
 40
27.23010553141627
 40
27.55176228686306
 40
27.86206027071979
 40
28.17232182894492
 40
28.17232182894492
 40
28.17232182894492
 40
28.17232182894492
 10
318.7074711422665
 20
227.0280773226802
 30
0.0
 10
318.6039809603443
 20
227.0240441309642
 30
0.0
 10
318.3969884459996
 20
227.0159772822935
 30
0.0
 10
318.088139577977
 20
226.9519933044841
 30
0.0
 10
317.786172664243
 20
226.8505725081868
 30
0.0
 10
317.4892630081282
 20
226.708150008089
 30
0.0
 10
317.2049448997678
 20
226.529047435329
 30
0.0
 10
316.9294438534714
 20
226.3110771674684
 30
0.0
 10
316.670837832803
 20
226.0607950134335
 30
0.0
 10
316.4250799431901
 20
225.7743328516616
 30
0.0
 10
316.1994346829956
 20
225.4605020993744
 30
0.0
 10
315.9906630151078
 20
225.1145879343433
 30
0.0
 10
315.8044422468363
 20
224.7464691421928
 30
0.0
 10
315.6387577164896
 20
224.3517752072761
 30
0.0
 10
315.4974499436402
 20
223.9402220073042
 30
0.0
 10
315.3796704550658
 20
223.5087963077096
 30
0.0
 10
315.2875521534272
 20
223.066022278999
 30
0.0
 10
315.2210662260341
 20
222.6109642804051
 30
0.0
 10
315.1810086691236
 20
222.1501971783239
 30
0.0
 10
315.1676667118285
 20
221.6852750028931
 30
0.0
 10
315.1810086690451
 20
221.2203528274662
 30
0.0
 10
315.2210662258728
 20
220.7595857253735
 30
0.0
 10
315.2875521531744
 20
220.3045277268211
 30
0.0
 10
315.3796704547096
 20
219.8617536979562
 30
0.0
 10
315.4974499431624
 20
219.4303279989144
 30
0.0
 10
315.6387577158702
 20
219.0187747969157
 30
0.0
 10
315.8044422460475
 20
218.6240808691934
 30
0.0
 10
315.9906630141212
 20
218.2559620509713
 30
0.0
 10
316.1994346817735
 20
217.9100479775482
 30
0.0
 10
316.4250799416964
 20
217.5962168956104
 30
0.0
 10
316.6708378309879
 20
217.3097558831374
 30
0.0
 10
316.9294438512869
 20
217.0594696040644
 30
0.0
 10
317.2049448971432
 20
216.8415137060574
 30
0.0
 10
317.4892630049824
 20
216.6623593923181
 30
0.0
 10
317.7861726603948
 20
216.5201190409304
 30
0.0
 10
318.0881395729042
 20
216.4180353888903
 30
0.0
 10
318.3969884420506
 20
216.3564421489624
 30
0.0
 10
318.7074711422667
 20
216.335488345501
 30
0.0
 10
319.0179538424827
 20
216.3564421489626
 30
0.0
 10
319.3268027116288
 20
216.4180353888906
 30
0.0
 10
319.6287696241381
 20
216.5201190409305
 30
0.0
 10
319.9256792795506
 20
216.6623593923181
 30
0.0
 10
320.2099973873899
 20
216.8415137060572
 30
0.0
 10
320.4854984332465
 20
217.059469604064
 30
0.0
 10
320.7441044535453
 20
217.3097558831371
 30
0.0
 10
320.9898623428367
 20
217.5962168956103
 30
0.0
 10
321.2155076027594
 20
217.9100479775482
 30
0.0
 10
321.424279270412
 20
218.2559620509712
 30
0.0
 10
321.6105000384857
 20
218.6240808691935
 30
0.0
 10
321.7761845686629
 20
219.0187747969159
 30
0.0
 10
321.9174923413705
 20
219.4303279989147
 30
0.0
 10
322.0352718298234
 20
219.8617536979565
 30
0.0
 10
322.1273901313584
 20
220.3045277268213
 30
0.0
 10
322.1938760586602
 20
220.7595857253736
 30
0.0
 10
322.2339336154877
 20
221.2203528274661
 30
0.0
 10
322.2472755727043
 20
221.685275002893
 30
0.0
 10
322.2339336154095
 20
222.150197178324
 30
0.0
 10
322.1938760584991
 20
222.6109642804051
 30
0.0
 10
322.127390131106
 20
223.0660222789989
 30
0.0
 10
322.0352718294673
 20
223.5087963077095
 30
0.0
 10
321.9174923408929
 20
223.940222007304
 30
0.0
 10
321.7761845680432
 20
224.3517752072761
 30
0.0
 10
321.6105000376964
 20
224.7464691421928
 30
0.0
 10
321.4242792694251
 20
225.1145879343433
 30
0.0
 10
321.2155076015376
 20
225.4605020993745
 30
0.0
 10
320.9898623413428
 20
225.7743328516617
 30
0.0
 10
320.7441044517302
 20
226.0607950134334
 30
0.0
 10
320.4854984310613
 20
226.3110771674684
 30
0.0
 10
320.209997384765
 20
226.529047435329
 30
0.0
 10
319.9256792764048
 20
226.7081500080891
 30
0.0
 10
319.6287696202899
 20
226.8505725081868
 30
0.0
 10
319.3268027065559
 20
226.951993304484
 30
0.0
 10
319.0179538385333
 20
227.0159772822935
 30
0.0
 10
318.8109613241887
 20
227.0240441309642
 30
0.0
 10
318.7074711422665
 20
227.0280773226802
 30
0.0
 11
318.7074711422665
 21
227.0280773226802
 31
0.0
 11
318.3978953441298
 21
227.0074602294795
 31
0.0
 11
318.0935628232106
 21
226.9469081500815
 31
0.0
 11
317.7886634879472
 21
226.8444412614497
 31
0.0
 11
317.4983077977766
 21
226.7058669165208
 31
0.0
 11
317.2085146670851
 21
226.5240748721635
 31
0.0
 11
316.9397925886986
 21
226.3122775379073
 31
0.0
 11
316.6750042449297
 21
226.0569210276333
 31
0.0
 11
316.4349873979824
 21
225.778099028344
 31
0.0
 11
316.2038694656572
 21
225.457607100719
 31
0.0
 11
315.9992304759041
 21
225.1195621315372
 31
0.0
 11
315.8089641433128
 21
224.7443984076932
 31
0.0
 11
315.6457620760371
 21
224.3566761578604
 31
0.0
 11
315.5019768054552
 21
223.9388398333991
 31
0.0
 11
315.3853221568482
 21
223.5126210115845
 31
0.0
 11
315.2920587551487
 21
223.0652310454944
 31
0.0
 11
315.2258240534925
 21
222.6130428812167
 31
0.0
 11
315.1854990647256
 21
222.1499396680044
 31
0.0
 11
315.1721140351307
 21
221.6852749930403
 31
0.0
 11
315.1854990647256
 21
221.220610318076
 31
0.0
 11
315.2258240534924
 21
220.7575071048636
 31
0.0
 11
315.2920587551487
 21
220.3053189405858
 31
0.0
 11
315.3853221568482
 21
219.8579289744958
 31
0.0
 11
315.5019768054553
 21
219.4317101526813
 31
0.0
 11
315.6457620760373
 21
219.0138738282201
 31
0.0
 11
315.8089641433129
 21
218.6261515783873
 31
0.0
 11
315.999230475904
 21
218.2509878545431
 31
0.0
 11
316.2038694656571
 21
217.9129428853612
 31
0.0
 11
316.4349873979824
 21
217.5924509577363
 31
0.0
 11
316.6750042449298
 21
217.3136289584471
 31
0.0
 11
316.9397925886988
 21
217.0582724481733
 31
0.0
 11
317.2085146670852
 21
216.8464751139171
 31
0.0
 11
317.4983077977766
 21
216.6646830695598
 31
0.0
 11
317.7886634879472
 21
216.5261087246309
 31
0.0
 11
318.0935628232106
 21
216.423641835999
 31
0.0
 11
318.3978953441301
 21
216.3630897566009
 31
0.0
 11
318.7074711422668
 21
216.3424726634002
 31
0.0
 11
319.0170469404032
 21
216.3630897566011
 31
0.0
 11
319.3213794613223
 21
216.4236418359992
 31
0.0
 11
319.6262787965857
 21
216.526108724631
 31
0.0
 11
319.9166344867564
 21
216.6646830695598
 31
0.0
 11
320.2064276174478
 21
216.8464751139169
 31
0.0
 11
320.4751496958345
 21
217.058272448173
 31
0.0
 11
320.7399380396034
 21
217.3136289584469
 31
0.0
 11
320.9799548865506
 21
217.5924509577362
 31
0.0
 11
321.2110728188759
 21
217.9129428853611
 31
0.0
 11
321.4157118086291
 21
218.250987854543
 31
0.0
 11
321.6059781412202
 21
218.6261515783873
 31
0.0
 11
321.7691802084958
 21
219.0138738282203
 31
0.0
 11
321.9129654790777
 21
219.4317101526817
 31
0.0
 11
322.0296201276848
 21
219.8579289744962
 31
0.0
 11
322.1228835293843
 21
220.3053189405861
 31
0.0
 11
322.1891182310406
 21
220.7575071048637
 31
0.0
 11
322.2294432198074
 21
221.220610318076
 31
0.0
 11
322.2428282494023
 21
221.6852749930401
 31
0.0
 11
322.2294432198075
 21
222.1499396680044
 31
0.0
 11
322.1891182310407
 21
222.6130428812168
 31
0.0
 11
322.1228835293845
 21
223.0652310454944
 31
0.0
 11
322.0296201276849
 21
223.5126210115843
 31
0.0
 11
321.9129654790778
 21
223.938839833399
 31
0.0
 11
321.7691802084958
 21
224.3566761578604
 31
0.0
 11
321.60597814122
 21
224.7443984076932
 31
0.0
 11
321.4157118086289
 21
225.1195621315373
 31
0.0
 11
321.2110728188758
 21
225.4576071007191
 31
0.0
 11
320.9799548865507
 21
225.778099028344
 31
0.0
 11
320.7399380396033
 21
226.0569210276333
 31
0.0
 11
320.4751496958344
 21
226.3122775379072
 31
0.0
 11
320.2064276174478
 21
226.5240748721635
 31
0.0
 11
319.9166344867563
 21
226.7058669165209
 31
0.0
 11
319.6262787965857
 21
226.8444412614497
 31
0.0
 11
319.3213794613222
 21
226.9469081500815
 31
0.0
 11
319.0170469404031
 21
227.0074602294794
 31
0.0
 11
318.7074711422665
 21
227.0280773226802
 31
0.0
  0
SPLINE
  5
A4
330
47
100
AcDbEntity
  8
1
  6
Continuous
 62
     7
100
AcDbSpline
210
0.0
220
0.0
230
1.0
 70
    11
 71
     3
 72
    79
 73
    75
 74
    73
 42
0.000000001
 43
0.0000000001
 44
0.00000001
 40
0.0
 40
0.0
 40
0.0
 40
0.0
 40
0.3102615582250169
 40
0.6205595420815753
 40
0.9422162975283487
 40
1.26394487275344
 40
1.60603902084459
 40
1.948193468906584
 40
2.31605188519012
 40
2.683951048239636
 40
3.079084664080077
 40
3.474244780173468
 40
3.894897959207221
 40
4.31556820749382
 40
4.757452126736119
 40
5.199346674241322
 40
5.65635416198672
 40
6.113367478657762
 40
6.578223037732874
 40
7.043080455842468
 40
7.507937873950037
 40
7.972793433018405
 40
8.429806749677232
 40
8.88681423740315
 40
9.3287087848799
 40
9.770592704080817
 40
10.19126295231218
 40
10.61191613126883
 40
11.00707624726275
 40
11.40220986296837
 40
11.7701090258496
 40
12.13796744190959
 40
12.4801218896959
 40
12.82221603741857
 40
13.14394461216094
 40
13.46560136682443
 40
13.77589934864107
 40
14.08616091447206
 40
14.39642248030315
 40
14.70672046211991
 40
15.02837721678325
 40
15.35010579152551
 40
15.69219993924844
 40
16.03435438703483
 40
16.40221280309474
 40
16.77011196597591
 40
17.16524558168154
 40
17.56040569767548
 40
17.98105887663206
 40
18.40172912486338
 40
18.84361304406449
 40
19.28550759154141
 40
19.74251507926728
 40
20.19952839592611
 40
20.66438395499442
 40
21.12924137310185
 40
21.5940987912115
 40
22.05895435028667
 40
22.51596766695774
 40
22.97297515470323
 40
23.41486970220845
 40
23.85675362145075
 40
24.27742386973728
 40
24.69807704877108
 40
25.09323716486432
 40
25.48837078070475
 40
25.85626994375427
 40
26.22412836003781
 40
26.56628280809983
 40
26.90837695619105
 40
27.23010553141586
 40
27.55176228686254
 40
27.86206027071962
 40
28.17232182894509
 40
28.17232182894509
 40
28.17232182894509
 40
28.17232182894509
 10
318.7074711422662
 20
228.9037795920369
 30
0.0
 10
318.603980960344
 20
228.9078127837528
 30
0.0
 10
318.3969884459996
 20
228.9158796324238
 30
0.0
 10
318.0881395779771
 20
228.979863610233
 30
0.0
 10
317.7861726642431
 20
229.0812844065305
 30
0.0
 10
317.4892630081281
 20
229.2237069066281
 30
0.0
 10
317.2049448997681
 20
229.4028094793883
 30
0.0
 10
316.9294438534716
 20
229.6207797472489
 30
0.0
 10
316.6708378328029
 20
229.8710619012836
 30
0.0
 10
316.42507994319
 20
230.1575240630553
 30
0.0
 10
316.1994346829954
 20
230.4713548153427
 30
0.0
 10
315.9906630151078
 20
230.8172689803739
 30
0.0
 10
315.8044422468365
 20
231.1853877725245
 30
0.0
 10
315.6387577164896
 20
231.5800817074412
 30
0.0
 10
315.49744994364
 20
231.9916349074131
 30
0.0
 10
315.3796704550655
 20
232.4230606070076
 30
0.0
 10
315.287552153427
 20
232.8658346357182
 30
0.0
 10
315.2210662260339
 20
233.3208926343121
 30
0.0
 10
315.1810086691239
 20
233.7816597363931
 30
0.0
 10
315.1676667118287
 20
234.2465819118241
 30
0.0
 10
315.1810086690452
 20
234.7115040872511
 30
0.0
 10
315.2210662258728
 20
235.1722711893438
 30
0.0
 10
315.2875521531745
 20
235.6273291878962
 30
0.0
 10
315.3796704547094
 20
236.0701032167609
 30
0.0
 10
315.4974499431621
 20
236.5015289158025
 30
0.0
 10
315.63875771587
 20
236.9130821178014
 30
0.0
 10
315.8044422460468
 20
237.3077760455236
 30
0.0
 10
315.9906630141207
 20
237.6758948637459
 30
0.0
 10
316.1994346817734
 20
238.0218089371688
 30
0.0
 10
316.4250799416962
 20
238.3356400191069
 30
0.0
 10
316.6708378309878
 20
238.6221010315797
 30
0.0
 10
316.9294438512866
 20
238.8723873106528
 30
0.0
 10
317.2049448971428
 20
239.09034320866
 30
0.0
 10
317.489263004982
 20
239.2694975223992
 30
0.0
 10
317.7861726603945
 20
239.4117378737867
 30
0.0
 10
318.0881395729037
 20
239.5138215258269
 30
0.0
 10
318.3969884420503
 20
239.5754147657548
 30
0.0
 10
318.7074711422661
 20
239.5963685692163
 30
0.0
 10
319.0179538424823
 20
239.575414765755
 30
0.0
 10
319.3268027116287
 20
239.513821525827
 30
0.0
 10
319.628769624138
 20
239.4117378737869
 30
0.0
 10
319.9256792795503
 20
239.269497522399
 30
0.0
 10
320.2099973873897
 20
239.09034320866
 30
0.0
 10
320.4854984332462
 20
238.8723873106532
 30
0.0
 10
320.7441044535452
 20
238.6221010315801
 30
0.0
 10
320.9898623428365
 20
238.3356400191072
 30
0.0
 10
321.2155076027591
 20
238.021808937169
 30
0.0
 10
321.4242792704115
 20
237.6758948637458
 30
0.0
 10
321.6105000384853
 20
237.3077760455237
 30
0.0
 10
321.7761845686626
 20
236.9130821178015
 30
0.0
 10
321.9174923413705
 20
236.5015289158026
 30
0.0
 10
322.0352718298234
 20
236.0701032167609
 30
0.0
 10
322.1273901313585
 20
235.627329187896
 30
0.0
 10
322.1938760586601
 20
235.1722711893438
 30
0.0
 10
322.2339336154877
 20
234.7115040872512
 30
0.0
 10
322.2472755727043
 20
234.2465819118243
 30
0.0
 10
322.2339336154092
 20
233.7816597363932
 30
0.0
 10
322.1938760584991
 20
233.3208926343121
 30
0.0
 10
322.1273901311059
 20
232.8658346357182
 30
0.0
 10
322.0352718294671
 20
232.4230606070077
 30
0.0
 10
321.9174923408927
 20
231.9916349074132
 30
0.0
 10
321.7761845680429
 20
231.5800817074411
 30
0.0
 10
321.6105000376966
 20
231.1853877725244
 30
0.0
 10
321.4242792694252
 20
230.8172689803739
 30
0.0
 10
321.2155076015376
 20
230.4713548153428
 30
0.0
 10
320.9898623413429
 20
230.1575240630554
 30
0.0
 10
320.74410445173
 20
229.8710619012837
 30
0.0
 10
320.4854984310614
 20
229.6207797472489
 30
0.0
 10
320.209997384765
 20
229.4028094793883
 30
0.0
 10
319.9256792764047
 20
229.2237069066283
 30
0.0
 10
319.6287696202901
 20
229.0812844065305
 30
0.0
 10
319.326802706556
 20
228.9798636102329
 30
0.0
 10
319.0179538385332
 20
228.9158796324236
 30
0.0
 10
318.8109613241885
 20
228.9078127837529
 30
0.0
 10
318.7074711422662
 20
228.9037795920369
 30
0.0
 11
318.7074711422662
 21
228.9037795920369
 31
0.0
 11
318.3978953441297
 21
228.9243966852377
 31
0.0
 11
318.0935628232108
 21
228.9849487646356
 31
0.0
 11
317.7886634879474
 21
229.0874156532675
 31
0.0
 11
317.4983077977766
 21
229.2259899981965
 31
0.0
 11
317.2085146670852
 21
229.4077820425538
 31
0.0
 11
316.9397925886987
 21
229.61957937681
 31
0.0
 11
316.6750042449297
 21
229.8749358870838
 31
0.0
 11
316.4349873979823
 21
230.153757886373
 31
0.0
 11
316.2038694656571
 21
230.474249813998
 31
0.0
 11
315.999230475904
 21
230.81229478318
 31
0.0
 11
315.8089641433128
 21
231.1874585070241
 31
0.0
 11
315.6457620760371
 21
231.5751807568568
 31
0.0
 11
315.5019768054551
 21
231.9930170813182
 31
0.0
 11
315.385322156848
 21
232.4192359031328
 31
0.0
 11
315.2920587551486
 21
232.8666258692227
 31
0.0
 11
315.2258240534924
 21
233.3188140335003
 31
0.0
 11
315.1854990647257
 21
233.7819172467126
 31
0.0
 11
315.1721140351308
 21
234.2465819216769
 31
0.0
 11
315.1854990647257
 21
234.7112465966413
 31
0.0
 11
315.2258240534924
 21
235.1743498098537
 31
0.0
 11
315.2920587551486
 21
235.6265379741314
 31
0.0
 11
315.385322156848
 21
236.0739279402213
 31
0.0
 11
315.5019768054551
 21
236.5001467620357
 31
0.0
 11
315.6457620760369
 21
236.9179830864968
 31
0.0
 11
315.8089641433124
 21
237.3057053363298
 31
0.0
 11
315.9992304759036
 21
237.680869060174
 31
0.0
 11
316.2038694656569
 21
238.0189140293559
 31
0.0
 11
316.4349873979823
 21
238.3394059569809
 31
0.0
 11
316.6750042449297
 21
238.6182279562701
 31
0.0
 11
316.9397925886986
 21
238.873584466544
 31
0.0
 11
317.2085146670848
 21
239.0853818008002
 31
0.0
 11
317.498307797776
 21
239.2671738451574
 31
0.0
 11
317.7886634879468
 21
239.4057481900863
 31
0.0
 11
318.0935628232104
 21
239.5082150787182
 31
0.0
 11
318.3978953441296
 21
239.5687671581163
 31
0.0
 11
318.7074711422662
 21
239.5893842513171
 31
0.0
 11
319.0170469404028
 21
239.5687671581164
 31
0.0
 11
319.3213794613222
 21
239.5082150787183
 31
0.0
 11
319.6262787965856
 21
239.4057481900863
 31
0.0
 11
319.9166344867562
 21
239.2671738451574
 31
0.0
 11
320.2064276174477
 21
239.0853818008003
 31
0.0
 11
320.4751496958342
 21
238.8735844665442
 31
0.0
 11
320.7399380396031
 21
238.6182279562704
 31
0.0
 11
320.9799548865504
 21
238.3394059569812
 31
0.0
 11
321.2110728188756
 21
238.0189140293561
 31
0.0
 11
321.4157118086287
 21
237.680869060174
 31
0.0
 11
321.6059781412198
 21
237.3057053363298
 31
0.0
 11
321.7691802084956
 21
236.917983086497
 31
0.0
 11
321.9129654790776
 21
236.5001467620357
 31
0.0
 11
322.0296201276847
 21
236.0739279402212
 31
0.0
 11
322.1228835293843
 21
235.6265379741314
 31
0.0
 11
322.1891182310406
 21
235.1743498098537
 31
0.0
 11
322.2294432198073
 21
234.7112465966414
 31
0.0
 11
322.2428282494021
 21
234.2465819216771
 31
0.0
 11
322.2294432198073
 21
233.7819172467128
 31
0.0
 11
322.1891182310406
 21
233.3188140335004
 31
0.0
 11
322.1228835293843
 21
232.8666258692228
 31
0.0
 11
322.0296201276847
 21
232.4192359031328
 31
0.0
 11
321.9129654790776
 21
231.9930170813182
 31
0.0
 11
321.7691802084956
 21
231.5751807568568
 31
0.0
 11
321.60597814122
 21
231.1874585070241
 31
0.0
 11
321.4157118086289
 21
230.8122947831799
 31
0.0
 11
321.2110728188758
 21
230.4742498139981
 31
0.0
 11
320.9799548865506
 21
230.1537578863731
 31
0.0
 11
320.7399380396033
 21
229.8749358870838
 31
0.0
 11
320.4751496958343
 21
229.61957937681
 31
0.0
 11
320.2064276174478
 21
229.4077820425538
 31
0.0
 11
319.9166344867563
 21
229.2259899981965
 31
0.0
 11
319.6262787965858
 21
229.0874156532676
 31
0.0
 11
319.3213794613225
 21
228.9849487646356
 31
0.0
 11
319.0170469404031
 21
228.9243966852376
 31
0.0
 11
318.7074711422662
 21
228.9037795920369
 31
0.0
  0
SPLINE
  5
A5
330
47
100
AcDbEntity
  8
1
  6
Continuous
 62
     7
100
AcDbSpline
210
0.0
220
0.0
230
1.0
 70
     8
 71
     3
 72
    29
 73
    25
 74
    23
 42
0.000000001
 43
0.0000000001
 44
0.00000001
 40
0.0
 40
0.0
 40
0.0
 40
0.0
 40
0.606907707133379
 40
1.212222618922021
 40
1.84266669998086
 40
2.47463189198754
 40
3.102420163134856
 40
3.729333881624334
 40
4.271042929453084
 40
4.812985317241379
 40
5.340107969104041
 40
5.866248914948577
 40
6.263874824440194
 40
6.661485222726503
 40
7.280966483140915
 40
7.902596723210049
 40
8.549168899022582
 40
9.195896755584624
 40
9.72241595671171
 40
10.24911839923898
 40
11.07897535377073
 40
11.90732205839647
 40
12.67331707894435
 40
13.4419126848564
 40
13.4419126848564
 40
13.4419126848564
 40
13.4419126848564
 10
315.2427295733147
 20
413.3076338397303
 30
0.0
 10
315.2526049466787
 20
413.1055740121844
 30
0.0
 10
315.2723297878914
 20
412.7019846525075
 30
0.0
 10
315.3361201361126
 20
412.0902791044235
 30
0.0
 10
315.4703034338533
 20
411.4808620432817
 30
0.0
 10
315.6707590533796
 20
410.8824558683034
 30
0.0
 10
315.9293201696099
 20
410.3078933368296
 30
0.0
 10
316.2382495587141
 20
409.7929955394609
 30
0.0
 10
316.5920664826588
 20
409.343976665705
 30
0.0
 10
316.9800911501757
 20
408.9700350634071
 30
0.0
 10
317.4170215532507
 20
408.6630691621002
 30
0.0
 10
317.857235519687
 20
408.4557605046609
 30
0.0
 10
318.2839446397394
 20
408.3398579164406
 30
0.0
 10
318.7548600815416
 20
408.2891547115628
 30
0.0
 10
319.3038346737823
 20
408.349611034804
 30
0.0
 10
319.9015807391042
 20
408.5625582664335
 30
0.0
 10
320.4431829842446
 20
408.9097952035856
 30
0.0
 10
320.8837909516347
 20
409.3311529291658
 30
0.0
 10
321.2336648746044
 20
409.7785664191463
 30
0.0
 10
321.5625752569457
 20
410.3144028046912
 30
0.0
 10
321.8663138773479
 20
410.9792938540773
 30
0.0
 10
322.0910837430641
 20
411.7589549147139
 30
0.0
 10
322.195470542455
 20
412.5413605308181
 30
0.0
 10
322.2268930329608
 20
413.0519209969918
 30
0.0
 10
322.2426308972277
 20
413.3076338397303
 30
0.0
 11
315.2427295733147
 21
413.3076338397303
 31
0.0
 11
315.2779304390771
 21
412.7017478179721
 31
0.0
 11
315.3462874311612
 21
412.1003049984907
 31
0.0
 11
315.4809639169856
 21
411.4844137867497
 31
0.0
 11
315.6810288089306
 21
410.884952325201
 31
0.0
 11
315.9404100471808
 21
410.3132535518808
 31
0.0
 11
316.2646300019588
 21
409.7766883348678
 31
0.0
 11
316.6012391419399
 21
409.3522557960887
 31
0.0
 11
316.9927295733147
 21
408.9775068208081
 31
0.0
 11
317.4250747345332
 21
408.6759509348482
 31
0.0
 11
317.9020771201493
 21
408.4539306210144
 31
0.0
 11
318.285926150279
 21
408.3501699038713
 31
0.0
 11
318.6813376960932
 21
408.3084118060506
 31
0.0
 11
319.2974421503031
 21
408.373005417672
 31
0.0
 11
319.8833763205799
 21
408.5806235878234
 31
0.0
 11
320.4299779544938
 21
408.9259961886784
 31
0.0
 11
320.8999539345742
 21
409.3702703152812
 31
0.0
 11
321.2254285821454
 21
409.7841407340558
 31
0.0
 11
321.5023340803251
 21
410.2321795812801
 31
0.0
 11
321.8472961685026
 21
410.9869402879177
 31
0.0
 11
322.0759736582489
 21
411.7830965983058
 31
0.0
 11
322.1862937872635
 21
412.5411057289053
 31
0.0
 11
322.2426308972277
 21
413.3076338397303
 31
0.0
  0
SPLINE
  5
A6
330
47
100
AcDbEntity
  8
1
  6
Continuous
 62
     7
100
AcDbSpline
210
0.0
220
0.0
230
1.0
 70
    11
 71
     3
 72
    79
 73
    75
 74
    73
 42
0.000000001
 43
0.0000000001
 44
0.00000001
 40
0.0
 40
0.0
 40
0.0
 40
0.0
 40
0.2803981055170699
 40
0.5607977780794369
 40
0.8427454767815774
 40
1.124697465943038
 40
1.40953644471202
 40
1.694381494092164
 40
1.983071303433747
 40
2.271767836809147
 40
2.564776135645462
 40
2.857790848031665
 40
3.155055692063381
 40
3.452325972452721
 40
3.75328482090956
 40
4.054247736388271
 40
4.357919800455255
 40
4.661594361771491
 40
4.966700742338082
 40
5.271807963175757
 40
5.576915184002909
 40
5.882021564538386
 40
6.185696125802566
 40
6.489368189795986
 40
6.790331105179746
 40
7.091289953518582
 40
7.388560233767405
 40
7.685825077633547
 40
7.978839789830387
 40
8.27184808844909
 40
8.560544621579815
 40
8.849234430642491
 40
9.134079479707248
 40
9.418918458106097
 40
9.70087044681277
 40
9.982818144856072
 40
10.26321781600867
 40
10.54361593035207
 40
10.82401404469563
 40
11.10441371584851
 40
11.38636141389192
 40
11.6683134025986
 40
11.95315238099747
 40
12.23799743006231
 40
12.52668723912505
 40
12.81538377225562
 40
13.10839207087424
 40
13.40140678307112
 40
13.69867162693737
 40
13.99594190718612
 40
14.29690075552498
 40
14.59786367090876
 40
14.9015357349022
 40
15.2052102961663
 40
15.51031667670184
 40
15.81542389752894
 40
16.12053111836657
 40
16.42563749893323
 40
16.72931206024948
 40
17.03298412431638
 40
17.33394703979517
 40
17.63490588825198
 40
17.93217616864121
 40
18.22944101267307
 40
18.52245572505928
 40
18.81546402389555
 40
19.1041605572709
 40
19.39285036661245
 40
19.67769541599267
 40
19.96253439476168
 40
20.24448638392321
 40
20.52643408262538
 40
20.80683375518769
 40
21.0872318607047
 40
21.0872318607047
 40
21.0872318607047
 40
21.0872318607047
 10
315.2427295733147
 20
402.0493035905327
 30
0.0
 10
315.2453109591208
 20
401.9558030504907
 30
0.0
 10
315.2504737398253
 20
401.7688014476884
 30
0.0
 10
315.2919460883888
 20
401.4903170364954
 30
0.0
 10
315.3578462482303
 20
401.2163748393427
 30
0.0
 10
315.4500783571879
 20
400.9484466735739
 30
0.0
 10
315.5671605463166
 20
400.6894008857033
 30
0.0
 10
315.7086368277156
 20
400.4402415912866
 30
0.0
 10
315.8729191735521
 20
400.2039315708724
 30
0.0
 10
316.0593793216307
 20
399.9811565767347
 30
0.0
 10
316.2658037964437
 20
399.7747005442286
 30
0.0
 10
316.491521490767
 20
399.5850878003885
 30
0.0
 10
316.7338122890121
 20
399.4146886242701
 30
0.0
 10
316.991869781756
 20
399.2639758164744
 30
0.0
 10
317.2626969851488
 20
399.1347526797653
 30
0.0
 10
317.5452138385618
 20
399.0274730064002
 30
0.0
 10
317.8364018090767
 20
398.9433185026666
 30
0.0
 10
318.1347805819182
 20
398.882675228659
 30
0.0
 10
318.4375415537291
 20
398.8461414662123
 30
0.0
 10
318.7427295639118
 20
398.8339224353009
 30
0.0
 10
319.0479175740964
 20
398.8461414658622
 30
0.0
 10
319.350678545923
 20
398.8826752279579
 30
0.0
 10
319.6490573187658
 20
398.9433185016123
 30
0.0
 10
319.9402452893697
 20
399.0274730049895
 30
0.0
 10
320.2227621425857
 20
399.134752677994
 30
0.0
 10
320.4935893468819
 20
399.2639758143375
 30
0.0
 10
320.7516468365084
 20
399.4146886217608
 30
0.0
 10
320.9939376465649
 20
399.5850877975
 30
0.0
 10
321.2196552977267
 20
399.7747005409511
 30
0.0
 10
321.4260799327205
 20
399.981156573058
 30
0.0
 10
321.612539491869
 20
400.2039315667816
 30
0.0
 10
321.7768240195545
 20
400.4402415867635
 30
0.0
 10
321.9182922626027
 20
400.6894008807178
 30
0.0
 10
322.0354042661865
 20
400.9484466680782
 30
0.0
 10
322.1275261846454
 20
401.2163748332121
 30
0.0
 10
322.1938359502033
 20
401.4903170294118
 30
0.0
 10
322.2337876152928
 20
401.7688014424483
 30
0.0
 10
322.2472005249136
 20
402.0493035905325
 30
0.0
 10
322.2337876152927
 20
402.3298057386166
 30
0.0
 10
322.1938359502032
 20
402.6082901516534
 30
0.0
 10
322.1275261846455
 20
402.8822323478533
 30
0.0
 10
322.0354042661864
 20
403.1501605129872
 30
0.0
 10
321.9182922626026
 20
403.4092063003476
 30
0.0
 10
321.7768240195546
 20
403.6583655943021
 30
0.0
 10
321.6125394918688
 20
403.8946756142839
 30
0.0
 10
321.4260799327206
 20
404.1174506080074
 30
0.0
 10
321.2196552977267
 20
404.3239066401142
 30
0.0
 10
320.9939376465647
 20
404.5135193835654
 30
0.0
 10
320.7516468365085
 20
404.6839185593046
 30
0.0
 10
320.4935893468817
 20
404.8346313667279
 30
0.0
 10
320.2227621425858
 20
404.9638545030716
 30
0.0
 10
319.9402452893697
 20
405.071134176076
 30
0.0
 10
319.6490573187658
 20
405.155288679453
 30
0.0
 10
319.3506785459229
 20
405.2159319531074
 30
0.0
 10
319.0479175740963
 20
405.2524657152031
 30
0.0
 10
318.7427295639118
 20
405.2646847457647
 30
0.0
 10
318.4375415537291
 20
405.2524657148529
 30
0.0
 10
318.1347805819182
 20
405.2159319524065
 30
0.0
 10
317.8364018090769
 20
405.1552886783985
 30
0.0
 10
317.5452138385618
 20
405.0711341746655
 30
0.0
 10
317.2626969851486
 20
404.9638545013001
 30
0.0
 10
316.9918697817562
 20
404.8346313645911
 30
0.0
 10
316.733812289012
 20
404.6839185567953
 30
0.0
 10
316.4915214907672
 20
404.5135193806771
 30
0.0
 10
316.2658037964436
 20
404.3239066368367
 30
0.0
 10
316.0593793216307
 20
404.1174506043307
 30
0.0
 10
315.8729191735521
 20
403.8946756101932
 30
0.0
 10
315.7086368277156
 20
403.6583655897789
 30
0.0
 10
315.5671605463168
 20
403.409206295362
 30
0.0
 10
315.4500783571876
 20
403.1501605074915
 30
0.0
 10
315.3578462482306
 20
402.8822323417225
 30
0.0
 10
315.2919460883888
 20
402.6082901445701
 30
0.0
 10
315.2504737398253
 20
402.3298057333768
 30
0.0
 10
315.2453109591208
 20
402.1428041305748
 30
0.0
 10
315.2427295733147
 20
402.0493035905327
 30
0.0
 11
315.2427295733147
 21
402.0493035905327
 31
0.0
 11
315.2560823586128
 21
401.7692235916631
 31
0.0
 11
315.295902437772
 21
401.4916657832844
 31
0.0
 11
315.3621620204959
 21
401.2176143789055
 31
0.0
 11
315.453805400564
 21
400.950971518631
 31
0.0
 11
315.5710534008491
 21
400.691383094095
 31
0.0
 11
315.7116406600691
 21
400.4436495181996
 31
0.0
 11
315.8763378554212
 21
400.2065490335907
 31
0.0
 11
316.0615740223983
 21
399.9851145042558
 31
0.0
 11
316.2686668993135
 21
399.777831114946
 31
0.0
 11
316.4929729394117
 21
399.5892988311683
 31
0.0
 11
316.7360677701125
 21
399.4182102845948
 31
0.0
 11
316.9927295733147
 21
399.2682291578718
 31
0.0
 11
317.2643177932858
 21
399.1385523779975
 31
0.0
 11
317.5456590716748
 21
399.0316610239202
 31
0.0
 11
317.8373765552202
 21
398.9472949625898
 31
0.0
 11
318.1349609514804
 21
398.886782432354
 31
0.0
 11
318.4378666860147
 21
398.8502034837911
 31
0.0
 11
318.7427295733147
 21
398.8379954458665
 31
0.0
 11
319.0475924606146
 21
398.8502034837911
 31
0.0
 11
319.3504981951488
 21
398.886782432354
 31
0.0
 11
319.648082591409
 21
398.9472949625898
 31
0.0
 11
319.9398000749544
 21
399.0316610239202
 31
0.0
 11
320.2211413533434
 21
399.1385523779975
 31
0.0
 11
320.4927295733145
 21
399.2682291578718
 31
0.0
 11
320.7493913765167
 21
399.4182102845947
 31
0.0
 11
320.9924862072174
 21
399.5892988311683
 31
0.0
 11
321.2167922473157
 21
399.777831114946
 31
0.0
 11
321.4238851242309
 21
399.9851145042558
 31
0.0
 11
321.6091212912081
 21
400.2065490335906
 31
0.0
 11
321.7738184865601
 21
400.4436495181996
 31
0.0
 11
321.9144057457801
 21
400.691383094095
 31
0.0
 11
322.0316537460652
 21
400.950971518631
 31
0.0
 11
322.1232971261334
 21
401.2176143789055
 31
0.0
 11
322.1895567088574
 21
401.4916657832844
 31
0.0
 11
322.2293767880165
 21
401.7692235916629
 31
0.0
 11
322.2427295733145
 21
402.0493035905324
 31
0.0
 11
322.2293767880164
 21
402.3293835894021
 31
0.0
 11
322.1895567088574
 21
402.6069413977809
 31
0.0
 11
322.1232971261334
 21
402.8809928021599
 31
0.0
 11
322.0316537460652
 21
403.1476356624344
 31
0.0
 11
321.9144057457801
 21
403.4072240869704
 31
0.0
 11
321.7738184865601
 21
403.6549576628659
 31
0.0
 11
321.609121291208
 21
403.8920581474749
 31
0.0
 11
321.4238851242309
 21
404.1134926768096
 31
0.0
 11
321.2167922473157
 21
404.3207760661194
 31
0.0
 11
320.9924862072174
 21
404.509308349897
 31
0.0
 11
320.7493913765166
 21
404.6803968964707
 31
0.0
 11
320.4927295733145
 21
404.8303780231936
 31
0.0
 11
320.2211413533434
 21
404.9600548030679
 31
0.0
 11
319.9398000749544
 21
405.0669461571453
 31
0.0
 11
319.6480825914089
 21
405.1513122184756
 31
0.0
 11
319.3504981951488
 21
405.2118247487113
 31
0.0
 11
319.0475924606146
 21
405.2484036972743
 31
0.0
 11
318.7427295733147
 21
405.260611735199
 31
0.0
 11
318.4378666860147
 21
405.2484036972743
 31
0.0
 11
318.1349609514804
 21
405.2118247487113
 31
0.0
 11
317.8373765552202
 21
405.1513122184755
 31
0.0
 11
317.5456590716748
 21
405.0669461571453
 31
0.0
 11
317.2643177932858
 21
404.9600548030679
 31
0.0
 11
316.9927295733147
 21
404.8303780231936
 31
0.0
 11
316.7360677701125
 21
404.6803968964707
 31
0.0
 11
316.4929729394117
 21
404.509308349897
 31
0.0
 11
316.2686668993135
 21
404.3207760661194
 31
0.0
 11
316.0615740223983
 21
404.1134926768096
 31
0.0
 11
315.8763378554212
 21
403.8920581474748
 31
0.0
 11
315.7116406600691
 21
403.6549576628659
 31
0.0
 11
315.5710534008492
 21
403.4072240869704
 31
0.0
 11
315.453805400564
 21
403.1476356624344
 31
0.0
 11
315.362162020496
 21
402.8809928021598
 31
0.0
 11
315.295902437772
 21
402.6069413977809
 31
0.0
 11
315.2560823586128
 21
402.3293835894023
 31
0.0
 11
315.2427295733147
 21
402.0493035905327
 31
0.0
  0
SPLINE
  5
A7
330
47
100
AcDbEntity
  8
1
  6
Continuous
 62
     7
100
AcDbSpline
210
0.0
220
0.0
230
1.0
 70
    11
 71
     3
 72
    79
 73
    75
 74
    73
 42
0.000000001
 43
0.0000000001
 44
0.00000001
 40
0.0
 40
0.0
 40
0.0
 40
0.0
 40
0.2803981055170699
 40
0.5607977780794369
 40
0.8427454767815488
 40
1.124697465942918
 40
1.409536444712051
 40
1.694381494092238
 40
1.983071303433835
 40
2.271767836809229
 40
2.564776135645423
 40
2.857790848031589
 40
3.155055692063482
 40
3.452325972452773
 40
3.753284820909636
 40
4.054247736388327
 40
4.357919800455264
 40
4.661594361771488
 40
4.966700742338093
 40
5.271807963175772
 40
5.576915184002874
 40
5.882021564538415
 40
6.185696125802573
 40
6.489368189795961
 40
6.790331105179754
 40
7.091289953518563
 40
7.388560233767414
 40
7.685825077633655
 40
7.978839789830458
 40
8.27184808844904
 40
8.560544621579766
 40
8.849234430642442
 40
9.13407947970727
 40
9.418918458106194
 40
9.70087044681276
 40
9.982818144856116
 40
10.26321781600883
 40
10.5436159303524
 40
10.82401404469596
 40
11.10441371584873
 40
11.38636141389192
 40
11.66831340259854
 40
11.95315238099741
 40
12.23799743006225
 40
12.52668723912499
 40
12.81538377225569
 40
13.10839207087435
 40
13.40140678307116
 40
13.69867162693731
 40
13.99594190718611
 40
14.29690075552502
 40
14.59786367090878
 40
14.90153573490223
 40
15.20521029616633
 40
15.51031667670187
 40
15.81542389752897
 40
16.12053111836659
 40
16.42563749893326
 40
16.72931206024948
 40
17.03298412431642
 40
17.33394703979521
 40
17.63490588825204
 40
17.93217616864131
 40
18.2294410126731
 40
18.52245572505923
 40
18.81546402389555
 40
19.10416055727103
 40
19.39285036661258
 40
19.6776954159928
 40
19.9625343947618
 40
20.24448638392317
 40
20.52643408262523
 40
20.80683375518765
 40
21.08723186070472
 40
21.08723186070472
 40
21.08723186070472
 40
21.08723186070472
 10
315.2427295733147
 20
424.565964088928
 30
0.0
 10
315.2453109591208
 20
424.6594646289703
 30
0.0
 10
315.2504737398253
 20
424.8464662317721
 30
0.0
 10
315.2919460883887
 20
425.1249506429655
 30
0.0
 10
315.3578462482306
 20
425.3988928401179
 30
0.0
 10
315.4500783571876
 20
425.6668210058867
 30
0.0
 10
315.5671605463169
 20
425.9258667937573
 30
0.0
 10
315.7086368277156
 20
426.1750260881743
 30
0.0
 10
315.872919173552
 20
426.4113361085884
 30
0.0
 10
316.0593793216307
 20
426.6341111027261
 30
0.0
 10
316.2658037964438
 20
426.840567135232
 30
0.0
 10
316.4915214907671
 20
427.0301798790721
 30
0.0
 10
316.7338122890121
 20
427.2005790551909
 30
0.0
 10
316.991869781756
 20
427.3512918629864
 30
0.0
 10
317.2626969851487
 20
427.4805149996958
 30
0.0
 10
317.5452138385619
 20
427.5877946730607
 30
0.0
 10
317.8364018090768
 20
427.6719491767939
 30
0.0
 10
318.1347805819182
 20
427.7325924508016
 30
0.0
 10
318.4375415537292
 20
427.7691262132484
 30
0.0
 10
318.7427295639118
 20
427.78134524416
 30
0.0
 10
319.0479175740965
 20
427.7691262135985
 30
0.0
 10
319.3506785459228
 20
427.7325924515026
 30
0.0
 10
319.6490573187658
 20
427.6719491778485
 30
0.0
 10
319.9402452893697
 20
427.5877946744712
 30
0.0
 10
320.2227621425858
 20
427.480515001467
 30
0.0
 10
320.4935893468818
 20
427.3512918651232
 30
0.0
 10
320.7516468365085
 20
427.2005790577
 30
0.0
 10
320.9939376465648
 20
427.0301798819606
 30
0.0
 10
321.2196552977266
 20
426.8405671385096
 30
0.0
 10
321.4260799327207
 20
426.6341111064029
 30
0.0
 10
321.6125394918689
 20
426.4113361126792
 30
0.0
 10
321.7768240195545
 20
426.1750260926972
 30
0.0
 10
321.9182922626026
 20
425.9258667987429
 30
0.0
 10
322.0354042661863
 20
425.6668210113825
 30
0.0
 10
322.1275261846455
 20
425.3988928462486
 30
0.0
 10
322.1938359502032
 20
425.1249506500487
 30
0.0
 10
322.2337876152928
 20
424.8464662370122
 30
0.0
 10
322.2472005249136
 20
424.5659640889281
 30
0.0
 10
322.2337876152927
 20
424.2854619408438
 30
0.0
 10
322.1938359502032
 20
424.0069775278071
 30
0.0
 10
322.1275261846454
 20
423.7330353316073
 30
0.0
 10
322.0354042661865
 20
423.4651071664738
 30
0.0
 10
321.9182922626027
 20
423.2060613791131
 30
0.0
 10
321.7768240195546
 20
422.9569020851587
 30
0.0
 10
321.6125394918688
 20
422.720592065177
 30
0.0
 10
321.4260799327207
 20
422.4978170714533
 30
0.0
 10
321.2196552977267
 20
422.2913610393463
 30
0.0
 10
320.9939376465649
 20
422.1017482958954
 30
0.0
 10
320.7516468365083
 20
421.9313491201561
 30
0.0
 10
320.4935893468819
 20
421.780636312733
 30
0.0
 10
320.2227621425857
 20
421.651413176389
 30
0.0
 10
319.9402452893697
 20
421.5441335033848
 30
0.0
 10
319.6490573187657
 20
421.4599790000075
 30
0.0
 10
319.3506785459228
 20
421.3993357263533
 30
0.0
 10
319.0479175740965
 20
421.3628019642576
 30
0.0
 10
318.7427295639117
 20
421.3505829336961
 30
0.0
 10
318.4375415537292
 20
421.3628019646076
 30
0.0
 10
318.1347805819182
 20
421.3993357270544
 30
0.0
 10
317.8364018090768
 20
421.4599790010619
 30
0.0
 10
317.5452138385618
 20
421.5441335047954
 30
0.0
 10
317.2626969851487
 20
421.6514131781606
 30
0.0
 10
316.9918697817561
 20
421.7806363148698
 30
0.0
 10
316.7338122890121
 20
421.9313491226655
 30
0.0
 10
316.4915214907671
 20
422.1017482987838
 30
0.0
 10
316.2658037964436
 20
422.2913610426239
 30
0.0
 10
316.0593793216308
 20
422.49781707513
 30
0.0
 10
315.872919173552
 20
422.7205920692677
 30
0.0
 10
315.7086368277156
 20
422.9569020896817
 30
0.0
 10
315.5671605463168
 20
423.2060613840989
 30
0.0
 10
315.4500783571877
 20
423.4651071719692
 30
0.0
 10
315.3578462482305
 20
423.733035337738
 30
0.0
 10
315.2919460883887
 20
424.0069775348907
 30
0.0
 10
315.2504737398254
 20
424.2854619460836
 30
0.0
 10
315.2453109591209
 20
424.4724635488861
 30
0.0
 10
315.2427295733147
 20
424.565964088928
 30
0.0
 11
315.2427295733147
 21
424.565964088928
 31
0.0
 11
315.2560823586128
 21
424.8460440877976
 31
0.0
 11
315.295902437772
 21
425.1236018961763
 31
0.0
 11
315.362162020496
 21
425.3976533005552
 31
0.0
 11
315.453805400564
 21
425.6642961608296
 31
0.0
 11
315.5710534008492
 21
425.9238845853657
 31
0.0
 11
315.7116406600691
 21
426.1716181612612
 31
0.0
 11
315.8763378554212
 21
426.4087186458702
 31
0.0
 11
316.0615740223983
 21
426.630153175205
 31
0.0
 11
316.2686668993135
 21
426.8374365645147
 31
0.0
 11
316.4929729394117
 21
427.0259688482923
 31
0.0
 11
316.7360677701125
 21
427.197057394866
 31
0.0
 11
316.9927295733147
 21
427.347038521589
 31
0.0
 11
317.2643177932858
 21
427.4767153014633
 31
0.0
 11
317.5456590716748
 21
427.5836066555406
 31
0.0
 11
317.8373765552202
 21
427.6679727168709
 31
0.0
 11
318.1349609514804
 21
427.7284852471066
 31
0.0
 11
318.4378666860147
 21
427.7650641956696
 31
0.0
 11
318.7427295733147
 21
427.7772722335943
 31
0.0
 11
319.0475924606146
 21
427.7650641956696
 31
0.0
 11
319.3504981951488
 21
427.7284852471066
 31
0.0
 11
319.648082591409
 21
427.6679727168709
 31
0.0
 11
319.9398000749544
 21
427.5836066555406
 31
0.0
 11
320.2211413533435
 21
427.4767153014633
 31
0.0
 11
320.4927295733145
 21
427.347038521589
 31
0.0
 11
320.7493913765167
 21
427.197057394866
 31
0.0
 11
320.9924862072174
 21
427.0259688482923
 31
0.0
 11
321.2167922473157
 21
426.8374365645147
 31
0.0
 11
321.4238851242309
 21
426.630153175205
 31
0.0
 11
321.6091212912081
 21
426.4087186458702
 31
0.0
 11
321.7738184865601
 21
426.1716181612612
 31
0.0
 11
321.91440574578
 21
425.9238845853657
 31
0.0
 11
322.0316537460652
 21
425.6642961608297
 31
0.0
 11
322.1232971261334
 21
425.3976533005552
 31
0.0
 11
322.1895567088574
 21
425.1236018961763
 31
0.0
 11
322.2293767880165
 21
424.8460440877977
 31
0.0
 11
322.2427295733145
 21
424.565964088928
 31
0.0
 11
322.2293767880164
 21
424.2858840900583
 31
0.0
 11
322.1895567088574
 21
424.0083262816797
 31
0.0
 11
322.1232971261334
 21
423.7342748773009
 31
0.0
 11
322.0316537460652
 21
423.4676320170264
 31
0.0
 11
321.9144057457801
 21
423.2080435924904
 31
0.0
 11
321.7738184865601
 21
422.9603100165949
 31
0.0
 11
321.609121291208
 21
422.723209531986
 31
0.0
 11
321.4238851242309
 21
422.5017750026511
 31
0.0
 11
321.2167922473157
 21
422.2944916133412
 31
0.0
 11
320.9924862072174
 21
422.1059593295637
 31
0.0
 11
320.7493913765166
 21
421.9348707829902
 31
0.0
 11
320.4927295733145
 21
421.7848896562672
 31
0.0
 11
320.2211413533434
 21
421.6552128763927
 31
0.0
 11
319.9398000749544
 21
421.5483215223154
 31
0.0
 11
319.6480825914089
 21
421.4639554609851
 31
0.0
 11
319.3504981951488
 21
421.4034429307494
 31
0.0
 11
319.0475924606146
 21
421.3668639821864
 31
0.0
 11
318.7427295733147
 21
421.3546559442617
 31
0.0
 11
318.4378666860147
 21
421.3668639821864
 31
0.0
 11
318.1349609514804
 21
421.4034429307494
 31
0.0
 11
317.8373765552202
 21
421.4639554609851
 31
0.0
 11
317.5456590716748
 21
421.5483215223154
 31
0.0
 11
317.2643177932858
 21
421.6552128763928
 31
0.0
 11
316.9927295733147
 21
421.7848896562672
 31
0.0
 11
316.7360677701125
 21
421.9348707829901
 31
0.0
 11
316.4929729394117
 21
422.1059593295637
 31
0.0
 11
316.2686668993135
 21
422.2944916133412
 31
0.0
 11
316.0615740223983
 21
422.5017750026511
 31
0.0
 11
315.8763378554212
 21
422.723209531986
 31
0.0
 11
315.7116406600691
 21
422.9603100165949
 31
0.0
 11
315.5710534008492
 21
423.2080435924904
 31
0.0
 11
315.453805400564
 21
423.4676320170264
 31
0.0
 11
315.362162020496
 21
423.7342748773008
 31
0.0
 11
315.295902437772
 21
424.0083262816797
 31
0.0
 11
315.2560823586128
 21
424.2858840900584
 31
0.0
 11
315.2427295733147
 21
424.565964088928
 31
0.0
  0
SPLINE
  5
A8
330
47
100
AcDbEntity
  8
1
  6
Continuous
 62
     7
100
AcDbSpline
210
0.0
220
0.0
230
1.0
 70
     8
 71
     3
 72
    29
 73
    25
 74
    23
 42
0.000000001
 43
0.0000000001
 44
0.00000001
 40
0.0
 40
0.0
 40
0.0
 40
0.0
 40
0.6069077071334358
 40
1.212222618922077
 40
1.842666699980972
 40
2.474631891987706
 40
3.102420163135074
 40
3.729333881624552
 40
4.271042929453248
 40
4.812985317241464
 40
5.340107969104158
 40
5.866248914948717
 40
6.263874824440363
 40
6.661485222726666
 40
7.280966483141072
 40
7.902596723210206
 40
8.54916889902277
 40
9.19589675558493
 40
9.722415956712016
 40
10.24911839923919
 40
11.07897535377084
 40
11.90732205839657
 40
12.67331707894451
 40
13.44191268485679
 40
13.44191268485679
 40
13.44191268485679
 40
13.44191268485679
 10
315.2427295733147
 20
413.3076338397303
 30
0.0
 10
315.2526049466788
 20
413.509693667276
 30
0.0
 10
315.2723297878914
 20
413.9132830269532
 30
0.0
 10
315.3361201361127
 20
414.5249885750369
 30
0.0
 10
315.4703034338531
 20
415.1344056361791
 30
0.0
 10
315.6707590533797
 20
415.7328118111573
 30
0.0
 10
315.9293201696098
 20
416.3073743426311
 30
0.0
 10
316.2382495587142
 20
416.82227214
 30
0.0
 10
316.5920664826588
 20
417.2712910137558
 30
0.0
 10
316.9800911501757
 20
417.6452326160535
 30
0.0
 10
317.4170215532508
 20
417.9521985173606
 30
0.0
 10
317.857235519687
 20
418.1595071747997
 30
0.0
 10
318.2839446397394
 20
418.2754097630203
 30
0.0
 10
318.7548600815416
 20
418.3261129678977
 30
0.0
 10
319.3038346737824
 20
418.2656566446568
 30
0.0
 10
319.9015807391042
 20
418.0527094130274
 30
0.0
 10
320.4431829842446
 20
417.705472475875
 30
0.0
 10
320.8837909516348
 20
417.2841147502947
 30
0.0
 10
321.2336648746044
 20
416.8367012603145
 30
0.0
 10
321.5625752569458
 20
416.3008648747694
 30
0.0
 10
321.866313877348
 20
415.6359738253836
 30
0.0
 10
322.0910837430641
 20
414.8563127647469
 30
0.0
 10
322.1954705424549
 20
414.0739071486425
 30
0.0
 10
322.226893032961
 20
413.5633466824689
 30
0.0
 10
322.2426308972277
 20
413.3076338397303
 30
0.0
 11
315.2427295733147
 21
413.3076338397303
 31
0.0
 11
315.2779304390771
 21
413.9135198614885
 31
0.0
 11
315.3462874311612
 21
414.5149626809699
 31
0.0
 11
315.4809639169856
 21
415.130853892711
 31
0.0
 11
315.6810288089306
 21
415.7303153542597
 31
0.0
 11
315.9404100471808
 21
416.3020141275799
 31
0.0
 11
316.2646300019588
 21
416.838579344593
 31
0.0
 11
316.60123914194
 21
417.263011883372
 31
0.0
 11
316.9927295733147
 21
417.6377608586525
 31
0.0
 11
317.4250747345332
 21
417.9393167446125
 31
0.0
 11
317.9020771201493
 21
418.1613370584463
 31
0.0
 11
318.285926150279
 21
418.2650977755895
 31
0.0
 11
318.6813376960932
 21
418.3068558734102
 31
0.0
 11
319.2974421503031
 21
418.2422622617888
 31
0.0
 11
319.8833763205799
 21
418.0346440916374
 31
0.0
 11
320.4299779544938
 21
417.6892714907824
 31
0.0
 11
320.8999539345742
 21
417.2449973641794
 31
0.0
 11
321.2254285821454
 21
416.8311269454048
 31
0.0
 11
321.5023340803251
 21
416.3830880981806
 31
0.0
 11
321.8472961685026
 21
415.6283273915432
 31
0.0
 11
322.0759736582489
 21
414.832171081155
 31
0.0
 11
322.1862937872635
 21
414.0741619505554
 31
0.0
 11
322.2426308972277
 21
413.3076338397303
 31
0.0
  0
ARC
  5
A9
330
47
100
AcDbEntity
  8
1
  6
Continuous
 62
     7
100
AcDbCircle
 10
309.4290210743298
 20
424.8076338397303
 30
0.0
 40
3.0
100
AcDbArc
 50
270.0
 51
315.0000000000007
  0
ARC
  5
AA
330
47
100
AcDbEntity
  8
1
  6
Continuous
 62
     7
100
AcDbCircle
 10
304.7427295733147
 20
420.8076338397303
 30
0.0
 40
1.0
100
AcDbArc
 50
90.0
 51
180.0
  0
ARC
  5
AB
330
47
100
AcDbEntity
  8
1
  6
Continuous
 62
     7
100
AcDbCircle
 10
304.7427295733147
 20
405.8076338397304
 30
0.0
 40
1.0
100
AcDbArc
 50
180.0
 51
270.0
  0
ARC
  5
AC
330
47
100
AcDbEntity
  8
1
  6
Continuous
 62
     7
100
AcDbCircle
 10
309.4290210743298
 20
401.8076338397304
 30
0.0
 40
2.999999999999944
100
AcDbArc
 50
45.0
 51
90.0
  0
ARC
  5
AD
330
47
100
AcDbEntity
  8
1
  6
Continuous
 62
     7
100
AcDbCircle
 10
309.429119750417
 20
216.4659284573583
 30
0.0
 40
3.000000000000004
100
AcDbArc
 50
45.00000000000423
 51
90.00000000000325
  0
ARC
  5
AE
330
47
100
AcDbEntity
  8
1
  6
Continuous
 62
     7
100
AcDbCircle
 10
304.7428282494016
 20
220.4659284573583
 30
0.0
 40
1.0
100
AcDbArc
 50
180.0
 51
269.9999999999935
  0
ARC
  5
AF
330
47
100
AcDbEntity
  8
1
  6
Continuous
 62
     7
100
AcDbCircle
 10
304.7428282494013
 20
235.4659284573586
 30
0.0
 40
0.999999999999801
100
AcDbArc
 50
89.99999999999022
 51
180.0000000000114
  0
ARC
  5
B0
330
47
100
AcDbEntity
  8
1
  6
Continuous
 62
     7
100
AcDbCircle
 10
309.4291197504165
 20
239.4659284573586
 30
0.0
 40
3.0
100
AcDbArc
 50
270.0000000000021
 51
315.0000000000003
  0
ENDBLK
  5
49
330
47
100
AcDbEntity
  8
0
100
AcDbBlockEnd
  0
BLOCK
  5
4B
330
4A
100
AcDbEntity
  8
0
100
AcDbBlockBegin
  2
36-190-M11
 70
     0
 10
23.7565846042009
 20
1003.802331807142
 30
0.0
  3
36-190-M11
  1

  0
LINE
  5
B1
330
4A
100
AcDbEntity
  8
1
  6
Continuous
 62
     7
100
AcDbLine
 10
300.4472736955025
 20
232.7159284573586
 30
0.0
 11
303.7427295733147
 21
232.7159284573586
 31
0.0
  0
LINE
  5
B2
330
4A
100
AcDbEntity
  8
1
  6
Continuous
 62
     7
100
AcDbLine
 10
303.7427295733147
 20
223.2159284573586
 30
0.0
 11
300.4472736955025
 21
223.2159284573586
 31
0.0
  0
LINE
  5
B3
330
4A
100
AcDbEntity
  8
1
  6
Continuous
 62
     7
100
AcDbLine
 10
303.7427295733147
 20
408.5576338397302
 30
0.0
 11
300.4472736955025
 21
408.5576338397302
 31
0.0
  0
LINE
  5
B4
330
4A
100
AcDbEntity
  8
1
  6
Continuous
 62
     7
100
AcDbLine
 10
300.4472736955025
 20
418.0576338397302
 30
0.0
 11
303.7427295733147
 21
418.0576338397302
 31
0.0
  0
ENDBLK
  5
4C
330
4A
100
AcDbEntity
  8
0
100
AcDbBlockEnd
  0
BLOCK
  5
50
330
4D
100
AcDbEntity
  8
0
100
AcDbBlockBegin
  2
U360LS-13
 70
     0
 10
136.8974217966146
 20
212.4692317143606
 30
0.0
  3
U360LS-13
  1

  0
INSERT
  5
4E
330
4D
100
AcDbEntity
  8
1
100
AcDbBlockReference
  2
37-119
 10
-173.9661316756567
 20
740.9902526749138
 30
0.0
  0
INSERT
  5
4F
330
4D
100
AcDbEntity
  8
1
100
AcDbBlockReference
  2
36-190-M11
 10
23.7565846042009
 20
1003.802331807142
 30
0.0
  0
LINE
  5
B5
330
4D
100
AcDbEntity
  8
1
  6
PHANTOM
 62
     4
100
AcDbLine
 10
305.421604143034
 20
413.3076338397302
 30
0.0
 11
288.643257006323
 21
413.3076338397302
 31
0.0
  0
ENDBLK
  5
51
330
4D
100
AcDbEntity
  8
0
100
AcDbBlockEnd
  0
BLOCK
  5
53
330
52
100
AcDbEntity
  8
0
100
AcDbBlockBegin
  2
41-1-15
 70
     0
 10
758.1853855069461
 20
75.75573567877944
 30
0.0
  3
41-1-15
  1

  0
LINE
  5
B6
330
52
100
AcDbEntity
  8
1
  6
Continuous
 62
     7
100
AcDbLine
 10
340.4972736955024
 20
416.8156060634906
 30
0.0
 11
340.4972736955024
 21
409.799661615969
 31
0.0
  0
LINE
  5
B7
330
52
100
AcDbEntity
  8
1
  6
Continuous
 62
     7
100
AcDbLine
 10
339.7472736955024
 20
412.3721204480785
 30
0.0
 11
339.7472736955024
 21
414.2431472313812
 31
0.0
  0
ENDBLK
  5
54
330
52
100
AcDbEntity
  8
0
100
AcDbBlockEnd
  0
BLOCK
  5
56
330
55
100
AcDbEntity
  8
0
100
AcDbBlockBegin
  2
91-1
 70
     0
 10
763.2439751361875
 20
41.56044027156429
 30
0.0
  3
91-1
  1

  0
LINE
  5
B8
330
55
100
AcDbEntity
  8
1
  6
Continuous
 62
     7
100
AcDbLine
 10
343.7674937312537
 20
406.3076338397302
 30
0.0
 11
345.7472736955024
 21
406.3076338397302
 31
0.0
  0
LINE
  5
B9
330
55
100
AcDbEntity
  8
1
  6
Continuous
 62
     7
100
AcDbLine
 10
342.7472736955024
 20
419.620154776157
 30
0.0
 11
342.7472736955024
 21
406.9951129033026
 31
0.0
  0
LINE
  5
BA
330
55
100
AcDbEntity
  8
1
  6
Continuous
 62
     7
100
AcDbLine
 10
345.7472736955024
 20
420.3076338397302
 30
0.0
 11
343.7674937312551
 21
420.3076338397302
 31
0.0
  0
LINE
  5
BB
330
55
100
AcDbEntity
  8
1
  6
Continuous
 62
     7
100
AcDbLine
 10
345.7472736955024
 20
406.3076338397302
 30
0.0
 11
345.7472736955024
 21
420.3076338397302
 31
0.0
  0
ENDBLK
  5
57
330
55
100
AcDbEntity
  8
0
100
AcDbBlockEnd
  0
BLOCK
  5
5B
330
58
100
AcDbEntity
  8
0
100
AcDbBlockBegin
  2
P82A-15
 70
     0
 10
339.7472736955024
 20
406.3076338397302
 30
0.0
  3
P82A-15
  1

  0
INSERT
  5
59
330
58
100
AcDbEntity
  8
0
100
AcDbBlockReference
  2
41-1-15
 10
758.1853855069461
 20
75.75573567877944
 30
0.0
  0
INSERT
  5
5A
330
58
100
AcDbEntity
  8
0
100
AcDbBlockReference
  2
91-1
 10
763.2439751361875
 20
41.56044027156429
 30
0.0
  0
ENDBLK
  5
5C
330
58
100
AcDbEntity
  8
0
100
AcDbBlockEnd
  0
BLOCK
  5
5E
330
5D
100
AcDbEntity
  8
0
100
AcDbBlockBegin
  2
27-2A-M1
 70
     0
 10
-218.8403318129679
 20
474.8357924145271
 30
0.0
  3
27-2A-M1
  1

  0
LINE
  5
BC
330
5D
100
AcDbEntity
  8
1
  6
Continuous
 62
     7
100
AcDbLine
 10
276.9472736955025
 20
401.7630127632402
 30
0.0
 11
276.9472736955025
 21
408.9589983958745
 31
0.0
  0
LINE
  5
BD
330
5D
100
AcDbEntity
  8
1
  6
PHANTOM
 62
     4
100
AcDbLine
 10
255.4999750268792
 20
288.9659284573585
 30
0.0
 11
292.9472736955025
 21
288.9659284573585
 31
0.0
  0
LINE
  5
BE
330
5D
100
AcDbEntity
  8
1
  6
PHANTOM
 62
     4
100
AcDbLine
 10
139.8104037273345
 20
227.9659284573583
 30
0.0
 11
169.2759667125697
 21
227.9659284573583
 31
0.0
  0
LINE
  5
BF
330
5D
100
AcDbEntity
  8
1
  6
PHANTOM
 62
     4
100
AcDbLine
 10
154.6024074940066
 20
240.9659284573583
 30
0.0
 11
154.6024074940066
 21
211.5473839075455
 31
0.0
  0
LINE
  5
C0
330
5D
100
AcDbEntity
  8
1
  6
Continuous
 62
     7
100
AcDbLine
 10
285.7472736955025
 20
288.9659284573585
 30
0.0
 11
286.0065329610099
 21
283.2057893714044
 31
0.0
  0
LINE
  5
C1
330
5D
100
AcDbEntity
  8
1
  6
Continuous
 62
     7
100
AcDbLine
 10
287.9472736955025
 20
240.0870351059621
 30
0.0
 11
300.4472736955025
 21
240.7421323470002
 31
0.0
  0
LINE
  5
C2
330
5D
100
AcDbEntity
  8
1
  6
Continuous
 62
     7
100
AcDbLine
 10
276.9472736955025
 20
263.9659284573585
 30
0.0
 11
276.9472736955025
 21
227.9659284573587
 31
0.0
  0
LINE
  5
C3
330
5D
100
AcDbEntity
  8
1
  6
Continuous
 62
     7
100
AcDbLine
 10
300.4472736955025
 20
215.1897245677171
 30
0.0
 11
276.9472736955025
 21
216.4213073808685
 31
0.0
  0
LINE
  5
C4
330
5D
100
AcDbEntity
  8
1
  6
Continuous
 62
     7
100
AcDbLine
 10
276.9472736955025
 20
263.9659284573585
 30
0.0
 11
270.1841531151442
 21
270.7295014723391
 31
0.0
  0
LINE
  5
C5
330
5D
100
AcDbEntity
  8
1
  6
Continuous
 62
     7
100
AcDbLine
 10
280.7422116871618
 20
288.9659284573585
 30
0.0
 11
281.0115898497481
 21
282.9809709663358
 31
0.0
  0
LINE
  5
C6
330
5D
100
AcDbEntity
  8
1
  6
Continuous
 62
     7
100
AcDbLine
 10
274.4781551633163
 20
273.5065165005042
 30
0.0
 11
273.7196870230546
 21
274.2650353802495
 31
0.0
  0
LINE
  5
C7
330
5D
100
AcDbEntity
  8
1
  6
Continuous
 62
     7
100
AcDbLine
 10
150.6024074940066
 20
302.9659284573584
 30
0.0
 11
154.6024074940066
 21
302.9659284573584
 31
0.0
  0
LINE
  5
C8
330
5D
100
AcDbEntity
  8
1
  6
Continuous
 62
     7
100
AcDbLine
 10
150.6024074940066
 20
263.9659284573584
 30
0.0
 11
150.6024074940066
 21
302.9659284573584
 31
0.0
  0
LINE
  5
C9
330
5D
100
AcDbEntity
  8
1
  6
Continuous
 62
     7
100
AcDbLine
 10
150.1013934312582
 20
247.2654596990786
 30
0.0
 11
150.6024074940066
 21
263.9659284573584
 31
0.0
  0
LINE
  5
CA
330
5D
100
AcDbEntity
  8
1
  6
Continuous
 62
     7
100
AcDbLine
 10
158.6024074940066
 20
263.9659284573584
 30
0.0
 11
159.1034215567549
 21
247.2654596990786
 31
0.0
  0
LINE
  5
CB
330
5D
100
AcDbEntity
  8
1
  6
Continuous
 62
     7
100
AcDbLine
 10
158.6024074940066
 20
302.9659284573584
 30
0.0
 11
158.6024074940066
 21
263.9659284573584
 31
0.0
  0
LINE
  5
CC
330
5D
100
AcDbEntity
  8
1
  6
Continuous
 62
     7
100
AcDbLine
 10
154.6024074940066
 20
302.9659284573584
 30
0.0
 11
158.6024074940066
 21
302.9659284573584
 31
0.0
  0
LINE
  5
CD
330
5D
100
AcDbEntity
  8
1
  6
PHANTOM
 62
     4
100
AcDbLine
 10
271.7472736955025
 20
305.0186685201705
 30
0.0
 11
271.7472736955025
 21
273.3842186964994
 31
0.0
  0
LINE
  5
CE
330
5D
100
AcDbEntity
  8
1
  6
Continuous
 62
     7
100
AcDbLine
 10
270.1841531151442
 20
270.7295014723391
 30
0.0
 11
261.8474476506777
 21
279.0667646400349
 31
0.0
  0
LINE
  5
CF
330
5D
100
AcDbEntity
  8
1
  6
Continuous
 62
     7
100
AcDbLine
 10
273.7196870230546
 20
274.2650353802495
 30
0.0
 11
265.3830998095437
 21
282.6021802890791
 31
0.0
  0
LINE
  5
D0
330
5D
100
AcDbEntity
  8
1
  6
Continuous
 62
     7
100
AcDbLine
 10
281.0115898497481
 20
282.9809709663358
 30
0.0
 11
281.3026313794186
 21
276.5147037437944
 31
0.0
  0
LINE
  5
D1
330
5D
100
AcDbEntity
  8
1
  6
Continuous
 62
     7
100
AcDbLine
 10
286.0065329610099
 20
283.2057893714044
 30
0.0
 11
287.8566801150248
 21
242.0998141780028
 31
0.0
  0
LINE
  5
D2
330
5D
100
AcDbEntity
  8
1
  6
Continuous
 62
     7
100
AcDbLine
 10
300.4472736955025
 20
426.0838377293715
 30
0.0
 11
300.4472736955025
 21
400.5314299500886
 31
0.0
  0
LINE
  5
D3
330
5D
100
AcDbEntity
  8
1
  6
Continuous
 62
     7
100
AcDbLine
 10
300.4472736955025
 20
400.5314299500886
 30
0.0
 11
276.9472736955025
 21
401.7630127632402
 31
0.0
  0
LINE
  5
D4
330
5D
100
AcDbEntity
  8
1
  6
Continuous
 62
     7
100
AcDbLine
 10
285.7472736955025
 20
416.4827705621202
 30
0.0
 11
285.7472736955025
 21
417.3076338397301
 31
0.0
  0
LINE
  5
D5
330
5D
100
AcDbEntity
  8
1
  6
Continuous
 62
     7
100
AcDbLine
 10
286.5825896589394
 20
411.5257447397302
 30
0.0
 11
286.5825896589394
 21
415.0895229397302
 31
0.0
  0
LINE
  5
D6
330
5D
100
AcDbEntity
  8
1
  6
Continuous
 62
     7
100
AcDbLine
 10
276.9472736955025
 20
417.6562692835859
 30
0.0
 11
276.9472736955025
 21
417.3076338397301
 31
0.0
  0
LINE
  5
D7
330
5D
100
AcDbEntity
  8
1
  6
Continuous
 62
     7
100
AcDbLine
 10
287.9472736955025
 20
415.4976338397302
 30
0.0
 11
287.9472736955025
 21
417.3076338397301
 31
0.0
  0
LINE
  5
D8
330
5D
100
AcDbEntity
  8
1
  6
Continuous
 62
     7
100
AcDbLine
 10
288.7009453757132
 20
418.8718159644494
 30
0.0
 11
285.7472736955025
 21
416.4827705621202
 31
0.0
  0
LINE
  5
D9
330
5D
100
AcDbEntity
  8
1
  6
Continuous
 62
     7
100
AcDbLine
 10
289.9472736955025
 20
419.3076338397301
 30
0.0
 11
276.9472736955025
 21
417.6562692835859
 31
0.0
  0
LINE
  5
DA
330
5D
100
AcDbEntity
  8
1
  6
Continuous
 62
     7
100
AcDbLine
 10
276.9472736955025
 20
424.8522549162202
 30
0.0
 11
276.9472736955025
 21
417.6562692835859
 31
0.0
  0
LINE
  5
DB
330
5D
100
AcDbEntity
  8
1
  6
Continuous
 62
     7
100
AcDbLine
 10
285.7472736955025
 20
410.1324971173402
 30
0.0
 11
288.6781630737277
 21
407.7618789336412
 31
0.0
  0
LINE
  5
DC
330
5D
100
AcDbEntity
  8
1
  6
Continuous
 62
     7
100
AcDbLine
 10
276.9472736955025
 20
408.9589983958745
 30
0.0
 11
289.9472736955025
 21
407.3076338397301
 31
0.0
  0
LINE
  5
DD
330
5D
100
AcDbEntity
  8
1
  6
Continuous
 62
     7
100
AcDbLine
 10
287.9472736955025
 20
415.4976338397302
 30
0.0
 11
286.5825896589394
 21
415.0895229397302
 31
0.0
  0
LINE
  5
DE
330
5D
100
AcDbEntity
  8
1
  6
Continuous
 62
     7
100
AcDbLine
 10
287.9472736955025
 20
411.1176338397302
 30
0.0
 11
287.9472736955025
 21
415.4976338397302
 31
0.0
  0
LINE
  5
DF
330
5D
100
AcDbEntity
  8
1
  6
Continuous
 62
     7
100
AcDbLine
 10
287.9472736955025
 20
411.1176338397302
 30
0.0
 11
286.5825896589394
 21
411.5257447397302
 31
0.0
  0
LINE
  5
E0
330
5D
100
AcDbEntity
  8
1
  6
Continuous
 62
     7
100
AcDbLine
 10
287.9472736955025
 20
409.3076338397301
 30
0.0
 11
287.9472736955025
 21
411.1176338397302
 31
0.0
  0
LINE
  5
E1
330
5D
100
AcDbEntity
  8
1
  6
Continuous
 62
     7
100
AcDbLine
 10
276.9472736955025
 20
227.9659284573587
 30
0.0
 11
276.9472736955025
 21
216.4213073808685
 31
0.0
  0
LINE
  5
E2
330
5D
100
AcDbEntity
  8
1
  6
Continuous
 62
     7
100
AcDbLine
 10
300.4472736955025
 20
240.7421323470002
 30
0.0
 11
300.4472736955025
 21
215.1897245677171
 31
0.0
  0
LINE
  5
E3
330
5D
100
AcDbEntity
  8
1
  6
Continuous
 62
     7
100
AcDbLine
 10
276.9472736955025
 20
424.8522549162202
 30
0.0
 11
300.4472736955025
 21
426.0838377293715
 31
0.0
  0
LINE
  5
E4
330
5D
100
AcDbEntity
  8
1
  6
Continuous
 62
     7
100
AcDbLine
 10
276.9472736955025
 20
408.9589983958745
 30
0.0
 11
276.9472736955025
 21
409.3076338397301
 31
0.0
  0
LINE
  5
E5
330
5D
100
AcDbEntity
  8
1
  6
Continuous
 62
     7
100
AcDbLine
 10
276.9472736955025
 20
409.3076338397301
 30
0.0
 11
257.7472736955025
 21
409.3076338397301
 31
0.0
  0
LINE
  5
E6
330
5D
100
AcDbEntity
  8
1
  6
Continuous
 62
     7
100
AcDbLine
 10
276.9472736955025
 20
417.3076338397301
 30
0.0
 11
285.7472736955025
 21
417.3076338397301
 31
0.0
  0
LINE
  5
E7
330
5D
100
AcDbEntity
  8
1
  6
Continuous
 62
     7
100
AcDbLine
 10
285.7472736955025
 20
410.1324971173402
 30
0.0
 11
285.7472736955025
 21
416.4827705621202
 31
0.0
  0
LINE
  5
E8
330
5D
100
AcDbEntity
  8
1
  6
Continuous
 62
     7
100
AcDbLine
 10
285.7472736955025
 20
409.3076338397301
 30
0.0
 11
285.7472736955025
 21
410.1324971173402
 31
0.0
  0
LINE
  5
E9
330
5D
100
AcDbEntity
  8
1
  6
Continuous
 62
     7
100
AcDbLine
 10
257.7472736955025
 20
409.3076338397301
 30
0.0
 11
257.7472736955025
 21
417.3076338397301
 31
0.0
  0
LINE
  5
EA
330
5D
100
AcDbEntity
  8
1
  6
Continuous
 62
     7
100
AcDbLine
 10
285.7472736955025
 20
409.3076338397301
 30
0.0
 11
276.9472736955025
 21
409.3076338397301
 31
0.0
  0
LINE
  5
EB
330
5D
100
AcDbEntity
  8
1
  6
Continuous
 62
     7
100
AcDbLine
 10
257.7472736955025
 20
417.3076338397301
 30
0.0
 11
276.9472736955025
 21
417.3076338397301
 31
0.0
  0
LINE
  5
EC
330
5D
100
AcDbEntity
  8
1
  6
Continuous
 62
     7
100
AcDbLine
 10
277.9215463337633
 20
239.561608999236
 30
0.0
 11
286.9963174575806
 21
240.0371976013372
 31
0.0
  0
LINE
  5
ED
330
5D
100
AcDbEntity
  8
1
  6
Continuous
 62
     7
100
AcDbLine
 10
151.8647108031151
 20
263.9659284573584
 30
0.0
 11
157.5410881868131
 21
263.9659284573584
 31
0.0
  0
ARC
  5
EE
330
5D
100
AcDbEntity
  8
1
  6
Continuous
 62
     7
100
AcDbCircle
 10
154.6024074940068
 20
227.9659284573584
 30
0.0
 40
12.7500000000002
100
AcDbArc
 50
180.0000000000004
 51
270.0
  0
ARC
  5
EF
330
5D
100
AcDbEntity
  8
1
  6
Continuous
 62
     7
100
AcDbCircle
 10
271.7472736955025
 20
288.9659284573585
 30
0.0
 40
14.0
100
AcDbArc
 50
90.0
 51
180.0
  0
ARC
  5
F0
330
5D
100
AcDbEntity
  8
1
  6
Continuous
 62
     7
100
AcDbCircle
 10
271.7472736955025
 20
288.9659284573585
 30
0.0
 40
14.0
100
AcDbArc
 50
0.0
 51
90.0
  0
ARC
  5
F1
330
5D
100
AcDbEntity
  8
1
  6
Continuous
 62
     7
100
AcDbCircle
 10
154.6024074940068
 20
227.9659284573584
 30
0.0
 40
12.75
100
AcDbArc
 50
270.0
 51
0.0
  0
ARC
  5
F2
330
5D
100
AcDbEntity
  8
1
  6
Continuous
 62
     7
100
AcDbCircle
 10
271.7472736955025
 20
288.9659284573585
 30
0.0
 40
14.0
100
AcDbArc
 50
180.0
 51
224.9980835971356
  0
ARC
  5
F3
330
5D
100
AcDbEntity
  8
1
  6
Continuous
 62
     7
100
AcDbCircle
 10
271.7472736955025
 20
288.9659284573585
 30
0.0
 40
8.994937991659299
100
AcDbArc
 50
0.0
 51
224.9980835971356
  0
ARC
  5
F4
330
5D
100
AcDbEntity
  8
1
  6
Continuous
 62
     7
100
AcDbCircle
 10
277.3066768904091
 20
276.3348490197394
 30
0.0
 40
3.999999999999968
100
AcDbArc
 50
224.9980835971345
 51
2.57709801858404
  0
ARC
  5
F5
330
5D
100
AcDbEntity
  8
1
  6
Continuous
 62
     7
100
AcDbCircle
 10
135.1081388784227
 20
247.7152573356636
 30
0.0
 40
14.99999999999998
100
AcDbArc
 50
314.627616433276
 51
333.2591865778369
  0
ARC
  5
F6
330
5D
100
AcDbEntity
  8
1
  6
Continuous
 62
     7
100
AcDbCircle
 10
154.6024074940068
 20
227.9659284573584
 30
0.0
 40
12.75000000000016
100
AcDbArc
 50
134.6276164332766
 51
180.0000000000004
  0
ARC
  5
F7
330
5D
100
AcDbEntity
  8
1
  6
Continuous
 62
     7
100
AcDbCircle
 10
174.0966761095905
 20
247.7152573356636
 30
0.0
 40
15.00000000000009
100
AcDbArc
 50
181.7183580016552
 51
206.7408134221631
  0
ARC
  5
F8
330
5D
100
AcDbEntity
  8
1
  6
Continuous
 62
     7
100
AcDbCircle
 10
174.0966761095905
 20
247.7152573356636
 30
0.0
 40
15.00000000000004
100
AcDbArc
 50
206.7408134221631
 51
225.3723835667241
  0
ARC
  5
F9
330
5D
100
AcDbEntity
  8
1
  6
Continuous
 62
     7
100
AcDbCircle
 10
135.1081388784227
 20
247.7152573356636
 30
0.0
 40
15.00000000000006
100
AcDbArc
 50
333.2591865778369
 51
358.2816419983448
  0
ARC
  5
FA
330
5D
100
AcDbEntity
  8
1
  6
Continuous
 62
     7
100
AcDbCircle
 10
289.9472736955025
 20
417.3076338397301
 30
0.0
 40
2.0
100
AcDbArc
 50
90.0
 51
128.5475681699423
  0
ARC
  5
FB
330
5D
100
AcDbEntity
  8
1
  6
Continuous
 62
     7
100
AcDbCircle
 10
289.9472736955025
 20
409.3076338397301
 30
0.0
 40
2.0
100
AcDbArc
 50
180.0
 51
230.6129894947516
  0
ARC
  5
FC
330
5D
100
AcDbEntity
  8
1
  6
Continuous
 62
     7
100
AcDbCircle
 10
289.9472736955025
 20
417.3076338397301
 30
0.0
 40
2.000000000000031
100
AcDbArc
 50
128.5475681699423
 51
180.0
  0
ARC
  5
FD
330
5D
100
AcDbEntity
  8
1
  6
Continuous
 62
     7
100
AcDbCircle
 10
289.9472736955025
 20
409.3076338397301
 30
0.0
 40
1.999999999999867
100
AcDbArc
 50
230.6129894947516
 51
270.0
  0
ARC
  5
FE
330
5D
100
AcDbEntity
  8
1
  6
Continuous
 62
     7
100
AcDbCircle
 10
154.6024074940068
 20
227.9659284573584
 30
0.0
 40
12.75
100
AcDbArc
 50
0.0
 51
45.37238356672472
  0
ARC
  5
FF
330
5D
100
AcDbEntity
  8
1
  6
Continuous
 62
     7
100
AcDbCircle
 10
289.8546573595296
 20
242.1897415400304
 30
0.0
 40
2.000000000000056
100
AcDbArc
 50
182.5770980185872
 51
217.7274863498536
  0
ARC
  5
100
330
5D
100
AcDbEntity
  8
1
  6
Continuous
 62
     7
100
AcDbCircle
 10
289.8546573595296
 20
242.1897415400304
 30
0.0
 40
2.000000000000013
100
AcDbArc
 50
217.7274863498536
 51
272.9999999999972
  0
ENDBLK
  5
5F
330
5D
100
AcDbEntity
  8
0
100
AcDbBlockEnd
  0
BLOCK
  5
61
330
60
100
AcDbEntity
  8
0
100
AcDbBlockBegin
  2
開示A4
 70
     0
 10
0.0
 20
0.0
 30
0.0
  3
開示A4
  1

  0
POINT
  5
101
330
60
100
AcDbEntity
  8
1
 62
     4
100
AcDbPoint
 10
34.0
 20
34.00000000000001
 30
0.0
  0
POINT
  5
102
330
60
100
AcDbEntity
  8
1
 62
     4
100
AcDbPoint
 10
57.0
 20
12.25
 30
0.0
  0
POINT
  5
103
330
60
100
AcDbEntity
  8
1
 62
     4
100
AcDbPoint
 10
57.0
 20
20.75000000000001
 30
0.0
  0
POINT
  5
104
330
60
100
AcDbEntity
  8
1
 62
     4
100
AcDbPoint
 10
57.0
 20
24.75000000000001
 30
0.0
  0
POINT
  5
105
330
60
100
AcDbEntity
  8
1
 62
     4
100
AcDbPoint
 10
57.0
 20
16.25
 30
0.0
  0
POINT
  5
106
330
60
100
AcDbEntity
  8
1
 62
     4
100
AcDbPoint
 10
157.5
 20
19.00000000000001
 30
0.0
  0
POINT
  5
107
330
60
100
AcDbEntity
  8
1
 62
     4
100
AcDbPoint
 10
47.5
 20
282.0000000000003
 30
0.0
  0
POINT
  5
108
330
60
100
AcDbEntity
  8
1
 62
     4
100
AcDbPoint
 10
57.0
 20
22.75000000000001
 30
0.0
  0
POINT
  5
109
330
60
100
AcDbEntity
  8
1
 62
     4
100
AcDbPoint
 10
57.0
 20
14.25
 30
0.0
  0
POINT
  5
10A
330
60
100
AcDbEntity
  8
1
 62
     4
100
AcDbPoint
 10
157.5
 20
12.5
 30
0.0
  0
POINT
  5
10B
330
60
100
AcDbEntity
  8
1
 62
     4
100
AcDbPoint
 10
163.25
 20
12.5
 30
0.0
  0
POINT
  5
10C
330
60
100
AcDbEntity
  8
1
 62
     4
100
AcDbPoint
 10
151.75
 20
12.5
 30
0.0
  0
POINT
  5
10D
330
60
100
AcDbEntity
  8
1
 62
     4
100
AcDbPoint
 10
134.75
 20
12.5
 30
0.0
  0
POINT
  5
10E
330
60
100
AcDbEntity
  8
1
 62
     4
100
AcDbPoint
 10
146.25
 20
12.5
 30
0.0
  0
POINT
  5
10F
330
60
100
AcDbEntity
  8
1
 62
     4
100
AcDbPoint
 10
140.5
 20
12.5
 30
0.0
  0
POINT
  5
110
330
60
100
AcDbEntity
  8
1
 62
     4
100
AcDbPoint
 10
140.5
 20
19.00000000000001
 30
0.0
  0
POINT
  5
111
330
60
100
AcDbEntity
  8
1
 62
     4
100
AcDbPoint
 10
117.75
 20
12.5
 30
0.0
  0
POINT
  5
112
330
60
100
AcDbEntity
  8
1
 62
     4
100
AcDbPoint
 10
129.25
 20
12.5
 30
0.0
  0
POINT
  5
113
330
60
100
AcDbEntity
  8
1
 62
     4
100
AcDbPoint
 10
123.5
 20
12.5
 30
0.0
  0
POINT
  5
114
330
60
100
AcDbEntity
  8
1
 62
     4
100
AcDbPoint
 10
123.5
 20
19.00000000000001
 30
0.0
  0
POINT
  5
115
330
60
100
AcDbEntity
  8
1
 62
     4
100
AcDbPoint
 10
100.75
 20
12.5
 30
0.0
  0
POINT
  5
116
330
60
100
AcDbEntity
  8
1
 62
     4
100
AcDbPoint
 10
112.25
 20
12.5
 30
0.0
  0
POINT
  5
117
330
60
100
AcDbEntity
  8
1
 62
     4
100
AcDbPoint
 10
106.5
 20
12.5
 30
0.0
  0
POINT
  5
118
330
60
100
AcDbEntity
  8
1
 62
     4
100
AcDbPoint
 10
106.5
 20
19.00000000000001
 30
0.0
  0
POINT
  5
119
330
60
100
AcDbEntity
  8
1
 62
     4
100
AcDbPoint
 10
85.25
 20
17.0
 30
0.0
  0
POINT
  5
11A
330
60
100
AcDbEntity
  8
1
 62
     4
100
AcDbPoint
 10
93.75
 20
17.0
 30
0.0
  0
LINE
  5
11B
330
60
100
AcDbEntity
  8
1
  6
Continuous
 62
     2
100
AcDbLine
 10
81.0
 20
27.00000000000001
 30
0.0
 11
81.0
 21
10.0
 31
0.0
  0
LINE
  5
11C
330
60
100
AcDbEntity
  8
1
  6
DOT_CENTER
 62
     2
100
AcDbLine
 10
187.0
 20
26.50000000000001
 30
0.0
 11
187.0
 21
20.50000000000001
 31
0.0
  0
LINE
  5
11D
330
60
100
AcDbEntity
  8
1
  6
DOT_CENTER
 62
     2
100
AcDbLine
 10
184.0
 20
23.50000000000001
 30
0.0
 11
197.0
 21
23.50000000000001
 31
0.0
  0
LINE
  5
11E
330
60
100
AcDbEntity
  8
1
  6
Continuous
 62
     7
100
AcDbLine
 10
196.0
 20
21.50000000000001
 30
0.0
 11
191.0
 21
22.30000000000001
 31
0.0
  0
LINE
  5
11F
330
60
100
AcDbEntity
  8
1
  6
Continuous
 62
     7
100
AcDbLine
 10
196.0
 20
25.50000000000001
 30
0.0
 11
196.0
 21
21.50000000000001
 31
0.0
  0
LINE
  5
120
330
60
100
AcDbEntity
  8
1
  6
Continuous
 62
     7
100
AcDbLine
 10
191.0
 20
24.70000000000001
 30
0.0
 11
196.0
 21
25.50000000000001
 31
0.0
  0
LINE
  5
121
330
60
100
AcDbEntity
  8
1
  6
Continuous
 62
     7
100
AcDbLine
 10
191.0
 20
24.70000000000001
 30
0.0
 11
191.0
 21
22.30000000000001
 31
0.0
  0
LINE
  5
122
330
60
100
AcDbEntity
  8
1
  6
Continuous
 62
     2
100
AcDbLine
 10
33.0
 20
27.0
 30
0.0
 11
33.0
 21
10.0
 31
0.0
  0
LINE
  5
123
330
60
100
AcDbEntity
  8
1
  6
Continuous
 62
     2
100
AcDbLine
 10
25.0
 20
18.50000000000001
 30
0.0
 11
81.0
 21
18.50000000000001
 31
0.0
  0
LINE
  5
124
330
60
100
AcDbEntity
  8
1
  6
Continuous
 62
     7
100
AcDbLine
 10
200.0
 20
287.0000000000003
 30
0.0
 11
105.0
 21
287.0000000000003
 31
0.0
  0
LINE
  5
125
330
60
100
AcDbEntity
  8
1
  6
Continuous
 62
     7
100
AcDbLine
 10
200.0
 20
10.0
 30
0.0
 11
200.0
 21
148.5
 31
0.0
  0
LINE
  5
126
330
60
100
AcDbEntity
  8
1
  6
Continuous
 62
     7
100
AcDbLine
 10
25.0
 20
10.0
 30
0.0
 11
105.0
 21
10.0
 31
0.0
  0
LINE
  5
127
330
60
100
AcDbEntity
  8
1
  6
PHANTOM
 62
     4
100
AcDbLine
 10
0.0
 20
297.0
 30
0.0
 11
0.0
 21
0.0
 31
0.0
  0
LINE
  5
128
330
60
100
AcDbEntity
  8
1
  6
PHANTOM
 62
     4
100
AcDbLine
 10
210.0
 20
297.0
 30
0.0
 11
0.0
 21
297.0
 31
0.0
  0
LINE
  5
129
330
60
100
AcDbEntity
  8
1
  6
PHANTOM
 62
     4
100
AcDbLine
 10
210.0
 20
0.0
 30
0.0
 11
210.0
 21
297.0
 31
0.0
  0
LINE
  5
12A
330
60
100
AcDbEntity
  8
1
  6
PHANTOM
 62
     4
100
AcDbLine
 10
0.0
 20
0.0
 30
0.0
 11
210.0
 21
0.0
 31
0.0
  0
LINE
  5
12B
330
60
100
AcDbEntity
  8
1
  6
Continuous
 62
     7
100
AcDbLine
 10
25.0
 20
41.0
 30
0.0
 11
200.0
 21
41.0
 31
0.0
  0
LINE
  5
12C
330
60
100
AcDbEntity
  8
1
  6
Continuous
 62
     7
100
AcDbLine
 10
200.0
 20
27.00000000000001
 30
0.0
 11
25.0
 21
27.00000000000001
 31
0.0
  0
LINE
  5
12D
330
60
100
AcDbEntity
  8
1
  6
Continuous
 62
     2
100
AcDbLine
 10
33.0
 20
41.00000000000001
 30
0.0
 11
33.0
 21
27.0
 31
0.0
  0
LINE
  5
12E
330
60
100
AcDbEntity
  8
1
  6
Continuous
 62
     2
100
AcDbLine
 10
55.0
 20
287.0000000000003
 30
0.0
 11
55.0
 21
277.0000000000003
 31
0.0
  0
LINE
  5
12F
330
60
100
AcDbEntity
  8
1
  6
Continuous
 62
     2
100
AcDbLine
 10
40.0
 20
287.0000000000003
 30
0.0
 11
40.0
 21
277.0000000000003
 31
0.0
  0
LINE
  5
130
330
60
100
AcDbEntity
  8
1
  6
Continuous
 62
     7
100
AcDbLine
 10
25.0
 20
10.0
 30
0.0
 11
25.0
 21
148.5
 31
0.0
  0
LINE
  5
131
330
60
100
AcDbEntity
  8
1
  6
Continuous
 62
     2
100
AcDbLine
 10
55.0
 20
277.0000000000003
 30
0.0
 11
25.0
 21
277.0000000000003
 31
0.0
  0
LINE
  5
132
330
60
100
AcDbEntity
  8
1
  6
Continuous
 62
     2
100
AcDbLine
 10
166.0
 20
27.00000000000001
 30
0.0
 11
166.0
 21
10.0
 31
0.0
  0
LINE
  5
133
330
60
100
AcDbEntity
  8
1
  6
Continuous
 62
     2
100
AcDbLine
 10
132.0
 20
27.00000000000001
 30
0.0
 11
132.0
 21
9.99999999999999
 31
0.0
  0
LINE
  5
134
330
60
100
AcDbEntity
  8
1
  6
Continuous
 62
     2
100
AcDbLine
 10
149.0
 20
27.00000000000001
 30
0.0
 11
149.0
 21
10.0
 31
0.0
  0
LINE
  5
135
330
60
100
AcDbEntity
  8
1
  6
Continuous
 62
     2
100
AcDbLine
 10
115.0
 20
27.00000000000001
 30
0.0
 11
115.0
 21
9.99999999999999
 31
0.0
  0
LINE
  5
136
330
60
100
AcDbEntity
  8
1
  6
Continuous
 62
     2
100
AcDbLine
 10
98.0
 20
27.00000000000001
 30
0.0
 11
98.0
 21
9.99999999999999
 31
0.0
  0
LINE
  5
137
330
60
100
AcDbEntity
  8
1
  6
Continuous
 62
     2
100
AcDbLine
 10
166.0
 20
20.00000000000001
 30
0.0
 11
200.0
 21
20.00000000000001
 31
0.0
  0
LINE
  5
138
330
60
100
AcDbEntity
  8
1
  6
Continuous
 62
     2
100
AcDbLine
 10
105.0
 20
287.0000000000003
 30
0.0
 11
105.0
 21
292.0000000000003
 31
0.0
  0
LINE
  5
139
330
60
100
AcDbEntity
  8
1
  6
Continuous
 62
     7
100
AcDbLine
 10
105.0
 20
287.0000000000003
 30
0.0
 11
25.0
 21
287.0000000000003
 31
0.0
  0
LINE
  5
13A
330
60
100
AcDbEntity
  8
1
  6
Continuous
 62
     2
100
AcDbLine
 10
25.0
 20
148.5
 30
0.0
 11
20.0
 21
148.5
 31
0.0
  0
LINE
  5
13B
330
60
100
AcDbEntity
  8
1
  6
Continuous
 62
     7
100
AcDbLine
 10
25.0
 20
148.5
 30
0.0
 11
25.0
 21
287.0000000000003
 31
0.0
  0
LINE
  5
13C
330
60
100
AcDbEntity
  8
1
  6
Continuous
 62
     2
100
AcDbLine
 10
200.0
 20
148.5
 30
0.0
 11
205.0
 21
148.5
 31
0.0
  0
LINE
  5
13D
330
60
100
AcDbEntity
  8
1
  6
Continuous
 62
     7
100
AcDbLine
 10
200.0
 20
148.5
 30
0.0
 11
200.0
 21
287.0000000000003
 31
0.0
  0
LINE
  5
13E
330
60
100
AcDbEntity
  8
1
  6
Continuous
 62
     2
100
AcDbLine
 10
105.0
 20
10.0
 30
0.0
 11
105.0
 21
5.0
 31
0.0
  0
LINE
  5
13F
330
60
100
AcDbEntity
  8
1
  6
Continuous
 62
     7
100
AcDbLine
 10
105.0
 20
10.0
 30
0.0
 11
200.0
 21
10.0
 31
0.0
  0
CIRCLE
  5
140
330
60
100
AcDbEntity
  8
1
  6
DOT_CENTER
 62
     7
100
AcDbCircle
 10
89.5
 20
18.0
 30
0.0
 40
0.1000000000000227
  0
CIRCLE
  5
141
330
60
100
AcDbEntity
  8
1
  6
DOT_CENTER
 62
     7
100
AcDbCircle
 10
89.5
 20
16.0
 30
0.0
 40
0.1000000000000227
  0
CIRCLE
  5
142
330
60
100
AcDbEntity
  8
1
  6
Continuous
 62
     7
100
AcDbCircle
 10
187.0
 20
23.50000000000001
 30
0.0
 40
2.0
  0
CIRCLE
  5
143
330
60
100
AcDbEntity
  8
1
  6
Continuous
 62
     7
100
AcDbCircle
 10
187.0
 20
23.50000000000001
 30
0.0
 40
1.200000000000102
  0
CIRCLE
  5
144
330
60
100
AcDbEntity
  8
1
  6
Continuous
 62
     7
100
AcDbCircle
 10
154.5
 20
12.5
 30
0.0
 40
0.3000000000000114
  0
CIRCLE
  5
145
330
60
100
AcDbEntity
  8
1
  6
Continuous
 62
     7
100
AcDbCircle
 10
160.5
 20
12.5
 30
0.0
 40
0.3000000000000114
  0
CIRCLE
  5
146
330
60
100
AcDbEntity
  8
1
  6
Continuous
 62
     7
100
AcDbCircle
 10
143.5
 20
12.5
 30
0.0
 40
0.3000000000000114
  0
CIRCLE
  5
147
330
60
100
AcDbEntity
  8
1
  6
Continuous
 62
     7
100
AcDbCircle
 10
137.5
 20
12.5
 30
0.0
 40
0.3000000000000114
  0
CIRCLE
  5
148
330
60
100
AcDbEntity
  8
1
  6
Continuous
 62
     7
100
AcDbCircle
 10
126.5
 20
12.5
 30
0.0
 40
0.2999999999999972
  0
CIRCLE
  5
149
330
60
100
AcDbEntity
  8
1
  6
Continuous
 62
     7
100
AcDbCircle
 10
120.5
 20
12.5
 30
0.0
 40
0.2999999999999972
  0
CIRCLE
  5
14A
330
60
100
AcDbEntity
  8
1
  6
Continuous
 62
     7
100
AcDbCircle
 10
109.5
 20
12.5
 30
0.0
 40
0.2999999999999972
  0
CIRCLE
  5
14B
330
60
100
AcDbEntity
  8
1
  6
Continuous
 62
     7
100
AcDbCircle
 10
103.5
 20
12.5
 30
0.0
 40
0.2999999999999972
  0
MTEXT
  5
14D
330
60
100
AcDbEntity
  8
1
 62
   250
100
AcDbMText
 10
25.0
 20
5.0
 30
0.0
 40
3.5
 41
0.0
 71
     4
 72
     1
  1
備考欄の文字列 原点位置=4
  7
CONVERTER_11
 73
     1
 44
0.54545454545455
  0
MTEXT
  5
14E
330
60
100
AcDbEntity
  8
1
 62
     2
100
AcDbMText
 10
89.5
 20
24.00000000000001
 30
0.0
 40
3.5
 41
0.0
 71
     5
 72
     1
  1
尺度
  7
CONVERTER_11
 73
     1
 44
0.54545454545455
  0
MTEXT
  5
14F
330
60
100
AcDbEntity
  8
1
 62
     2
100
AcDbMText
 10
135.5
 20
25.00000000000001
 30
0.0
 40
3.0
 41
0.0
 71
     5
 72
     1
  1
製図
  7
CONVERTER_11
 73
     1
 44
0.59090909090909
  0
MTEXT
  5
150
330
60
100
AcDbEntity
  8
1
 62
     2
100
AcDbMText
 10
152.5
 20
25.00000000000001
 30
0.0
 40
3.0
 41
0.0
 71
     5
 72
     1
  1
設計
  7
CONVERTER_11
 73
     1
 44
0.59090909090909
  0
MTEXT
  5
151
330
60
100
AcDbEntity
  8
1
 62
     2
100
AcDbMText
 10
118.5
 20
25.00000000000001
 30
0.0
 40
3.0
 41
0.0
 71
     5
 72
     1
  1
検図
  7
CONVERTER_11
 73
     1
 44
0.59090909090909
  0
MTEXT
  5
152
330
60
100
AcDbEntity
  8
1
 62
     2
100
AcDbMText
 10
175.0
 20
23.50000000000001
 30
0.0
 40
3.5
 41
0.0
 71
     5
 72
     1
  1
第三角法
  7
CONVERTER_11
 73
     1
 44
0.54545454545455
  0
MTEXT
  5
153
330
60
100
AcDbEntity
  8
1
 62
     2
100
AcDbMText
 10
101.5
 20
25.00000000000001
 30
0.0
 40
3.0
 41
0.0
 71
     5
 72
     1
  1
承認
  7
CONVERTER_11
 73
     1
 44
0.59090909090909
  0
MTEXT
  5
154
330
60
100
AcDbEntity
  8
1
 62
     2
100
AcDbMText
 10
29.0
 20
14.25
 30
0.0
 40
3.5
 41
0.0
 71
     5
 72
     1
  1
品番
  7
CONVERTER_11
 73
     1
 44
0.72727272727273
  0
MTEXT
  5
155
330
60
100
AcDbEntity
  8
1
 62
     2
100
AcDbMText
 10
29.0
 20
22.75
 30
0.0
 40
3.5
 41
0.0
 71
     5
 72
     1
  1
品名
  7
CONVERTER_11
 73
     1
 44
0.72727272727273
  0
MTEXT
  5
156
330
60
100
AcDbEntity
  8
1
 62
     2
100
AcDbMText
 10
29.0
 20
34.00000000000001
 30
0.0
 40
3.5
 41
0.0
 71
     5
 72
     1
  1
備考
  7
CONVERTER_11
 73
     1
 44
0.45454545454545
  0
MTEXT
  5
157
330
60
100
AcDbEntity
  8
1
 62
     2
100
AcDbMText
 10
32.5
 20
282.0000000000003
 30
0.0
 40
5.0
 41
0.0
 71
     5
 72
     1
  1
図番
  7
CONVERTER_11
 73
     1
 44
0.45454545454545
  0
MTEXT
  5
158
330
60
100
AcDbEntity
  8
1
 62
     7
100
AcDbMText
 10
171.5
 20
15.0
 30
0.0
 40
2.5
 41
0.0
 71
     5
 72
     1
  1
株式会社
  7
CONVERTER_11
 73
     1
 44
1.0
  0
MTEXT
  5
159
330
60
100
AcDbEntity
  8
1
 62
     7
100
AcDbMText
 10
188.5
 20
15.0
 30
0.0
 40
3.0
 41
0.0
 71
     5
 72
     1
  1
三栄水栓製作所
  7
CONVERTER_11
 73
     1
 44
1.0
  0
ENDBLK
  5
62
330
60
100
AcDbEntity
  8
0
100
AcDbBlockEnd
  0
BLOCK
  5
64
330
63
100
AcDbEntity
  8
0
100
AcDbBlockBegin
  2
42-29
 70
     0
 10
124.7762469188955
 20
501.9970761096863
 30
0.0
  3
42-29
  1

  0
LINE
  5
15A
330
63
100
AcDbEntity
  8
1
  6
Continuous
 62
     2
100
AcDbLine
 10
275.1637763384563
 20
222.9659284573585
 30
0.0
 11
276.8472736955024
 21
222.9659284573585
 31
0.0
  0
LINE
  5
15B
330
63
100
AcDbEntity
  8
1
  6
Continuous
 62
     7
100
AcDbLine
 10
276.9472736955024
 20
220.9659284573585
 30
0.0
 11
274.9396985175562
 21
220.9659284573585
 31
0.0
  0
LINE
  5
15C
330
63
100
AcDbEntity
  8
1
  6
Continuous
 62
     2
100
AcDbLine
 10
274.9637763384563
 20
221.9659284573585
 30
0.0
 11
276.9472736955024
 21
221.9659284573585
 31
0.0
  0
LINE
  5
15D
330
63
100
AcDbEntity
  8
1
  6
Continuous
 62
     2
100
AcDbLine
 10
275.2496827805335
 20
223.9659284494433
 30
0.0
 11
276.7360990431276
 21
223.9659284573585
 31
0.0
  0
LINE
  5
15E
330
63
100
AcDbEntity
  8
1
  6
Continuous
 62
     7
100
AcDbLine
 10
274.9637763384563
 20
223.9659284573586
 30
0.0
 11
274.9637763384563
 21
220.9659284573585
 31
0.0
  0
LINE
  5
15F
330
63
100
AcDbEntity
  8
1
  6
Continuous
 62
     2
100
AcDbLine
 10
276.7360990431276
 20
231.9659284573585
 30
0.0
 11
275.2496827805335
 21
231.9659284652738
 31
0.0
  0
LINE
  5
160
330
63
100
AcDbEntity
  8
1
  6
Continuous
 62
     7
100
AcDbLine
 10
276.9472736955025
 20
231.9659284573585
 30
0.0
 11
276.9472736955024
 21
234.9659284573585
 31
0.0
  0
LINE
  5
161
330
63
100
AcDbEntity
  8
1
  6
Continuous
 62
     2
100
AcDbLine
 10
276.9472736955024
 20
233.9659284573585
 30
0.0
 11
274.9637763384563
 21
233.9659284573585
 31
0.0
  0
LINE
  5
162
330
63
100
AcDbEntity
  8
1
  6
Continuous
 62
     7
100
AcDbLine
 10
274.9396985175562
 20
234.9659284573585
 30
0.0
 11
276.9472736955024
 21
234.9659284573585
 31
0.0
  0
LINE
  5
163
330
63
100
AcDbEntity
  8
1
  6
Continuous
 62
     2
100
AcDbLine
 10
276.8472736955024
 20
232.9659284573585
 30
0.0
 11
275.1637763384563
 21
232.9659284573585
 31
0.0
  0
LINE
  5
164
330
63
100
AcDbEntity
  8
1
  6
Continuous
 62
     7
100
AcDbLine
 10
276.9472736955024
 20
220.9659284573585
 30
0.0
 11
276.9472736955024
 21
223.9659284573586
 31
0.0
  0
LINE
  5
165
330
63
100
AcDbEntity
  8
1
  6
Continuous
 62
     7
100
AcDbLine
 10
274.9637763384563
 20
234.9659284573585
 30
0.0
 11
274.9637763384563
 21
231.9659284573585
 31
0.0
  0
LINE
  5
166
330
63
100
AcDbEntity
  8
1
  6
Continuous
 62
     2
100
AcDbLine
 10
275.4407111343164
 20
224.9659284573585
 30
0.0
 11
276.6151770705994
 21
224.9659284573585
 31
0.0
  0
LINE
  5
167
330
63
100
AcDbEntity
  8
1
  6
Continuous
 62
     7
100
AcDbLine
 10
276.9472736955024
 20
223.9659284573586
 30
0.0
 11
276.9472736955024
 21
227.9659284573585
 31
0.0
  0
LINE
  5
168
330
63
100
AcDbEntity
  8
1
  6
Continuous
 62
     7
100
AcDbLine
 10
274.9637763384563
 20
231.9659284573585
 30
0.0
 11
274.9637763384563
 21
227.9659284573585
 31
0.0
  0
LINE
  5
169
330
63
100
AcDbEntity
  8
1
  6
Continuous
 62
     7
100
AcDbLine
 10
276.9472736955024
 20
227.9659284573585
 30
0.0
 11
276.9472736955025
 21
231.9659284573585
 31
0.0
  0
LINE
  5
16A
330
63
100
AcDbEntity
  8
1
  6
Continuous
 62
     7
100
AcDbLine
 10
274.9637763384563
 20
227.9659284573585
 30
0.0
 11
274.9637763384563
 21
223.9659284573586
 31
0.0
  0
LINE
  5
16B
330
63
100
AcDbEntity
  8
1
  6
Continuous
 62
     2
100
AcDbLine
 10
276.2542207081576
 20
226.9659284573585
 30
0.0
 11
275.8258727350269
 21
226.9659284573585
 31
0.0
  0
LINE
  5
16C
330
63
100
AcDbEntity
  8
1
  6
Continuous
 62
     2
100
AcDbLine
 10
276.3988370609727
 20
225.9659284573585
 30
0.0
 11
275.6383282949783
 21
225.9659284573585
 31
0.0
  0
LINE
  5
16D
330
63
100
AcDbEntity
  8
1
  6
Continuous
 62
     2
100
AcDbLine
 10
276.5542207081576
 20
227.9659284573585
 30
0.0
 11
276.1258727350268
 21
227.9659284573585
 31
0.0
  0
LINE
  5
16E
330
63
100
AcDbEntity
  8
1
  6
Continuous
 62
     2
100
AcDbLine
 10
275.8258727350269
 20
228.9659284573585
 30
0.0
 11
276.2542207081576
 21
228.9659284573585
 31
0.0
  0
LINE
  5
16F
330
63
100
AcDbEntity
  8
1
  6
Continuous
 62
     2
100
AcDbLine
 10
275.6383282949783
 20
229.9659284573585
 30
0.0
 11
276.3988370609727
 21
229.9659284573585
 31
0.0
  0
LINE
  5
170
330
63
100
AcDbEntity
  8
1
  6
Continuous
 62
     2
100
AcDbLine
 10
276.6151770705994
 20
230.9659284573585
 30
0.0
 11
275.4407111343164
 21
230.9659284573585
 31
0.0
  0
LINE
  5
171
330
63
100
AcDbEntity
  8
1
  6
Continuous
 62
     7
100
AcDbLine
 10
274.9637763384563
 20
420.3076338397301
 30
0.0
 11
274.9637763384563
 21
417.3076338397301
 31
0.0
  0
LINE
  5
172
330
63
100
AcDbEntity
  8
1
  6
Continuous
 62
     7
100
AcDbLine
 10
276.9472736955024
 20
406.3076338397301
 30
0.0
 11
276.9472736955024
 21
409.3076338397302
 31
0.0
  0
LINE
  5
173
330
63
100
AcDbEntity
  8
1
  6
Continuous
 62
     2
100
AcDbLine
 10
276.8472736955024
 20
418.3076338397301
 30
0.0
 11
275.1637763384563
 21
418.3076338397301
 31
0.0
  0
LINE
  5
174
330
63
100
AcDbEntity
  8
1
  6
Continuous
 62
     7
100
AcDbLine
 10
274.9396985175562
 20
420.3076338397301
 30
0.0
 11
276.9472736955024
 21
420.3076338397301
 31
0.0
  0
LINE
  5
175
330
63
100
AcDbEntity
  8
1
  6
Continuous
 62
     2
100
AcDbLine
 10
276.9472736955024
 20
419.3076338397301
 30
0.0
 11
274.9637763384563
 21
419.3076338397301
 31
0.0
  0
LINE
  5
176
330
63
100
AcDbEntity
  8
1
  6
Continuous
 62
     7
100
AcDbLine
 10
276.9472736955025
 20
417.3076338397301
 30
0.0
 11
276.9472736955024
 21
420.3076338397301
 31
0.0
  0
LINE
  5
177
330
63
100
AcDbEntity
  8
1
  6
Continuous
 62
     2
100
AcDbLine
 10
276.7360990431276
 20
417.3076338397301
 30
0.0
 11
275.2496827805335
 21
417.3076338476454
 31
0.0
  0
LINE
  5
178
330
63
100
AcDbEntity
  8
1
  6
Continuous
 62
     7
100
AcDbLine
 10
274.9637763384563
 20
409.3076338397302
 30
0.0
 11
274.9637763384563
 21
406.3076338397301
 31
0.0
  0
LINE
  5
179
330
63
100
AcDbEntity
  8
1
  6
Continuous
 62
     2
100
AcDbLine
 10
275.2496827805335
 20
409.3076338318149
 30
0.0
 11
276.7360990431276
 21
409.3076338397301
 31
0.0
  0
LINE
  5
17A
330
63
100
AcDbEntity
  8
1
  6
Continuous
 62
     2
100
AcDbLine
 10
274.9637763384563
 20
407.3076338397301
 30
0.0
 11
276.9472736955024
 21
407.3076338397301
 31
0.0
  0
LINE
  5
17B
330
63
100
AcDbEntity
  8
1
  6
Continuous
 62
     7
100
AcDbLine
 10
276.9472736955024
 20
406.3076338397301
 30
0.0
 11
274.9396985175562
 21
406.3076338397301
 31
0.0
  0
LINE
  5
17C
330
63
100
AcDbEntity
  8
1
  6
Continuous
 62
     2
100
AcDbLine
 10
275.1637763384563
 20
408.3076338397301
 30
0.0
 11
276.8472736955024
 21
408.3076338397301
 31
0.0
  0
ARC
  5
17D
330
63
100
AcDbEntity
  8
0
  6
Continuous
 62
     7
100
AcDbCircle
 10
324.4472736955037
 20
227.9659284573585
 30
0.0
 40
50.00000000000124
100
AcDbArc
 50
171.9521537526887
 51
175.4114342642143
  0
ARC
  5
17E
330
63
100
AcDbEntity
  8
0
  6
Continuous
 62
     7
100
AcDbCircle
 10
324.4472736955037
 20
227.9659284573585
 30
0.0
 40
50.00000000000137
100
AcDbArc
 50
184.5885657357856
 51
188.0478462473113
  0
ARC
  5
17F
330
63
100
AcDbEntity
  8
0
  6
Continuous
 62
     7
100
AcDbCircle
 10
324.4472736955037
 20
227.9659284573585
 30
0.0
 40
50.00000000000131
100
AcDbArc
 50
180.0
 51
184.5885657357856
  0
ARC
  5
180
330
63
100
AcDbEntity
  8
0
  6
Continuous
 62
     7
100
AcDbCircle
 10
324.4472736955037
 20
227.9659284573585
 30
0.0
 40
50.00000000000126
100
AcDbArc
 50
175.4114342642143
 51
180.0
  0
ARC
  5
181
330
63
100
AcDbEntity
  8
0
  6
Continuous
 62
     7
100
AcDbCircle
 10
324.4472736955037
 20
413.3076338397301
 30
0.0
 40
50.00000000000137
100
AcDbArc
 50
184.5885657357856
 51
188.0478462473113
  0
ARC
  5
182
330
63
100
AcDbEntity
  8
0
  6
Continuous
 62
     7
100
AcDbCircle
 10
324.4472736955037
 20
413.3076338397301
 30
0.0
 40
50.00000000000124
100
AcDbArc
 50
171.9521537526887
 51
175.4114342642143
  0
CIRCLE
  5
183
330
63
100
AcDbEntity
  8
1
  6
Continuous
 62
     7
100
AcDbCircle
 10
154.6024074940053
 20
227.9659284573584
 30
0.0
 40
7.000000000000085
  0
ENDBLK
  5
65
330
63
100
AcDbEntity
  8
0
100
AcDbBlockEnd
  0
BLOCK
  5
67
330
66
100
AcDbEntity
  8
0
100
AcDbBlockBegin
  2
A231L-0-13-M1
 70
     0
 10
314.7427295733145
 20
204.9659284573584
 30
0.0
  3
A231L-0-13-M1
  1

  0
LINE
  5
184
330
66
100
AcDbEntity
  8
1
  6
Continuous
 62
     7
100
AcDbLine
 10
345.7427295733145
 20
405.5100380564131
 30
0.0
 11
345.7427295733145
 21
421.1052296230466
 31
0.0
  0
LINE
  5
185
330
66
100
AcDbEntity
  8
1
  6
Continuous
 62
     7
100
AcDbLine
 10
334.7427295733138
 20
256.2159284573588
 30
0.0
 11
360.7427295733138
 21
256.2159284573588
 31
0.0
  0
LINE
  5
186
330
66
100
AcDbEntity
  8
1
  6
Continuous
 62
     7
100
AcDbLine
 10
335.9927295733131
 20
258.9659284573588
 30
0.0
 11
359.4927295733131
 21
258.9659284573588
 31
0.0
  0
LINE
  5
187
330
66
100
AcDbEntity
  8
1
  6
Continuous
 62
     7
100
AcDbLine
 10
360.7427295733138
 20
237.2933075104476
 30
0.0
 11
360.7427295733138
 21
256.2159284573588
 31
0.0
  0
LINE
  5
188
330
66
100
AcDbEntity
  8
1
  6
Continuous
 62
     7
100
AcDbLine
 10
360.7427295733138
 20
237.2933075104476
 30
0.0
 11
360.7427295733138
 21
256.2159284573588
 31
0.0
  0
LINE
  5
189
330
66
100
AcDbEntity
  8
1
  6
Continuous
 62
     2
100
AcDbLine
 10
335.7427295733145
 20
251.4659284573585
 30
0.0
 11
334.7427295733145
 21
249.7338776497896
 31
0.0
  0
LINE
  5
18A
330
66
100
AcDbEntity
  8
1
  6
Continuous
 62
     2
100
AcDbLine
 10
360.7427295733145
 20
249.7338776497896
 30
0.0
 11
359.7427295733145
 21
251.4659284573585
 31
0.0
  0
LINE
  5
18B
330
66
100
AcDbEntity
  8
1
  6
Continuous
 62
     2
100
AcDbLine
 10
359.7427295733138
 20
257.2159284573588
 30
0.0
 11
359.7427295733145
 21
251.4659284573585
 31
0.0
  0
LINE
  5
18C
330
66
100
AcDbEntity
  8
1
  6
Continuous
 62
     7
100
AcDbLine
 10
334.7427295733145
 20
248.7159284573585
 30
0.0
 11
334.7427295733145
 21
249.7338776497896
 31
0.0
  0
LINE
  5
18D
330
66
100
AcDbEntity
  8
1
  6
Continuous
 62
     7
100
AcDbLine
 10
341.1291487022066
 20
251.4659284573587
 30
0.0
 11
334.7427295733145
 21
251.4659284573585
 31
0.0
  0
LINE
  5
18E
330
66
100
AcDbEntity
  8
1
  6
Continuous
 62
     7
100
AcDbLine
 10
334.7427295733138
 20
256.2159284573588
 30
0.0
 11
334.7427295733145
 21
249.7338776497896
 31
0.0
  0
LINE
  5
18F
330
66
100
AcDbEntity
  8
1
  6
Continuous
 62
     7
100
AcDbLine
 10
343.3677295733144
 20
251.4659284573587
 30
0.0
 11
341.1291487022066
 21
251.4659284573587
 31
0.0
  0
LINE
  5
190
330
66
100
AcDbEntity
  8
1
  6
Continuous
 62
     7
100
AcDbLine
 10
360.7427295733145
 20
251.4659284573585
 30
0.0
 11
352.1177295733144
 21
251.4659284573587
 31
0.0
  0
LINE
  5
191
330
66
100
AcDbEntity
  8
1
  6
Continuous
 62
     2
100
AcDbLine
 10
335.7427295733145
 20
251.4659284573585
 30
0.0
 11
335.7427295733131
 21
257.2159284573588
 31
0.0
  0
LINE
  5
192
330
66
100
AcDbEntity
  8
1
  6
Continuous
 62
     7
100
AcDbLine
 10
359.4927295733131
 20
257.4659284573588
 30
0.0
 11
360.7427295733138
 21
256.2159284573588
 31
0.0
  0
LINE
  5
193
330
66
100
AcDbEntity
  8
1
  6
Continuous
 62
     7
100
AcDbLine
 10
351.9377295733129
 20
257.4659284573588
 30
0.0
 11
359.4927295733131
 21
257.4659284573588
 31
0.0
  0
LINE
  5
194
330
66
100
AcDbEntity
  8
1
  6
Continuous
 62
     7
100
AcDbLine
 10
359.4927295733131
 20
257.4659284573588
 30
0.0
 11
359.4927295733131
 21
258.9659284573588
 31
0.0
  0
LINE
  5
195
330
66
100
AcDbEntity
  8
1
  6
Continuous
 62
     7
100
AcDbLine
 10
335.9927295733131
 20
257.4659284573588
 30
0.0
 11
335.9927295733131
 21
258.9659284573588
 31
0.0
  0
LINE
  5
196
330
66
100
AcDbEntity
  8
1
  6
Continuous
 62
     7
100
AcDbLine
 10
334.7427295733138
 20
256.2159284573588
 30
0.0
 11
335.9927295733131
 21
257.4659284573588
 31
0.0
  0
LINE
  5
197
330
66
100
AcDbEntity
  8
1
  6
Continuous
 62
     7
100
AcDbLine
 10
351.9377295733129
 20
257.4659284573588
 30
0.0
 11
335.9927295733131
 21
257.4659284573588
 31
0.0
  0
LINE
  5
198
330
66
100
AcDbEntity
  8
1
  6
Continuous
 62
     7
100
AcDbLine
 10
150.4074074940053
 20
257.4659284573588
 30
0.0
 11
142.8524074940053
 21
257.4659284573588
 31
0.0
  0
LINE
  5
199
330
66
100
AcDbEntity
  8
1
  6
Continuous
 62
     7
100
AcDbLine
 10
141.602407494006
 20
256.2159284573588
 30
0.0
 11
142.8524074940053
 21
257.4659284573588
 31
0.0
  0
LINE
  5
19A
330
66
100
AcDbEntity
  8
1
  6
Continuous
 62
     7
100
AcDbLine
 10
142.8524074940053
 20
257.4659284573588
 30
0.0
 11
142.8524074940053
 21
258.9659284573588
 31
0.0
  0
LINE
  5
19B
330
66
100
AcDbEntity
  8
1
  6
Continuous
 62
     7
100
AcDbLine
 10
142.8524074940053
 20
258.9659284573588
 30
0.0
 11
150.4524074940053
 21
258.9659284573584
 31
0.0
  0
LINE
  5
19C
330
66
100
AcDbEntity
  8
1
  6
Continuous
 62
     7
100
AcDbLine
 10
158.7524074940052
 20
258.9659284573584
 30
0.0
 11
166.3524074940053
 21
258.9659284573588
 31
0.0
  0
LINE
  5
19D
330
66
100
AcDbEntity
  8
1
  6
Continuous
 62
     7
100
AcDbLine
 10
166.3524074940053
 20
257.4659284573588
 30
0.0
 11
166.3524074940053
 21
258.9659284573588
 31
0.0
  0
LINE
  5
19E
330
66
100
AcDbEntity
  8
1
  6
Continuous
 62
     7
100
AcDbLine
 10
158.7974074940051
 20
257.4659284573588
 30
0.0
 11
166.3524074940053
 21
257.4659284573588
 31
0.0
  0
LINE
  5
19F
330
66
100
AcDbEntity
  8
1
  6
Continuous
 62
     7
100
AcDbLine
 10
166.3524074940053
 20
257.4659284573588
 30
0.0
 11
167.602407494006
 21
256.2159284573588
 31
0.0
  0
LINE
  5
1A0
330
66
100
AcDbEntity
  8
1
  6
Continuous
 62
     7
100
AcDbLine
 10
141.602407494006
 20
256.2159284573588
 30
0.0
 11
150.3699074940053
 21
256.2159284573587
 31
0.0
  0
LINE
  5
1A1
330
66
100
AcDbEntity
  8
1
  6
Continuous
 62
     7
100
AcDbLine
 10
158.8349074940052
 20
256.2159284573586
 30
0.0
 11
167.602407494006
 21
256.2159284573588
 31
0.0
  0
LINE
  5
1A2
330
66
100
AcDbEntity
  8
1
  6
Continuous
 62
     2
100
AcDbLine
 10
142.602407494006
 20
251.4659284573587
 30
0.0
 11
142.6024074940053
 21
257.2159284573588
 31
0.0
  0
LINE
  5
1A3
330
66
100
AcDbEntity
  8
1
  6
Continuous
 62
     7
100
AcDbLine
 10
168.4089591831935
 20
230.0522794543586
 30
0.0
 11
167.9582203226392
 21
232.6865551892375
 31
0.0
  0
LINE
  5
1A4
330
66
100
AcDbEntity
  8
1
  6
Continuous
 62
     7
100
AcDbLine
 10
128.2903624371787
 20
219.2159284573587
 30
0.0
 11
136.2721047141821
 21
218.9659284573583
 31
0.0
  0
LINE
  5
1A5
330
66
100
AcDbEntity
  8
1
  6
Continuous
 62
     7
100
AcDbLine
 10
167.602407494006
 20
251.4659284573587
 30
0.0
 11
158.9774074940066
 21
251.4659284573587
 31
0.0
  0
LINE
  5
1A6
330
66
100
AcDbEntity
  8
1
  6
Continuous
 62
     7
100
AcDbLine
 10
128.2903624371787
 20
219.2159284573587
 30
0.0
 11
116.102407494006
 21
219.2159284573587
 31
0.0
  0
LINE
  5
1A7
330
66
100
AcDbEntity
  8
1
  6
Continuous
 62
     7
100
AcDbLine
 10
150.2274074940066
 20
251.4659284573587
 30
0.0
 11
147.9888266228988
 21
251.4659284573587
 31
0.0
  0
LINE
  5
1A8
330
66
100
AcDbEntity
  8
1
  6
Continuous
 62
     7
100
AcDbLine
 10
107.870356686437
 20
218.4659284573587
 30
0.0
 11
107.870356686437
 21
217.4659284573587
 31
0.0
  0
LINE
  5
1A9
330
66
100
AcDbEntity
  8
1
  6
Continuous
 62
     7
100
AcDbLine
 10
109.602407494006
 20
217.4659284573587
 30
0.0
 11
96.602407494006
 21
217.4659284573587
 31
0.0
  0
LINE
  5
1AA
330
66
100
AcDbEntity
  8
1
  6
Continuous
 62
     7
100
AcDbLine
 10
96.602407494006
 20
238.4659284573588
 30
0.0
 11
109.602407494006
 21
238.4659284573588
 31
0.0
  0
LINE
  5
1AB
330
66
100
AcDbEntity
  8
1
  6
Continuous
 62
     7
100
AcDbLine
 10
96.602407494006
 20
238.4659284573588
 30
0.0
 11
95.602407494006
 21
237.4659284573588
 31
0.0
  0
LINE
  5
1AC
330
66
100
AcDbEntity
  8
1
  6
Continuous
 62
     7
100
AcDbLine
 10
107.870356686437
 20
238.4659284573588
 30
0.0
 11
107.870356686437
 21
237.4659284573588
 31
0.0
  0
LINE
  5
1AD
330
66
100
AcDbEntity
  8
1
  6
Continuous
 62
     7
100
AcDbLine
 10
96.602407494006
 20
237.4659284573588
 30
0.0
 11
96.602407494006
 21
238.4659284573588
 31
0.0
  0
LINE
  5
1AE
330
66
100
AcDbEntity
  8
1
  6
Continuous
 62
     7
100
AcDbLine
 10
96.602407494006
 20
217.4659284573587
 30
0.0
 11
96.602407494006
 21
218.4659284573587
 31
0.0
  0
LINE
  5
1AF
330
66
100
AcDbEntity
  8
1
  6
Continuous
 62
     7
100
AcDbLine
 10
95.602407494006
 20
218.4659284573587
 30
0.0
 11
96.602407494006
 21
217.4659284573587
 31
0.0
  0
LINE
  5
1B0
330
66
100
AcDbEntity
  8
1
  6
Continuous
 62
     7
100
AcDbLine
 10
95.602407494006
 20
218.4659284573587
 30
0.0
 11
95.602407494006
 21
237.4659284573588
 31
0.0
  0
LINE
  5
1B1
330
66
100
AcDbEntity
  8
1
  6
Continuous
 62
     7
100
AcDbLine
 10
141.602407494006
 20
256.2159284573588
 30
0.0
 11
141.602407494006
 21
249.7338776497899
 31
0.0
  0
LINE
  5
1B2
330
66
100
AcDbEntity
  8
1
  6
Continuous
 62
     7
100
AcDbLine
 10
147.9888266228988
 20
251.4659284573587
 30
0.0
 11
141.602407494006
 21
251.4659284573587
 31
0.0
  0
LINE
  5
1B3
330
66
100
AcDbEntity
  8
1
  6
Continuous
 62
     7
100
AcDbLine
 10
167.602407494006
 20
237.2933075104476
 30
0.0
 11
167.602407494006
 21
256.2159284573588
 31
0.0
  0
LINE
  5
1B4
330
66
100
AcDbEntity
  8
1
  6
Continuous
 62
     7
100
AcDbLine
 10
141.602407494006
 20
248.7159284573587
 30
0.0
 11
141.602407494006
 21
249.7338776497899
 31
0.0
  0
LINE
  5
1B5
330
66
100
AcDbEntity
  8
1
  6
Continuous
 62
     2
100
AcDbLine
 10
166.602407494006
 20
257.2159284573588
 30
0.0
 11
166.602407494006
 21
251.4659284573587
 31
0.0
  0
LINE
  5
1B6
330
66
100
AcDbEntity
  8
1
  6
Continuous
 62
     2
100
AcDbLine
 10
167.602407494006
 20
249.7338776497899
 30
0.0
 11
166.602407494006
 21
251.4659284573587
 31
0.0
  0
LINE
  5
1B7
330
66
100
AcDbEntity
  8
1
  6
Continuous
 62
     2
100
AcDbLine
 10
142.602407494006
 20
251.4659284573587
 30
0.0
 11
141.602407494006
 21
249.7338776497899
 31
0.0
  0
LINE
  5
1B8
330
66
100
AcDbEntity
  8
1
  6
Continuous
 62
     7
100
AcDbLine
 10
112.102407494006
 20
250.4659284573587
 30
0.0
 11
112.102407494006
 21
240.7159284573588
 31
0.0
  0
LINE
  5
1B9
330
66
100
AcDbEntity
  8
1
  6
Continuous
 62
     7
100
AcDbLine
 10
129.602407494006
 20
236.7159284573588
 30
0.0
 11
116.102407494006
 21
236.7159284573588
 31
0.0
  0
LINE
  5
1BA
330
66
100
AcDbEntity
  8
1
  6
Continuous
 62
     2
100
AcDbLine
 10
95.602407494006
 20
237.4659284573588
 30
0.0
 11
107.870356686437
 21
237.4659284573588
 31
0.0
  0
LINE
  5
1BB
330
66
100
AcDbEntity
  8
1
  6
Continuous
 62
     2
100
AcDbLine
 10
107.870356686437
 20
237.4659284573588
 30
0.0
 11
109.602407494006
 21
238.4659284573588
 31
0.0
  0
LINE
  5
1BC
330
66
100
AcDbEntity
  8
1
  6
Continuous
 62
     7
100
AcDbLine
 10
109.602407494006
 20
238.4659284573588
 30
0.0
 11
109.602407494006
 21
250.9659284573587
 31
0.0
  0
LINE
  5
1BD
330
66
100
AcDbEntity
  8
1
  6
Continuous
 62
     7
100
AcDbLine
 10
111.602407494006
 20
250.9659284573587
 30
0.0
 11
109.602407494006
 21
250.9659284573587
 31
0.0
  0
LINE
  5
1BE
330
66
100
AcDbEntity
  8
1
  6
Continuous
 62
     2
100
AcDbLine
 10
107.870356686437
 20
218.4659284573587
 30
0.0
 11
95.602407494006
 21
218.4659284573587
 31
0.0
  0
LINE
  5
1BF
330
66
100
AcDbEntity
  8
1
  6
Continuous
 62
     7
100
AcDbLine
 10
112.102407494006
 20
215.2159284573587
 30
0.0
 11
112.102407494006
 21
205.4659284573588
 31
0.0
  0
LINE
  5
1C0
330
66
100
AcDbEntity
  8
1
  6
Continuous
 62
     7
100
AcDbLine
 10
109.602407494006
 20
204.9659284573588
 30
0.0
 11
111.602407494006
 21
204.9659284573588
 31
0.0
  0
LINE
  5
1C1
330
66
100
AcDbEntity
  8
1
  6
Continuous
 62
     7
100
AcDbLine
 10
109.602407494006
 20
204.9659284573588
 30
0.0
 11
109.602407494006
 21
217.4659284573587
 31
0.0
  0
LINE
  5
1C2
330
66
100
AcDbEntity
  8
1
  6
Continuous
 62
     2
100
AcDbLine
 10
109.602407494006
 20
217.4659284573587
 30
0.0
 11
107.870356686437
 21
218.4659284573587
 31
0.0
  0
LINE
  5
1C3
330
66
100
AcDbEntity
  8
1
  6
Continuous
 62
     7
100
AcDbLine
 10
112.102407494006
 20
215.2159284573587
 30
0.0
 11
112.102407494006
 21
240.7159284573588
 31
0.0
  0
LINE
  5
1C4
330
66
100
AcDbEntity
  8
1
  6
Continuous
 62
     7
100
AcDbLine
 10
109.602407494006
 20
217.4659284573587
 30
0.0
 11
109.602407494006
 21
238.4659284573588
 31
0.0
  0
LINE
  5
1C5
330
66
100
AcDbEntity
  8
1
  6
Continuous
 62
     7
100
AcDbLine
 10
107.870356686437
 20
237.4659284573588
 30
0.0
 11
107.870356686437
 21
218.4659284573587
 31
0.0
  0
LINE
  5
1C6
330
66
100
AcDbEntity
  8
1
  6
Continuous
 62
     7
100
AcDbLine
 10
96.602407494006
 20
218.4659284573587
 30
0.0
 11
96.602407494006
 21
237.4659284573588
 31
0.0
  0
LINE
  5
1C7
330
66
100
AcDbEntity
  8
1
  6
Continuous
 62
     2
100
AcDbLine
 10
357.242729573314
 20
472.3076338397295
 30
0.0
 11
357.242729573314
 21
460.0396846472986
 31
0.0
  0
LINE
  5
1C8
330
66
100
AcDbEntity
  8
1
  6
Continuous
 62
     2
100
AcDbLine
 10
357.242729573314
 20
460.0396846472986
 30
0.0
 11
358.242729573314
 21
458.3076338397295
 31
0.0
  0
LINE
  5
1C9
330
66
100
AcDbEntity
  8
1
  6
Continuous
 62
     7
100
AcDbLine
 10
324.742729573314
 20
458.3076338397295
 30
0.0
 11
370.742729573314
 21
458.3076338397295
 31
0.0
  0
LINE
  5
1CA
330
66
100
AcDbEntity
  8
1
  6
Continuous
 62
     7
100
AcDbLine
 10
370.742729573314
 20
456.3076338397295
 30
0.0
 11
370.742729573314
 21
458.3076338397295
 31
0.0
  0
LINE
  5
1CB
330
66
100
AcDbEntity
  8
1
  6
Continuous
 62
     7
100
AcDbLine
 10
370.242729573314
 20
455.8076338397295
 30
0.0
 11
325.242729573314
 21
455.8076338397295
 31
0.0
  0
LINE
  5
1CC
330
66
100
AcDbEntity
  8
1
  6
Continuous
 62
     7
100
AcDbLine
 10
356.492729573314
 20
451.8076338397295
 30
0.0
 11
356.492729573314
 21
432.1739397844569
 31
0.0
  0
LINE
  5
1CD
330
66
100
AcDbEntity
  8
1
  6
Continuous
 62
     7
100
AcDbLine
 10
324.742729573314
 20
458.3076338397295
 30
0.0
 11
324.742729573314
 21
456.3076338397295
 31
0.0
  0
LINE
  5
1CE
330
66
100
AcDbEntity
  8
1
  6
Continuous
 62
     2
100
AcDbLine
 10
337.242729573314
 20
458.3076338397295
 30
0.0
 11
338.242729573314
 21
460.0396846472986
 31
0.0
  0
LINE
  5
1CF
330
66
100
AcDbEntity
  8
1
  6
Continuous
 62
     2
100
AcDbLine
 10
338.242729573314
 20
460.0396846472986
 30
0.0
 11
338.242729573314
 21
472.3076338397295
 31
0.0
  0
LINE
  5
1D0
330
66
100
AcDbEntity
  8
1
  6
Continuous
 62
     7
100
AcDbLine
 10
338.992729573314
 20
451.8076338397295
 30
0.0
 11
338.992729573314
 21
437.9358165980227
 31
0.0
  0
LINE
  5
1D1
330
66
100
AcDbEntity
  8
1
  6
Continuous
 62
     7
100
AcDbLine
 10
337.242729573314
 20
458.3076338397295
 30
0.0
 11
337.242729573314
 21
471.3076338397295
 31
0.0
  0
LINE
  5
1D2
330
66
100
AcDbEntity
  8
1
  6
Continuous
 62
     7
100
AcDbLine
 10
338.242729573314
 20
472.3076338397295
 30
0.0
 11
337.242729573314
 21
471.3076338397295
 31
0.0
  0
LINE
  5
1D3
330
66
100
AcDbEntity
  8
1
  6
Continuous
 62
     7
100
AcDbLine
 10
358.242729573314
 20
460.0396846472986
 30
0.0
 11
337.242729573314
 21
460.0396846472986
 31
0.0
  0
LINE
  5
1D4
330
66
100
AcDbEntity
  8
1
  6
Continuous
 62
     7
100
AcDbLine
 10
337.242729573314
 20
471.3076338397295
 30
0.0
 11
358.242729573314
 21
471.3076338397295
 31
0.0
  0
LINE
  5
1D5
330
66
100
AcDbEntity
  8
1
  6
Continuous
 62
     7
100
AcDbLine
 10
358.242729573314
 20
471.3076338397295
 30
0.0
 11
358.242729573314
 21
458.3076338397295
 31
0.0
  0
LINE
  5
1D6
330
66
100
AcDbEntity
  8
1
  6
Continuous
 62
     7
100
AcDbLine
 10
358.242729573314
 20
471.3076338397295
 30
0.0
 11
357.242729573314
 21
472.3076338397295
 31
0.0
  0
LINE
  5
1D7
330
66
100
AcDbEntity
  8
1
  6
Continuous
 62
     7
100
AcDbLine
 10
338.242729573314
 20
472.3076338397295
 30
0.0
 11
357.242729573314
 21
472.3076338397295
 31
0.0
  0
LINE
  5
1D8
330
66
100
AcDbEntity
  8
1
  6
Continuous
 62
     7
100
AcDbLine
 10
325.7427295733145
 20
425.816883592553
 30
0.0
 11
325.7427295733145
 21
425.3076338397302
 31
0.0
  0
LINE
  5
1D9
330
66
100
AcDbEntity
  8
1
  6
Continuous
 62
     7
100
AcDbLine
 10
325.7427295733145
 20
425.3076338397302
 30
0.0
 11
325.4747803808833
 21
425.3076338397302
 31
0.0
  0
LINE
  5
1DA
330
66
100
AcDbEntity
  8
1
  6
Continuous
 62
     7
100
AcDbLine
 10
325.4747803808833
 20
425.3076338397302
 30
0.0
 11
323.7427295733145
 21
425.3076338397302
 31
0.0
  0
LINE
  5
1DB
330
66
100
AcDbEntity
  8
1
  6
Continuous
 62
     2
100
AcDbLine
 10
322.2427295733145
 20
424.3076338397302
 30
0.0
 11
323.7427295733145
 21
424.3076338397302
 31
0.0
  0
LINE
  5
1DC
330
66
100
AcDbEntity
  8
1
  6
Continuous
 62
     2
100
AcDbLine
 10
325.4747803808833
 20
425.3076338397302
 30
0.0
 11
323.7427295733145
 21
424.3076338397302
 31
0.0
  0
LINE
  5
1DD
330
66
100
AcDbEntity
  8
1
  6
Continuous
 62
     7
100
AcDbLine
 10
323.7427295733145
 20
425.3076338397302
 30
0.0
 11
323.7427295733145
 21
401.3076338397302
 31
0.0
  0
LINE
  5
1DE
330
66
100
AcDbEntity
  8
1
  6
Continuous
 62
     2
100
AcDbLine
 10
323.7427295733145
 20
402.3076338397302
 30
0.0
 11
325.4747803808833
 21
401.3076338397302
 31
0.0
  0
LINE
  5
1DF
330
66
100
AcDbEntity
  8
1
  6
Continuous
 62
     2
100
AcDbLine
 10
322.2427295733145
 20
402.3076338397302
 30
0.0
 11
323.7427295733145
 21
402.3076338397302
 31
0.0
  0
LINE
  5
1E0
330
66
100
AcDbEntity
  8
1
  6
Continuous
 62
     7
100
AcDbLine
 10
322.2427295733145
 20
401.3076338397302
 30
0.0
 11
323.7427295733145
 21
401.3076338397302
 31
0.0
  0
LINE
  5
1E1
330
66
100
AcDbEntity
  8
1
  6
Continuous
 62
     7
100
AcDbLine
 10
323.7427295733145
 20
401.3076338397302
 30
0.0
 11
325.4747803808833
 21
401.3076338397302
 31
0.0
  0
LINE
  5
1E2
330
66
100
AcDbEntity
  8
1
  6
Continuous
 62
     7
100
AcDbLine
 10
325.4747803808833
 20
401.3076338397302
 30
0.0
 11
325.7427295733145
 21
401.3076338397302
 31
0.0
  0
LINE
  5
1E3
330
66
100
AcDbEntity
  8
1
  6
Continuous
 62
     7
100
AcDbLine
 10
325.7427295733145
 20
401.3076338397302
 30
0.0
 11
325.7427295733145
 21
400.7983840869072
 31
0.0
  0
LINE
  5
1E4
330
66
100
AcDbEntity
  8
1
  6
Continuous
 62
     7
100
AcDbLine
 10
325.7427295733145
 20
401.3076338397302
 30
0.0
 11
325.7427295733145
 21
425.3076338397302
 31
0.0
  0
LINE
  5
1E5
330
66
100
AcDbEntity
  8
1
  6
Continuous
 62
     7
100
AcDbLine
 10
327.8424485486978
 20
425.9659386678652
 30
0.0
 11
325.7427295733145
 21
425.816883592553
 31
0.0
  0
LINE
  5
1E6
330
66
100
AcDbEntity
  8
1
  6
Continuous
 62
     7
100
AcDbLine
 10
325.7427295733145
 20
400.7983840869072
 30
0.0
 11
328.5737344815948
 21
400.5974164075369
 31
0.0
  0
LINE
  5
1E7
330
66
100
AcDbEntity
  8
1
  6
PHANTOM
 62
     4
100
AcDbLine
 10
285.3735940328128
 20
413.3076338397302
 30
0.0
 11
367.4022168233007
 21
413.3076338397302
 31
0.0
  0
LINE
  5
1E8
330
66
100
AcDbEntity
  8
1
  6
Continuous
 62
     7
100
AcDbLine
 10
323.7427295733145
 20
425.3076338397302
 30
0.0
 11
322.2427295733145
 21
425.3076338397302
 31
0.0
  0
LINE
  5
1E9
330
66
100
AcDbEntity
  8
1
  6
Continuous
 62
     7
100
AcDbLine
 10
328.5737344815948
 20
400.5974164075369
 30
0.0
 11
339.7427295733145
 21
399.8045505887892
 31
0.0
  0
LINE
  5
1EA
330
66
100
AcDbEntity
  8
1
  6
Continuous
 62
     2
100
AcDbLine
 10
335.7427295733145
 20
252.9659284573585
 30
0.0
 11
335.7427295733145
 21
251.4659284573585
 31
0.0
  0
LINE
  5
1EB
330
66
100
AcDbEntity
  8
1
  6
Continuous
 62
     2
100
AcDbLine
 10
335.7427295733145
 20
251.4659284573585
 30
0.0
 11
334.7427295733145
 21
249.7338776497896
 31
0.0
  0
LINE
  5
1EC
330
66
100
AcDbEntity
  8
1
  6
Continuous
 62
     7
100
AcDbLine
 10
334.7427295733145
 20
248.7159284573585
 30
0.0
 11
334.7427295733145
 21
249.7338776497896
 31
0.0
  0
LINE
  5
1ED
330
66
100
AcDbEntity
  8
1
  6
Continuous
 62
     2
100
AcDbLine
 10
360.7427295733145
 20
249.7338776497896
 30
0.0
 11
359.7427295733145
 21
251.4659284573585
 31
0.0
  0
LINE
  5
1EE
330
66
100
AcDbEntity
  8
1
  6
Continuous
 62
     2
100
AcDbLine
 10
359.7427295733145
 20
252.9659284573585
 30
0.0
 11
359.7427295733145
 21
251.4659284573585
 31
0.0
  0
LINE
  5
1EF
330
66
100
AcDbEntity
  8
1
  6
Continuous
 62
     7
100
AcDbLine
 10
360.7427295733145
 20
246.9395944183689
 30
0.0
 11
360.7427295733145
 21
249.7338776497896
 31
0.0
  0
LINE
  5
1F0
330
66
100
AcDbEntity
  8
1
  6
Continuous
 62
     7
100
AcDbLine
 10
360.7427295733145
 20
251.4659284573585
 30
0.0
 11
360.7427295733145
 21
249.7338776497896
 31
0.0
  0
LINE
  5
1F1
330
66
100
AcDbEntity
  8
1
  6
Continuous
 62
     7
100
AcDbLine
 10
360.7427295733145
 20
252.9659284573585
 30
0.0
 11
360.7427295733145
 21
251.4659284573585
 31
0.0
  0
LINE
  5
1F2
330
66
100
AcDbEntity
  8
1
  6
Continuous
 62
     7
100
AcDbLine
 10
334.7427295733145
 20
249.7338776497896
 30
0.0
 11
334.7427295733145
 21
251.4659284573585
 31
0.0
  0
LINE
  5
1F3
330
66
100
AcDbEntity
  8
1
  6
Continuous
 62
     7
100
AcDbLine
 10
360.7427295733145
 20
251.4659284573585
 30
0.0
 11
334.7427295733145
 21
251.4659284573585
 31
0.0
  0
LINE
  5
1F4
330
66
100
AcDbEntity
  8
1
  6
Continuous
 62
     7
100
AcDbLine
 10
328.5737344815948
 20
240.6761458895518
 30
0.0
 11
325.7427295733145
 21
240.4751782101814
 31
0.0
  0
LINE
  5
1F5
330
66
100
AcDbEntity
  8
1
  6
Continuous
 62
     7
100
AcDbLine
 10
325.7427295733145
 20
240.4751782101814
 30
0.0
 11
325.7427295733145
 21
239.9659284573585
 31
0.0
  0
LINE
  5
1F6
330
66
100
AcDbEntity
  8
1
  6
Continuous
 62
     7
100
AcDbLine
 10
325.7427295733145
 20
239.9659284573585
 30
0.0
 11
325.4747803808834
 21
239.9659284573585
 31
0.0
  0
LINE
  5
1F7
330
66
100
AcDbEntity
  8
1
  6
Continuous
 62
     7
100
AcDbLine
 10
325.4747803808834
 20
239.9659284573585
 30
0.0
 11
323.7427295733145
 21
239.9659284573585
 31
0.0
  0
LINE
  5
1F8
330
66
100
AcDbEntity
  8
1
  6
Continuous
 62
     7
100
AcDbLine
 10
323.7427295733145
 20
239.9659284573585
 30
0.0
 11
322.2427295733145
 21
239.9659284573585
 31
0.0
  0
LINE
  5
1F9
330
66
100
AcDbEntity
  8
1
  6
Continuous
 62
     2
100
AcDbLine
 10
322.2427295733145
 20
238.9659284573585
 30
0.0
 11
323.7427295733145
 21
238.9659284573585
 31
0.0
  0
LINE
  5
1FA
330
66
100
AcDbEntity
  8
1
  6
Continuous
 62
     2
100
AcDbLine
 10
325.4747803808834
 20
239.9659284573585
 30
0.0
 11
323.7427295733145
 21
238.9659284573585
 31
0.0
  0
LINE
  5
1FB
330
66
100
AcDbEntity
  8
1
  6
Continuous
 62
     7
100
AcDbLine
 10
323.7427295733145
 20
239.9659284573585
 30
0.0
 11
323.7427295733145
 21
215.9659284573584
 31
0.0
  0
LINE
  5
1FC
330
66
100
AcDbEntity
  8
1
  6
Continuous
 62
     2
100
AcDbLine
 10
323.7427295733145
 20
216.9659284573584
 30
0.0
 11
325.4747803808834
 21
215.9659284573584
 31
0.0
  0
LINE
  5
1FD
330
66
100
AcDbEntity
  8
1
  6
Continuous
 62
     2
100
AcDbLine
 10
322.2427295733145
 20
216.9659284573585
 30
0.0
 11
323.7427295733145
 21
216.9659284573584
 31
0.0
  0
LINE
  5
1FE
330
66
100
AcDbEntity
  8
1
  6
Continuous
 62
     7
100
AcDbLine
 10
322.2427295733145
 20
215.9659284573584
 30
0.0
 11
323.7427295733145
 21
215.9659284573584
 31
0.0
  0
LINE
  5
1FF
330
66
100
AcDbEntity
  8
1
  6
Continuous
 62
     7
100
AcDbLine
 10
323.7427295733145
 20
215.9659284573584
 30
0.0
 11
325.4747803808834
 21
215.9659284573584
 31
0.0
  0
LINE
  5
200
330
66
100
AcDbEntity
  8
1
  6
Continuous
 62
     7
100
AcDbLine
 10
325.4747803808834
 20
215.9659284573584
 30
0.0
 11
325.7427295733145
 21
215.9659284573584
 31
0.0
  0
LINE
  5
201
330
66
100
AcDbEntity
  8
1
  6
Continuous
 62
     7
100
AcDbLine
 10
325.7427295733145
 20
215.9659284573584
 30
0.0
 11
325.7427295733145
 21
215.4566787045355
 31
0.0
  0
LINE
  5
202
330
66
100
AcDbEntity
  8
1
  6
Continuous
 62
     7
100
AcDbLine
 10
328.5737344815948
 20
215.2557110251651
 30
0.0
 11
346.7427295733145
 21
213.9659284573585
 31
0.0
  0
LINE
  5
203
330
66
100
AcDbEntity
  8
1
  6
Continuous
 62
     7
100
AcDbLine
 10
334.7427295733145
 20
246.9395944183688
 30
0.0
 11
334.7427295733145
 21
248.7159284573585
 31
0.0
  0
LINE
  5
204
330
66
100
AcDbEntity
  8
1
  6
Continuous
 62
     7
100
AcDbLine
 10
325.7427295733145
 20
215.4566787045355
 30
0.0
 11
328.5737344815948
 21
215.2557110251651
 31
0.0
  0
LINE
  5
205
330
66
100
AcDbEntity
  8
1
  6
Continuous
 62
     7
100
AcDbLine
 10
325.7427295733145
 20
215.9659284573584
 30
0.0
 11
325.7427295733145
 21
239.9659284573585
 31
0.0
  0
LINE
  5
206
330
66
100
AcDbEntity
  8
1
  6
Continuous
 62
     7
100
AcDbLine
 10
329.1675890610064
 20
240.7183025019825
 30
0.0
 11
328.5737344815948
 21
240.6761458895518
 31
0.0
  0
LINE
  5
207
330
66
100
AcDbEntity
  8
1
  6
Continuous
 62
     7
100
AcDbLine
 10
360.7427295733145
 20
227.9659284573585
 30
0.0
 11
360.7427295733145
 21
246.9395944183689
 31
0.0
  0
LINE
  5
208
330
66
100
AcDbEntity
  8
1
  6
Continuous
 62
     7
100
AcDbLine
 10
334.7427295733145
 20
246.7032414670613
 30
0.0
 11
334.7427295733145
 21
246.9395944183688
 31
0.0
  0
LINE
  5
209
330
66
100
AcDbEntity
  8
1
  6
Continuous
 62
     7
100
AcDbLine
 10
345.8363016102368
 20
229.8459988507605
 30
0.0
 11
334.0518283659491
 21
241.4675443156387
 31
0.0
  0
LINE
  5
20A
330
66
100
AcDbEntity
  8
1
  6
Continuous
 62
     7
100
AcDbLine
 10
334.7427295733145
 20
251.4659284573585
 30
0.0
 11
334.7427295733145
 21
252.9659284573585
 31
0.0
  0
LINE
  5
20B
330
66
100
AcDbEntity
  8
1
  6
Continuous
 62
     7
100
AcDbLine
 10
346.7427295733145
 20
421.2952805519975
 30
0.0
 11
346.7427295733145
 21
405.3199871274622
 31
0.0
  0
ARC
  5
20C
330
66
100
AcDbEntity
  8
1
  6
Continuous
 62
     7
100
AcDbCircle
 10
347.7427295733145
 20
413.3076338397298
 30
0.0
 40
8.050000000000004
100
AcDbArc
 50
104.3856447860458
 51
255.614355213954
  0
ARC
  5
20D
330
66
100
AcDbEntity
  8
1
  6
Continuous
 62
     7
100
AcDbCircle
 10
347.7427295733145
 20
413.3076338397298
 30
0.0
 40
8.050000000000052
100
AcDbArc
 50
97.13592202596885
 51
104.3856447860458
  0
ARC
  5
20E
330
66
100
AcDbEntity
  8
1
  6
Continuous
 62
     7
100
AcDbCircle
 10
129.602407494006
 20
248.7159284573587
 30
0.0
 40
11.99999999999989
100
AcDbArc
 50
270.0
 51
0.0
  0
ARC
  5
20F
330
66
100
AcDbEntity
  8
1
  6
Continuous
 62
     7
100
AcDbCircle
 10
197.602407494006
 20
237.2933075104476
 30
0.0
 40
30.0
100
AcDbArc
 50
180.0
 51
188.8331983696777
  0
ARC
  5
210
330
66
100
AcDbEntity
  8
1
  6
Continuous
 62
     7
100
AcDbCircle
 10
347.7427295733145
 20
227.9659284573585
 30
0.0
 40
23.00000000000014
100
AcDbArc
 50
213.5468150158143
 51
55.5826112895586
  0
ARC
  5
211
330
66
100
AcDbEntity
  8
1
  6
Continuous
 62
     7
100
AcDbCircle
 10
346.7427295733145
 20
227.9659284573585
 30
0.0
 40
14.0
100
AcDbArc
 50
270.0
 51
0.0
  0
ARC
  5
212
330
66
100
AcDbEntity
  8
1
  6
Continuous
 62
     7
100
AcDbCircle
 10
347.7427295733145
 20
227.9659284573585
 30
0.0
 40
23.00000000000003
100
AcDbArc
 50
124.4173887104415
 51
146.4531849841858
  0
ARC
  5
213
330
66
100
AcDbEntity
  8
1
  6
Continuous
 62
     7
100
AcDbCircle
 10
347.7427295733145
 20
413.3076338397298
 30
0.0
 40
8.049999999999995
100
AcDbArc
 50
262.8640779740311
 51
97.13592202596885
  0
ARC
  5
214
330
66
100
AcDbEntity
  8
1
  6
Continuous
 62
     7
100
AcDbCircle
 10
347.7427295733145
 20
413.3076338397298
 30
0.0
 40
8.049999999999894
100
AcDbArc
 50
255.614355213954
 51
262.8640779740311
  0
CIRCLE
  5
215
330
66
100
AcDbEntity
  8
1
  6
Continuous
 62
     7
100
AcDbCircle
 10
347.7427295733145
 20
413.3076338397298
 30
0.0
 40
13.0
  0
CIRCLE
  5
216
330
66
100
AcDbEntity
  8
1
  6
Continuous
 62
     7
100
AcDbCircle
 10
347.7427295733145
 20
413.3076338397298
 30
0.0
 40
10.5
  0
CIRCLE
  5
217
330
66
100
AcDbEntity
  8
1
  6
Continuous
 62
     7
100
AcDbCircle
 10
347.7427295733145
 20
413.3076338397298
 30
0.0
 40
11.75
  0
CIRCLE
  5
218
330
66
100
AcDbEntity
  8
1
  6
Continuous
 62
     2
100
AcDbCircle
 10
347.7427295733145
 20
413.3076338397298
 30
0.0
 40
12.18699999999905
  0
SPLINE
  5
219
330
66
100
AcDbEntity
  8
1
  6
Continuous
 62
     7
100
AcDbSpline
210
0.0
220
0.0
230
1.0
 70
     8
 71
     3
 72
    15
 73
    11
 74
     9
 42
0.000000001
 43
0.0000000001
 44
0.00000001
 40
0.0
 40
0.0
 40
0.0
 40
0.0
 40
5.874710625758031
 40
11.72670508565129
 40
13.84395271773376
 40
15.98588571426772
 40
18.73945284702523
 40
21.45232923422498
 40
30.97550289690799
 40
40.73115751016393
 40
40.73115751016393
 40
40.73115751016393
 40
40.73115751016393
 10
357.5289103529715
 20
424.3574715173099
 30
0.0
 10
358.4152311108954
 20
422.6150623294527
 30
0.0
 10
360.1844454145371
 20
419.1369814470543
 30
0.0
 10
361.4075263703478
 20
414.5572420017147
 30
0.0
 10
361.1088497876494
 20
411.1791467002908
 30
0.0
 10
360.5427444162974
 20
408.9045329280291
 30
0.0
 10
359.5680210299217
 20
406.5496230035547
 30
0.0
 10
356.7515869217544
 20
402.3608417348711
 30
0.0
 10
349.4192255926663
 20
399.096055111997
 30
0.0
 10
342.9940550195129
 20
399.5664944358781
 30
0.0
 10
339.7427295733145
 20
399.8045505887892
 30
0.0
 11
357.5289103529715
 21
424.3574715173099
 31
0.0
 11
360.0038649865887
 21
419.0295427869843
 31
0.0
 11
361.2308927698573
 21
413.3076338397303
 31
0.0
 11
361.0557063934062
 21
411.1976463343627
 31
0.0
 11
360.5477096980016
 21
409.1168252649301
 31
0.0
 11
359.4798906679321
 21
406.578736519464
 31
0.0
 11
357.9436611493603
 21
404.3427362590871
 31
0.0
 11
349.4973915145723
 21
399.9437175117616
 31
0.0
 11
339.7427295733145
 21
399.8045505887892
 31
0.0
  0
ARC
  5
21A
330
66
100
AcDbEntity
  8
1
  6
Continuous
 62
     7
100
AcDbCircle
 10
136.2721047141821
 20
188.9659284573583
 30
0.0
 40
30.00000000000016
100
AcDbArc
 50
71.77068500570023
 51
90.0
  0
ARC
  5
21B
330
66
100
AcDbEntity
  8
1
  6
Continuous
 62
     7
100
AcDbCircle
 10
111.602407494006
 20
250.4659284573587
 30
0.0
 40
0.5
100
AcDbArc
 50
0.0
 51
90.0
  0
ARC
  5
21C
330
66
100
AcDbEntity
  8
1
  6
Continuous
 62
     7
100
AcDbCircle
 10
116.102407494006
 20
240.7159284573588
 30
0.0
 40
4.0
100
AcDbArc
 50
180.0
 51
270.0
  0
ARC
  5
21D
330
66
100
AcDbEntity
  8
1
  6
Continuous
 62
     7
100
AcDbCircle
 10
111.602407494006
 20
205.4659284573588
 30
0.0
 40
0.5
100
AcDbArc
 50
270.0
 51
0.0
  0
ARC
  5
21E
330
66
100
AcDbEntity
  8
1
  6
Continuous
 62
     7
100
AcDbCircle
 10
116.102407494006
 20
215.2159284573587
 30
0.0
 40
4.0
100
AcDbArc
 50
90.0
 51
180.0
  0
ARC
  5
21F
330
66
100
AcDbEntity
  8
1
  6
Continuous
 62
     7
100
AcDbCircle
 10
360.492729573314
 20
451.8076338397295
 30
0.0
 40
4.0
100
AcDbArc
 50
90.0
 51
180.0
  0
ARC
  5
220
330
66
100
AcDbEntity
  8
1
  6
Continuous
 62
     7
100
AcDbCircle
 10
334.992729573314
 20
451.8076338397295
 30
0.0
 40
4.0
100
AcDbArc
 50
0.0
 51
90.0
  0
ARC
  5
221
330
66
100
AcDbEntity
  8
1
  6
Continuous
 62
     7
100
AcDbCircle
 10
325.242729573314
 20
456.3076338397295
 30
0.0
 40
0.5
100
AcDbArc
 50
180.0
 51
270.0
  0
ARC
  5
222
330
66
100
AcDbEntity
  8
1
  6
Continuous
 62
     7
100
AcDbCircle
 10
370.242729573314
 20
456.3076338397295
 30
0.0
 40
0.5
100
AcDbArc
 50
270.0
 51
0.0
  0
ARC
  5
223
330
66
100
AcDbEntity
  8
1
  6
Continuous
 62
     7
100
AcDbCircle
 10
386.492729573314
 20
432.1739397844569
 30
0.0
 40
30.0
100
AcDbArc
 50
180.0
 51
195.1026369191858
  0
ARC
  5
224
330
66
100
AcDbEntity
  8
1
  6
Continuous
 62
     7
100
AcDbCircle
 10
326.992729573314
 20
437.9358165980227
 30
0.0
 40
11.99999999999996
100
AcDbArc
 50
274.0605073486473
 51
0.0
  0
ARC
  5
225
330
66
100
AcDbEntity
  8
1
  6
Continuous
 62
     7
100
AcDbCircle
 10
328.7427295733145
 20
246.7032414670613
 30
0.0
 40
6.000000000000041
100
AcDbArc
 50
274.0605073486478
 51
0.0
  0
ENDBLK
  5
68
330
66
100
AcDbEntity
  8
0
100
AcDbBlockEnd
  0
BLOCK
  5
246
330
23F
100
AcDbEntity
  8
0
100
AcDbBlockBegin
  2
*D11
 70
     1
 10
0.0
 20
0.0
 30
0.0
  3
*D11
  1

  0
LINE
  5
240
330
23F
100
AcDbEntity
  8
1
  6
Continuous
 62
     2
100
AcDbLine
 10
347.7427295733145
 20
184.9659284573588
 30
0.0
 11
257.7472736955025
 21
184.9659284573588
 31
0.0
  0
LINE
  5
241
330
23F
100
AcDbEntity
  8
1
  6
Continuous
 62
     2
100
AcDbLine
 10
257.7472736955025
 20
288.9659284573585
 30
0.0
 11
257.7472736955025
 21
182.9659284573588
 31
0.0
  0
LINE
  5
242
330
23F
100
AcDbEntity
  8
1
  6
Continuous
 62
     2
100
AcDbLine
 10
347.7427295733145
 20
197.4659284573584
 30
0.0
 11
347.7427295733145
 21
182.9659284573588
 31
0.0
  0
SOLID
  5
243
330
23F
100
AcDbEntity
  8
1
 62
     2
100
AcDbTrace
 10
340.7427295733145
 20
184.044360974247
 30
0.0
 11
340.7427295733145
 21
185.8874959404706
 31
0.0
 12
347.7427295733145
 22
184.9659284573588
 32
0.0
 13
347.7427295733145
 23
184.9659284573588
 33
0.0
  0
SOLID
  5
244
330
23F
100
AcDbEntity
  8
1
 62
     2
100
AcDbTrace
 10
264.7472736955025
 20
185.8874959404706
 30
0.0
 11
264.7472736955025
 21
184.044360974247
 31
0.0
 12
257.7472736955025
 22
184.9659284573588
 32
0.0
 13
257.7472736955025
 23
184.9659284573588
 33
0.0
  0
MTEXT
  5
245
330
23F
100
AcDbEntity
  8
1
 62
     7
100
AcDbMText
 10
283.8450016344085
 20
186.9659284573588
 30
0.0
 40
7.0
 41
0.0
 71
     7
 72
     1
  1
90リフト3
  7
CONVERTER_11
 11
0.9999999999970619
 21
2.424068405545306E-6
 31
0.0
 73
     1
 44
0.45454545454545
  0
ENDBLK
  5
247
330
23F
100
AcDbEntity
  8
0
100
AcDbBlockEnd
  0
BLOCK
  5
251
330
24A
100
AcDbEntity
  8
0
100
AcDbBlockBegin
  2
*D12
 70
     1
 10
0.0
 20
0.0
 30
0.0
  3
*D12
  1

  0
LINE
  5
24B
330
24A
100
AcDbEntity
  8
1
  6
Continuous
 62
     2
100
AcDbLine
 10
237.7472736955025
 20
302.9659284573585
 30
0.0
 11
237.7472736955025
 21
227.9659284573587
 31
0.0
  0
LINE
  5
24C
330
24A
100
AcDbEntity
  8
1
  6
Continuous
 62
     2
100
AcDbLine
 10
271.7472736955025
 20
302.9659284573585
 30
0.0
 11
235.7472736955025
 21
302.9659284573585
 31
0.0
  0
LINE
  5
24D
330
24A
100
AcDbEntity
  8
1
  6
Continuous
 62
     2
100
AcDbLine
 10
271.7472736955025
 20
227.9659284573587
 30
0.0
 11
235.7472736955025
 21
227.9659284573587
 31
0.0
  0
SOLID
  5
24E
330
24A
100
AcDbEntity
  8
1
 62
     2
100
AcDbTrace
 10
238.6688411786143
 20
295.9659284573585
 30
0.0
 11
236.8257062123907
 21
295.9659284573585
 31
0.0
 12
237.7472736955025
 22
302.9659284573585
 32
0.0
 13
237.7472736955025
 23
302.9659284573585
 33
0.0
  0
SOLID
  5
24F
330
24A
100
AcDbEntity
  8
1
 62
     2
100
AcDbTrace
 10
236.8257062123907
 20
234.9659284573587
 30
0.0
 11
238.6688411786143
 21
234.9659284573587
 31
0.0
 12
237.7472736955025
 22
227.9659284573587
 32
0.0
 13
237.7472736955025
 23
227.9659284573587
 33
0.0
  0
MTEXT
  5
250
330
24A
100
AcDbEntity
  8
1
 62
     7
100
AcDbMText
 10
235.7472736955025
 20
260.2159284573585
 30
0.0
 40
7.0
 41
0.0
 71
     7
 72
     1
  1
75
  7
CONVERTER_12
 11
0.0
 21
1.0
 31
0.0
 73
     1
 44
0.60024009603842
  0
ENDBLK
  5
252
330
24A
100
AcDbEntity
  8
0
100
AcDbBlockEnd
  0
BLOCK
  5
25C
330
255
100
AcDbEntity
  8
0
100
AcDbBlockBegin
  2
*D13
 70
     1
 10
0.0
 20
0.0
 30
0.0
  3
*D13
  1

  0
LINE
  5
256
330
255
100
AcDbEntity
  8
1
  6
Continuous
 62
     2
100
AcDbLine
 10
154.6024074940066
 20
184.9659284573588
 30
0.0
 11
109.602407494006
 21
184.9659284573588
 31
0.0
  0
LINE
  5
257
330
255
100
AcDbEntity
  8
1
  6
Continuous
 62
     2
100
AcDbLine
 10
154.6024074940066
 20
208.9659284573584
 30
0.0
 11
154.6024074940066
 21
182.9659284573588
 31
0.0
  0
LINE
  5
258
330
255
100
AcDbEntity
  8
1
  6
Continuous
 62
     2
100
AcDbLine
 10
109.602407494006
 20
204.9659284573588
 30
0.0
 11
109.602407494006
 21
182.9659284573588
 31
0.0
  0
SOLID
  5
259
330
255
100
AcDbEntity
  8
1
 62
     2
100
AcDbTrace
 10
147.6024074940066
 20
184.044360974247
 30
0.0
 11
147.6024074940066
 21
185.8874959404706
 31
0.0
 12
154.6024074940066
 22
184.9659284573588
 32
0.0
 13
154.6024074940066
 23
184.9659284573588
 33
0.0
  0
SOLID
  5
25A
330
255
100
AcDbEntity
  8
1
 62
     2
100
AcDbTrace
 10
116.602407494006
 20
185.8874959404706
 30
0.0
 11
116.602407494006
 21
184.044360974247
 31
0.0
 12
109.602407494006
 22
184.9659284573588
 32
0.0
 13
109.602407494006
 23
184.9659284573588
 33
0.0
  0
MTEXT
  5
25B
330
255
100
AcDbEntity
  8
1
 62
     7
100
AcDbMText
 10
126.8524074940057
 20
186.9659284573588
 30
0.0
 40
7.0
 41
0.0
 71
     7
 72
     1
  1
45
  7
CONVERTER_12
 11
0.9999999999970619
 21
2.424068405545306E-6
 31
0.0
 73
     1
 44
0.60024009603842
  0
ENDBLK
  5
25D
330
255
100
AcDbEntity
  8
0
100
AcDbBlockEnd
  0
BLOCK
  5
267
330
260
100
AcDbEntity
  8
0
100
AcDbBlockBegin
  2
*D14
 70
     1
 10
0.0
 20
0.0
 30
0.0
  3
*D14
  1

  0
LINE
  5
261
330
260
100
AcDbEntity
  8
1
  6
Continuous
 62
     2
100
AcDbLine
 10
76.602407494006
 20
250.9659284573587
 30
0.0
 11
76.602407494006
 21
204.9659284573588
 31
0.0
  0
LINE
  5
262
330
260
100
AcDbEntity
  8
1
  6
Continuous
 62
     2
100
AcDbLine
 10
109.602407494006
 20
250.9659284573587
 30
0.0
 11
74.602407494006
 21
250.9659284573587
 31
0.0
  0
LINE
  5
263
330
260
100
AcDbEntity
  8
1
  6
Continuous
 62
     2
100
AcDbLine
 10
109.602407494006
 20
204.9659284573588
 30
0.0
 11
74.602407494006
 21
204.9659284573588
 31
0.0
  0
SOLID
  5
264
330
260
100
AcDbEntity
  8
1
 62
     2
100
AcDbTrace
 10
77.52397497711777
 20
243.9659284573587
 30
0.0
 11
75.68084001089423
 21
243.9659284573587
 31
0.0
 12
76.602407494006
 22
250.9659284573587
 32
0.0
 13
76.602407494006
 23
250.9659284573587
 33
0.0
  0
SOLID
  5
265
330
260
100
AcDbEntity
  8
1
 62
     2
100
AcDbTrace
 10
75.68084001089423
 20
211.9659284573588
 30
0.0
 11
77.52397497711777
 21
211.9659284573588
 31
0.0
 12
76.602407494006
 22
204.9659284573588
 32
0.0
 13
76.602407494006
 23
204.9659284573588
 33
0.0
  0
MTEXT
  5
266
330
260
100
AcDbEntity
  8
1
 62
     7
100
AcDbMText
 10
74.602407494006
 20
221.1759284573585
 30
0.0
 40
7.0
 41
0.0
 71
     7
 72
     1
  1
\C7;{\Fgdt;n}\C7;46
  7
CONVERTER_12
 11
0.0
 21
1.0
 31
0.0
 73
     1
 44
0.60024009603842
  0
ENDBLK
  5
268
330
260
100
AcDbEntity
  8
0
100
AcDbBlockEnd
  0
BLOCK
  5
272
330
26B
100
AcDbEntity
  8
0
100
AcDbBlockBegin
  2
*D15
 70
     1
 10
0.0
 20
0.0
 30
0.0
  3
*D15
  1

  0
LINE
  5
26C
330
26B
100
AcDbEntity
  8
1
  6
Continuous
 62
     2
100
AcDbLine
 10
95.60240749400597
 20
184.9659284573588
 30
0.0
 11
109.602407494006
 21
184.9659284573588
 31
0.0
  0
LINE
  5
26D
330
26B
100
AcDbEntity
  8
1
  6
Continuous
 62
     2
100
AcDbLine
 10
81.60240749400597
 20
184.9659284573588
 30
0.0
 11
95.60240749400597
 21
184.9659284573588
 31
0.0
  0
LINE
  5
26E
330
26B
100
AcDbEntity
  8
1
  6
Continuous
 62
     2
100
AcDbLine
 10
95.602407494006
 20
218.4659284573587
 30
0.0
 11
95.602407494006
 21
182.9659284573588
 31
0.0
  0
LINE
  5
26F
330
26B
100
AcDbEntity
  8
1
  6
Continuous
 62
     2
100
AcDbLine
 10
109.602407494006
 20
204.9659284573588
 30
0.0
 11
109.602407494006
 21
182.9659284573588
 31
0.0
  0
SOLID
  5
270
330
26B
100
AcDbEntity
  8
1
 62
     2
100
AcDbTrace
 10
88.60240749400597
 20
184.044360974247
 30
0.0
 11
88.60240749400597
 21
185.8874959404706
 31
0.0
 12
95.60240749400597
 22
184.9659284573588
 32
0.0
 13
95.60240749400597
 23
184.9659284573588
 33
0.0
  0
MTEXT
  5
271
330
26B
100
AcDbEntity
  8
1
 62
     7
100
AcDbMText
 10
98.402407494006
 20
186.9659284573588
 30
0.0
 40
7.0
 41
0.0
 71
     7
 72
     1
  1
14
  7
CONVERTER_12
 11
0.9999999999970619
 21
2.424068405545306E-6
 31
0.0
 73
     1
 44
0.60024009603842
  0
ENDBLK
  5
273
330
26B
100
AcDbEntity
  8
0
100
AcDbBlockEnd
  0
BLOCK
  5
275
330
274
100
AcDbEntity
  8
0
100
AcDbBlockBegin
  2
_NONE
 70
     0
 10
0.0
 20
0.0
 30
0.0
  3
_NONE
  1

  0
ENDBLK
  5
276
330
274
100
AcDbEntity
  8
0
100
AcDbBlockEnd
  0
ENDSEC
  0
SECTION
  2
ENTITIES
  0
INSERT
  5
69
330
1F
100
AcDbEntity
  8
1
100
AcDbBlockReference
  2
U360LS-13
 10
136.8974217966146
 20
212.4692317143606
 30
0.0
  0
INSERT
  5
6A
330
1F
100
AcDbEntity
  8
1
100
AcDbBlockReference
  2
P82A-15
 10
339.7472736955024
 20
406.3076338397302
 30
0.0
  0
INSERT
  5
6B
330
1F
100
AcDbEntity
  8
1
100
AcDbBlockReference
  2
27-2A-M1
 10
-218.8403318129679
 20
474.8357924145271
 30
0.0
  0
INSERT
  5
6C
330
1F
100
AcDbEntity
  8
1
100
AcDbBlockReference
  2
開示A4
 10
0.0
 20
0.0
 30
0.0
 41
2.0
 42
2.0
 43
2.0
  0
INSERT
  5
6D
330
1F
100
AcDbEntity
  8
1
100
AcDbBlockReference
  2
42-29
 10
124.7762469188955
 20
501.9970761096863
 30
0.0
  0
INSERT
  5
6E
330
1F
100
AcDbEntity
  8
1
100
AcDbBlockReference
  2
A231L-0-13-M1
 10
314.7427295733145
 20
204.9659284573584
 30
0.0
  0
LINE
  5
226
330
1F
100
AcDbEntity
  8
1
  6
DASH_CENTER
 62
     2
100
AcDbLine
 10
347.7427295733145
 20
266.4659284573588
 30
0.0
 11
347.7427295733145
 21
197.4659284573584
 31
0.0
  0
LINE
  5
227
330
1F
100
AcDbEntity
  8
1
  6
DASH_CENTER
 62
     2
100
AcDbLine
 10
271.7472736955025
 20
270.2375806569615
 30
0.0
 11
271.7472736955025
 21
308.9659284573585
 31
0.0
  0
LINE
  5
228
330
1F
100
AcDbEntity
  8
1
  6
DASH_CENTER
 62
     2
100
AcDbLine
 10
251.7472736955025
 20
288.9659284573585
 30
0.0
 11
291.7472736955025
 21
288.9659284573585
 31
0.0
  0
LINE
  5
229
330
1F
100
AcDbEntity
  8
1
  6
DASH_CENTER
 62
     2
100
AcDbLine
 10
271.7472736955025
 20
406.3076338397301
 30
0.0
 11
271.7472736955025
 21
420.3076338397301
 31
0.0
  0
LINE
  5
22A
330
1F
100
AcDbEntity
  8
1
  6
DASH_CENTER
 62
     2
100
AcDbLine
 10
271.7472736955025
 20
227.9659284573587
 30
0.0
 11
303.4472736955025
 21
227.9659284573587
 31
0.0
  0
LINE
  5
22B
330
1F
100
AcDbEntity
  8
1
  6
DASH_CENTER
 62
     2
100
AcDbLine
 10
148.6024074940066
 20
288.9659284573584
 30
0.0
 11
160.6024074940066
 21
288.9659284573584
 31
0.0
  0
LINE
  5
22C
330
1F
100
AcDbEntity
  8
1
  6
DASH_CENTER
 62
     2
100
AcDbLine
 10
154.6024074940066
 20
302.9659284573584
 30
0.0
 11
154.6024074940066
 21
208.9659284573584
 31
0.0
  0
LINE
  5
22D
330
1F
100
AcDbEntity
  8
1
  6
DASH_CENTER
 62
     2
100
AcDbLine
 10
154.6024074940066
 20
305.9659284573584
 30
0.0
 11
154.6024074940066
 21
302.9659284573584
 31
0.0
  0
LINE
  5
22E
330
1F
100
AcDbEntity
  8
1
  6
DASH_CENTER
 62
     2
100
AcDbLine
 10
347.7427295733145
 20
393.6594360408476
 30
0.0
 11
347.7427295733145
 21
478.3076338397295
 31
0.0
  0
LINE
  5
22F
330
1F
100
AcDbEntity
  8
1
  6
DASH_CENTER
 62
     2
100
AcDbLine
 10
251.7472736955025
 20
413.3076338397302
 30
0.0
 11
367.4022168233007
 21
413.3076338397302
 31
0.0
  0
LINE
  5
230
330
1F
100
AcDbEntity
  8
0
  6
DASH_CENTER
 62
     2
100
AcDbLine
 10
373.7427295733145
 20
227.9659284573585
 30
0.0
 11
304.3653926296438
 21
227.9659284573585
 31
0.0
  0
LINE
  5
231
330
1F
100
AcDbEntity
  8
1
  6
DASH_CENTER
 62
     2
100
AcDbLine
 10
89.602407494006
 20
227.9659284573585
 30
0.0
 11
175.1024074940052
 21
227.9659284573583
 31
0.0
  0
SOLID
  5
232
330
1F
100
AcDbEntity
  8
1
 62
     2
100
AcDbTrace
 10
332.9446287216375
 20
470.4090279246646
 30
0.0
 11
334.5408304249904
 21
471.3305954077764
 31
0.0
 12
337.242729573314
 22
464.8076338397295
 32
0.0
 13
337.242729573314
 23
464.8076338397295
 33
0.0
  0
LEADER
  5
233
330
1F
100
AcDbEntity
  8
1
  6
Continuous
 62
     2
100
AcDbLeader
  3
Standard
 71
     0
 76
     3
 10
337.242729573314
 20
464.8076338397295
 30
0.0
 10
324.7081392514005
 20
486.5181811293448
 30
0.0
 10
295.626535092297
 20
486.5181811293448
 30
0.0
  0
SOLID
  5
234
330
1F
100
AcDbEntity
  8
1
 62
     2
100
AcDbTrace
 10
169.190053753542
 20
259.7284232775581
 30
0.0
 11
170.8020959179188
 21
258.8348537145205
 31
0.0
 12
166.602407494006
 22
253.1593005460636
 32
0.0
 13
166.602407494006
 23
253.1593005460636
 33
0.0
  0
LEADER
  5
235
330
1F
100
AcDbEntity
  8
1
  6
Continuous
 62
     2
100
AcDbLeader
  3
Standard
 71
     0
 76
     3
 10
166.602407494006
 20
253.1593005460636
 30
0.0
 10
177.600286788477
 20
273.0
 30
0.0
 10
216.701531511015
 20
273.0
 30
0.0
  0
MTEXT
  5
237
330
1F
100
AcDbEntity
  8
1
 62
     7
100
AcDbMText
 10
114.0
 20
28.5
 30
0.0
 40
7.0
 41
0.0
 71
     5
 72
     1
  1
A2310LF-13
  7
CONVERTER_12
 73
     1
 44
0.7202881152461
  0
MTEXT
  5
238
330
1F
100
AcDbEntity
  8
1
 62
     7
100
AcDbMText
 10
310.1673371718487
 20
492.5181811293448
 30
0.0
 40
7.0
 41
0.0
 71
     5
 72
     1
  1
PJ1/2
  7
CONVERTER_12
 73
     1
 44
1.32052821128451
  0
MTEXT
  5
239
330
1F
100
AcDbEntity
  8
1
 62
     7
100
AcDbMText
 10
170.5
 20
34.0
 30
0.0
 40
7.0
 41
0.0
 71
     5
 72
     1
  1
1
  7
CONVERTER_12
 73
     1
 44
0.7202881152461
  0
MTEXT
  5
23A
330
1F
100
AcDbEntity
  8
1
 62
     7
100
AcDbMText
 10
187.5
 20
34.0
 30
0.0
 40
7.0
 41
0.0
 71
     5
 72
     1
  1
2
  7
CONVERTER_12
 73
     1
 44
0.7202881152461
  0
MTEXT
  5
23B
330
1F
100
AcDbEntity
  8
1
 62
     7
100
AcDbMText
 10
196.985881247103
 20
279.0
 30
0.0
 40
7.0
 41
0.0
 71
     5
 72
     1
  1
W26山20
  7
CONVERTER_11
 73
     1
 44
0.54545454545455
  0
MTEXT
  5
23C
330
1F
100
AcDbEntity
  8
1
 62
     7
100
AcDbMText
 10
114.0
 20
49.50000000000002
 30
0.0
 40
7.0
 41
0.0
 71
     5
 72
     1
  1
厨房用横形自在水栓本体
  7
CONVERTER_11
 73
     1
 44
0.54545454545455
  0
MTEXT
  5
23D
330
1F
100
AcDbEntity
  8
1
 62
     7
100
AcDbMText
 10
114.0
 20
41.50000000000002
 30
0.0
 40
7.0
 41
0.0
 71
     5
 72
     1
  1
(左ハンドル)
  7
CONVERTER_11
 73
     1
 44
0.54545454545455
  0
MTEXT
  5
23E
330
1F
100
AcDbEntity
  8
1
 62
     7
100
AcDbMText
 10
68.0
 20
68.00000000000001
 30
0.0
 40
7.0
 41
0.0
 71
     4
 72
     1
  1
共用形
  7
CONVERTER_11
 73
     1
 44
0.54545454545455
  0
DIMENSION
  5
249
330
1F
100
AcDbEntity
  8
1
100
AcDbDimension
  2
*D11
 10
347.7427295733145
 20
184.9659284573588
 30
0.0
 11
302.7450016344085
 21
190.4659284573588
 31
0.0
 70
    32
  1
90リフト3
 71
     5
 42
-1.0
 53
0.00013888888889
  3
ME10_DIM_10
100
AcDbAlignedDimension
 13
257.7472736955025
 23
288.9659284573585
 33
0.0
 14
347.7427295733145
 24
197.4659284573584
 34
0.0
100
AcDbRotatedDimension
  0
DIMENSION
  5
254
330
1F
100
AcDbEntity
  8
1
100
AcDbDimension
  2
*D12
 10
237.7472736955025
 20
302.9659284573585
 30
0.0
 11
232.2472736955025
 21
265.4659284573585
 31
0.0
 70
    32
  1
<>
 71
     5
 42
-1.0
 53
90.0
  3
ME10_DIM_11
100
AcDbAlignedDimension
 13
271.7472736955025
 23
227.9659284573587
 33
0.0
 14
271.7472736955025
 24
302.9659284573585
 34
0.0
 50
90.0
100
AcDbRotatedDimension
  0
DIMENSION
  5
25F
330
1F
100
AcDbEntity
  8
1
100
AcDbDimension
  2
*D13
 10
154.6024074940066
 20
184.9659284573588
 30
0.0
 11
132.1024074940057
 21
190.4659284573588
 31
0.0
 70
    32
  1
<>
 71
     5
 42
-1.0
 53
0.00013888888889
  3
ME10_DIM_12
100
AcDbAlignedDimension
 13
109.602407494006
 23
204.9659284573588
 33
0.0
 14
154.6024074940066
 24
208.9659284573584
 34
0.0
100
AcDbRotatedDimension
  0
DIMENSION
  5
26A
330
1F
100
AcDbEntity
  8
1
100
AcDbDimension
  2
*D14
 10
76.602407494006
 20
250.9659284573587
 30
0.0
 11
71.102407494006
 21
227.9659284573585
 31
0.0
 70
    32
  1
<>
 71
     5
 42
-1.0
 53
90.0
  3
ME10_DIM_13
100
AcDbAlignedDimension
 13
109.602407494006
 23
204.9659284573588
 33
0.0
 14
109.602407494006
 24
250.9659284573587
 34
0.0
 50
90.0
100
AcDbRotatedDimension
  0
DIMENSION
  5
278
330
1F
100
AcDbEntity
  8
1
100
AcDbDimension
  2
*D15
 10
95.60240749400597
 20
184.9659284573588
 30
0.0
 11
102.602407494006
 21
190.4659284573588
 31
0.0
 70
    32
  1
<>
 71
     5
 42
-1.0
 53
0.00013888888889
  3
ME10_DIM_14
100
AcDbAlignedDimension
 13
109.602407494006
 23
204.9659284573588
 33
0.0
 14
95.602407494006
 24
218.4659284573587
 34
0.0
100
AcDbRotatedDimension
  0
ENDSEC
  0
SECTION
  2
OBJECTS
  0
DICTIONARY
  5
C
330
0
100
AcDbDictionary
281
     1
  3
ACAD_GROUP
350
D
  3
ACAD_LAYOUT
350
1A
  3
ACAD_MATERIAL
350
3B
  3
ACAD_MLEADERSTYLE
350
27B
  3
ACAD_MLINESTYLE
350
17
  3
ACAD_PLOTSETTINGS
350
19
  3
ACAD_PLOTSTYLENAME
350
E
  3
ACAD_VISUALSTYLE
350
2A
  3
AcDbVariableDictionary
350
279
  0
DICTIONARY
  5
D
102
{ACAD_REACTORS
330
C
102
}
330
C
100
AcDbDictionary
281
     1
  0
DICTIONARY
  5
1A
102
{ACAD_REACTORS
330
C
102
}
330
C
100
AcDbDictionary
281
     1
  3
Layout1
350
1E
  3
Layout2
350
26
  3
Model
350
22
  0
DICTIONARY
  5
3B
102
{ACAD_REACTORS
330
C
102
}
330
C
100
AcDbDictionary
281
     1
  3
ByBlock
350
3D
  3
ByLayer
350
3C
  3
Global
350
3E
  0
DICTIONARY
  5
27B
102
{ACAD_REACTORS
330
C
102
}
330
C
100
AcDbDictionary
281
     1
  0
DICTIONARY
  5
17
102
{ACAD_REACTORS
330
C
102
}
330
C
100
AcDbDictionary
281
     1
  3
Standard
350
18
  0
DICTIONARY
  5
19
102
{ACAD_REACTORS
330
C
102
}
330
C
100
AcDbDictionary
281
     1
  0
ACDBDICTIONARYWDFLT
  5
E
102
{ACAD_REACTORS
330
C
102
}
330
C
100
AcDbDictionary
281
     1
  3
Normal
350
F
100
AcDbDictionaryWithDefault
340
F
  0
DICTIONARY
  5
2A
102
{ACAD_REACTORS
330
C
102
}
330
C
100
AcDbDictionary
281
     1
  3
2dWireframe
350
2F
  3
3D Hidden
350
31
  3
3dWireframe
350
30
  3
Basic
350
32
  3
Brighten
350
36
  3
ColorChange
350
3A
  3
Conceptual
350
34
  3
Dim
350
35
  3
Facepattern
350
39
  3
Flat
350
2B
  3
FlatWithEdges
350
2C
  3
Gouraud
350
2D
  3
GouraudWithEdges
350
2E
  3
Linepattern
350
38
  3
Realistic
350
33
  3
Thicken
350
37
  0
DICTIONARY
  5
279
102
{ACAD_REACTORS
330
C
102
}
330
C
100
AcDbDictionary
281
     1
  3
DIMASSOC
350
27C
  3
HIDETEXT
350
27D
  0
LAYOUT
  5
1E
102
{ACAD_REACTORS
330
1A
102
}
330
1A
100
AcDbPlotSettings
  1

  2
none_device
  4

  6

 40
0.0
 41
0.0
 42
0.0
 43
0.0
 44
0.0
 45
0.0
 46
0.0
 47
0.0
 48
0.0
 49
0.0
140
0.0
141
0.0
142
1.0
143
1.0
 70
   688
 72
     0
 73
     0
 74
     5
  7

 75
    16
147
1.0
148
0.0
149
0.0
100
AcDbLayout
  1
Layout1
 70
     1
 71
     1
 10
0.0
 20
0.0
 11
12.0
 21
9.0
 12
0.0
 22
0.0
 32
0.0
 14
1.00000000000000E+20
 24
1.00000000000000E+20
 34
1.00000000000000E+20
 15
-1.00000000000000E+20
 25
-1.00000000000000E+20
 35
-1.00000000000000E+20
146
0.0
 13
0.0
 23
0.0
 33
0.0
 16
1.0
 26
0.0
 36
0.0
 17
0.0
 27
1.0
 37
0.0
 76
     0
330
1B
  0
LAYOUT
  5
26
102
{ACAD_REACTORS
330
1A
102
}
330
1A
100
AcDbPlotSettings
  1

  2
none_device
  4

  6

 40
0.0
 41
0.0
 42
0.0
 43
0.0
 44
0.0
 45
0.0
 46
0.0
 47
0.0
 48
0.0
 49
0.0
140
0.0
141
0.0
142
1.0
143
1.0
 70
   688
 72
     0
 73
     0
 74
     5
  7

 75
    16
147
1.0
148
0.0
149
0.0
100
AcDbLayout
  1
Layout2
 70
     1
 71
     2
 10
0.0
 20
0.0
 11
0.0
 21
0.0
 12
0.0
 22
0.0
 32
0.0
 14
0.0
 24
0.0
 34
0.0
 15
0.0
 25
0.0
 35
0.0
146
0.0
 13
0.0
 23
0.0
 33
0.0
 16
1.0
 26
0.0
 36
0.0
 17
0.0
 27
1.0
 37
0.0
 76
     0
330
23
  0
LAYOUT
  5
22
102
{ACAD_REACTORS
330
1A
102
}
330
1A
100
AcDbPlotSettings
  1

  2
none_device
  4

  6

 40
0.0
 41
0.0
 42
0.0
 43
0.0
 44
0.0
 45
0.0
 46
0.0
 47
0.0
 48
0.0
 49
0.0
140
0.0
141
0.0
142
1.0
143
1.0
 70
  1712
 72
     0
 73
     0
 74
     0
  7

 75
     0
147
1.0
148
0.0
149
0.0
100
AcDbLayout
  1
Model
 70
     1
 71
     0
 10
0.0
 20
0.0
 11
12.0
 21
9.0
 12
0.0
 22
0.0
 32
0.0
 14
0.0
 24
0.0
 34
0.0
 15
420.0
 25
594.0
 35
0.0
146
0.0
 13
0.0
 23
0.0
 33
0.0
 16
1.0
 26
0.0
 36
0.0
 17
0.0
 27
1.0
 37
0.0
 76
     0
330
1F
331
29
  0
MATERIAL
  5
3D
102
{ACAD_REACTORS
330
3B
102
}
102
{ACAD_XDICTIONARY
360
2A0
102
}
330
3B
100
AcDbMaterial
  1
ByBlock
  0
MATERIAL
  5
3C
102
{ACAD_REACTORS
330
3B
102
}
102
{ACAD_XDICTIONARY
360
29E
102
}
330
3B
100
AcDbMaterial
  1
ByLayer
  0
MATERIAL
  5
3E
102
{ACAD_REACTORS
330
3B
102
}
102
{ACAD_XDICTIONARY
360
2A2
102
}
330
3B
100
AcDbMaterial
  1
Global
  0
MLINESTYLE
  5
18
102
{ACAD_REACTORS
330
17
102
}
330
17
100
AcDbMlineStyle
  2
Standard
 70
     0
  3

 62
   256
 51
90.0
 52
90.0
 71
     2
 49
0.5
 62
   256
  6
BYLAYER
 49
-0.5
 62
   256
  6
BYLAYER
  0
ACDBPLACEHOLDER
  5
F
102
{ACAD_REACTORS
330
E
102
}
330
E
  0
VISUALSTYLE
  5
2F
102
{ACAD_REACTORS
330
2A
102
}
102
{ACAD_XDICTIONARY
360
286
102
}
330
2A
100
AcDbVisualStyle
  2
2dWireframe
 70
     4
 71
     0
 72
     2
 73
     0
 90
        0
 40
-0.6
 41
-30.0
 62
     5
 63
     7
 74
     1
 91
        4
 64
     7
 65
   257
 75
     1
175
     1
 42
1.0
 92
        0
 66
   257
 43
1.0
 76
     1
 77
     6
 78
     2
 67
     7
 79
     5
170
     0
171
     0
290
     0
174
     0
 93
        1
 44
0.0
173
     0
291
     0
 45
0.0
1001
ACAD
1000
AcDbSavedByObjectVersion
1070
     0
  0
VISUALSTYLE
  5
31
102
{ACAD_REACTORS
330
2A
102
}
102
{ACAD_XDICTIONARY
360
28A
102
}
330
2A
100
AcDbVisualStyle
  2
3D Hidden
 70
     6
 71
     1
 72
     2
 73
     2
 90
        0
 40
-0.6
 41
-30.0
 62
     5
 63
     7
 74
     2
 91
        2
 64
     7
 65
   257
 75
     2
175
     1
 42
40.0
 92
        0
 66
   257
 43
1.0
 76
     1
 77
     6
 78
     2
 67
     7
 79
     3
170
     0
171
     0
290
     0
174
     0
 93
        1
 44
0.0
173
     0
291
     0
 45
0.0
1001
ACAD
1000
AcDbSavedByObjectVersion
1070
     0
  0
VISUALSTYLE
  5
30
102
{ACAD_REACTORS
330
2A
102
}
102
{ACAD_XDICTIONARY
360
288
102
}
330
2A
100
AcDbVisualStyle
  2
3dWireframe
 70
     5
 71
     0
 72
     2
 73
     0
 90
        0
 40
-0.6
 41
-30.0
 62
     5
 63
     7
 74
     1
 91
        4
 64
     7
 65
   257
 75
     1
175
     1
 42
1.0
 92
        0
 66
   257
 43
1.0
 76
     1
 77
     6
 78
     2
 67
     7
 79
     5
170
     0
171
     0
290
     0
174
     0
 93
        1
 44
0.0
173
     0
291
     0
 45
0.0
1001
ACAD
1000
AcDbSavedByObjectVersion
1070
     0
  0
VISUALSTYLE
  5
32
102
{ACAD_REACTORS
330
2A
102
}
102
{ACAD_XDICTIONARY
360
28C
102
}
330
2A
100
AcDbVisualStyle
  2
Basic
 70
     7
 71
     1
 72
     0
 73
     1
 90
        0
 40
-0.6
 41
-30.0
 62
     5
 63
     7
 74
     0
 91
        4
 64
     7
 65
   257
 75
     1
175
     1
 42
1.0
 92
        8
 66
     7
 43
1.0
 76
     1
 77
     6
 78
     2
 67
     7
 79
     5
170
     0
171
     0
290
     0
174
     0
 93
        1
 44
0.0
173
     0
291
     1
 45
0.0
1001
ACAD
1000
AcDbSavedByObjectVersion
1070
     0
  0
VISUALSTYLE
  5
36
102
{ACAD_REACTORS
330
2A
102
}
102
{ACAD_XDICTIONARY
360
294
102
}
330
2A
100
AcDbVisualStyle
  2
Brighten
 70
    12
 71
     2
 72
     2
 73
     0
 90
        0
 40
-0.6
 41
-30.0
 62
     5
 63
     7
 74
     1
 91
        4
 64
     7
 65
   257
 75
     1
175
     1
 42
1.0
 92
        8
 66
     7
 43
1.0
 76
     1
 77
     6
 78
     2
 67
     7
 79
     5
170
     0
171
     0
290
     0
174
     0
 93
        1
 44
50.0
173
     0
291
     1
 45
0.0
1001
ACAD
1000
AcDbSavedByObjectVersion
1070
     0
  0
VISUALSTYLE
  5
3A
102
{ACAD_REACTORS
330
2A
102
}
102
{ACAD_XDICTIONARY
360
29C
102
}
330
2A
100
AcDbVisualStyle
  2
ColorChange
 70
    16
 71
     2
 72
     2
 73
     3
 90
        0
 40
-0.6
 41
-30.0
 62
     5
 63
     8
 74
     1
 91
        4
 64
     7
 65
   257
 75
     1
175
     1
 42
1.0
 92
        8
 66
     8
 43
1.0
 76
     1
 77
     6
 78
     2
 67
     7
 79
     5
170
     0
171
     0
290
     0
174
     0
 93
        1
 44
0.0
173
     0
291
     1
 45
0.0
1001
ACAD
1000
AcDbSavedByObjectVersion
1070
     0
  0
VISUALSTYLE
  5
34
102
{ACAD_REACTORS
330
2A
102
}
102
{ACAD_XDICTIONARY
360
290
102
}
330
2A
100
AcDbVisualStyle
  2
Conceptual
 70
     9
 71
     3
 72
     2
 73
     0
 90
        0
 40
-0.6
 41
-30.0
 62
     5
 63
     7
 74
     2
 91
        2
 64
     7
 65
   257
 75
     1
175
     1
 42
40.0
 92
        8
 66
     7
 43
1.0
 76
     1
 77
     6
 78
     2
 67
     7
 79
     3
170
     0
171
     0
290
     0
174
     0
 93
        1
 44
0.0
173
     0
291
     0
 45
0.0
1001
ACAD
1000
AcDbSavedByObjectVersion
1070
     0
  0
VISUALSTYLE
  5
35
102
{ACAD_REACTORS
330
2A
102
}
102
{ACAD_XDICTIONARY
360
292
102
}
330
2A
100
AcDbVisualStyle
  2
Dim
 70
    11
 71
     2
 72
     2
 73
     0
 90
        0
 40
-0.6
 41
-30.0
 62
     5
 63
     7
 74
     1
 91
        4
 64
     7
 65
   257
 75
     1
175
     1
 42
1.0
 92
        8
 66
     7
 43
1.0
 76
     1
 77
     6
 78
     2
 67
     7
 79
     5
170
     0
171
     0
290
     0
174
     0
 93
        1
 44
-50.0
173
     0
291
     1
 45
0.0
1001
ACAD
1000
AcDbSavedByObjectVersion
1070
     0
  0
VISUALSTYLE
  5
39
102
{ACAD_REACTORS
330
2A
102
}
102
{ACAD_XDICTIONARY
360
29A
102
}
330
2A
100
AcDbVisualStyle
  2
Facepattern
 70
    15
 71
     2
 72
     2
 73
     0
 90
        0
 40
-0.6
 41
-30.0
 62
     5
 63
     7
 74
     1
 91
        4
 64
     7
 65
   257
 75
     1
175
     1
 42
1.0
 92
        8
 66
     7
 43
1.0
 76
     1
 77
     6
 78
     2
 67
     7
 79
     5
170
     0
171
     0
290
     0
174
     0
 93
        1
 44
0.0
173
     0
291
     1
 45
0.0
1001
ACAD
1000
AcDbSavedByObjectVersion
1070
     0
  0
VISUALSTYLE
  5
2B
102
{ACAD_REACTORS
330
2A
102
}
102
{ACAD_XDICTIONARY
360
27E
102
}
330
2A
100
AcDbVisualStyle
  2
Flat
 70
     0
 71
     2
 72
     1
 73
     1
 90
        2
 40
-0.6
 41
30.0
 62
     5
 63
     7
 74
     0
 91
        4
 64
     7
 65
   257
 75
     1
175
     1
 42
1.0
 92
        8
 66
     7
 43
1.0
 76
     1
 77
     6
 78
     2
 67
     7
 79
     5
170
     0
171
     0
290
     0
174
     0
 93
       13
 44
0.0
173
     0
291
     1
 45
0.0
1001
ACAD
1000
AcDbSavedByObjectVersion
1070
     0
  0
VISUALSTYLE
  5
2C
102
{ACAD_REACTORS
330
2A
102
}
102
{ACAD_XDICTIONARY
360
280
102
}
330
2A
100
AcDbVisualStyle
  2
FlatWithEdges
 70
     1
 71
     2
 72
     1
 73
     1
 90
        2
 40
-0.6
 41
30.0
 62
     5
 63
     7
 74
     1
 91
        4
 64
     7
 65
   257
 75
     1
175
     1
 42
1.0
 92
        0
 66
   257
 43
1.0
 76
     1
 77
     6
 78
     2
 67
     7
 79
     5
170
     0
171
     0
290
     0
174
     0
 93
       13
 44
0.0
173
     0
291
     1
 45
0.0
1001
ACAD
1000
AcDbSavedByObjectVersion
1070
     0
  0
VISUALSTYLE
  5
2D
102
{ACAD_REACTORS
330
2A
102
}
102
{ACAD_XDICTIONARY
360
282
102
}
330
2A
100
AcDbVisualStyle
  2
Gouraud
 70
     2
 71
     2
 72
     2
 73
     1
 90
        2
 40
-0.6
 41
30.0
 62
     5
 63
     7
 74
     0
 91
        4
 64
     7
 65
   257
 75
     1
175
     1
 42
1.0
 92
        0
 66
     7
 43
1.0
 76
     1
 77
     6
 78
     2
 67
     7
 79
     5
170
     0
171
     0
290
     0
174
     0
 93
       13
 44
0.0
173
     0
291
     1
 45
0.0
1001
ACAD
1000
AcDbSavedByObjectVersion
1070
     0
  0
VISUALSTYLE
  5
2E
102
{ACAD_REACTORS
330
2A
102
}
102
{ACAD_XDICTIONARY
360
284
102
}
330
2A
100
AcDbVisualStyle
  2
GouraudWithEdges
 70
     3
 71
     2
 72
     2
 73
     1
 90
        2
 40
-0.6
 41
30.0
 62
     5
 63
     7
 74
     1
 91
        4
 64
     7
 65
   257
 75
     1
175
     1
 42
1.0
 92
        0
 66
   257
 43
1.0
 76
     1
 77
     6
 78
     2
 67
     7
 79
     5
170
     0
171
     0
290
     0
174
     0
 93
       13
 44
0.0
173
     0
291
     1
 45
0.0
1001
ACAD
1000
AcDbSavedByObjectVersion
1070
     0
  0
VISUALSTYLE
  5
38
102
{ACAD_REACTORS
330
2A
102
}
102
{ACAD_XDICTIONARY
360
298
102
}
330
2A
100
AcDbVisualStyle
  2
Linepattern
 70
    14
 71
     2
 72
     2
 73
     0
 90
        0
 40
-0.6
 41
-30.0
 62
     5
 63
     7
 74
     1
 91
        4
 64
     7
 65
   257
 75
     7
175
     7
 42
1.0
 92
        8
 66
     7
 43
1.0
 76
     1
 77
     6
 78
     2
 67
     7
 79
     5
170
     0
171
     0
290
     0
174
     0
 93
        1
 44
0.0
173
     0
291
     1
 45
0.0
1001
ACAD
1000
AcDbSavedByObjectVersion
1070
     0
  0
VISUALSTYLE
  5
33
102
{ACAD_REACTORS
330
2A
102
}
102
{ACAD_XDICTIONARY
360
28E
102
}
330
2A
100
AcDbVisualStyle
  2
Realistic
 70
     8
 71
     2
 72
     2
 73
     0
 90
        0
 40
-0.6
 41
-30.0
 62
     5
 63
     7
 74
     1
 91
        0
 64
     7
 65
   257
 75
     1
175
     1
 42
1.0
 92
        8
 66
     8
 43
1.0
 76
     1
 77
     6
 78
     2
 67
     7
 79
     5
170
     0
171
     0
290
     0
174
     0
 93
       13
 44
0.0
173
     0
291
     0
 45
0.0
1001
ACAD
1000
AcDbSavedByObjectVersion
1070
     0
  0
VISUALSTYLE
  5
37
102
{ACAD_REACTORS
330
2A
102
}
102
{ACAD_XDICTIONARY
360
296
102
}
330
2A
100
AcDbVisualStyle
  2
Thicken
 70
    13
 71
     2
 72
     2
 73
     0
 90
        0
 40
-0.6
 41
-30.0
 62
     5
 63
     7
 74
     1
 91
        4
 64
     7
 65
   257
 75
     1
175
     1
 42
1.0
 92
       12
 66
     7
 43
1.0
 76
     1
 77
     6
 78
     2
 67
     7
 79
     5
170
     0
171
     0
290
     0
174
     0
 93
        1
 44
0.0
173
     0
291
     1
 45
0.0
1001
ACAD
1000
AcDbSavedByObjectVersion
1070
     0
  0
DICTIONARYVAR
  5
27C
102
{ACAD_REACTORS
330
279
102
}
330
279
100
DictionaryVariables
280
     0
  1
2
  0
DICTIONARYVAR
  5
27D
102
{ACAD_REACTORS
330
279
102
}
330
279
100
DictionaryVariables
280
     0
  1
1
  0
DICTIONARY
  5
2A0
330
3D
100
AcDbDictionary
280
     1
281
     1
  3
ACAD_XREC_ROUNDTRIP
360
2A1
  0
DICTIONARY
  5
29E
330
3C
100
AcDbDictionary
280
     1
281
     1
  3
ACAD_XREC_ROUNDTRIP
360
29F
  0
DICTIONARY
  5
2A2
330
3E
100
AcDbDictionary
280
     1
281
     1
  3
ACAD_XREC_ROUNDTRIP
360
2A3
  0
DICTIONARY
  5
286
330
2F
100
AcDbDictionary
280
     1
281
     1
  3
ACAD_XREC_ROUNDTRIP
360
287
  0
DICTIONARY
  5
28A
330
31
100
AcDbDictionary
280
     1
281
     1
  3
ACAD_XREC_ROUNDTRIP
360
28B
  0
DICTIONARY
  5
288
330
30
100
AcDbDictionary
280
     1
281
     1
  3
ACAD_XREC_ROUNDTRIP
360
289
  0
DICTIONARY
  5
28C
330
32
100
AcDbDictionary
280
     1
281
     1
  3
ACAD_XREC_ROUNDTRIP
360
28D
  0
DICTIONARY
  5
294
330
36
100
AcDbDictionary
280
     1
281
     1
  3
ACAD_XREC_ROUNDTRIP
360
295
  0
DICTIONARY
  5
29C
330
3A
100
AcDbDictionary
280
     1
281
     1
  3
ACAD_XREC_ROUNDTRIP
360
29D
  0
DICTIONARY
  5
290
330
34
100
AcDbDictionary
280
     1
281
     1
  3
ACAD_XREC_ROUNDTRIP
360
291
  0
DICTIONARY
  5
292
330
35
100
AcDbDictionary
280
     1
281
     1
  3
ACAD_XREC_ROUNDTRIP
360
293
  0
DICTIONARY
  5
29A
330
39
100
AcDbDictionary
280
     1
281
     1
  3
ACAD_XREC_ROUNDTRIP
360
29B
  0
DICTIONARY
  5
27E
330
2B
100
AcDbDictionary
280
     1
281
     1
  3
ACAD_XREC_ROUNDTRIP
360
27F
  0
DICTIONARY
  5
280
330
2C
100
AcDbDictionary
280
     1
281
     1
  3
ACAD_XREC_ROUNDTRIP
360
281
  0
DICTIONARY
  5
282
330
2D
100
AcDbDictionary
280
     1
281
     1
  3
ACAD_XREC_ROUNDTRIP
360
283
  0
DICTIONARY
  5
284
330
2E
100
AcDbDictionary
280
     1
281
     1
  3
ACAD_XREC_ROUNDTRIP
360
285
  0
DICTIONARY
  5
298
330
38
100
AcDbDictionary
280
     1
281
     1
  3
ACAD_XREC_ROUNDTRIP
360
299
  0
DICTIONARY
  5
28E
330
33
100
AcDbDictionary
280
     1
281
     1
  3
ACAD_XREC_ROUNDTRIP
360
28F
  0
DICTIONARY
  5
296
330
37
100
AcDbDictionary
280
     1
281
     1
  3
ACAD_XREC_ROUNDTRIP
360
297
  0
XRECORD
  5
2A1
102
{ACAD_REACTORS
330
2A0
102
}
330
2A0
100
AcDbXrecord
280
     1
102
MATERIAL
148
0.0
149
0.0
149
0.0
 93
        0
 94
      127
282
     0
 72
     1
 77
     1
171
     1
175
     1
179
     1
273
     0
  0
XRECORD
  5
29F
102
{ACAD_REACTORS
330
29E
102
}
330
29E
100
AcDbXrecord
280
     1
102
MATERIAL
148
0.0
149
0.0
149
0.0
 93
        0
 94
      127
282
     0
 72
     1
 77
     1
171
     1
175
     1
179
     1
273
     0
  0
XRECORD
  5
2A3
102
{ACAD_REACTORS
330
2A2
102
}
330
2A2
100
AcDbXrecord
280
     1
102
MATERIAL
148
0.0
149
0.0
149
0.0
 93
        0
 94
      127
282
     0
 72
     1
 77
     1
171
     1
175
     1
179
     1
273
     0
  0
XRECORD
  5
287
102
{ACAD_REACTORS
330
286
102
}
330
286
100
AcDbXrecord
280
     1
102
RTVSPropertyOp0
 70
     1
102
RTVSPropertyOp1
 70
     1
102
RTVSPropertyOp2
 70
     1
102
RTVSPropertyOp3
 70
     1
102
RTVSPropertyOp4
 70
     1
102
RTVSPropertyOp5
 70
     1
102
RTVSPropertyOp6
 70
     1
102
RTVSPropertyOp7
 70
     1
102
RTVSPropertyOp8
 70
     1
102
RTVSPropertyOp9
 70
     1
102
RTVSPropertyOp10
 70
     1
102
RTVSPropertyOp11
 70
     1
102
RTVSPropertyOp12
 70
     1
102
RTVSPropertyOp13
 70
     1
102
RTVSPropertyOp14
 70
     1
102
RTVSPropertyOp15
 70
     1
102
RTVSPropertyOp16
 70
     1
102
RTVSPropertyOp17
 70
     1
102
RTVSPropertyOp18
 70
     1
102
RTVSPropertyOp19
 70
     1
102
RTVSPropertyOp20
 70
     1
102
RTVSPropertyOp21
 70
     1
102
RTVSPropertyOp22
 70
     1
102
RTVSPropertyOp23
 70
     1
102
RTVSPropertyOp24
 70
     1
102
RTVSPropertyOp25
 70
     1
102
RTVSPropertyOp26
 70
     1
102
RTVSPropertyOp27
 70
     1
102
RTVSPropertyOp28
 70
     1
102
RTVSPropertyOp29
 70
     1
102
RTVSPropertyOp30
 70
     1
102
RTVSPropertyOp31
 70
     1
102
RTVSPropertyOp32
 70
     1
  0
XRECORD
  5
28B
102
{ACAD_REACTORS
330
28A
102
}
330
28A
100
AcDbXrecord
280
     1
102
RTVSPropertyOp0
 70
     1
102
RTVSPropertyOp1
 70
     1
102
RTVSPropertyOp2
 70
     1
102
RTVSPropertyOp3
 70
     1
102
RTVSPropertyOp4
 70
     1
102
RTVSPropertyOp5
 70
     1
102
RTVSPropertyOp6
 70
     1
102
RTVSPropertyOp7
 70
     1
102
RTVSPropertyOp8
 70
     1
102
RTVSPropertyOp9
 70
     1
102
RTVSPropertyOp10
 70
     1
102
RTVSPropertyOp11
 70
     1
102
RTVSPropertyOp12
 70
     1
102
RTVSPropertyOp13
 70
     1
102
RTVSPropertyOp14
 70
     1
102
RTVSPropertyOp15
 70
     1
102
RTVSPropertyOp16
 70
     1
102
RTVSPropertyOp17
 70
     1
102
RTVSPropertyOp18
 70
     1
102
RTVSPropertyOp19
 70
     1
102
RTVSPropertyOp20
 70
     1
102
RTVSPropertyOp21
 70
     1
102
RTVSPropertyOp22
 70
     1
102
RTVSPropertyOp23
 70
     1
102
RTVSPropertyOp24
 70
     1
102
RTVSPropertyOp25
 70
     1
102
RTVSPropertyOp26
 70
     1
102
RTVSPropertyOp27
 70
     1
102
RTVSPropertyOp28
 70
     1
102
RTVSPropertyOp29
 70
     1
102
RTVSPropertyOp30
 70
     1
102
RTVSPropertyOp31
 70
     1
102
RTVSPropertyOp32
 70
     1
  0
XRECORD
  5
289
102
{ACAD_REACTORS
330
288
102
}
330
288
100
AcDbXrecord
280
     1
102
RTVSPropertyOp0
 70
     1
102
RTVSPropertyOp1
 70
     1
102
RTVSPropertyOp2
 70
     1
102
RTVSPropertyOp3
 70
     1
102
RTVSPropertyOp4
 70
     1
102
RTVSPropertyOp5
 70
     1
102
RTVSPropertyOp6
 70
     1
102
RTVSPropertyOp7
 70
     1
102
RTVSPropertyOp8
 70
     1
102
RTVSPropertyOp9
 70
     1
102
RTVSPropertyOp10
 70
     1
102
RTVSPropertyOp11
 70
     1
102
RTVSPropertyOp12
 70
     1
102
RTVSPropertyOp13
 70
     1
102
RTVSPropertyOp14
 70
     1
102
RTVSPropertyOp15
 70
     1
102
RTVSPropertyOp16
 70
     1
102
RTVSPropertyOp17
 70
     1
102
RTVSPropertyOp18
 70
     1
102
RTVSPropertyOp19
 70
     1
102
RTVSPropertyOp20
 70
     1
102
RTVSPropertyOp21
 70
     1
102
RTVSPropertyOp22
 70
     1
102
RTVSPropertyOp23
 70
     1
102
RTVSPropertyOp24
 70
     1
102
RTVSPropertyOp25
 70
     1
102
RTVSPropertyOp26
 70
     1
102
RTVSPropertyOp27
 70
     1
102
RTVSPropertyOp28
 70
     1
102
RTVSPropertyOp29
 70
     1
102
RTVSPropertyOp30
 70
     1
102
RTVSPropertyOp31
 70
     1
102
RTVSPropertyOp32
 70
     1
  0
XRECORD
  5
28D
102
{ACAD_REACTORS
330
28C
102
}
330
28C
100
AcDbXrecord
280
     1
102
RTVSPropertyOp0
 70
     1
102
RTVSPropertyOp1
 70
     1
102
RTVSPropertyOp2
 70
     1
102
RTVSPropertyOp3
 70
     1
102
RTVSPropertyOp4
 70
     1
102
RTVSPropertyOp5
 70
     1
102
RTVSPropertyOp6
 70
     1
102
RTVSPropertyOp7
 70
     1
102
RTVSPropertyOp8
 70
     1
102
RTVSPropertyOp9
 70
     1
102
RTVSPropertyOp10
 70
     1
102
RTVSPropertyOp11
 70
     1
102
RTVSPropertyOp12
 70
     1
102
RTVSPropertyOp13
 70
     1
102
RTVSPropertyOp14
 70
     1
102
RTVSPropertyOp15
 70
     1
102
RTVSPropertyOp16
 70
     1
102
RTVSPropertyOp17
 70
     1
102
RTVSPropertyOp18
 70
     1
102
RTVSPropertyOp19
 70
     1
102
RTVSPropertyOp20
 70
     1
102
RTVSPropertyOp21
 70
     1
102
RTVSPropertyOp22
 70
     1
102
RTVSPropertyOp23
 70
     1
102
RTVSPropertyOp24
 70
     1
102
RTVSPropertyOp25
 70
     1
102
RTVSPropertyOp26
 70
     1
102
RTVSPropertyOp27
 70
     1
102
RTVSPropertyOp28
 70
     1
102
RTVSPropertyOp29
 70
     1
102
RTVSPropertyOp30
 70
     1
102
RTVSPropertyOp31
 70
     1
102
RTVSPropertyOp32
 70
     1
  0
XRECORD
  5
295
102
{ACAD_REACTORS
330
294
102
}
330
294
100
AcDbXrecord
280
     1
102
RTVSPropertyOp0
 70
     1
102
RTVSPropertyOp1
 70
     1
102
RTVSPropertyOp2
 70
     1
102
RTVSPropertyOp3
 70
     1
102
RTVSPropertyOp4
 70
     1
102
RTVSPropertyOp5
 70
     1
102
RTVSPropertyOp6
 70
     1
102
RTVSPropertyOp7
 70
     1
102
RTVSPropertyOp8
 70
     1
102
RTVSPropertyOp9
 70
     1
102
RTVSPropertyOp10
 70
     1
102
RTVSPropertyOp11
 70
     1
102
RTVSPropertyOp12
 70
     1
102
RTVSPropertyOp13
 70
     1
102
RTVSPropertyOp14
 70
     1
102
RTVSPropertyOp15
 70
     1
102
RTVSPropertyOp16
 70
     1
102
RTVSPropertyOp17
 70
     1
102
RTVSPropertyOp18
 70
     1
102
RTVSPropertyOp19
 70
     1
102
RTVSPropertyOp20
 70
     1
102
RTVSPropertyOp21
 70
     1
102
RTVSPropertyOp22
 70
     1
102
RTVSPropertyOp23
 70
     1
102
RTVSPropertyOp24
 70
     1
102
RTVSPropertyOp25
 70
     1
102
RTVSPropertyOp26
 70
     1
102
RTVSPropertyOp27
 70
     1
102
RTVSPropertyOp28
 70
     1
102
RTVSPropertyOp29
 70
     1
102
RTVSPropertyOp30
 70
     1
102
RTVSPropertyOp31
 70
     1
102
RTVSPropertyOp32
 70
     1
  0
XRECORD
  5
29D
102
{ACAD_REACTORS
330
29C
102
}
330
29C
100
AcDbXrecord
280
     1
102
RTVSPropertyOp0
 70
     1
102
RTVSPropertyOp1
 70
     1
102
RTVSPropertyOp2
 70
     1
102
RTVSPropertyOp3
 70
     1
102
RTVSPropertyOp4
 70
     1
102
RTVSPropertyOp5
 70
     1
102
RTVSPropertyOp6
 70
     1
102
RTVSPropertyOp7
 70
     1
102
RTVSPropertyOp8
 70
     1
102
RTVSPropertyOp9
 70
     1
102
RTVSPropertyOp10
 70
     1
102
RTVSPropertyOp11
 70
     1
102
RTVSPropertyOp12
 70
     1
102
RTVSPropertyOp13
 70
     1
102
RTVSPropertyOp14
 70
     1
102
RTVSPropertyOp15
 70
     1
102
RTVSPropertyOp16
 70
     1
102
RTVSPropertyOp17
 70
     1
102
RTVSPropertyOp18
 70
     1
102
RTVSPropertyOp19
 70
     1
102
RTVSPropertyOp20
 70
     1
102
RTVSPropertyOp21
 70
     1
102
RTVSPropertyOp22
 70
     1
102
RTVSPropertyOp23
 70
     1
102
RTVSPropertyOp24
 70
     1
102
RTVSPropertyOp25
 70
     1
102
RTVSPropertyOp26
 70
     1
102
RTVSPropertyOp27
 70
     1
102
RTVSPropertyOp28
 70
     1
102
RTVSPropertyOp29
 70
     1
102
RTVSPropertyOp30
 70
     1
102
RTVSPropertyOp31
 70
     1
102
RTVSPropertyOp32
 70
     1
  0
XRECORD
  5
291
102
{ACAD_REACTORS
330
290
102
}
330
290
100
AcDbXrecord
280
     1
102
RTVSPropertyOp0
 70
     1
102
RTVSPropertyOp1
 70
     1
102
RTVSPropertyOp2
 70
     1
102
RTVSPropertyOp3
 70
     1
102
RTVSPropertyOp4
 70
     1
102
RTVSPropertyOp5
 70
     1
102
RTVSPropertyOp6
 70
     1
102
RTVSPropertyOp7
 70
     1
102
RTVSPropertyOp8
 70
     1
102
RTVSPropertyOp9
 70
     1
102
RTVSPropertyOp10
 70
     1
102
RTVSPropertyOp11
 70
     1
102
RTVSPropertyOp12
 70
     1
102
RTVSPropertyOp13
 70
     1
102
RTVSPropertyOp14
 70
     1
102
RTVSPropertyOp15
 70
     1
102
RTVSPropertyOp16
 70
     1
102
RTVSPropertyOp17
 70
     1
102
RTVSPropertyOp18
 70
     1
102
RTVSPropertyOp19
 70
     1
102
RTVSPropertyOp20
 70
     1
102
RTVSPropertyOp21
 70
     1
102
RTVSPropertyOp22
 70
     1
102
RTVSPropertyOp23
 70
     1
102
RTVSPropertyOp24
 70
     1
102
RTVSPropertyOp25
 70
     1
102
RTVSPropertyOp26
 70
     1
102
RTVSPropertyOp27
 70
     1
102
RTVSPropertyOp28
 70
     1
102
RTVSPropertyOp29
 70
     1
102
RTVSPropertyOp30
 70
     1
102
RTVSPropertyOp31
 70
     1
102
RTVSPropertyOp32
 70
     1
  0
XRECORD
  5
293
102
{ACAD_REACTORS
330
292
102
}
330
292
100
AcDbXrecord
280
     1
102
RTVSPropertyOp0
 70
     1
102
RTVSPropertyOp1
 70
     1
102
RTVSPropertyOp2
 70
     1
102
RTVSPropertyOp3
 70
     1
102
RTVSPropertyOp4
 70
     1
102
RTVSPropertyOp5
 70
     1
102
RTVSPropertyOp6
 70
     1
102
RTVSPropertyOp7
 70
     1
102
RTVSPropertyOp8
 70
     1
102
RTVSPropertyOp9
 70
     1
102
RTVSPropertyOp10
 70
     1
102
RTVSPropertyOp11
 70
     1
102
RTVSPropertyOp12
 70
     1
102
RTVSPropertyOp13
 70
     1
102
RTVSPropertyOp14
 70
     1
102
RTVSPropertyOp15
 70
     1
102
RTVSPropertyOp16
 70
     1
102
RTVSPropertyOp17
 70
     1
102
RTVSPropertyOp18
 70
     1
102
RTVSPropertyOp19
 70
     1
102
RTVSPropertyOp20
 70
     1
102
RTVSPropertyOp21
 70
     1
102
RTVSPropertyOp22
 70
     1
102
RTVSPropertyOp23
 70
     1
102
RTVSPropertyOp24
 70
     1
102
RTVSPropertyOp25
 70
     1
102
RTVSPropertyOp26
 70
     1
102
RTVSPropertyOp27
 70
     1
102
RTVSPropertyOp28
 70
     1
102
RTVSPropertyOp29
 70
     1
102
RTVSPropertyOp30
 70
     1
102
RTVSPropertyOp31
 70
     1
102
RTVSPropertyOp32
 70
     1
  0
XRECORD
  5
29B
102
{ACAD_REACTORS
330
29A
102
}
330
29A
100
AcDbXrecord
280
     1
102
RTVSPropertyOp0
 70
     1
102
RTVSPropertyOp1
 70
     1
102
RTVSPropertyOp2
 70
     1
102
RTVSPropertyOp3
 70
     1
102
RTVSPropertyOp4
 70
     1
102
RTVSPropertyOp5
 70
     1
102
RTVSPropertyOp6
 70
     1
102
RTVSPropertyOp7
 70
     1
102
RTVSPropertyOp8
 70
     1
102
RTVSPropertyOp9
 70
     1
102
RTVSPropertyOp10
 70
     1
102
RTVSPropertyOp11
 70
     1
102
RTVSPropertyOp12
 70
     1
102
RTVSPropertyOp13
 70
     1
102
RTVSPropertyOp14
 70
     1
102
RTVSPropertyOp15
 70
     1
102
RTVSPropertyOp16
 70
     1
102
RTVSPropertyOp17
 70
     1
102
RTVSPropertyOp18
 70
     1
102
RTVSPropertyOp19
 70
     1
102
RTVSPropertyOp20
 70
     1
102
RTVSPropertyOp21
 70
     1
102
RTVSPropertyOp22
 70
     1
102
RTVSPropertyOp23
 70
     1
102
RTVSPropertyOp24
 70
     1
102
RTVSPropertyOp25
 70
     1
102
RTVSPropertyOp26
 70
     1
102
RTVSPropertyOp27
 70
     1
102
RTVSPropertyOp28
 70
     1
102
RTVSPropertyOp29
 70
     1
102
RTVSPropertyOp30
 70
     1
102
RTVSPropertyOp31
 70
     1
102
RTVSPropertyOp32
 70
     1
  0
XRECORD
  5
27F
102
{ACAD_REACTORS
330
27E
102
}
330
27E
100
AcDbXrecord
280
     1
102
RTVSPropertyOp0
 70
     1
102
RTVSPropertyOp1
 70
     1
102
RTVSPropertyOp2
 70
     1
102
RTVSPropertyOp3
 70
     1
102
RTVSPropertyOp4
 70
     1
102
RTVSPropertyOp5
 70
     1
102
RTVSPropertyOp6
 70
     1
102
RTVSPropertyOp7
 70
     1
102
RTVSPropertyOp8
 70
     1
102
RTVSPropertyOp9
 70
     1
102
RTVSPropertyOp10
 70
     1
102
RTVSPropertyOp11
 70
     1
102
RTVSPropertyOp12
 70
     1
102
RTVSPropertyOp13
 70
     1
102
RTVSPropertyOp14
 70
     1
102
RTVSPropertyOp15
 70
     1
102
RTVSPropertyOp16
 70
     1
102
RTVSPropertyOp17
 70
     1
102
RTVSPropertyOp18
 70
     1
102
RTVSPropertyOp19
 70
     1
102
RTVSPropertyOp20
 70
     1
102
RTVSPropertyOp21
 70
     1
102
RTVSPropertyOp22
 70
     1
102
RTVSPropertyOp23
 70
     1
102
RTVSPropertyOp24
 70
     1
102
RTVSPropertyOp25
 70
     1
102
RTVSPropertyOp26
 70
     1
102
RTVSPropertyOp27
 70
     1
102
RTVSPropertyOp28
 70
     1
102
RTVSPropertyOp29
 70
     1
102
RTVSPropertyOp30
 70
     1
102
RTVSPropertyOp31
 70
     1
102
RTVSPropertyOp32
 70
     1
  0
XRECORD
  5
281
102
{ACAD_REACTORS
330
280
102
}
330
280
100
AcDbXrecord
280
     1
102
RTVSPropertyOp0
 70
     1
102
RTVSPropertyOp1
 70
     1
102
RTVSPropertyOp2
 70
     1
102
RTVSPropertyOp3
 70
     1
102
RTVSPropertyOp4
 70
     1
102
RTVSPropertyOp5
 70
     1
102
RTVSPropertyOp6
 70
     1
102
RTVSPropertyOp7
 70
     1
102
RTVSPropertyOp8
 70
     1
102
RTVSPropertyOp9
 70
     1
102
RTVSPropertyOp10
 70
     1
102
RTVSPropertyOp11
 70
     1
102
RTVSPropertyOp12
 70
     1
102
RTVSPropertyOp13
 70
     1
102
RTVSPropertyOp14
 70
     1
102
RTVSPropertyOp15
 70
     1
102
RTVSPropertyOp16
 70
     1
102
RTVSPropertyOp17
 70
     1
102
RTVSPropertyOp18
 70
     1
102
RTVSPropertyOp19
 70
     1
102
RTVSPropertyOp20
 70
     1
102
RTVSPropertyOp21
 70
     1
102
RTVSPropertyOp22
 70
     1
102
RTVSPropertyOp23
 70
     1
102
RTVSPropertyOp24
 70
     1
102
RTVSPropertyOp25
 70
     1
102
RTVSPropertyOp26
 70
     1
102
RTVSPropertyOp27
 70
     1
102
RTVSPropertyOp28
 70
     1
102
RTVSPropertyOp29
 70
     1
102
RTVSPropertyOp30
 70
     1
102
RTVSPropertyOp31
 70
     1
102
RTVSPropertyOp32
 70
     1
  0
XRECORD
  5
283
102
{ACAD_REACTORS
330
282
102
}
330
282
100
AcDbXrecord
280
     1
102
RTVSPropertyOp0
 70
     1
102
RTVSPropertyOp1
 70
     1
102
RTVSPropertyOp2
 70
     1
102
RTVSPropertyOp3
 70
     1
102
RTVSPropertyOp4
 70
     1
102
RTVSPropertyOp5
 70
     1
102
RTVSPropertyOp6
 70
     1
102
RTVSPropertyOp7
 70
     1
102
RTVSPropertyOp8
 70
     1
102
RTVSPropertyOp9
 70
     1
102
RTVSPropertyOp10
 70
     1
102
RTVSPropertyOp11
 70
     1
102
RTVSPropertyOp12
 70
     1
102
RTVSPropertyOp13
 70
     1
102
RTVSPropertyOp14
 70
     1
102
RTVSPropertyOp15
 70
     1
102
RTVSPropertyOp16
 70
     1
102
RTVSPropertyOp17
 70
     1
102
RTVSPropertyOp18
 70
     1
102
RTVSPropertyOp19
 70
     1
102
RTVSPropertyOp20
 70
     1
102
RTVSPropertyOp21
 70
     1
102
RTVSPropertyOp22
 70
     1
102
RTVSPropertyOp23
 70
     1
102
RTVSPropertyOp24
 70
     1
102
RTVSPropertyOp25
 70
     1
102
RTVSPropertyOp26
 70
     1
102
RTVSPropertyOp27
 70
     1
102
RTVSPropertyOp28
 70
     1
102
RTVSPropertyOp29
 70
     1
102
RTVSPropertyOp30
 70
     1
102
RTVSPropertyOp31
 70
     1
102
RTVSPropertyOp32
 70
     1
  0
XRECORD
  5
285
102
{ACAD_REACTORS
330
284
102
}
330
284
100
AcDbXrecord
280
     1
102
RTVSPropertyOp0
 70
     1
102
RTVSPropertyOp1
 70
     1
102
RTVSPropertyOp2
 70
     1
102
RTVSPropertyOp3
 70
     1
102
RTVSPropertyOp4
 70
     1
102
RTVSPropertyOp5
 70
     1
102
RTVSPropertyOp6
 70
     1
102
RTVSPropertyOp7
 70
     1
102
RTVSPropertyOp8
 70
     1
102
RTVSPropertyOp9
 70
     1
102
RTVSPropertyOp10
 70
     1
102
RTVSPropertyOp11
 70
     1
102
RTVSPropertyOp12
 70
     1
102
RTVSPropertyOp13
 70
     1
102
RTVSPropertyOp14
 70
     1
102
RTVSPropertyOp15
 70
     1
102
RTVSPropertyOp16
 70
     1
102
RTVSPropertyOp17
 70
     1
102
RTVSPropertyOp18
 70
     1
102
RTVSPropertyOp19
 70
     1
102
RTVSPropertyOp20
 70
     1
102
RTVSPropertyOp21
 70
     1
102
RTVSPropertyOp22
 70
     1
102
RTVSPropertyOp23
 70
     1
102
RTVSPropertyOp24
 70
     1
102
RTVSPropertyOp25
 70
     1
102
RTVSPropertyOp26
 70
     1
102
RTVSPropertyOp27
 70
     1
102
RTVSPropertyOp28
 70
     1
102
RTVSPropertyOp29
 70
     1
102
RTVSPropertyOp30
 70
     1
102
RTVSPropertyOp31
 70
     1
102
RTVSPropertyOp32
 70
     1
  0
XRECORD
  5
299
102
{ACAD_REACTORS
330
298
102
}
330
298
100
AcDbXrecord
280
     1
102
RTVSPropertyOp0
 70
     1
102
RTVSPropertyOp1
 70
     1
102
RTVSPropertyOp2
 70
     1
102
RTVSPropertyOp3
 70
     1
102
RTVSPropertyOp4
 70
     1
102
RTVSPropertyOp5
 70
     1
102
RTVSPropertyOp6
 70
     1
102
RTVSPropertyOp7
 70
     1
102
RTVSPropertyOp8
 70
     1
102
RTVSPropertyOp9
 70
     1
102
RTVSPropertyOp10
 70
     1
102
RTVSPropertyOp11
 70
     1
102
RTVSPropertyOp12
 70
     1
102
RTVSPropertyOp13
 70
     1
102
RTVSPropertyOp14
 70
     1
102
RTVSPropertyOp15
 70
     1
102
RTVSPropertyOp16
 70
     1
102
RTVSPropertyOp17
 70
     1
102
RTVSPropertyOp18
 70
     1
102
RTVSPropertyOp19
 70
     1
102
RTVSPropertyOp20
 70
     1
102
RTVSPropertyOp21
 70
     1
102
RTVSPropertyOp22
 70
     1
102
RTVSPropertyOp23
 70
     1
102
RTVSPropertyOp24
 70
     1
102
RTVSPropertyOp25
 70
     1
102
RTVSPropertyOp26
 70
     1
102
RTVSPropertyOp27
 70
     1
102
RTVSPropertyOp28
 70
     1
102
RTVSPropertyOp29
 70
     1
102
RTVSPropertyOp30
 70
     1
102
RTVSPropertyOp31
 70
     1
102
RTVSPropertyOp32
 70
     1
  0
XRECORD
  5
28F
102
{ACAD_REACTORS
330
28E
102
}
330
28E
100
AcDbXrecord
280
     1
102
RTVSPropertyOp0
 70
     1
102
RTVSPropertyOp1
 70
     1
102
RTVSPropertyOp2
 70
     1
102
RTVSPropertyOp3
 70
     1
102
RTVSPropertyOp4
 70
     1
102
RTVSPropertyOp5
 70
     1
102
RTVSPropertyOp6
 70
     1
102
RTVSPropertyOp7
 70
     1
102
RTVSPropertyOp8
 70
     1
102
RTVSPropertyOp9
 70
     1
102
RTVSPropertyOp10
 70
     1
102
RTVSPropertyOp11
 70
     1
102
RTVSPropertyOp12
 70
     1
102
RTVSPropertyOp13
 70
     1
102
RTVSPropertyOp14
 70
     1
102
RTVSPropertyOp15
 70
     1
102
RTVSPropertyOp16
 70
     1
102
RTVSPropertyOp17
 70
     1
102
RTVSPropertyOp18
 70
     1
102
RTVSPropertyOp19
 70
     1
102
RTVSPropertyOp20
 70
     1
102
RTVSPropertyOp21
 70
     1
102
RTVSPropertyOp22
 70
     1
102
RTVSPropertyOp23
 70
     1
102
RTVSPropertyOp24
 70
     1
102
RTVSPropertyOp25
 70
     1
102
RTVSPropertyOp26
 70
     1
102
RTVSPropertyOp27
 70
     1
102
RTVSPropertyOp28
 70
     1
102
RTVSPropertyOp29
 70
     1
102
RTVSPropertyOp30
 70
     1
102
RTVSPropertyOp31
 70
     1
102
RTVSPropertyOp32
 70
     1
  0
XRECORD
  5
297
102
{ACAD_REACTORS
330
296
102
}
330
296
100
AcDbXrecord
280
     1
102
RTVSPropertyOp0
 70
     1
102
RTVSPropertyOp1
 70
     1
102
RTVSPropertyOp2
 70
     1
102
RTVSPropertyOp3
 70
     1
102
RTVSPropertyOp4
 70
     1
102
RTVSPropertyOp5
 70
     1
102
RTVSPropertyOp6
 70
     1
102
RTVSPropertyOp7
 70
     1
102
RTVSPropertyOp8
 70
     1
102
RTVSPropertyOp9
 70
     1
102
RTVSPropertyOp10
 70
     1
102
RTVSPropertyOp11
 70
     1
102
RTVSPropertyOp12
 70
     1
102
RTVSPropertyOp13
 70
     1
102
RTVSPropertyOp14
 70
     1
102
RTVSPropertyOp15
 70
     1
102
RTVSPropertyOp16
 70
     1
102
RTVSPropertyOp17
 70
     1
102
RTVSPropertyOp18
 70
     1
102
RTVSPropertyOp19
 70
     1
102
RTVSPropertyOp20
 70
     1
102
RTVSPropertyOp21
 70
     1
102
RTVSPropertyOp22
 70
     1
102
RTVSPropertyOp23
 70
     1
102
RTVSPropertyOp24
 70
     1
102
RTVSPropertyOp25
 70
     1
102
RTVSPropertyOp26
 70
     1
102
RTVSPropertyOp27
 70
     1
102
RTVSPropertyOp28
 70
     1
102
RTVSPropertyOp29
 70
     1
102
RTVSPropertyOp30
 70
     1
102
RTVSPropertyOp31
 70
     1
102
RTVSPropertyOp32
 70
     1
  0
ENDSEC
  0
EOF
