  0
SECTION
  2
HEADER
  9
$ACADVER
  1
AC1015
  9
$ACADMAINTVER
 70
     6
  9
$DWGCODEPAGE
  3
DOS932
  9
$INSBASE
 10
0.0
 20
0.0
 30
0.0
  9
$EXTMIN
 10
0.0
 20
0.0
 30
0.0
  9
$EXTMAX
 10
420.0
 20
594.0
 30
0.0
  9
$LIMMIN
 10
0.0
 20
0.0
  9
$LIMMAX
 10
12.0
 20
9.0
  9
$ORTHOMODE
 70
     0
  9
$REGENMODE
 70
     1
  9
$FILLMODE
 70
     1
  9
$QTEXTMODE
 70
     0
  9
$MIRRTEXT
 70
     1
  9
$LTSCALE
 40
1.0
  9
$ATTMODE
 70
     1
  9
$TEXTSIZE
 40
0.2
  9
$TRACEWID
 40
0.05
  9
$TEXTSTYLE
  7
Standard
  9
$CLAYER
  8
0
  9
$CELTYPE
  6
ByLayer
  9
$CECOLOR
 62
   256
  9
$CELTSCALE
 40
1.0
  9
$DISPSILH
 70
     0
  9
$DIMSCALE
 40
1.0
  9
$DIMASZ
 40
0.18
  9
$DIMEXO
 40
0.0625
  9
$DIMDLI
 40
0.38
  9
$DIMRND
 40
0.0
  9
$DIMDLE
 40
0.0
  9
$DIMEXE
 40
0.18
  9
$DIMTP
 40
0.0
  9
$DIMTM
 40
0.0
  9
$DIMTXT
 40
0.18
  9
$DIMCEN
 40
0.09
  9
$DIMTSZ
 40
0.0
  9
$DIMTOL
 70
     0
  9
$DIMLIM
 70
     0
  9
$DIMTIH
 70
     1
  9
$DIMTOH
 70
     1
  9
$DIMSE1
 70
     0
  9
$DIMSE2
 70
     0
  9
$DIMTAD
 70
     0
  9
$DIMZIN
 70
     0
  9
$DIMBLK
  1

  9
$DIMASO
 70
     1
  9
$DIMSHO
 70
     1
  9
$DIMPOST
  1

  9
$DIMAPOST
  1

  9
$DIMALT
 70
     0
  9
$DIMALTD
 70
     2
  9
$DIMALTF
 40
25.4
  9
$DIMLFAC
 40
1.0
  9
$DIMTOFL
 70
     0
  9
$DIMTVP
 40
0.0
  9
$DIMTIX
 70
     0
  9
$DIMSOXD
 70
     0
  9
$DIMSAH
 70
     0
  9
$DIMBLK1
  1

  9
$DIMBLK2
  1

  9
$DIMSTYLE
  2
Standard
  9
$DIMCLRD
 70
     0
  9
$DIMCLRE
 70
     0
  9
$DIMCLRT
 70
     0
  9
$DIMTFAC
 40
1.0
  9
$DIMGAP
 40
0.09
  9
$DIMJUST
 70
     0
  9
$DIMSD1
 70
     0
  9
$DIMSD2
 70
     0
  9
$DIMTOLJ
 70
     1
  9
$DIMTZIN
 70
     0
  9
$DIMALTZ
 70
     0
  9
$DIMALTTZ
 70
     0
  9
$DIMUPT
 70
     0
  9
$DIMDEC
 70
     4
  9
$DIMTDEC
 70
     4
  9
$DIMALTU
 70
     2
  9
$DIMALTTD
 70
     2
  9
$DIMTXSTY
  7
Standard
  9
$DIMAUNIT
 70
     0
  9
$DIMADEC
 70
     0
  9
$DIMALTRND
 40
0.0
  9
$DIMAZIN
 70
     0
  9
$DIMDSEP
 70
    46
  9
$DIMATFIT
 70
     3
  9
$DIMFRAC
 70
     0
  9
$DIMLDRBLK
  1

  9
$DIMLUNIT
 70
     2
  9
$DIMLWD
 70
    -2
  9
$DIMLWE
 70
    -2
  9
$DIMTMOVE
 70
     0
  9
$LUNITS
 70
     2
  9
$LUPREC
 70
     4
  9
$SKETCHINC
 40
0.1
  9
$FILLETRAD
 40
0.5
  9
$AUNITS
 70
     0
  9
$AUPREC
 70
     0
  9
$MENU
  1
.
  9
$ELEVATION
 40
0.0
  9
$PELEVATION
 40
0.0
  9
$THICKNESS
 40
0.0
  9
$LIMCHECK
 70
     0
  9
$CHAMFERA
 40
0.5
  9
$CHAMFERB
 40
0.5
  9
$CHAMFERC
 40
1.0
  9
$CHAMFERD
 40
0.0
  9
$SKPOLY
 70
     0
  9
$TDCREATE
 40
2456184.557850834
  9
$TDUCREATE
 40
2456184.182850834
  9
$TDUPDATE
 40
2456184.557850845
  9
$TDUUPDATE
 40
2456184.182850845
  9
$TDINDWG
 40
0.0000000116
  9
$TDUSRTIMER
 40
0.0000000116
  9
$USRTIMER
 70
     1
  9
$ANGBASE
 50
0.0
  9
$ANGDIR
 70
     0
  9
$PDMODE
 70
     0
  9
$PDSIZE
 40
0.0
  9
$PLINEWID
 40
0.0
  9
$SPLFRAME
 70
     0
  9
$SPLINETYPE
 70
     6
  9
$SPLINESEGS
 70
     8
  9
$HANDSEED
  5
33D
  9
$SURFTAB1
 70
     6
  9
$SURFTAB2
 70
     6
  9
$SURFTYPE
 70
     6
  9
$SURFU
 70
     6
  9
$SURFV
 70
     6
  9
$UCSBASE
  2

  9
$UCSNAME
  2

  9
$UCSORG
 10
0.0
 20
0.0
 30
0.0
  9
$UCSXDIR
 10
1.0
 20
0.0
 30
0.0
  9
$UCSYDIR
 10
0.0
 20
1.0
 30
0.0
  9
$UCSORTHOREF
  2

  9
$UCSORTHOVIEW
 70
     0
  9
$UCSORGTOP
 10
0.0
 20
0.0
 30
0.0
  9
$UCSORGBOTTOM
 10
0.0
 20
0.0
 30
0.0
  9
$UCSORGLEFT
 10
0.0
 20
0.0
 30
0.0
  9
$UCSORGRIGHT
 10
0.0
 20
0.0
 30
0.0
  9
$UCSORGFRONT
 10
0.0
 20
0.0
 30
0.0
  9
$UCSORGBACK
 10
0.0
 20
0.0
 30
0.0
  9
$PUCSBASE
  2

  9
$PUCSNAME
  2

  9
$PUCSORG
 10
0.0
 20
0.0
 30
0.0
  9
$PUCSXDIR
 10
1.0
 20
0.0
 30
0.0
  9
$PUCSYDIR
 10
0.0
 20
1.0
 30
0.0
  9
$PUCSORTHOREF
  2

  9
$PUCSORTHOVIEW
 70
     0
  9
$PUCSORGTOP
 10
0.0
 20
0.0
 30
0.0
  9
$PUCSORGBOTTOM
 10
0.0
 20
0.0
 30
0.0
  9
$PUCSORGLEFT
 10
0.0
 20
0.0
 30
0.0
  9
$PUCSORGRIGHT
 10
0.0
 20
0.0
 30
0.0
  9
$PUCSORGFRONT
 10
0.0
 20
0.0
 30
0.0
  9
$PUCSORGBACK
 10
0.0
 20
0.0
 30
0.0
  9
$USERI1
 70
     0
  9
$USERI2
 70
     0
  9
$USERI3
 70
     0
  9
$USERI4
 70
     0
  9
$USERI5
 70
     0
  9
$USERR1
 40
13.2
  9
$USERR2
 40
0.0
  9
$USERR3
 40
0.0
  9
$USERR4
 40
0.0
  9
$USERR5
 40
0.0
  9
$WORLDVIEW
 70
     1
  9
$SHADEDGE
 70
     3
  9
$SHADEDIF
 70
    70
  9
$TILEMODE
 70
     1
  9
$MAXACTVP
 70
    64
  9
$PINSBASE
 10
0.0
 20
0.0
 30
0.0
  9
$PLIMCHECK
 70
     0
  9
$PEXTMIN
 10
1.00000000000000E+20
 20
1.00000000000000E+20
 30
1.00000000000000E+20
  9
$PEXTMAX
 10
-1.00000000000000E+20
 20
-1.00000000000000E+20
 30
-1.00000000000000E+20
  9
$PLIMMIN
 10
0.0
 20
0.0
  9
$PLIMMAX
 10
12.0
 20
9.0
  9
$UNITMODE
 70
     0
  9
$VISRETAIN
 70
     1
  9
$PLINEGEN
 70
     0
  9
$PSLTSCALE
 70
     1
  9
$TREEDEPTH
 70
  3020
  9
$CMLSTYLE
  2
Standard
  9
$CMLJUST
 70
     0
  9
$CMLSCALE
 40
1.0
  9
$PROXYGRAPHICS
 70
     1
  9
$MEASUREMENT
 70
     1
  9
$CELWEIGHT
370
    -1
  9
$ENDCAPS
280
     0
  9
$JOINSTYLE
280
     0
  9
$LWDISPLAY
290
     0
  9
$INSUNITS
 70
     1
  9
$HYPERLINKBASE
  1

  9
$STYLESHEET
  1

  9
$XEDIT
290
     1
  9
$CEPSNTYPE
380
     0
  9
$PSTYLEMODE
290
     0
  9
$FINGERPRINTGUID
  2
{FAEB1C30-E019-11D5-929B-00C0DF256EC4}
  9
$VERSIONGUID
  2
{FAEB1C32-E019-11D5-929B-00C0DF256EC4}
  9
$EXTNAMES
290
     1
  9
$PSVPSCALE
 40
0.0
  9
$OLESTARTUP
290
     0
  0
ENDSEC
  0
SECTION
  2
CLASSES
  0
CLASS
  1
ACDBDICTIONARYWDFLT
  2
AcDbDictionaryWithDefault
  3
ObjectDBX Classes
 90
        0
280
     0
281
     0
  0
CLASS
  1
TABLESTYLE
  2
AcDbTableStyle
  3
ObjectDBX Classes
 90
     2047
280
     0
281
     0
  0
CLASS
  1
DICTIONARYVAR
  2
AcDbDictionaryVar
  3
ObjectDBX Classes
 90
        0
280
     0
281
     0
  0
CLASS
  1

  2
exOdDbCircle
  3

 90
        0
280
     0
281
     1
  0
CLASS
  1

  2
exOdDbSpline
  3

 90
        0
280
     0
281
     1
  0
CLASS
  1
ACDBPLACEHOLDER
  2
AcDbPlaceHolder
  3
ObjectDBX Classes
 90
        0
280
     0
281
     0
  0
CLASS
  1
LAYOUT
  2
AcDbLayout
  3
ObjectDBX Classes
 90
        0
280
     0
281
     0
  0
ENDSEC
  0
SECTION
  2
TABLES
  0
TABLE
  2
VPORT
  5
8
330
0
100
AcDbSymbolTable
 70
     2
  0
VPORT
  5
29
330
8
100
AcDbSymbolTableRecord
100
AcDbViewportTableRecord
  2
*Active
 70
     0
 10
0.0
 20
0.0
 11
1.0
 21
1.0
 12
210.0
 22
297.0
 13
0.0
 23
0.0
 14
0.5
 24
0.5
 15
0.5
 25
0.5
 16
0.0
 26
0.0
 36
1.0
 17
0.0
 27
0.0
 37
0.0
 40
653.4000000000001
 41
1.60267857142857
 42
50.0
 43
0.0
 44
0.0
 50
0.0
 51
0.0
 71
     0
 72
   100
 73
     1
 74
     3
 75
     0
 76
     0
 77
     0
 78
     0
281
     0
 65
     1
110
0.0
120
0.0
130
0.0
111
1.0
121
0.0
131
0.0
112
0.0
122
1.0
132
0.0
 79
     0
146
0.0
  0
ENDTAB
  0
TABLE
  2
LTYPE
  5
5
330
0
100
AcDbSymbolTable
 70
     8
  0
LTYPE
  5
14
330
5
100
AcDbSymbolTableRecord
100
AcDbLinetypeTableRecord
  2
ByBlock
 70
     0
  3

 72
    65
 73
     0
 40
0.0
  0
LTYPE
  5
15
330
5
100
AcDbSymbolTableRecord
100
AcDbLinetypeTableRecord
  2
ByLayer
 70
     0
  3

 72
    65
 73
     0
 40
0.0
  0
LTYPE
  5
16
330
5
100
AcDbSymbolTableRecord
100
AcDbLinetypeTableRecord
  2
Continuous
 70
     0
  3
Solid line
 72
    65
 73
     0
 40
0.0
  0
LTYPE
  5
2E
330
5
100
AcDbSymbolTableRecord
100
AcDbLinetypeTableRecord
  2
DASHED
 70
     0
  3
Dashed
 72
    65
 73
     2
 40
15.0
 49
7.0
 74
     0
 49
-8.0
 74
     0
  0
LTYPE
  5
2F
330
5
100
AcDbSymbolTableRecord
100
AcDbLinetypeTableRecord
  2
DOTTED
 70
     0
  3
Dotted
 72
    65
 73
     2
 40
1.0
 49
0.0
 74
     0
 49
-1.0
 74
     0
  0
LTYPE
  5
30
330
5
100
AcDbSymbolTableRecord
100
AcDbLinetypeTableRecord
  2
DOT_CENTER
 70
     0
  3
Dot_Center
 72
    65
 73
     4
 40
14.0
 49
12.0
 74
     0
 49
-1.0
 74
     0
 49
0.0
 74
     0
 49
-1.0
 74
     0
  0
LTYPE
  5
31
330
5
100
AcDbSymbolTableRecord
100
AcDbLinetypeTableRecord
  2
LONG_DASHED
 70
     0
  3
Long_Dashed
 72
    65
 73
     2
 40
15.0
 49
10.0
 74
     0
 49
-5.0
 74
     0
  0
LTYPE
  5
32
330
5
100
AcDbSymbolTableRecord
100
AcDbLinetypeTableRecord
  2
DASH_CENTER
 70
     0
  3
Dash_Center
 72
    65
 73
     4
 40
14.0
 49
11.0
 74
     0
 49
-1.0
 74
     0
 49
1.0
 74
     0
 49
-1.0
 74
     0
  0
LTYPE
  5
33
330
5
100
AcDbSymbolTableRecord
100
AcDbLinetypeTableRecord
  2
PHANTOM
 70
     0
  3
Phantom
 72
    65
 73
     6
 40
13.0
 49
10.0
 74
     0
 49
-1.0
 74
     0
 49
0.0
 74
     0
 49
-1.0
 74
     0
 49
0.0
 74
     0
 49
-1.0
 74
     0
  0
LTYPE
  5
34
330
5
100
AcDbSymbolTableRecord
100
AcDbLinetypeTableRecord
  2
CENTER_DASH_DASH
 70
     0
  3
Center_Dash_Dash
 72
    65
 73
     6
 40
14.0
 49
9.0
 74
     0
 49
-1.0
 74
     0
 49
1.0
 74
     0
 49
-1.0
 74
     0
 49
1.0
 74
     0
 49
-1.0
 74
     0
  0
ENDTAB
  0
TABLE
  2
LAYER
  5
2
330
0
100
AcDbSymbolTable
 70
     2
  0
LAYER
  5
10
330
2
100
AcDbSymbolTableRecord
100
AcDbLayerTableRecord
  2
0
 70
     0
 62
     7
  6
Continuous
370
    -3
390
F
  0
LAYER
  5
35
330
2
100
AcDbSymbolTableRecord
100
AcDbLayerTableRecord
  2
1
 70
     0
 62
     7
  6
Continuous
370
    -3
390
F
  0
ENDTAB
  0
TABLE
  2
STYLE
  5
3
330
0
100
AcDbSymbolTable
 70
     3
  0
STYLE
  5
11
330
3
100
AcDbSymbolTableRecord
100
AcDbTextStyleTableRecord
  2
Standard
 70
     0
 40
0.0
 41
1.0
 50
0.0
 71
     0
 42
0.2
  3
txt
  4

  0
STYLE
  5
11F
330
3
100
AcDbSymbolTableRecord
100
AcDbTextStyleTableRecord
  2
CONVERTER_1
 70
     0
 40
0.0
 41
0.89
 50
0.0
 71
     0
 42
0.2
  3
msmincho.ttc
  4

1001
ACAD
1000
MS Mincho
1071
    32785
  0
STYLE
  5
2E6
330
3
100
AcDbSymbolTableRecord
100
AcDbTextStyleTableRecord
  2
CONVERTER_2
 70
     0
 40
0.0
 41
0.9
 50
0.0
 71
     0
 42
0.2
  3
txt.shx
  4

  0
ENDTAB
  0
TABLE
  2
VIEW
  5
6
330
0
100
AcDbSymbolTable
 70
     0
  0
ENDTAB
  0
TABLE
  2
UCS
  5
7
330
0
100
AcDbSymbolTable
 70
     0
  0
ENDTAB
  0
TABLE
  2
APPID
  5
9
330
0
100
AcDbSymbolTable
 70
     1
  0
APPID
  5
12
330
9
100
AcDbSymbolTableRecord
100
AcDbRegAppTableRecord
  2
ACAD
 70
     0
  0
ENDTAB
  0
TABLE
  2
DIMSTYLE
  5
A
330
0
100
AcDbSymbolTable
 70
     8
100
AcDbDimStyleTable
  0
DIMSTYLE
105
27
330
A
100
AcDbSymbolTableRecord
100
AcDbDimStyleTableRecord
  2
Standard
 70
     0
340
11
  0
DIMSTYLE
105
2F6
102
{ACAD_REACTORS
330
2F7
102
}
330
A
100
AcDbSymbolTableRecord
100
AcDbDimStyleTableRecord
  2
ME10_DIM_0
 70
     0
 41
7.0
 42
0.0
 44
2.0
 73
     0
 74
     0
 77
     1
 78
     8
140
7.0
147
0.625
172
     1
173
     1
176
     2
177
     2
178
     7
271
     2
340
2E6
  0
DIMSTYLE
105
301
102
{ACAD_REACTORS
330
302
102
}
330
A
100
AcDbSymbolTableRecord
100
AcDbDimStyleTableRecord
  2
ME10_DIM_1
 70
     0
  3
{\Fgdt;n}<>
 41
7.0
 42
0.0
 44
2.0
 73
     0
 74
     0
 77
     1
 78
     8
140
7.0
147
0.625
172
     1
173
     1
176
     2
177
     2
178
     7
271
     2
340
2E6
  0
DIMSTYLE
105
30F
102
{ACAD_REACTORS
330
310
102
}
330
A
100
AcDbSymbolTableRecord
100
AcDbDimStyleTableRecord
  2
ME10_DIM_2
 70
     0
 41
7.0
 42
0.0
 44
2.0
 73
     0
 74
     0
 77
     1
 78
     8
140
7.0
147
0.625
172
     1
173
     1
176
     2
177
     2
178
     7
271
     2
340
2E6
344
30C
  0
DIMSTYLE
105
31A
102
{ACAD_REACTORS
330
31B
102
}
330
A
100
AcDbSymbolTableRecord
100
AcDbDimStyleTableRecord
  2
ME10_DIM_3
 70
     0
 41
7.0
 42
0.0
 44
2.0
 73
     0
 74
     0
 77
     1
 78
     8
140
7.0
147
0.625
172
     1
173
     1
176
     2
177
     2
178
     7
271
     2
340
2E6
  0
DIMSTYLE
105
325
102
{ACAD_REACTORS
330
326
102
}
330
A
100
AcDbSymbolTableRecord
100
AcDbDimStyleTableRecord
  2
ME10_DIM_4
 70
     0
 41
7.0
 42
0.0
 44
2.0
 73
     0
 74
     0
 77
     1
 78
     8
140
7.0
147
0.625
172
     1
173
     1
176
     2
177
     2
178
     7
271
     2
340
2E6
  0
DIMSTYLE
105
330
102
{ACAD_REACTORS
330
331
102
}
330
A
100
AcDbSymbolTableRecord
100
AcDbDimStyleTableRecord
  2
ME10_DIM_5
 70
     0
 41
7.0
 42
0.0
 44
2.0
 73
     0
 74
     0
 77
     1
 78
     8
140
7.0
147
0.625
172
     1
173
     1
176
     2
177
     2
178
     7
271
     2
340
2E6
  0
DIMSTYLE
105
33B
102
{ACAD_REACTORS
330
33C
102
}
330
A
100
AcDbSymbolTableRecord
100
AcDbDimStyleTableRecord
  2
ME10_DIM_6
 70
     0
 41
7.0
 42
0.0
 44
2.0
 73
     0
 74
     0
 77
     1
 78
     8
140
7.0
147
0.625
172
     1
173
     1
176
     2
177
     2
178
     7
271
     2
340
11F
  0
ENDTAB
  0
TABLE
  2
BLOCK_RECORD
  5
1
330
0
100
AcDbSymbolTable
 70
    19
  0
BLOCK_RECORD
  5
1F
330
1
100
AcDbSymbolTableRecord
100
AcDbBlockTableRecord
  2
*Model_Space
340
22
  0
BLOCK_RECORD
  5
1B
330
1
100
AcDbSymbolTableRecord
100
AcDbBlockTableRecord
  2
*Paper_Space
340
1E
  0
BLOCK_RECORD
  5
23
330
1
100
AcDbSymbolTableRecord
100
AcDbBlockTableRecord
  2
*Paper_Space0
340
26
  0
BLOCK_RECORD
  5
36
330
1
100
AcDbSymbolTableRecord
100
AcDbBlockTableRecord
  2
A20-0-13
340
0
102
{BLKREFS
331
56
102
}
  0
BLOCK_RECORD
  5
39
330
1
100
AcDbSymbolTableRecord
100
AcDbBlockTableRecord
  2
_J__A4
340
0
102
{BLKREFS
331
57
102
}
  0
BLOCK_RECORD
  5
3C
330
1
100
AcDbSymbolTableRecord
100
AcDbBlockTableRecord
  2
36-1A-13-M4
340
0
102
{BLKREFS
331
58
102
}
  0
BLOCK_RECORD
  5
3F
330
1
100
AcDbSymbolTableRecord
100
AcDbBlockTableRecord
  2
37-1-13
340
0
102
{BLKREFS
331
59
102
}
  0
BLOCK_RECORD
  5
42
330
1
100
AcDbSymbolTableRecord
100
AcDbBlockTableRecord
  2
32-1-16__1
340
0
102
{BLKREFS
331
5A
102
}
  0
BLOCK_RECORD
  5
45
330
1
100
AcDbSymbolTableRecord
100
AcDbBlockTableRecord
  2
61-5A-16-M11
340
0
102
{BLKREFS
331
4C
102
}
  0
BLOCK_RECORD
  5
48
330
1
100
AcDbSymbolTableRecord
100
AcDbBlockTableRecord
  2
32-1-16__2
340
0
102
{BLKREFS
331
4D
102
}
  0
BLOCK_RECORD
  5
4B
330
1
100
AcDbSymbolTableRecord
100
AcDbBlockTableRecord
  2
A20J-60X-16
340
0
102
{BLKREFS
331
5B
102
}
  0
BLOCK_RECORD
  5
50
330
1
100
AcDbSymbolTableRecord
100
AcDbBlockTableRecord
  2
42-1
340
0
102
{BLKREFS
331
5C
102
}
  0
BLOCK_RECORD
  5
53
330
1
100
AcDbSymbolTableRecord
100
AcDbBlockTableRecord
  2
51-1
340
0
102
{BLKREFS
331
5D
102
}
  0
BLOCK_RECORD
  5
2ED
330
1
100
AcDbSymbolTableRecord
100
AcDbBlockTableRecord
  2
*D011
340
0
  0
BLOCK_RECORD
  5
2F8
330
1
100
AcDbSymbolTableRecord
100
AcDbBlockTableRecord
  2
*D112
340
0
  0
BLOCK_RECORD
  5
303
330
1
100
AcDbSymbolTableRecord
100
AcDbBlockTableRecord
  2
*D213
340
0
  0
BLOCK_RECORD
  5
30C
330
1
100
AcDbSymbolTableRecord
100
AcDbBlockTableRecord
  2
_None
340
0
  0
BLOCK_RECORD
  5
311
330
1
100
AcDbSymbolTableRecord
100
AcDbBlockTableRecord
  2
*D315
340
0
  0
BLOCK_RECORD
  5
31C
330
1
100
AcDbSymbolTableRecord
100
AcDbBlockTableRecord
  2
*D416
340
0
  0
BLOCK_RECORD
  5
327
330
1
100
AcDbSymbolTableRecord
100
AcDbBlockTableRecord
  2
*D517
340
0
  0
BLOCK_RECORD
  5
332
330
1
100
AcDbSymbolTableRecord
100
AcDbBlockTableRecord
  2
*D618
340
0
  0
ENDTAB
  0
ENDSEC
  0
SECTION
  2
BLOCKS
  0
BLOCK
  5
20
330
1F
100
AcDbEntity
  8
0
100
AcDbBlockBegin
  2
*Model_Space
 70
     0
 71
     0
 10
0.0
 20
0.0
 30
0.0
  3
*Model_Space
  1

  0
ENDBLK
  5
21
330
1F
100
AcDbEntity
  8
0
100
AcDbBlockEnd
  0
BLOCK
  5
1C
330
1B
100
AcDbEntity
 67
     1
  8
0
100
AcDbBlockBegin
  2
*Paper_Space
 70
     0
 71
     0
 10
0.0
 20
0.0
 30
0.0
  3
*Paper_Space
  1

  0
ENDBLK
  5
1D
330
1B
100
AcDbEntity
 67
     1
  8
0
100
AcDbBlockEnd
  0
BLOCK
  5
24
330
23
100
AcDbEntity
  8
0
100
AcDbBlockBegin
  2
*Paper_Space0
 70
     0
 71
     0
 10
0.0
 20
0.0
 30
0.0
  3
*Paper_Space0
  1

  0
ENDBLK
  5
25
330
23
100
AcDbEntity
  8
0
100
AcDbBlockEnd
  0
BLOCK
  5
37
330
36
100
AcDbEntity
  8
0
100
AcDbBlockBegin
  2
A20-0-13
 70
     0
 71
     0
 10
237.2327735281169
 20
115.5988278694659
 30
0.0
  3
A20-0-13
  1

  0
LINE
  5
5E
330
36
100
AcDbEntity
  8
1
  6
Continuous
 62
     7
100
AcDbLine
 10
343.8730956074254
 20
150.3828994121076
 30
0.0
 11
343.8730956074254
 21
124.8828994121076
 31
0.0
  0
LINE
  5
5F
330
36
100
AcDbEntity
  8
1
  6
Continuous
 62
     7
100
AcDbLine
 10
346.3730956074254
 20
148.1328994121076
 30
0.0
 11
346.3730956074254
 21
127.1328994121076
 31
0.0
  0
LINE
  5
60
330
36
100
AcDbEntity
  8
1
  6
Continuous
 62
     7
100
AcDbLine
 10
348.1051464149943
 20
147.1328994121076
 30
0.0
 11
348.1051464149943
 21
128.1328994121076
 31
0.0
  0
LINE
  5
61
330
36
100
AcDbEntity
  8
1
  6
Continuous
 62
     7
100
AcDbLine
 10
359.3730956074254
 20
147.1328994121076
 30
0.0
 11
359.3730956074254
 21
128.1328994121076
 31
0.0
  0
LINE
  5
62
330
36
100
AcDbEntity
  8
1
  6
Continuous
 62
     7
100
AcDbLine
 10
124.9931971472875
 20
149.6328994121073
 30
0.0
 11
124.9931971472875
 21
125.6328994121073
 31
0.0
  0
LINE
  5
63
330
36
100
AcDbEntity
  8
1
  6
Continuous
 62
     7
100
AcDbLine
 10
328.0039028239222
 20
146.3828994121076
 30
0.0
 11
326.3730956074254
 21
146.3828994121076
 31
0.0
  0
LINE
  5
64
330
36
100
AcDbEntity
  8
1
  6
Continuous
 62
     7
100
AcDbLine
 10
125.2611463397186
 20
149.6328994121073
 30
0.0
 11
128.4228884354725
 21
149.6328994121073
 31
0.0
  0
LINE
  5
65
330
36
100
AcDbEntity
  8
1
  6
Continuous
 62
     2
100
AcDbLine
 10
348.1051464149943
 20
128.1328994121076
 30
0.0
 11
346.3730956074254
 21
127.1328994121076
 31
0.0
  0
LINE
  5
66
330
36
100
AcDbEntity
  8
1
  6
Continuous
 62
     7
100
AcDbLine
 10
346.3730956074254
 20
127.1328994121076
 30
0.0
 11
346.3730956074254
 21
114.6328994121076
 31
0.0
  0
LINE
  5
67
330
36
100
AcDbEntity
  8
1
  6
Continuous
 62
     7
100
AcDbLine
 10
344.3730956074254
 20
114.6328994121076
 30
0.0
 11
346.3730956074254
 21
114.6328994121076
 31
0.0
  0
LINE
  5
68
330
36
100
AcDbEntity
  8
1
  6
Continuous
 62
     7
100
AcDbLine
 10
343.8730956074254
 20
115.1328994121076
 30
0.0
 11
343.8730956074254
 21
124.8828994121076
 31
0.0
  0
LINE
  5
69
330
36
100
AcDbEntity
  8
1
  6
Continuous
 62
     2
100
AcDbLine
 10
360.3730956074254
 20
128.1328994121076
 30
0.0
 11
359.3730956074254
 21
128.1328994121076
 31
0.0
  0
LINE
  5
6A
330
36
100
AcDbEntity
  8
1
  6
Continuous
 62
     2
100
AcDbLine
 10
359.3730956074254
 20
128.1328994121076
 30
0.0
 11
348.1051464149943
 21
128.1328994121076
 31
0.0
  0
LINE
  5
6B
330
36
100
AcDbEntity
  8
1
  6
Continuous
 62
     7
100
AcDbLine
 10
339.8730956074254
 20
128.8828994121076
 30
0.0
 11
329.6329766589148
 21
128.8828994121076
 31
0.0
  0
LINE
  5
6C
330
36
100
AcDbEntity
  8
1
  6
Continuous
 62
     7
100
AcDbLine
 10
346.3730956074254
 20
160.6328994121076
 30
0.0
 11
344.3730956074254
 21
160.6328994121076
 31
0.0
  0
LINE
  5
6D
330
36
100
AcDbEntity
  8
1
  6
Continuous
 62
     7
100
AcDbLine
 10
346.3730956074254
 20
160.6328994121076
 30
0.0
 11
346.3730956074254
 21
148.1328994121076
 31
0.0
  0
LINE
  5
6E
330
36
100
AcDbEntity
  8
1
  6
Continuous
 62
     2
100
AcDbLine
 10
346.3730956074254
 20
148.1328994121076
 30
0.0
 11
348.1051464149943
 21
147.1328994121076
 31
0.0
  0
LINE
  5
6F
330
36
100
AcDbEntity
  8
1
  6
Continuous
 62
     2
100
AcDbLine
 10
348.1051464149943
 20
147.1328994121076
 30
0.0
 11
359.3730956074254
 21
147.1328994121076
 31
0.0
  0
LINE
  5
70
330
36
100
AcDbEntity
  8
1
  6
Continuous
 62
     2
100
AcDbLine
 10
359.3730956074254
 20
147.1328994121076
 30
0.0
 11
360.3730956074254
 21
147.1328994121076
 31
0.0
  0
LINE
  5
71
330
36
100
AcDbEntity
  8
1
  6
Continuous
 62
     7
100
AcDbLine
 10
339.8730956074254
 20
146.3828994121076
 30
0.0
 11
328.0039028239222
 21
146.3828994121076
 31
0.0
  0
LINE
  5
72
330
36
100
AcDbEntity
  8
1
  6
Continuous
 62
     7
100
AcDbLine
 10
343.8730956074254
 20
150.3828994121076
 30
0.0
 11
343.8730956074254
 21
160.1328994121076
 31
0.0
  0
LINE
  5
73
330
36
100
AcDbEntity
  8
1
  6
Continuous
 62
     7
100
AcDbLine
 10
360.3730956074254
 20
143.6328994121076
 30
0.0
 11
360.3730956074254
 21
147.1328994121076
 31
0.0
  0
LINE
  5
74
330
36
100
AcDbEntity
  8
1
  6
Continuous
 62
     7
100
AcDbLine
 10
360.3730956074254
 20
131.6328994121076
 30
0.0
 11
360.3730956074254
 21
128.1328994121076
 31
0.0
  0
LINE
  5
75
330
36
100
AcDbEntity
  8
1
  6
Continuous
 62
     7
100
AcDbLine
 10
314.3730956074254
 20
159.4008486045387
 30
0.0
 11
314.3730956074254
 21
158.3828994121076
 31
0.0
  0
LINE
  5
76
330
36
100
AcDbEntity
  8
1
  6
Continuous
 62
     7
100
AcDbLine
 10
115.9931971472875
 20
159.4008486045384
 30
0.0
 11
115.9931971472875
 21
158.3828994121073
 31
0.0
  0
LINE
  5
77
330
36
100
AcDbEntity
  8
1
  6
Continuous
 62
     7
100
AcDbLine
 10
89.9931971472875
 20
159.4008486045384
 30
0.0
 11
89.9931971472875
 21
156.6065653731178
 31
0.0
  0
LINE
  5
78
330
36
100
AcDbEntity
  8
1
  6
Continuous
 62
     7
100
AcDbLine
 10
124.9931971472875
 20
150.1421491649303
 30
0.0
 11
122.1621922390071
 21
150.3431168443006
 31
0.0
  0
LINE
  5
79
330
36
100
AcDbEntity
  8
1
  6
Continuous
 62
     7
100
AcDbLine
 10
124.9931971472875
 20
149.6328994121073
 30
0.0
 11
124.9931971472875
 21
150.1421491649303
 31
0.0
  0
LINE
  5
7A
330
36
100
AcDbEntity
  8
1
  6
Continuous
 62
     7
100
AcDbLine
 10
125.2611463397186
 20
149.6328994121073
 30
0.0
 11
124.9931971472875
 21
149.6328994121073
 31
0.0
  0
LINE
  5
7B
330
36
100
AcDbEntity
  8
1
  6
Continuous
 62
     7
100
AcDbLine
 10
124.9931971472875
 20
125.6328994121073
 30
0.0
 11
125.2611463397186
 21
125.6328994121073
 31
0.0
  0
LINE
  5
7C
330
36
100
AcDbEntity
  8
1
  6
Continuous
 62
     7
100
AcDbLine
 10
124.9931971472875
 20
125.1236496592844
 30
0.0
 11
124.9931971472875
 21
125.6328994121073
 31
0.0
  0
LINE
  5
7D
330
36
100
AcDbEntity
  8
1
  6
Continuous
 62
     7
100
AcDbLine
 10
103.9931971472875
 20
123.6328994121073
 30
0.0
 11
122.1621922390071
 21
124.9226819799141
 31
0.0
  0
LINE
  5
7E
330
36
100
AcDbEntity
  8
1
  6
Continuous
 62
     7
100
AcDbLine
 10
115.9931971472875
 20
158.3828994121073
 30
0.0
 11
115.9931971472875
 21
156.6065653731178
 31
0.0
  0
LINE
  5
7F
330
36
100
AcDbEntity
  8
1
  6
Continuous
 62
     7
100
AcDbLine
 10
122.1621922390071
 20
124.9226819799141
 30
0.0
 11
124.9931971472875
 21
125.1236496592844
 31
0.0
  0
LINE
  5
80
330
36
100
AcDbEntity
  8
1
  6
Continuous
 62
     7
100
AcDbLine
 10
122.1621922390071
 20
150.3431168443006
 30
0.0
 11
121.5683376595956
 21
150.3852734567314
 31
0.0
  0
LINE
  5
81
330
36
100
AcDbEntity
  8
1
  6
Continuous
 62
     7
100
AcDbLine
 10
89.9931971472875
 20
156.6065653731178
 30
0.0
 11
89.9931971472875
 21
137.6328994121073
 31
0.0
  0
LINE
  5
82
330
36
100
AcDbEntity
  8
1
  6
Continuous
 62
     7
100
AcDbLine
 10
115.9931971472875
 20
156.6065653731178
 30
0.0
 11
115.9931971472875
 21
156.3702124218101
 31
0.0
  0
LINE
  5
83
330
36
100
AcDbEntity
  8
1
  6
Continuous
 62
     7
100
AcDbLine
 10
125.2611463397186
 20
125.6328994121073
 30
0.0
 11
128.4228884354725
 21
125.6328994121073
 31
0.0
  0
LINE
  5
84
330
36
100
AcDbEntity
  8
1
  6
Continuous
 62
     7
100
AcDbLine
 10
115.9931971472875
 20
162.6328994121072
 30
0.0
 11
115.9931971472875
 21
159.4008486045384
 31
0.0
  0
LINE
  5
85
330
36
100
AcDbEntity
  8
1
  6
Continuous
 62
     7
100
AcDbLine
 10
89.9931971472875
 20
159.4008486045384
 30
0.0
 11
89.9931971472875
 21
162.6328994121072
 31
0.0
  0
LINE
  5
86
330
36
100
AcDbEntity
  8
1
  6
Continuous
 62
     7
100
AcDbLine
 10
288.3730956074254
 20
162.6328994121072
 30
0.0
 11
288.3730956074254
 21
146.9602784651964
 31
0.0
  0
LINE
  5
87
330
36
100
AcDbEntity
  8
1
  6
Continuous
 62
     7
100
AcDbLine
 10
314.3730956074254
 20
161.1328994121076
 30
0.0
 11
307.9866764785326
 21
161.1328994121076
 31
0.0
  0
LINE
  5
88
330
36
100
AcDbEntity
  8
1
  6
Continuous
 62
     7
100
AcDbLine
 10
314.3730956074254
 20
159.4008486045387
 30
0.0
 11
314.3730956074254
 21
162.6328994121072
 31
0.0
  0
LINE
  5
89
330
36
100
AcDbEntity
  8
1
  6
Continuous
 62
     7
100
AcDbLine
 10
360.3730956074254
 20
137.6328994121076
 30
0.0
 11
360.3730956074254
 21
143.6328994121076
 31
0.0
  0
LINE
  5
8A
330
36
100
AcDbEntity
  8
1
  6
Continuous
 62
     7
100
AcDbLine
 10
360.3730956074254
 20
137.6328994121076
 30
0.0
 11
360.3730956074254
 21
131.6328994121076
 31
0.0
  0
LINE
  5
8B
330
36
100
AcDbEntity
  8
1
  6
Continuous
 62
     7
100
AcDbLine
 10
359.3730956074254
 20
127.1328994121076
 30
0.0
 11
360.3730956074254
 21
128.1328994121076
 31
0.0
  0
LINE
  5
8C
330
36
100
AcDbEntity
  8
1
  6
Continuous
 62
     7
100
AcDbLine
 10
359.3730956074254
 20
127.1328994121076
 30
0.0
 11
348.1051464149943
 21
127.1328994121076
 31
0.0
  0
LINE
  5
8D
330
36
100
AcDbEntity
  8
1
  6
Continuous
 62
     7
100
AcDbLine
 10
359.3730956074254
 20
128.1328994121076
 30
0.0
 11
359.3730956074254
 21
127.1328994121076
 31
0.0
  0
LINE
  5
8E
330
36
100
AcDbEntity
  8
1
  6
Continuous
 62
     7
100
AcDbLine
 10
359.3730956074254
 20
148.1328994121076
 30
0.0
 11
359.3730956074254
 21
147.1328994121076
 31
0.0
  0
LINE
  5
8F
330
36
100
AcDbEntity
  8
1
  6
Continuous
 62
     7
100
AcDbLine
 10
348.1051464149943
 20
148.1328994121076
 30
0.0
 11
359.3730956074254
 21
148.1328994121076
 31
0.0
  0
LINE
  5
90
330
36
100
AcDbEntity
  8
1
  6
Continuous
 62
     7
100
AcDbLine
 10
348.1051464149943
 20
147.1328994121076
 30
0.0
 11
348.1051464149943
 21
148.1328994121076
 31
0.0
  0
LINE
  5
91
330
36
100
AcDbEntity
  8
1
  6
Continuous
 62
     7
100
AcDbLine
 10
360.3730956074254
 20
147.1328994121076
 30
0.0
 11
359.3730956074254
 21
148.1328994121076
 31
0.0
  0
LINE
  5
92
330
36
100
AcDbEntity
  8
1
  6
Continuous
 62
     7
100
AcDbLine
 10
346.3730956074254
 20
148.1328994121076
 30
0.0
 11
348.1051464149943
 21
148.1328994121076
 31
0.0
  0
LINE
  5
93
330
36
100
AcDbEntity
  8
1
  6
Continuous
 62
     7
100
AcDbLine
 10
348.1051464149943
 20
127.1328994121076
 30
0.0
 11
346.3730956074254
 21
127.1328994121076
 31
0.0
  0
LINE
  5
94
330
36
100
AcDbEntity
  8
1
  6
Continuous
 62
     7
100
AcDbLine
 10
348.1051464149943
 20
127.1328994121076
 30
0.0
 11
348.1051464149943
 21
128.1328994121076
 31
0.0
  0
LINE
  5
95
330
36
100
AcDbEntity
  8
1
  6
Continuous
 62
     7
100
AcDbLine
 10
294.7595147363183
 20
161.1328994121076
 30
0.0
 11
288.3730956074254
 21
161.1328994121076
 31
0.0
  0
LINE
  5
96
330
36
100
AcDbEntity
  8
1
  6
Continuous
 62
     7
100
AcDbLine
 10
329.6329766589148
 20
128.8828994121076
 30
0.0
 11
327.6851406642527
 21
128.8828994121076
 31
0.0
  0
LINE
  5
97
330
36
100
AcDbEntity
  8
1
  6
Continuous
 62
     7
100
AcDbLine
 10
110.9931971472875
 20
469.2527884018186
 30
0.0
 11
124.9931971472879
 21
470.2466218999368
 31
0.0
  0
LINE
  5
98
330
36
100
AcDbEntity
  8
1
  6
Continuous
 62
     7
100
AcDbLine
 10
124.9931971472879
 20
470.2466218999368
 30
0.0
 11
124.9931971472879
 21
494.7558716527596
 31
0.0
  0
LINE
  5
99
330
36
100
AcDbEntity
  8
1
  6
Continuous
 62
     7
100
AcDbLine
 10
124.9931971472879
 20
470.7558716527596
 30
0.0
 11
128.4231971472875
 21
470.7558716527596
 31
0.0
  0
LINE
  5
9A
330
36
100
AcDbEntity
  8
1
  6
Continuous
 62
     7
100
AcDbLine
 10
124.9931971472879
 20
494.7558716527596
 30
0.0
 11
128.4231971472875
 21
494.7558716527596
 31
0.0
  0
LINE
  5
9B
330
36
100
AcDbEntity
  8
1
  6
Continuous
 62
     7
100
AcDbLine
 10
117.5348026167502
 20
495.2583498810474
 30
0.0
 11
124.8299577384472
 21
495.0048185077754
 31
0.0
  0
LINE
  5
9C
330
36
100
AcDbEntity
  8
1
  6
Continuous
 62
     7
100
AcDbLine
 10
124.8299577384472
 20
495.0048185077754
 30
0.0
 11
124.9931971472879
 21
494.9955387998259
 31
0.0
  0
LINE
  5
9D
330
36
100
AcDbEntity
  8
1
  6
Continuous
 62
     7
100
AcDbLine
 10
124.9931971472879
 20
494.9955387998259
 30
0.0
 11
124.9931971472879
 21
494.7558716527596
 31
0.0
  0
LINE
  5
9E
330
36
100
AcDbEntity
  8
1
  6
Continuous
 62
     7
100
AcDbLine
 10
111.7431971472879
 20
501.2547297655812
 30
0.0
 11
111.7431971472873
 21
521.2558716527595
 31
0.0
  0
LINE
  5
9F
330
36
100
AcDbEntity
  8
1
  6
Continuous
 62
     7
100
AcDbLine
 10
94.2431971472879
 20
501.6221775974856
 30
0.0
 11
94.2431971472873
 21
521.2558716527595
 31
0.0
  0
LINE
  5
A0
330
36
100
AcDbEntity
  8
1
  6
Continuous
 62
     2
100
AcDbLine
 10
112.4931971472873
 20
541.7558716527595
 30
0.0
 11
112.4931971472873
 21
540.7558716527595
 31
0.0
  0
LINE
  5
A1
330
36
100
AcDbEntity
  8
1
  6
Continuous
 62
     2
100
AcDbLine
 10
93.4931971472873
 20
529.4879224603286
 30
0.0
 11
93.4931971472873
 21
540.7558716527595
 31
0.0
  0
LINE
  5
A2
330
36
100
AcDbEntity
  8
1
  6
Continuous
 62
     7
100
AcDbLine
 10
96.9931971472873
 20
541.7558716527595
 30
0.0
 11
93.4931971472873
 21
541.7558716527595
 31
0.0
  0
LINE
  5
A3
330
36
100
AcDbEntity
  8
1
  6
Continuous
 62
     7
100
AcDbLine
 10
108.9931971472873
 20
541.7558716527595
 30
0.0
 11
112.4931971472873
 21
541.7558716527595
 31
0.0
  0
LINE
  5
A4
330
36
100
AcDbEntity
  8
1
  6
Continuous
 62
     7
100
AcDbLine
 10
102.9931971472873
 20
541.7558716527595
 30
0.0
 11
96.9931971472873
 21
541.7558716527595
 31
0.0
  0
LINE
  5
A5
330
36
100
AcDbEntity
  8
1
  6
Continuous
 62
     7
100
AcDbLine
 10
102.9931971472873
 20
541.7558716527595
 30
0.0
 11
108.9931971472873
 21
541.7558716527595
 31
0.0
  0
LINE
  5
A6
330
36
100
AcDbEntity
  8
1
  6
Continuous
 62
     7
100
AcDbLine
 10
113.4931971472873
 20
540.7558716527595
 30
0.0
 11
112.4931971472873
 21
541.7558716527595
 31
0.0
  0
LINE
  5
A7
330
36
100
AcDbEntity
  8
1
  6
Continuous
 62
     7
100
AcDbLine
 10
113.4931971472873
 20
540.7558716527595
 30
0.0
 11
113.4931971472873
 21
529.4879224603286
 31
0.0
  0
LINE
  5
A8
330
36
100
AcDbEntity
  8
1
  6
Continuous
 62
     7
100
AcDbLine
 10
92.4931971472873
 20
529.4879224603286
 30
0.0
 11
92.4931971472873
 21
540.7558716527595
 31
0.0
  0
LINE
  5
A9
330
36
100
AcDbEntity
  8
1
  6
Continuous
 62
     7
100
AcDbLine
 10
93.4931971472873
 20
541.7558716527595
 30
0.0
 11
92.4931971472873
 21
540.7558716527595
 31
0.0
  0
LINE
  5
AA
330
36
100
AcDbEntity
  8
1
  6
Continuous
 62
     7
100
AcDbLine
 10
92.4931971472873
 20
540.7558716527595
 30
0.0
 11
112.4931971472873
 21
540.7558716527595
 31
0.0
  0
LINE
  5
AB
330
36
100
AcDbEntity
  8
1
  6
Continuous
 62
     2
100
AcDbLine
 10
93.4931971472873
 20
540.7558716527595
 30
0.0
 11
93.4931971472873
 21
541.7558716527595
 31
0.0
  0
LINE
  5
AC
330
36
100
AcDbEntity
  8
1
  6
Continuous
 62
     7
100
AcDbLine
 10
113.4931971472873
 20
540.7558716527595
 30
0.0
 11
112.4931971472873
 21
540.7558716527595
 31
0.0
  0
LINE
  5
AD
330
36
100
AcDbEntity
  8
1
  6
Continuous
 62
     2
100
AcDbLine
 10
112.4931971472873
 20
540.7558716527595
 30
0.0
 11
112.4931971472873
 21
529.4879224603286
 31
0.0
  0
LINE
  5
AE
330
36
100
AcDbEntity
  8
1
  6
Continuous
 62
     2
100
AcDbLine
 10
112.4931971472873
 20
529.4879224603286
 30
0.0
 11
113.4931971472873
 21
527.7558716527595
 31
0.0
  0
LINE
  5
AF
330
36
100
AcDbEntity
  8
1
  6
Continuous
 62
     7
100
AcDbLine
 10
113.4931971472873
 20
527.7558716527595
 30
0.0
 11
125.9931971472873
 21
527.7558716527595
 31
0.0
  0
LINE
  5
B0
330
36
100
AcDbEntity
  8
1
  6
Continuous
 62
     7
100
AcDbLine
 10
125.9931971472873
 20
525.7558716527595
 30
0.0
 11
125.9931971472873
 21
527.7558716527595
 31
0.0
  0
LINE
  5
B1
330
36
100
AcDbEntity
  8
1
  6
Continuous
 62
     7
100
AcDbLine
 10
125.4931971472873
 20
525.2558716527595
 30
0.0
 11
115.7431971472873
 21
525.2558716527595
 31
0.0
  0
LINE
  5
B2
330
36
100
AcDbEntity
  8
1
  6
Continuous
 62
     7
100
AcDbLine
 10
79.99319714728733
 20
527.7558716527595
 30
0.0
 11
79.99319714728733
 21
525.7558716527595
 31
0.0
  0
LINE
  5
B3
330
36
100
AcDbEntity
  8
1
  6
Continuous
 62
     7
100
AcDbLine
 10
79.99319714728733
 20
527.7558716527595
 30
0.0
 11
113.4931971472873
 21
527.7558716527595
 31
0.0
  0
LINE
  5
B4
330
36
100
AcDbEntity
  8
1
  6
Continuous
 62
     2
100
AcDbLine
 10
92.4931971472873
 20
527.7558716527595
 30
0.0
 11
93.4931971472873
 21
529.4879224603286
 31
0.0
  0
LINE
  5
B5
330
36
100
AcDbEntity
  8
1
  6
Continuous
 62
     7
100
AcDbLine
 10
115.7431971472873
 20
525.2558716527595
 30
0.0
 11
80.49319714728733
 21
525.2558716527595
 31
0.0
  0
LINE
  5
B6
330
36
100
AcDbEntity
  8
1
  6
Continuous
 62
     7
100
AcDbLine
 10
112.4931971472873
 20
529.4879224603286
 30
0.0
 11
92.4931971472873
 21
529.4879224603286
 31
0.0
  0
LINE
  5
B7
330
36
100
AcDbEntity
  8
1
  6
Continuous
 62
     7
100
AcDbLine
 10
92.4931971472873
 20
527.7558716527595
 30
0.0
 11
92.4931971472873
 21
529.4879224603286
 31
0.0
  0
LINE
  5
B8
330
36
100
AcDbEntity
  8
1
  6
Continuous
 62
     7
100
AcDbLine
 10
113.4931971472873
 20
529.4879224603286
 30
0.0
 11
113.4931971472873
 21
527.7558716527595
 31
0.0
  0
LINE
  5
B9
330
36
100
AcDbEntity
  8
1
  6
Continuous
 62
     7
100
AcDbLine
 10
113.4931971472873
 20
529.4879224603286
 30
0.0
 11
112.4931971472873
 21
529.4879224603286
 31
0.0
  0
LINE
  5
BA
330
36
100
AcDbEntity
  8
1
  6
Continuous
 62
     2
100
AcDbLine
 10
313.3730956074254
 20
162.6328994121074
 30
0.0
 11
313.3730956074254
 21
161.1328994121074
 31
0.0
  0
LINE
  5
BB
330
36
100
AcDbEntity
  8
1
  6
Continuous
 62
     2
100
AcDbLine
 10
314.3730956074254
 20
159.4008486045387
 30
0.0
 11
313.3730956074254
 21
161.1328994121074
 31
0.0
  0
LINE
  5
BC
330
36
100
AcDbEntity
  8
1
  6
Continuous
 62
     2
100
AcDbLine
 10
289.3730956074254
 20
161.1328994121074
 30
0.0
 11
289.3730956074254
 21
162.6328994121074
 31
0.0
  0
LINE
  5
BD
330
36
100
AcDbEntity
  8
1
  6
Continuous
 62
     2
100
AcDbLine
 10
289.3730956074254
 20
161.1328994121074
 30
0.0
 11
288.3730956074254
 21
159.4008486045386
 31
0.0
  0
LINE
  5
BE
330
36
100
AcDbEntity
  8
1
  6
Continuous
 62
     7
100
AcDbLine
 10
115.9931971472875
 20
159.4008486045384
 30
0.0
 11
115.9931971472875
 21
158.3828994121073
 31
0.0
  0
LINE
  5
BF
330
36
100
AcDbEntity
  8
1
  6
Continuous
 62
     7
100
AcDbLine
 10
115.9931971472874
 20
161.1328994121076
 30
0.0
 11
89.9931971472875
 21
161.1328994121076
 31
0.0
  0
LINE
  5
C0
330
36
100
AcDbEntity
  8
1
  6
Continuous
 62
     2
100
AcDbLine
 10
114.9931971472875
 20
162.6328994121074
 30
0.0
 11
114.9931971472875
 21
161.1328994121074
 31
0.0
  0
LINE
  5
C1
330
36
100
AcDbEntity
  8
1
  6
Continuous
 62
     2
100
AcDbLine
 10
115.9931971472875
 20
159.4008486045384
 30
0.0
 11
114.9931971472875
 21
161.1328994121074
 31
0.0
  0
LINE
  5
C2
330
36
100
AcDbEntity
  8
1
  6
Continuous
 62
     2
100
AcDbLine
 10
90.9931971472875
 20
161.1328994121074
 30
0.0
 11
90.9931971472875
 21
162.6328994121074
 31
0.0
  0
LINE
  5
C3
330
36
100
AcDbEntity
  8
1
  6
Continuous
 62
     2
100
AcDbLine
 10
90.9931971472875
 20
161.1328994121074
 30
0.0
 11
89.9931971472875
 21
159.4008486045384
 31
0.0
  0
ARC
  5
C4
330
36
100
AcDbEntity
  8
1
  6
Continuous
 62
     7
100
AcDbCircle
 10
258.3730956074254
 20
146.9602784651964
 30
0.0
 40
30.00000000000004
100
AcDbArc
 50
-8.83319836967763
 51
0.0
  0
ARC
  5
C5
330
36
100
AcDbEntity
  8
1
  6
Continuous
 62
     7
100
AcDbCircle
 10
326.3730956074254
 20
158.3828994121076
 30
0.0
 40
12.0
100
AcDbArc
 50
180.0
 51
-90.0
  0
ARC
  5
C6
330
36
100
AcDbEntity
  8
1
  6
Continuous
 62
     7
100
AcDbCircle
 10
103.9931971472875
 20
137.6328994121073
 30
0.0
 40
14.0
100
AcDbArc
 50
180.0
 51
-90.0
  0
ARC
  5
C7
330
36
100
AcDbEntity
  8
1
  6
Continuous
 62
     7
100
AcDbCircle
 10
102.9931971472875
 20
137.6328994121073
 30
0.0
 40
23.00000000000019
100
AcDbArc
 50
124.4173887104412
 51
-33.54681501581408
  0
ARC
  5
C8
330
36
100
AcDbEntity
  8
1
  6
Continuous
 62
     7
100
AcDbCircle
 10
102.9931971472875
 20
137.6328994121073
 30
0.0
 40
23.00000000000001
100
AcDbArc
 50
33.54681501581432
 51
55.58261128955876
  0
ARC
  5
C9
330
36
100
AcDbEntity
  8
1
  6
Continuous
 62
     7
100
AcDbCircle
 10
117.7431971472879
 20
501.2547297655812
 30
0.0
 40
6.0
100
AcDbArc
 50
180.0
 51
-91.99042150365588
  0
ARC
  5
CA
330
36
100
AcDbEntity
  8
1
  6
Continuous
 62
     7
100
AcDbCircle
 10
64.2431971472879
 20
501.6221775974856
 30
0.0
 40
30.0000000000001
100
AcDbArc
 50
-15.10263691918297
 51
0.0
  0
ARC
  5
CB
330
36
100
AcDbEntity
  8
1
  6
Continuous
 62
     7
100
AcDbCircle
 10
339.8730956074254
 20
124.8828994121076
 30
0.0
 40
4.0
100
AcDbArc
 50
0.0
 51
90.0
  0
ARC
  5
CC
330
36
100
AcDbEntity
  8
1
  6
Continuous
 62
     7
100
AcDbCircle
 10
344.3730956074254
 20
115.1328994121076
 30
0.0
 40
0.5
100
AcDbArc
 50
180.0
 51
-90.0
  0
ARC
  5
CD
330
36
100
AcDbEntity
  8
1
  6
Continuous
 62
     7
100
AcDbCircle
 10
339.8730956074254
 20
150.3828994121076
 30
0.0
 40
4.0
100
AcDbArc
 50
-90.0
 51
0.0
  0
ARC
  5
CE
330
36
100
AcDbEntity
  8
1
  6
Continuous
 62
     7
100
AcDbCircle
 10
344.3730956074254
 20
160.1328994121076
 30
0.0
 40
0.5
100
AcDbArc
 50
90.0
 51
180.0
  0
ARC
  5
CF
330
36
100
AcDbEntity
  8
1
  6
Continuous
 62
     7
100
AcDbCircle
 10
121.9931971472875
 20
156.3702124218101
 30
0.0
 40
6.0
100
AcDbArc
 50
180.0
 51
-94.06050734864749
  0
ARC
  5
D0
330
36
100
AcDbEntity
  8
1
  6
Continuous
 62
     7
100
AcDbCircle
 10
125.4931971472873
 20
525.7558716527595
 30
0.0
 40
0.5
100
AcDbArc
 50
-90.0
 51
0.0
  0
ARC
  5
D1
330
36
100
AcDbEntity
  8
1
  6
Continuous
 62
     7
100
AcDbCircle
 10
90.2431971472873
 20
521.2558716527595
 30
0.0
 40
4.0
100
AcDbArc
 50
0.0
 51
90.0
  0
ARC
  5
D2
330
36
100
AcDbEntity
  8
1
  6
Continuous
 62
     7
100
AcDbCircle
 10
80.49319714728733
 20
525.7558716527595
 30
0.0
 40
0.5
100
AcDbArc
 50
180.0
 51
-90.0
  0
ARC
  5
D3
330
36
100
AcDbEntity
  8
1
  6
Continuous
 62
     7
100
AcDbCircle
 10
115.7431971472873
 20
521.2558716527595
 30
0.0
 40
4.0
100
AcDbArc
 50
90.0
 51
180.0
  0
ENDBLK
  5
38
330
36
100
AcDbEntity
  8
0
100
AcDbBlockEnd
  0
BLOCK
  5
3A
330
39
100
AcDbEntity
  8
0
100
AcDbBlockBegin
  2
_J__A4
 70
     0
 71
     0
 10
0.0
 20
0.0
 30
0.0
  3
_J__A4
  1

  0
POINT
  5
D4
330
39
100
AcDbEntity
  8
1
 62
     4
100
AcDbPoint
 10
34.0
 20
34.00000000000001
 30
0.0
  0
POINT
  5
D5
330
39
100
AcDbEntity
  8
1
 62
     4
100
AcDbPoint
 10
57.0
 20
12.25
 30
0.0
  0
POINT
  5
D6
330
39
100
AcDbEntity
  8
1
 62
     4
100
AcDbPoint
 10
57.0
 20
20.75000000000001
 30
0.0
  0
POINT
  5
D7
330
39
100
AcDbEntity
  8
1
 62
     4
100
AcDbPoint
 10
57.0
 20
24.75000000000001
 30
0.0
  0
POINT
  5
D8
330
39
100
AcDbEntity
  8
1
 62
     4
100
AcDbPoint
 10
57.0
 20
16.25
 30
0.0
  0
POINT
  5
D9
330
39
100
AcDbEntity
  8
1
 62
     4
100
AcDbPoint
 10
157.5
 20
19.00000000000001
 30
0.0
  0
POINT
  5
DA
330
39
100
AcDbEntity
  8
1
 62
     4
100
AcDbPoint
 10
47.5
 20
282.0000000000003
 30
0.0
  0
POINT
  5
DB
330
39
100
AcDbEntity
  8
1
 62
     4
100
AcDbPoint
 10
57.0
 20
22.75000000000001
 30
0.0
  0
POINT
  5
DC
330
39
100
AcDbEntity
  8
1
 62
     4
100
AcDbPoint
 10
57.0
 20
14.25
 30
0.0
  0
POINT
  5
DD
330
39
100
AcDbEntity
  8
1
 62
     4
100
AcDbPoint
 10
157.5
 20
12.5
 30
0.0
  0
POINT
  5
DE
330
39
100
AcDbEntity
  8
1
 62
     4
100
AcDbPoint
 10
163.25
 20
12.5
 30
0.0
  0
POINT
  5
DF
330
39
100
AcDbEntity
  8
1
 62
     4
100
AcDbPoint
 10
151.75
 20
12.5
 30
0.0
  0
POINT
  5
E0
330
39
100
AcDbEntity
  8
1
 62
     4
100
AcDbPoint
 10
134.75
 20
12.5
 30
0.0
  0
POINT
  5
E1
330
39
100
AcDbEntity
  8
1
 62
     4
100
AcDbPoint
 10
146.25
 20
12.5
 30
0.0
  0
POINT
  5
E2
330
39
100
AcDbEntity
  8
1
 62
     4
100
AcDbPoint
 10
140.5
 20
12.5
 30
0.0
  0
POINT
  5
E3
330
39
100
AcDbEntity
  8
1
 62
     4
100
AcDbPoint
 10
140.5
 20
19.00000000000001
 30
0.0
  0
POINT
  5
E4
330
39
100
AcDbEntity
  8
1
 62
     4
100
AcDbPoint
 10
117.75
 20
12.5
 30
0.0
  0
POINT
  5
E5
330
39
100
AcDbEntity
  8
1
 62
     4
100
AcDbPoint
 10
129.25
 20
12.5
 30
0.0
  0
POINT
  5
E6
330
39
100
AcDbEntity
  8
1
 62
     4
100
AcDbPoint
 10
123.5
 20
12.5
 30
0.0
  0
POINT
  5
E7
330
39
100
AcDbEntity
  8
1
 62
     4
100
AcDbPoint
 10
123.5
 20
19.00000000000001
 30
0.0
  0
POINT
  5
E8
330
39
100
AcDbEntity
  8
1
 62
     4
100
AcDbPoint
 10
100.75
 20
12.5
 30
0.0
  0
POINT
  5
E9
330
39
100
AcDbEntity
  8
1
 62
     4
100
AcDbPoint
 10
112.25
 20
12.5
 30
0.0
  0
POINT
  5
EA
330
39
100
AcDbEntity
  8
1
 62
     4
100
AcDbPoint
 10
106.5
 20
12.5
 30
0.0
  0
POINT
  5
EB
330
39
100
AcDbEntity
  8
1
 62
     4
100
AcDbPoint
 10
106.5
 20
19.00000000000001
 30
0.0
  0
POINT
  5
EC
330
39
100
AcDbEntity
  8
1
 62
     4
100
AcDbPoint
 10
85.25
 20
17.0
 30
0.0
  0
POINT
  5
ED
330
39
100
AcDbEntity
  8
1
 62
     4
100
AcDbPoint
 10
93.75
 20
17.0
 30
0.0
  0
LINE
  5
EE
330
39
100
AcDbEntity
  8
1
  6
Continuous
 62
     2
100
AcDbLine
 10
81.0
 20
27.00000000000001
 30
0.0
 11
81.0
 21
10.0
 31
0.0
  0
LINE
  5
EF
330
39
100
AcDbEntity
  8
1
  6
DOT_CENTER
 62
     2
100
AcDbLine
 10
187.0
 20
26.50000000000001
 30
0.0
 11
187.0
 21
20.50000000000001
 31
0.0
  0
LINE
  5
F0
330
39
100
AcDbEntity
  8
1
  6
DOT_CENTER
 62
     2
100
AcDbLine
 10
184.0
 20
23.50000000000001
 30
0.0
 11
197.0
 21
23.50000000000001
 31
0.0
  0
LINE
  5
F1
330
39
100
AcDbEntity
  8
1
  6
Continuous
 62
     7
100
AcDbLine
 10
196.0
 20
21.50000000000001
 30
0.0
 11
191.0
 21
22.30000000000001
 31
0.0
  0
LINE
  5
F2
330
39
100
AcDbEntity
  8
1
  6
Continuous
 62
     7
100
AcDbLine
 10
196.0
 20
25.50000000000001
 30
0.0
 11
196.0
 21
21.50000000000001
 31
0.0
  0
LINE
  5
F3
330
39
100
AcDbEntity
  8
1
  6
Continuous
 62
     7
100
AcDbLine
 10
191.0
 20
24.70000000000001
 30
0.0
 11
196.0
 21
25.50000000000001
 31
0.0
  0
LINE
  5
F4
330
39
100
AcDbEntity
  8
1
  6
Continuous
 62
     7
100
AcDbLine
 10
191.0
 20
24.70000000000001
 30
0.0
 11
191.0
 21
22.30000000000001
 31
0.0
  0
LINE
  5
F5
330
39
100
AcDbEntity
  8
1
  6
Continuous
 62
     2
100
AcDbLine
 10
33.0
 20
27.0
 30
0.0
 11
33.0
 21
10.0
 31
0.0
  0
LINE
  5
F6
330
39
100
AcDbEntity
  8
1
  6
Continuous
 62
     2
100
AcDbLine
 10
25.0
 20
18.50000000000001
 30
0.0
 11
81.0
 21
18.50000000000001
 31
0.0
  0
LINE
  5
F7
330
39
100
AcDbEntity
  8
1
  6
Continuous
 62
     7
100
AcDbLine
 10
200.0
 20
287.0000000000003
 30
0.0
 11
105.0
 21
287.0000000000003
 31
0.0
  0
LINE
  5
F8
330
39
100
AcDbEntity
  8
1
  6
Continuous
 62
     7
100
AcDbLine
 10
200.0
 20
10.0
 30
0.0
 11
200.0
 21
148.5
 31
0.0
  0
LINE
  5
F9
330
39
100
AcDbEntity
  8
1
  6
Continuous
 62
     7
100
AcDbLine
 10
25.0
 20
10.0
 30
0.0
 11
105.0
 21
10.0
 31
0.0
  0
LINE
  5
FA
330
39
100
AcDbEntity
  8
1
  6
PHANTOM
 62
     4
100
AcDbLine
 10
0.0
 20
297.0
 30
0.0
 11
0.0
 21
0.0
 31
0.0
  0
LINE
  5
FB
330
39
100
AcDbEntity
  8
1
  6
PHANTOM
 62
     4
100
AcDbLine
 10
210.0
 20
297.0
 30
0.0
 11
0.0
 21
297.0
 31
0.0
  0
LINE
  5
FC
330
39
100
AcDbEntity
  8
1
  6
PHANTOM
 62
     4
100
AcDbLine
 10
210.0
 20
0.0
 30
0.0
 11
210.0
 21
297.0
 31
0.0
  0
LINE
  5
FD
330
39
100
AcDbEntity
  8
1
  6
PHANTOM
 62
     4
100
AcDbLine
 10
0.0
 20
0.0
 30
0.0
 11
210.0
 21
0.0
 31
0.0
  0
LINE
  5
FE
330
39
100
AcDbEntity
  8
1
  6
Continuous
 62
     7
100
AcDbLine
 10
25.0
 20
41.0
 30
0.0
 11
200.0
 21
41.0
 31
0.0
  0
LINE
  5
FF
330
39
100
AcDbEntity
  8
1
  6
Continuous
 62
     7
100
AcDbLine
 10
200.0
 20
27.00000000000001
 30
0.0
 11
25.0
 21
27.00000000000001
 31
0.0
  0
LINE
  5
100
330
39
100
AcDbEntity
  8
1
  6
Continuous
 62
     2
100
AcDbLine
 10
33.0
 20
41.00000000000001
 30
0.0
 11
33.0
 21
27.0
 31
0.0
  0
LINE
  5
101
330
39
100
AcDbEntity
  8
1
  6
Continuous
 62
     2
100
AcDbLine
 10
55.0
 20
287.0000000000003
 30
0.0
 11
55.0
 21
277.0000000000003
 31
0.0
  0
LINE
  5
102
330
39
100
AcDbEntity
  8
1
  6
Continuous
 62
     2
100
AcDbLine
 10
40.0
 20
287.0000000000003
 30
0.0
 11
40.0
 21
277.0000000000003
 31
0.0
  0
LINE
  5
103
330
39
100
AcDbEntity
  8
1
  6
Continuous
 62
     7
100
AcDbLine
 10
25.0
 20
10.0
 30
0.0
 11
25.0
 21
148.5
 31
0.0
  0
LINE
  5
104
330
39
100
AcDbEntity
  8
1
  6
Continuous
 62
     2
100
AcDbLine
 10
55.0
 20
277.0000000000003
 30
0.0
 11
25.0
 21
277.0000000000003
 31
0.0
  0
LINE
  5
105
330
39
100
AcDbEntity
  8
1
  6
Continuous
 62
     2
100
AcDbLine
 10
166.0
 20
27.00000000000001
 30
0.0
 11
166.0
 21
10.0
 31
0.0
  0
LINE
  5
106
330
39
100
AcDbEntity
  8
1
  6
Continuous
 62
     2
100
AcDbLine
 10
132.0
 20
27.00000000000001
 30
0.0
 11
132.0
 21
9.99999999999999
 31
0.0
  0
LINE
  5
107
330
39
100
AcDbEntity
  8
1
  6
Continuous
 62
     2
100
AcDbLine
 10
149.0
 20
27.00000000000001
 30
0.0
 11
149.0
 21
10.0
 31
0.0
  0
LINE
  5
108
330
39
100
AcDbEntity
  8
1
  6
Continuous
 62
     2
100
AcDbLine
 10
115.0
 20
27.00000000000001
 30
0.0
 11
115.0
 21
9.99999999999999
 31
0.0
  0
LINE
  5
109
330
39
100
AcDbEntity
  8
1
  6
Continuous
 62
     2
100
AcDbLine
 10
98.0
 20
27.00000000000001
 30
0.0
 11
98.0
 21
9.99999999999999
 31
0.0
  0
LINE
  5
10A
330
39
100
AcDbEntity
  8
1
  6
Continuous
 62
     2
100
AcDbLine
 10
166.0
 20
20.00000000000001
 30
0.0
 11
200.0
 21
20.00000000000001
 31
0.0
  0
LINE
  5
10B
330
39
100
AcDbEntity
  8
1
  6
Continuous
 62
     2
100
AcDbLine
 10
105.0
 20
287.0000000000003
 30
0.0
 11
105.0
 21
292.0000000000003
 31
0.0
  0
LINE
  5
10C
330
39
100
AcDbEntity
  8
1
  6
Continuous
 62
     7
100
AcDbLine
 10
105.0
 20
287.0000000000003
 30
0.0
 11
25.0
 21
287.0000000000003
 31
0.0
  0
LINE
  5
10D
330
39
100
AcDbEntity
  8
1
  6
Continuous
 62
     2
100
AcDbLine
 10
25.0
 20
148.5
 30
0.0
 11
20.0
 21
148.5
 31
0.0
  0
LINE
  5
10E
330
39
100
AcDbEntity
  8
1
  6
Continuous
 62
     7
100
AcDbLine
 10
25.0
 20
148.5
 30
0.0
 11
25.0
 21
287.0000000000003
 31
0.0
  0
LINE
  5
10F
330
39
100
AcDbEntity
  8
1
  6
Continuous
 62
     2
100
AcDbLine
 10
200.0
 20
148.5
 30
0.0
 11
205.0
 21
148.5
 31
0.0
  0
LINE
  5
110
330
39
100
AcDbEntity
  8
1
  6
Continuous
 62
     7
100
AcDbLine
 10
200.0
 20
148.5
 30
0.0
 11
200.0
 21
287.0000000000003
 31
0.0
  0
LINE
  5
111
330
39
100
AcDbEntity
  8
1
  6
Continuous
 62
     2
100
AcDbLine
 10
105.0
 20
10.0
 30
0.0
 11
105.0
 21
5.0
 31
0.0
  0
LINE
  5
112
330
39
100
AcDbEntity
  8
1
  6
Continuous
 62
     7
100
AcDbLine
 10
105.0
 20
10.0
 30
0.0
 11
200.0
 21
10.0
 31
0.0
  0
CIRCLE
  5
113
330
39
100
AcDbEntity
  8
1
  6
DOT_CENTER
 62
     7
100
AcDbCircle
 10
89.5
 20
18.0
 30
0.0
 40
0.1000000000000227
  0
CIRCLE
  5
114
330
39
100
AcDbEntity
  8
1
  6
DOT_CENTER
 62
     7
100
AcDbCircle
 10
89.5
 20
16.0
 30
0.0
 40
0.1000000000000227
  0
CIRCLE
  5
115
330
39
100
AcDbEntity
  8
1
  6
Continuous
 62
     7
100
AcDbCircle
 10
187.0
 20
23.50000000000001
 30
0.0
 40
2.0
  0
CIRCLE
  5
116
330
39
100
AcDbEntity
  8
1
  6
Continuous
 62
     7
100
AcDbCircle
 10
187.0
 20
23.50000000000001
 30
0.0
 40
1.200000000000102
  0
CIRCLE
  5
117
330
39
100
AcDbEntity
  8
1
  6
Continuous
 62
     7
100
AcDbCircle
 10
154.5
 20
12.5
 30
0.0
 40
0.3000000000000114
  0
CIRCLE
  5
118
330
39
100
AcDbEntity
  8
1
  6
Continuous
 62
     7
100
AcDbCircle
 10
160.5
 20
12.5
 30
0.0
 40
0.3000000000000114
  0
CIRCLE
  5
119
330
39
100
AcDbEntity
  8
1
  6
Continuous
 62
     7
100
AcDbCircle
 10
143.5
 20
12.5
 30
0.0
 40
0.3000000000000114
  0
CIRCLE
  5
11A
330
39
100
AcDbEntity
  8
1
  6
Continuous
 62
     7
100
AcDbCircle
 10
137.5
 20
12.5
 30
0.0
 40
0.3000000000000114
  0
CIRCLE
  5
11B
330
39
100
AcDbEntity
  8
1
  6
Continuous
 62
     7
100
AcDbCircle
 10
126.5
 20
12.5
 30
0.0
 40
0.2999999999999972
  0
CIRCLE
  5
11C
330
39
100
AcDbEntity
  8
1
  6
Continuous
 62
     7
100
AcDbCircle
 10
120.5
 20
12.5
 30
0.0
 40
0.2999999999999972
  0
CIRCLE
  5
11D
330
39
100
AcDbEntity
  8
1
  6
Continuous
 62
     7
100
AcDbCircle
 10
109.5
 20
12.5
 30
0.0
 40
0.2999999999999972
  0
CIRCLE
  5
11E
330
39
100
AcDbEntity
  8
1
  6
Continuous
 62
     7
100
AcDbCircle
 10
103.5
 20
12.5
 30
0.0
 40
0.2999999999999972
  0
MTEXT
  5
120
330
39
100
AcDbEntity
  8
1
 62
   250
100
AcDbMText
 10
25.0
 20
5.0
 30
0.0
 40
3.5
 41
0.0
 71
     4
 72
     1
  1
備考欄の文字列 原点位置=4
  7
CONVERTER_1
 73
     1
 44
0.7202881152461
  0
MTEXT
  5
121
330
39
100
AcDbEntity
  8
1
 62
     2
100
AcDbMText
 10
89.5
 20
24.00000000000001
 30
0.0
 40
3.5
 41
0.0
 71
     5
 72
     1
  1
尺度
  7
CONVERTER_1
 73
     1
 44
0.7202881152461
  0
MTEXT
  5
122
330
39
100
AcDbEntity
  8
1
 62
     2
100
AcDbMText
 10
135.5
 20
25.00000000000001
 30
0.0
 40
3.0
 41
0.0
 71
     5
 72
     1
  1
製図
  7
CONVERTER_1
 73
     1
 44
0.78031212484994
  0
MTEXT
  5
123
330
39
100
AcDbEntity
  8
1
 62
     2
100
AcDbMText
 10
152.5
 20
25.00000000000001
 30
0.0
 40
3.0
 41
0.0
 71
     5
 72
     1
  1
設計
  7
CONVERTER_1
 73
     1
 44
0.78031212484994
  0
MTEXT
  5
124
330
39
100
AcDbEntity
  8
1
 62
     2
100
AcDbMText
 10
118.5
 20
25.00000000000001
 30
0.0
 40
3.0
 41
0.0
 71
     5
 72
     1
  1
検図
  7
CONVERTER_1
 73
     1
 44
0.78031212484994
  0
MTEXT
  5
125
330
39
100
AcDbEntity
  8
1
 62
     2
100
AcDbMText
 10
175.0
 20
23.50000000000001
 30
0.0
 40
3.5
 41
0.0
 71
     5
 72
     1
  1
第三角法
  7
CONVERTER_1
 73
     1
 44
0.7202881152461
  0
MTEXT
  5
126
330
39
100
AcDbEntity
  8
1
 62
     2
100
AcDbMText
 10
101.5
 20
25.00000000000001
 30
0.0
 40
3.0
 41
0.0
 71
     5
 72
     1
  1
承認
  7
CONVERTER_1
 73
     1
 44
0.78031212484994
  0
MTEXT
  5
127
330
39
100
AcDbEntity
  8
1
 62
     2
100
AcDbMText
 10
29.0
 20
14.25
 30
0.0
 40
3.5
 41
0.0
 71
     5
 72
     1
  1
品番
  7
CONVERTER_1
 73
     1
 44
0.96038415366146
  0
MTEXT
  5
128
330
39
100
AcDbEntity
  8
1
 62
     2
100
AcDbMText
 10
29.0
 20
22.75
 30
0.0
 40
3.5
 41
0.0
 71
     5
 72
     1
  1
品名
  7
CONVERTER_1
 73
     1
 44
0.96038415366146
  0
MTEXT
  5
129
330
39
100
AcDbEntity
  8
1
 62
     2
100
AcDbMText
 10
29.0
 20
34.00000000000001
 30
0.0
 40
3.5
 41
0.0
 71
     5
 72
     1
  1
備考
  7
CONVERTER_1
 73
     1
 44
0.60024009603842
  0
MTEXT
  5
12A
330
39
100
AcDbEntity
  8
1
 62
     2
100
AcDbMText
 10
32.5
 20
282.0000000000003
 30
0.0
 40
5.0
 41
0.0
 71
     5
 72
     1
  1
図番
  7
CONVERTER_1
 73
     1
 44
0.60024009603842
  0
MTEXT
  5
12B
330
39
100
AcDbEntity
  8
1
 62
     7
100
AcDbMText
 10
171.5
 20
15.0
 30
0.0
 40
2.5
 41
0.0
 71
     5
 72
     1
  1
株式会社
  7
CONVERTER_1
 73
     1
 44
1.32052821128451
  0
MTEXT
  5
12C
330
39
100
AcDbEntity
  8
1
 62
     7
100
AcDbMText
 10
188.5
 20
15.0
 30
0.0
 40
3.0
 41
0.0
 71
     5
 72
     1
  1
三栄水栓製作所
  7
CONVERTER_1
 73
     1
 44
1.32052821128451
  0
ENDBLK
  5
3B
330
39
100
AcDbEntity
  8
0
100
AcDbBlockEnd
  0
BLOCK
  5
3D
330
3C
100
AcDbEntity
  8
0
100
AcDbBlockBegin
  2
36-1A-13-M4
 70
     0
 71
     0
 10
398.434386646342
 20
358.143269341017
 30
0.0
  3
36-1A-13-M4
  1

  0
LINE
  5
12D
330
3C
100
AcDbEntity
  8
1
  6
Continuous
 62
     7
100
AcDbLine
 10
142.4231971472875
 20
487.5058716527597
 30
0.0
 11
145.9935058591024
 21
487.5058716527597
 31
0.0
  0
LINE
  5
12E
330
3C
100
AcDbEntity
  8
1
  6
Continuous
 62
     7
100
AcDbLine
 10
145.9935058591024
 20
478.0058716527596
 30
0.0
 11
142.4231971472875
 21
478.0058716527596
 31
0.0
  0
LINE
  5
12F
330
3C
100
AcDbEntity
  8
1
  6
Continuous
 62
     7
100
AcDbLine
 10
142.4228884354727
 20
142.3828994121073
 30
0.0
 11
145.9931971472877
 21
142.3828994121073
 31
0.0
  0
LINE
  5
130
330
3C
100
AcDbEntity
  8
1
  6
Continuous
 62
     7
100
AcDbLine
 10
145.9931971472877
 20
132.8828994121072
 30
0.0
 11
142.4228884354727
 21
132.8828994121072
 31
0.0
  0
ENDBLK
  5
3E
330
3C
100
AcDbEntity
  8
0
100
AcDbBlockEnd
  0
BLOCK
  5
40
330
3F
100
AcDbEntity
  8
0
100
AcDbBlockBegin
  2
37-1-13
 70
     0
 71
     0
 10
446.9400678272614
 20
101.8963393293858
 30
0.0
  3
37-1-13
  1

  0
LINE
  5
131
330
3F
100
AcDbEntity
  8
1
  6
Continuous
 62
     7
100
AcDbLine
 10
312.397464771704
 20
146.2790839063953
 30
0.0
 11
313.4352444727472
 21
145.6799215166385
 31
0.0
  0
LINE
  5
132
330
3F
100
AcDbEntity
  8
1
  6
Continuous
 62
     7
100
AcDbLine
 10
288.3730956074254
 20
142.8571909219261
 30
0.0
 11
288.3730956074254
 21
144.0555157014397
 31
0.0
  0
LINE
  5
133
330
3F
100
AcDbEntity
  8
1
  6
Continuous
 62
     7
100
AcDbLine
 10
303.3487264431468
 20
123.7624234079999
 30
0.0
 11
302.3109467421036
 21
123.1632610182431
 31
0.0
  0
LINE
  5
134
330
3F
100
AcDbEntity
  8
1
  6
Continuous
 62
     7
100
AcDbLine
 10
289.3109467421037
 20
145.6799215166385
 30
0.0
 11
290.3487264431468
 21
146.2790839063953
 31
0.0
  0
LINE
  5
135
330
3F
100
AcDbEntity
  8
1
  6
Continuous
 62
     7
100
AcDbLine
 10
300.4352444727472
 20
123.1632610182431
 30
0.0
 11
299.397464771704
 21
123.7624234079999
 31
0.0
  0
LINE
  5
136
330
3F
100
AcDbEntity
  8
1
  6
Continuous
 62
     7
100
AcDbLine
 10
314.3730956074254
 20
144.0555157014397
 30
0.0
 11
314.3730956074254
 21
142.8571909219261
 31
0.0
  0
LINE
  5
137
330
3F
100
AcDbEntity
  8
1
  6
Continuous
 62
     7
100
AcDbLine
 10
128.4231971472875
 20
495.7558716527597
 30
0.0
 11
135.4939113615589
 21
495.7558716527597
 31
0.0
  0
LINE
  5
138
330
3F
100
AcDbEntity
  8
1
  6
Continuous
 62
     7
100
AcDbLine
 10
135.4939113615589
 20
469.7558716527597
 30
0.0
 11
128.4231971472875
 21
469.7558716527597
 31
0.0
  0
LINE
  5
139
330
3F
100
AcDbEntity
  8
1
  6
Continuous
 62
     7
100
AcDbLine
 10
128.4231971472875
 20
482.7558716527597
 30
0.0
 11
128.4231971472875
 21
495.7558716527597
 31
0.0
  0
LINE
  5
13A
330
3F
100
AcDbEntity
  8
1
  6
Continuous
 62
     7
100
AcDbLine
 10
128.4231971472875
 20
482.7558716527597
 30
0.0
 11
128.4231971472875
 21
469.7558716527597
 31
0.0
  0
LINE
  5
13B
330
3F
100
AcDbEntity
  8
1
  6
Continuous
 62
     7
100
AcDbLine
 10
142.4231971472875
 20
487.7558716527597
 30
0.0
 11
142.4231971472875
 21
488.7558716527597
 31
0.0
  0
LINE
  5
13C
330
3F
100
AcDbEntity
  8
1
  6
Continuous
 62
     7
100
AcDbLine
 10
142.4231971472875
 20
482.7558716527597
 30
0.0
 11
142.4231971472875
 21
476.7558716527597
 31
0.0
  0
LINE
  5
13D
330
3F
100
AcDbEntity
  8
1
  6
Continuous
 62
     7
100
AcDbLine
 10
142.4231971472875
 20
482.7558716527597
 30
0.0
 11
142.4231971472875
 21
487.7558716527597
 31
0.0
  0
LINE
  5
13E
330
3F
100
AcDbEntity
  8
1
  6
Continuous
 62
     7
100
AcDbLine
 10
135.9228884354725
 20
137.6328994121072
 30
0.0
 11
135.9228884354725
 21
125.1328994121075
 31
0.0
  0
LINE
  5
13F
330
3F
100
AcDbEntity
  8
1
  6
Continuous
 62
     7
100
AcDbLine
 10
135.9228884354725
 20
150.1328994121072
 30
0.0
 11
135.9228884354725
 21
137.6328994121072
 31
0.0
  0
LINE
  5
140
330
3F
100
AcDbEntity
  8
1
  6
Continuous
 62
     7
100
AcDbLine
 10
128.4228884354725
 20
124.5621851978359
 30
0.0
 11
128.4228884354725
 21
150.7036136263787
 31
0.0
  0
LINE
  5
141
330
3F
100
AcDbEntity
  8
1
  6
Continuous
 62
     7
100
AcDbLine
 10
142.4228884354725
 20
131.6328994121072
 30
0.0
 11
142.4228884354725
 21
143.6328994121072
 31
0.0
  0
ARC
  5
142
330
3F
100
AcDbEntity
  8
1
  6
Continuous
 62
     7
100
AcDbCircle
 10
301.3730956074254
 20
137.6328994121071
 30
0.0
 40
14.5
100
AcDbArc
 50
-93.70844472527053
 51
-90.0
  0
ARC
  5
143
330
3F
100
AcDbEntity
  8
1
  6
Continuous
 62
     7
100
AcDbCircle
 10
301.3730956074254
 20
137.6328994121071
 30
0.0
 40
14.49999999999997
100
AcDbArc
 50
146.2915552747294
 51
153.7084447252705
  0
ARC
  5
144
330
3F
100
AcDbEntity
  8
1
  6
Continuous
 62
     7
100
AcDbCircle
 10
301.3730956074254
 20
137.6328994121071
 30
0.0
 40
14.5
100
AcDbArc
 50
-90.0
 51
-86.29155527472948
  0
ARC
  5
145
330
3F
100
AcDbEntity
  8
1
  6
Continuous
 62
     7
100
AcDbCircle
 10
301.3730956074254
 20
137.6328994121071
 30
0.0
 40
14.50000000000002
100
AcDbArc
 50
26.29155527472953
 51
33.70844472527054
  0
ARC
  5
146
330
3F
100
AcDbEntity
  8
1
  6
Continuous
 62
     7
100
AcDbCircle
 10
131.9231971472875
 20
492.2558716527597
 30
0.0
 40
4.999999999999863
100
AcDbArc
 50
36.86989764584194
 51
44.42700400080598
  0
ARC
  5
147
330
3F
100
AcDbEntity
  8
1
  6
Continuous
 62
     7
100
AcDbCircle
 10
155.8296523524023
 20
508.6623268578744
 30
0.0
 40
23.99999999999988
100
AcDbArc
 50
-146.0408074999023
 51
-123.9591925000975
  0
ARC
  5
148
330
3F
100
AcDbEntity
  8
1
  6
Continuous
 62
     7
100
AcDbCircle
 10
131.9231971472875
 20
473.2558716527597
 30
0.0
 40
4.999999999999975
100
AcDbArc
 50
-44.42700400080598
 51
-36.86989764584402
  0
ARC
  5
149
330
3F
100
AcDbEntity
  8
1
  6
Continuous
 62
     7
100
AcDbCircle
 10
155.8296523524023
 20
456.8494164476447
 30
0.0
 40
23.99999999999997
100
AcDbArc
 50
123.9591925000972
 51
146.0408074999022
  0
ARC
  5
14A
330
3F
100
AcDbEntity
  8
1
  6
Continuous
 62
     7
100
AcDbCircle
 10
155.8293436405874
 20
111.7264442069923
 30
0.0
 40
23.99999999999999
100
AcDbArc
 50
123.9591925000975
 51
146.0408074999019
  0
ARC
  5
14B
330
3F
100
AcDbEntity
  8
1
  6
Continuous
 62
     7
100
AcDbCircle
 10
131.9228884354725
 20
128.1328994121072
 30
0.0
 40
4.999999999999915
100
AcDbArc
 50
-134.4270040008067
 51
-36.86989764584128
  0
ARC
  5
14C
330
3F
100
AcDbEntity
  8
1
  6
Continuous
 62
     7
100
AcDbCircle
 10
155.8293436405874
 20
163.5393546172221
 30
0.0
 40
23.99999999999999
100
AcDbArc
 50
-146.0408074999026
 51
-123.9591925000975
  0
ARC
  5
14D
330
3F
100
AcDbEntity
  8
1
  6
Continuous
 62
     7
100
AcDbCircle
 10
131.9228884354725
 20
147.1328994121072
 30
0.0
 40
5.0
100
AcDbArc
 50
36.86989764584402
 51
134.4270040008051
  0
SPLINE
  5
14E
330
3F
100
AcDbEntity
  8
1
  6
Continuous
 62
     7
100
AcDbSpline
210
0.0
220
0.0
230
1.0
 70
     8
 71
     3
 72
    29
 73
    25
 74
    23
 42
0.0000000001
 43
0.0000000001
 44
0.00000001
 40
0.0
 40
0.0
 40
0.0
 40
0.0
 40
0.6069077131759356
 40
1.212222625822746
 40
1.84266670782675
 40
2.474631900595411
 40
3.102420172365404
 40
3.729333891456407
 40
4.271042939833196
 40
4.812985328221249
 40
5.340107980728504
 40
5.866248927280268
 40
6.263874837343439
 40
6.661485236222601
 40
7.280966497569148
 40
7.902596738528279
 40
8.549168915178939
 40
9.195896772489309
 40
9.722415974179368
 40
10.24911841725722
 40
11.0789753727404
 40
11.90732207846655
 40
12.67331709995046
 40
13.44191271185844
 40
13.44191271185844
 40
13.44191271185844
 40
13.44191271185844
 10
135.4228884354725
 20
137.6328994121072
 30
0.0
 10
135.4130130620102
 20
137.8349592416647
 30
0.0
 10
135.3932882325351
 20
138.2385486043335
 30
0.0
 10
135.329497878482
 20
138.850254154672
 30
0.0
 10
135.1953145811647
 20
139.459671216562
 30
0.0
 10
134.9948589604804
 20
140.0580773920673
 30
0.0
 10
134.7362978436624
 20
140.632639923963
 30
0.0
 10
134.4273684538912
 20
141.1475377216346
 30
0.0
 10
134.0735515293163
 20
141.5965565956329
 30
0.0
 10
133.6855268611532
 20
141.9704981981238
 30
0.0
 10
133.2485964573905
 20
142.277464099584
 30
0.0
 10
132.8083824902902
 20
142.4847727571178
 30
0.0
 10
132.3816733696056
 20
142.6006753453887
 30
0.0
 10
131.9107579271034
 20
142.6513785502831
 30
0.0
 10
131.3617833340593
 20
142.5909222270051
 30
0.0
 10
130.7640372678394
 20
142.3779749952583
 30
0.0
 10
130.2224350218409
 20
142.0307380579122
 30
0.0
 10
129.7818270537032
 20
141.6093803320797
 30
0.0
 10
129.4319531300663
 20
141.1619668418227
 30
0.0
 10
129.1030427470772
 20
140.6261304558999
 30
0.0
 10
128.7993041254501
 20
139.9612394059866
 30
0.0
 10
128.5745342601072
 20
139.1815783445126
 30
0.0
 10
128.4701474546978
 20
138.399172726203
 30
0.0
 10
128.438724975949
 20
137.8886122568405
 30
0.0
 10
128.4229871115595
 20
137.6328994121072
 30
0.0
 11
135.4228884354725
 21
137.6328994121072
 31
0.0
 11
135.3876875697101
 21
138.2387854338654
 31
0.0
 11
135.3193305776259
 21
138.8402282533469
 31
0.0
 11
135.1846540918015
 21
139.456119465088
 31
0.0
 11
134.9845891998565
 21
140.0555809266367
 31
0.0
 11
134.7252079616063
 21
140.6272796999568
 31
0.0
 11
134.4009880068283
 21
141.1638449169699
 31
0.0
 11
134.0643788668472
 21
141.588277455749
 31
0.0
 11
133.6728884354725
 21
141.9630264310295
 31
0.0
 11
133.2405432742539
 21
142.2645823169896
 31
0.0
 11
132.7635408886377
 21
142.4866026308233
 31
0.0
 11
132.379691858508
 21
142.5903633479664
 31
0.0
 11
131.9842803126937
 21
142.6321214457871
 31
0.0
 11
131.3681758584839
 21
142.5675278341657
 31
0.0
 11
130.7822416882071
 21
142.3599096640143
 31
0.0
 11
130.2356400542931
 21
142.0145370631594
 31
0.0
 11
129.7656640742127
 21
141.5702629365565
 31
0.0
 11
129.4401894266415
 21
141.1563925177818
 31
0.0
 11
129.1632839284619
 21
140.7083536705575
 31
0.0
 11
128.8183218402844
 21
139.9535929639199
 31
0.0
 11
128.5896443505381
 21
139.1574366535319
 31
0.0
 11
128.4793242215235
 21
138.3994275229323
 31
0.0
 11
128.4229871115595
 21
137.6328994121072
 31
0.0
  0
SPLINE
  5
14F
330
3F
100
AcDbEntity
  8
1
  6
Continuous
 62
     7
100
AcDbSpline
210
0.0
220
0.0
230
1.0
 70
    11
 71
     3
 72
    79
 73
    75
 74
    73
 42
0.0000000001
 43
0.0000000001
 44
0.00000001
 40
0.0
 40
0.0
 40
0.0
 40
0.0
 40
0.2803981145480124
 40
0.5607977859034066
 40
0.842745484146795
 40
1.124697473048423
 40
1.409536451638048
 40
1.694381500885786
 40
1.983071310125143
 40
2.27176784342284
 40
2.564776142200804
 40
2.857790854546358
 40
3.155055698552766
 40
3.452325978930869
 40
3.753284827389599
 40
4.054247742882492
 40
4.357919806975482
 40
4.661594368328802
 40
4.966700748943323
 40
5.271807969839302
 40
5.576915190735253
 40
5.882021571349774
 40
6.185696132702927
 40
6.48936819679589
 40
6.790331112288916
 40
7.091289960747723
 40
7.388560241125938
 40
7.685825085132376
 40
7.978839797477868
 40
8.271848096255772
 40
8.560544629553421
 40
8.849234438792683
 40
9.134079488040488
 40
9.418918466630133
 40
9.700870455531806
 40
9.982818153775154
 40
10.26321782513055
 40
10.54361593967856
 40
10.82401405422646
 40
11.10441372558188
 40
11.38636142382537
 40
11.66831341272718
 40
11.95315239131674
 40
12.23799744056445
 40
12.52668724980375
 40
12.81538378310145
 40
13.10839208187939
 40
13.40140679422491
 40
13.69867163823128
 40
13.99594191860941
 40
14.29690076706833
 40
14.59786368256135
 40
14.90153574665428
 40
15.20521030800748
 40
15.51031668862198
 40
15.81542390951793
 40
16.12053113041388
 40
16.42563751102841
 40
16.72931207238172
 40
17.03298413647473
 40
17.33394705196768
 40
17.63490590042646
 40
17.93217618080453
 40
18.22944102481082
 40
18.52245573715642
 40
18.8154640359344
 40
19.10416056923213
 40
19.39285037847154
 40
19.67769542771925
 40
19.96253440630873
 40
20.24448639521054
 40
20.52643409345403
 40
20.80683376480945
 40
21.08723187935735
 40
21.08723187935735
 40
21.08723187935735
 40
21.08723187935735
 10
135.4228884354725
 20
148.891229661305
 30
0.0
 10
135.4203070495833
 20
148.9847302043586
 30
0.0
 10
135.4151442634727
 20
149.171731809593
 30
0.0
 10
135.3736719134238
 20
149.4502162228331
 30
0.0
 10
135.307771753031
 20
149.7241584192353
 30
0.0
 10
135.2155396437969
 20
149.9920865845706
 30
0.0
 10
135.098457454438
 20
150.251132372131
 30
0.0
 10
134.9569811728589
 20
150.5002916662839
 30
0.0
 10
134.7926988268658
 20
150.7366016864617
 30
0.0
 10
134.6062386786493
 20
150.9593766803797
 30
0.0
 10
134.399814203712
 20
151.1658327126775
 30
0.0
 10
134.1740965092755
 20
151.3554454563181
 30
0.0
 10
133.9318057109268
 20
151.5258446322438
 30
0.0
 10
133.6737482180869
 20
151.6765574398519
 30
0.0
 10
133.402921014605
 20
151.8057805763773
 30
0.0
 10
133.1204041611084
 20
151.9130602495616
 30
0.0
 10
132.8292161905151
 20
151.9972147531167
 30
0.0
 10
132.5308374176004
 20
152.057858026948
 30
0.0
 10
132.2280764457201
 20
152.0943917892192
 30
0.0
 10
131.9228884354723
 20
152.106610819956
 30
0.0
 10
131.6177004252259
 20
152.0943917892192
 30
0.0
 10
131.3149394533411
 20
152.057858026948
 30
0.0
 10
131.0165606804432
 20
151.9972147531166
 30
0.0
 10
130.7253727097875
 20
151.9130602495616
 30
0.0
 10
130.4428558565225
 20
151.8057805763773
 30
0.0
 10
130.1720286521807
 20
151.6765574398519
 30
0.0
 10
129.9139711625116
 20
151.5258446322438
 30
0.0
 10
129.671680352416
 20
151.3554454563181
 30
0.0
 10
129.4459627012183
 20
151.1658327126776
 30
0.0
 10
129.2395380661916
 20
150.9593766803797
 30
0.0
 10
129.0530785070145
 20
150.7366016864616
 30
0.0
 10
128.8887939793036
 20
150.5002916662837
 30
0.0
 10
128.7473257362337
 20
150.2511323721309
 30
0.0
 10
128.6302137326321
 20
149.9920865845706
 30
0.0
 10
128.538091814159
 20
149.7241584192353
 30
0.0
 10
128.4717820485913
 20
149.4502162228331
 30
0.0
 10
128.4318303834955
 20
149.171731809593
 30
0.0
 10
128.4184174738726
 20
148.891229661305
 30
0.0
 10
128.4318303834956
 20
148.6107275130171
 30
0.0
 10
128.4717820485913
 20
148.332243099777
 30
0.0
 10
128.538091814159
 20
148.0583009033746
 30
0.0
 10
128.6302137326321
 20
147.7903727380393
 30
0.0
 10
128.7473257362337
 20
147.531326950479
 30
0.0
 10
128.8887939793036
 20
147.2821676563262
 30
0.0
 10
129.0530785070146
 20
147.0458576361484
 30
0.0
 10
129.2395380661916
 20
146.8230826422303
 30
0.0
 10
129.4459627012182
 20
146.6166266099322
 30
0.0
 10
129.671680352416
 20
146.4270138662918
 30
0.0
 10
129.9139711625116
 20
146.2566146903661
 30
0.0
 10
130.1720286521808
 20
146.1059018827583
 30
0.0
 10
130.4428558565224
 20
145.9766787462326
 30
0.0
 10
130.7253727097875
 20
145.8693990730483
 30
0.0
 10
131.0165606804432
 20
145.785244569493
 30
0.0
 10
131.3149394533411
 20
145.7246012956619
 30
0.0
 10
131.6177004252259
 20
145.6880675333907
 30
0.0
 10
131.9228884354722
 20
145.675848502654
 30
0.0
 10
132.2280764457202
 20
145.6880675333907
 30
0.0
 10
132.5308374176004
 20
145.7246012956619
 30
0.0
 10
132.8292161905152
 20
145.785244569493
 30
0.0
 10
133.1204041611084
 20
145.8693990730482
 30
0.0
 10
133.402921014605
 20
145.9766787462327
 30
0.0
 10
133.6737482180868
 20
146.1059018827582
 30
0.0
 10
133.9318057109268
 20
146.2566146903662
 30
0.0
 10
134.1740965092756
 20
146.4270138662918
 30
0.0
 10
134.3998142037121
 20
146.6166266099322
 30
0.0
 10
134.6062386786493
 20
146.8230826422303
 30
0.0
 10
134.7926988268658
 20
147.0458576361483
 30
0.0
 10
134.9569811728588
 20
147.2821676563261
 30
0.0
 10
135.0984574544381
 20
147.531326950479
 30
0.0
 10
135.2155396437969
 20
147.7903727380393
 30
0.0
 10
135.3077717530311
 20
148.0583009033747
 30
0.0
 10
135.3736719134238
 20
148.332243099777
 30
0.0
 10
135.4151442634727
 20
148.6107275130171
 30
0.0
 10
135.4203070495833
 20
148.7977291182515
 30
0.0
 10
135.4228884354725
 20
148.891229661305
 30
0.0
 11
135.4228884354725
 21
148.891229661305
 31
0.0
 11
135.4095356501744
 21
149.1713096601747
 31
0.0
 11
135.3697155710153
 21
149.4488674685534
 31
0.0
 11
135.3034559882913
 21
149.7229188729322
 31
0.0
 11
135.2118126082231
 21
149.9895617332065
 31
0.0
 11
135.094564607938
 21
150.2491501577426
 31
0.0
 11
134.9539773487181
 21
150.4968837336381
 31
0.0
 11
134.7892801533661
 21
150.7339842182471
 31
0.0
 11
134.6040439863889
 21
150.9554187475819
 31
0.0
 11
134.3969511094736
 21
151.1627021368915
 31
0.0
 11
134.1726450693753
 21
151.3512344206691
 31
0.0
 11
133.9295502386746
 21
151.5223229672429
 31
0.0
 11
133.6728884354725
 21
151.672304093966
 31
0.0
 11
133.4013002155014
 21
151.8019808738403
 31
0.0
 11
133.1199589371125
 21
151.9088722279175
 31
0.0
 11
132.828241453567
 21
151.9932382892477
 31
0.0
 11
132.5306570573067
 21
152.0537508194835
 31
0.0
 11
132.2277513227725
 21
152.0903297680465
 31
0.0
 11
131.9228884354725
 21
152.1025378059713
 31
0.0
 11
131.6180255481725
 21
152.0903297680465
 31
0.0
 11
131.3151198136383
 21
152.0537508194835
 31
0.0
 11
131.0175354173782
 21
151.9932382892477
 31
0.0
 11
130.7258179338327
 21
151.9088722279175
 31
0.0
 11
130.4444766554436
 21
151.8019808738403
 31
0.0
 11
130.1728884354725
 21
151.672304093966
 31
0.0
 11
129.9162266322703
 21
151.5223229672428
 31
0.0
 11
129.6731318015695
 21
151.3512344206691
 31
0.0
 11
129.4488257614713
 21
151.1627021368915
 31
0.0
 11
129.2417328845561
 21
150.9554187475819
 31
0.0
 11
129.0564967175791
 21
150.7339842182471
 31
0.0
 11
128.8917995222271
 21
150.4968837336381
 31
0.0
 11
128.7512122630071
 21
150.2491501577426
 31
0.0
 11
128.6339642627219
 21
149.9895617332065
 31
0.0
 11
128.5423208826537
 21
149.7229188729322
 31
0.0
 11
128.4760612999297
 21
149.4488674685534
 31
0.0
 11
128.4362412207706
 21
149.1713096601747
 31
0.0
 11
128.4228884354725
 21
148.891229661305
 31
0.0
 11
128.4362412207706
 21
148.6111496624354
 31
0.0
 11
128.4760612999297
 21
148.3335918540567
 31
0.0
 11
128.5423208826537
 21
148.0595404496778
 31
0.0
 11
128.6339642627219
 21
147.7928975894033
 31
0.0
 11
128.7512122630071
 21
147.5333091648674
 31
0.0
 11
128.8917995222271
 21
147.2855755889719
 31
0.0
 11
129.0564967175791
 21
147.0484751043629
 31
0.0
 11
129.2417328845561
 21
146.827040575028
 31
0.0
 11
129.4488257614713
 21
146.6197571857182
 31
0.0
 11
129.6731318015695
 21
146.4312249019407
 31
0.0
 11
129.9162266322703
 21
146.2601363553671
 31
0.0
 11
130.1728884354725
 21
146.1101552286441
 31
0.0
 11
130.4444766554437
 21
145.9804784487697
 31
0.0
 11
130.7258179338327
 21
145.8735870946923
 31
0.0
 11
131.0175354173781
 21
145.789221033362
 31
0.0
 11
131.3151198136383
 21
145.7287085031263
 31
0.0
 11
131.6180255481725
 21
145.6921295545634
 31
0.0
 11
131.9228884354725
 21
145.6799215166387
 31
0.0
 11
132.2277513227725
 21
145.6921295545634
 31
0.0
 11
132.5306570573067
 21
145.7287085031263
 31
0.0
 11
132.828241453567
 21
145.789221033362
 31
0.0
 11
133.1199589371125
 21
145.8735870946923
 31
0.0
 11
133.4013002155014
 21
145.9804784487697
 31
0.0
 11
133.6728884354725
 21
146.1101552286441
 31
0.0
 11
133.9295502386746
 21
146.2601363553671
 31
0.0
 11
134.1726450693753
 21
146.4312249019407
 31
0.0
 11
134.3969511094736
 21
146.6197571857183
 31
0.0
 11
134.6040439863889
 21
146.827040575028
 31
0.0
 11
134.789280153366
 21
147.0484751043629
 31
0.0
 11
134.9539773487181
 21
147.2855755889719
 31
0.0
 11
135.094564607938
 21
147.5333091648674
 31
0.0
 11
135.2118126082231
 21
147.7928975894033
 31
0.0
 11
135.3034559882913
 21
148.0595404496778
 31
0.0
 11
135.3697155710153
 21
148.3335918540567
 31
0.0
 11
135.4095356501744
 21
148.6111496624354
 31
0.0
 11
135.4228884354725
 21
148.891229661305
 31
0.0
  0
SPLINE
  5
150
330
3F
100
AcDbEntity
  8
1
  6
Continuous
 62
     7
100
AcDbSpline
210
0.0
220
0.0
230
1.0
 70
     8
 71
     3
 72
    29
 73
    25
 74
    23
 42
0.0000000001
 43
0.0000000001
 44
0.00000001
 40
0.0
 40
0.0
 40
0.0
 40
0.0
 40
0.6069077131758505
 40
1.212222625822548
 40
1.842666707826552
 40
2.474631900595213
 40
3.102420172365206
 40
3.729333891456208
 40
4.271042939832975
 40
4.812985328221048
 40
5.340107980728287
 40
5.866248927280063
 40
6.263874837343225
 40
6.66148523622239
 40
7.280966497568941
 40
7.902596738528064
 40
8.549168915178699
 40
9.195896772489089
 40
9.722415974179082
 40
10.24911841725681
 40
11.07897537274005
 40
11.90732207846636
 40
12.67331709995018
 40
13.44191271185805
 40
13.44191271185805
 40
13.44191271185805
 40
13.44191271185805
 10
135.4228884354725
 20
137.6328994121072
 30
0.0
 10
135.4130130620102
 20
137.4308395825498
 30
0.0
 10
135.3932882325352
 20
137.027250219881
 30
0.0
 10
135.329497878482
 20
136.4155446695426
 30
0.0
 10
135.1953145811647
 20
135.8061276076527
 30
0.0
 10
134.9948589604803
 20
135.2077214321473
 30
0.0
 10
134.7362978436624
 20
134.6331589002517
 30
0.0
 10
134.4273684538912
 20
134.11826110258
 30
0.0
 10
134.0735515293163
 20
133.6692422285819
 30
0.0
 10
133.6855268611532
 20
133.2953006260908
 30
0.0
 10
133.2485964573905
 20
132.9883347246307
 30
0.0
 10
132.8083824902903
 20
132.7810260670967
 30
0.0
 10
132.3816733696056
 20
132.6651234788259
 30
0.0
 10
131.9107579271034
 20
132.6144202739315
 30
0.0
 10
131.3617833340593
 20
132.6748765972095
 30
0.0
 10
130.7640372678394
 20
132.8878238289563
 30
0.0
 10
130.2224350218409
 20
133.2350607663025
 30
0.0
 10
129.7818270537032
 20
133.6564184921348
 30
0.0
 10
129.4319531300663
 20
134.1038319823919
 30
0.0
 10
129.1030427470772
 20
134.6396683683145
 30
0.0
 10
128.79930412545
 20
135.3045594182279
 30
0.0
 10
128.5745342601072
 20
136.0842204797019
 30
0.0
 10
128.4701474546978
 20
136.8666260980115
 30
0.0
 10
128.438724975949
 20
137.377186567374
 30
0.0
 10
128.4229871115595
 20
137.6328994121072
 30
0.0
 11
135.4228884354725
 21
137.6328994121072
 31
0.0
 11
135.3876875697101
 21
137.0270133903491
 31
0.0
 11
135.3193305776259
 21
136.4255705708677
 31
0.0
 11
135.1846540918015
 21
135.8096793591267
 31
0.0
 11
134.9845891998565
 21
135.2102178975779
 31
0.0
 11
134.7252079616063
 21
134.6385191242578
 31
0.0
 11
134.4009880068283
 21
134.1019539072447
 31
0.0
 11
134.0643788668472
 21
133.6775213684656
 31
0.0
 11
133.6728884354725
 21
133.3027723931851
 31
0.0
 11
133.2405432742539
 21
133.0012165072251
 31
0.0
 11
132.7635408886377
 21
132.7791961933913
 31
0.0
 11
132.379691858508
 21
132.6754354762483
 31
0.0
 11
131.9842803126937
 21
132.6336773784275
 31
0.0
 11
131.3681758584839
 21
132.6982709900489
 31
0.0
 11
130.7822416882071
 21
132.9058891602003
 31
0.0
 11
130.2356400542931
 21
133.2512617610553
 31
0.0
 11
129.7656640742127
 21
133.6955358876581
 31
0.0
 11
129.4401894266415
 21
134.1094063064327
 31
0.0
 11
129.1632839284619
 21
134.5574451536569
 31
0.0
 11
128.8183218402844
 21
135.3122058602945
 31
0.0
 11
128.5896443505381
 21
136.1083621706827
 31
0.0
 11
128.4793242215235
 21
136.8663713012822
 31
0.0
 11
128.4229871115595
 21
137.6328994121072
 31
0.0
  0
SPLINE
  5
151
330
3F
100
AcDbEntity
  8
1
  6
Continuous
 62
     7
100
AcDbSpline
210
0.0
220
0.0
230
1.0
 70
    11
 71
     3
 72
    79
 73
    75
 74
    73
 42
0.0000000001
 43
0.0000000001
 44
0.00000001
 40
0.0
 40
0.0
 40
0.0
 40
0.0
 40
0.280398114547913
 40
0.5607977859032087
 40
0.842745484146708
 40
1.124697473048516
 40
1.409536451638024
 40
1.6943815008857
 40
1.983071310125125
 40
2.271767843422916
 40
2.56477614220083
 40
2.857790854546431
 40
3.155055698552725
 40
3.452325978930777
 40
3.753284827389568
 40
4.054247742882517
 40
4.35791980697553
 40
4.661594368328833
 40
4.966700748943339
 40
5.271807969839315
 40
5.576915190735206
 40
5.882021571349767
 40
6.185696132702995
 40
6.489368196795888
 40
6.790331112288916
 40
7.091289960747835
 40
7.388560241125964
 40
7.685825085132328
 40
7.9788397974778
 40
8.271848096255724
 40
8.560544629553425
 40
8.8492344387928
 40
9.134079488040518
 40
9.418918466630073
 40
9.700870455531881
 40
9.98281815377538
 40
10.26321782513069
 40
10.54361593967859
 40
10.82401405422652
 40
11.10441372558189
 40
11.3863614238255
 40
11.66831341272731
 40
11.95315239131687
 40
12.23799744056458
 40
12.52668724980387
 40
12.81538378310148
 40
13.10839208187947
 40
13.40140679422503
 40
13.69867163823136
 40
13.9959419186094
 40
14.29690076706831
 40
14.59786368256135
 40
14.90153574665428
 40
15.20521030800747
 40
15.510316688622
 40
15.81542390951795
 40
16.1205311304139
 40
16.42563751102844
 40
16.72931207238175
 40
17.03298413647476
 40
17.3339470519677
 40
17.63490590042651
 40
17.93217618080452
 40
18.22944102481074
 40
18.52245573715638
 40
18.8154640359344
 40
19.1041605692321
 40
19.39285037847145
 40
19.67769542771914
 40
19.96253440630864
 40
20.24448639521045
 40
20.52643409345405
 40
20.80683376480943
 40
21.08723187935736
 40
21.08723187935736
 40
21.08723187935736
 40
21.08723187935736
 10
135.4228884354725
 20
126.3745691629095
 30
0.0
 10
135.4203070495833
 20
126.281068619856
 30
0.0
 10
135.4151442634727
 20
126.0940670146216
 30
0.0
 10
135.3736719134238
 20
125.8155826013816
 30
0.0
 10
135.307771753031
 20
125.5416404049792
 30
0.0
 10
135.215539643797
 20
125.2737122396439
 30
0.0
 10
135.098457454438
 20
125.0146664520835
 30
0.0
 10
134.9569811728588
 20
124.7655071579307
 30
0.0
 10
134.7926988268657
 20
124.5291971377529
 30
0.0
 10
134.6062386786494
 20
124.3064221438348
 30
0.0
 10
134.3998142037121
 20
124.0999661115368
 30
0.0
 10
134.1740965092755
 20
123.9103533678964
 30
0.0
 10
133.9318057109268
 20
123.7399541919708
 30
0.0
 10
133.6737482180869
 20
123.5892413843628
 30
0.0
 10
133.402921014605
 20
123.4600182478373
 30
0.0
 10
133.1204041611084
 20
123.3527385746528
 30
0.0
 10
132.8292161905152
 20
123.2685840710976
 30
0.0
 10
132.5308374176003
 20
123.2079407972665
 30
0.0
 10
132.2280764457201
 20
123.1714070349953
 30
0.0
 10
131.9228884354723
 20
123.1591880042587
 30
0.0
 10
131.6177004252259
 20
123.1714070349954
 30
0.0
 10
131.3149394533411
 20
123.2079407972664
 30
0.0
 10
131.0165606804432
 20
123.2685840710976
 30
0.0
 10
130.7253727097874
 20
123.3527385746529
 30
0.0
 10
130.4428558565225
 20
123.4600182478373
 30
0.0
 10
130.1720286521808
 20
123.5892413843628
 30
0.0
 10
129.9139711625116
 20
123.7399541919707
 30
0.0
 10
129.671680352416
 20
123.9103533678963
 30
0.0
 10
129.4459627012181
 20
124.0999661115367
 30
0.0
 10
129.2395380661916
 20
124.3064221438348
 30
0.0
 10
129.0530785070146
 20
124.5291971377529
 30
0.0
 10
128.8887939793036
 20
124.7655071579307
 30
0.0
 10
128.7473257362337
 20
125.0146664520836
 30
0.0
 10
128.630213732632
 20
125.2737122396439
 30
0.0
 10
128.538091814159
 20
125.5416404049792
 30
0.0
 10
128.4717820485913
 20
125.8155826013816
 30
0.0
 10
128.4318303834956
 20
126.0940670146216
 30
0.0
 10
128.4184174738726
 20
126.3745691629095
 30
0.0
 10
128.4318303834956
 20
126.6550713111975
 30
0.0
 10
128.4717820485913
 20
126.9335557244375
 30
0.0
 10
128.5380918141591
 20
127.2074979208399
 30
0.0
 10
128.630213732632
 20
127.4754260861754
 30
0.0
 10
128.7473257362337
 20
127.7344718737357
 30
0.0
 10
128.8887939793036
 20
127.9836311678884
 30
0.0
 10
129.0530785070146
 20
128.2199411880662
 30
0.0
 10
129.2395380661917
 20
128.4427161819843
 30
0.0
 10
129.4459627012181
 20
128.6491722142824
 30
0.0
 10
129.671680352416
 20
128.8387849579229
 30
0.0
 10
129.9139711625116
 20
129.0091841338484
 30
0.0
 10
130.1720286521808
 20
129.1598969414561
 30
0.0
 10
130.4428558565225
 20
129.2891200779816
 30
0.0
 10
130.7253727097874
 20
129.3963997511662
 30
0.0
 10
131.0165606804432
 20
129.4805542547214
 30
0.0
 10
131.3149394533411
 20
129.5411975285525
 30
0.0
 10
131.6177004252259
 20
129.5777312908238
 30
0.0
 10
131.9228884354722
 20
129.5899503215606
 30
0.0
 10
132.2280764457201
 20
129.5777312908238
 30
0.0
 10
132.5308374176003
 20
129.5411975285525
 30
0.0
 10
132.8292161905152
 20
129.4805542547215
 30
0.0
 10
133.1204041611084
 20
129.3963997511662
 30
0.0
 10
133.402921014605
 20
129.2891200779817
 30
0.0
 10
133.6737482180868
 20
129.1598969414562
 30
0.0
 10
133.9318057109268
 20
129.0091841338484
 30
0.0
 10
134.1740965092756
 20
128.8387849579228
 30
0.0
 10
134.3998142037121
 20
128.6491722142823
 30
0.0
 10
134.6062386786492
 20
128.4427161819842
 30
0.0
 10
134.7926988268658
 20
128.2199411880663
 30
0.0
 10
134.9569811728588
 20
127.9836311678884
 30
0.0
 10
135.098457454438
 20
127.7344718737357
 30
0.0
 10
135.215539643797
 20
127.4754260861754
 30
0.0
 10
135.307771753031
 20
127.2074979208399
 30
0.0
 10
135.3736719134238
 20
126.9335557244375
 30
0.0
 10
135.4151442634727
 20
126.6550713111975
 30
0.0
 10
135.4203070495833
 20
126.468069705963
 30
0.0
 10
135.4228884354725
 20
126.3745691629095
 30
0.0
 11
135.4228884354725
 21
126.3745691629095
 31
0.0
 11
135.4095356501744
 21
126.0944891640399
 31
0.0
 11
135.3697155710153
 21
125.8169313556613
 31
0.0
 11
135.3034559882913
 21
125.5428799512824
 31
0.0
 11
135.2118126082231
 21
125.2762370910079
 31
0.0
 11
135.094564607938
 21
125.016648666472
 31
0.0
 11
134.9539773487181
 21
124.7689150905765
 31
0.0
 11
134.789280153366
 21
124.5318146059674
 31
0.0
 11
134.6040439863889
 21
124.3103800766325
 31
0.0
 11
134.3969511094736
 21
124.1030966873229
 31
0.0
 11
134.1726450693753
 21
123.9145644035453
 31
0.0
 11
133.9295502386746
 21
123.7434758569717
 31
0.0
 11
133.6728884354725
 21
123.5934947302487
 31
0.0
 11
133.4013002155014
 21
123.4638179503743
 31
0.0
 11
133.1199589371125
 21
123.3569265962969
 31
0.0
 11
132.828241453567
 21
123.2725605349666
 31
0.0
 11
132.5306570573067
 21
123.2120480047309
 31
0.0
 11
132.2277513227725
 21
123.175469056168
 31
0.0
 11
131.9228884354725
 21
123.1632610182433
 31
0.0
 11
131.6180255481726
 21
123.175469056168
 31
0.0
 11
131.3151198136383
 21
123.2120480047309
 31
0.0
 11
131.0175354173781
 21
123.2725605349667
 31
0.0
 11
130.7258179338327
 21
123.3569265962969
 31
0.0
 11
130.4444766554437
 21
123.4638179503743
 31
0.0
 11
130.1728884354725
 21
123.5934947302487
 31
0.0
 11
129.9162266322703
 21
123.7434758569717
 31
0.0
 11
129.6731318015695
 21
123.9145644035453
 31
0.0
 11
129.4488257614713
 21
124.1030966873228
 31
0.0
 11
129.2417328845561
 21
124.3103800766325
 31
0.0
 11
129.0564967175791
 21
124.5318146059674
 31
0.0
 11
128.8917995222271
 21
124.7689150905765
 31
0.0
 11
128.7512122630071
 21
125.016648666472
 31
0.0
 11
128.6339642627219
 21
125.2762370910079
 31
0.0
 11
128.5423208826537
 21
125.5428799512824
 31
0.0
 11
128.4760612999297
 21
125.8169313556613
 31
0.0
 11
128.4362412207706
 21
126.0944891640399
 31
0.0
 11
128.4228884354725
 21
126.3745691629095
 31
0.0
 11
128.4362412207706
 21
126.6546491617791
 31
0.0
 11
128.4760612999297
 21
126.9322069701578
 31
0.0
 11
128.5423208826537
 21
127.2062583745368
 31
0.0
 11
128.6339642627219
 21
127.4729012348113
 31
0.0
 11
128.7512122630071
 21
127.7324896593473
 31
0.0
 11
128.8917995222271
 21
127.9802232352427
 31
0.0
 11
129.0564967175791
 21
128.2173237198516
 31
0.0
 11
129.2417328845561
 21
128.4387582491865
 31
0.0
 11
129.4488257614712
 21
128.6460416384963
 31
0.0
 11
129.6731318015695
 21
128.8345739222739
 31
0.0
 11
129.9162266322703
 21
129.0056624688474
 31
0.0
 11
130.1728884354725
 21
129.1556435955703
 31
0.0
 11
130.4444766554437
 21
129.2853203754447
 31
0.0
 11
130.7258179338327
 21
129.3922117295221
 31
0.0
 11
131.0175354173781
 21
129.4765777908524
 31
0.0
 11
131.3151198136383
 21
129.5370903210881
 31
0.0
 11
131.6180255481725
 21
129.5736692696511
 31
0.0
 11
131.9228884354725
 21
129.5858773075759
 31
0.0
 11
132.2277513227725
 21
129.5736692696511
 31
0.0
 11
132.5306570573067
 21
129.5370903210881
 31
0.0
 11
132.828241453567
 21
129.4765777908524
 31
0.0
 11
133.1199589371125
 21
129.3922117295221
 31
0.0
 11
133.4013002155014
 21
129.2853203754447
 31
0.0
 11
133.6728884354725
 21
129.1556435955703
 31
0.0
 11
133.9295502386746
 21
129.0056624688474
 31
0.0
 11
134.1726450693753
 21
128.8345739222739
 31
0.0
 11
134.3969511094736
 21
128.6460416384963
 31
0.0
 11
134.6040439863889
 21
128.4387582491865
 31
0.0
 11
134.789280153366
 21
128.2173237198517
 31
0.0
 11
134.9539773487181
 21
127.9802232352427
 31
0.0
 11
135.094564607938
 21
127.7324896593473
 31
0.0
 11
135.2118126082231
 21
127.4729012348113
 31
0.0
 11
135.3034559882913
 21
127.2062583745368
 31
0.0
 11
135.3697155710153
 21
126.9322069701578
 31
0.0
 11
135.4095356501744
 21
126.6546491617791
 31
0.0
 11
135.4228884354725
 21
126.3745691629095
 31
0.0
  0
SPLINE
  5
152
330
3F
100
AcDbEntity
  8
1
  6
Continuous
 62
     7
100
AcDbSpline
210
0.0
220
0.0
230
1.0
 70
    11
 71
     3
 72
    79
 73
    75
 74
    73
 42
0.0000000001
 43
0.0000000001
 44
0.00000001
 40
0.0
 40
0.0
 40
0.0
 40
0.0
 40
0.3102615659794613
 40
0.6205595479395663
 40
0.9422163027418615
 40
1.26394487761031
 40
1.606039025452173
 40
1.948193473341589
 40
2.316051889495272
 40
2.683951052454355
 40
3.079084668228948
 40
3.474244784278754
 40
3.894897963282873
 40
4.315568211551539
 40
4.75745213078342
 40
5.199346678283914
 40
5.656354166028306
 40
6.113367482701087
 40
6.57822304178016
 40
7.043080459895748
 40
7.507937878011052
 40
7.97279343709001
 40
8.429806753762843
 40
8.886814241507354
 40
9.328708789007628
 40
9.770592708239295
 40
10.19126295650821
 40
10.61191613551249
 40
11.00707625156216
 40
11.4022098673367
 40
11.77010903029592
 40
12.1379674464496
 40
12.48012189433883
 40
12.8222160421806
 40
13.14394461704905
 40
13.46560137185138
 40
13.77589935381149
 40
14.08616091979095
 40
14.3964224857703
 40
14.7067204677303
 40
15.02837722253256
 40
15.35010579740109
 40
15.69219994524278
 40
16.03435439313203
 40
16.40221280928574
 40
16.77011197224499
 40
17.1652455880195
 40
17.56040570406915
 40
17.98105888307351
 40
18.40172913134239
 40
18.84361305057401
 40
19.28550759807427
 40
19.74251508581878
 40
20.19952840249163
 40
20.66438396157053
 40
21.12924137968589
 40
21.59409879780143
 40
22.05895435688056
 40
22.51596767355335
 40
22.97297516129775
 40
23.41486970879829
 40
23.85675362803007
 40
24.27742387629874
 40
24.69807705530289
 40
25.09323717135263
 40
25.48837078712724
 40
25.8562699500864
 40
26.22412836624007
 40
26.56628281412946
 40
26.90837696197127
 40
27.23010553683974
 40
27.55176229164201
 40
27.86206027360201
 40
28.17232183958136
 40
28.17232183958136
 40
28.17232183958136
 40
28.17232183958136
 10
131.9585542544231
 20
481.8180205180812
 30
0.0
 10
132.0620444389317
 20
481.8139873262643
 30
0.0
 10
132.2690369547858
 20
481.8059204692474
 30
0.0
 10
132.5778858240779
 20
481.741936491292
 30
0.0
 10
132.8798527367293
 20
481.6405156943426
 30
0.0
 10
133.1767623922809
 20
481.4980931941792
 30
0.0
 10
133.4610805002525
 20
481.3189906212587
 30
0.0
 10
133.7365815462358
 20
481.1010203533121
 30
0.0
 10
133.9951875666524
 20
480.8507381992046
 30
0.0
 10
134.2409454560543
 20
480.56427603738
 30
0.0
 10
134.4665907160775
 20
480.2504452850527
 30
0.0
 10
134.6753623838222
 20
479.9045311199902
 30
0.0
 10
134.8615831519783
 20
479.5364123278161
 30
0.0
 10
135.0272676822298
 20
479.1417183928811
 30
0.0
 10
135.1685754550031
 20
478.7301651928948
 30
0.0
 10
135.2863549435139
 20
478.2987394932889
 30
0.0
 10
135.3784732451001
 20
477.8559654645688
 30
0.0
 10
135.4449591724475
 20
477.4009074659669
 30
0.0
 10
135.4850167293168
 20
476.9401403638785
 30
0.0
 10
135.4983586865727
 20
476.4752181884404
 30
0.0
 10
135.4850167293168
 20
476.0102960130063
 30
0.0
 10
135.4449591724474
 20
475.5495289109065
 30
0.0
 10
135.3784732451002
 20
475.0944709123463
 30
0.0
 10
135.286354943514
 20
474.6516968834727
 30
0.0
 10
135.1685754550031
 20
474.2202711844217
 30
0.0
 10
135.0272676822297
 20
473.808717982413
 30
0.0
 10
134.8615831519784
 20
473.4140240546797
 30
0.0
 10
134.6753623838223
 20
473.0459052364464
 30
0.0
 10
134.4665907160774
 20
472.6999911630115
 30
0.0
 10
134.2409454560543
 20
472.3861600810623
 30
0.0
 10
133.9951875666525
 20
472.0996990685781
 30
0.0
 10
133.7365815462358
 20
471.8494127894948
 30
0.0
 10
133.4610805002524
 20
471.6314568914786
 30
0.0
 10
133.1767623922809
 20
471.4523025777321
 30
0.0
 10
132.8798527367293
 20
471.3100622263385
 30
0.0
 10
132.5778858240779
 20
471.2079785742943
 30
0.0
 10
132.2690369547858
 20
471.146385334364
 30
0.0
 10
131.9585542544232
 20
471.125431530902
 30
0.0
 10
131.6480715540606
 20
471.146385334364
 30
0.0
 10
131.3392226847685
 20
471.2079785742945
 30
0.0
 10
131.0372557721171
 20
471.3100622263384
 30
0.0
 10
130.7403461165657
 20
471.452302577732
 30
0.0
 10
130.456028008594
 20
471.6314568914787
 30
0.0
 10
130.1805269626107
 20
471.8494127894948
 30
0.0
 10
129.921920942194
 20
472.0996990685781
 30
0.0
 10
129.6761630527922
 20
472.3861600810622
 30
0.0
 10
129.4505177927691
 20
472.6999911630116
 30
0.0
 10
129.2417461250242
 20
473.0459052364463
 30
0.0
 10
129.0555253568681
 20
473.4140240546797
 30
0.0
 10
128.8898408266167
 20
473.808717982413
 30
0.0
 10
128.7485330538435
 20
474.2202711844217
 30
0.0
 10
128.6307535653326
 20
474.6516968834727
 30
0.0
 10
128.5386352637465
 20
475.0944709123463
 30
0.0
 10
128.472149336399
 20
475.5495289109064
 30
0.0
 10
128.4320917795297
 20
476.0102960130064
 30
0.0
 10
128.4187498222737
 20
476.4752181884404
 30
0.0
 10
128.4320917795297
 20
476.9401403638784
 30
0.0
 10
128.472149336399
 20
477.400907465967
 30
0.0
 10
128.5386352637464
 20
477.8559654645687
 30
0.0
 10
128.6307535653326
 20
478.2987394932887
 30
0.0
 10
128.7485330538435
 20
478.7301651928948
 30
0.0
 10
128.8898408266166
 20
479.1417183928809
 30
0.0
 10
129.0555253568681
 20
479.5364123278162
 30
0.0
 10
129.2417461250244
 20
479.9045311199901
 30
0.0
 10
129.450517792769
 20
480.2504452850525
 30
0.0
 10
129.6761630527921
 20
480.5642760373802
 30
0.0
 10
129.921920942194
 20
480.8507381992047
 30
0.0
 10
130.1805269626108
 20
481.101020353312
 30
0.0
 10
130.456028008594
 20
481.3189906212589
 30
0.0
 10
130.7403461165656
 20
481.4980931941789
 30
0.0
 10
131.0372557721171
 20
481.6405156943429
 30
0.0
 10
131.3392226847685
 20
481.741936491292
 30
0.0
 10
131.6480715540606
 20
481.8059204692474
 30
0.0
 10
131.8550640699144
 20
481.8139873262643
 30
0.0
 10
131.9585542544231
 20
481.8180205180812
 30
0.0
 11
131.9585542544231
 21
481.8180205180812
 31
0.0
 11
132.2681300525598
 21
481.7974034248804
 31
0.0
 11
132.5724625734791
 21
481.7368513454825
 31
0.0
 11
132.8773619087425
 21
481.6343844568507
 31
0.0
 11
133.1677175989131
 21
481.4958101119219
 31
0.0
 11
133.4575107296047
 21
481.3140180675645
 31
0.0
 11
133.7262328079912
 21
481.1022207333081
 31
0.0
 11
133.9910211517601
 21
480.8468642230343
 31
0.0
 11
134.2310379987073
 21
480.5680422237453
 31
0.0
 11
134.4621559310326
 21
480.2475502961203
 31
0.0
 11
134.6667949207857
 21
479.9095053269382
 31
0.0
 11
134.8570612533768
 21
479.5343416030941
 31
0.0
 11
135.0202633206525
 21
479.1466193532613
 31
0.0
 11
135.1640485912346
 21
478.7287830288
 31
0.0
 11
135.2807032398417
 21
478.3025642069854
 31
0.0
 11
135.3739666415411
 21
477.8551742408955
 31
0.0
 11
135.4402013431973
 21
477.4029860766179
 31
0.0
 11
135.480526331964
 21
476.9398828634054
 31
0.0
 11
135.4939113615589
 21
476.475218188441
 31
0.0
 11
135.480526331964
 21
476.0105535134768
 31
0.0
 11
135.4402013431973
 21
475.5474503002645
 31
0.0
 11
135.3739666415411
 21
475.0952621359868
 31
0.0
 11
135.2807032398417
 21
474.6478721698968
 31
0.0
 11
135.1640485912346
 21
474.2216533480824
 31
0.0
 11
135.0202633206525
 21
473.8038170236213
 31
0.0
 11
134.8570612533768
 21
473.4160947737883
 31
0.0
 11
134.6667949207857
 21
473.040931049944
 31
0.0
 11
134.4621559310326
 21
472.7028860807621
 31
0.0
 11
134.2310379987073
 21
472.3823941531371
 31
0.0
 11
133.9910211517601
 21
472.103572153848
 31
0.0
 11
133.7262328079912
 21
471.8482156435741
 31
0.0
 11
133.4575107296046
 21
471.6364183093181
 31
0.0
 11
133.1677175989131
 21
471.4546262649608
 31
0.0
 11
132.8773619087425
 21
471.316051920032
 31
0.0
 11
132.5724625734791
 21
471.2135850314001
 31
0.0
 11
132.2681300525598
 21
471.1530329520022
 31
0.0
 11
131.9585542544231
 21
471.1324158588013
 31
0.0
 11
131.6489784562865
 21
471.1530329520022
 31
0.0
 11
131.3446459353673
 21
471.2135850314001
 31
0.0
 11
131.0397466001039
 21
471.3160519200319
 31
0.0
 11
130.7493909099333
 21
471.4546262649608
 31
0.0
 11
130.4595977792418
 21
471.636418309318
 31
0.0
 11
130.1908757008553
 21
471.8482156435741
 31
0.0
 11
129.9260873570864
 21
472.103572153848
 31
0.0
 11
129.6860705101391
 21
472.3823941531371
 31
0.0
 11
129.4549525778139
 21
472.7028860807621
 31
0.0
 11
129.2503135880608
 21
473.040931049944
 31
0.0
 11
129.0600472554696
 21
473.4160947737884
 31
0.0
 11
128.8968451881939
 21
473.8038170236213
 31
0.0
 11
128.753059917612
 21
474.2216533480824
 31
0.0
 11
128.6364052690049
 21
474.6478721698968
 31
0.0
 11
128.5431418673055
 21
475.0952621359868
 31
0.0
 11
128.4769071656492
 21
475.5474503002645
 31
0.0
 11
128.4365821768825
 21
476.0105535134767
 31
0.0
 11
128.4231971472875
 21
476.475218188441
 31
0.0
 11
128.4365821768825
 21
476.9398828634054
 31
0.0
 11
128.4769071656492
 21
477.4029860766179
 31
0.0
 11
128.5431418673055
 21
477.8551742408955
 31
0.0
 11
128.6364052690049
 21
478.3025642069854
 31
0.0
 11
128.753059917612
 21
478.7287830288
 31
0.0
 11
128.8968451881939
 21
479.1466193532613
 31
0.0
 11
129.0600472554696
 21
479.5343416030941
 31
0.0
 11
129.2503135880608
 21
479.9095053269382
 31
0.0
 11
129.4549525778139
 21
480.2475502961202
 31
0.0
 11
129.6860705101391
 21
480.5680422237453
 31
0.0
 11
129.9260873570864
 21
480.8468642230343
 31
0.0
 11
130.1908757008553
 21
481.1022207333081
 31
0.0
 11
130.4595977792418
 21
481.3140180675645
 31
0.0
 11
130.7493909099333
 21
481.4958101119219
 31
0.0
 11
131.0397466001039
 21
481.6343844568507
 31
0.0
 11
131.3446459353673
 21
481.7368513454825
 31
0.0
 11
131.6489784562865
 21
481.7974034248804
 31
0.0
 11
131.9585542544231
 21
481.8180205180812
 31
0.0
  0
SPLINE
  5
153
330
3F
100
AcDbEntity
  8
1
  6
Continuous
 62
     7
100
AcDbSpline
210
0.0
220
0.0
230
1.0
 70
    11
 71
     3
 72
    79
 73
    75
 74
    73
 42
0.0000000001
 43
0.0000000001
 44
0.00000001
 40
0.0
 40
0.0
 40
0.0
 40
0.0
 40
0.3102615659794897
 40
0.6205595479395668
 40
0.9422163027418806
 40
1.26394487761043
 40
1.606039025452148
 40
1.94819347334141
 40
2.316051889495211
 40
2.683951052454552
 40
3.07908466822902
 40
3.474244784278564
 40
3.894897963282797
 40
4.315568211551557
 40
4.757452130783537
 40
5.199346678284038
 40
5.656354166028375
 40
6.113367482701101
 40
6.578223041780117
 40
7.04308045989542
 40
7.507937878010725
 40
7.972793437089682
 40
8.429806753762628
 40
8.886814241507249
 40
9.328708789007735
 40
9.770592708239517
 40
10.19126295650818
 40
10.61191613551225
 40
11.00707625156191
 40
11.40220986733646
 40
11.77010903029583
 40
12.13796744644961
 40
12.48012189433887
 40
12.82221604218065
 40
13.1439446170492
 40
13.46560137185148
 40
13.77589935381156
 40
14.08616091979105
 40
14.39642248577039
 40
14.70672046773039
 40
15.02837722253264
 40
15.35010579740121
 40
15.69219994524299
 40
16.03435439313218
 40
16.40221280928604
 40
16.77011197224538
 40
17.16524558801988
 40
17.56040570406953
 40
17.98105888307369
 40
18.40172913134231
 40
18.84361305057405
 40
19.28550759807452
 40
19.74251508581914
 40
20.1995284024921
 40
20.66438396157101
 40
21.12924137968637
 40
21.59409879780173
 40
22.05895435688069
 40
22.51596767355337
 40
22.97297516129778
 40
23.41486970879837
 40
23.8567536280302
 40
24.27742387629897
 40
24.69807705530323
 40
25.0932371713527
 40
25.4883707871272
 40
25.85626995008657
 40
26.2241283662404
 40
26.56628281412958
 40
26.9083769619713
 40
27.23010553683988
 40
27.55176229164217
 40
27.86206027360217
 40
28.17232183958151
 40
28.17232183958151
 40
28.17232183958151
 40
28.17232183958151
 10
131.9585542544231
 20
483.6937227874379
 30
0.0
 10
132.0620444389318
 20
483.6977559792546
 30
0.0
 10
132.2690369547858
 20
483.7058228362715
 30
0.0
 10
132.5778858240779
 20
483.7698068142271
 30
0.0
 10
132.8798527367293
 20
483.8712276111766
 30
0.0
 10
133.1767623922808
 20
484.0136501113404
 30
0.0
 10
133.4610805002524
 20
484.1927526842604
 30
0.0
 10
133.7365815462359
 20
484.4107229522069
 30
0.0
 10
133.9951875666525
 20
484.6610051063145
 30
0.0
 10
134.2409454560542
 20
484.9474672681392
 30
0.0
 10
134.4665907160774
 20
485.2612980204668
 30
0.0
 10
134.6753623838223
 20
485.6072121855289
 30
0.0
 10
134.8615831519784
 20
485.9753309777029
 30
0.0
 10
135.0272676822299
 20
486.3700249126382
 30
0.0
 10
135.168575455003
 20
486.7815781126245
 30
0.0
 10
135.286354943514
 20
487.2130038122305
 30
0.0
 10
135.3784732451001
 20
487.6557778409505
 30
0.0
 10
135.4449591724474
 20
488.1108358395524
 30
0.0
 10
135.4850167293168
 20
488.5716029416407
 30
0.0
 10
135.4983586865727
 20
489.0365251170786
 30
0.0
 10
135.4850167293167
 20
489.5014472925124
 30
0.0
 10
135.4449591724475
 20
489.9622143946125
 30
0.0
 10
135.3784732451001
 20
490.4172723931727
 30
0.0
 10
135.286354943514
 20
490.8600464220464
 30
0.0
 10
135.1685754550032
 20
491.2914721210976
 30
0.0
 10
135.0272676822298
 20
491.7030253231065
 30
0.0
 10
134.8615831519784
 20
492.0977192508395
 30
0.0
 10
134.6753623838222
 20
492.4658380690727
 30
0.0
 10
134.4665907160774
 20
492.8117521425074
 30
0.0
 10
134.2409454560542
 20
493.1255832244568
 30
0.0
 10
133.9951875666525
 20
493.412044236941
 30
0.0
 10
133.7365815462359
 20
493.6623305160244
 30
0.0
 10
133.4610805002524
 20
493.8802864140406
 30
0.0
 10
133.1767623922808
 20
494.0594407277872
 30
0.0
 10
132.8798527367293
 20
494.201681079181
 30
0.0
 10
132.5778858240779
 20
494.3037647312252
 30
0.0
 10
132.2690369547857
 20
494.3653579711552
 30
0.0
 10
131.9585542544232
 20
494.3863117746175
 30
0.0
 10
131.6480715540606
 20
494.3653579711553
 30
0.0
 10
131.3392226847685
 20
494.3037647312252
 30
0.0
 10
131.0372557721171
 20
494.2016810791808
 30
0.0
 10
130.7403461165656
 20
494.0594407277874
 30
0.0
 10
130.4560280085941
 20
493.8802864140405
 30
0.0
 10
130.1805269626106
 20
493.6623305160245
 30
0.0
 10
129.921920942194
 20
493.4120442369409
 30
0.0
 10
129.6761630527923
 20
493.1255832244569
 30
0.0
 10
129.450517792769
 20
492.8117521425071
 30
0.0
 10
129.2417461250243
 20
492.4658380690727
 30
0.0
 10
129.0555253568681
 20
492.0977192508395
 30
0.0
 10
128.8898408266167
 20
491.7030253231065
 30
0.0
 10
128.7485330538434
 20
491.2914721210974
 30
0.0
 10
128.6307535653326
 20
490.8600464220464
 30
0.0
 10
128.5386352637464
 20
490.4172723931726
 30
0.0
 10
128.4721493363991
 20
489.9622143946126
 30
0.0
 10
128.4320917795297
 20
489.5014472925124
 30
0.0
 10
128.4187498222736
 20
489.0365251170784
 30
0.0
 10
128.4320917795297
 20
488.5716029416407
 30
0.0
 10
128.472149336399
 20
488.1108358395522
 30
0.0
 10
128.5386352637465
 20
487.6557778409504
 30
0.0
 10
128.6307535653326
 20
487.2130038122305
 30
0.0
 10
128.7485330538435
 20
486.7815781126246
 30
0.0
 10
128.8898408266166
 20
486.3700249126381
 30
0.0
 10
129.0555253568682
 20
485.975330977703
 30
0.0
 10
129.2417461250241
 20
485.6072121855289
 30
0.0
 10
129.4505177927692
 20
485.2612980204667
 30
0.0
 10
129.6761630527922
 20
484.9474672681395
 30
0.0
 10
129.9219209421941
 20
484.6610051063144
 30
0.0
 10
130.1805269626106
 20
484.410722952207
 30
0.0
 10
130.456028008594
 20
484.1927526842603
 30
0.0
 10
130.7403461165657
 20
484.0136501113406
 30
0.0
 10
131.0372557721171
 20
483.8712276111765
 30
0.0
 10
131.3392226847685
 20
483.7698068142271
 30
0.0
 10
131.6480715540606
 20
483.7058228362716
 30
0.0
 10
131.8550640699145
 20
483.6977559792547
 30
0.0
 10
131.9585542544231
 20
483.6937227874379
 30
0.0
 11
131.9585542544231
 21
483.6937227874379
 31
0.0
 11
132.2681300525598
 21
483.7143398806387
 31
0.0
 11
132.5724625734791
 21
483.7748919600366
 31
0.0
 11
132.8773619087424
 21
483.8773588486686
 31
0.0
 11
133.1677175989131
 21
484.0159331935975
 31
0.0
 11
133.4575107296046
 21
484.1977252379547
 31
0.0
 11
133.7262328079912
 21
484.4095225722108
 31
0.0
 11
133.9910211517601
 21
484.6648790824848
 31
0.0
 11
134.2310379987073
 21
484.9437010817741
 31
0.0
 11
134.4621559310325
 21
485.264193009399
 31
0.0
 11
134.6667949207857
 21
485.6022379785808
 31
0.0
 11
134.8570612533768
 21
485.977401702425
 31
0.0
 11
135.0202633206525
 21
486.3651239522579
 31
0.0
 11
135.1640485912346
 21
486.7829602767193
 31
0.0
 11
135.2807032398417
 21
487.2091790985339
 31
0.0
 11
135.3739666415411
 21
487.6565690646237
 31
0.0
 11
135.4402013431973
 21
488.1087572289013
 31
0.0
 11
135.480526331964
 21
488.5718604421137
 31
0.0
 11
135.4939113615589
 21
489.0365251170779
 31
0.0
 11
135.480526331964
 21
489.5011897920421
 31
0.0
 11
135.4402013431973
 21
489.9642930052544
 31
0.0
 11
135.3739666415411
 21
490.4164811695322
 31
0.0
 11
135.2807032398417
 21
490.8638711356223
 31
0.0
 11
135.1640485912346
 21
491.2900899574369
 31
0.0
 11
135.0202633206525
 21
491.7079262818981
 31
0.0
 11
134.8570612533768
 21
492.0956485317308
 31
0.0
 11
134.6667949207857
 21
492.4708122555749
 31
0.0
 11
134.4621559310326
 21
492.8088572247568
 31
0.0
 11
134.2310379987073
 21
493.1293491523818
 31
0.0
 11
133.9910211517601
 21
493.4081711516712
 31
0.0
 11
133.7262328079912
 21
493.6635276619451
 31
0.0
 11
133.4575107296046
 21
493.8753249962012
 31
0.0
 11
133.1677175989131
 21
494.0571170405585
 31
0.0
 11
132.8773619087425
 21
494.1956913854875
 31
0.0
 11
132.5724625734791
 21
494.2981582741193
 31
0.0
 11
132.2681300525598
 21
494.3587103535173
 31
0.0
 11
131.9585542544231
 21
494.379327446718
 31
0.0
 11
131.6489784562865
 21
494.3587103535173
 31
0.0
 11
131.3446459353673
 21
494.2981582741193
 31
0.0
 11
131.039746600104
 21
494.1956913854874
 31
0.0
 11
130.7493909099333
 21
494.0571170405585
 31
0.0
 11
130.4595977792418
 21
493.8753249962012
 31
0.0
 11
130.1908757008553
 21
493.6635276619451
 31
0.0
 11
129.9260873570863
 21
493.4081711516711
 31
0.0
 11
129.6860705101391
 21
493.1293491523818
 31
0.0
 11
129.4549525778139
 21
492.8088572247568
 31
0.0
 11
129.2503135880608
 21
492.4708122555749
 31
0.0
 11
129.0600472554696
 21
492.0956485317308
 31
0.0
 11
128.8968451881939
 21
491.7079262818981
 31
0.0
 11
128.753059917612
 21
491.2900899574369
 31
0.0
 11
128.6364052690049
 21
490.8638711356223
 31
0.0
 11
128.5431418673055
 21
490.4164811695322
 31
0.0
 11
128.4769071656492
 21
489.9642930052544
 31
0.0
 11
128.4365821768825
 21
489.5011897920421
 31
0.0
 11
128.4231971472875
 21
489.0365251170779
 31
0.0
 11
128.4365821768825
 21
488.5718604421136
 31
0.0
 11
128.4769071656492
 21
488.1087572289013
 31
0.0
 11
128.5431418673055
 21
487.6565690646238
 31
0.0
 11
128.6364052690049
 21
487.2091790985339
 31
0.0
 11
128.753059917612
 21
486.7829602767192
 31
0.0
 11
128.8968451881939
 21
486.3651239522579
 31
0.0
 11
129.0600472554696
 21
485.977401702425
 31
0.0
 11
129.2503135880608
 21
485.6022379785808
 31
0.0
 11
129.4549525778139
 21
485.2641930093991
 31
0.0
 11
129.6860705101391
 21
484.9437010817741
 31
0.0
 11
129.9260873570864
 21
484.6648790824848
 31
0.0
 11
130.1908757008553
 21
484.4095225722108
 31
0.0
 11
130.4595977792418
 21
484.1977252379547
 31
0.0
 11
130.7493909099333
 21
484.0159331935975
 31
0.0
 11
131.039746600104
 21
483.8773588486686
 31
0.0
 11
131.3446459353673
 21
483.7748919600366
 31
0.0
 11
131.6489784562865
 21
483.7143398806387
 31
0.0
 11
131.9585542544231
 21
483.6937227874379
 31
0.0
  0
ENDBLK
  5
41
330
3F
100
AcDbEntity
  8
0
100
AcDbBlockEnd
  0
BLOCK
  5
43
330
42
100
AcDbEntity
  8
0
100
AcDbBlockBegin
  2
32-1-16__1
 70
     0
 71
     0
 10
294.0200516346255
 20
396.6337391120696
 30
0.0
  3
32-1-16__1
  1

  0
LINE
  5
154
330
42
100
AcDbEntity
  8
1
  6
Continuous
 62
     7
100
AcDbLine
 10
94.29319714728752
 20
172.6328994121073
 30
0.0
 11
93.2252479548564
 21
172.6328994121073
 31
0.0
  0
LINE
  5
155
330
42
100
AcDbEntity
  8
1
  6
Continuous
 62
     7
100
AcDbLine
 10
89.80619714728752
 20
162.6328994121072
 30
0.0
 11
89.69319714728761
 21
162.6328994121072
 31
0.0
  0
LINE
  5
156
330
42
100
AcDbEntity
  8
1
  6
Continuous
 62
     7
100
AcDbLine
 10
91.43517608555692
 20
171.6328994121072
 30
0.0
 11
91.49319714728762
 21
171.6328994121074
 31
0.0
  0
LINE
  5
157
330
42
100
AcDbEntity
  8
1
  6
Continuous
 62
     7
100
AcDbLine
 10
116.2931971472875
 20
162.6328994121072
 30
0.0
 11
116.1801971472876
 21
162.6328994121072
 31
0.0
  0
LINE
  5
158
330
42
100
AcDbEntity
  8
1
  6
Continuous
 62
     7
100
AcDbLine
 10
112.7611463397187
 20
172.6328994121073
 30
0.0
 11
111.6931971472875
 21
172.6328994121073
 31
0.0
  0
LINE
  5
159
330
42
100
AcDbEntity
  8
1
  6
Continuous
 62
     7
100
AcDbLine
 10
114.4931971472876
 20
171.6328994121074
 30
0.0
 11
114.5512182090182
 21
171.6328994121072
 31
0.0
  0
LINE
  5
15A
330
42
100
AcDbEntity
  8
1
  6
Continuous
 62
     7
100
AcDbLine
 10
110.9931971472876
 20
172.6328994121073
 30
0.0
 11
111.6931971472875
 21
172.6328994121073
 31
0.0
  0
LINE
  5
15B
330
42
100
AcDbEntity
  8
1
  6
Continuous
 62
     7
100
AcDbLine
 10
94.29319714728752
 20
172.6328994121073
 30
0.0
 11
110.9931971472876
 21
172.6328994121073
 31
0.0
  0
LINE
  5
15C
330
42
100
AcDbEntity
  8
1
  6
Continuous
 62
     7
100
AcDbLine
 10
116.1801971472876
 20
162.6328994121072
 30
0.0
 11
89.69319714728761
 21
162.6328994121072
 31
0.0
  0
LINE
  5
15D
330
42
100
AcDbEntity
  8
1
  6
Continuous
 62
     7
100
AcDbLine
 10
102.9931971472876
 20
171.6328994121072
 30
0.0
 11
111.7915191263572
 21
171.6328994121072
 31
0.0
  0
LINE
  5
15E
330
42
100
AcDbEntity
  8
1
  6
Continuous
 62
     7
100
AcDbLine
 10
94.19487516821792
 20
171.6328994121072
 30
0.0
 11
102.9931971472876
 21
171.6328994121072
 31
0.0
  0
LINE
  5
15F
330
42
100
AcDbEntity
  8
1
  6
Continuous
 62
     7
100
AcDbLine
 10
94.19487516821801
 20
469.9950123418582
 30
0.0
 11
87.54280782039291
 21
481.5167309636611
 31
0.0
  0
LINE
  5
160
330
42
100
AcDbEntity
  8
1
  6
Continuous
 62
     7
100
AcDbLine
 10
87.54280782039291
 20
483.9950123418582
 30
0.0
 11
94.19487516821812
 21
495.5167309636611
 31
0.0
  0
LINE
  5
161
330
42
100
AcDbEntity
  8
1
  6
Continuous
 62
     7
100
AcDbLine
 10
109.6452644951126
 20
496.7558716527597
 30
0.0
 11
96.34112979946241
 21
496.7558716527596
 31
0.0
  0
LINE
  5
162
330
42
100
AcDbEntity
  8
1
  6
Continuous
 62
     7
100
AcDbLine
 10
118.4435864741822
 20
483.9950123418582
 30
0.0
 11
111.7915191263572
 21
495.5167309636611
 31
0.0
  0
LINE
  5
163
330
42
100
AcDbEntity
  8
1
  6
Continuous
 62
     7
100
AcDbLine
 10
118.4435864741823
 20
481.5167309636611
 30
0.0
 11
111.7915191263571
 21
469.9950123418582
 31
0.0
  0
ARC
  5
164
330
42
100
AcDbEntity
  8
1
  6
Continuous
 62
     7
100
AcDbCircle
 10
92.49319714728762
 20
166.7753624475488
 30
0.0
 40
5.000000000000124
100
AcDbArc
 50
105.337557669555
 51
-124.0557977425681
  0
ARC
  5
165
330
42
100
AcDbEntity
  8
1
  6
Continuous
 62
     7
100
AcDbCircle
 10
113.4931971472876
 20
166.7753624475488
 30
0.0
 40
4.999999999999929
100
AcDbArc
 50
-55.94420225743296
 51
74.66244233044608
  0
ARC
  5
166
330
42
100
AcDbEntity
  8
1
  6
Continuous
 62
     7
100
AcDbCircle
 10
102.9909614218459
 20
175.5448163549642
 30
0.0
 40
12.34015167507996
100
AcDbArc
 50
-90.526738442083
 51
-89.98961944423104
  0
ARC
  5
167
330
42
100
AcDbEntity
  8
1
  6
Continuous
 62
     7
100
AcDbCircle
 10
98.14113728869822
 20
166.7765463015886
 30
0.0
 40
1.800007878542563
100
AcDbArc
 50
178.0306705209232
 51
-179.9623169177535
  0
ARC
  5
168
330
42
100
AcDbEntity
  8
1
  6
Continuous
 62
     7
100
AcDbCircle
 10
98.29541415069491
 20
166.7712415186709
 30
0.0
 40
1.954375915614064
100
AcDbArc
 50
174.3329218835755
 51
178.030670520925
  0
ARC
  5
169
330
42
100
AcDbEntity
  8
1
  6
Continuous
 62
     7
100
AcDbCircle
 10
98.30040938017262
 20
166.7707458271495
 30
0.0
 40
1.959395679315745
100
AcDbArc
 50
168.7976217525898
 51
174.3329218835755
  0
ARC
  5
16A
330
42
100
AcDbEntity
  8
1
  6
Continuous
 62
     7
100
AcDbCircle
 10
98.42783238247583
 20
166.745509896757
 30
0.0
 40
2.089293615014193
100
AcDbArc
 50
161.876736130061
 51
168.7976217525895
  0
ARC
  5
16B
330
42
100
AcDbEntity
  8
1
  6
Continuous
 62
     7
100
AcDbCircle
 10
98.44969098351251
 20
166.7383555799337
 30
0.0
 40
2.112293238674011
100
AcDbArc
 50
158.2199681822702
 51
161.876736130063
  0
ARC
  5
16C
330
42
100
AcDbEntity
  8
1
  6
Continuous
 62
     7
100
AcDbCircle
 10
98.65602728455153
 20
166.6559103502839
 30
0.0
 40
2.334491089740213
100
AcDbArc
 50
154.91195955281
 51
158.219968182272
  0
ARC
  5
16D
330
42
100
AcDbEntity
  8
1
  6
Continuous
 62
     7
100
AcDbCircle
 10
98.68971656946201
 20
166.6401377103612
 30
0.0
 40
2.371689800576947
100
AcDbArc
 50
151.6546868768878
 51
154.9119595528074
  0
ARC
  5
16E
330
42
100
AcDbEntity
  8
1
  6
Continuous
 62
     7
100
AcDbCircle
 10
98.92705282835641
 20
166.5121030792244
 30
0.0
 40
2.641358795005896
100
AcDbArc
 50
148.7291301953138
 51
151.6546868768882
  0
ARC
  5
16F
330
42
100
AcDbEntity
  8
1
  6
Continuous
 62
     7
100
AcDbCircle
 10
98.94728164065802
 20
166.4998178508955
 30
0.0
 40
2.665025896269581
100
AcDbArc
 50
145.830302898063
 51
148.7291301953133
  0
ARC
  5
170
330
42
100
AcDbEntity
  8
1
  6
Continuous
 62
     7
100
AcDbCircle
 10
99.19704940830002
 20
166.3302688908179
 30
0.0
 40
2.966904659378634
100
AcDbArc
 50
142.93750362321
 51
145.830302898065
  0
ARC
  5
171
330
42
100
AcDbEntity
  8
1
  6
Continuous
 62
     7
100
AcDbCircle
 10
99.23886120707752
 20
166.2986898770824
 30
0.0
 40
3.019301802674019
100
AcDbArc
 50
140.0960707231236
 51
142.9375036232086
  0
ARC
  5
172
330
42
100
AcDbEntity
  8
1
  6
Continuous
 62
     7
100
AcDbCircle
 10
99.53512540132962
 20
166.0509400371435
 30
0.0
 40
3.405504412693121
100
AcDbArc
 50
137.5766003475903
 51
140.0960707231229
  0
ARC
  5
173
330
42
100
AcDbEntity
  8
1
  6
Continuous
 62
     7
100
AcDbCircle
 10
99.58088933482873
 20
166.0091175368472
 30
0.0
 40
3.467500050768212
100
AcDbArc
 50
135.1016581317803
 51
137.5766003475917
  0
ARC
  5
174
330
42
100
AcDbEntity
  8
1
  6
Continuous
 62
     7
100
AcDbCircle
 10
99.93280614732041
 20
165.6584473041555
 30
0.0
 40
3.964304896769622
100
AcDbArc
 50
132.9371670760261
 51
135.1016581317784
  0
ARC
  5
175
330
42
100
AcDbEntity
  8
1
  6
Continuous
 62
     7
100
AcDbCircle
 10
99.9577193998729
 20
165.6316723032194
 30
0.0
 40
4.000877712191347
100
AcDbArc
 50
130.5332751770275
 51
132.9371670760276
  0
ARC
  5
176
330
42
100
AcDbEntity
  8
1
  6
Continuous
 62
     7
100
AcDbCircle
 10
100.2832675903808
 20
165.2509522950894
 30
0.0
 40
4.501806199037103
100
AcDbArc
 50
128.3975050043351
 51
130.5332751770288
  0
ARC
  5
177
330
42
100
AcDbEntity
  8
1
  6
Continuous
 62
     7
100
AcDbCircle
 10
100.2995129270403
 20
165.2304539476641
 30
0.0
 40
4.527961374630847
100
AcDbArc
 50
126.2739527965233
 51
128.3975050043336
  0
ARC
  5
178
330
42
100
AcDbEntity
  8
1
  6
Continuous
 62
     7
100
AcDbCircle
 10
100.6815118315889
 20
164.709929654843
 30
0.0
 40
5.173615076311026
100
AcDbArc
 50
124.4152098167254
 51
126.2739527965236
  0
ARC
  5
179
330
42
100
AcDbEntity
  8
1
  6
Continuous
 62
     7
100
AcDbCircle
 10
100.5946491663127
 20
164.8367171641771
 30
0.0
 40
5.019926445820585
100
AcDbArc
 50
123.4573887050695
 51
124.4152098167243
  0
ARC
  5
17A
330
42
100
AcDbEntity
  8
1
  6
Continuous
 62
     7
100
AcDbCircle
 10
100.9537643634978
 20
164.2932755874709
 30
0.0
 40
5.671303811210533
100
AcDbArc
 50
121.6685426704599
 51
123.4573887050698
  0
ARC
  5
17B
330
42
100
AcDbEntity
  8
1
  6
Continuous
 62
     7
100
AcDbCircle
 10
101.010567076239
 20
164.201191111506
 30
0.0
 40
5.779498537923433
100
AcDbArc
 50
119.8218682100322
 51
121.6685426704606
  0
ARC
  5
17C
330
42
100
AcDbEntity
  8
1
  6
Continuous
 62
     7
100
AcDbCircle
 10
101.2799920278504
 20
163.7311647015544
 30
0.0
 40
6.321268443513302
100
AcDbArc
 50
118.133558923462
 51
119.8218682100317
  0
ARC
  5
17D
330
42
100
AcDbEntity
  8
1
  6
Continuous
 62
     7
100
AcDbCircle
 10
101.3428330391005
 20
163.6136396709851
 30
0.0
 40
6.454539316194604
100
AcDbArc
 50
116.4800021356239
 51
118.1335589234628
  0
ARC
  5
17E
330
42
100
AcDbEntity
  8
1
  6
Continuous
 62
     7
100
AcDbCircle
 10
101.6425425149048
 20
163.0119896718186
 30
0.0
 40
7.12670632772062
100
AcDbArc
 50
114.9823606023695
 51
116.4800021356239
  0
ARC
  5
17F
330
42
100
AcDbEntity
  8
1
  6
Continuous
 62
     7
100
AcDbCircle
 10
101.7070599799416
 20
162.873520238577
 30
0.0
 40
7.279468519499336
100
AcDbArc
 50
113.4500581114113
 51
114.9823606023689
  0
ARC
  5
180
330
42
100
AcDbEntity
  8
1
  6
Continuous
 62
     7
100
AcDbCircle
 10
101.9592017842837
 20
162.2922487582578
 30
0.0
 40
7.913070936894782
100
AcDbArc
 50
111.9797207566682
 51
113.4500581114123
  0
ARC
  5
181
330
42
100
AcDbEntity
  8
1
  6
Continuous
 62
     7
100
AcDbCircle
 10
101.965234244907
 20
162.2773026659052
 30
0.0
 40
7.929188512946506
100
AcDbArc
 50
110.5124119700258
 51
111.9797207566674
  0
ARC
  5
182
330
42
100
AcDbEntity
  8
1
  6
Continuous
 62
     7
100
AcDbCircle
 10
102.223683999719
 20
161.5865036352288
 30
0.0
 40
8.666751782467108
100
AcDbArc
 50
109.1699312060528
 51
110.5124119700257
  0
ARC
  5
183
330
42
100
AcDbEntity
  8
1
  6
Continuous
 62
     7
100
AcDbCircle
 10
102.2269781965321
 20
161.5770279817553
 30
0.0
 40
8.676783718541108
100
AcDbArc
 50
107.828976375841
 51
109.1699312060533
  0
ARC
  5
184
330
42
100
AcDbEntity
  8
1
  6
Continuous
 62
     7
100
AcDbCircle
 10
102.4770689279896
 20
160.7994378766764
 30
0.0
 40
9.493601779970783
100
AcDbArc
 50
105.9079391252783
 51
107.8289763758404
  0
ARC
  5
185
330
42
100
AcDbEntity
  8
1
  6
Continuous
 62
     7
100
AcDbCircle
 10
102.5226124610261
 20
160.6396401032189
 30
0.0
 40
9.659762972200999
100
AcDbArc
 50
104.6222356444786
 51
105.9079391252787
  0
ARC
  5
186
330
42
100
AcDbEntity
  8
1
  6
Continuous
 62
     7
100
AcDbCircle
 10
102.6567365971601
 20
160.1255476030252
 30
0.0
 40
10.1910636240443
100
AcDbArc
 50
103.4035534297089
 51
104.6222356444781
  0
ARC
  5
187
330
42
100
AcDbEntity
  8
1
  6
Continuous
 62
     7
100
AcDbCircle
 10
102.6816981530574
 20
160.0207987756869
 30
0.0
 40
10.29874554500397
100
AcDbArc
 50
102.1975878865733
 51
103.4035534297094
  0
ARC
  5
188
330
42
100
AcDbEntity
  8
1
  6
Continuous
 62
     7
100
AcDbCircle
 10
102.8073896741713
 20
159.4393339535851
 30
0.0
 40
10.89364023973726
100
AcDbArc
 50
101.0574916643669
 51
102.197587886573
  0
ARC
  5
189
330
42
100
AcDbEntity
  8
1
  6
Continuous
 62
     7
100
AcDbCircle
 10
102.8384278458582
 20
159.2805074324758
 30
0.0
 40
11.0554711141382
100
AcDbArc
 50
98.71080143096962
 51
101.0574916643671
  0
ARC
  5
18A
330
42
100
AcDbEntity
  8
1
  6
Continuous
 62
     7
100
AcDbCircle
 10
102.9387356902625
 20
158.6258182127294
 30
0.0
 40
11.71780006420844
100
AcDbArc
 50
96.49677318269171
 51
98.71080143096921
  0
ARC
  5
18B
330
42
100
AcDbEntity
  8
1
  6
Continuous
 62
     7
100
AcDbCircle
 10
102.983924803793
 20
158.2289997604187
 30
0.0
 40
12.1171832637499
100
AcDbArc
 50
89.95615596556388
 51
96.49677318269225
  0
ARC
  5
18C
330
42
100
AcDbEntity
  8
1
  6
Continuous
 62
     7
100
AcDbCircle
 10
102.9903004170845
 20
175.4729178317884
 30
0.0
 40
12.26825011346866
100
AcDbArc
 50
-95.38910892489746
 51
-90.52673844208233
  0
ARC
  5
18D
330
42
100
AcDbEntity
  8
1
  6
Continuous
 62
     7
100
AcDbCircle
 10
102.9384471235418
 20
174.923252110195
 30
0.0
 40
11.71614399183435
100
AcDbArc
 50
-97.60346583758533
 51
-95.38910892489801
  0
ARC
  5
18E
330
42
100
AcDbEntity
  8
1
  6
Continuous
 62
     7
100
AcDbCircle
 10
102.9078278391292
 20
174.6938770875873
 30
0.0
 40
11.48473430842797
100
AcDbArc
 50
-99.86240874690019
 51
-97.60346583758516
  0
ARC
  5
18F
330
42
100
AcDbEntity
  8
1
  6
Continuous
 62
     7
100
AcDbCircle
 10
102.7952836055159
 20
174.0465203007133
 30
0.0
 40
10.82766733008305
100
AcDbArc
 50
-101.6339739860464
 51
-99.86240874689989
  0
ARC
  5
190
330
42
100
AcDbEntity
  8
1
  6
Continuous
 62
     7
100
AcDbCircle
 10
102.7888998858658
 20
174.0155145939324
 30
0.0
 40
10.79601127648259
100
AcDbArc
 50
-102.784393044359
 51
-101.6339739860466
  0
ARC
  5
191
330
42
100
AcDbEntity
  8
1
  6
Continuous
 62
     7
100
AcDbCircle
 10
102.6256651447304
 20
173.2961272302625
 30
0.0
 40
10.05833671427956
100
AcDbArc
 50
-104.019172021334
 51
-102.784393044359
  0
ARC
  5
192
330
42
100
AcDbEntity
  8
1
  6
Continuous
 62
     7
100
AcDbCircle
 10
102.6358629799143
 20
173.3369702867117
 30
0.0
 40
10.10043363937569
100
AcDbArc
 50
-105.2487790992219
 51
-104.0191720213337
  0
ARC
  5
193
330
42
100
AcDbEntity
  8
1
  6
Continuous
 62
     7
100
AcDbCircle
 10
102.4633812406955
 20
172.704261464866
 30
0.0
 40
9.444636106896835
100
AcDbArc
 50
-106.5637890373068
 51
-105.2487790992221
  0
ARC
  5
194
330
42
100
AcDbEntity
  8
1
  6
Continuous
 62
     7
100
AcDbCircle
 10
102.4723956333745
 20
172.7345695943463
 30
0.0
 40
9.476256385010245
100
AcDbArc
 50
-107.8330251184242
 51
-106.5637890373073
  0
ARC
  5
195
330
42
100
AcDbEntity
  8
1
  6
Continuous
 62
     7
100
AcDbCircle
 10
102.2437044674691
 20
172.0236880515548
 30
0.0
 40
8.729495233607134
100
AcDbArc
 50
-109.1658824634696
 51
-107.8330251184239
  0
ARC
  5
196
330
42
100
AcDbEntity
  8
1
  6
Continuous
 62
     7
100
AcDbCircle
 10
102.2060469277976
 20
171.9153426400848
 30
0.0
 40
8.614792058059413
100
AcDbArc
 50
-110.5164607126095
 51
-109.1658824634698
  0
ARC
  5
197
330
42
100
AcDbEntity
  8
1
  6
Continuous
 62
     7
100
AcDbCircle
 10
101.9811794293421
 20
171.3144335380349
 30
0.0
 40
7.973186929660341
100
AcDbArc
 50
-111.9756720140846
 51
-110.5164607126097
  0
ARC
  5
198
330
42
100
AcDbEntity
  8
1
  6
Continuous
 62
     7
100
AcDbCircle
 10
101.9424656034193
 20
171.2184961949438
 30
0.0
 40
7.869732910323422
100
AcDbArc
 50
-113.4541068539946
 51
-111.9756720140839
  0
ARC
  5
199
330
42
100
AcDbEntity
  8
1
  6
Continuous
 62
     7
100
AcDbCircle
 10
101.722923328284
 20
170.7124755166666
 30
0.0
 40
7.318139094716582
100
AcDbArc
 50
-114.9783118597864
 51
-113.4541068539956
  0
ARC
  5
19A
330
42
100
AcDbEntity
  8
1
  6
Continuous
 62
     7
100
AcDbCircle
 10
101.6259029860764
 20
170.5042089340249
 30
0.0
 40
7.088382884251429
100
AcDbArc
 50
-116.4840508782065
 51
-114.9783118597853
  0
ARC
  5
19B
330
42
100
AcDbEntity
  8
1
  6
Continuous
 62
     7
100
AcDbCircle
 10
101.3574051923264
 20
169.9653100577451
 30
0.0
 40
6.486300610717124
100
AcDbArc
 50
-118.1295101808797
 51
-116.4840508782068
  0
ARC
  5
19C
330
42
100
AcDbEntity
  8
1
  6
Continuous
 62
     7
100
AcDbCircle
 10
101.265373400517
 20
169.7931632821537
 30
0.0
 40
6.291097221786094
100
AcDbArc
 50
-119.825916952616
 51
-118.1295101808806
  0
ARC
  5
19D
330
42
100
AcDbEntity
  8
1
  6
Continuous
 62
     7
100
AcDbCircle
 10
101.0235803319562
 20
169.3714112660346
 30
0.0
 40
5.804950483542799
100
AcDbArc
 50
-121.6644939278775
 51
-119.8259169526149
  0
ARC
  5
19E
330
42
100
AcDbEntity
  8
1
  6
Continuous
 62
     7
100
AcDbCircle
 10
100.940008709949
 20
169.235909530096
 30
0.0
 40
5.645749552492421
100
AcDbArc
 50
-123.4614374476541
 51
-121.6644939278782
  0
ARC
  5
19F
330
42
100
AcDbEntity
  8
1
  6
Continuous
 62
     7
100
AcDbCircle
 10
100.6514356680315
 20
168.7992850150792
 30
0.0
 40
5.122380306514868
100
AcDbArc
 50
-125.3387884323714
 51
-123.4614374476546
  0
ARC
  5
1A0
330
42
100
AcDbEntity
  8
1
  6
Continuous
 62
     7
100
AcDbCircle
 10
100.5142130097574
 20
168.6057564433095
 30
0.0
 40
4.885139150652176
100
AcDbArc
 50
-127.307197671269
 51
-125.338788432369
  0
ARC
  5
1A1
330
42
100
AcDbEntity
  8
1
  6
Continuous
 62
     7
100
AcDbCircle
 10
100.2615325881478
 20
168.2741524031603
 30
0.0
 40
4.46823552280994
100
AcDbArc
 50
-129.4590238339904
 51
-127.3071976712716
  0
ARC
  5
1A2
330
42
100
AcDbEntity
  8
1
  6
Continuous
 62
     7
100
AcDbCircle
 10
100.1409663829306
 20
168.1276806011152
 30
0.0
 40
4.278524693823157
100
AcDbArc
 50
-131.7064476568602
 51
-129.4590238339883
  0
ARC
  5
1A3
330
42
100
AcDbEntity
  8
1
  6
Continuous
 62
     7
100
AcDbCircle
 10
99.92295946447891
 20
167.8830504305647
 30
0.0
 40
3.950849646197772
100
AcDbArc
 50
-134.0096025338449
 51
-131.7064476568614
  0
ARC
  5
1A4
330
42
100
AcDbEntity
  8
1
  6
Continuous
 62
     7
100
AcDbCircle
 10
99.7750903354748
 20
167.729978812923
 30
0.0
 40
3.738020608141623
100
AcDbArc
 50
-136.305423739849
 51
-134.0096025338451
  0
ARC
  5
1A5
330
42
100
AcDbEntity
  8
1
  6
Continuous
 62
     7
100
AcDbCircle
 10
99.53500553406252
 20
167.5005922708056
 30
0.0
 40
3.405968055713922
100
AcDbArc
 50
-138.8248594653808
 51
-136.3054237398482
  0
ARC
  5
1A6
330
42
100
AcDbEntity
  8
1
  6
Continuous
 62
     7
100
AcDbCircle
 10
99.40171634621311
 20
167.3840085213207
 30
0.0
 40
3.228886779906761
100
AcDbArc
 50
-141.4818947159489
 51
-138.8248594653801
  0
ARC
  5
1A7
330
42
100
AcDbEntity
  8
1
  6
Continuous
 62
     7
100
AcDbCircle
 10
99.19825905613382
 20
167.2220662883983
 30
0.0
 40
2.968848021852726
100
AcDbArc
 50
-144.3719329968309
 51
-141.4818947159502
  0
ARC
  5
1A8
330
42
100
AcDbEntity
  8
1
  6
Continuous
 62
     7
100
AcDbCircle
 10
99.0893521156338
 20
167.1440158548738
 30
0.0
 40
2.834860739387382
100
AcDbArc
 50
-147.2483586702353
 51
-144.3719329968322
  0
ARC
  5
1A9
330
42
100
AcDbEntity
  8
1
  6
Continuous
 62
     7
100
AcDbCircle
 10
98.92181563036311
 20
167.0362459812792
 30
0.0
 40
2.635655268700823
100
AcDbArc
 50
-150.1801685742365
 51
-147.2483586702356
  0
ARC
  5
1AA
330
42
100
AcDbEntity
  8
1
  6
Continuous
 62
     7
100
AcDbCircle
 10
98.81981397970461
 20
166.9777821908602
 30
0.0
 40
2.51808677152921
100
AcDbArc
 50
-153.2486225522293
 51
-150.1801685742366
  0
ARC
  5
1AB
330
42
100
AcDbEntity
  8
1
  6
Continuous
 62
     7
100
AcDbCircle
 10
98.65935450648431
 20
166.8968991204802
 30
0.0
 40
2.33839449673632
100
AcDbArc
 50
-156.5516000346929
 51
-153.2486225522258
  0
ARC
  5
1AC
330
42
100
AcDbEntity
  8
1
  6
Continuous
 62
     7
100
AcDbCircle
 10
98.56141786875341
 20
166.8544198936176
 30
0.0
 40
2.231642121002104
100
AcDbArc
 50
-160.0120569265385
 51
-156.5516000346923
  0
ARC
  5
1AD
330
42
100
AcDbEntity
  8
1
  6
Continuous
 62
     7
100
AcDbCircle
 10
98.42712509284073
 20
166.8055733213753
 30
0.0
 40
2.088741675648818
100
AcDbArc
 50
-165.321928428713
 51
-160.0120569265415
  0
ARC
  5
1AE
330
42
100
AcDbEntity
  8
1
  6
Continuous
 62
     7
100
AcDbCircle
 10
98.38441898503481
 20
166.7943870515131
 30
0.0
 40
2.044594826640545
100
AcDbArc
 50
-170.6273989136008
 51
-165.3219284287129
  0
ARC
  5
1AF
330
42
100
AcDbEntity
  8
1
  6
Continuous
 62
     7
100
AcDbCircle
 10
98.30018554762123
 20
166.7804836775852
 30
0.0
 40
1.959221670525303
100
AcDbArc
 50
-176.1620820103286
 51
-170.6273989135983
  0
ARC
  5
1B0
330
42
100
AcDbEntity
  8
1
  6
Continuous
 62
     7
100
AcDbCircle
 10
98.22636856744131
 20
166.7755316898758
 30
0.0
 40
1.885238775575432
100
AcDbArc
 50
-179.9948564228618
 51
-176.1620820103309
  0
ARC
  5
1B1
330
42
100
AcDbEntity
  8
1
  6
Continuous
 62
     7
100
AcDbCircle
 10
102.9954328727292
 20
175.5448163549642
 30
0.0
 40
12.34015167507994
100
AcDbArc
 50
-90.01038055576844
 51
-89.47326155791701
  0
ARC
  5
1B2
330
42
100
AcDbEntity
  8
1
  6
Continuous
 62
     7
100
AcDbCircle
 10
107.8452570058769
 20
166.7765463015886
 30
0.0
 40
1.800007878542475
100
AcDbArc
 50
-0.0376830822465
 51
1.96932947907681
  0
ARC
  5
1B3
330
42
100
AcDbEntity
  8
1
  6
Continuous
 62
     7
100
AcDbCircle
 10
107.6909801438802
 20
166.7712415186709
 30
0.0
 40
1.954375915614214
100
AcDbArc
 50
1.96932947907499
 51
5.66707811642448
  0
ARC
  5
1B4
330
42
100
AcDbEntity
  8
1
  6
Continuous
 62
     7
100
AcDbCircle
 10
107.6859849144025
 20
166.7707458271495
 30
0.0
 40
1.959395679315614
100
AcDbArc
 50
5.66707811642449
 51
11.20237824741026
  0
ARC
  5
1B5
330
42
100
AcDbEntity
  8
1
  6
Continuous
 62
     7
100
AcDbCircle
 10
107.5585619120993
 20
166.745509896757
 30
0.0
 40
2.089293615014269
100
AcDbArc
 50
11.20237824741054
 51
18.12326386993907
  0
ARC
  5
1B6
330
42
100
AcDbEntity
  8
1
  6
Continuous
 62
     7
100
AcDbCircle
 10
107.5367033110626
 20
166.7383555799337
 30
0.0
 40
2.112293238673929
100
AcDbArc
 50
18.12326386993687
 51
21.78003181772967
  0
ARC
  5
1B7
330
42
100
AcDbEntity
  8
1
  6
Continuous
 62
     7
100
AcDbCircle
 10
107.3303670100236
 20
166.6559103502839
 30
0.0
 40
2.334491089740292
100
AcDbArc
 50
21.780031817728
 51
25.08804044719001
  0
ARC
  5
1B8
330
42
100
AcDbEntity
  8
1
  6
Continuous
 62
     7
100
AcDbCircle
 10
107.2966777251131
 20
166.6401377103612
 30
0.0
 40
2.371689800576908
100
AcDbArc
 50
25.08804044719248
 51
28.34531312311216
  0
ARC
  5
1B9
330
42
100
AcDbEntity
  8
1
  6
Continuous
 62
     7
100
AcDbCircle
 10
107.0593414662187
 20
166.5121030792244
 30
0.0
 40
2.641358795005901
100
AcDbArc
 50
28.34531312311179
 51
31.27086980468609
  0
ARC
  5
1BA
330
42
100
AcDbEntity
  8
1
  6
Continuous
 62
     7
100
AcDbCircle
 10
107.0391126539171
 20
166.4998178508955
 30
0.0
 40
2.665025896269607
100
AcDbArc
 50
31.2708698046867
 51
34.16969710193717
  0
ARC
  5
1BB
330
42
100
AcDbEntity
  8
1
  6
Continuous
 62
     7
100
AcDbCircle
 10
106.7893448862751
 20
166.3302688908179
 30
0.0
 40
2.966904659378643
100
AcDbArc
 50
34.16969710193521
 51
37.06249637678885
  0
ARC
  5
1BC
330
42
100
AcDbEntity
  8
1
  6
Continuous
 62
     7
100
AcDbCircle
 10
106.7475330874976
 20
166.2986898770824
 30
0.0
 40
3.019301802674097
100
AcDbArc
 50
37.06249637679026
 51
39.90392927687662
  0
ARC
  5
1BD
330
42
100
AcDbEntity
  8
1
  6
Continuous
 62
     7
100
AcDbCircle
 10
106.4512688932455
 20
166.0509400371435
 30
0.0
 40
3.405504412693154
100
AcDbArc
 50
39.9039292768773
 51
42.42339965240975
  0
ARC
  5
1BE
330
42
100
AcDbEntity
  8
1
  6
Continuous
 62
     7
100
AcDbCircle
 10
106.4055049597464
 20
166.0091175368472
 30
0.0
 40
3.46750005076826
100
AcDbArc
 50
42.42339965240835
 51
44.89834186821853
  0
ARC
  5
1BF
330
42
100
AcDbEntity
  8
1
  6
Continuous
 62
     7
100
AcDbCircle
 10
106.0535881472547
 20
165.6584473041555
 30
0.0
 40
3.964304896769591
100
AcDbArc
 50
44.89834186822047
 51
47.0628329239737
  0
ARC
  5
1C0
330
42
100
AcDbEntity
  8
1
  6
Continuous
 62
     7
100
AcDbCircle
 10
106.0286748947022
 20
165.6316723032194
 30
0.0
 40
4.000877712191358
100
AcDbArc
 50
47.06283292397229
 51
49.46672482297253
  0
ARC
  5
1C1
330
42
100
AcDbEntity
  8
1
  6
Continuous
 62
     7
100
AcDbCircle
 10
105.7031267041943
 20
165.2509522950894
 30
0.0
 40
4.501806199037
100
AcDbArc
 50
49.46672482297122
 51
51.60249499566491
  0
ARC
  5
1C2
330
42
100
AcDbEntity
  8
1
  6
Continuous
 62
     7
100
AcDbCircle
 10
105.6868813675348
 20
165.2304539476641
 30
0.0
 40
4.527961374631031
100
AcDbArc
 50
51.6024949956663
 51
53.72604720347539
  0
ARC
  5
1C3
330
42
100
AcDbEntity
  8
1
  6
Continuous
 62
     7
100
AcDbCircle
 10
105.3048824629863
 20
164.709929654843
 30
0.0
 40
5.173615076310983
100
AcDbArc
 50
53.72604720347623
 51
55.58479018327556
  0
ARC
  5
1C4
330
42
100
AcDbEntity
  8
1
  6
Continuous
 62
     7
100
AcDbCircle
 10
105.3917451282624
 20
164.8367171641771
 30
0.0
 40
5.019926445820582
100
AcDbArc
 50
55.58479018327571
 51
56.54261129493023
  0
ARC
  5
1C5
330
42
100
AcDbEntity
  8
1
  6
Continuous
 62
     7
100
AcDbCircle
 10
105.0326299310773
 20
164.2932755874709
 30
0.0
 40
5.671303811210435
100
AcDbArc
 50
56.54261129492988
 51
58.33145732953999
  0
ARC
  5
1C6
330
42
100
AcDbEntity
  8
1
  6
Continuous
 62
     7
100
AcDbCircle
 10
104.9758272183361
 20
164.201191111506
 30
0.0
 40
5.779498537923486
100
AcDbArc
 50
58.33145732953931
 51
60.17813178996757
  0
ARC
  5
1C7
330
42
100
AcDbEntity
  8
1
  6
Continuous
 62
     7
100
AcDbCircle
 10
104.7064022667247
 20
163.7311647015544
 30
0.0
 40
6.32126844351326
100
AcDbArc
 50
60.17813178996807
 51
61.86644107653787
  0
ARC
  5
1C8
330
42
100
AcDbEntity
  8
1
  6
Continuous
 62
     7
100
AcDbCircle
 10
104.6435612554746
 20
163.6136396709851
 30
0.0
 40
6.454539316194674
100
AcDbArc
 50
61.86644107653707
 51
63.51999786437597
  0
ARC
  5
1C9
330
42
100
AcDbEntity
  8
1
  6
Continuous
 62
     7
100
AcDbCircle
 10
104.3438517796703
 20
163.0119896718186
 30
0.0
 40
7.1267063277207
100
AcDbArc
 50
63.51999786437612
 51
65.01763939763053
  0
ARC
  5
1CA
330
42
100
AcDbEntity
  8
1
  6
Continuous
 62
     7
100
AcDbCircle
 10
104.2793343146335
 20
162.873520238577
 30
0.0
 40
7.279468519499318
100
AcDbArc
 50
65.01763939763113
 51
66.54994188858868
  0
ARC
  5
1CB
330
42
100
AcDbEntity
  8
1
  6
Continuous
 62
     7
100
AcDbCircle
 10
104.0271925102915
 20
162.2922487582578
 30
0.0
 40
7.913070936894728
100
AcDbArc
 50
66.54994188858839
 51
68.0202792433324
  0
ARC
  5
1CC
330
42
100
AcDbEntity
  8
1
  6
Continuous
 62
     7
100
AcDbCircle
 10
104.0211600496681
 20
162.2773026659052
 30
0.0
 40
7.929188512946545
100
AcDbArc
 50
68.02027924333245
 51
69.48758802997403
  0
ARC
  5
1CD
330
42
100
AcDbEntity
  8
1
  6
Continuous
 62
     7
100
AcDbCircle
 10
103.7627102948561
 20
161.5865036352288
 30
0.0
 40
8.66675178246706
100
AcDbArc
 50
69.48758802997421
 51
70.83006879394718
  0
ARC
  5
1CE
330
42
100
AcDbEntity
  8
1
  6
Continuous
 62
     7
100
AcDbCircle
 10
103.7594160980431
 20
161.5770279817553
 30
0.0
 40
8.676783718541113
100
AcDbArc
 50
70.83006879394733
 51
72.17102362415965
  0
ARC
  5
1CF
330
42
100
AcDbEntity
  8
1
  6
Continuous
 62
     7
100
AcDbCircle
 10
103.5093253665855
 20
160.7994378766764
 30
0.0
 40
9.49360177997068
100
AcDbArc
 50
72.1710236241596
 51
74.09206087472175
  0
ARC
  5
1D0
330
42
100
AcDbEntity
  8
1
  6
Continuous
 62
     7
100
AcDbCircle
 10
103.463781833549
 20
160.6396401032189
 30
0.0
 40
9.659762972201145
100
AcDbArc
 50
74.0920608747213
 51
75.37776435552154
  0
ARC
  5
1D1
330
42
100
AcDbEntity
  8
1
  6
Continuous
 62
     7
100
AcDbCircle
 10
103.329657697415
 20
160.1255476030252
 30
0.0
 40
10.19106362404428
100
AcDbArc
 50
75.37776435552203
 51
76.59644657029121
  0
ARC
  5
1D2
330
42
100
AcDbEntity
  8
1
  6
Continuous
 62
     7
100
AcDbCircle
 10
103.3046961415177
 20
160.0207987756869
 30
0.0
 40
10.29874554500398
100
AcDbArc
 50
76.5964465702906
 51
77.80241211342666
  0
ARC
  5
1D3
330
42
100
AcDbEntity
  8
1
  6
Continuous
 62
     7
100
AcDbCircle
 10
103.1790046204038
 20
159.4393339535851
 30
0.0
 40
10.89364023973724
100
AcDbArc
 50
77.80241211342704
 51
78.94250833563321
  0
ARC
  5
1D4
330
42
100
AcDbEntity
  8
1
  6
Continuous
 62
     7
100
AcDbCircle
 10
103.1479664487169
 20
159.2805074324758
 30
0.0
 40
11.05547111413814
100
AcDbArc
 50
78.94250833563298
 51
81.28919856903046
  0
ARC
  5
1D5
330
42
100
AcDbEntity
  8
1
  6
Continuous
 62
     7
100
AcDbCircle
 10
103.0476586043126
 20
158.6258182127294
 30
0.0
 40
11.71780006420845
100
AcDbArc
 50
81.28919856903087
 51
83.50322681730781
  0
ARC
  5
1D6
330
42
100
AcDbEntity
  8
1
  6
Continuous
 62
     7
100
AcDbCircle
 10
103.0024694907821
 20
158.2289997604187
 30
0.0
 40
12.11718326374986
100
AcDbArc
 50
83.50322681730729
 51
90.04384403443567
  0
ARC
  5
1D7
330
42
100
AcDbEntity
  8
1
  6
Continuous
 62
     7
100
AcDbCircle
 10
102.9960938774906
 20
175.4729178317884
 30
0.0
 40
12.26825011346857
100
AcDbArc
 50
-89.47326155791768
 51
-84.61089107510249
  0
ARC
  5
1D8
330
42
100
AcDbEntity
  8
1
  6
Continuous
 62
     7
100
AcDbCircle
 10
103.0479471710333
 20
174.923252110195
 30
0.0
 40
11.7161439918344
100
AcDbArc
 50
-84.61089107510199
 51
-82.39653416241467
  0
ARC
  5
1D9
330
42
100
AcDbEntity
  8
1
  6
Continuous
 62
     7
100
AcDbCircle
 10
103.0785664554459
 20
174.6938770875873
 30
0.0
 40
11.48473430842802
100
AcDbArc
 50
-82.39653416241477
 51
-80.13759125309981
  0
ARC
  5
1DA
330
42
100
AcDbEntity
  8
1
  6
Continuous
 62
     7
100
AcDbCircle
 10
103.1911106890592
 20
174.0465203007133
 30
0.0
 40
10.82766733008295
100
AcDbArc
 50
-80.13759125310018
 51
-78.36602601395367
  0
ARC
  5
1DB
330
42
100
AcDbEntity
  8
1
  6
Continuous
 62
     7
100
AcDbCircle
 10
103.1974944087093
 20
174.0155145939324
 30
0.0
 40
10.79601127648261
100
AcDbArc
 50
-78.36602601395352
 51
-77.21560695564097
  0
ARC
  5
1DC
330
42
100
AcDbEntity
  8
1
  6
Continuous
 62
     7
100
AcDbCircle
 10
103.3607291498447
 20
173.2961272302625
 30
0.0
 40
10.05833671427953
100
AcDbArc
 50
-77.21560695564098
 51
-75.98082797866607
  0
ARC
  5
1DD
330
42
100
AcDbEntity
  8
1
  6
Continuous
 62
     7
100
AcDbCircle
 10
103.3505313146608
 20
173.3369702867117
 30
0.0
 40
10.10043363937571
100
AcDbArc
 50
-75.98082797866631
 51
-74.75122090077808
  0
ARC
  5
1DE
330
42
100
AcDbEntity
  8
1
  6
Continuous
 62
     7
100
AcDbCircle
 10
103.5230130538796
 20
172.704261464866
 30
0.0
 40
9.444636106896864
100
AcDbArc
 50
-74.75122090077785
 51
-73.4362109626931
  0
ARC
  5
1DF
330
42
100
AcDbEntity
  8
1
  6
Continuous
 62
     7
100
AcDbCircle
 10
103.5139986612006
 20
172.7345695943463
 30
0.0
 40
9.476256385010208
100
AcDbArc
 50
-73.43621096269274
 51
-72.16697488157578
  0
ARC
  5
1E0
330
42
100
AcDbEntity
  8
1
  6
Continuous
 62
     7
100
AcDbCircle
 10
103.742689827106
 20
172.0236880515548
 30
0.0
 40
8.729495233607207
100
AcDbArc
 50
-72.16697488157617
 51
-70.83411753653044
  0
ARC
  5
1E1
330
42
100
AcDbEntity
  8
1
  6
Continuous
 62
     7
100
AcDbCircle
 10
103.7803473667775
 20
171.9153426400848
 30
0.0
 40
8.614792058059464
100
AcDbArc
 50
-70.83411753653016
 51
-69.48353928739039
  0
ARC
  5
1E2
330
42
100
AcDbEntity
  8
1
  6
Continuous
 62
     7
100
AcDbCircle
 10
104.005214865233
 20
171.3144335380349
 30
0.0
 40
7.973186929660315
100
AcDbArc
 50
-69.48353928739017
 51
-68.02432798591535
  0
ARC
  5
1E3
330
42
100
AcDbEntity
  8
1
  6
Continuous
 62
     7
100
AcDbCircle
 10
104.0439286911558
 20
171.2184961949438
 30
0.0
 40
7.86973291032345
100
AcDbArc
 50
-68.02432798591595
 51
-66.5458931460053
  0
ARC
  5
1E4
330
42
100
AcDbEntity
  8
1
  6
Continuous
 62
     7
100
AcDbCircle
 10
104.2634709662911
 20
170.7124755166666
 30
0.0
 40
7.318139094716576
100
AcDbArc
 50
-66.5458931460043
 51
-65.02168814021347
  0
ARC
  5
1E5
330
42
100
AcDbEntity
  8
1
  6
Continuous
 62
     7
100
AcDbCircle
 10
104.3604913084987
 20
170.5042089340249
 30
0.0
 40
7.088382884251383
100
AcDbArc
 50
-65.02168814021457
 51
-63.51594912179343
  0
ARC
  5
1E6
330
42
100
AcDbEntity
  8
1
  6
Continuous
 62
     7
100
AcDbCircle
 10
104.6289891022487
 20
169.9653100577451
 30
0.0
 40
6.486300610717144
100
AcDbArc
 50
-63.51594912179306
 51
-61.87048981912017
  0
ARC
  5
1E7
330
42
100
AcDbEntity
  8
1
  6
Continuous
 62
     7
100
AcDbCircle
 10
104.7210208940581
 20
169.7931632821537
 30
0.0
 40
6.291097221786071
100
AcDbArc
 50
-61.87048981911944
 51
-60.17408304738385
  0
ARC
  5
1E8
330
42
100
AcDbEntity
  8
1
  6
Continuous
 62
     7
100
AcDbCircle
 10
104.9628139626189
 20
169.3714112660346
 30
0.0
 40
5.804950483542843
100
AcDbArc
 50
-60.17408304738489
 51
-58.3355060721224
  0
ARC
  5
1E9
330
42
100
AcDbEntity
  8
1
  6
Continuous
 62
     7
100
AcDbCircle
 10
105.0463855846261
 20
169.235909530096
 30
0.0
 40
5.645749552492473
100
AcDbArc
 50
-58.3355060721217
 51
-56.53856255234559
  0
ARC
  5
1EA
330
42
100
AcDbEntity
  8
1
  6
Continuous
 62
     7
100
AcDbCircle
 10
105.3349586265436
 20
168.7992850150792
 30
0.0
 40
5.122380306514828
100
AcDbArc
 50
-56.53856255234501
 51
-54.66121156762853
  0
ARC
  5
1EB
330
42
100
AcDbEntity
  8
1
  6
Continuous
 62
     7
100
AcDbCircle
 10
105.4721812848177
 20
168.6057564433095
 30
0.0
 40
4.885139150652269
100
AcDbArc
 50
-54.66121156763091
 51
-52.69280232873076
  0
ARC
  5
1EC
330
42
100
AcDbEntity
  8
1
  6
Continuous
 62
     7
100
AcDbCircle
 10
105.7248617064273
 20
168.2741524031603
 30
0.0
 40
4.468235522809866
100
AcDbArc
 50
-52.69280232872828
 51
-50.5409761660096
  0
ARC
  5
1ED
330
42
100
AcDbEntity
  8
1
  6
Continuous
 62
     7
100
AcDbCircle
 10
105.8454279116445
 20
168.1276806011152
 30
0.0
 40
4.278524693823266
100
AcDbArc
 50
-50.54097616601173
 51
-48.29355234313971
  0
ARC
  5
1EE
330
42
100
AcDbEntity
  8
1
  6
Continuous
 62
     7
100
AcDbCircle
 10
106.0634348300962
 20
167.8830504305647
 30
0.0
 40
3.950849646197678
100
AcDbArc
 50
-48.29355234313842
 51
-45.99039746615508
  0
ARC
  5
1EF
330
42
100
AcDbEntity
  8
1
  6
Continuous
 62
     7
100
AcDbCircle
 10
106.2113039591003
 20
167.729978812923
 30
0.0
 40
3.738020608141683
100
AcDbArc
 50
-45.99039746615495
 51
-43.69457626015083
  0
ARC
  5
1F0
330
42
100
AcDbEntity
  8
1
  6
Continuous
 62
     7
100
AcDbCircle
 10
106.4513887605126
 20
167.5005922708056
 30
0.0
 40
3.405968055713924
100
AcDbArc
 50
-43.69457626015177
 51
-41.1751405346194
  0
ARC
  5
1F1
330
42
100
AcDbEntity
  8
1
  6
Continuous
 62
     7
100
AcDbCircle
 10
106.584677948362
 20
167.3840085213207
 30
0.0
 40
3.228886779906695
100
AcDbArc
 50
-41.17514053461989
 51
-38.5181052840511
  0
ARC
  5
1F2
330
42
100
AcDbEntity
  8
1
  6
Continuous
 62
     7
100
AcDbCircle
 10
106.7881352384413
 20
167.2220662883983
 30
0.0
 40
2.968848021852687
100
AcDbArc
 50
-38.51810528405
 51
-35.62806700316927
  0
ARC
  5
1F3
330
42
100
AcDbEntity
  8
1
  6
Continuous
 62
     7
100
AcDbCircle
 10
106.8970421789413
 20
167.1440158548738
 30
0.0
 40
2.834860739387416
100
AcDbArc
 50
-35.62806700316781
 51
-32.7516413297647
  0
ARC
  5
1F4
330
42
100
AcDbEntity
  8
1
  6
Continuous
 62
     7
100
AcDbCircle
 10
107.064578664212
 20
167.0362459812792
 30
0.0
 40
2.635655268700825
100
AcDbArc
 50
-32.75164132976442
 51
-29.81983142576332
  0
ARC
  5
1F5
330
42
100
AcDbEntity
  8
1
  6
Continuous
 62
     7
100
AcDbCircle
 10
107.1665803148705
 20
166.9777821908602
 30
0.0
 40
2.518086771529123
100
AcDbArc
 50
-29.81983142576326
 51
-26.75137744777076
  0
ARC
  5
1F6
330
42
100
AcDbEntity
  8
1
  6
Continuous
 62
     7
100
AcDbCircle
 10
107.3270397880908
 20
166.8968991204802
 30
0.0
 40
2.338394496736353
100
AcDbArc
 50
-26.75137744777424
 51
-23.44839996530712
  0
ARC
  5
1F7
330
42
100
AcDbEntity
  8
1
  6
Continuous
 62
     7
100
AcDbCircle
 10
107.4249764258217
 20
166.8544198936176
 30
0.0
 40
2.231642121002204
100
AcDbArc
 50
-23.44839996530771
 51
-19.9879430734614
  0
ARC
  5
1F8
330
42
100
AcDbEntity
  8
1
  6
Continuous
 62
     7
100
AcDbCircle
 10
107.5592692017344
 20
166.8055733213753
 30
0.0
 40
2.088741675648858
100
AcDbArc
 50
-19.98794307345857
 51
-14.678071571287
  0
ARC
  5
1F9
330
42
100
AcDbEntity
  8
1
  6
Continuous
 62
     7
100
AcDbCircle
 10
107.6019753095403
 20
166.7943870515131
 30
0.0
 40
2.044594826640547
100
AcDbArc
 50
-14.67807157128704
 51
-9.37260108639912
  0
ARC
  5
1FA
330
42
100
AcDbEntity
  8
1
  6
Continuous
 62
     7
100
AcDbCircle
 10
107.6862087469539
 20
166.7804836775852
 30
0.0
 40
1.959221670525245
100
AcDbArc
 50
-9.37260108640172
 51
-3.83791798967143
  0
ARC
  5
1FB
330
42
100
AcDbEntity
  8
1
  6
Continuous
 62
     7
100
AcDbCircle
 10
107.7600257271338
 20
166.7755316898758
 30
0.0
 40
1.885238775575513
100
AcDbArc
 50
-3.83791798966905
 51
-0.00514357713823
  0
ARC
  5
1FC
330
42
100
AcDbEntity
  8
1
  6
Continuous
 62
     7
100
AcDbCircle
 10
102.9931971472875
 20
482.7558716527597
 30
0.0
 40
10.50000000000012
100
AcDbArc
 50
-40.36759354418633
 51
120.0000000000001
  0
ARC
  5
1FD
330
42
100
AcDbEntity
  8
1
  6
Continuous
 62
     7
100
AcDbCircle
 10
102.9931971472875
 20
482.7558716527597
 30
0.0
 40
15.49999999999993
100
AcDbArc
 50
175.414620915161
 51
-175.4146209151606
  0
ARC
  5
1FE
330
42
100
AcDbEntity
  8
1
  6
Continuous
 62
     7
100
AcDbCircle
 10
102.9931971472875
 20
482.7558716527597
 30
0.0
 40
15.49999999999999
100
AcDbArc
 50
120.0
 51
124.5853790848385
  0
ARC
  5
1FF
330
42
100
AcDbEntity
  8
1
  6
Continuous
 62
     7
100
AcDbCircle
 10
102.9931971472875
 20
482.7558716527597
 30
0.0
 40
15.49999999999992
100
AcDbArc
 50
115.4146209151614
 51
120.0
  0
ARC
  5
200
330
42
100
AcDbEntity
  8
1
  6
Continuous
 62
     7
100
AcDbCircle
 10
102.9931971472875
 20
482.7558716527597
 30
0.0
 40
15.49999999999997
100
AcDbArc
 50
55.41462091516056
 51
64.58537908483883
  0
ARC
  5
201
330
42
100
AcDbEntity
  8
1
  6
Continuous
 62
     7
100
AcDbCircle
 10
102.9931971472875
 20
482.7558716527597
 30
0.0
 40
15.50000000000014
100
AcDbArc
 50
-4.58537908483931
 51
4.58537908483892
  0
ARC
  5
202
330
42
100
AcDbEntity
  8
1
  6
Continuous
 62
     7
100
AcDbCircle
 10
102.9931971472875
 20
482.7558716527597
 30
0.0
 40
15.50000000000015
100
AcDbArc
 50
-58.927049027847
 51
-55.41462091516111
  0
ARC
  5
203
330
42
100
AcDbEntity
  8
1
  6
Continuous
 62
     7
100
AcDbCircle
 10
102.9931971472875
 20
482.7558716527597
 30
0.0
 40
15.49999999999995
100
AcDbArc
 50
-124.5853790848386
 51
-121.0729509721532
  0
ARC
  5
204
330
42
100
AcDbEntity
  8
1
  6
Continuous
 62
     7
100
AcDbCircle
 10
102.9931971472875
 20
482.7558716527597
 30
0.0
 40
10.49999999999998
100
AcDbArc
 50
120.0000000000001
 51
-139.6324064558141
  0
SPLINE
  5
205
330
42
100
AcDbEntity
  8
1
  6
Continuous
 62
     7
100
AcDbSpline
210
0.0
220
0.0
230
1.0
 70
    11
 71
     3
 72
    79
 73
    75
 74
    73
 42
0.0000000001
 43
0.0000000001
 44
0.00000001
 40
0.0
 40
0.0
 40
0.0
 40
0.0
 40
0.2903672562529074
 40
0.580735759793404
 40
0.8724071051837068
 40
1.164081918217471
 40
1.458189931540028
 40
1.75230292736052
 40
2.049663207833726
 40
2.347029113126256
 40
2.648045792769473
 40
2.949067942939013
 40
3.253697753141584
 40
3.558332281909182
 40
3.866104864362607
 40
4.173881026138546
 40
4.48396606773496
 40
4.794053328113888
 40
5.105362224076058
 40
5.416671870214261
 40
5.727981516352435
 40
6.039290412314522
 40
6.34937767269345
 40
6.659462714289837
 40
6.967238876065771
 40
7.275011458519202
 40
7.579645987286874
 40
7.884275797489491
 40
8.185297947658965
 40
8.486314627302141
 40
8.783680532594723
 40
9.081040813067878
 40
9.375153808888342
 40
9.669261822210922
 40
9.960936635244705
 40
10.25260798063502
 40
10.54297648417551
 40
10.83334374042841
 40
11.12371099668138
 40
11.4140795002219
 40
11.70575084561218
 40
11.99742565864602
 40
12.29153367196865
 40
12.58564666778915
 40
12.88300694826232
 40
13.18037285355489
 40
13.48138953319806
 40
13.78241168336754
 40
14.08704149357009
 40
14.39167602233772
 40
14.69944860479115
 40
15.00722476656717
 40
15.31730980816356
 40
15.62739706854248
 40
15.93870596450459
 40
16.25001561064274
 40
16.56132525678097
 40
16.8726341527431
 40
17.18272141312199
 40
17.49280645471845
 40
17.80058261649442
 40
18.10835519894789
 40
18.41298972771544
 40
18.71761953791795
 40
19.01864168808747
 40
19.31965836773071
 40
19.61702427302326
 40
19.91438455349644
 40
20.20849754931698
 40
20.50260556263958
 40
20.79428037567338
 40
21.08595172106366
 40
21.37632022460421
 40
21.66668748085716
 40
21.66668748085716
 40
21.66668748085716
 40
21.66668748085716
 10
115.1175528002698
 20
170.3460766618202
 30
0.0
 10
115.2143766100038
 20
170.3434450644174
 30
0.0
 10
115.4080246453835
 20
170.3381818583077
 30
0.0
 10
115.6963855237718
 20
170.2958867846139
 30
0.0
 10
115.980097667018
 20
170.2286758915717
 30
0.0
 10
116.2575227293782
 20
170.1346207260201
 30
0.0
 10
116.5258436404541
 20
170.0151892681042
 30
0.0
 10
116.7838434035645
 20
169.8709137724344
 30
0.0
 10
117.0286454065868
 20
169.7033096970716
 30
0.0
 10
117.2593416314305
 20
169.5131471427702
 30
0.0
 10
117.4732373384994
 20
169.3025244223305
 30
0.0
 10
117.6696108808785
 20
169.0723028063816
 30
0.0
 10
117.8461602258474
 20
168.8250663828755
 30
0.0
 10
118.0022630223274
 20
168.5618322085281
 30
0.0
 10
118.1361520367497
 20
168.2854686538526
 30
0.0
 10
118.2472800535683
 20
167.9972552099031
 30
0.0
 10
118.3344708133676
 20
167.7001167666677
 30
0.0
 10
118.3972964198264
 20
167.3956936125582
 30
0.0
 10
118.4351449696008
 20
167.0867570001924
 30
0.0
 10
118.4478072315585
 20
166.7753624475485
 30
0.0
 10
118.4351449696008
 20
166.4639678949063
 30
0.0
 10
118.3972964198264
 20
166.1550312825359
 30
0.0
 10
118.3344708133676
 20
165.8506081284434
 30
0.0
 10
118.2472800535682
 20
165.5534696851452
 30
0.0
 10
118.1361520367498
 20
165.2652562414276
 30
0.0
 10
118.0022630223274
 20
164.9888926858913
 30
0.0
 10
117.8461602258475
 20
164.7256585147248
 30
0.0
 10
117.6696108808786
 20
164.4784220794195
 30
0.0
 10
117.4732373384994
 20
164.2482005070055
 30
0.0
 10
117.2593416314305
 20
164.0375776251548
 30
0.0
 10
117.0286454065868
 20
163.8474156662475
 30
0.0
 10
116.7838434035645
 20
163.6798093826277
 30
0.0
 10
116.5258436404541
 20
163.5355420421437
 30
0.0
 10
116.2575227293782
 20
163.4160803027866
 30
0.0
 10
115.980097667018
 20
163.3221372557183
 30
0.0
 10
115.6963855237718
 20
163.2545092832704
 30
0.0
 10
115.4080246453835
 20
163.213764158422
 30
0.0
 10
115.1175528002698
 20
163.2000902804948
 30
0.0
 10
114.8270809551561
 20
163.2137641584219
 30
0.0
 10
114.5387200767678
 20
163.2545092832705
 30
0.0
 10
114.2550079335215
 20
163.3221372557182
 30
0.0
 10
113.9775828711613
 20
163.4160803027866
 30
0.0
 10
113.7092619600854
 20
163.5355420421438
 30
0.0
 10
113.4512621969749
 20
163.6798093826276
 30
0.0
 10
113.2064601939526
 20
163.8474156662475
 30
0.0
 10
112.9757639691089
 20
164.0375776251548
 30
0.0
 10
112.7618682620399
 20
164.2482005070056
 30
0.0
 10
112.5654947196608
 20
164.4784220794194
 30
0.0
 10
112.3889453746921
 20
164.7256585147249
 30
0.0
 10
112.2328425782123
 20
164.9888926858913
 30
0.0
 10
112.0989535637898
 20
165.2652562414276
 30
0.0
 10
111.9878255469711
 20
165.5534696851452
 30
0.0
 10
111.9006347871718
 20
165.8506081284434
 30
0.0
 10
111.837809180713
 20
166.1550312825359
 30
0.0
 10
111.7999606309387
 20
166.4639678949063
 30
0.0
 10
111.787298368981
 20
166.7753624475486
 30
0.0
 10
111.7999606309387
 20
167.0867570001924
 30
0.0
 10
111.837809180713
 20
167.3956936125582
 30
0.0
 10
111.9006347871718
 20
167.7001167666676
 30
0.0
 10
111.9878255469711
 20
167.9972552099032
 30
0.0
 10
112.0989535637897
 20
168.2854686538527
 30
0.0
 10
112.2328425782122
 20
168.5618322085281
 30
0.0
 10
112.388945374692
 20
168.8250663828755
 30
0.0
 10
112.5654947196609
 20
169.0723028063817
 30
0.0
 10
112.76186826204
 20
169.3025244223305
 30
0.0
 10
112.9757639691088
 20
169.5131471427702
 30
0.0
 10
113.2064601939527
 20
169.7033096970715
 30
0.0
 10
113.4512621969749
 20
169.8709137724345
 30
0.0
 10
113.7092619600853
 20
170.0151892681043
 30
0.0
 10
113.9775828711613
 20
170.13462072602
 30
0.0
 10
114.2550079335215
 20
170.2286758915718
 30
0.0
 10
114.5387200767678
 20
170.2958867846139
 30
0.0
 10
114.8270809551561
 20
170.3381818583077
 30
0.0
 10
115.0207289905358
 20
170.3434450644174
 30
0.0
 10
115.1175528002698
 20
170.3460766618202
 30
0.0
 11
115.1175528002698
 21
170.3460766618202
 31
0.0
 11
115.4076005620678
 21
170.3324590489677
 31
0.0
 11
115.6951124866035
 21
170.2918294895542
 31
0.0
 11
115.9788497964721
 21
170.2242623917157
 31
0.0
 11
116.2551233141273
 21
170.130736245635
 31
0.0
 11
116.5238403762261
 21
170.0111926801973
 31
0.0
 11
116.780569637226
 21
169.8676916667621
 31
0.0
 11
117.0259869270082
 21
169.6997824940553
 31
0.0
 11
117.2554860352609
 21
169.5106882293574
 31
0.0
 11
117.4700405942977
 21
169.2995546635278
 31
0.0
 11
117.665442413797
 21
169.0705733022141
 31
0.0
 11
117.8425458189373
 21
168.8227150662166
 31
0.0
 11
117.9979824557205
 21
168.5607195546845
 31
0.0
 11
118.1322356843436
 21
168.2837718464175
 31
0.0
 11
118.2430021001307
 21
167.9966186348889
 31
0.0
 11
118.3303598556037
 21
167.6990932484417
 31
0.0
 11
118.3930565491184
 21
167.3954104638265
 31
0.0
 11
118.4309389690876
 21
167.086415073954
 31
0.0
 11
118.4435864741823
 21
166.7753624475488
 31
0.0
 11
118.4309389690876
 21
166.4643098211436
 31
0.0
 11
118.3930565491184
 21
166.1553144312712
 31
0.0
 11
118.3303598556037
 21
165.851631646656
 31
0.0
 11
118.2430021001307
 21
165.5541062602088
 31
0.0
 11
118.1322356843436
 21
165.2669530486802
 31
0.0
 11
117.9979824557205
 21
164.9900053404132
 31
0.0
 11
117.8425458189373
 21
164.728009828881
 31
0.0
 11
117.665442413797
 21
164.4801515928835
 31
0.0
 11
117.4700405942977
 21
164.2511702315699
 31
0.0
 11
117.2554860352609
 21
164.0400366657403
 31
0.0
 11
117.0259869270081
 21
163.8509424010424
 31
0.0
 11
116.780569637226
 21
163.6830332283356
 31
0.0
 11
116.5238403762261
 21
163.5395322149005
 31
0.0
 11
116.2551233141273
 21
163.4199886494627
 31
0.0
 11
115.9788497964721
 21
163.326462503382
 31
0.0
 11
115.6951124866035
 21
163.2588954055434
 31
0.0
 11
115.4076005620678
 21
163.21826584613
 31
0.0
 11
115.1175528002698
 21
163.2046482332775
 31
0.0
 11
114.8275050384717
 21
163.21826584613
 31
0.0
 11
114.539993113936
 21
163.2588954055434
 31
0.0
 11
114.2562558040674
 21
163.3264625033819
 31
0.0
 11
113.9799822864122
 21
163.4199886494627
 31
0.0
 11
113.7112652243134
 21
163.5395322149005
 31
0.0
 11
113.4545359633134
 21
163.6830332283356
 31
0.0
 11
113.2091186735313
 21
163.8509424010424
 31
0.0
 11
112.9796195652785
 21
164.0400366657403
 31
0.0
 11
112.7650650062417
 21
164.2511702315699
 31
0.0
 11
112.5696631867424
 21
164.4801515928835
 31
0.0
 11
112.3925597816022
 21
164.728009828881
 31
0.0
 11
112.2371231448191
 21
164.9900053404132
 31
0.0
 11
112.102869916196
 21
165.2669530486802
 31
0.0
 11
111.9921035004087
 21
165.5541062602088
 31
0.0
 11
111.9047457449357
 21
165.851631646656
 31
0.0
 11
111.842049051421
 21
166.1553144312712
 31
0.0
 11
111.8041666314519
 21
166.4643098211436
 31
0.0
 11
111.7915191263572
 21
166.7753624475488
 31
0.0
 11
111.8041666314519
 21
167.086415073954
 31
0.0
 11
111.842049051421
 21
167.3954104638265
 31
0.0
 11
111.9047457449357
 21
167.6990932484416
 31
0.0
 11
111.9921035004087
 21
167.9966186348889
 31
0.0
 11
112.1028699161959
 21
168.2837718464175
 31
0.0
 11
112.2371231448191
 21
168.5607195546845
 31
0.0
 11
112.3925597816022
 21
168.8227150662166
 31
0.0
 11
112.5696631867424
 21
169.0705733022141
 31
0.0
 11
112.7650650062417
 21
169.2995546635277
 31
0.0
 11
112.9796195652785
 21
169.5106882293574
 31
0.0
 11
113.2091186735313
 21
169.6997824940553
 31
0.0
 11
113.4545359633134
 21
169.8676916667621
 31
0.0
 11
113.7112652243134
 21
170.0111926801973
 31
0.0
 11
113.9799822864122
 21
170.130736245635
 31
0.0
 11
114.2562558040674
 21
170.2242623917157
 31
0.0
 11
114.539993113936
 21
170.2918294895542
 31
0.0
 11
114.8275050384717
 21
170.3324590489677
 31
0.0
 11
115.1175528002698
 21
170.3460766618202
 31
0.0
  0
SPLINE
  5
206
330
42
100
AcDbEntity
  8
1
  6
Continuous
 62
     7
100
AcDbSpline
210
0.0
220
0.0
230
1.0
 70
    11
 71
     3
 72
    79
 73
    75
 74
    73
 42
0.0000000001
 43
0.0000000001
 44
0.00000001
 40
0.0
 40
0.0
 40
0.0
 40
0.0
 40
0.2903672562529074
 40
0.580735759793404
 40
0.872407105183693
 40
1.164081918217471
 40
1.458189931540028
 40
1.752302927360519
 40
2.049663207833714
 40
2.347029113126255
 40
2.648045792769461
 40
2.94906794293901
 40
3.253697753141582
 40
3.558332281909187
 40
3.866104864362618
 40
4.173881026138547
 40
4.483966067734961
 40
4.794053328113889
 40
5.10536222407606
 40
5.416671870214263
 40
5.727981516352438
 40
6.039290412314525
 40
6.349377672693453
 40
6.659462714289839
 40
6.967238876065774
 40
7.275011458519199
 40
7.57964598728687
 40
7.884275797489496
 40
8.18529794765899
 40
8.486314627302146
 40
8.783680532594705
 40
9.081040813067883
 40
9.37515380888836
 40
9.669261822210927
 40
9.960936635244723
 40
10.25260798063503
 40
10.54297648417551
 40
10.83334374042842
 40
11.12371099668138
 40
11.41407950022189
 40
11.70575084561218
 40
11.99742565864603
 40
12.29153367196865
 40
12.58564666778914
 40
12.88300694826231
 40
13.18037285355488
 40
13.48138953319804
 40
13.78241168336753
 40
14.08704149357009
 40
14.39167602233772
 40
14.69944860479116
 40
15.00722476656716
 40
15.31730980816356
 40
15.62739706854248
 40
15.93870596450458
 40
16.25001561064273
 40
16.56132525678096
 40
16.8726341527431
 40
17.18272141312199
 40
17.49280645471844
 40
17.80058261649442
 40
18.10835519894788
 40
18.41298972771544
 40
18.71761953791795
 40
19.01864168808747
 40
19.3196583677307
 40
19.61702427302325
 40
19.91438455349644
 40
20.20849754931697
 40
20.50260556263956
 40
20.79428037567337
 40
21.08595172106366
 40
21.37632022460419
 40
21.66668748085714
 40
21.66668748085714
 40
21.66668748085714
 40
21.66668748085714
 10
90.86884149430532
 20
170.3460766618202
 30
0.0
 10
90.77201768457132
 20
170.3434450644174
 30
0.0
 10
90.57836964919162
 20
170.3381818583077
 30
0.0
 10
90.2900087708034
 20
170.295886784614
 30
0.0
 10
90.00629662755711
 20
170.2286758915717
 30
0.0
 10
89.72887156519693
 20
170.1346207260201
 30
0.0
 10
89.46055065412101
 20
170.0151892681042
 30
0.0
 10
89.20255089101063
 20
169.8709137724344
 30
0.0
 10
88.95774888798839
 20
169.7033096970716
 30
0.0
 10
88.72705266314456
 20
169.5131471427702
 30
0.0
 10
88.5131569560757
 20
169.3025244223305
 30
0.0
 10
88.31678341369658
 20
169.0723028063817
 30
0.0
 10
88.14023406872771
 20
168.8250663828756
 30
0.0
 10
87.98413127224768
 20
168.561832208528
 30
0.0
 10
87.85024225782536
 20
168.2854686538527
 30
0.0
 10
87.73911424100686
 20
167.9972552099031
 30
0.0
 10
87.65192348120753
 20
167.7001167666677
 30
0.0
 10
87.5890978747487
 20
167.3956936125582
 30
0.0
 10
87.55124932497436
 20
167.0867570001925
 30
0.0
 10
87.53858706301656
 20
166.7753624475485
 30
0.0
 10
87.55124932497435
 20
166.4639678949063
 30
0.0
 10
87.5890978747487
 20
166.1550312825359
 30
0.0
 10
87.65192348120752
 20
165.8506081284434
 30
0.0
 10
87.73911424100689
 20
165.5534696851453
 30
0.0
 10
87.85024225782533
 20
165.2652562414276
 30
0.0
 10
87.98413127224775
 20
164.9888926858913
 30
0.0
 10
88.14023406872764
 20
164.7256585147248
 30
0.0
 10
88.31678341369656
 20
164.4784220794195
 30
0.0
 10
88.51315695607573
 20
164.2482005070056
 30
0.0
 10
88.72705266314459
 20
164.0375776251548
 30
0.0
 10
88.95774888798836
 20
163.8474156662475
 30
0.0
 10
89.20255089101062
 20
163.6798093826276
 30
0.0
 10
89.46055065412104
 20
163.5355420421437
 30
0.0
 10
89.72887156519691
 20
163.4160803027866
 30
0.0
 10
90.00629662755713
 20
163.3221372557183
 30
0.0
 10
90.29000877080335
 20
163.2545092832704
 30
0.0
 10
90.57836964919163
 20
163.213764158422
 30
0.0
 10
90.86884149430534
 20
163.2000902804948
 30
0.0
 10
91.15931333941903
 20
163.2137641584219
 30
0.0
 10
91.44767421780739
 20
163.2545092832705
 30
0.0
 10
91.7313863610536
 20
163.3221372557181
 30
0.0
 10
92.0088114234138
 20
163.4160803027866
 30
0.0
 10
92.27713233448975
 20
163.5355420421438
 30
0.0
 10
92.53513209760018
 20
163.6798093826276
 30
0.0
 10
92.77993410062247
 20
163.8474156662474
 30
0.0
 10
93.01063032546622
 20
164.0375776251548
 30
0.0
 10
93.22452603253512
 20
164.2482005070054
 30
0.0
 10
93.42089957491427
 20
164.4784220794195
 30
0.0
 10
93.59744891988305
 20
164.7256585147248
 30
0.0
 10
93.75355171636288
 20
164.9888926858914
 30
0.0
 10
93.88744073078537
 20
165.2652562414276
 30
0.0
 10
93.99856874760393
 20
165.5534696851452
 30
0.0
 10
94.08575950740341
 20
165.8506081284433
 30
0.0
 10
94.14858511386211
 20
166.1550312825359
 30
0.0
 10
94.18643366363644
 20
166.4639678949063
 30
0.0
 10
94.19909592559411
 20
166.7753624475485
 30
0.0
 10
94.18643366363648
 20
167.0867570001925
 30
0.0
 10
94.14858511386207
 20
167.3956936125581
 30
0.0
 10
94.08575950740338
 20
167.7001167666677
 30
0.0
 10
93.99856874760397
 20
167.9972552099032
 30
0.0
 10
93.88744073078536
 20
168.2854686538526
 30
0.0
 10
93.75355171636289
 20
168.5618322085281
 30
0.0
 10
93.59744891988302
 20
168.8250663828755
 30
0.0
 10
93.42089957491426
 20
169.0723028063817
 30
0.0
 10
93.22452603253514
 20
169.3025244223305
 30
0.0
 10
93.01063032546628
 20
169.5131471427703
 30
0.0
 10
92.77993410062243
 20
169.7033096970715
 30
0.0
 10
92.5351320976002
 20
169.8709137724345
 30
0.0
 10
92.27713233448981
 20
170.0151892681042
 30
0.0
 10
92.00881142341379
 20
170.13462072602
 30
0.0
 10
91.73138636105361
 20
170.2286758915718
 30
0.0
 10
91.44767421780736
 20
170.2958867846139
 30
0.0
 10
91.15931333941902
 20
170.3381818583077
 30
0.0
 10
90.96566530403933
 20
170.3434450644174
 30
0.0
 10
90.86884149430532
 20
170.3460766618202
 30
0.0
 11
90.86884149430532
 21
170.3460766618202
 31
0.0
 11
90.57879373250729
 21
170.3324590489677
 31
0.0
 11
90.29128180797162
 21
170.2918294895542
 31
0.0
 11
90.00754449810303
 21
170.2242623917157
 31
0.0
 11
89.73127098044782
 21
170.130736245635
 31
0.0
 11
89.46255391834906
 21
170.0111926801973
 31
0.0
 11
89.20582465734913
 21
169.8676916667621
 31
0.0
 11
88.96040736756696
 21
169.6997824940553
 31
0.0
 11
88.73090825931422
 21
169.5106882293574
 31
0.0
 11
88.51635370027741
 21
169.2995546635278
 31
0.0
 11
88.32095188077813
 21
169.0705733022141
 31
0.0
 11
88.14384847563784
 21
168.8227150662166
 31
0.0
 11
87.9884118388546
 21
168.5607195546845
 31
0.0
 11
87.85415861023154
 21
168.2837718464175
 31
0.0
 11
87.74339219444443
 21
167.9966186348889
 31
0.0
 11
87.65603443897146
 21
167.6990932484417
 31
0.0
 11
87.59333774545672
 21
167.3954104638265
 31
0.0
 11
87.55545532548752
 21
167.086415073954
 31
0.0
 11
87.54280782039282
 21
166.7753624475488
 31
0.0
 11
87.55545532548752
 21
166.4643098211436
 31
0.0
 11
87.59333774545672
 21
166.1553144312712
 31
0.0
 11
87.65603443897146
 21
165.851631646656
 31
0.0
 11
87.74339219444443
 21
165.5541062602088
 31
0.0
 11
87.85415861023155
 21
165.2669530486802
 31
0.0
 11
87.9884118388546
 21
164.9900053404132
 31
0.0
 11
88.14384847563782
 21
164.728009828881
 31
0.0
 11
88.32095188077813
 21
164.4801515928835
 31
0.0
 11
88.51635370027742
 21
164.2511702315699
 31
0.0
 11
88.73090825931422
 21
164.0400366657403
 31
0.0
 11
88.96040736756696
 21
163.8509424010424
 31
0.0
 11
89.20582465734913
 21
163.6830332283356
 31
0.0
 11
89.46255391834907
 21
163.5395322149005
 31
0.0
 11
89.73127098044782
 21
163.4199886494627
 31
0.0
 11
90.00754449810303
 21
163.326462503382
 31
0.0
 11
90.29128180797162
 21
163.2588954055434
 31
0.0
 11
90.57879373250729
 21
163.21826584613
 31
0.0
 11
90.86884149430532
 21
163.2046482332775
 31
0.0
 11
91.15888925610339
 21
163.21826584613
 31
0.0
 11
91.4464011806391
 21
163.2588954055434
 31
0.0
 11
91.73013849050768
 21
163.3264625033819
 31
0.0
 11
92.00641200816293
 21
163.4199886494627
 31
0.0
 11
92.27512907026173
 21
163.5395322149005
 31
0.0
 11
92.5318583312617
 21
163.6830332283356
 31
0.0
 11
92.77727562104386
 21
163.8509424010424
 31
0.0
 11
93.00677472929661
 21
164.0400366657403
 31
0.0
 11
93.22132928833344
 21
164.2511702315699
 31
0.0
 11
93.4167311078327
 21
164.4801515928835
 31
0.0
 11
93.59383451297289
 21
164.728009828881
 31
0.0
 11
93.74927114975603
 21
164.9900053404132
 31
0.0
 11
93.88352437837916
 21
165.2669530486802
 31
0.0
 11
93.9942907941664
 21
165.5541062602088
 31
0.0
 11
94.08164854963941
 21
165.851631646656
 31
0.0
 11
94.14434524315411
 21
166.1553144312712
 31
0.0
 11
94.18222766312326
 21
166.4643098211436
 31
0.0
 11
94.19487516821792
 21
166.7753624475488
 31
0.0
 11
94.18222766312327
 21
167.086415073954
 31
0.0
 11
94.14434524315411
 21
167.3954104638265
 31
0.0
 11
94.08164854963941
 21
167.6990932484416
 31
0.0
 11
93.9942907941664
 21
167.9966186348889
 31
0.0
 11
93.88352437837916
 21
168.2837718464175
 31
0.0
 11
93.74927114975603
 21
168.5607195546845
 31
0.0
 11
93.59383451297288
 21
168.8227150662166
 31
0.0
 11
93.4167311078327
 21
169.0705733022141
 31
0.0
 11
93.22132928833344
 21
169.2995546635277
 31
0.0
 11
93.00677472929661
 21
169.5106882293574
 31
0.0
 11
92.77727562104386
 21
169.6997824940553
 31
0.0
 11
92.5318583312617
 21
169.8676916667621
 31
0.0
 11
92.27512907026173
 21
170.0111926801973
 31
0.0
 11
92.00641200816293
 21
170.130736245635
 31
0.0
 11
91.73013849050768
 21
170.2242623917157
 31
0.0
 11
91.4464011806391
 21
170.2918294895542
 31
0.0
 11
91.15888925610338
 21
170.3324590489677
 31
0.0
 11
90.86884149430532
 21
170.3460766618202
 31
0.0
  0
ARC
  5
207
330
42
100
AcDbEntity
  8
1
  6
Continuous
 62
     7
100
AcDbCircle
 10
91.43517608555692
 20
170.6328994121073
 30
0.0
 40
0.9999999999999147
100
AcDbArc
 50
90.0
 51
105.3375576695521
  0
ARC
  5
208
330
42
100
AcDbEntity
  8
1
  6
Continuous
 62
     7
100
AcDbCircle
 10
93.2252479548564
 20
171.6328994121074
 30
0.0
 40
0.9999999999998863
100
AcDbArc
 50
90.0
 51
137.0585971351261
  0
ARC
  5
209
330
42
100
AcDbEntity
  8
1
  6
Continuous
 62
     7
100
AcDbCircle
 10
91.49319714728762
 20
172.6328994121073
 30
0.0
 40
0.9999999999998863
100
AcDbArc
 50
-90.0
 51
-30.00000000000559
  0
ARC
  5
20A
330
42
100
AcDbEntity
  8
1
  6
Continuous
 62
     7
100
AcDbCircle
 10
93.2252479548564
 20
171.6328994121074
 30
0.0
 40
0.9999999999997729
100
AcDbArc
 50
137.0585971351261
 51
150.0000000000085
  0
ARC
  5
20B
330
42
100
AcDbEntity
  8
1
  6
Continuous
 62
     7
100
AcDbCircle
 10
112.7611463397187
 20
171.6328994121074
 30
0.0
 40
0.9999999999998561
100
AcDbArc
 50
42.94140286486945
 51
90.0
  0
ARC
  5
20C
330
42
100
AcDbEntity
  8
1
  6
Continuous
 62
     7
100
AcDbCircle
 10
112.7611463397187
 20
171.6328994121074
 30
0.0
 40
0.9999999999998595
100
AcDbArc
 50
29.99999999999149
 51
42.94140286486945
  0
ARC
  5
20D
330
42
100
AcDbEntity
  8
1
  6
Continuous
 62
     7
100
AcDbCircle
 10
114.4931971472876
 20
172.6328994121073
 30
0.0
 40
1.0000000000001
100
AcDbArc
 50
-149.9999999999977
 51
-90.0
  0
ARC
  5
20E
330
42
100
AcDbEntity
  8
1
  6
Continuous
 62
     7
100
AcDbCircle
 10
114.5512182090182
 20
170.6328994121073
 30
0.0
 40
0.9999999999999989
100
AcDbArc
 50
74.66244233044795
 51
90.0
  0
ENDBLK
  5
44
330
42
100
AcDbEntity
  8
0
100
AcDbBlockEnd
  0
BLOCK
  5
46
330
45
100
AcDbEntity
  8
0
100
AcDbBlockBegin
  2
61-5A-16-M11
 70
     0
 71
     0
 10
186.9918662596455
 20
361.0567643631454
 30
0.0
  3
61-5A-16-M11
  1

  0
LINE
  5
20F
330
45
100
AcDbEntity
  8
1
  6
Continuous
 62
     7
100
AcDbLine
 10
195.5742459550847
 20
279.2931294360738
 30
0.0
 11
194.2893686735335
 21
273.946865952897
 31
0.0
  0
LINE
  5
210
330
45
100
AcDbEntity
  8
1
  6
Continuous
 62
     7
100
AcDbLine
 10
180.3931001573934
 20
284.5959768582153
 30
0.0
 11
178.7323440764077
 21
277.6857141290633
 31
0.0
  0
LINE
  5
211
330
45
100
AcDbEntity
  8
1
  6
Continuous
 62
     7
100
AcDbLine
 10
178.1605591026368
 20
272.6807607520504
 30
0.0
 11
192.5243735372003
 21
269.2286789567063
 31
0.0
  0
LINE
  5
212
330
45
100
AcDbEntity
  8
1
  6
Continuous
 62
     7
100
AcDbLine
 10
309.3730956074254
 20
263.4712678121589
 30
0.0
 11
309.3730956074254
 21
172.6328994121073
 31
0.0
  0
LINE
  5
213
330
45
100
AcDbEntity
  8
1
  6
Continuous
 62
     7
100
AcDbLine
 10
293.3730956074254
 20
259.1840807332609
 30
0.0
 11
293.3730956074254
 21
172.6328994121073
 31
0.0
  0
LINE
  5
214
330
45
100
AcDbEntity
  8
1
  6
Continuous
 62
     7
100
AcDbLine
 10
309.3730956074254
 20
268.4547198543782
 30
0.0
 11
309.3730956074254
 21
263.4712678121589
 31
0.0
  0
LINE
  5
215
330
45
100
AcDbEntity
  8
1
  6
Continuous
 62
     7
100
AcDbLine
 10
293.3730956074254
 20
268.4547198543782
 30
0.0
 11
293.3730956074254
 21
259.1840807332609
 31
0.0
  0
LINE
  5
216
330
45
100
AcDbEntity
  8
1
  6
Continuous
 62
     7
100
AcDbLine
 10
178.7323440764077
 20
277.6857141290633
 30
0.0
 11
194.2893686735335
 21
273.946865952897
 31
0.0
  0
LINE
  5
217
330
45
100
AcDbEntity
  8
1
  6
Continuous
 62
     7
100
AcDbLine
 10
94.99319714728742
 20
270.9547198543784
 30
0.0
 11
94.9931971472875
 21
172.6328994121073
 31
0.0
  0
LINE
  5
218
330
45
100
AcDbEntity
  8
1
  6
Continuous
 62
     7
100
AcDbLine
 10
94.9931971472875
 20
325.9547198543781
 30
0.0
 11
94.9931971472875
 21
275.2956639618972
 31
0.0
  0
LINE
  5
219
330
45
100
AcDbEntity
  8
1
  6
Continuous
 62
     7
100
AcDbLine
 10
110.9931971472875
 20
172.6328994121073
 30
0.0
 11
110.9931971472876
 21
270.9547198543784
 31
0.0
  0
LINE
  5
21A
330
45
100
AcDbEntity
  8
1
  6
Continuous
 62
     7
100
AcDbLine
 10
110.9931971472876
 20
275.2956639618972
 30
0.0
 11
110.9931971472876
 21
325.9547198543781
 31
0.0
  0
LINE
  5
21B
330
45
100
AcDbEntity
  8
1
  6
Continuous
 62
     7
100
AcDbLine
 10
94.9931971472875
 20
366.7252423652529
 30
0.0
 11
94.9931971472875
 21
482.7558716527597
 31
0.0
  0
LINE
  5
21C
330
45
100
AcDbEntity
  8
1
  6
Continuous
 62
     7
100
AcDbLine
 10
110.9931971472875
 20
482.7558716527597
 30
0.0
 11
110.9931971472875
 21
366.7252423652529
 31
0.0
  0
LINE
  5
21D
330
45
100
AcDbEntity
  8
1
  6
Continuous
 62
     7
100
AcDbLine
 10
103.8648580612685
 20
270.2869691541284
 30
0.0
 11
104.4892141627457
 21
269.9402466004221
 31
0.0
  0
LINE
  5
21E
330
45
100
AcDbEntity
  8
1
  6
Continuous
 62
     7
100
AcDbLine
 10
104.5093690527283
 20
272.645263495171
 30
0.0
 11
103.8969656918032
 21
272.3051786354318
 31
0.0
  0
LINE
  5
21F
330
45
100
AcDbEntity
  8
1
  6
Continuous
 62
     7
100
AcDbLine
 10
103.8969655782599
 20
272.6686113177416
 30
0.0
 11
103.8969656918032
 21
272.3051786354318
 31
0.0
  0
LINE
  5
220
330
45
100
AcDbEntity
  8
1
  6
Continuous
 62
     7
100
AcDbLine
 10
102.1533479318775
 20
272.6686161878277
 30
0.0
 11
102.1533480454747
 21
272.305011179329
 31
0.0
  0
LINE
  5
221
330
45
100
AcDbEntity
  8
1
  6
Continuous
 62
     7
100
AcDbLine
 10
99.50332354399461
 20
271.7112875717756
 30
0.0
 11
99.50332393474011
 21
270.4605786118129
 31
0.0
  0
LINE
  5
222
330
45
100
AcDbEntity
  8
1
  6
Continuous
 62
     7
100
AcDbLine
 10
106.483070483852
 20
271.734492141177
 30
0.0
 11
106.4830708818435
 21
270.4605896389003
 31
0.0
  0
LINE
  5
223
330
45
100
AcDbEntity
  8
1
  6
Continuous
 62
     7
100
AcDbLine
 10
103.8651540054656
 20
269.8843746878052
 30
0.0
 11
103.8651532861554
 21
272.1867624090968
 31
0.0
  0
LINE
  5
224
330
45
100
AcDbEntity
  8
1
  6
Continuous
 62
     7
100
AcDbLine
 10
106.7431400895103
 20
272.4800749524025
 30
0.0
 11
106.806826455203
 21
272.5154417876062
 31
0.0
  0
LINE
  5
225
330
45
100
AcDbEntity
  8
1
  6
Continuous
 62
     7
100
AcDbLine
 10
97.96414107251601
 20
271.0913488417739
 30
0.0
 11
96.30546637816221
 21
271.0913455958989
 31
0.0
  0
LINE
  5
226
330
45
100
AcDbEntity
  8
1
  6
Continuous
 62
     7
100
AcDbLine
 10
106.743140829367
 20
270.1119207752762
 30
0.0
 11
106.8692068876209
 21
270.0419132550065
 31
0.0
  0
LINE
  5
227
330
45
100
AcDbEntity
  8
1
  6
Continuous
 62
     7
100
AcDbLine
 10
109.6816019423435
 20
271.0913691401342
 30
0.0
 11
108.0222533499363
 21
271.0913658929406
 31
0.0
  0
LINE
  5
228
330
45
100
AcDbEntity
  8
1
  6
Continuous
 62
     7
100
AcDbLine
 10
108.0222532220728
 20
271.500634840952
 30
0.0
 11
109.68160181448
 21
271.5006380881455
 31
0.0
  0
LINE
  5
229
330
45
100
AcDbEntity
  8
1
  6
Continuous
 62
     7
100
AcDbLine
 10
99.24325346522173
 20
272.4800629074496
 30
0.0
 11
99.17956707743312
 21
272.5154294933947
 31
0.0
  0
LINE
  5
22A
330
45
100
AcDbEntity
  8
1
  6
Continuous
 62
     7
100
AcDbLine
 10
102.1533480454747
 20
272.305011179329
 30
0.0
 11
101.5406490708183
 21
272.6452576856573
 31
0.0
  0
LINE
  5
22B
330
45
100
AcDbEntity
  8
1
  6
Continuous
 62
     7
100
AcDbLine
 10
96.30479235224541
 20
271.5006145425913
 30
0.0
 11
97.96414094465251
 21
271.500617789785
 31
0.0
  0
LINE
  5
22C
330
45
100
AcDbEntity
  8
1
  6
Continuous
 62
     7
100
AcDbLine
 10
102.1215363590858
 20
269.8843712757049
 30
0.0
 11
102.1215356397756
 21
272.1867589969965
 31
0.0
  0
LINE
  5
22D
330
45
100
AcDbEntity
  8
1
  6
Continuous
 62
     7
100
AcDbLine
 10
101.4971801318292
 20
269.9402466004221
 30
0.0
 11
102.1215362333065
 21
270.2869691541284
 31
0.0
  0
LINE
  5
22E
330
45
100
AcDbEntity
  8
1
  6
Continuous
 62
     7
100
AcDbLine
 10
99.18183294436952
 20
270.0777997718065
 30
0.0
 11
99.2432542050785
 21
270.1119087303232
 31
0.0
  0
ARC
  5
22F
330
45
100
AcDbEntity
  8
1
  6
Continuous
 62
     7
100
AcDbCircle
 10
190.6672748896639
 20
272.6126097493251
 30
0.0
 40
3.860026294718104
100
AcDbArc
 50
-61.24205336352251
 51
-13.51370885994273
  0
ARC
  5
230
330
45
100
AcDbEntity
  8
1
  6
Continuous
 62
     7
100
AcDbCircle
 10
190.6672748896639
 20
272.6126097493251
 30
0.0
 40
3.860026294718292
100
AcDbArc
 50
-13.51370885994273
 51
20.22208214008769
  0
ARC
  5
231
330
45
100
AcDbEntity
  8
1
  6
Continuous
 62
     7
100
AcDbCircle
 10
181.3525575455821
 20
274.8512328058098
 30
0.0
 40
3.860026294718183
100
AcDbArc
 50
132.7505001400267
 51
166.4862911400569
  0
ARC
  5
232
330
45
100
AcDbEntity
  8
1
  6
Continuous
 62
     7
100
AcDbCircle
 10
181.3525575455821
 20
274.8512328058098
 30
0.0
 40
3.860026294718182
100
AcDbArc
 50
166.4862911400569
 51
-145.7853643563622
  0
ARC
  5
233
330
45
100
AcDbEntity
  8
0
  6
Continuous
 62
     7
100
AcDbCircle
 10
243.8730956074254
 20
268.4547198543782
 30
0.0
 40
65.5
100
AcDbArc
 50
0.0
 51
165.7335589206041
  0
ARC
  5
234
330
45
100
AcDbEntity
  8
0
  6
Continuous
 62
     7
100
AcDbCircle
 10
243.8730956074254
 20
268.4547198543782
 30
0.0
 40
49.5
100
AcDbArc
 50
0.0
 51
167.3521748430843
  0
ARC
  5
235
330
45
100
AcDbEntity
  8
1
  6
Continuous
 62
     7
100
AcDbCircle
 10
102.9931971472876
 20
325.9547198543781
 30
0.0
 40
8.0
100
AcDbArc
 50
0.0
 51
180.0
  0
ARC
  5
236
330
45
100
AcDbEntity
  8
1
  6
Continuous
 62
     7
100
AcDbCircle
 10
98.18519559023281
 20
273.1251919081378
 30
0.0
 40
3.860026294718169
100
AcDbArc
 50
166.4862911400577
 51
-145.7853643563629
  0
ARC
  5
237
330
45
100
AcDbEntity
  8
1
  6
Continuous
 62
     7
100
AcDbCircle
 10
98.18519559023281
 20
273.1251919081378
 30
0.0
 40
3.860026294718184
100
AcDbArc
 50
145.7853643563622
 51
166.4862911400577
  0
ARC
  5
238
330
45
100
AcDbEntity
  8
1
  6
Continuous
 62
     7
100
AcDbCircle
 10
107.8011987043423
 20
273.1251919081378
 30
0.0
 40
3.860026294718182
100
AcDbArc
 50
13.51370885994225
 51
34.21463564363783
  0
ARC
  5
239
330
45
100
AcDbEntity
  8
1
  6
Continuous
 62
     7
100
AcDbCircle
 10
107.8011987043423
 20
273.1251919081378
 30
0.0
 40
3.860026294718184
100
AcDbArc
 50
-34.21463564363783
 51
13.51370885994225
  0
ARC
  5
23A
330
45
100
AcDbEntity
  8
1
  6
Continuous
 62
     7
100
AcDbCircle
 10
102.9931971472875
 20
257.6085285463882
 30
0.0
 40
19.41223220566237
100
AcDbArc
 50
65.66246826618591
 51
114.3375317338138
  0
ARC
  5
23B
330
45
100
AcDbEntity
  8
1
  6
Continuous
 62
     7
100
AcDbCircle
 10
102.9931971472875
 20
366.7252423652529
 30
0.0
 40
8.0
100
AcDbArc
 50
180.0
 51
0.0
  0
ARC
  5
23C
330
45
100
AcDbEntity
  8
1
  6
Continuous
 62
     7
100
AcDbCircle
 10
102.9931971472875
 20
365.3353646087638
 30
0.0
 40
7.849935069054624
100
AcDbArc
 50
-178.8268491732454
 51
0.0
  0
ARC
  5
23D
330
45
100
AcDbEntity
  8
1
  6
Continuous
 62
     7
100
AcDbCircle
 10
102.9931971472875
 20
482.7558716527597
 30
0.0
 40
8.0
100
AcDbArc
 50
0.0
 51
90.0
  0
ARC
  5
23E
330
45
100
AcDbEntity
  8
1
  6
Continuous
 62
     7
100
AcDbCircle
 10
102.9931971472875
 20
482.7558716527597
 30
0.0
 40
8.0
100
AcDbArc
 50
90.0
 51
180.0
  0
ARC
  5
23F
330
45
100
AcDbEntity
  8
0
  6
Continuous
 62
     7
100
AcDbCircle
 10
105.5908422508796
 20
274.9703218150034
 30
0.0
 40
5.172569884708027
100
AcDbArc
 50
-100.5919789779259
 51
-75.08950750080176
  0
ARC
  5
240
330
45
100
AcDbEntity
  8
0
  6
Continuous
 62
     7
100
AcDbCircle
 10
100.3955520436954
 20
274.9703218150034
 30
0.0
 40
5.172569884707897
100
AcDbArc
 50
-104.9104924991981
 51
-79.40802102207422
  0
SPLINE
  5
241
330
45
100
AcDbEntity
  8
1
  6
Continuous
 62
     7
100
AcDbSpline
210
0.0
220
0.0
230
1.0
 70
     8
 71
     3
 72
    41
 73
    37
 74
    35
 42
0.0000000001
 43
0.0000000001
 44
0.00000001
 40
0.0
 40
0.0
 40
0.0
 40
0.0
 40
0.0705924820738303
 40
0.1411762257097821
 40
0.2147172083873725
 40
0.288265877917596
 40
0.3575485624651751
 40
0.4268286065270004
 40
0.489914932697856
 40
0.5529988369327126
 40
0.6081951103424853
 40
0.6633991098399439
 40
0.7093944441585018
 40
0.7553719861258017
 40
0.7913434230535952
 40
0.8273456329841352
 40
0.8535700529555574
 40
0.8798789145441796
 40
0.8993444747652361
 40
0.9182508843513061
 40
0.9371558613400118
 40
0.9566198189134569
 40
0.9829256134672875
 40
1.009146704863315
 40
1.042636401905109
 40
1.076089534006056
 40
1.116123840320945
 40
1.156175382852102
 40
1.219824061886669
 40
1.283476166821917
 40
1.406198537050841
 40
1.528961371671756
 40
1.612128994655959
 40
1.695269676306911
 40
1.765886558779311
 40
1.836516523482267
 40
1.836516523482267
 40
1.836516523482267
 40
1.836516523482267
 10
109.6816019423435
 20
271.0913691401342
 30
0.0
 10
109.7051304365896
 20
271.0917000186167
 30
0.0
 10
109.7521845125578
 20
271.0923617346232
 30
0.0
 10
109.8237367698081
 20
271.0942415376419
 30
0.0
 10
109.8962077664695
 20
271.0979544321653
 30
0.0
 10
109.9681354950644
 20
271.1033514495559
 30
0.0
 10
110.0385176084518
 20
271.1101473206845
 30
0.0
 10
110.105254213661
 20
271.1182278172462
 30
0.0
 10
110.1697096802498
 20
271.1277712093653
 30
0.0
 10
110.2292304038913
 20
271.1384220115196
 30
0.0
 10
110.2858013053547
 20
271.1504678630311
 30
0.0
 10
110.3363472079755
 20
271.1632918535224
 30
0.0
 10
110.3833566573068
 20
271.1773850915564
 30
0.0
 10
110.4234610857157
 20
271.1919865001823
 30
0.0
 10
110.4594332717934
 20
271.2079448861521
 30
0.0
 10
110.4881057939437
 20
271.2238340586742
 30
0.0
 10
110.512458731003
 20
271.2406320769487
 30
0.0
 10
110.5293492829129
 20
271.2580511952108
 30
0.0
 10
110.5402089773701
 20
271.2768738476231
 30
0.0
 10
110.5446678072853
 20
271.2959801670363
 30
0.0
 10
110.5402157168378
 20
271.3150874547511
 30
0.0
 10
110.5293630205779
 20
271.3339119627734
 30
0.0
 10
110.5124779794417
 20
271.3513327849184
 30
0.0
 10
110.4888202445412
 20
271.3676571312192
 30
0.0
 10
110.4616887619469
 20
271.3828442239343
 30
0.0
 10
110.429191423606
 20
271.3976000840125
 30
0.0
 10
110.3937629898075
 20
271.410978842449
 30
0.0
 10
110.3480754162831
 20
271.4254562936956
 30
0.0
 10
110.2941181935537
 20
271.4397258072104
 30
0.0
 10
110.2126194710422
 20
271.4572448018784
 30
0.0
 10
110.1108508095015
 20
271.4738323416153
 30
0.0
 10
110.0019333137622
 20
271.4858929924427
 30
0.0
 10
109.9058730296065
 20
271.4935519395614
 30
0.0
 10
109.8269957353794
 20
271.4977143207299
 30
0.0
 10
109.7522207029634
 20
271.499662810195
 30
0.0
 10
109.7051428974175
 20
271.5003129754226
 30
0.0
 10
109.68160181448
 20
271.5006380881455
 30
0.0
 11
109.6816019423435
 21
271.0913691401342
 31
0.0
 11
109.7521852798838
 21
271.0925053562326
 31
0.0
 11
109.8227407595622
 21
271.0945026426447
 31
0.0
 11
109.8961864976547
 21
271.0982442585033
 31
0.0
 11
109.969530554811
 21
271.1037266001124
 31
0.0
 11
110.0384886049947
 21
271.1104256816154
 31
0.0
 11
110.1072614493408
 21
271.1187935000739
 31
0.0
 11
110.1696600055057
 21
271.1280835344264
 31
0.0
 11
110.2317485596163
 21
271.1392455423984
 31
0.0
 11
110.2857189167829
 21
271.150813997163
 31
0.0
 11
110.3392094077853
 21
271.1644613021289
 31
0.0
 11
110.3832253481428
 21
271.1778092522908
 31
0.0
 11
110.4263788503543
 21
271.1936746111659
 31
0.0
 11
110.4591903780279
 21
271.2084173356894
 31
0.0
 11
110.4906082879205
 21
271.2259978378967
 31
0.0
 11
110.5119057145124
 21
271.2412994660259
 31
0.0
 11
110.529946141525
 21
271.2604488574337
 31
0.0
 11
110.5394136507776
 21
271.2774569232635
 31
0.0
 11
110.5431971503922
 21
271.2959808929812
 31
0.0
 11
110.5394201578165
 21
271.3145047284919
 31
0.0
 11
110.5299586893226
 21
271.3315143216193
 31
0.0
 11
110.5119246587012
 21
271.3506655243663
 31
0.0
 11
110.4906330022572
 21
271.3659694780995
 31
0.0
 11
110.4614677621323
 21
271.3824299937782
 31
0.0
 11
110.4310648646677
 21
271.3963862064851
 31
0.0
 11
110.3936518296187
 21
271.4106343814747
 31
0.0
 11
110.3555055432167
 21
271.4228404001894
 31
0.0
 11
110.2940063956001
 21
271.4392418996718
 31
0.0
 11
110.2318039139011
 21
271.452748999034
 31
0.0
 11
110.1107289251734
 21
271.4727896392233
 31
0.0
 11
109.9887453023084
 21
271.4865993936341
 31
0.0
 11
109.905838542209
 21
271.4931813874558
 31
0.0
 11
109.8228119216591
 21
271.4975349176832
 31
0.0
 11
109.7522229071662
 21
271.4995186321381
 31
0.0
 11
109.68160181448
 21
271.5006380881455
 31
0.0
  0
SPLINE
  5
242
330
45
100
AcDbEntity
  8
1
  6
Continuous
 62
     7
100
AcDbSpline
210
0.0
220
0.0
230
1.0
 70
     8
 71
     3
 72
    41
 73
    37
 74
    35
 42
0.0000000001
 43
0.0000000001
 44
0.00000001
 40
0.0
 40
0.0
 40
0.0
 40
0.0
 40
0.0705924769221173
 40
0.1411762154085344
 40
0.2147171829566306
 40
0.2882658373451693
 40
0.3575484972497122
 40
0.4268285167058143
 40
0.4899148097605725
 40
0.5529986807584112
 40
0.6081949136384512
 40
0.6633988729705561
 40
0.7093941622976225
 40
0.7553716582741041
 40
0.7913430465756461
 40
0.8273452104232021
 40
0.8535695908316213
 40
0.8798784081919693
 40
0.899343946607334
 40
0.9182503372932345
 40
0.9371553331649176
 40
0.9566193125269701
 40
0.9829251512845111
 40
1.009146282264817
 40
1.042636022586563
 40
1.076089200291513
 40
1.116123548052202
 40
1.156175131163302
 40
1.219823857750341
 40
1.283476010668254
 40
1.406198436146327
 40
1.528961325671802
 40
1.612128966559148
 40
1.695269666189329
 40
1.765886553775096
 40
1.836516523568297
 40
1.836516523568297
 40
1.836516523568297
 40
1.836516523568297
 10
96.3047924801088
 20
271.0913455945801
 30
0.0
 10
96.2812639862848
 20
271.0916763809395
 30
0.0
 10
96.23420991116011
 20
271.0923379127113
 30
0.0
 10
96.16265765503053
 20
271.0942174356583
 30
0.0
 10
96.09018665565573
 20
271.0979300464915
 30
0.0
 10
96.01825892427567
 20
271.1033267821826
 30
0.0
 10
95.94787680584537
 20
271.1101223778106
 30
0.0
 10
95.88114019663394
 20
271.118202612986
 30
0.0
 10
95.81668472332967
 20
271.1277457528071
 30
0.0
 10
95.75716399412109
 20
271.1383963216909
 30
0.0
 10
95.70059308431509
 20
271.150441951772
 30
0.0
 10
95.65004717459752
 20
271.1632657440699
 30
0.0
 10
95.6030377156458
 20
271.1773587979349
 30
0.0
 10
95.56293327926341
 20
271.1919600489385
 30
0.0
 10
95.52696108203145
 20
271.2079182944461
 30
0.0
 10
95.49828854892846
 20
271.2238073552318
 30
0.0
 10
95.4739355979829
 20
271.2406052774505
 30
0.0
 10
95.45704503032461
 20
271.25802433427
 30
0.0
 10
95.44618533124405
 20
271.2768469527472
 30
0.0
 10
95.44172648731485
 20
271.2959532605224
 30
0.0
 10
95.44617856376037
 20
271.315060559852
 30
0.0
 10
95.45703125539232
 20
271.3338851017788
 30
0.0
 10
95.47391628076574
 20
271.3513059853543
 30
0.0
 10
95.49757400241717
 20
271.3676304251258
 30
0.0
 10
95.5247054746997
 20
271.3828176236456
 30
0.0
 10
95.55720280299204
 20
271.3975736106409
 30
0.0
 10
95.59263122958134
 20
271.4109525083617
 30
0.0
 10
95.63831879181623
 20
271.4254301380872
 30
0.0
 10
95.69227600550654
 20
271.4396998629656
 30
0.0
 10
95.77377471100503
 20
271.4572191757608
 30
0.0
 10
95.87554336087558
 20
271.4738071140294
 30
0.0
 10
95.98446085220463
 20
271.4858681922965
 30
0.0
 10
96.08052113668545
 20
271.4935275160336
 30
0.0
 10
96.15939842829879
 20
271.4976902059676
 30
0.0
 10
96.23417346248294
 20
271.4996389881266
 30
0.0
 10
96.28125126888426
 20
271.5002893376913
 30
0.0
 10
96.30479235224541
 20
271.5006145425913
 30
0.0
 11
96.3047924801088
 21
271.0913455945801
 31
0.0
 11
96.23420914327319
 21
271.0924815343454
 31
0.0
 11
96.16365366093223
 21
271.0944785446991
 31
0.0
 11
96.09020792333809
 21
271.0982198729609
 31
0.0
 11
96.01686385992011
 21
271.1037019276582
 31
0.0
 11
95.94790580824653
 21
271.1104007389582
 31
0.0
 11
95.87913295597622
 21
271.1187682885663
 31
0.0
 11
95.81673439686304
 21
271.1280580782297
 31
0.0
 11
95.75464583292163
 21
271.1392198436709
 31
0.0
 11
95.70067547176582
 21
271.1507880864441
 31
0.0
 11
95.64718496899693
 21
271.1644351828192
 31
0.0
 11
95.60316902310152
 21
271.1777829596833
 31
0.0
 11
95.5600155081745
 21
271.193648150691
 31
0.0
 11
95.52720397532016
 21
271.2083907450383
 31
0.0
 11
95.49578605041162
 21
271.2259711260395
 31
0.0
 11
95.47448861245194
 21
271.2412726705419
 31
0.0
 11
95.45644817528083
 21
271.2604219916154
 31
0.0
 11
95.44698065728626
 21
271.2774300276226
 31
0.0
 11
95.44319714421201
 21
271.2959539753008
 31
0.0
 11
95.44697412333028
 21
271.3144778328269
 31
0.0
 11
95.4564355830785
 21
271.3314874557516
 31
0.0
 11
95.47446960351802
 21
271.3506387288039
 31
0.0
 11
95.49576124861503
 21
271.3659427661454
 31
0.0
 11
95.52492647489143
 21
271.382403394416
 31
0.0
 11
95.55532936719911
 21
271.3963597276697
 31
0.0
 11
95.59274239115322
 21
271.4106080482455
 31
0.0
 11
95.63088867212022
 21
271.4228142170995
 31
0.0
 11
95.69238780504927
 21
271.439215956188
 31
0.0
 11
95.75459028274761
 21
271.4527233000895
 31
0.0
 11
95.8756652492886
 21
271.4727644126414
 31
0.0
 11
95.99764887318901
 21
271.4865746459765
 31
0.0
 11
96.08055562549953
 21
271.4931569641159
 31
0.0
 11
96.16358224700522
 21
271.4975108194587
 31
0.0
 11
96.23417125885173
 21
271.4994948100924
 31
0.0
 11
96.30479235224541
 21
271.5006145425913
 31
0.0
  0
SPLINE
  5
243
330
45
100
AcDbEntity
  8
1
  6
Continuous
 62
     7
100
AcDbSpline
210
0.0
220
0.0
230
1.0
 70
     8
 71
     3
 72
    27
 73
    23
 74
    21
 42
0.0000000001
 43
0.0000000001
 44
0.00000001
 40
0.0
 40
0.0
 40
0.0
 40
0.0
 40
0.0192781804097619
 40
0.0379765694653008
 40
0.0977709286802603
 40
0.163095261988389
 40
0.2663049204861333
 40
0.3653218977702613
 40
0.496815904425707
 40
0.6300493302525
 40
0.7796495182552198
 40
0.9285470809859637
 40
1.077446055629153
 40
1.227041943755151
 40
1.360259256144053
 40
1.491760498395482
 40
1.590799944280885
 40
1.693976006153937
 40
1.75924596992098
 40
1.819063047273357
 40
1.837745867628625
 40
1.856998603556569
 40
1.856998603556569
 40
1.856998603556569
 40
1.856998603556569
 10
102.121388658524
 20
269.8842761658529
 30
0.0
 10
102.1232086532144
 20
269.878118526146
 30
0.0
 10
102.1267939062475
 20
269.8659884377716
 30
0.0
 10
102.1391965751375
 20
269.8355671156031
 30
0.0
 10
102.1786311167636
 20
269.8034138035736
 30
0.0
 10
102.2498897903684
 20
269.7773729994013
 30
0.0
 10
102.3348773078346
 20
269.7497808815812
 30
0.0
 10
102.4431674088479
 20
269.7240077943363
 30
0.0
 10
102.5629832502422
 20
269.7046908207813
 30
0.0
 10
102.700416107766
 20
269.6906385413033
 30
0.0
 10
102.8440904457034
 20
269.6817088091559
 30
0.0
 10
102.9932342529927
 20
269.6786952755086
 30
0.0
 10
103.1423763695626
 20
269.6817230064002
 30
0.0
 10
103.2860433735716
 20
269.6906695671862
 30
0.0
 10
103.4234694903827
 20
269.7047471289944
 30
0.0
 10
103.543286553987
 20
269.7240775833958
 30
0.0
 10
103.6515806455442
 20
269.7498320168878
 30
0.0
 10
103.7365416072364
 20
269.7774302046699
 30
0.0
 10
103.8077533194949
 20
269.8035620875132
 30
0.0
 10
103.8471474993507
 20
269.8356778355555
 30
0.0
 10
103.8596692840585
 20
269.8660382236241
 30
0.0
 10
103.8633075455054
 20
269.8781385313627
 30
0.0
 10
103.8651540054953
 20
269.8842795782422
 30
0.0
 11
102.121388658524
 21
269.8842761658529
 31
0.0
 11
102.1271661808817
 21
269.8658840894253
 31
0.0
 11
102.1346396895928
 21
269.8487441821672
 31
0.0
 11
102.1781975185143
 21
269.8077797960058
 31
0.0
 11
102.2382070224865
 21
269.781970341243
 31
0.0
 11
102.3365695888613
 21
269.7507127158793
 31
0.0
 11
102.4328373472338
 21
269.7275420342228
 31
0.0
 11
102.5625608598019
 21
269.7060365913467
 31
0.0
 11
102.6950553742323
 21
269.6920241182103
 31
0.0
 11
102.8443672022668
 21
269.682740031855
 31
0.0
 11
102.9932337395
 21
269.6797005780648
 31
0.0
 11
103.1421013851202
 21
269.6827548762295
 31
0.0
 11
103.291407731542
 21
269.6920578146037
 31
0.0
 11
103.4238839419426
 21
269.70609013437
 31
0.0
 11
103.5536131663386
 21
269.7276053627275
 31
0.0
 11
103.6499045168855
 21
269.750774040962
 31
0.0
 11
103.7482241987129
 21
269.7820556635062
 31
0.0
 11
103.808161522331
 21
269.8078952727843
 31
0.0
 11
103.8517678660075
 21
269.8488412070654
 31
0.0
 11
103.8593000947127
 21
269.8659383795556
 31
0.0
 11
103.8651540054953
 21
269.8842795782422
 31
0.0
  0
SPLINE
  5
244
330
45
100
AcDbEntity
  8
1
  6
Continuous
 62
     7
100
AcDbSpline
210
0.0
220
0.0
230
1.0
 70
    11
 71
     3
 72
    79
 73
    75
 74
    73
 42
0.0000000001
 43
0.0000000001
 44
0.00000001
 40
0.0
 40
0.0
 40
0.0
 40
0.0
 40
0.2020520546072607
 40
0.3990659667860366
 40
0.6793689818866513
 40
0.9579005458206678
 40
1.329635577119671
 40
1.701266796752698
 40
2.162985492133036
 40
2.624486347971731
 40
3.165578386238114
 40
3.706620563281811
 40
4.313064828096231
 40
4.919471389003123
 40
5.574380233801421
 40
6.229272563362862
 40
6.913975348946701
 40
7.59867060378444
 40
8.293419840643699
 40
8.98816907750293
 40
9.672864332340668
 40
10.35756711792451
 40
11.01245944748597
 40
11.66736829228426
 40
12.27377485319109
 40
12.88021911800549
 40
13.42126129504916
 40
13.96235333331553
 40
14.42385418915423
 40
14.88557288453466
 40
15.25720410416765
 40
15.62893913546668
 40
15.9074706994007
 40
16.1877737145013
 40
16.38478762668002
 40
16.58683968128734
 40
16.74709006217114
 40
16.90734044305487
 40
17.10939249766225
 40
17.30640640984104
 40
17.58670942494173
 40
17.86524098887574
 40
18.23697602017476
 40
18.60860723980776
 40
19.07032593518816
 40
19.53182679102683
 40
20.07291882929321
 40
20.61396100633687
 40
21.22040527115127
 40
21.82681183205812
 40
22.48172067685639
 40
23.13661300641782
 40
23.82131579200162
 40
24.5060110468394
 40
25.20076028369869
 40
25.89550952055794
 40
26.58020477539567
 40
27.2649075609795
 40
27.91979989054093
 40
28.57470873533925
 40
29.1811152962461
 40
29.78755956106047
 40
30.32860173810416
 40
30.86969377637055
 40
31.33119463220925
 40
31.79291332758965
 40
32.16454454722265
 40
32.53627957852165
 40
32.81481114245565
 40
33.09511415755631
 40
33.29212806973508
 40
33.49418012434249
 40
33.65443050522628
 40
33.81468088611012
 40
33.81468088611012
 40
33.81468088611012
 40
33.81468088611012
 10
110.9568375854149
 20
271.1107908857514
 30
0.0
 10
110.9244278192493
 20
271.1704236981
 30
0.0
 10
110.8604164203386
 20
271.2882023861632
 30
0.0
 10
110.6873121894439
 20
271.4393458295708
 30
0.0
 10
110.4729954956956
 20
271.5718042660942
 30
0.0
 10
110.1956008854391
 20
271.7116643330836
 30
0.0
 10
109.878694466466
 20
271.8375085454033
 30
0.0
 10
109.4973095030297
 20
271.9641032058847
 30
0.0
 10
109.0807126684977
 20
272.0777052867119
 30
0.0
 10
108.6051777529939
 20
272.1881317389357
 30
0.0
 10
108.0999223025198
 20
272.286047799694
 30
0.0
 10
107.5444004826273
 20
272.3770289112605
 30
0.0
 10
106.9649782997149
 20
272.4554354322218
 30
0.0
 10
106.3461645291113
 20
272.5243292569236
 30
0.0
 10
105.7098447164902
 20
272.5804473294701
 30
0.0
 10
105.0464779143506
 20
272.6252505513634
 30
0.0
 10
104.372420777602
 20
272.657075810152
 30
0.0
 10
103.6846064470209
 20
272.6765312099864
 30
0.0
 10
102.9931971472988
 20
272.6828909364338
 30
0.0
 10
102.3017878475091
 20
272.676531210008
 30
0.0
 10
101.613973517128
 20
272.6570758100672
 30
0.0
 10
100.9399163796592
 20
272.625250551676
 30
0.0
 10
100.2765495800914
 20
272.5804473283599
 30
0.0
 10
99.64022975819825
 20
272.5243292609432
 30
0.0
 10
99.02141601975259
 20
272.4554354184505
 30
0.0
 10
98.44199372304534
 20
272.3770289604443
 30
0.0
 10
97.88647228433439
 20
272.2860476379955
 30
0.0
 10
97.38121551451978
 20
272.1881323071397
 30
0.0
 10
96.90568483864156
 20
272.0777035094166
 30
0.0
 10
96.48907372514964
 20
271.9641093281758
 30
0.0
 10
96.10773228352318
 20
271.8374905900093
 30
0.0
 10
95.79068427682259
 20
271.7117247086401
 30
0.0
 10
95.51369517014238
 20
271.5716403038415
 30
0.0
 10
95.29809841172272
 20
271.4398900408606
 30
0.0
 10
95.12848571119649
 20
271.2868149689306
 30
0.0
 10
95.0273716856818
 20
271.1280463750486
 30
0.0
 10
94.9780813703625
 20
270.9547198543784
 30
0.0
 10
95.02737168568183
 20
270.7813933337084
 30
0.0
 10
95.12848571119653
 20
270.6226247398261
 30
0.0
 10
95.29809841172268
 20
270.4695496678963
 30
0.0
 10
95.51369517014238
 20
270.3377994049151
 30
0.0
 10
95.79068427682263
 20
270.1977150001167
 30
0.0
 10
96.10773228352322
 20
270.0719491187473
 30
0.0
 10
96.48907372514969
 20
269.9453303805809
 30
0.0
 10
96.90568483864155
 20
269.83173619934
 30
0.0
 10
97.38121551451982
 20
269.7213074016171
 30
0.0
 10
97.88647228433439
 20
269.6233920707612
 30
0.0
 10
98.44199372304536
 20
269.5324107483124
 30
0.0
 10
99.02141601975255
 20
269.4540042903062
 30
0.0
 10
99.64022975819826
 20
269.3851104478135
 30
0.0
 10
100.2765495800914
 20
269.3289923803965
 30
0.0
 10
100.9399163796593
 20
269.2841891570809
 30
0.0
 10
101.6139735171272
 20
269.25236389869
 30
0.0
 10
102.3017878475119
 20
269.2329084987472
 30
0.0
 10
102.9931971472882
 20
269.2265487723296
 30
0.0
 10
103.6846064470602
 20
269.2329084987458
 30
0.0
 10
104.3724207774576
 20
269.2523638986956
 30
0.0
 10
105.0464779148797
 20
269.2841891570608
 30
0.0
 10
105.7098447146112
 20
269.3289923804672
 30
0.0
 10
106.346164535915
 20
269.385110447558
 30
0.0
 10
106.9649782764044
 20
269.4540042911814
 30
0.0
 10
107.5444005658798
 20
269.5324107451867
 30
0.0
 10
108.0999220288153
 20
269.6233920810372
 30
0.0
 10
108.6051787147843
 20
269.7213073655072
 30
0.0
 10
109.0807096600955
 20
269.8317363122892
 30
0.0
 10
109.4973198661436
 20
269.9453299915024
 30
0.0
 10
109.8786640736297
 20
270.0719502598328
 30
0.0
 10
110.1957030822719
 20
270.1977111631824
 30
0.0
 10
110.4727179591579
 20
270.3378098248996
 30
0.0
 10
110.6882333680359
 20
270.46951508266
 30
0.0
 10
110.8580679592227
 20
270.622712911743
 30
0.0
 10
110.9584576305828
 20
270.7810807692728
 30
0.0
 10
111.0099422866594
 20
270.9556212708471
 30
0.0
 10
110.9745391524964
 20
271.0590676807832
 30
0.0
 10
110.9568375854149
 20
271.1107908857514
 30
0.0
 11
110.9568375854149
 21
271.1107908857514
 31
0.0
 11
110.8499511881419
 21
271.2822561325189
 31
0.0
 11
110.7061970507433
 21
271.4169752090179
 31
0.0
 11
110.4704480082124
 21
271.5686068983848
 31
0.0
 11
110.2219494557008
 21
271.6944174762676
 31
0.0
 11
109.877479215487
 21
271.8341571882391
 31
0.0
 11
109.5249496697007
 21
271.9517696142564
 31
0.0
 11
109.0799460673541
 21
272.0748791084565
 31
0.0
 11
108.6304799724255
 21
272.1795847408241
 31
0.0
 11
108.0994534699756
 21
272.283466633236
 31
0.0
 11
107.5655660532059
 21
272.3711642019323
 31
0.0
 11
106.9646778016265
 21
272.4530663108193
 31
0.0
 11
106.3620126803188
 21
272.5203245346288
 31
0.0
 11
105.7096673402751
 21
272.5782136728018
 31
0.0
 11
105.0562688841472
 21
272.6224225050427
 31
0.0
 11
104.3723377522077
 21
272.6549203718988
 31
0.0
 11
103.6879161121601
 21
272.6742752325758
 31
0.0
 11
102.9931971472875
 21
272.6807607520505
 31
0.0
 11
102.2984781824149
 21
272.6742752325758
 31
0.0
 11
101.6140565423673
 21
272.6549203718989
 31
0.0
 11
100.9301254104278
 21
272.6224225050427
 31
0.0
 11
100.2767269542999
 21
272.5782136728018
 31
0.0
 11
99.62438161425624
 21
272.5203245346288
 31
0.0
 11
99.02171649294851
 21
272.4530663108194
 31
0.0
 11
98.42082824136914
 21
272.3711642019323
 31
0.0
 11
97.88694082459955
 21
272.283466633236
 31
0.0
 11
97.35591432214963
 21
272.1795847408241
 31
0.0
 11
96.90644822722105
 21
272.0748791084565
 31
0.0
 11
96.4614446248743
 21
271.9517696142563
 31
0.0
 11
96.10891507908805
 21
271.8341571882392
 31
0.0
 11
95.76444483887417
 21
271.6944174762676
 31
0.0
 11
95.51594628636262
 21
271.5686068983849
 31
0.0
 11
95.28019724383179
 21
271.4169752090179
 31
0.0
 11
95.13644310643315
 21
271.2822561325189
 31
0.0
 11
95.0295567091602
 21
271.1107908857514
 31
0.0
 11
94.9931971472874
 21
270.9547198543784
 31
0.0
 11
95.0295567091602
 21
270.7986488230055
 31
0.0
 11
95.13644310643316
 21
270.6271835762379
 31
0.0
 11
95.28019724383179
 21
270.4924644997388
 31
0.0
 11
95.51594628636266
 21
270.3408328103718
 31
0.0
 11
95.7644448388742
 21
270.215022232489
 31
0.0
 11
96.10891507908809
 21
270.0752825205175
 31
0.0
 11
96.46144462487436
 21
269.9576700945004
 31
0.0
 11
96.90644822722106
 21
269.8345606003002
 31
0.0
 11
97.35591432214963
 21
269.7298549679326
 31
0.0
 11
97.88694082459955
 21
269.6259730755207
 31
0.0
 11
98.42082824136912
 21
269.5382755068244
 31
0.0
 11
99.0217164929485
 21
269.4563733979373
 31
0.0
 11
99.62438161425624
 21
269.3891151741278
 31
0.0
 11
100.2767269542998
 21
269.3312260359548
 31
0.0
 11
100.9301254104277
 21
269.2870172037141
 31
0.0
 11
101.6140565423672
 21
269.254519336858
 31
0.0
 11
102.2984781824149
 21
269.235164476181
 31
0.0
 11
102.9931971472875
 21
269.2286789567063
 31
0.0
 11
103.6879161121601
 21
269.235164476181
 31
0.0
 11
104.3723377522077
 21
269.254519336858
 31
0.0
 11
105.0562688841472
 21
269.2870172037141
 31
0.0
 11
105.7096673402751
 21
269.3312260359548
 31
0.0
 11
106.3620126803188
 21
269.3891151741278
 31
0.0
 11
106.9646778016265
 21
269.4563733979373
 31
0.0
 11
107.5655660532059
 21
269.5382755068244
 31
0.0
 11
108.0994534699755
 21
269.6259730755207
 31
0.0
 11
108.6304799724254
 21
269.7298549679326
 31
0.0
 11
109.079946067354
 21
269.8345606003002
 31
0.0
 11
109.5249496697007
 21
269.9576700945004
 31
0.0
 11
109.877479215487
 21
270.0752825205175
 31
0.0
 11
110.2219494557008
 21
270.215022232489
 31
0.0
 11
110.4704480082124
 21
270.3408328103718
 31
0.0
 11
110.7061970507433
 21
270.4924644997387
 31
0.0
 11
110.8499511881419
 21
270.6271835762378
 31
0.0
 11
110.9568375854149
 21
270.7986488230054
 31
0.0
 11
110.9931971472876
 21
270.9547198543784
 31
0.0
 11
110.9568375854149
 21
271.1107908857514
 31
0.0
  0
SPLINE
  5
245
330
45
100
AcDbEntity
  8
0
  6
Continuous
 62
     7
100
AcDbSpline
210
0.0
220
0.0
230
1.0
 70
     8
 71
     3
 72
     9
 73
     5
 74
     3
 42
0.0000000001
 43
0.0000000001
 44
0.00000001
 40
0.0
 40
0.0
 40
0.0
 40
0.0
 40
0.0675378644767439
 40
0.1379613876129255
 40
0.1379613876129255
 40
0.1379613876129255
 40
0.1379613876129255
 10
106.9258309922918
 20
270.0299014065621
 30
0.0
 10
106.956009113056
 20
270.0196856735334
 30
0.0
 10
107.0176547609963
 20
269.9988177246421
 30
0.0
 10
106.954190711606
 20
269.9810085175623
 30
0.0
 10
106.9217949664784
 20
269.9719176615733
 30
0.0
 11
106.9258309922918
 21
270.0299014065621
 31
0.0
 11
106.9863826701193
 21
269.9999872385083
 31
0.0
 11
106.9217949664784
 21
269.9719176615733
 31
0.0
  0
SPLINE
  5
246
330
45
100
AcDbEntity
  8
0
  6
Continuous
 62
     7
100
AcDbSpline
210
0.0
220
0.0
230
1.0
 70
     8
 71
     3
 72
     9
 73
     5
 74
     3
 42
0.0000000001
 43
0.0000000001
 44
0.00000001
 40
0.0
 40
0.0
 40
0.0
 40
0.0
 40
0.0675378644767439
 40
0.1379613876129255
 40
0.1379613876129255
 40
0.1379613876129255
 40
0.1379613876129255
 10
106.9258309922918
 20
270.0299014065621
 30
0.0
 10
106.956009113056
 20
270.0196856735334
 30
0.0
 10
107.0176547609963
 20
269.9988177246421
 30
0.0
 10
106.954190711606
 20
269.9810085175623
 30
0.0
 10
106.9217949664784
 20
269.9719176615733
 30
0.0
 11
106.9258309922918
 21
270.0299014065621
 31
0.0
 11
106.9863826701193
 21
269.9999872385083
 31
0.0
 11
106.9217949664784
 21
269.9719176615733
 31
0.0
  0
SPLINE
  5
247
330
45
100
AcDbEntity
  8
0
  6
Continuous
 62
     7
100
AcDbSpline
210
0.0
220
0.0
230
1.0
 70
     8
 71
     3
 72
     9
 73
     5
 74
     3
 42
0.0000000001
 43
0.0000000001
 44
0.00000001
 40
0.0
 40
0.0
 40
0.0
 40
0.0
 40
0.0675378644767439
 40
0.1379613876129385
 40
0.1379613876129385
 40
0.1379613876129385
 40
0.1379613876129385
 10
99.06056330228321
 20
270.0299014065621
 30
0.0
 10
99.03038518151905
 20
270.0196856735334
 30
0.0
 10
98.96873953357871
 20
269.9988177246421
 30
0.0
 10
99.03220358296903
 20
269.9810085175622
 30
0.0
 10
99.06459932809662
 20
269.9719176615733
 30
0.0
 11
99.06056330228321
 21
270.0299014065621
 31
0.0
 11
99.00001162445571
 21
269.9999872385083
 31
0.0
 11
99.06459932809662
 21
269.9719176615733
 31
0.0
  0
SPLINE
  5
248
330
45
100
AcDbEntity
  8
0
  6
Continuous
 62
     7
100
AcDbSpline
210
0.0
220
0.0
230
1.0
 70
     8
 71
     3
 72
    11
 73
     7
 74
     5
 42
0.0000000001
 43
0.0000000001
 44
0.00000001
 40
0.0
 40
0.0
 40
0.0
 40
0.0
 40
0.0942923179448486
 40
0.1913724993392331
 40
0.3415373967514095
 40
0.4917022941635436
 40
0.4917022941635436
 40
0.4917022941635436
 40
0.4917022941635436
 10
110.4071071291631
 20
271.603778919606
 30
0.0
 10
110.4261551739534
 20
271.5786890455458
 30
0.0
 10
110.4648144414153
 20
271.5277674857447
 30
0.0
 10
110.5197413437836
 20
271.4284030235061
 30
0.0
 10
110.5589611772174
 20
271.294929645632
 30
0.0
 10
110.5255441839245
 20
271.1981587561843
 30
0.0
 10
110.5088356872781
 20
271.1497733114605
 30
0.0
 11
110.4071071291631
 21
271.603778919606
 31
0.0
 11
110.4623376933725
 21
271.527354931222
 31
0.0
 11
110.5088356872782
 21
271.4421346391413
 31
0.0
 11
110.5431971472876
 21
271.2959539753009
 31
0.0
 11
110.5088356872781
 21
271.1497733114605
 31
0.0
  0
SPLINE
  5
249
330
45
100
AcDbEntity
  8
0
  6
Continuous
 62
     7
100
AcDbSpline
210
0.0
220
0.0
230
1.0
 70
     8
 71
     3
 72
    45
 73
    41
 74
    39
 42
0.0000000001
 43
0.0000000001
 44
0.00000001
 40
0.0
 40
0.0
 40
0.0
 40
0.0
 40
0.1899089849028627
 40
0.3750000345071022
 40
0.6389797406940521
 40
0.9012977969021045
 40
1.25177221373354
 40
1.602154521123551
 40
2.037684731108151
 40
2.47301027894309
 40
2.98353466697645
 40
3.494013106105264
 40
4.066273429457052
 40
4.638498571528159
 40
5.256536527750003
 40
5.874559147728576
 40
6.52073771000778
 40
7.166909265784268
 40
7.82257656433286
 40
8.478243862881524
 40
9.124415418658071
 40
9.770593980937283
 40
10.3886166009158
 40
11.00665455713762
 40
11.57887969920875
 40
12.15114002256055
 40
12.66161846168937
 40
13.17214284972268
 40
13.60746839755759
 40
14.04299860754223
 40
14.39338091493227
 40
14.74385533176359
 40
15.00617338797164
 40
15.27015309415857
 40
15.45524414376287
 40
15.64515312866587
 40
15.79531802607806
 40
15.94548292349019
 40
16.04256310490693
 40
16.13685542287325
 40
16.13685542287325
 40
16.13685542287325
 40
16.13685542287325
 10
110.5088356872781
 20
271.1497733114605
 30
0.0
 10
110.4781810682291
 20
271.0938269315438
 30
0.0
 10
110.4176495288336
 20
270.983353514975
 30
0.0
 10
110.2542479298206
 20
270.8418601093972
 30
0.0
 10
110.052030092154
 20
270.7180332603156
 30
0.0
 10
109.7902659838207
 20
270.5870798628817
 30
0.0
 10
109.4912571073304
 20
270.469267472045
 30
0.0
 10
109.1313370674178
 20
270.3507323607637
 30
0.0
 10
108.7382111378011
 20
270.2443805834224
 30
0.0
 10
108.2894309787438
 20
270.1409801285657
 30
0.0
 10
107.8126193673697
 20
270.0492985251094
 30
0.0
 10
107.2883495686341
 20
269.9641058099577
 30
0.0
 10
106.7415343571487
 20
269.890690141717
 30
0.0
 10
106.1575319333988
 20
269.8261791420637
 30
0.0
 10
105.5570147708769
 20
269.7736320625152
 30
0.0
 10
104.9309655017699
 20
269.7316790237575
 30
0.0
 10
104.294830805224
 20
269.7018787412329
 30
0.0
 10
103.6457097819571
 20
269.6836609648306
 30
0.0
 10
102.9931971472984
 20
269.6777059386036
 30
0.0
 10
102.3406845125752
 20
269.68366096481
 30
0.0
 10
101.6915634894986
 20
269.7018787413134
 30
0.0
 10
101.0554287922672
 20
269.7316790234611
 30
0.0
 10
100.4293795256083
 20
269.7736320635672
 30
0.0
 10
99.82886235426048
 20
269.8261791382545
 30
0.0
 10
99.2448599611195
 20
269.8906901547659
 30
0.0
 10
98.69804464132599
 20
269.9641057633564
 30
0.0
 10
98.17377520534843
 20
270.0492986782949
 30
0.0
 10
97.69696233853151
 20
270.1409795903239
 30
0.0
 10
97.2481862128749
 20
270.2443822665506
 30
0.0
 10
96.85504670156291
 20
270.3507265638591
 30
0.0
 10
96.49516803976007
 20
270.4692844638722
 30
0.0
 10
96.19602460800792
 20
270.5870227492515
 30
0.0
 10
95.93464548853157
 20
270.7181881768563
 30
0.0
 10
95.73121350024825
 20
270.8413463401881
 30
0.0
 10
95.57111706602885
 20
270.9846600443084
 30
0.0
 10
95.47556878527234
 20
271.1334357559706
 30
0.0
 10
95.42899958115712
 20
271.2957923656321
 30
0.0
 10
95.46639590254355
 20
271.4282614558201
 30
0.0
 10
95.52163041354446
 20
271.5277953315691
 30
0.0
 10
95.56025580962557
 20
271.5786982369254
 30
0.0
 10
95.57928716544001
 20
271.6037789196397
 30
0.0
 11
110.5088356872781
 21
271.1497733114605
 31
0.0
 11
110.407802075756
 21
270.9889702272561
 31
0.0
 11
110.2722446569715
 21
270.8629429172948
 31
0.0
 11
110.0496648074328
 21
270.7210151333416
 31
0.0
 11
109.8152506896532
 21
270.6032833024785
 31
0.0
 11
109.4901274912245
 21
270.4724122869829
 31
0.0
 11
109.1574954972567
 21
270.3623045310302
 31
0.0
 11
108.7374982524283
 21
270.2470271345216
 31
0.0
 11
108.3133548186319
 21
270.1489930579705
 31
0.0
 11
107.8121837714382
 21
270.051716482005
 31
0.0
 11
107.3083530300425
 21
269.9696018009789
 31
0.0
 11
106.7412550948514
 21
269.892908844427
 31
0.0
 11
106.1725061255567
 21
269.8299308868179
 31
0.0
 11
105.5568499701561
 21
269.7757237503125
 31
0.0
 11
104.9402152895601
 21
269.734327742154
 31
0.0
 11
104.294753665691
 21
269.7038970592585
 31
0.0
 11
103.6488363208334
 21
269.6857735080954
 31
0.0
 11
102.9931971472876
 21
269.6797005764986
 31
0.0
 11
102.3375579737417
 21
269.6857735080954
 31
0.0
 11
101.6916406288841
 21
269.7038970592585
 31
0.0
 11
101.046179005015
 21
269.7343277421539
 31
0.0
 11
100.429544324419
 21
269.7757237503125
 31
0.0
 11
99.81388816901837
 21
269.8299308868178
 31
0.0
 11
99.24513919972374
 21
269.8929088444269
 31
0.0
 11
98.67804126453261
 21
269.9696018009788
 31
0.0
 11
98.17421052313686
 21
270.0517164820049
 31
0.0
 11
97.6730394759432
 21
270.1489930579704
 31
0.0
 11
97.24889604214687
 21
270.2470271345215
 31
0.0
 11
96.82889879731845
 21
270.3623045310301
 31
0.0
 11
96.49626680335057
 21
270.4724122869827
 31
0.0
 11
96.17114360492198
 21
270.6032833024782
 31
0.0
 11
95.93672948714244
 21
270.7210151333414
 31
0.0
 11
95.71414963760373
 21
270.8629429172946
 31
0.0
 11
95.57859221881911
 21
270.9889702272559
 31
0.0
 11
95.47755860729693
 21
271.1497733114604
 31
0.0
 11
95.44319714728741
 21
271.2959539753008
 31
0.0
 11
95.47755860729691
 21
271.4421346391412
 31
0.0
 11
95.52405660121453
 21
271.5273549312408
 31
0.0
 11
95.57928716544001
 21
271.6037789196397
 31
0.0
  0
SPLINE
  5
24A
330
45
100
AcDbEntity
  8
1
  6
Continuous
 62
     7
100
AcDbSpline
210
0.0
220
0.0
230
1.0
 70
     8
 71
     3
 72
    11
 73
     7
 74
     5
 42
0.0000000001
 43
0.0000000001
 44
0.00000001
 40
0.0
 40
0.0
 40
0.0
 40
0.0
 40
0.3602330028224591
 40
0.711132332117151
 40
1.044072904942843
 40
1.351911470381142
 40
1.351911470381142
 40
1.351911470381142
 40
1.351911470381142
 10
108.0222533499363
 20
271.0913658929406
 30
0.0
 10
107.9020843463381
 20
271.0877184177543
 30
0.0
 10
107.6648599301758
 20
271.0805179738325
 30
0.0
 10
107.3211642760883
 20
271.0209162828487
 30
0.0
 10
107.0012693842747
 20
270.9321787936922
 30
0.0
 10
106.808807166179
 20
270.8386487041532
 30
0.0
 10
106.7163458334331
 20
270.7937156424012
 30
0.0
 11
108.0222533499363
 21
271.0913658929406
 31
0.0
 11
107.6625491571221
 21
271.0718541017787
 31
0.0
 11
107.3164423273525
 21
271.0140578935439
 31
0.0
 11
106.9970163360555
 21
270.9201618812888
 31
0.0
 11
106.7163458334331
 21
270.7937156424012
 31
0.0
  0
SPLINE
  5
24B
330
45
100
AcDbEntity
  8
1
  6
Continuous
 62
     7
100
AcDbSpline
210
0.0
220
0.0
230
1.0
 70
     8
 71
     3
 72
    15
 73
    11
 74
     9
 42
0.0000000001
 43
0.0000000001
 44
0.00000001
 40
0.0
 40
0.0
 40
0.0
 40
0.0
 40
0.1265641902421736
 40
0.2391063645794113
 40
0.3400392735660622
 40
0.4345936092610905
 40
0.5300111147958125
 40
0.6332379125638091
 40
0.7488708024113835
 40
0.8787132822854296
 40
0.8787132822854296
 40
0.8787132822854296
 40
0.8787132822854296
 10
106.7163458334331
 20
270.7937156424012
 30
0.0
 10
106.6811846112735
 20
270.7701677001523
 30
0.0
 10
106.6147576702196
 20
270.7256806864585
 30
0.0
 10
106.5383466000073
 20
270.6401505649725
 30
0.0
 10
106.491152724071
 20
270.547347116601
 30
0.0
 10
106.4775992069308
 20
270.4493004987929
 30
0.0
 10
106.499093806365
 20
270.3519713680601
 30
0.0
 10
106.5534189965304
 20
270.2608567495963
 30
0.0
 10
106.6362014858176
 20
270.1775143664238
 30
0.0
 10
106.70614480166
 20
270.1346131000553
 30
0.0
 10
106.743140829367
 20
270.1119207752762
 30
0.0
 11
106.7163458334331
 21
270.7937156424012
 31
0.0
 11
106.6144195626781
 21
270.7186854512671
 31
0.0
 11
106.539980051469
 21
270.6342786969431
 31
0.0
 11
106.4957318195397
 21
270.5435618512768
 31
0.0
 11
106.4832822753727
 21
270.4498306865088
 31
0.0
 11
106.5030838508074
 21
270.3564904595283
 31
0.0
 11
106.5544170145531
 21
270.2669322210614
 31
0.0
 11
106.6354169601337
 21
270.1844096542664
 31
0.0
 11
106.743140829367
 21
270.1119207752762
 31
0.0
  0
SPLINE
  5
24C
330
45
100
AcDbEntity
  8
1
  6
Continuous
 62
     7
100
AcDbSpline
210
0.0
220
0.0
230
1.0
 70
     8
 71
     3
 72
    15
 73
    11
 74
     9
 42
0.0000000001
 43
0.0000000001
 44
0.00000001
 40
0.0
 40
0.0
 40
0.0
 40
0.0
 40
0.1298426776749836
 40
0.2454757576468176
 40
0.3487027018926526
 40
0.4441202711361956
 40
0.5386745662414578
 40
0.6396073444269019
 40
0.7521493351413477
 40
0.8787133266495486
 40
0.8787133266495486
 40
0.8787133266495486
 40
0.8787133266495486
 10
99.2432542050785
 20
270.1119087303232
 30
0.0
 10
99.28025021987466
 20
270.1346012011795
 30
0.0
 10
99.35019351528894
 20
270.1775027461574
 30
0.0
 10
99.43297593640337
 20
270.2608454392854
 30
0.0
 10
99.48730106182319
 20
270.3519602435398
 30
0.0
 10
99.50879561413464
 20
270.4492894374898
 30
0.0
 10
99.49524205350707
 20
270.547336016458
 30
0.0
 10
99.44804811587454
 20
270.6401393085127
 30
0.0
 10
99.37163697634463
 20
270.725669148172
 30
0.0
 10
99.30521001102207
 20
270.7701558986923
 30
0.0
 10
99.2700487750009
 20
270.7937037023178
 30
0.0
 11
99.2432542050785
 21
270.1119087303232
 31
0.0
 11
99.35097802901785
 21
270.1843980309247
 31
0.0
 11
99.43197792303506
 21
270.2669209147387
 31
0.0
 11
99.48331103082118
 21
270.356479354114
 31
0.0
 11
99.50311254793337
 21
270.4498196585939
 31
0.0
 11
99.49066294519949
 21
270.5435507746367
 31
0.0
 11
99.44641465658687
 21
270.6342674471235
 31
0.0
 11
99.3719750926374
 21
270.7186739101047
 31
0.0
 11
99.2700487750009
 21
270.7937037023178
 31
0.0
  0
SPLINE
  5
24D
330
45
100
AcDbEntity
  8
1
  6
Continuous
 62
     7
100
AcDbSpline
210
0.0
220
0.0
230
1.0
 70
     8
 71
     3
 72
    11
 73
     7
 74
     5
 42
0.0000000001
 43
0.0000000001
 44
0.00000001
 40
0.0
 40
0.0
 40
0.0
 40
0.0
 40
0.3078381862637665
 40
0.6407784628048592
 40
0.9916776046073845
 40
1.351910543352513
 40
1.351910543352513
 40
1.351910543352513
 40
1.351910543352513
 10
99.2700487750009
 20
270.7937037023178
 30
0.0
 10
99.17758740719569
 20
270.8386364040975
 30
0.0
 10
98.9851250819392
 20
270.9321657609505
 30
0.0
 10
98.66523013309906
 20
271.0209019880547
 30
0.0
 10
98.32153443024468
 20
271.0805023274777
 30
0.0
 10
98.08431006928574
 20
271.087701838512
 30
0.0
 10
97.96414107251601
 20
271.0913488417739
 30
0.0
 11
99.2700487750009
 21
270.7937037023178
 31
0.0
 11
98.98937819337048
 21
270.9201488427124
 31
0.0
 11
98.66995214340396
 21
271.0140436047923
 31
0.0
 11
98.32384527752154
 21
271.0718384584283
 31
0.0
 11
97.96414107251601
 21
271.0913488417739
 31
0.0
  0
SPLINE
  5
24E
330
45
100
AcDbEntity
  8
1
  6
Continuous
 62
     7
100
AcDbSpline
210
0.0
220
0.0
230
1.0
 70
     8
 71
     3
 72
    11
 73
     7
 74
     5
 42
0.0000000001
 43
0.0000000001
 44
0.00000001
 40
0.0
 40
0.0
 40
0.0
 40
0.0
 40
0.3078381862637017
 40
0.640778462804767
 40
0.9916776046073064
 40
1.351910543352432
 40
1.351910543352432
 40
1.351910543352432
 40
1.351910543352432
 10
106.716345519588
 20
271.798279980408
 30
0.0
 10
106.8088068873932
 20
271.7533472786283
 30
0.0
 10
107.0012692126496
 20
271.6598179217752
 30
0.0
 10
107.3211641614898
 20
271.5710816946713
 30
0.0
 10
107.6648598643441
 20
271.5114813552481
 30
0.0
 10
107.9020842253031
 20
271.5042818442139
 30
0.0
 10
108.0222532220728
 20
271.500634840952
 30
0.0
 11
106.716345519588
 21
271.798279980408
 31
0.0
 11
106.9970161012184
 21
271.6718348400134
 31
0.0
 11
107.3164421511848
 21
271.5779400779335
 31
0.0
 11
107.6625490170673
 21
271.5201452242976
 31
0.0
 11
108.0222532220728
 21
271.500634840952
 31
0.0
  0
SPLINE
  5
24F
330
45
100
AcDbEntity
  8
1
  6
Continuous
 62
     7
100
AcDbSpline
210
0.0
220
0.0
230
1.0
 70
     8
 71
     3
 72
    15
 73
    11
 74
     9
 42
0.0000000001
 43
0.0000000001
 44
0.00000001
 40
0.0
 40
0.0
 40
0.0
 40
0.0
 40
0.1298426776750072
 40
0.2454757576468917
 40
0.3487027018927479
 40
0.4441202711364022
 40
0.5386745662415517
 40
0.6396073444267915
 40
0.7521493351413934
 40
0.8787133266496412
 40
0.8787133266496412
 40
0.8787133266496412
 40
0.8787133266496412
 10
106.7431400895103
 20
272.4800749524025
 30
0.0
 10
106.7061440747141
 20
272.4573824815462
 30
0.0
 10
106.6362007792998
 20
272.4144809365683
 30
0.0
 10
106.5534183581854
 20
272.3311382434402
 30
0.0
 10
106.4990932327655
 20
272.2400234391858
 30
0.0
 10
106.4775986804541
 20
272.1426942452358
 30
0.0
 10
106.4911522410817
 20
272.0446476662677
 30
0.0
 10
106.5383461787143
 20
271.9518443742131
 30
0.0
 10
106.6147573182441
 20
271.8663145345537
 30
0.0
 10
106.6811842835668
 20
271.8218277840335
 30
0.0
 10
106.716345519588
 20
271.798279980408
 30
0.0
 11
106.7431400895103
 21
272.4800749524025
 31
0.0
 11
106.6354162655709
 21
272.407585651801
 31
0.0
 11
106.5544163715537
 21
272.325062767987
 31
0.0
 11
106.5030832637675
 21
272.2355043286116
 31
0.0
 11
106.4832817466554
 21
272.1421640241316
 31
0.0
 11
106.4957313493892
 21
272.048432908089
 31
0.0
 11
106.5399796380019
 21
271.9577162356023
 31
0.0
 11
106.6144192019514
 21
271.873309772621
 31
0.0
 11
106.716345519588
 21
271.798279980408
 31
0.0
  0
SPLINE
  5
250
330
45
100
AcDbEntity
  8
1
  6
Continuous
 62
     7
100
AcDbSpline
210
0.0
220
0.0
230
1.0
 70
     8
 71
     3
 72
    11
 73
     7
 74
     5
 42
0.0000000001
 43
0.0000000001
 44
0.00000001
 40
0.0
 40
0.0
 40
0.0
 40
0.0
 40
0.3602330028224257
 40
0.7111323321171224
 40
1.044072904942878
 40
1.351911470381172
 40
1.351911470381172
 40
1.351911470381172
 40
1.351911470381172
 10
97.96414094465251
 20
271.500617789785
 30
0.0
 10
98.08430994825065
 20
271.5042652649713
 30
0.0
 10
98.32153436441297
 20
271.5114657088931
 30
0.0
 10
98.66523001850038
 20
271.5710673998773
 30
0.0
 10
98.98512491031417
 20
271.6598048890335
 30
0.0
 10
99.17758712840984
 20
271.7533349785726
 30
0.0
 10
99.27004846115571
 20
271.7982680403247
 30
0.0
 11
97.96414094465251
 21
271.500617789785
 31
0.0
 11
98.32384513746671
 21
271.5201295809471
 31
0.0
 11
98.66995196723626
 21
271.577925789182
 31
0.0
 11
98.9893779585334
 21
271.671821801437
 31
0.0
 11
99.27004846115571
 21
271.7982680403247
 31
0.0
  0
SPLINE
  5
251
330
45
100
AcDbEntity
  8
1
  6
Continuous
 62
     7
100
AcDbSpline
210
0.0
220
0.0
230
1.0
 70
     8
 71
     3
 72
    15
 73
    11
 74
     9
 42
0.0000000001
 43
0.0000000001
 44
0.00000001
 40
0.0
 40
0.0
 40
0.0
 40
0.0
 40
0.1265641902420381
 40
0.2391063645793236
 40
0.3400392735660118
 40
0.4345936092611057
 40
0.5300111147956728
 40
0.6332379125635637
 40
0.7488708024112697
 40
0.8787132822854182
 40
0.8787132822854182
 40
0.8787132822854182
 40
0.8787132822854182
 10
99.27004846115571
 20
271.7982680403247
 30
0.0
 10
99.30520968331528
 20
271.8218159825734
 30
0.0
 10
99.37163662436919
 20
271.8663029962671
 30
0.0
 10
99.44804769458142
 20
271.9518331177533
 30
0.0
 10
99.49524157051778
 20
272.0446365661248
 30
0.0
 10
99.5087950876581
 20
272.1426831839328
 30
0.0
 10
99.48730048822371
 20
272.2400123146657
 30
0.0
 10
99.43297529805834
 20
272.3311269331293
 30
0.0
 10
99.3501928087713
 20
272.4144693163021
 30
0.0
 10
99.28024949292872
 20
272.4573705826705
 30
0.0
 10
99.24325346522173
 20
272.4800629074496
 30
0.0
 11
99.27004846115571
 21
271.7982680403247
 31
0.0
 11
99.37197473191071
 21
271.8732982314587
 31
0.0
 11
99.44641424311971
 21
271.9577049857828
 31
0.0
 11
99.49066247504905
 21
272.0484218314491
 31
0.0
 11
99.50311201921616
 21
272.1421529962171
 31
0.0
 11
99.48331044378138
 21
272.2354932231974
 31
0.0
 11
99.43197728003572
 21
272.3250514616642
 31
0.0
 11
99.35097733445511
 21
272.4075740284594
 31
0.0
 11
99.24325346522173
 21
272.4800629074496
 31
0.0
  0
ARC
  5
252
330
45
100
AcDbEntity
  8
0
  6
Continuous
 62
     7
100
AcDbCircle
 10
107.0473068713845
 20
270.5149205925729
 30
0.0
 40
0.4999999999999407
100
AcDbArc
 50
-119.044649176017
 51
-104.0608212515109
  0
ARC
  5
253
330
45
100
AcDbEntity
  8
0
  6
Continuous
 62
     7
100
AcDbCircle
 10
104.7319596839246
 20
270.3773674211886
 30
0.0
 40
0.4999999999999918
100
AcDbArc
 50
-119.0446491760007
 51
-100.5919789779244
  0
ARC
  5
254
330
45
100
AcDbEntity
  8
0
  6
Continuous
 62
     7
100
AcDbCircle
 10
101.2544346106503
 20
270.3773674211886
 30
0.0
 40
0.499999999999847
100
AcDbArc
 50
-79.40802102206597
 51
-60.95535082400075
  0
ARC
  5
255
330
45
100
AcDbEntity
  8
0
  6
Continuous
 62
     7
100
AcDbCircle
 10
98.9390874231905
 20
270.5149205925729
 30
0.0
 40
0.4999999999999154
100
AcDbArc
 50
-75.93917874848916
 51
-60.95535082398162
  0
ENDBLK
  5
47
330
45
100
AcDbEntity
  8
0
100
AcDbBlockEnd
  0
BLOCK
  5
49
330
48
100
AcDbEntity
  8
0
100
AcDbBlockBegin
  2
32-1-16__2
 70
     0
 71
     0
 10
294.0200516346255
 20
397.6337391120693
 30
0.0
  3
32-1-16__2
  1

  0
LINE
  5
256
330
48
100
AcDbEntity
  8
1
  6
Continuous
 62
     7
100
AcDbLine
 10
307.852701882317
 20
162.6328994121072
 30
0.0
 11
307.5847526898859
 21
162.6328994121072
 31
0.0
  0
LINE
  5
257
330
48
100
AcDbEntity
  8
1
  6
Continuous
 62
     7
100
AcDbLine
 10
312.8730956074254
 20
171.6328994121073
 30
0.0
 11
312.931116669156
 21
171.6328994121073
 31
0.0
  0
LINE
  5
258
330
48
100
AcDbEntity
  8
1
  6
Continuous
 62
     7
100
AcDbLine
 10
288.1860956074254
 20
162.6328994121072
 30
0.0
 11
288.0730956074254
 21
162.6328994121072
 31
0.0
  0
LINE
  5
259
330
48
100
AcDbEntity
  8
1
  6
Continuous
 62
     7
100
AcDbLine
 10
289.8150745456947
 20
171.6328994121073
 30
0.0
 11
289.8730956074254
 21
171.6328994121073
 31
0.0
  0
LINE
  5
25A
330
48
100
AcDbEntity
  8
1
  6
Continuous
 62
     7
100
AcDbLine
 10
314.6730956074254
 20
162.6328994121072
 30
0.0
 11
307.852701882317
 21
162.6328994121072
 31
0.0
  0
LINE
  5
25B
330
48
100
AcDbEntity
  8
1
  6
Continuous
 62
     7
100
AcDbLine
 10
311.1410447998565
 20
172.6328994121073
 30
0.0
 11
291.6051464149944
 21
172.6328994121073
 31
0.0
  0
LINE
  5
25C
330
48
100
AcDbEntity
  8
1
  6
Continuous
 62
     7
100
AcDbLine
 10
287.3730956074254
 20
163.2046482332774
 30
0.0
 11
287.3730956074254
 21
170.3460766618203
 31
0.0
  0
LINE
  5
25D
330
48
100
AcDbEntity
  8
1
  6
Continuous
 62
     7
100
AcDbLine
 10
315.3730956074254
 20
170.3460766618203
 30
0.0
 11
315.3730956074254
 21
163.2046482332774
 31
0.0
  0
LINE
  5
25E
330
48
100
AcDbEntity
  8
1
  6
Continuous
 62
     7
100
AcDbLine
 10
290.7391210112098
 20
171.6328994121073
 30
0.0
 11
312.007070203641
 21
171.6328994121073
 31
0.0
  0
LINE
  5
25F
330
48
100
AcDbEntity
  8
1
  6
Continuous
 62
     7
100
AcDbLine
 10
295.161438524965
 20
162.6328994121072
 30
0.0
 11
288.0730956074254
 21
162.6328994121072
 31
0.0
  0
ARC
  5
260
330
48
100
AcDbEntity
  8
1
  6
Continuous
 62
     7
100
AcDbCircle
 10
311.8730956074254
 20
166.7753624475489
 30
0.0
 40
4.999999999999975
100
AcDbArc
 50
45.57299599919402
 51
74.66244233044588
  0
ARC
  5
261
330
48
100
AcDbEntity
  8
1
  6
Continuous
 62
     7
100
AcDbCircle
 10
290.8730956074254
 20
166.7753624475489
 30
0.0
 40
5.000000000000057
100
AcDbArc
 50
-134.4270040008051
 51
-124.0557977425674
  0
ARC
  5
262
330
48
100
AcDbEntity
  8
1
  6
Continuous
 62
     7
100
AcDbCircle
 10
290.8730956074254
 20
166.7753624475489
 30
0.0
 40
4.999999999999985
100
AcDbArc
 50
105.3375576695541
 51
134.427004000806
  0
ARC
  5
263
330
48
100
AcDbEntity
  8
1
  6
Continuous
 62
     7
100
AcDbCircle
 10
311.8730956074254
 20
166.7753624475489
 30
0.0
 40
5.000000000000087
100
AcDbArc
 50
-55.94420225743262
 51
-45.57299599919494
  0
SPLINE
  5
264
330
48
100
AcDbEntity
  8
1
  6
Continuous
 62
     7
100
AcDbSpline
210
0.0
220
0.0
230
1.0
 70
     8
 71
     3
 72
    59
 73
    55
 74
    53
 42
0.0000000001
 43
0.0000000001
 44
0.00000001
 40
0.0
 40
0.0
 40
0.0
 40
0.0
 40
0.3328651923268225
 40
0.6657611143671441
 40
1.067419790257908
 40
1.468838798305364
 40
1.902250715065986
 40
2.335501159483313
 40
2.79681719630972
 40
3.258030103351398
 40
3.740926902230448
 40
4.223763035182848
 40
4.720245461026948
 40
5.2166998393227
 40
5.717807166082965
 40
6.21891449284317
 40
6.71536887113892
 40
7.211851296982974
 40
7.694687429935396
 40
8.177584228814389
 40
8.638797135856212
 40
9.100113172682629
 40
9.533363617099957
 40
9.966775533860613
 40
10.36819454190805
 40
10.76985321779873
 40
11.13896134094628
 40
11.50839734425429
 40
11.84902950637075
 40
12.19003325534112
 40
12.51084708735688
 40
12.83192840047518
 40
13.14569038571391
 40
13.45945237095262
 40
13.7805336840709
 40
14.10134751608677
 40
14.44235126505716
 40
14.7829834271737
 40
15.15241943048164
 40
15.52152755362925
 40
15.92318622951995
 40
16.32460523756736
 40
16.75801715432809
 40
17.19126759874543
 40
17.65258363557175
 40
18.11379654261354
 40
18.59669334149246
 40
19.07952947444488
 40
19.5760119002891
 40
20.0724662785848
 40
20.573573605345
 40
21.07468093210526
 40
21.30241172854294
 40
21.52997850248054
 40
21.52997850248054
 40
21.52997850248054
 40
21.52997850248054
 10
303.2011071109482
 20
168.3476499703498
 30
0.0
 10
303.2723794549775
 20
168.4327978769351
 30
0.0
 10
303.4149307228128
 20
168.6031015508578
 30
0.0
 10
303.674276616362
 20
168.8477059328981
 30
0.0
 10
303.9698483681628
 20
169.0849920029142
 30
0.0
 10
304.3126196750774
 20
169.3147331110693
 30
0.0
 10
304.6812716007281
 20
169.5223379551901
 30
0.0
 10
305.081838670922
 20
169.7115444513608
 30
0.0
 10
305.5029396616933
 20
169.8765120425471
 30
0.0
 10
305.9492989358712
 20
170.0196952424068
 30
0.0
 10
306.4104945226445
 20
170.1372226994055
 30
0.0
 10
306.8891896931615
 20
170.2303064429628
 30
0.0
 10
307.3768569817486
 20
170.2968092588466
 30
0.0
 10
307.8734747930293
 20
170.3371948166107
 30
0.0
 10
308.3730956071057
 20
170.3505382980823
 30
0.0
 10
308.8727164230944
 20
170.3371948175409
 30
0.0
 10
309.3693342286911
 20
170.296809255167
 30
0.0
 10
309.857001537889
 20
170.2303064566068
 30
0.0
 10
310.3356966336104
 20
170.137222650021
 30
0.0
 10
310.7968924937369
 20
170.0196954234123
 30
0.0
 10
311.2432507915129
 20
169.8765114006023
 30
0.0
 10
311.6643553183066
 20
169.7115467897189
 30
0.0
 10
312.0649099562345
 20
169.5223298151302
 30
0.0
 10
312.4336065474223
 20
169.3147626169359
 30
0.0
 10
312.7762228388996
 20
169.0848908554813
 30
0.0
 10
313.0817706825387
 20
168.8405075485435
 30
0.0
 10
313.3559231482168
 20
168.5764762984403
 30
0.0
 10
313.5891668131987
 20
168.301718954189
 30
0.0
 10
313.7860458466669
 20
168.0110184022438
 30
0.0
 10
313.9391453888822
 20
167.713032747437
 30
0.0
 10
314.051692859392
 20
167.4043321279244
 30
0.0
 10
314.1182443697532
 20
167.0917614906877
 30
0.0
 10
314.1417196264404
 20
166.7753624475489
 30
0.0
 10
314.1182443697533
 20
166.4589634044101
 30
0.0
 10
314.0516928593921
 20
166.1463927671734
 30
0.0
 10
313.9391453888825
 20
165.8376921476609
 30
0.0
 10
313.7860458466672
 20
165.5397064928534
 30
0.0
 10
313.5891668131989
 20
165.2490059409102
 30
0.0
 10
313.3559231482167
 20
164.9742485966517
 30
0.0
 10
313.0817706825394
 20
164.7102173465763
 30
0.0
 10
312.7762228388972
 20
164.4658340395259
 30
0.0
 10
312.4336065474309
 20
164.2359622785098
 30
0.0
 10
312.0649099561991
 20
164.0283950785539
 30
0.0
 10
311.6643553184416
 20
163.839178110784
 30
0.0
 10
311.2432507909721
 20
163.674213472869
 30
0.0
 10
310.7968924957907
 20
163.5310295538076
 30
0.0
 10
310.3356966255448
 20
163.4135019225723
 30
0.0
 10
309.8570015682991
 20
163.320419654432
 30
0.0
 10
309.369334111638
 20
163.2539109595832
 30
0.0
 10
308.8727168612361
 20
163.2135475965539
 30
0.0
 10
308.3730939549769
 20
163.2001205370214
 30
0.0
 10
307.9630656228923
 20
163.2113271134111
 30
0.0
 10
307.6448941024519
 20
163.2320240819963
 30
0.0
 10
307.4938295636857
 20
163.2466883574162
 30
0.0
 10
307.4183245050598
 20
163.2540178536986
 30
0.0
 11
303.2011071109482
 21
168.3476499703498
 31
0.0
 11
303.4197250832168
 21
168.5986587719165
 31
0.0
 11
303.6601686685162
 21
168.8288903449021
 31
0.0
 11
303.9733300257379
 21
169.0804050686488
 31
0.0
 11
304.3063571449188
 21
169.3045259242422
 31
0.0
 11
304.6836855076369
 21
169.5177609970575
 31
0.0
 11
305.0752531768305
 21
169.7031813520084
 31
0.0
 11
305.5045865285698
 21
169.8719574134553
 31
0.0
 11
305.9436756170702
 21
170.0130889761255
 31
0.0
 11
306.4115215074711
 21
170.1327114706766
 31
0.0
 11
306.8854535349698
 21
170.2250107913427
 31
0.0
 11
307.3773502416634
 21
170.2923341091159
 31
0.0
 11
307.8721697936457
 21
170.332590297523
 31
0.0
 11
308.3730956074254
 21
170.3460766618204
 31
0.0
 11
308.874021421205
 21
170.3325902975232
 31
0.0
 11
309.3688409731873
 21
170.2923341091161
 31
0.0
 11
309.8607376798809
 21
170.2250107913428
 31
0.0
 11
310.3346697073796
 21
170.1327114706766
 31
0.0
 11
310.8025155977804
 21
170.0130889761255
 31
0.0
 11
311.241604686281
 21
169.8719574134553
 31
0.0
 11
311.6709380380203
 21
169.7031813520084
 31
0.0
 11
312.0625057072139
 21
169.5177609970575
 31
0.0
 11
312.4398340699321
 21
169.3045259242422
 31
0.0
 11
312.772861189113
 21
169.0804050686489
 31
0.0
 11
313.0860225463346
 21
168.8288903449022
 31
0.0
 11
313.3513596754395
 21
168.5723030995219
 31
0.0
 11
313.5898529719947
 21
168.2901614541761
 31
0.0
 11
313.7800886961003
 21
168.0076005949933
 31
0.0
 11
313.9355135626776
 21
167.7040768435977
 31
0.0
 11
314.044468394822
 21
167.4023313227278
 31
0.0
 11
314.1114639365248
 21
167.0883172991146
 31
0.0
 11
314.1339549183268
 21
166.7753624475489
 31
0.0
 11
314.111463936525
 21
166.4624075959832
 31
0.0
 11
314.0444683948222
 21
166.14839357237
 31
0.0
 11
313.9355135626778
 21
165.8466480515
 31
0.0
 11
313.7800886961005
 21
165.5431243001044
 31
0.0
 11
313.5898529719948
 21
165.2605634409215
 31
0.0
 11
313.3513596754395
 21
164.9784217955759
 31
0.0
 11
313.0860225463346
 21
164.7218345501955
 31
0.0
 11
312.7728611891129
 21
164.4703198264488
 31
0.0
 11
312.4398340699321
 21
164.2461989708555
 31
0.0
 11
312.0625057072138
 21
164.0329638980403
 31
0.0
 11
311.6709380380202
 21
163.8475435430894
 31
0.0
 11
311.241604686281
 21
163.6787674816424
 31
0.0
 11
310.8025155977805
 21
163.5376359189722
 31
0.0
 11
310.3346697073797
 21
163.4180134244212
 31
0.0
 11
309.860737679881
 21
163.325714103755
 31
0.0
 11
309.3688409731873
 21
163.2583907859817
 31
0.0
 11
308.874021421205
 21
163.2181345975747
 31
0.0
 11
308.3730956074254
 21
163.2046482332774
 31
0.0
 11
307.8721697936457
 21
163.2181345975747
 31
0.0
 11
307.6449399467976
 21
163.2332313637027
 31
0.0
 11
307.4183245050598
 21
163.2540178536986
 31
0.0
  0
SPLINE
  5
265
330
48
100
AcDbEntity
  8
1
  6
Continuous
 62
     7
100
AcDbSpline
210
0.0
220
0.0
230
1.0
 70
     8
 71
     3
 72
    59
 73
    55
 74
    53
 42
0.0000000001
 43
0.0000000001
 44
0.00000001
 40
0.0
 40
0.0
 40
0.0
 40
0.0
 40
0.3328651923233083
 40
0.6657611143601346
 40
1.067419790250881
 40
1.468838798298321
 40
1.902250715058992
 40
2.335501159476319
 40
2.796817196302674
 40
3.258030103344406
 40
3.7409269022234
 40
4.223763035175855
 40
4.720245461019898
 40
5.216699839315764
 40
5.717807166076085
 40
6.21891449283629
 40
6.71536887113204
 40
7.211851296976095
 40
7.694687429928628
 40
8.177584228807511
 40
8.638797135849226
 40
9.100113172675643
 40
9.533363617092919
 40
9.966775533853625
 40
10.36819454190097
 40
10.76985321779173
 40
11.13896134093928
 40
11.50839734424733
 40
11.84902950636386
 40
12.19003325533419
 40
12.51084708734996
 40
12.83192840046826
 40
13.14569038570698
 40
13.45945237094571
 40
13.78053368406401
 40
14.10134751607986
 40
14.44235126505022
 40
14.78298342716672
 40
15.1524194304747
 40
15.52152755362223
 40
15.92318622951302
 40
16.32460523756048
 40
16.75801715432116
 40
17.1912675987385
 40
17.65258363556482
 40
18.11379654260655
 40
18.59669334148553
 40
19.07952947443795
 40
19.576011900282
 40
20.07246627857775
 40
20.57357360533801
 40
21.07468093209828
 40
21.30241172853629
 40
21.52997850247419
 40
21.52997850247419
 40
21.52997850247419
 40
21.52997850247419
 10
299.5450841038982
 20
168.3476499703553
 30
0.0
 10
299.4738117598696
 20
168.4327978769396
 30
0.0
 10
299.3312604920355
 20
168.6031015508603
 30
0.0
 10
299.071914598488
 20
168.8477059328988
 30
0.0
 10
298.776342846688
 20
169.0849920029142
 30
0.0
 10
298.4335715397735
 20
169.3147331110692
 30
0.0
 10
298.0649196141226
 20
169.52233795519
 30
0.0
 10
297.6643525439288
 20
169.7115444513608
 30
0.0
 10
297.2432515531576
 20
169.8765120425471
 30
0.0
 10
296.7968922789795
 20
170.0196952424068
 30
0.0
 10
296.3356966922063
 20
170.1372226994054
 30
0.0
 10
295.8570015216893
 20
170.2303064429628
 30
0.0
 10
295.3693342331025
 20
170.2968092588466
 30
0.0
 10
294.8727164218213
 20
170.3371948166107
 30
0.0
 10
294.3730956077451
 20
170.3505382980823
 30
0.0
 10
293.8734747917563
 20
170.3371948175408
 30
0.0
 10
293.3768569861596
 20
170.296809255167
 30
0.0
 10
292.8891896769617
 20
170.2303064566068
 30
0.0
 10
292.4104945812402
 20
170.1372226500211
 30
0.0
 10
291.9492987211139
 20
170.0196954234124
 30
0.0
 10
291.5029404233378
 20
169.8765114006023
 30
0.0
 10
291.0818358965441
 20
169.7115467897189
 30
0.0
 10
290.6812812586163
 20
169.5223298151301
 30
0.0
 10
290.3125846674286
 20
169.314762616936
 30
0.0
 10
289.9699683759513
 20
169.0848908554813
 30
0.0
 10
289.664420532312
 20
168.8405075485435
 30
0.0
 10
289.3902680666341
 20
168.5764762984404
 30
0.0
 10
289.157024401652
 20
168.301718954189
 30
0.0
 10
288.9601453681838
 20
168.0110184022439
 30
0.0
 10
288.8070458259684
 20
167.7130327474369
 30
0.0
 10
288.6944983554589
 20
167.4043321279244
 30
0.0
 10
288.6279468450974
 20
167.0917614906877
 30
0.0
 10
288.6044715884103
 20
166.7753624475489
 30
0.0
 10
288.6279468450975
 20
166.4589634044101
 30
0.0
 10
288.6944983554587
 20
166.1463927671734
 30
0.0
 10
288.8070458259684
 20
165.8376921476609
 30
0.0
 10
288.9601453681837
 20
165.5397064928534
 30
0.0
 10
289.1570244016519
 20
165.2490059409101
 30
0.0
 10
289.3902680666341
 20
164.9742485966518
 30
0.0
 10
289.6644205323114
 20
164.7102173465762
 30
0.0
 10
289.9699683759534
 20
164.465834039526
 30
0.0
 10
290.31258466742
 20
164.2359622785098
 30
0.0
 10
290.6812812586517
 20
164.0283950785537
 30
0.0
 10
291.0818358964091
 20
163.839178110784
 30
0.0
 10
291.5029404238787
 20
163.674213472869
 30
0.0
 10
291.94929871906
 20
163.5310295538077
 30
0.0
 10
292.410494589306
 20
163.4135019225723
 30
0.0
 10
292.8891896465516
 20
163.320419654432
 30
0.0
 10
293.3768571032129
 20
163.2539109595832
 30
0.0
 10
293.8734743536145
 20
163.2135475965539
 30
0.0
 10
294.3730972598739
 20
163.2001205370215
 30
0.0
 10
294.7831255919588
 20
163.2113271134109
 30
0.0
 10
295.1012971123992
 20
163.2320240819964
 30
0.0
 10
295.2523616511655
 20
163.2466883574163
 30
0.0
 10
295.3278667097916
 20
163.2540178536987
 30
0.0
 11
299.5450841038982
 21
168.3476499703553
 31
0.0
 11
299.3264661316316
 21
168.5986587719191
 31
0.0
 11
299.0860225463346
 21
168.8288903449022
 31
0.0
 11
298.7728611891129
 21
169.0804050686488
 31
0.0
 11
298.4398340699321
 21
169.3045259242422
 31
0.0
 11
298.0625057072139
 21
169.5177609970575
 31
0.0
 11
297.6709380380203
 21
169.7031813520084
 31
0.0
 11
297.2416046862811
 21
169.8719574134553
 31
0.0
 11
296.8025155977806
 21
170.0130889761255
 31
0.0
 11
296.3346697073798
 21
170.1327114706766
 31
0.0
 11
295.860737679881
 21
170.2250107913427
 31
0.0
 11
295.3688409731875
 21
170.2923341091159
 31
0.0
 11
294.874021421205
 21
170.332590297523
 31
0.0
 11
294.3730956074253
 21
170.3460766618204
 31
0.0
 11
293.8721697936456
 21
170.3325902975232
 31
0.0
 11
293.3773502416634
 21
170.2923341091161
 31
0.0
 11
292.8854535349698
 21
170.2250107913428
 31
0.0
 11
292.411521507471
 21
170.1327114706766
 31
0.0
 11
291.9436756170703
 21
170.0130889761255
 31
0.0
 11
291.5045865285698
 21
169.8719574134553
 31
0.0
 11
291.0752531768305
 21
169.7031813520084
 31
0.0
 11
290.683685507637
 21
169.5177609970575
 31
0.0
 11
290.3063571449187
 21
169.3045259242422
 31
0.0
 11
289.9733300257379
 21
169.0804050686489
 31
0.0
 11
289.6601686685162
 21
168.8288903449022
 31
0.0
 11
289.3948315394113
 21
168.5723030995219
 31
0.0
 11
289.156338242856
 21
168.2901614541761
 31
0.0
 11
288.9661025187504
 21
168.0076005949933
 31
0.0
 11
288.8106776521731
 21
167.7040768435977
 31
0.0
 11
288.7017228200287
 21
167.4023313227278
 31
0.0
 11
288.6347272783258
 21
167.0883172991146
 31
0.0
 11
288.6122362965239
 21
166.7753624475489
 31
0.0
 11
288.6347272783258
 21
166.4624075959832
 31
0.0
 11
288.7017228200287
 21
166.14839357237
 31
0.0
 11
288.810677652173
 21
165.8466480515
 31
0.0
 11
288.9661025187503
 21
165.5431243001044
 31
0.0
 11
289.156338242856
 21
165.2605634409215
 31
0.0
 11
289.3948315394113
 21
164.9784217955759
 31
0.0
 11
289.6601686685161
 21
164.7218345501955
 31
0.0
 11
289.9733300257379
 21
164.4703198264488
 31
0.0
 11
290.3063571449188
 21
164.2461989708555
 31
0.0
 11
290.6836855076371
 21
164.0329638980403
 31
0.0
 11
291.0752531768306
 21
163.8475435430894
 31
0.0
 11
291.5045865285698
 21
163.6787674816424
 31
0.0
 11
291.9436756170703
 21
163.5376359189722
 31
0.0
 11
292.4115215074711
 21
163.4180134244212
 31
0.0
 11
292.8854535349698
 21
163.325714103755
 31
0.0
 11
293.3773502416634
 21
163.2583907859817
 31
0.0
 11
293.8721697936456
 21
163.2181345975747
 31
0.0
 11
294.3730956074253
 21
163.2046482332774
 31
0.0
 11
294.874021421205
 21
163.2181345975747
 31
0.0
 11
295.1012512680535
 21
163.2332313637028
 31
0.0
 11
295.3278667097916
 21
163.2540178536987
 31
0.0
  0
ARC
  5
266
330
48
100
AcDbEntity
  8
1
  6
Continuous
 62
     7
100
AcDbCircle
 10
312.931116669156
 20
170.6328994121073
 30
0.0
 40
0.9999999999999989
100
AcDbArc
 50
74.66244233044795
 51
90.0
  0
ARC
  5
267
330
48
100
AcDbEntity
  8
1
  6
Continuous
 62
     7
100
AcDbCircle
 10
311.1410447998565
 20
171.6328994121073
 30
0.0
 40
1.000000000000011
100
AcDbArc
 50
42.94140286487899
 51
90.0
  0
ARC
  5
268
330
48
100
AcDbEntity
  8
1
  6
Continuous
 62
     7
100
AcDbCircle
 10
312.8730956074254
 20
172.6328994121073
 30
0.0
 40
0.9999999999999836
100
AcDbArc
 50
-149.9999999999995
 51
-90.0
  0
ARC
  5
269
330
48
100
AcDbEntity
  8
1
  6
Continuous
 62
     7
100
AcDbCircle
 10
311.1410447998565
 20
171.6328994121073
 30
0.0
 40
1.000000000000033
100
AcDbArc
 50
29.99999999999892
 51
42.94140286487899
  0
ARC
  5
26A
330
48
100
AcDbEntity
  8
1
  6
Continuous
 62
     7
100
AcDbCircle
 10
289.8150745456947
 20
170.6328994121073
 30
0.0
 40
1.0
100
AcDbArc
 50
90.0
 51
105.3375576695458
  0
ARC
  5
26B
330
48
100
AcDbEntity
  8
1
  6
Continuous
 62
     7
100
AcDbCircle
 10
291.6051464149944
 20
171.6328994121073
 30
0.0
 40
1.0
100
AcDbArc
 50
90.0
 51
137.0585971351255
  0
ARC
  5
26C
330
48
100
AcDbEntity
  8
1
  6
Continuous
 62
     7
100
AcDbCircle
 10
289.8730956074254
 20
172.6328994121073
 30
0.0
 40
1.0
100
AcDbArc
 50
-90.0
 51
-29.99999999999892
  0
ARC
  5
26D
330
48
100
AcDbEntity
  8
1
  6
Continuous
 62
     7
100
AcDbCircle
 10
291.6051464149944
 20
171.6328994121073
 30
0.0
 40
1.000000000000094
100
AcDbArc
 50
137.0585971351255
 51
150.0000000000027
  0
ENDBLK
  5
4A
330
48
100
AcDbEntity
  8
0
100
AcDbBlockEnd
  0
BLOCK
  5
4E
330
4B
100
AcDbEntity
  8
0
100
AcDbBlockBegin
  2
A20J-60X-16
 70
     0
 71
     0
 10
23.4336267717876
 20
684.913177041695
 30
0.0
  3
A20J-60X-16
  1

  0
INSERT
  5
4C
330
4B
100
AcDbEntity
  8
1
100
AcDbBlockReference
  2
61-5A-16-M11
 10
186.9918662596455
 20
361.0567643631454
 30
0.0
  0
INSERT
  5
4D
330
4B
100
AcDbEntity
  8
0
100
AcDbBlockReference
  2
32-1-16__2
 10
294.0200516346255
 20
397.6337391120693
 30
0.0
  0
ENDBLK
  5
4F
330
4B
100
AcDbEntity
  8
0
100
AcDbBlockEnd
  0
BLOCK
  5
51
330
50
100
AcDbEntity
  8
0
100
AcDbBlockBegin
  2
42-1
 70
     0
 71
     0
 10
978.5378578105775
 20
248.8735703827008
 30
0.0
  3
42-1
  1

  0
LINE
  5
26E
330
50
100
AcDbEntity
  8
1
  6
Continuous
 62
     7
100
AcDbLine
 10
160.8229628674912
 20
137.6328994121073
 30
0.0
 11
160.8229628674912
 21
131.8828994121073
 31
0.0
  0
LINE
  5
26F
330
50
100
AcDbEntity
  8
1
  6
Continuous
 62
     7
100
AcDbLine
 10
160.4931971472875
 20
132.1328994121073
 30
0.0
 11
160.4931971472875
 21
131.6328994121073
 31
0.0
  0
LINE
  5
270
330
50
100
AcDbEntity
  8
1
  6
Continuous
 62
     2
100
AcDbLine
 10
157.4931971472875
 20
131.6328994121073
 30
0.0
 11
160.4931971472875
 21
131.6328994121073
 31
0.0
  0
LINE
  5
271
330
50
100
AcDbEntity
  8
1
  6
Continuous
 62
     7
100
AcDbLine
 10
160.4931971472875
 20
131.1328994121073
 30
0.0
 11
160.4931971472875
 21
130.6328994121073
 31
0.0
  0
LINE
  5
272
330
50
100
AcDbEntity
  8
1
  6
Continuous
 62
     7
100
AcDbLine
 10
160.7625193463107
 20
131.6328994121072
 30
0.0
 11
160.4931971472875
 21
130.6328994121073
 31
0.0
  0
LINE
  5
273
330
50
100
AcDbEntity
  8
1
  6
Continuous
 62
     7
100
AcDbLine
 10
160.4931971472875
 20
130.6328994121073
 30
0.0
 11
157.4931971472875
 21
130.6328994121073
 31
0.0
  0
LINE
  5
274
330
50
100
AcDbEntity
  8
1
  6
Continuous
 62
     7
100
AcDbLine
 10
160.4931971472875
 20
131.6328994121073
 30
0.0
 11
160.4931971472875
 21
131.1328994121073
 31
0.0
  0
LINE
  5
275
330
50
100
AcDbEntity
  8
1
  6
Continuous
 62
     7
100
AcDbLine
 10
160.4931971472875
 20
132.6328994121073
 30
0.0
 11
160.4931971472875
 21
132.1328994121073
 31
0.0
  0
LINE
  5
276
330
50
100
AcDbEntity
  8
1
  6
Continuous
 62
     7
100
AcDbLine
 10
160.8229628674912
 20
143.3828994121073
 30
0.0
 11
160.8229628674912
 21
137.6328994121073
 31
0.0
  0
LINE
  5
277
330
50
100
AcDbEntity
  8
1
  6
Continuous
 62
     2
100
AcDbLine
 10
159.7355352494587
 20
138.6328994121073
 30
0.0
 11
158.4702961588483
 21
138.6328994121073
 31
0.0
  0
LINE
  5
278
330
50
100
AcDbEntity
  8
1
  6
Continuous
 62
     2
100
AcDbLine
 10
159.9788504591915
 20
139.6328994121073
 30
0.0
 11
158.2107599351334
 21
139.6328994121073
 31
0.0
  0
LINE
  5
279
330
50
100
AcDbEntity
  8
1
  6
Continuous
 62
     7
100
AcDbLine
 10
160.4931971472875
 20
143.6328994121073
 30
0.0
 11
160.4931971472875
 21
143.1328994121073
 31
0.0
  0
LINE
  5
27A
330
50
100
AcDbEntity
  8
1
  6
Continuous
 62
     7
100
AcDbLine
 10
160.4931971472875
 20
144.6328994121073
 30
0.0
 11
160.4931971472875
 21
144.1328994121073
 31
0.0
  0
LINE
  5
27B
330
50
100
AcDbEntity
  8
1
  6
Continuous
 62
     7
100
AcDbLine
 10
160.4931971472875
 20
144.6328994121073
 30
0.0
 11
160.7625193463107
 21
143.6328994121074
 31
0.0
  0
LINE
  5
27C
330
50
100
AcDbEntity
  8
1
  6
Continuous
 62
     7
100
AcDbLine
 10
160.4931971472875
 20
144.1328994121073
 30
0.0
 11
160.4931971472875
 21
143.6328994121073
 31
0.0
  0
LINE
  5
27D
330
50
100
AcDbEntity
  8
1
  6
Continuous
 62
     7
100
AcDbLine
 10
160.4931971472875
 20
143.1328994121073
 30
0.0
 11
160.4931971472875
 21
142.6328994121073
 31
0.0
  0
LINE
  5
27E
330
50
100
AcDbEntity
  8
1
  6
Continuous
 62
     7
100
AcDbLine
 10
160.4931971472875
 20
142.6328994121073
 30
0.0
 11
160.4931971472875
 21
132.6328994121073
 31
0.0
  0
LINE
  5
27F
330
50
100
AcDbEntity
  8
1
  6
Continuous
 62
     2
100
AcDbLine
 10
158.4702961588483
 20
136.6328994121073
 30
0.0
 11
159.7355352494587
 21
136.6328994121073
 31
0.0
  0
LINE
  5
280
330
50
100
AcDbEntity
  8
1
  6
Continuous
 62
     2
100
AcDbLine
 10
158.2107599351334
 20
135.6328994121073
 30
0.0
 11
159.9788504591915
 21
135.6328994121073
 31
0.0
  0
LINE
  5
281
330
50
100
AcDbEntity
  8
1
  6
Continuous
 62
     2
100
AcDbLine
 10
157.8538976275253
 20
134.6328994121073
 30
0.0
 11
160.1897236409599
 21
134.6328994121073
 31
0.0
  0
LINE
  5
282
330
50
100
AcDbEntity
  8
1
  6
Continuous
 62
     2
100
AcDbLine
 10
157.6592454597391
 20
133.6328994121073
 30
0.0
 11
160.3032707388352
 21
133.6328994121073
 31
0.0
  0
LINE
  5
283
330
50
100
AcDbEntity
  8
1
  6
Continuous
 62
     2
100
AcDbLine
 10
157.4931971472875
 20
132.6328994121073
 30
0.0
 11
160.4931971472875
 21
132.6328994121073
 31
0.0
  0
LINE
  5
284
330
50
100
AcDbEntity
  8
1
  6
Continuous
 62
     7
100
AcDbLine
 10
157.4931971472875
 20
130.6328994121073
 30
0.0
 11
157.4931971472875
 21
135.3328994121073
 31
0.0
  0
LINE
  5
285
330
50
100
AcDbEntity
  8
1
  6
Continuous
 62
     7
100
AcDbLine
 10
157.4931971472875
 20
139.9328994121073
 30
0.0
 11
157.4931971472875
 21
135.3328994121073
 31
0.0
  0
LINE
  5
286
330
50
100
AcDbEntity
  8
1
  6
Continuous
 62
     7
100
AcDbLine
 10
157.4931971472875
 20
139.9328994121073
 30
0.0
 11
157.4931971472875
 21
144.6328994121073
 31
0.0
  0
LINE
  5
287
330
50
100
AcDbEntity
  8
1
  6
Continuous
 62
     2
100
AcDbLine
 10
160.1897236409599
 20
140.6328994121073
 30
0.0
 11
157.8538976275253
 21
140.6328994121073
 31
0.0
  0
LINE
  5
288
330
50
100
AcDbEntity
  8
1
  6
Continuous
 62
     2
100
AcDbLine
 10
160.3032707388352
 20
141.6328994121073
 30
0.0
 11
157.6592454597391
 21
141.6328994121073
 31
0.0
  0
LINE
  5
289
330
50
100
AcDbEntity
  8
1
  6
Continuous
 62
     2
100
AcDbLine
 10
160.4931971472875
 20
142.6328994121073
 30
0.0
 11
157.4931971472875
 21
142.6328994121073
 31
0.0
  0
LINE
  5
28A
330
50
100
AcDbEntity
  8
1
  6
Continuous
 62
     2
100
AcDbLine
 10
160.4931971472875
 20
143.6328994121073
 30
0.0
 11
157.4931971472875
 21
143.6328994121073
 31
0.0
  0
LINE
  5
28B
330
50
100
AcDbEntity
  8
1
  6
Continuous
 62
     7
100
AcDbLine
 10
157.4931971472875
 20
144.6328994121073
 30
0.0
 11
160.4931971472875
 21
144.6328994121073
 31
0.0
  0
LINE
  5
28C
330
50
100
AcDbEntity
  8
1
  6
Continuous
 62
     7
100
AcDbLine
 10
160.8232715793062
 20
482.7558716527598
 30
0.0
 11
160.8232715793062
 21
477.0058716527598
 31
0.0
  0
LINE
  5
28D
330
50
100
AcDbEntity
  8
1
  6
Continuous
 62
     7
100
AcDbLine
 10
160.4935058591023
 20
477.2558716527598
 30
0.0
 11
160.4935058591023
 21
476.7558716527598
 31
0.0
  0
LINE
  5
28E
330
50
100
AcDbEntity
  8
1
  6
Continuous
 62
     2
100
AcDbLine
 10
157.4935058591023
 20
476.7558716527598
 30
0.0
 11
160.4935058591023
 21
476.7558716527598
 31
0.0
  0
LINE
  5
28F
330
50
100
AcDbEntity
  8
1
  6
Continuous
 62
     7
100
AcDbLine
 10
160.4935058591023
 20
476.2558716527598
 30
0.0
 11
160.4935058591023
 21
475.7558716527598
 31
0.0
  0
LINE
  5
290
330
50
100
AcDbEntity
  8
1
  6
Continuous
 62
     7
100
AcDbLine
 10
160.7628280581257
 20
476.7558716527597
 30
0.0
 11
160.4935058591023
 21
475.7558716527598
 31
0.0
  0
LINE
  5
291
330
50
100
AcDbEntity
  8
1
  6
Continuous
 62
     7
100
AcDbLine
 10
160.4935058591023
 20
475.7558716527598
 30
0.0
 11
157.4935058591023
 21
475.7558716527598
 31
0.0
  0
LINE
  5
292
330
50
100
AcDbEntity
  8
1
  6
Continuous
 62
     7
100
AcDbLine
 10
160.4935058591023
 20
476.7558716527598
 30
0.0
 11
160.4935058591023
 21
476.2558716527598
 31
0.0
  0
LINE
  5
293
330
50
100
AcDbEntity
  8
1
  6
Continuous
 62
     7
100
AcDbLine
 10
160.4935058591023
 20
477.7558716527598
 30
0.0
 11
160.4935058591023
 21
477.2558716527598
 31
0.0
  0
LINE
  5
294
330
50
100
AcDbEntity
  8
1
  6
Continuous
 62
     7
100
AcDbLine
 10
160.8232715793062
 20
488.5058716527598
 30
0.0
 11
160.8232715793062
 21
482.7558716527598
 31
0.0
  0
LINE
  5
295
330
50
100
AcDbEntity
  8
1
  6
Continuous
 62
     2
100
AcDbLine
 10
159.7358439612737
 20
483.7558716527598
 30
0.0
 11
158.4706048706634
 21
483.7558716527598
 31
0.0
  0
LINE
  5
296
330
50
100
AcDbEntity
  8
1
  6
Continuous
 62
     2
100
AcDbLine
 10
159.9791591710063
 20
484.7558716527598
 30
0.0
 11
158.2110686469483
 21
484.7558716527598
 31
0.0
  0
LINE
  5
297
330
50
100
AcDbEntity
  8
1
  6
Continuous
 62
     7
100
AcDbLine
 10
160.4935058591023
 20
488.7558716527598
 30
0.0
 11
160.4935058591023
 21
488.2558716527598
 31
0.0
  0
LINE
  5
298
330
50
100
AcDbEntity
  8
1
  6
Continuous
 62
     7
100
AcDbLine
 10
160.4935058591023
 20
489.7558716527598
 30
0.0
 11
160.4935058591023
 21
489.2558716527598
 31
0.0
  0
LINE
  5
299
330
50
100
AcDbEntity
  8
1
  6
Continuous
 62
     7
100
AcDbLine
 10
160.4935058591023
 20
489.7558716527598
 30
0.0
 11
160.7628280581257
 21
488.7558716527599
 31
0.0
  0
LINE
  5
29A
330
50
100
AcDbEntity
  8
1
  6
Continuous
 62
     7
100
AcDbLine
 10
160.4935058591023
 20
489.2558716527598
 30
0.0
 11
160.4935058591023
 21
488.7558716527598
 31
0.0
  0
LINE
  5
29B
330
50
100
AcDbEntity
  8
1
  6
Continuous
 62
     7
100
AcDbLine
 10
160.4935058591023
 20
488.2558716527598
 30
0.0
 11
160.4935058591023
 21
487.7558716527598
 31
0.0
  0
LINE
  5
29C
330
50
100
AcDbEntity
  8
1
  6
Continuous
 62
     7
100
AcDbLine
 10
160.4935058591023
 20
487.7558716527598
 30
0.0
 11
160.4935058591023
 21
477.7558716527598
 31
0.0
  0
LINE
  5
29D
330
50
100
AcDbEntity
  8
1
  6
Continuous
 62
     2
100
AcDbLine
 10
158.4706048706634
 20
481.7558716527598
 30
0.0
 11
159.7358439612737
 21
481.7558716527598
 31
0.0
  0
LINE
  5
29E
330
50
100
AcDbEntity
  8
1
  6
Continuous
 62
     2
100
AcDbLine
 10
158.2110686469483
 20
480.7558716527598
 30
0.0
 11
159.9791591710063
 21
480.7558716527598
 31
0.0
  0
LINE
  5
29F
330
50
100
AcDbEntity
  8
1
  6
Continuous
 62
     2
100
AcDbLine
 10
157.8542063393404
 20
479.7558716527598
 30
0.0
 11
160.190032352775
 21
479.7558716527598
 31
0.0
  0
LINE
  5
2A0
330
50
100
AcDbEntity
  8
1
  6
Continuous
 62
     2
100
AcDbLine
 10
157.6595541715539
 20
478.7558716527598
 30
0.0
 11
160.3035794506502
 21
478.7558716527598
 31
0.0
  0
LINE
  5
2A1
330
50
100
AcDbEntity
  8
1
  6
Continuous
 62
     2
100
AcDbLine
 10
157.4935058591023
 20
477.7558716527598
 30
0.0
 11
160.4935058591023
 21
477.7558716527598
 31
0.0
  0
LINE
  5
2A2
330
50
100
AcDbEntity
  8
1
  6
Continuous
 62
     7
100
AcDbLine
 10
157.4935058591023
 20
475.7558716527598
 30
0.0
 11
157.4935058591023
 21
480.4558716527597
 31
0.0
  0
LINE
  5
2A3
330
50
100
AcDbEntity
  8
1
  6
Continuous
 62
     7
100
AcDbLine
 10
157.4935058591023
 20
485.0558716527598
 30
0.0
 11
157.4935058591023
 21
480.4558716527597
 31
0.0
  0
LINE
  5
2A4
330
50
100
AcDbEntity
  8
1
  6
Continuous
 62
     7
100
AcDbLine
 10
157.4935058591023
 20
485.0558716527598
 30
0.0
 11
157.4935058591023
 21
489.7558716527598
 31
0.0
  0
LINE
  5
2A5
330
50
100
AcDbEntity
  8
1
  6
Continuous
 62
     2
100
AcDbLine
 10
160.190032352775
 20
485.7558716527598
 30
0.0
 11
157.8542063393404
 21
485.7558716527598
 31
0.0
  0
LINE
  5
2A6
330
50
100
AcDbEntity
  8
1
  6
Continuous
 62
     2
100
AcDbLine
 10
160.3035794506502
 20
486.7558716527598
 30
0.0
 11
157.6595541715539
 21
486.7558716527598
 31
0.0
  0
LINE
  5
2A7
330
50
100
AcDbEntity
  8
1
  6
Continuous
 62
     2
100
AcDbLine
 10
160.4935058591023
 20
487.7558716527598
 30
0.0
 11
157.4935058591023
 21
487.7558716527598
 31
0.0
  0
LINE
  5
2A8
330
50
100
AcDbEntity
  8
1
  6
Continuous
 62
     2
100
AcDbLine
 10
160.4935058591023
 20
488.7558716527598
 30
0.0
 11
157.4935058591023
 21
488.7558716527598
 31
0.0
  0
LINE
  5
2A9
330
50
100
AcDbEntity
  8
1
  6
Continuous
 62
     7
100
AcDbLine
 10
157.4935058591023
 20
489.7558716527598
 30
0.0
 11
160.4935058591023
 21
489.7558716527598
 31
0.0
  0
ARC
  5
2AA
330
50
100
AcDbEntity
  8
1
  6
Continuous
 62
     7
100
AcDbCircle
 10
136.4931971472875
 20
137.6328994121073
 30
0.0
 40
24.99999999999999
100
AcDbArc
 50
-13.29707174720906
 51
0.0
  0
ARC
  5
2AB
330
50
100
AcDbEntity
  8
1
  6
Continuous
 62
     7
100
AcDbCircle
 10
136.4931971472875
 20
137.6328994121073
 30
0.0
 40
25.0
100
AcDbArc
 50
0.0
 51
13.29707174720906
  0
ARC
  5
2AC
330
50
100
AcDbEntity
  8
1
  6
Continuous
 62
     7
100
AcDbCircle
 10
136.4931971472875
 20
137.6328994121073
 30
0.0
 40
25.00000000000004
100
AcDbArc
 50
-13.88654036262917
 51
-13.29707174720906
  0
ARC
  5
2AD
330
50
100
AcDbEntity
  8
1
  6
Continuous
 62
     7
100
AcDbCircle
 10
136.4931971472875
 20
137.6328994121073
 30
0.0
 40
24.99999999999999
100
AcDbArc
 50
13.29707174720906
 51
13.88654036262924
  0
ARC
  5
2AE
330
50
100
AcDbEntity
  8
1
  6
Continuous
 62
     7
100
AcDbCircle
 10
136.4935058591023
 20
482.7558716527598
 30
0.0
 40
25.00000000000019
100
AcDbArc
 50
-13.29707174720896
 51
0.0
  0
ARC
  5
2AF
330
50
100
AcDbEntity
  8
1
  6
Continuous
 62
     7
100
AcDbCircle
 10
136.4935058591023
 20
482.7558716527598
 30
0.0
 40
25.0
100
AcDbArc
 50
0.0
 51
13.29707174720896
  0
ARC
  5
2B0
330
50
100
AcDbEntity
  8
1
  6
Continuous
 62
     7
100
AcDbCircle
 10
136.4935058591023
 20
482.7558716527598
 30
0.0
 40
25.00000000000023
100
AcDbArc
 50
-13.88654036262913
 51
-13.29707174720896
  0
ARC
  5
2B1
330
50
100
AcDbEntity
  8
1
  6
Continuous
 62
     7
100
AcDbCircle
 10
136.4935058591023
 20
482.7558716527598
 30
0.0
 40
25.00000000000019
100
AcDbArc
 50
13.29707174720896
 51
13.886540362629
  0
CIRCLE
  5
2B2
330
50
100
AcDbEntity
  8
1
  6
Continuous
 62
     7
100
AcDbCircle
 10
301.3730956074254
 20
137.6328994121071
 30
0.0
 40
6.999999999999886
  0
CIRCLE
  5
2B3
330
50
100
AcDbEntity
  8
1
  6
Continuous
 62
     7
100
AcDbCircle
 10
301.3730956074254
 20
137.6328994121071
 30
0.0
 40
5.749999999999886
  0
ENDBLK
  5
52
330
50
100
AcDbEntity
  8
0
100
AcDbBlockEnd
  0
BLOCK
  5
54
330
53
100
AcDbEntity
  8
0
100
AcDbBlockBegin
  2
51-1
 70
     0
 71
     0
 10
1573.643526252308
 20
341.4956020899914
 30
0.0
  3
51-1
  1

  0
LINE
  5
2B4
330
53
100
AcDbEntity
  8
1
  6
Continuous
 62
     7
100
AcDbLine
 10
149.3801060526548
 20
168.6328994121073
 30
0.0
 11
146.4931971472875
 21
168.6328994121073
 31
0.0
  0
LINE
  5
2B5
330
53
100
AcDbEntity
  8
1
  6
Continuous
 62
     7
100
AcDbLine
 10
145.9931971472875
 20
168.1328994121073
 30
0.0
 11
145.9931971472875
 21
137.6328994121073
 31
0.0
  0
LINE
  5
2B6
330
53
100
AcDbEntity
  8
1
  6
Continuous
 62
     7
100
AcDbLine
 10
145.9931971472875
 20
137.6328994121073
 30
0.0
 11
145.9931971472875
 21
119.6328994121073
 31
0.0
  0
LINE
  5
2B7
330
53
100
AcDbEntity
  8
1
  6
Continuous
 62
     7
100
AcDbLine
 10
148.9681465696972
 20
119.1328994121073
 30
0.0
 11
146.4931971472875
 21
119.1328994121073
 31
0.0
  0
LINE
  5
2B8
330
53
100
AcDbEntity
  8
1
  6
Continuous
 62
     7
100
AcDbLine
 10
146.5630924095825
 20
455.1101025237783
 30
0.0
 11
150.2785856144531
 21
455.5620106227706
 31
0.0
  0
LINE
  5
2B9
330
53
100
AcDbEntity
  8
1
  6
Continuous
 62
     7
100
AcDbLine
 10
150.2785856144531
 20
509.9497326827492
 30
0.0
 11
146.5630924095825
 21
510.4016407817418
 31
0.0
  0
LINE
  5
2BA
330
53
100
AcDbEntity
  8
1
  6
Continuous
 62
     7
100
AcDbLine
 10
145.9935058591024
 20
509.9065067473709
 30
0.0
 11
145.9935058591024
 21
455.605236558149
 31
0.0
  0
LINE
  5
2BB
330
53
100
AcDbEntity
  8
1
  6
Continuous
 62
     7
100
AcDbLine
 10
275.4798198256952
 20
129.3755400992264
 30
0.0
 11
285.4556553106576
 21
139.3513755841887
 31
0.0
  0
LINE
  5
2BC
330
53
100
AcDbEntity
  8
1
  6
Continuous
 62
     7
100
AcDbLine
 10
295.5775406496911
 20
164.1858136827223
 30
0.0
 11
291.9261314382206
 21
150.5585689862895
 31
0.0
  0
LINE
  5
2BD
330
53
100
AcDbEntity
  8
1
  6
Continuous
 62
     7
100
AcDbLine
 10
307.1686505651599
 20
164.1858136827223
 30
0.0
 11
310.8200597766304
 21
150.5585689862894
 31
0.0
  0
LINE
  5
2BE
330
53
100
AcDbEntity
  8
1
  6
Continuous
 62
     7
100
AcDbLine
 10
327.2663713891558
 20
129.3755400992264
 30
0.0
 11
317.2905359041934
 21
139.3513755841887
 31
0.0
  0
LINE
  5
2BF
330
53
100
AcDbEntity
  8
1
  6
Continuous
 62
     7
100
AcDbLine
 10
321.4708164314213
 20
119.3373444543727
 30
0.0
 11
307.8435717349885
 21
122.9887536658432
 31
0.0
  0
LINE
  5
2C0
330
53
100
AcDbEntity
  8
1
  6
Continuous
 62
     7
100
AcDbLine
 10
280.5148698808092
 20
119.1335677798757
 30
0.0
 11
294.9026194798624
 21
122.9887536658432
 31
0.0
  0
ARC
  5
2C1
330
53
100
AcDbEntity
  8
1
  6
Continuous
 62
     7
100
AcDbCircle
 10
8.96153106986714
 20
137.7328994121073
 30
0.0
 40
148.6092050572047
100
AcDbArc
 50
1.85094579686891
 51
10.05322763750318
  0
ARC
  5
2C2
330
53
100
AcDbEntity
  8
1
  6
Continuous
 62
     7
100
AcDbCircle
 10
135.9330323822973
 20
135.6840175994971
 30
0.0
 40
21.76119949013533
100
AcDbArc
 50
-22.76754966897827
 51
-7.79411241505212
  0
ARC
  5
2C3
330
53
100
AcDbEntity
  8
1
  6
Continuous
 62
     7
100
AcDbCircle
 10
78.81986389190604
 20
150.636944270643
 30
0.0
 40
80.64072525632034
100
AcDbArc
 50
-19.97991677911212
 51
-16.8494609664443
  0
ARC
  5
2C4
330
53
100
AcDbEntity
  8
1
  6
Continuous
 62
     7
100
AcDbCircle
 10
30.1233533187779
 20
484.3929620036493
 30
0.0
 40
127.4948334081412
100
AcDbArc
 50
-10.80949324635232
 51
-2.53411689479747
  0
ARC
  5
2C5
330
53
100
AcDbEntity
  8
1
  6
Continuous
 62
     7
100
AcDbCircle
 10
30.1233533187779
 20
481.1187813018707
 30
0.0
 40
127.4948334081409
100
AcDbArc
 50
2.53411689479732
 51
10.80949324635215
  0
ARC
  5
2C6
330
53
100
AcDbEntity
  8
1
  6
Continuous
 62
     7
100
AcDbCircle
 10
301.3730956074255
 20
162.6328994121071
 30
0.0
 40
6.000000000000011
100
AcDbArc
 50
15.0000000000009
 51
90.0
  0
ARC
  5
2C7
330
53
100
AcDbEntity
  8
1
  6
Continuous
 62
     7
100
AcDbCircle
 10
301.3730956074255
 20
162.6328994121071
 30
0.0
 40
6.0
100
AcDbArc
 50
90.0
 51
164.9999999999991
  0
ARC
  5
2C8
330
53
100
AcDbEntity
  8
1
  6
Continuous
 62
     7
100
AcDbCircle
 10
323.0237307020364
 20
125.1328994121071
 30
0.0
 40
5.999999999999974
100
AcDbArc
 50
-104.9999999999996
 51
44.99999999999962
  0
ARC
  5
2C9
330
53
100
AcDbEntity
  8
1
  6
Continuous
 62
     7
100
AcDbCircle
 10
279.7224605128145
 20
125.1328994121071
 30
0.0
 40
6.000000000000049
100
AcDbArc
 50
135.0
 51
-82.47575892105857
  0
ARC
  5
2CA
330
53
100
AcDbEntity
  8
1
  6
Continuous
 62
     7
100
AcDbCircle
 10
146.4931971472875
 20
168.1328994121073
 30
0.0
 40
0.5
100
AcDbArc
 50
90.0
 51
180.0
  0
ARC
  5
2CB
330
53
100
AcDbEntity
  8
1
  6
Continuous
 62
     7
100
AcDbCircle
 10
149.3801060526548
 20
162.6328994121073
 30
0.0
 40
6.000000000000088
100
AcDbArc
 50
9.99784348756889
 51
90.0
  0
ARC
  5
2CC
330
53
100
AcDbEntity
  8
1
  6
Continuous
 62
     7
100
AcDbCircle
 10
146.4931971472875
 20
119.6328994121073
 30
0.0
 40
0.5
100
AcDbArc
 50
180.0
 51
-90.0
  0
ARC
  5
2CD
330
53
100
AcDbEntity
  8
1
  6
Continuous
 62
     7
100
AcDbCircle
 10
148.9681465696972
 20
125.1328994121073
 30
0.0
 40
6.0
100
AcDbArc
 50
-90.0
 51
-19.97991677911206
  0
ARC
  5
2CE
330
53
100
AcDbEntity
  8
1
  6
Continuous
 62
     7
100
AcDbCircle
 10
149.4435470086928
 20
461.50361903522
 30
0.0
 40
6.00000000000002
100
AcDbArc
 50
-82.0000000000009
 51
-9.8029017937702
  0
ARC
  5
2CF
330
53
100
AcDbEntity
  8
1
  6
Continuous
 62
     7
100
AcDbCircle
 10
146.4935058591023
 20
455.605236558149
 30
0.0
 40
0.4999999999998863
100
AcDbArc
 50
180.0
 51
-81.99999999997797
  0
ARC
  5
2D0
330
53
100
AcDbEntity
  8
1
  6
Continuous
 62
     7
100
AcDbCircle
 10
146.4935058591023
 20
509.9065067473709
 30
0.0
 40
0.5000000000001306
100
AcDbArc
 50
81.9999999999816
 51
180.0
  0
ARC
  5
2D1
330
53
100
AcDbEntity
  8
1
  6
Continuous
 62
     7
100
AcDbCircle
 10
149.4435470086928
 20
504.0081242702999
 30
0.0
 40
6.000000000000004
100
AcDbArc
 50
9.80290179376699
 51
82.00000000000067
  0
ARC
  5
2D2
330
53
100
AcDbEntity
  8
1
  6
Continuous
 62
     7
100
AcDbCircle
 10
267.7779857809939
 20
157.0290451138524
 30
0.0
 40
25.00000000000002
100
AcDbArc
 50
-44.99999999999996
 51
-14.99999999999976
  0
ARC
  5
2D3
330
53
100
AcDbEntity
  8
1
  6
Continuous
 62
     7
100
AcDbCircle
 10
301.3730956074255
 20
98.8406080086165
 30
0.0
 40
24.99999999999999
100
AcDbArc
 50
75.00000000000013
 51
105.0000000000003
  0
ARC
  5
2D4
330
53
100
AcDbEntity
  8
1
  6
Continuous
 62
     7
100
AcDbCircle
 10
334.968205433857
 20
157.0290451138524
 30
0.0
 40
24.99999999999991
100
AcDbArc
 50
-165.0
 51
-134.9999999999999
  0
ENDBLK
  5
55
330
53
100
AcDbEntity
  8
0
100
AcDbBlockEnd
  0
BLOCK
  5
2F4
330
2ED
100
AcDbEntity
  8
0
100
AcDbBlockBegin
  2
*D011
 70
     1
 71
     0
 10
0.0
 20
0.0
 30
0.0
  3
*D011
  1

  0
LINE
  5
2EE
330
2ED
100
AcDbEntity
  8
1
  6
Continuous
 62
     2
100
AcDbLine
 10
301.3730956074254
 20
94.63289941210761
 30
0.0
 11
346.3730956074254
 21
94.63289941210761
 31
0.0
  0
LINE
  5
2EF
330
2ED
100
AcDbEntity
  8
1
  6
Continuous
 62
     2
100
AcDbLine
 10
346.3730956074254
 20
114.6328994121076
 30
0.0
 11
346.3730956074254
 21
92.63289941210761
 31
0.0
  0
LINE
  5
2F0
330
2ED
100
AcDbEntity
  8
1
  6
Continuous
 62
     2
100
AcDbLine
 10
301.3730956074254
 20
120.6328994121076
 30
0.0
 11
301.3730956074254
 21
92.63289941210761
 31
0.0
  0
SOLID
  5
2F1
330
2ED
100
AcDbEntity
  8
1
 62
     2
100
AcDbTrace
 10
308.3730956074254
 20
95.55446689521938
 30
0.0
 11
308.3730956074254
 21
93.71133192899583
 31
0.0
 12
301.3730956074254
 22
94.63289941210761
 32
0.0
 13
301.3730956074254
 23
94.63289941210761
 33
0.0
  0
SOLID
  5
2F2
330
2ED
100
AcDbEntity
  8
1
 62
     2
100
AcDbTrace
 10
339.3730956074254
 20
93.71133192899583
 30
0.0
 11
339.3730956074254
 21
95.55446689521938
 31
0.0
 12
346.3730956074254
 22
94.63289941210761
 32
0.0
 13
346.3730956074254
 23
94.63289941210761
 33
0.0
  0
MTEXT
  5
2F3
330
2ED
100
AcDbEntity
  8
1
 62
     7
100
AcDbMText
 10
318.6230956074254
 20
96.63289941210761
 30
0.0
 40
7.0
 41
0.0
 71
     7
 72
     1
  1
45
  7
CONVERTER_2
 11
0.9999999999970621
 21
2.424068405545307E-6
 31
0.0
 73
     1
 44
0.60024009603842
  0
ENDBLK
  5
2F5
330
2ED
100
AcDbEntity
  8
0
100
AcDbBlockEnd
  0
BLOCK
  5
2FF
330
2F8
100
AcDbEntity
  8
0
100
AcDbBlockBegin
  2
*D112
 70
     1
 71
     0
 10
0.0
 20
0.0
 30
0.0
  3
*D112
  1

  0
LINE
  5
2F9
330
2F8
100
AcDbEntity
  8
1
  6
Continuous
 62
     2
100
AcDbLine
 10
380.3730956074254
 20
114.6328994121076
 30
0.0
 11
380.3730956074254
 21
160.6328994121076
 31
0.0
  0
LINE
  5
2FA
330
2F8
100
AcDbEntity
  8
1
  6
Continuous
 62
     2
100
AcDbLine
 10
346.3730956074254
 20
114.6328994121076
 30
0.0
 11
382.3730956074254
 21
114.6328994121076
 31
0.0
  0
LINE
  5
2FB
330
2F8
100
AcDbEntity
  8
1
  6
Continuous
 62
     2
100
AcDbLine
 10
346.3730956074254
 20
160.6328994121076
 30
0.0
 11
382.3730956074254
 21
160.6328994121076
 31
0.0
  0
SOLID
  5
2FC
330
2F8
100
AcDbEntity
  8
1
 62
     2
100
AcDbTrace
 10
379.4515281243137
 20
121.6328994121076
 30
0.0
 11
381.2946630905371
 21
121.6328994121076
 31
0.0
 12
380.3730956074254
 22
114.6328994121076
 32
0.0
 13
380.3730956074254
 23
114.6328994121076
 33
0.0
  0
SOLID
  5
2FD
330
2F8
100
AcDbEntity
  8
1
 62
     2
100
AcDbTrace
 10
381.2946630905371
 20
153.6328994121076
 30
0.0
 11
379.4515281243137
 21
153.6328994121076
 31
0.0
 12
380.3730956074254
 22
160.6328994121076
 32
0.0
 13
380.3730956074254
 23
160.6328994121076
 33
0.0
  0
MTEXT
  5
2FE
330
2F8
100
AcDbEntity
  8
1
 62
     7
100
AcDbMText
 10
378.3730956074254
 20
125.1028994121076
 30
0.0
 40
7.0
 41
0.0
 71
     7
 72
     1
  1
\C7;{\Fgdt;n}\C7;46
  7
CONVERTER_2
 11
0.0
 21
1.0
 31
0.0
 73
     1
 44
0.60024009603842
  0
ENDBLK
  5
300
330
2F8
100
AcDbEntity
  8
0
100
AcDbBlockEnd
  0
BLOCK
  5
30A
330
303
100
AcDbEntity
  8
0
100
AcDbBlockBegin
  2
*D213
 70
     1
 71
     0
 10
0.0
 20
0.0
 30
0.0
  3
*D213
  1

  0
LINE
  5
304
330
303
100
AcDbEntity
  8
1
  6
Continuous
 62
     2
100
AcDbLine
 10
346.3730956074254
 20
94.63289941210761
 30
0.0
 11
360.3730956074254
 21
94.63289941210761
 31
0.0
  0
LINE
  5
305
330
303
100
AcDbEntity
  8
1
  6
Continuous
 62
     2
100
AcDbLine
 10
360.3730956074254
 20
94.63289941210761
 30
0.0
 11
376.857061052473
 21
94.63289941210761
 31
0.0
  0
LINE
  5
306
330
303
100
AcDbEntity
  8
1
  6
Continuous
 62
     2
100
AcDbLine
 10
360.3730956074254
 20
128.1328994121076
 30
0.0
 11
360.3730956074254
 21
92.63289941210761
 31
0.0
  0
LINE
  5
307
330
303
100
AcDbEntity
  8
1
  6
Continuous
 62
     2
100
AcDbLine
 10
346.3730956074254
 20
114.6328994121076
 30
0.0
 11
346.3730956074254
 21
92.63289941210761
 31
0.0
  0
SOLID
  5
308
330
303
100
AcDbEntity
  8
1
 62
     2
100
AcDbTrace
 10
367.3730956074254
 20
95.55446689521938
 30
0.0
 11
367.3730956074254
 21
93.71133192899583
 31
0.0
 12
360.3730956074254
 22
94.63289941210761
 32
0.0
 13
360.3730956074254
 23
94.63289941210761
 33
0.0
  0
MTEXT
  5
309
330
303
100
AcDbEntity
  8
1
 62
     7
100
AcDbMText
 10
368.457061052473
 20
96.63289941210761
 30
0.0
 40
7.0
 41
0.0
 71
     7
 72
     1
  1
14
  7
CONVERTER_2
 11
0.9999999999970621
 21
2.424068405545307E-6
 31
0.0
 73
     1
 44
0.60024009603842
  0
ENDBLK
  5
30B
330
303
100
AcDbEntity
  8
0
100
AcDbBlockEnd
  0
BLOCK
  5
30D
330
30C
100
AcDbEntity
  8
0
100
AcDbBlockBegin
  2
_None
 70
     0
 71
     0
 10
0.0
 20
0.0
 30
0.0
  3
_None
  1

  0
ENDBLK
  5
30E
330
30C
100
AcDbEntity
  8
0
100
AcDbBlockEnd
  0
BLOCK
  5
318
330
311
100
AcDbEntity
  8
0
100
AcDbBlockBegin
  2
*D315
 70
     1
 71
     0
 10
0.0
 20
0.0
 30
0.0
  3
*D315
  1

  0
LINE
  5
312
330
311
100
AcDbEntity
  8
1
  6
Continuous
 62
     2
100
AcDbLine
 10
185.3424663199186
 20
94.63289941210761
 30
0.0
 11
301.3730956074254
 21
94.63289941210761
 31
0.0
  0
LINE
  5
313
330
311
100
AcDbEntity
  8
1
  6
Continuous
 62
     2
100
AcDbLine
 10
301.3730956074254
 20
120.6328994121076
 30
0.0
 11
301.3730956074254
 21
92.63289941210761
 31
0.0
  0
LINE
  5
314
330
311
100
AcDbEntity
  8
1
  6
Continuous
 62
     2
100
AcDbLine
 10
185.3424663199186
 20
270.9547198543782
 30
0.0
 11
185.3424663199186
 21
92.63289941210761
 31
0.0
  0
SOLID
  5
315
330
311
100
AcDbEntity
  8
1
 62
     2
100
AcDbTrace
 10
192.3424663199186
 20
95.55446689521938
 30
0.0
 11
192.3424663199186
 21
93.71133192899583
 31
0.0
 12
185.3424663199186
 22
94.63289941210761
 32
0.0
 13
185.3424663199186
 23
94.63289941210761
 33
0.0
  0
SOLID
  5
316
330
311
100
AcDbEntity
  8
1
 62
     2
100
AcDbTrace
 10
294.3730956074254
 20
93.71133192899583
 30
0.0
 11
294.3730956074254
 21
95.55446689521938
 31
0.0
 12
301.3730956074254
 22
94.63289941210761
 32
0.0
 13
301.3730956074254
 23
94.63289941210761
 33
0.0
  0
MTEXT
  5
317
330
311
100
AcDbEntity
  8
1
 62
     7
100
AcDbMText
 10
237.057780963672
 20
96.63289941210761
 30
0.0
 40
7.0
 41
0.0
 71
     7
 72
     1
  1
116
  7
CONVERTER_2
 11
0.9999999999970621
 21
2.424068405545307E-6
 31
0.0
 73
     1
 44
0.60024009603842
  0
ENDBLK
  5
319
330
311
100
AcDbEntity
  8
0
100
AcDbBlockEnd
  0
BLOCK
  5
323
330
31C
100
AcDbEntity
  8
0
100
AcDbBlockBegin
  2
*D416
 70
     1
 71
     0
 10
0.0
 20
0.0
 30
0.0
  3
*D416
  1

  0
LINE
  5
31D
330
31C
100
AcDbEntity
  8
1
  6
Continuous
 62
     2
100
AcDbLine
 10
207.6475670758555
 20
137.632899412107
 30
0.0
 11
207.6475670758555
 21
270.9547198543782
 31
0.0
  0
LINE
  5
31E
330
31C
100
AcDbEntity
  8
1
  6
Continuous
 62
     2
100
AcDbLine
 10
274.4326241091905
 20
137.632899412107
 30
0.0
 11
205.6475670758555
 21
137.632899412107
 31
0.0
  0
LINE
  5
31F
330
31C
100
AcDbEntity
  8
1
  6
Continuous
 62
     2
100
AcDbLine
 10
185.3424663199185
 20
270.9547198543782
 30
0.0
 11
209.6475670758555
 21
270.9547198543782
 31
0.0
  0
SOLID
  5
320
330
31C
100
AcDbEntity
  8
1
 62
     2
100
AcDbTrace
 10
206.7259995927437
 20
144.632899412107
 30
0.0
 11
208.5691345589673
 21
144.632899412107
 31
0.0
 12
207.6475670758555
 22
137.632899412107
 32
0.0
 13
207.6475670758555
 23
137.632899412107
 33
0.0
  0
SOLID
  5
321
330
31C
100
AcDbEntity
  8
1
 62
     2
100
AcDbTrace
 10
208.5691345589673
 20
263.9547198543782
 30
0.0
 11
206.7259995927437
 21
263.9547198543782
 31
0.0
 12
207.6475670758555
 22
270.9547198543782
 32
0.0
 13
207.6475670758555
 23
270.9547198543782
 33
0.0
  0
MTEXT
  5
322
330
31C
100
AcDbEntity
  8
1
 62
     7
100
AcDbMText
 10
205.6475670758555
 20
198.4089302067445
 30
0.0
 40
7.0
 41
0.0
 71
     7
 72
     1
  1
134
  7
CONVERTER_2
 11
0.0
 21
1.0
 31
0.0
 73
     1
 44
0.60024009603842
  0
ENDBLK
  5
324
330
31C
100
AcDbEntity
  8
0
100
AcDbBlockEnd
  0
BLOCK
  5
32E
330
327
100
AcDbEntity
  8
0
100
AcDbBlockBegin
  2
*D517
 70
     1
 71
     0
 10
0.0
 20
0.0
 30
0.0
  3
*D517
  1

  0
LINE
  5
328
330
327
100
AcDbEntity
  8
1
  6
Continuous
 62
     2
100
AcDbLine
 10
223.6475670758555
 20
137.632899412107
 30
0.0
 11
223.6475670758555
 21
325.9547198543782
 31
0.0
  0
LINE
  5
329
330
327
100
AcDbEntity
  8
1
  6
Continuous
 62
     2
100
AcDbLine
 10
274.4326241091905
 20
137.632899412107
 30
0.0
 11
221.6475670758555
 21
137.632899412107
 31
0.0
  0
LINE
  5
32A
330
327
100
AcDbEntity
  8
1
  6
Continuous
 62
     2
100
AcDbLine
 10
243.8730956074254
 20
325.9547198543782
 30
0.0
 11
221.6475670758555
 21
325.9547198543782
 31
0.0
  0
SOLID
  5
32B
330
327
100
AcDbEntity
  8
1
 62
     2
100
AcDbTrace
 10
222.7259995927437
 20
144.632899412107
 30
0.0
 11
224.5691345589673
 21
144.632899412107
 31
0.0
 12
223.6475670758555
 22
137.632899412107
 32
0.0
 13
223.6475670758555
 23
137.632899412107
 33
0.0
  0
SOLID
  5
32C
330
327
100
AcDbEntity
  8
1
 62
     2
100
AcDbTrace
 10
224.5691345589673
 20
318.9547198543782
 30
0.0
 11
222.7259995927437
 21
318.9547198543782
 31
0.0
 12
223.6475670758555
 22
325.9547198543782
 32
0.0
 13
223.6475670758555
 23
325.9547198543782
 33
0.0
  0
MTEXT
  5
32D
330
327
100
AcDbEntity
  8
1
 62
     7
100
AcDbMText
 10
221.6475670758555
 20
220.2559828710505
 30
0.0
 40
7.0
 41
0.0
 71
     7
 72
     1
  1
189
  7
CONVERTER_2
 11
0.0
 21
1.0
 31
0.0
 73
     1
 44
0.60024009603842
  0
ENDBLK
  5
32F
330
327
100
AcDbEntity
  8
0
100
AcDbBlockEnd
  0
BLOCK
  5
339
330
332
100
AcDbEntity
  8
0
100
AcDbBlockBegin
  2
*D618
 70
     1
 71
     0
 10
0.0
 20
0.0
 30
0.0
  3
*D618
  1

  0
LINE
  5
333
330
332
100
AcDbEntity
  8
0
  6
Continuous
 62
     2
100
AcDbLine
 10
102.9931971472875
 20
94.63289941210741
 30
0.0
 11
161.4931971472875
 21
94.63289941210741
 31
0.0
  0
LINE
  5
334
330
332
100
AcDbEntity
  8
0
  6
Continuous
 62
     2
100
AcDbLine
 10
102.9931971472875
 20
111.6328994121075
 30
0.0
 11
102.9931971472875
 21
92.63289941210741
 31
0.0
  0
LINE
  5
335
330
332
100
AcDbEntity
  8
0
  6
Continuous
 62
     2
100
AcDbLine
 10
161.4931971472875
 20
137.6328994121074
 30
0.0
 11
161.4931971472875
 21
92.63289941210741
 31
0.0
  0
SOLID
  5
336
330
332
100
AcDbEntity
  8
0
 62
     2
100
AcDbTrace
 10
109.9931971472875
 20
95.55446689521918
 30
0.0
 11
109.9931971472875
 21
93.71133192899563
 31
0.0
 12
102.9931971472875
 22
94.63289941210741
 32
0.0
 13
102.9931971472875
 23
94.63289941210741
 33
0.0
  0
SOLID
  5
337
330
332
100
AcDbEntity
  8
0
 62
     2
100
AcDbTrace
 10
154.4931971472875
 20
93.71133192899563
 30
0.0
 11
154.4931971472875
 21
95.55446689521918
 31
0.0
 12
161.4931971472875
 22
94.63289941210741
 32
0.0
 13
161.4931971472875
 23
94.63289941210741
 33
0.0
  0
MTEXT
  5
338
330
332
100
AcDbEntity
  8
0
 62
     7
100
AcDbMText
 10
113.3431971472875
 20
96.63289941210741
 30
0.0
 40
7.0
 41
0.0
 71
     7
 72
     1
  1
59リフト5
  7
CONVERTER_1
 11
0.9999999999970621
 21
2.424068405545307E-6
 31
0.0
 73
     1
 44
0.60024009603842
  0
ENDBLK
  5
33A
330
332
100
AcDbEntity
  8
0
100
AcDbBlockEnd
  0
ENDSEC
  0
SECTION
  2
ENTITIES
  0
INSERT
  5
56
330
1F
100
AcDbEntity
  8
1
100
AcDbBlockReference
  2
A20-0-13
 10
237.2327735281169
 20
115.5988278694659
 30
0.0
  0
INSERT
  5
57
330
1F
100
AcDbEntity
  8
1
100
AcDbBlockReference
  2
_J__A4
 10
0.0
 20
0.0
 30
0.0
 41
2.0
 42
2.0
 43
2.0
  0
INSERT
  5
58
330
1F
100
AcDbEntity
  8
1
100
AcDbBlockReference
  2
36-1A-13-M4
 10
398.434386646342
 20
358.143269341017
 30
0.0
  0
INSERT
  5
59
330
1F
100
AcDbEntity
  8
1
100
AcDbBlockReference
  2
37-1-13
 10
446.9400678272614
 20
101.8963393293858
 30
0.0
  0
INSERT
  5
5A
330
1F
100
AcDbEntity
  8
0
100
AcDbBlockReference
  2
32-1-16__1
 10
294.0200516346255
 20
396.6337391120696
 30
0.0
  0
INSERT
  5
5B
330
1F
100
AcDbEntity
  8
1
100
AcDbBlockReference
  2
A20J-60X-16
 10
23.4336267717876
 20
684.913177041695
 30
0.0
  0
INSERT
  5
5C
330
1F
100
AcDbEntity
  8
1
100
AcDbBlockReference
  2
42-1
 10
978.5378578105775
 20
248.8735703827008
 30
0.0
  0
INSERT
  5
5D
330
1F
100
AcDbEntity
  8
0
100
AcDbBlockReference
  2
51-1
 10
1573.643526252308
 20
341.4956020899914
 30
0.0
  0
LINE
  5
2D5
330
1F
100
AcDbEntity
  8
1
  6
DASH_CENTER
 62
     2
100
AcDbLine
 10
301.3730956074254
 20
120.6328994121076
 30
0.0
 11
301.3730956074254
 21
174.1328994121074
 31
0.0
  0
LINE
  5
2D6
330
1F
100
AcDbEntity
  8
1
  6
DASH_CENTER
 62
     2
100
AcDbLine
 10
363.3730956074254
 20
137.6328994121076
 30
0.0
 11
274.4326241091905
 21
137.632899412107
 31
0.0
  0
LINE
  5
2D7
330
1F
100
AcDbEntity
  8
1
  6
DASH_CENTER
 62
     2
100
AcDbLine
 10
102.9931971472875
 20
343.7843804048278
 30
0.0
 11
102.9931971472875
 21
111.6328994121074
 31
0.0
  0
LINE
  5
2D8
330
1F
100
AcDbEntity
  8
1
  6
DASH_CENTER
 62
     2
100
AcDbLine
 10
165.1422509778756
 20
137.6328994121073
 30
0.0
 11
76.0354339683077
 21
137.6328994121073
 31
0.0
  0
LINE
  5
2D9
330
1F
100
AcDbEntity
  8
1
  6
DASH_CENTER
 62
     2
100
AcDbLine
 10
271.9282318787546
 20
120.6328994121072
 30
0.0
 11
316.5285401736531
 21
146.3828994121071
 31
0.0
  0
LINE
  5
2DA
330
1F
100
AcDbEntity
  8
1
  6
DASH_CENTER
 62
     2
100
AcDbLine
 10
286.2176510411978
 20
146.3828994121071
 30
0.0
 11
330.8179593360964
 21
120.6328994121071
 31
0.0
  0
LINE
  5
2DB
330
1F
100
AcDbEntity
  8
1
  6
DASH_CENTER
 62
     2
100
AcDbLine
 10
102.9931971472875
 20
463.1920627347527
 30
0.0
 11
102.9931971472875
 21
547.1920627347527
 31
0.0
  0
LINE
  5
2DC
330
1F
100
AcDbEntity
  8
1
  6
DASH_CENTER
 62
     2
100
AcDbLine
 10
88.8137911369522
 20
482.7558716527597
 30
0.0
 11
170.0270234054196
 21
482.7558716527597
 31
0.0
  0
LINE
  5
2DD
330
1F
100
AcDbEntity
  8
1
  6
DASH_CENTER
 62
     2
100
AcDbLine
 10
301.3730956074254
 20
174.1328994121074
 30
0.0
 11
301.3730956074254
 21
268.4547198543782
 31
0.0
  0
LINE
  5
2DE
330
1F
100
AcDbEntity
  8
1
  6
DASH_CENTER
 62
     2
100
AcDbLine
 10
185.3424663199186
 20
270.9547198543782
 30
0.0
 11
184.4810258612157
 21
267.3703404483281
 31
0.0
  0
LINE
  5
2DF
330
1F
100
AcDbEntity
  8
1
  6
DASH_CENTER
 62
     2
100
AcDbLine
 10
187.7821363792598
 20
281.1059764269192
 30
0.0
 11
185.3424663199186
 21
270.9547198543782
 31
0.0
  0
LINE
  5
2E0
330
1F
100
AcDbEntity
  8
1
  6
DASH_CENTER
 62
     2
100
AcDbLine
 10
102.9931971472875
 20
349.3691908668957
 30
0.0
 11
102.9931971472875
 21
468.5764656424243
 31
0.0
  0
LINE
  5
2E1
330
1F
100
AcDbEntity
  8
1
  6
DASH_CENTER
 62
     2
100
AcDbLine
 10
89.69420344459752
 20
366.7252423652529
 30
0.0
 11
115.6942034445975
 21
366.7252423652529
 31
0.0
  0
ARC
  5
2E2
330
1F
100
AcDbEntity
  8
0
  6
DASH_CENTER
 62
     2
100
AcDbCircle
 10
243.8730956074254
 20
268.4547198543782
 30
0.0
 40
57.5
100
AcDbArc
 50
90.0
 51
167.2896834454309
  0
ARC
  5
2E3
330
1F
100
AcDbEntity
  8
0
  6
DASH_CENTER
 62
     2
100
AcDbCircle
 10
243.8730956074254
 20
268.4547198543782
 30
0.0
 40
57.5
100
AcDbArc
 50
0.0
 51
90.0
  0
SOLID
  5
2E4
330
1F
100
AcDbEntity
  8
1
 62
     2
100
AcDbTrace
 10
116.1950962956109
 20
540.7788332208065
 30
0.0
 11
117.7912979989638
 21
539.8572657376947
 31
0.0
 12
113.4931971472873
 22
534.2558716527595
 32
0.0
 13
113.4931971472873
 23
534.2558716527595
 33
0.0
  0
LEADER
  5
2E5
330
1F
100
AcDbEntity
  8
1
  6
Continuous
 62
     2
100
AcDbLeader
  3
Standard
 71
     0
 76
     3
 10
113.4931971472873
 20
534.2558716527595
 30
0.0
 10
122.9865277181265
 20
550.6988025344998
 30
0.0
 10
154.117521339361
 20
550.6988025344998
 30
0.0
  0
MTEXT
  5
2E7
330
1F
100
AcDbEntity
  8
1
 62
     7
100
AcDbMText
 10
187.5
 20
34.0
 30
0.0
 40
7.0
 41
0.0
 71
     5
 72
     1
  1
2
  7
CONVERTER_2
 73
     1
 44
0.7202881152461
  0
MTEXT
  5
2E8
330
1F
100
AcDbEntity
  8
1
 62
     7
100
AcDbMText
 10
170.5
 20
34.0
 30
0.0
 40
7.0
 41
0.0
 71
     5
 72
     1
  1
1
  7
CONVERTER_2
 73
     1
 44
0.7202881152461
  0
MTEXT
  5
2E9
330
1F
100
AcDbEntity
  8
0
 62
     7
100
AcDbMText
 10
114.0
 20
28.5
 30
0.0
 40
7.0
 41
0.0
 71
     5
 72
     1
  1
A26JK-13
  7
CONVERTER_2
 73
     1
 44
1.32052821128451
  0
MTEXT
  5
2EA
330
1F
100
AcDbEntity
  8
0
 62
     7
100
AcDbMText
 10
114.0
 20
45.50000000000002
 30
0.0
 40
7.0
 41
0.0
 71
     5
 72
     1
  1
横形ツル首自在水栓
  7
CONVERTER_1
 73
     1
 44
1.32052821128451
  0
MTEXT
  5
2EB
330
1F
100
AcDbEntity
  8
0
 62
     7
100
AcDbMText
 10
68.0
 20
68.00000000000001
 30
0.0
 40
7.0
 41
0.0
 71
     4
 72
     1
  1
JIS
  7
CONVERTER_2
 73
     1
 44
1.32052821128451
  0
MTEXT
  5
2EC
330
1F
100
AcDbEntity
  8
1
 62
     7
100
AcDbMText
 10
138.5520245287439
 20
556.6988025344998
 30
0.0
 40
7.0
 41
0.0
 71
     5
 72
     1
  1
PJ1/2
  7
CONVERTER_2
 73
     1
 44
1.32052821128451
  0
DIMENSION
  5
2F7
330
1F
100
AcDbEntity
  8
1
100
AcDbDimension
  2
*D011
 10
301.3730956074254
 20
94.63289941210761
 30
0.0
 11
323.8730956074254
 21
100.1328994121076
 31
0.0
  1
<>
 71
     5
 42
0.0
 53
0.00013888888889
  3
ME10_DIM_0
100
AcDbAlignedDimension
 13
346.3730956074254
 23
114.6328994121076
 33
0.0
 14
301.3730956074254
 24
120.6328994121076
 34
0.0
100
AcDbRotatedDimension
  0
DIMENSION
  5
302
330
1F
100
AcDbEntity
  8
1
100
AcDbDimension
  2
*D112
 10
380.3730956074254
 20
114.6328994121076
 30
0.0
 11
374.8730956074254
 21
137.6328994121076
 31
0.0
  1
<>
 71
     5
 42
0.0
 53
90.0
  3
ME10_DIM_1
100
AcDbAlignedDimension
 13
346.3730956074254
 23
160.6328994121076
 33
0.0
 14
346.3730956074254
 24
114.6328994121076
 34
0.0
 50
90.0
100
AcDbRotatedDimension
  0
DIMENSION
  5
310
330
1F
100
AcDbEntity
  8
1
100
AcDbDimension
  2
*D213
 10
346.3730956074254
 20
94.63289941210761
 30
0.0
 11
372.657061052473
 21
100.1328994121076
 31
0.0
  1
<>
 71
     5
 42
0.0
 53
0.00013888888889
  3
ME10_DIM_2
100
AcDbAlignedDimension
 13
360.3730956074254
 23
128.1328994121076
 33
0.0
 14
346.3730956074254
 24
114.6328994121076
 34
0.0
100
AcDbRotatedDimension
  0
DIMENSION
  5
31B
330
1F
100
AcDbEntity
  8
1
100
AcDbDimension
  2
*D315
 10
185.3424663199186
 20
94.63289941210761
 30
0.0
 11
243.357780963672
 21
100.1328994121076
 31
0.0
  1
116
 71
     5
 42
0.0
 53
0.00013888888889
  3
ME10_DIM_3
100
AcDbAlignedDimension
 13
301.3730956074254
 23
120.6328994121076
 33
0.0
 14
185.3424663199186
 24
270.9547198543782
 34
0.0
100
AcDbRotatedDimension
  0
DIMENSION
  5
326
330
1F
100
AcDbEntity
  8
1
100
AcDbDimension
  2
*D416
 10
207.6475670758555
 20
137.632899412107
 30
0.0
 11
202.1475670758555
 21
205.7589302067445
 31
0.0
  1
134
 71
     5
 42
0.0
 53
90.0
  3
ME10_DIM_4
100
AcDbAlignedDimension
 13
185.3424663199186
 23
270.9547198543782
 33
0.0
 14
274.4326241091905
 24
137.632899412107
 34
0.0
 50
90.0
100
AcDbRotatedDimension
  0
DIMENSION
  5
331
330
1F
100
AcDbEntity
  8
1
100
AcDbDimension
  2
*D517
 10
223.6475670758555
 20
137.632899412107
 30
0.0
 11
218.1475670758555
 21
227.6059828710505
 31
0.0
  1
189
 71
     5
 42
0.0
 53
90.0
  3
ME10_DIM_5
100
AcDbAlignedDimension
 13
243.8730956074254
 23
325.9547198543782
 33
0.0
 14
274.4326241091905
 24
137.632899412107
 34
0.0
 50
90.0
100
AcDbRotatedDimension
  0
DIMENSION
  5
33C
330
1F
100
AcDbEntity
  8
0
100
AcDbDimension
  2
*D618
 10
102.9931971472875
 20
94.63289941210741
 30
0.0
 11
132.2431971472875
 21
100.1328994121074
 31
0.0
  1
59リフト5
 71
     5
 42
0.0
 53
0.00013888888889
  3
ME10_DIM_6
100
AcDbAlignedDimension
 13
161.4931971472875
 23
137.6328994121073
 33
0.0
 14
102.9931971472875
 24
111.6328994121074
 34
0.0
100
AcDbRotatedDimension
  0
ENDSEC
  0
SECTION
  2
OBJECTS
  0
DICTIONARY
  5
C
330
0
100
AcDbDictionary
281
     1
  3
ACAD_GROUP
350
D
  3
ACAD_LAYOUT
350
1A
  3
ACAD_MLINESTYLE
350
17
  3
ACAD_PLOTSETTINGS
350
19
  3
ACAD_PLOTSTYLENAME
350
E
  3
ACAD_TABLESTYLE
350
2A
  3
AcDbVariableDictionary
350
2C
  0
DICTIONARY
  5
D
102
{ACAD_REACTORS
330
C
102
}
330
C
100
AcDbDictionary
281
     1
  0
DICTIONARY
  5
1A
102
{ACAD_REACTORS
330
C
102
}
330
C
100
AcDbDictionary
281
     1
  3
Layout1
350
1E
  3
Layout2
350
26
  3
Model
350
22
  0
DICTIONARY
  5
17
102
{ACAD_REACTORS
330
C
102
}
330
C
100
AcDbDictionary
281
     1
  3
Standard
350
18
  0
DICTIONARY
  5
19
102
{ACAD_REACTORS
330
C
102
}
330
C
100
AcDbDictionary
281
     1
  0
ACDBDICTIONARYWDFLT
  5
E
102
{ACAD_REACTORS
330
C
102
}
330
C
100
AcDbDictionary
281
     1
  3
Normal
350
F
100
AcDbDictionaryWithDefault
340
F
  0
DICTIONARY
  5
2A
102
{ACAD_REACTORS
330
C
102
}
330
C
100
AcDbDictionary
281
     1
  3
Standard
350
2B
  0
DICTIONARY
  5
2C
102
{ACAD_REACTORS
330
C
102
}
330
C
100
AcDbDictionary
281
     1
  3
CTABLESTYLE
350
2D
  0
LAYOUT
  5
1E
102
{ACAD_REACTORS
330
1A
102
}
330
1A
100
AcDbPlotSettings
  1

  2

  4

  6

 40
0.0
 41
0.0
 42
0.0
 43
0.0
 44
0.0
 45
0.0
 46
0.0
 47
0.0
 48
0.0
 49
0.0
140
0.0
141
0.0
142
1.0
143
1.0
 70
   688
 72
     0
 73
     0
 74
     5
  7

 75
    16
147
1.0
148
0.0
149
0.0
100
AcDbLayout
  1
Layout1
 70
     1
 71
     1
 10
0.0
 20
0.0
 11
12.0
 21
9.0
 12
0.0
 22
0.0
 32
0.0
 14
1.00000000000000E+20
 24
1.00000000000000E+20
 34
1.00000000000000E+20
 15
-1.00000000000000E+20
 25
-1.00000000000000E+20
 35
-1.00000000000000E+20
146
0.0
 13
0.0
 23
0.0
 33
0.0
 16
1.0
 26
0.0
 36
0.0
 17
0.0
 27
1.0
 37
0.0
 76
     0
330
1B
  0
LAYOUT
  5
26
102
{ACAD_REACTORS
330
1A
102
}
330
1A
100
AcDbPlotSettings
  1

  2

  4

  6

 40
0.0
 41
0.0
 42
0.0
 43
0.0
 44
0.0
 45
0.0
 46
0.0
 47
0.0
 48
0.0
 49
0.0
140
0.0
141
0.0
142
1.0
143
1.0
 70
   688
 72
     0
 73
     0
 74
     5
  7

 75
    16
147
1.0
148
0.0
149
0.0
100
AcDbLayout
  1
Layout2
 70
     1
 71
     2
 10
0.0
 20
0.0
 11
0.0
 21
0.0
 12
0.0
 22
0.0
 32
0.0
 14
0.0
 24
0.0
 34
0.0
 15
0.0
 25
0.0
 35
0.0
146
0.0
 13
0.0
 23
0.0
 33
0.0
 16
1.0
 26
0.0
 36
0.0
 17
0.0
 27
1.0
 37
0.0
 76
     0
330
23
  0
LAYOUT
  5
22
102
{ACAD_REACTORS
330
1A
102
}
330
1A
100
AcDbPlotSettings
  1

  2

  4

  6

 40
0.0
 41
0.0
 42
0.0
 43
0.0
 44
0.0
 45
0.0
 46
0.0
 47
0.0
 48
0.0
 49
0.0
140
0.0
141
0.0
142
1.0
143
1.0
 70
  1712
 72
     0
 73
     0
 74
     0
  7

 75
     0
147
1.0
148
0.0
149
0.0
100
AcDbLayout
  1
Model
 70
     1
 71
     0
 10
0.0
 20
0.0
 11
0.0
 21
0.0
 12
0.0
 22
0.0
 32
0.0
 14
0.0
 24
0.0
 34
0.0
 15
420.0
 25
594.0
 35
0.0
146
0.0
 13
0.0
 23
0.0
 33
0.0
 16
1.0
 26
0.0
 36
0.0
 17
0.0
 27
1.0
 37
0.0
 76
     0
330
1F
  0
MLINESTYLE
  5
18
102
{ACAD_REACTORS
330
17
102
}
330
17
100
AcDbMlineStyle
  2
Standard
 70
     0
  3

 62
   256
 51
90.0
 52
90.0
 71
     2
 49
0.5
 62
   256
  6
BYLAYER
 49
-0.5
 62
   256
  6
BYLAYER
  0
ACDBPLACEHOLDER
  5
F
102
{ACAD_REACTORS
330
E
102
}
330
E
  0
TABLESTYLE
  5
2B
102
{ACAD_REACTORS
330
2A
102
}
330
2A
100
AcDbTableStyle
  3
Standard
 70
     0
 71
     0
 40
0.06
 41
0.06
280
     0
281
     0
  7
Standard
140
0.18
170
     2
 62
     0
 63
     7
283
     0
274
    -2
284
     1
 64
     0
275
    -2
285
     1
 65
     0
276
    -2
286
     1
 66
     0
277
    -2
287
     1
 67
     0
278
    -2
288
     1
 68
     0
279
    -2
289
     1
 69
     0
  7
Standard
140
0.25
170
     5
 62
     0
 63
     7
283
     0
274
    -2
284
     1
 64
     0
275
    -2
285
     1
 65
     0
276
    -2
286
     1
 66
     0
277
    -2
287
     1
 67
     0
278
    -2
288
     1
 68
     0
279
    -2
289
     1
 69
     0
  7
Standard
140
0.18
170
     5
 62
     0
 63
     7
283
     0
274
    -2
284
     1
 64
     0
275
    -2
285
     1
 65
     0
276
    -2
286
     1
 66
     0
277
    -2
287
     1
 67
     0
278
    -2
288
     1
 68
     0
279
    -2
289
     1
 69
     0
  0
DICTIONARYVAR
  5
2D
102
{ACAD_REACTORS
330
2C
102
}
330
2C
100
DictionaryVariables
280
     0
  1
Standard
  0
ENDSEC
  0
EOF
