  0
SECTION
  2
HEADER
  9
$ACADVER
  1
AC1015
  9
$ACADMAINTVER
 70
     6
  9
$DWGCODEPAGE
  3
DOS932
  9
$INSBASE
 10
0.0
 20
0.0
 30
0.0
  9
$EXTMIN
 10
0.0
 20
0.0
 30
0.0
  9
$EXTMAX
 10
630.0
 20
891.0
 30
0.0
  9
$LIMMIN
 10
0.0
 20
0.0
  9
$LIMMAX
 10
12.0
 20
9.0
  9
$ORTHOMODE
 70
     0
  9
$REGENMODE
 70
     1
  9
$FILLMODE
 70
     1
  9
$QTEXTMODE
 70
     0
  9
$MIRRTEXT
 70
     1
  9
$LTSCALE
 40
1.0
  9
$ATTMODE
 70
     1
  9
$TEXTSIZE
 40
0.2
  9
$TRACEWID
 40
0.05
  9
$TEXTSTYLE
  7
Standard
  9
$CLAYER
  8
0
  9
$CELTYPE
  6
ByLayer
  9
$CECOLOR
 62
   256
  9
$CELTSCALE
 40
1.0
  9
$DISPSILH
 70
     0
  9
$DIMSCALE
 40
1.0
  9
$DIMASZ
 40
0.18
  9
$DIMEXO
 40
0.0625
  9
$DIMDLI
 40
0.38
  9
$DIMRND
 40
0.0
  9
$DIMDLE
 40
0.0
  9
$DIMEXE
 40
0.18
  9
$DIMTP
 40
0.0
  9
$DIMTM
 40
0.0
  9
$DIMTXT
 40
0.18
  9
$DIMCEN
 40
0.09
  9
$DIMTSZ
 40
0.0
  9
$DIMTOL
 70
     0
  9
$DIMLIM
 70
     0
  9
$DIMTIH
 70
     1
  9
$DIMTOH
 70
     1
  9
$DIMSE1
 70
     0
  9
$DIMSE2
 70
     0
  9
$DIMTAD
 70
     0
  9
$DIMZIN
 70
     0
  9
$DIMBLK
  1

  9
$DIMASO
 70
     1
  9
$DIMSHO
 70
     1
  9
$DIMPOST
  1

  9
$DIMAPOST
  1

  9
$DIMALT
 70
     0
  9
$DIMALTD
 70
     2
  9
$DIMALTF
 40
25.4
  9
$DIMLFAC
 40
1.0
  9
$DIMTOFL
 70
     0
  9
$DIMTVP
 40
0.0
  9
$DIMTIX
 70
     0
  9
$DIMSOXD
 70
     0
  9
$DIMSAH
 70
     0
  9
$DIMBLK1
  1

  9
$DIMBLK2
  1

  9
$DIMSTYLE
  2
Standard
  9
$DIMCLRD
 70
     0
  9
$DIMCLRE
 70
     0
  9
$DIMCLRT
 70
     0
  9
$DIMTFAC
 40
1.0
  9
$DIMGAP
 40
0.09
  9
$DIMJUST
 70
     0
  9
$DIMSD1
 70
     0
  9
$DIMSD2
 70
     0
  9
$DIMTOLJ
 70
     1
  9
$DIMTZIN
 70
     0
  9
$DIMALTZ
 70
     0
  9
$DIMALTTZ
 70
     0
  9
$DIMUPT
 70
     0
  9
$DIMDEC
 70
     4
  9
$DIMTDEC
 70
     4
  9
$DIMALTU
 70
     2
  9
$DIMALTTD
 70
     2
  9
$DIMTXSTY
  7
Standard
  9
$DIMAUNIT
 70
     0
  9
$DIMADEC
 70
     0
  9
$DIMALTRND
 40
0.0
  9
$DIMAZIN
 70
     0
  9
$DIMDSEP
 70
    46
  9
$DIMATFIT
 70
     3
  9
$DIMFRAC
 70
     0
  9
$DIMLDRBLK
  1

  9
$DIMLUNIT
 70
     2
  9
$DIMLWD
 70
    -2
  9
$DIMLWE
 70
    -2
  9
$DIMTMOVE
 70
     0
  9
$LUNITS
 70
     2
  9
$LUPREC
 70
     4
  9
$SKETCHINC
 40
0.1
  9
$FILLETRAD
 40
0.5
  9
$AUNITS
 70
     0
  9
$AUPREC
 70
     0
  9
$MENU
  1
.
  9
$ELEVATION
 40
0.0
  9
$PELEVATION
 40
0.0
  9
$THICKNESS
 40
0.0
  9
$LIMCHECK
 70
     0
  9
$CHAMFERA
 40
0.5
  9
$CHAMFERB
 40
0.5
  9
$CHAMFERC
 40
1.0
  9
$CHAMFERD
 40
0.0
  9
$SKPOLY
 70
     0
  9
$TDCREATE
 40
2456141.501198993
  9
$TDUCREATE
 40
2456141.126198993
  9
$TDUPDATE
 40
2456141.501199005
  9
$TDUUPDATE
 40
2456141.126199005
  9
$TDINDWG
 40
0.0000000116
  9
$TDUSRTIMER
 40
0.0000000116
  9
$USRTIMER
 70
     1
  9
$ANGBASE
 50
0.0
  9
$ANGDIR
 70
     0
  9
$PDMODE
 70
     0
  9
$PDSIZE
 40
0.0
  9
$PLINEWID
 40
0.0
  9
$SPLFRAME
 70
     0
  9
$SPLINETYPE
 70
     6
  9
$SPLINESEGS
 70
     8
  9
$HANDSEED
  5
274
  9
$SURFTAB1
 70
     6
  9
$SURFTAB2
 70
     6
  9
$SURFTYPE
 70
     6
  9
$SURFU
 70
     6
  9
$SURFV
 70
     6
  9
$UCSBASE
  2

  9
$UCSNAME
  2

  9
$UCSORG
 10
0.0
 20
0.0
 30
0.0
  9
$UCSXDIR
 10
1.0
 20
0.0
 30
0.0
  9
$UCSYDIR
 10
0.0
 20
1.0
 30
0.0
  9
$UCSORTHOREF
  2

  9
$UCSORTHOVIEW
 70
     0
  9
$UCSORGTOP
 10
0.0
 20
0.0
 30
0.0
  9
$UCSORGBOTTOM
 10
0.0
 20
0.0
 30
0.0
  9
$UCSORGLEFT
 10
0.0
 20
0.0
 30
0.0
  9
$UCSORGRIGHT
 10
0.0
 20
0.0
 30
0.0
  9
$UCSORGFRONT
 10
0.0
 20
0.0
 30
0.0
  9
$UCSORGBACK
 10
0.0
 20
0.0
 30
0.0
  9
$PUCSBASE
  2

  9
$PUCSNAME
  2

  9
$PUCSORG
 10
0.0
 20
0.0
 30
0.0
  9
$PUCSXDIR
 10
1.0
 20
0.0
 30
0.0
  9
$PUCSYDIR
 10
0.0
 20
1.0
 30
0.0
  9
$PUCSORTHOREF
  2

  9
$PUCSORTHOVIEW
 70
     0
  9
$PUCSORGTOP
 10
0.0
 20
0.0
 30
0.0
  9
$PUCSORGBOTTOM
 10
0.0
 20
0.0
 30
0.0
  9
$PUCSORGLEFT
 10
0.0
 20
0.0
 30
0.0
  9
$PUCSORGRIGHT
 10
0.0
 20
0.0
 30
0.0
  9
$PUCSORGFRONT
 10
0.0
 20
0.0
 30
0.0
  9
$PUCSORGBACK
 10
0.0
 20
0.0
 30
0.0
  9
$USERI1
 70
     0
  9
$USERI2
 70
     0
  9
$USERI3
 70
     0
  9
$USERI4
 70
     0
  9
$USERI5
 70
     0
  9
$USERR1
 40
13.2
  9
$USERR2
 40
0.0
  9
$USERR3
 40
0.0
  9
$USERR4
 40
0.0
  9
$USERR5
 40
0.0
  9
$WORLDVIEW
 70
     1
  9
$SHADEDGE
 70
     3
  9
$SHADEDIF
 70
    70
  9
$TILEMODE
 70
     1
  9
$MAXACTVP
 70
    64
  9
$PINSBASE
 10
0.0
 20
0.0
 30
0.0
  9
$PLIMCHECK
 70
     0
  9
$PEXTMIN
 10
1.00000000000000E+20
 20
1.00000000000000E+20
 30
1.00000000000000E+20
  9
$PEXTMAX
 10
-1.00000000000000E+20
 20
-1.00000000000000E+20
 30
-1.00000000000000E+20
  9
$PLIMMIN
 10
0.0
 20
0.0
  9
$PLIMMAX
 10
12.0
 20
9.0
  9
$UNITMODE
 70
     0
  9
$VISRETAIN
 70
     1
  9
$PLINEGEN
 70
     0
  9
$PSLTSCALE
 70
     1
  9
$TREEDEPTH
 70
  3020
  9
$CMLSTYLE
  2
Standard
  9
$CMLJUST
 70
     0
  9
$CMLSCALE
 40
1.0
  9
$PROXYGRAPHICS
 70
     1
  9
$MEASUREMENT
 70
     1
  9
$CELWEIGHT
370
    -1
  9
$ENDCAPS
280
     0
  9
$JOINSTYLE
280
     0
  9
$LWDISPLAY
290
     0
  9
$INSUNITS
 70
     1
  9
$HYPERLINKBASE
  1

  9
$STYLESHEET
  1

  9
$XEDIT
290
     1
  9
$CEPSNTYPE
380
     0
  9
$PSTYLEMODE
290
     0
  9
$FINGERPRINTGUID
  2
{FAEB1C30-E019-11D5-929B-00C0DF256EC4}
  9
$VERSIONGUID
  2
{FAEB1C32-E019-11D5-929B-00C0DF256EC4}
  9
$EXTNAMES
290
     1
  9
$PSVPSCALE
 40
0.0
  9
$OLESTARTUP
290
     0
  0
ENDSEC
  0
SECTION
  2
CLASSES
  0
CLASS
  1
ACDBDICTIONARYWDFLT
  2
AcDbDictionaryWithDefault
  3
ObjectDBX Classes
 90
        0
280
     0
281
     0
  0
CLASS
  1
TABLESTYLE
  2
AcDbTableStyle
  3
ObjectDBX Classes
 90
     2047
280
     0
281
     0
  0
CLASS
  1
DICTIONARYVAR
  2
AcDbDictionaryVar
  3
ObjectDBX Classes
 90
        0
280
     0
281
     0
  0
CLASS
  1

  2
exOdDbSpline
  3

 90
        0
280
     0
281
     1
  0
CLASS
  1

  2
exOdDbCircle
  3

 90
        0
280
     0
281
     1
  0
CLASS
  1
ACDBPLACEHOLDER
  2
AcDbPlaceHolder
  3
ObjectDBX Classes
 90
        0
280
     0
281
     0
  0
CLASS
  1
LAYOUT
  2
AcDbLayout
  3
ObjectDBX Classes
 90
        0
280
     0
281
     0
  0
ENDSEC
  0
SECTION
  2
TABLES
  0
TABLE
  2
VPORT
  5
8
330
0
100
AcDbSymbolTable
 70
     2
  0
VPORT
  5
29
330
8
100
AcDbSymbolTableRecord
100
AcDbViewportTableRecord
  2
*Active
 70
     0
 10
0.0
 20
0.0
 11
1.0
 21
1.0
 12
315.0
 22
445.5
 13
0.0
 23
0.0
 14
0.5
 24
0.5
 15
0.5
 25
0.5
 16
0.0
 26
0.0
 36
1.0
 17
0.0
 27
0.0
 37
0.0
 40
980.1
 41
1.60267857142857
 42
50.0
 43
0.0
 44
0.0
 50
0.0
 51
0.0
 71
     0
 72
   100
 73
     1
 74
     3
 75
     0
 76
     0
 77
     0
 78
     0
281
     0
 65
     1
110
0.0
120
0.0
130
0.0
111
1.0
121
0.0
131
0.0
112
0.0
122
1.0
132
0.0
 79
     0
146
0.0
  0
ENDTAB
  0
TABLE
  2
LTYPE
  5
5
330
0
100
AcDbSymbolTable
 70
     8
  0
LTYPE
  5
14
330
5
100
AcDbSymbolTableRecord
100
AcDbLinetypeTableRecord
  2
ByBlock
 70
     0
  3

 72
    65
 73
     0
 40
0.0
  0
LTYPE
  5
15
330
5
100
AcDbSymbolTableRecord
100
AcDbLinetypeTableRecord
  2
ByLayer
 70
     0
  3

 72
    65
 73
     0
 40
0.0
  0
LTYPE
  5
16
330
5
100
AcDbSymbolTableRecord
100
AcDbLinetypeTableRecord
  2
Continuous
 70
     0
  3
Solid line
 72
    65
 73
     0
 40
0.0
  0
LTYPE
  5
2E
330
5
100
AcDbSymbolTableRecord
100
AcDbLinetypeTableRecord
  2
DASHED
 70
     0
  3
Dashed
 72
    65
 73
     2
 40
15.0
 49
7.0
 74
     0
 49
-8.0
 74
     0
  0
LTYPE
  5
2F
330
5
100
AcDbSymbolTableRecord
100
AcDbLinetypeTableRecord
  2
DOTTED
 70
     0
  3
Dotted
 72
    65
 73
     2
 40
1.0
 49
0.0
 74
     0
 49
-1.0
 74
     0
  0
LTYPE
  5
30
330
5
100
AcDbSymbolTableRecord
100
AcDbLinetypeTableRecord
  2
DOT_CENTER
 70
     0
  3
Dot_Center
 72
    65
 73
     4
 40
14.0
 49
12.0
 74
     0
 49
-1.0
 74
     0
 49
0.0
 74
     0
 49
-1.0
 74
     0
  0
LTYPE
  5
31
330
5
100
AcDbSymbolTableRecord
100
AcDbLinetypeTableRecord
  2
LONG_DASHED
 70
     0
  3
Long_Dashed
 72
    65
 73
     2
 40
15.0
 49
10.0
 74
     0
 49
-5.0
 74
     0
  0
LTYPE
  5
32
330
5
100
AcDbSymbolTableRecord
100
AcDbLinetypeTableRecord
  2
DASH_CENTER
 70
     0
  3
Dash_Center
 72
    65
 73
     4
 40
14.0
 49
11.0
 74
     0
 49
-1.0
 74
     0
 49
1.0
 74
     0
 49
-1.0
 74
     0
  0
LTYPE
  5
33
330
5
100
AcDbSymbolTableRecord
100
AcDbLinetypeTableRecord
  2
PHANTOM
 70
     0
  3
Phantom
 72
    65
 73
     6
 40
13.0
 49
10.0
 74
     0
 49
-1.0
 74
     0
 49
0.0
 74
     0
 49
-1.0
 74
     0
 49
0.0
 74
     0
 49
-1.0
 74
     0
  0
LTYPE
  5
34
330
5
100
AcDbSymbolTableRecord
100
AcDbLinetypeTableRecord
  2
CENTER_DASH_DASH
 70
     0
  3
Center_Dash_Dash
 72
    65
 73
     6
 40
14.0
 49
9.0
 74
     0
 49
-1.0
 74
     0
 49
1.0
 74
     0
 49
-1.0
 74
     0
 49
1.0
 74
     0
 49
-1.0
 74
     0
  0
ENDTAB
  0
TABLE
  2
LAYER
  5
2
330
0
100
AcDbSymbolTable
 70
     2
  0
LAYER
  5
10
330
2
100
AcDbSymbolTableRecord
100
AcDbLayerTableRecord
  2
0
 70
     0
 62
     7
  6
Continuous
370
    -3
390
F
  0
LAYER
  5
35
330
2
100
AcDbSymbolTableRecord
100
AcDbLayerTableRecord
  2
1
 70
     0
 62
     7
  6
Continuous
370
    -3
390
F
  0
ENDTAB
  0
TABLE
  2
STYLE
  5
3
330
0
100
AcDbSymbolTable
 70
     3
  0
STYLE
  5
11
330
3
100
AcDbSymbolTableRecord
100
AcDbTextStyleTableRecord
  2
Standard
 70
     0
 40
0.0
 41
1.0
 50
0.0
 71
     0
 42
0.2
  3
txt
  4

  0
STYLE
  5
200
330
3
100
AcDbSymbolTableRecord
100
AcDbTextStyleTableRecord
  2
CONVERTER_1
 70
     0
 40
0.0
 41
0.89
 50
0.0
 71
     0
 42
0.2
  3
msmincho.ttc
  4

1001
ACAD
1000
MS Mincho
1071
    32785
  0
STYLE
  5
21D
330
3
100
AcDbSymbolTableRecord
100
AcDbTextStyleTableRecord
  2
CONVERTER_2
 70
     0
 40
0.0
 41
0.9
 50
0.0
 71
     0
 42
0.2
  3
txt.shx
  4

  0
ENDTAB
  0
TABLE
  2
VIEW
  5
6
330
0
100
AcDbSymbolTable
 70
     0
  0
ENDTAB
  0
TABLE
  2
UCS
  5
7
330
0
100
AcDbSymbolTable
 70
     0
  0
ENDTAB
  0
TABLE
  2
APPID
  5
9
330
0
100
AcDbSymbolTable
 70
     1
  0
APPID
  5
12
330
9
100
AcDbSymbolTableRecord
100
AcDbRegAppTableRecord
  2
ACAD
 70
     0
  0
ENDTAB
  0
TABLE
  2
DIMSTYLE
  5
A
330
0
100
AcDbSymbolTable
 70
     8
100
AcDbDimStyleTable
  0
DIMSTYLE
105
27
330
A
100
AcDbSymbolTableRecord
100
AcDbDimStyleTableRecord
  2
Standard
 70
     0
340
11
  0
DIMSTYLE
105
22D
102
{ACAD_REACTORS
330
22E
102
}
330
A
100
AcDbSymbolTableRecord
100
AcDbDimStyleTableRecord
  2
ME10_DIM_0
 70
     0
 41
10.5
 42
0.0
 44
3.0
 73
     0
 74
     0
 77
     1
 78
     8
140
10.5
147
0.625
172
     1
173
     1
176
     2
177
     2
178
     7
271
     2
340
200
  0
DIMSTYLE
105
238
102
{ACAD_REACTORS
330
239
102
}
330
A
100
AcDbSymbolTableRecord
100
AcDbDimStyleTableRecord
  2
ME10_DIM_1
 70
     0
 41
10.5
 42
0.0
 44
3.0
 73
     0
 74
     0
 77
     1
 78
     8
140
10.5
147
0.625
172
     1
173
     1
176
     2
177
     2
178
     7
271
     2
340
21D
  0
DIMSTYLE
105
243
102
{ACAD_REACTORS
330
244
102
}
330
A
100
AcDbSymbolTableRecord
100
AcDbDimStyleTableRecord
  2
ME10_DIM_2
 70
     0
 41
10.5
 42
0.0
 44
3.0
 73
     0
 74
     0
 77
     1
 78
     8
140
10.5
147
0.625
172
     1
173
     1
176
     2
177
     2
178
     7
271
     2
340
21D
  0
DIMSTYLE
105
24E
102
{ACAD_REACTORS
330
24F
102
}
330
A
100
AcDbSymbolTableRecord
100
AcDbDimStyleTableRecord
  2
ME10_DIM_3
 70
     0
 41
10.5
 42
0.0
 44
3.0
 73
     0
 74
     0
 77
     1
 78
     8
140
10.5
147
0.625
172
     1
173
     1
176
     2
177
     2
178
     7
271
     2
340
21D
  0
DIMSTYLE
105
259
102
{ACAD_REACTORS
330
25A
102
}
330
A
100
AcDbSymbolTableRecord
100
AcDbDimStyleTableRecord
  2
ME10_DIM_4
 70
     0
 41
10.5
 42
0.0
 44
3.0
 73
     0
 74
     0
 77
     1
 78
     8
140
10.5
147
0.625
172
     1
173
     1
176
     2
177
     2
178
     7
271
     0
340
21D
  0
DIMSTYLE
105
264
102
{ACAD_REACTORS
330
265
102
}
330
A
100
AcDbSymbolTableRecord
100
AcDbDimStyleTableRecord
  2
ME10_DIM_5
 70
     0
 41
10.5
 42
0.0
 44
3.0
 73
     0
 74
     0
 77
     1
 78
     8
140
10.5
147
0.625
172
     1
173
     1
176
     2
177
     2
178
     7
271
     0
340
21D
  0
DIMSTYLE
105
272
102
{ACAD_REACTORS
330
273
102
}
330
A
100
AcDbSymbolTableRecord
100
AcDbDimStyleTableRecord
  2
ME10_DIM_6
 70
     0
 41
9.0
 42
0.0
 44
3.0
 73
     0
 74
     0
 77
     1
 78
     8
140
10.5
147
0.625
172
     1
173
     1
176
     2
177
     2
178
     7
271
     2
340
21D
343
26F
  0
ENDTAB
  0
TABLE
  2
BLOCK_RECORD
  5
1
330
0
100
AcDbSymbolTable
 70
    20
  0
BLOCK_RECORD
  5
1F
330
1
100
AcDbSymbolTableRecord
100
AcDbBlockTableRecord
  2
*Model_Space
340
22
  0
BLOCK_RECORD
  5
1B
330
1
100
AcDbSymbolTableRecord
100
AcDbBlockTableRecord
  2
*Paper_Space
340
1E
  0
BLOCK_RECORD
  5
23
330
1
100
AcDbSymbolTableRecord
100
AcDbBlockTableRecord
  2
*Paper_Space0
340
26
  0
BLOCK_RECORD
  5
36
330
1
100
AcDbSymbolTableRecord
100
AcDbBlockTableRecord
  2
21-1A
340
0
102
{BLKREFS
331
5D
102
}
  0
BLOCK_RECORD
  5
39
330
1
100
AcDbSymbolTableRecord
100
AcDbBlockTableRecord
  2
42-1
340
0
102
{BLKREFS
331
3D
102
}
  0
BLOCK_RECORD
  5
3C
330
1
100
AcDbSymbolTableRecord
100
AcDbBlockTableRecord
  2
R20F
340
0
102
{BLKREFS
331
47
102
}
  0
BLOCK_RECORD
  5
40
330
1
100
AcDbSymbolTableRecord
100
AcDbBlockTableRecord
  2
37-1-13
340
0
102
{BLKREFS
331
48
102
}
  0
BLOCK_RECORD
  5
43
330
1
100
AcDbSymbolTableRecord
100
AcDbBlockTableRecord
  2
36-1A-13-M4
340
0
102
{BLKREFS
331
49
102
}
  0
BLOCK_RECORD
  5
46
330
1
100
AcDbSymbolTableRecord
100
AcDbBlockTableRecord
  2
R10A-13
340
0
102
{BLKREFS
331
5E
102
}
  0
BLOCK_RECORD
  5
4C
330
1
100
AcDbSymbolTableRecord
100
AcDbBlockTableRecord
  2
A20-0-13
340
0
102
{BLKREFS
331
5F
102
}
  0
BLOCK_RECORD
  5
4F
330
1
100
AcDbSymbolTableRecord
100
AcDbBlockTableRecord
  2
32-1-16
340
0
102
{BLKREFS
331
56
102
}
  0
BLOCK_RECORD
  5
52
330
1
100
AcDbSymbolTableRecord
100
AcDbBlockTableRecord
  2
61-3-16-190
340
0
102
{BLKREFS
331
57
102
}
  0
BLOCK_RECORD
  5
55
330
1
100
AcDbSymbolTableRecord
100
AcDbBlockTableRecord
  2
A27JH-60X
340
0
102
{BLKREFS
331
60
102
}
  0
BLOCK_RECORD
  5
5A
330
1
100
AcDbSymbolTableRecord
100
AcDbBlockTableRecord
  2
_J__A4
340
0
102
{BLKREFS
331
61
102
}
  0
BLOCK_RECORD
  5
223
330
1
100
AcDbSymbolTableRecord
100
AcDbBlockTableRecord
  2
*D012
340
0
  0
BLOCK_RECORD
  5
22F
330
1
100
AcDbSymbolTableRecord
100
AcDbBlockTableRecord
  2
*D113
340
0
  0
BLOCK_RECORD
  5
23A
330
1
100
AcDbSymbolTableRecord
100
AcDbBlockTableRecord
  2
*D214
340
0
  0
BLOCK_RECORD
  5
245
330
1
100
AcDbSymbolTableRecord
100
AcDbBlockTableRecord
  2
*D315
340
0
  0
BLOCK_RECORD
  5
250
330
1
100
AcDbSymbolTableRecord
100
AcDbBlockTableRecord
  2
*D416
340
0
  0
BLOCK_RECORD
  5
25B
330
1
100
AcDbSymbolTableRecord
100
AcDbBlockTableRecord
  2
*D517
340
0
  0
BLOCK_RECORD
  5
266
330
1
100
AcDbSymbolTableRecord
100
AcDbBlockTableRecord
  2
*D618
340
0
  0
BLOCK_RECORD
  5
26F
330
1
100
AcDbSymbolTableRecord
100
AcDbBlockTableRecord
  2
_None
340
0
  0
ENDTAB
  0
ENDSEC
  0
SECTION
  2
BLOCKS
  0
BLOCK
  5
20
330
1F
100
AcDbEntity
  8
0
100
AcDbBlockBegin
  2
*Model_Space
 70
     0
 71
     0
 10
0.0
 20
0.0
 30
0.0
  3
*Model_Space
  1

  0
ENDBLK
  5
21
330
1F
100
AcDbEntity
  8
0
100
AcDbBlockEnd
  0
BLOCK
  5
1C
330
1B
100
AcDbEntity
 67
     1
  8
0
100
AcDbBlockBegin
  2
*Paper_Space
 70
     0
 71
     0
 10
0.0
 20
0.0
 30
0.0
  3
*Paper_Space
  1

  0
ENDBLK
  5
1D
330
1B
100
AcDbEntity
 67
     1
  8
0
100
AcDbBlockEnd
  0
BLOCK
  5
24
330
23
100
AcDbEntity
  8
0
100
AcDbBlockBegin
  2
*Paper_Space0
 70
     0
 71
     0
 10
0.0
 20
0.0
 30
0.0
  3
*Paper_Space0
  1

  0
ENDBLK
  5
25
330
23
100
AcDbEntity
  8
0
100
AcDbBlockEnd
  0
BLOCK
  5
37
330
36
100
AcDbEntity
  8
0
100
AcDbBlockBegin
  2
21-1A
 70
     0
 71
     0
 10
196.8486494318019
 20
195.7176887810471
 30
0.0
  3
21-1A
  1

  0
LINE
  5
62
330
36
100
AcDbEntity
  8
1
  6
Continuous
 62
     7
100
AcDbLine
 10
453.0956957293801
 20
232.4603294681667
 30
0.0
 11
463.0715312143425
 21
242.436164953129
 31
0.0
  0
LINE
  5
63
330
36
100
AcDbEntity
  8
1
  6
Continuous
 62
     7
100
AcDbLine
 10
458.130745784494
 20
222.2183571488159
 30
0.0
 11
472.5184953835473
 21
226.0735430347835
 31
0.0
  0
LINE
  5
64
330
36
100
AcDbEntity
  8
1
  6
Continuous
 62
     7
100
AcDbLine
 10
473.193416553376
 20
267.2706030516625
 30
0.0
 11
469.5420073419055
 21
253.6433583552297
 31
0.0
  0
LINE
  5
65
330
36
100
AcDbEntity
  8
1
  6
Continuous
 62
     7
100
AcDbLine
 10
499.0866923351062
 20
222.422133823313
 30
0.0
 11
485.4594476386734
 21
226.0735430347835
 31
0.0
  0
LINE
  5
66
330
36
100
AcDbEntity
  8
1
  6
Continuous
 62
     7
100
AcDbLine
 10
504.8822472928406
 20
232.4603294681667
 30
0.0
 11
494.9064118078782
 21
242.436164953129
 31
0.0
  0
LINE
  5
67
330
36
100
AcDbEntity
  8
1
  6
Continuous
 62
     7
100
AcDbLine
 10
484.7845264688447
 20
267.2706030516625
 30
0.0
 11
488.4359356803152
 21
253.6433583552297
 31
0.0
  0
LINE
  5
68
330
36
100
AcDbEntity
  8
1
  6
PHANTOM
 62
     4
100
AcDbLine
 10
511.0307538042013
 20
222.2183571488159
 30
0.0
 11
459.8429403817044
 21
251.7716550075229
 31
0.0
  0
LINE
  5
69
330
36
100
AcDbEntity
  8
1
  6
PHANTOM
 62
     4
100
AcDbLine
 10
446.9471892180194
 20
222.2183571488159
 30
0.0
 11
497.50032812303
 21
251.4052255040044
 31
0.0
  0
LINE
  5
6A
330
36
100
AcDbEntity
  8
1
  6
Continuous
 62
     7
100
AcDbLine
 10
199.1337291871527
 20
621.5599784485584
 30
0.0
 11
197.2035408030955
 21
621.5599784485584
 31
0.0
  0
LINE
  5
6B
330
36
100
AcDbEntity
  8
1
  6
Continuous
 62
     7
100
AcDbLine
 10
197.3563799644409
 20
634.5009307036843
 30
0.0
 11
199.1337291871527
 21
634.5009307036843
 31
0.0
  0
LINE
  5
6C
330
36
100
AcDbEntity
  8
1
  6
Continuous
 62
     7
100
AcDbLine
 10
199.1337291871527
 20
655.2243156061107
 30
0.0
 11
195.9182359822821
 21
655.6762237051031
 31
0.0
  0
LINE
  5
6D
330
36
100
AcDbEntity
  8
1
  6
Continuous
 62
     7
100
AcDbLine
 10
195.9182359822823
 20
600.3846854471394
 30
0.0
 11
199.1337291871527
 21
600.836593546132
 31
0.0
  0
LINE
  5
6E
330
36
100
AcDbEntity
  8
1
  6
Continuous
 62
     7
100
AcDbLine
 10
195.348649431802
 20
655.1810896707324
 30
0.0
 11
195.348649431802
 21
600.8798194815105
 31
0.0
  0
LINE
  5
6F
330
36
100
AcDbEntity
  8
1
  6
Continuous
 62
     7
100
AcDbLine
 10
195.348649431802
 20
271.1425045774367
 30
0.0
 11
195.348649431802
 21
240.7176887810472
 31
0.0
  0
LINE
  5
70
330
36
100
AcDbEntity
  8
1
  6
Continuous
 62
     7
100
AcDbLine
 10
200.3077260375456
 20
222.9150029266959
 30
0.0
 11
195.9182713645147
 21
222.2977854326883
 31
0.0
  0
LINE
  5
71
330
36
100
AcDbEntity
  8
1
  6
Continuous
 62
     7
100
AcDbLine
 10
199.1337291871527
 20
271.185730512815
 30
0.0
 11
195.9182359822821
 21
271.6376386118075
 31
0.0
  0
LINE
  5
72
330
36
100
AcDbEntity
  8
1
  6
Continuous
 62
     7
100
AcDbLine
 10
195.348649431802
 20
222.7929144931214
 30
0.0
 11
195.348649431802
 21
240.7176887810472
 31
0.0
  0
ARC
  5
73
330
36
100
AcDbEntity
  8
1
  6
Continuous
 62
     7
100
AcDbCircle
 10
457.3383364164994
 20
228.2176887810474
 30
0.0
 40
5.999999999999989
100
AcDbArc
 50
134.9999999999998
 51
-82.47575892105925
  0
ARC
  5
74
330
36
100
AcDbEntity
  8
1
  6
Continuous
 62
     7
100
AcDbCircle
 10
478.9889715111103
 20
265.7176887810474
 30
0.0
 40
6.0
100
AcDbArc
 50
90.0
 51
165.0000000000003
  0
ARC
  5
75
330
36
100
AcDbEntity
  8
1
  6
Continuous
 62
     7
100
AcDbCircle
 10
500.6396066057213
 20
228.2176887810474
 30
0.0
 40
5.999999999999989
100
AcDbArc
 50
-105.0000000000001
 51
45.00000000000019
  0
ARC
  5
76
330
36
100
AcDbEntity
  8
1
  6
Continuous
 62
     7
100
AcDbCircle
 10
478.9889715111103
 20
265.7176887810474
 30
0.0
 40
5.999999999999974
100
AcDbArc
 50
14.99999999999959
 51
90.0
  0
ARC
  5
77
330
36
100
AcDbEntity
  8
1
  6
Continuous
 62
     7
100
AcDbCircle
 10
78.97849689147778
 20
626.3933642252322
 30
0.0
 40
127.4948334081407
100
AcDbArc
 50
2.53411689479737
 51
10.80949324635217
  0
ARC
  5
78
330
36
100
AcDbEntity
  8
1
  6
Continuous
 62
     7
100
AcDbCircle
 10
78.97849689147778
 20
629.6675449270107
 30
0.0
 40
127.4948334081409
100
AcDbArc
 50
-10.80949324635227
 51
-2.53411689479737
  0
ARC
  5
79
330
36
100
AcDbEntity
  8
1
  6
Continuous
 62
     7
100
AcDbCircle
 10
131.4368284231028
 20
240.3534931158004
 30
0.0
 40
74.99999999999997
100
AcDbArc
 50
-9.5914924826651
 51
-2.77863896596255
  0
ARC
  5
7A
330
36
100
AcDbEntity
  8
1
  6
Continuous
 62
     7
100
AcDbCircle
 10
56.34864943180196
 20
240.7176887810471
 30
0.0
 40
150.0533238552216
100
AcDbArc
 50
1.52752544221297
 51
9.80290179376779
  0
SPLINE
  5
7B
330
36
100
AcDbEntity
  8
0
  6
Continuous
 62
     7
100
AcDbSpline
210
0.0
220
0.0
230
1.0
 70
     8
 71
     3
 72
    35
 73
    31
 74
    29
 42
0.0000000001
 43
0.0000000001
 44
0.00000001
 40
0.0
 40
0.0
 40
0.0
 40
0.0
 40
0.6095664701736261
 40
1.217631710174785
 40
1.818364858744491
 40
2.420251448870855
 40
3.012574584768654
 40
3.604379366438546
 40
4.187127320374358
 40
4.770042709359099
 40
5.344635662521544
 40
5.919155670249367
 40
6.487495311598084
 40
7.055844637159829
 40
7.620860568606228
 40
8.185865086527315
 40
8.750867887076948
 40
9.315885831846149
 40
9.884245147472074
 40
10.45257411423282
 40
11.02705120930345
 40
11.6016888206777
 40
12.26274694007692
 40
12.92355591635747
 40
13.43733587887817
 40
13.95144934917293
 40
14.55327005497677
 40
15.1540638900466
 40
15.76214773013176
 40
16.37169678613087
 40
16.37169678613087
 40
16.37169678613087
 40
16.37169678613087
 10
201.5584782456782
 20
634.110713246164
 30
0.0
 10
201.7481122070993
 20
634.0377503218651
 30
0.0
 10
202.1269131025728
 20
633.8920041651448
 30
0.0
 10
202.68105791791
 20
633.6446131434756
 30
0.0
 10
203.2043461654527
 20
633.341649471673
 30
0.0
 10
203.6931070977853
 20
632.9953837780447
 30
0.0
 10
204.1503261369012
 20
632.6130892600314
 30
0.0
 10
204.5690231064871
 20
632.1977870204654
 30
0.0
 10
204.9467430638609
 20
631.7489686120199
 30
0.0
 10
205.2793492663657
 20
631.2727358165785
 30
0.0
 10
205.5659509532847
 20
630.7706360636682
 30
0.0
 10
205.8032206044281
 20
630.2487200546788
 30
0.0
 10
205.9898463748233
 20
629.7088281643642
 30
0.0
 10
206.1241676887195
 20
629.1568460485296
 30
0.0
 10
206.2051017164481
 20
628.5956734838593
 30
0.0
 10
206.2322796825704
 20
628.0304552039804
 30
0.0
 10
206.2051060500332
 20
627.4652359216109
 30
0.0
 10
206.1241688081072
 20
626.9040600522839
 30
0.0
 10
205.9898353841033
 20
626.3520801482181
 30
0.0
 10
205.8032206175891
 20
625.8122021075126
 30
0.0
 10
205.5659803589727
 20
625.2902714732865
 30
0.0
 10
205.2664406673026
 20
624.7655379903254
 30
0.0
 10
204.9005808038019
 20
624.2486160198399
 30
0.0
 10
204.4976304595901
 20
623.7867216625442
 30
0.0
 10
204.0908646876792
 20
623.3968619792324
 30
0.0
 10
203.6718096764894
 20
623.0504905109601
 30
0.0
 10
203.204320655911
 20
622.7193356882675
 30
0.0
 10
202.6810784827183
 20
622.416291546512
 30
0.0
 10
202.1269189361734
 20
622.1688739319242
 30
0.0
 10
201.7481104199058
 20
622.0231470339455
 30
0.0
 10
201.5584782456783
 20
621.950195906079
 30
0.0
 11
201.5584782456782
 21
634.110713246164
 31
0.0
 11
202.1254431405938
 21
633.8868336144568
 31
0.0
 11
202.6784751704568
 21
633.6340512771719
 31
0.0
 11
203.1990011255868
 21
633.3341628882229
 31
0.0
 11
203.6907667822607
 21
632.9871268579752
 31
0.0
 11
204.1448205916785
 21
632.6067562025968
 31
0.0
 11
204.5645951127094
 21
632.1895964596918
 31
0.0
 11
204.9397739695379
 21
631.7436861512157
 31
0.0
 11
205.2734093301612
 21
631.265692639903
 31
0.0
 11
205.5581136932951
 21
630.7665929630483
 31
0.0
 11
205.7956724732954
 21
630.2434877486561
 31
0.0
 11
205.9812840953333
 21
629.7063115450759
 31
0.0
 11
206.1155158407862
 21
629.1540409643103
 31
0.0
 11
206.196169276362
 21
628.5948111134278
 31
0.0
 11
206.2232211537609
 21
628.0304545761214
 31
0.0
 11
206.1961725456432
 21
627.4660996014576
 31
0.0
 11
206.1155158407862
 21
626.9068681879329
 31
0.0
 11
205.9812742098665
 21
626.3545897290131
 31
0.0
 11
205.7956724732954
 21
625.817421403587
 31
0.0
 11
205.5581505107536
 21
625.2943466000731
 31
0.0
 11
205.2734093301612
 21
624.7952165123397
 31
0.0
 11
204.8917385636567
 21
624.2554709581946
 31
0.0
 11
204.4574144137822
 21
623.7574438143873
 31
0.0
 11
204.0867695231501
 21
623.4016458170123
 31
0.0
 11
203.6907667822607
 21
623.0737822942675
 31
0.0
 11
203.1990239979068
 21
622.7268281244265
 31
0.0
 11
202.6784751704568
 21
622.4268578750711
 31
0.0
 11
202.1254353821527
 21
622.1740477701992
 31
0.0
 11
201.5584782456783
 21
621.950195906079
 31
0.0
  0
ARC
  5
7C
330
36
100
AcDbEntity
  8
1
  6
Continuous
 62
     7
100
AcDbCircle
 10
445.3938616846787
 20
260.1138344827926
 30
0.0
 40
24.99999999999998
100
AcDbArc
 50
-44.99999999999968
 51
-14.99999999999963
  0
ARC
  5
7D
330
36
100
AcDbEntity
  8
1
  6
Continuous
 62
     7
100
AcDbCircle
 10
478.9889715111103
 20
201.9253973775567
 30
0.0
 40
25.00000000000012
100
AcDbArc
 50
74.99999999999996
 51
104.9999999999999
  0
ARC
  5
7E
330
36
100
AcDbEntity
  8
1
  6
Continuous
 62
     7
100
AcDbCircle
 10
512.584081337542
 20
260.1138344827926
 30
0.0
 40
25.00000000000004
100
AcDbArc
 50
-165.0000000000004
 51
-135.0000000000003
  0
ARC
  5
7F
330
36
100
AcDbEntity
  8
1
  6
Continuous
 62
     7
100
AcDbCircle
 10
198.2986905813924
 20
649.2827071936614
 30
0.0
 40
6.000000000000004
100
AcDbArc
 50
9.80290179376699
 51
82.00000000000074
  0
ARC
  5
80
330
36
100
AcDbEntity
  8
1
  6
Continuous
 62
     7
100
AcDbCircle
 10
195.848649431802
 20
655.1810896707324
 30
0.0
 40
0.4999999999999498
100
AcDbArc
 50
81.99999999998855
 51
180.0
  0
ARC
  5
81
330
36
100
AcDbEntity
  8
1
  6
Continuous
 62
     7
100
AcDbCircle
 10
195.848649431802
 20
600.8798194815105
 30
0.0
 40
0.5
100
AcDbArc
 50
180.0
 51
-81.99999999997141
  0
ARC
  5
82
330
36
100
AcDbEntity
  8
1
  6
Continuous
 62
     7
100
AcDbCircle
 10
198.2986905813926
 20
606.7782019585815
 30
0.0
 40
5.999999999999992
100
AcDbArc
 50
-82.00000000000277
 51
-9.80290179376945
  0
ARC
  5
83
330
36
100
AcDbEntity
  8
1
  6
Continuous
 62
     7
100
AcDbCircle
 10
195.848649431802
 20
222.7929144931216
 30
0.0
 40
0.5
100
AcDbArc
 50
-179.9999999999772
 51
-81.99590562829044
  0
ARC
  5
84
330
36
100
AcDbEntity
  8
1
  6
Continuous
 62
     7
100
AcDbCircle
 10
195.848649431802
 20
271.1425045774367
 30
0.0
 40
0.5000000000000624
100
AcDbArc
 50
81.99999999999035
 51
180.0
  0
ARC
  5
85
330
36
100
AcDbEntity
  8
1
  6
Continuous
 62
     7
100
AcDbCircle
 10
199.4722628449942
 20
228.8565516518931
 30
0.0
 40
6.000000000000063
100
AcDbArc
 50
-81.9959056282991
 51
-9.5914924826654
  0
ARC
  5
86
330
36
100
AcDbEntity
  8
1
  6
Continuous
 62
     7
100
AcDbCircle
 10
198.2986905813923
 20
265.2441221003655
 30
0.0
 40
6.000000000000043
100
AcDbArc
 50
9.80290179376913
 51
81.99999999999989
  0
ENDBLK
  5
38
330
36
100
AcDbEntity
  8
0
100
AcDbBlockEnd
  0
BLOCK
  5
3A
330
39
100
AcDbEntity
  8
0
100
AcDbBlockBegin
  2
42-1
 70
     0
 71
     0
 10
58.55900042221697
 20
328.8219488676507
 30
0.0
  3
42-1
  1

  0
LINE
  5
87
330
39
100
AcDbEntity
  8
1
  6
Continuous
 62
     7
100
AcDbLine
 10
209.348649431802
 20
245.7176887810472
 30
0.0
 11
209.348649431802
 21
235.7176887810472
 31
0.0
  0
LINE
  5
88
330
39
100
AcDbEntity
  8
1
  6
Continuous
 62
     7
100
AcDbLine
 10
209.6784151520057
 20
246.4676887810471
 30
0.0
 11
209.6784151520057
 21
240.7176887810472
 31
0.0
  0
LINE
  5
89
330
39
100
AcDbEntity
  8
1
  6
Continuous
 62
     2
100
AcDbLine
 10
208.5909875339733
 20
241.7176887810472
 30
0.0
 11
207.3257484433628
 21
241.7176887810472
 31
0.0
  0
LINE
  5
8A
330
39
100
AcDbEntity
  8
1
  6
Continuous
 62
     2
100
AcDbLine
 10
208.834302743706
 20
242.7176887810472
 30
0.0
 11
207.0662122196479
 21
242.7176887810472
 31
0.0
  0
LINE
  5
8B
330
39
100
AcDbEntity
  8
1
  6
Continuous
 62
     2
100
AcDbLine
 10
209.0451759254744
 20
243.7176887810472
 30
0.0
 11
206.7093499120398
 21
243.7176887810472
 31
0.0
  0
LINE
  5
8C
330
39
100
AcDbEntity
  8
1
  6
Continuous
 62
     2
100
AcDbLine
 10
209.1587230233497
 20
244.7176887810472
 30
0.0
 11
206.5146977442536
 21
244.7176887810472
 31
0.0
  0
LINE
  5
8D
330
39
100
AcDbEntity
  8
1
  6
Continuous
 62
     2
100
AcDbLine
 10
209.348649431802
 20
245.7176887810472
 30
0.0
 11
206.348649431802
 21
245.7176887810472
 31
0.0
  0
LINE
  5
8E
330
39
100
AcDbEntity
  8
1
  6
Continuous
 62
     7
100
AcDbLine
 10
206.348649431802
 20
247.7176887810472
 30
0.0
 11
206.348649431802
 21
233.7176887810472
 31
0.0
  0
LINE
  5
8F
330
39
100
AcDbEntity
  8
1
  6
Continuous
 62
     7
100
AcDbLine
 10
209.348649431802
 20
246.7176887810472
 30
0.0
 11
209.348649431802
 21
245.7176887810472
 31
0.0
  0
LINE
  5
90
330
39
100
AcDbEntity
  8
1
  6
Continuous
 62
     2
100
AcDbLine
 10
209.348649431802
 20
246.7176887810472
 30
0.0
 11
206.348649431802
 21
246.7176887810472
 31
0.0
  0
LINE
  5
91
330
39
100
AcDbEntity
  8
1
  6
Continuous
 62
     7
100
AcDbLine
 10
209.348649431802
 20
247.7176887810472
 30
0.0
 11
209.348649431802
 21
246.7176887810472
 31
0.0
  0
LINE
  5
92
330
39
100
AcDbEntity
  8
1
  6
Continuous
 62
     7
100
AcDbLine
 10
209.348649431802
 20
247.7176887810472
 30
0.0
 11
209.6179716308252
 21
246.7176887810472
 31
0.0
  0
LINE
  5
93
330
39
100
AcDbEntity
  8
1
  6
Continuous
 62
     7
100
AcDbLine
 10
206.348649431802
 20
247.7176887810472
 30
0.0
 11
209.348649431802
 21
247.7176887810472
 31
0.0
  0
LINE
  5
94
330
39
100
AcDbEntity
  8
1
  6
Continuous
 62
     7
100
AcDbLine
 10
209.348649431802
 20
233.7176887810472
 30
0.0
 11
206.348649431802
 21
233.7176887810472
 31
0.0
  0
LINE
  5
95
330
39
100
AcDbEntity
  8
1
  6
Continuous
 62
     7
100
AcDbLine
 10
209.6179716308252
 20
234.7176887810471
 30
0.0
 11
209.348649431802
 21
233.7176887810472
 31
0.0
  0
LINE
  5
96
330
39
100
AcDbEntity
  8
1
  6
Continuous
 62
     7
100
AcDbLine
 10
209.348649431802
 20
234.7176887810472
 30
0.0
 11
209.348649431802
 21
233.7176887810472
 31
0.0
  0
LINE
  5
97
330
39
100
AcDbEntity
  8
1
  6
Continuous
 62
     2
100
AcDbLine
 10
206.348649431802
 20
234.7176887810472
 30
0.0
 11
209.348649431802
 21
234.7176887810472
 31
0.0
  0
LINE
  5
98
330
39
100
AcDbEntity
  8
1
  6
Continuous
 62
     7
100
AcDbLine
 10
209.348649431802
 20
235.7176887810472
 30
0.0
 11
209.348649431802
 21
234.7176887810472
 31
0.0
  0
LINE
  5
99
330
39
100
AcDbEntity
  8
1
  6
Continuous
 62
     2
100
AcDbLine
 10
206.348649431802
 20
235.7176887810472
 30
0.0
 11
209.348649431802
 21
235.7176887810472
 31
0.0
  0
LINE
  5
9A
330
39
100
AcDbEntity
  8
1
  6
Continuous
 62
     2
100
AcDbLine
 10
206.5146977442536
 20
236.7176887810472
 30
0.0
 11
209.1587230233497
 21
236.7176887810472
 31
0.0
  0
LINE
  5
9B
330
39
100
AcDbEntity
  8
1
  6
Continuous
 62
     2
100
AcDbLine
 10
206.7093499120398
 20
237.7176887810472
 30
0.0
 11
209.0451759254744
 21
237.7176887810472
 31
0.0
  0
LINE
  5
9C
330
39
100
AcDbEntity
  8
1
  6
Continuous
 62
     2
100
AcDbLine
 10
207.0662122196479
 20
238.7176887810472
 30
0.0
 11
208.834302743706
 21
238.7176887810472
 31
0.0
  0
LINE
  5
9D
330
39
100
AcDbEntity
  8
1
  6
Continuous
 62
     2
100
AcDbLine
 10
207.3257484433628
 20
239.7176887810472
 30
0.0
 11
208.5909875339733
 21
239.7176887810472
 31
0.0
  0
LINE
  5
9E
330
39
100
AcDbEntity
  8
1
  6
Continuous
 62
     7
100
AcDbLine
 10
209.6784151520057
 20
240.7176887810472
 30
0.0
 11
209.6784151520057
 21
234.9676887810472
 31
0.0
  0
LINE
  5
9F
330
39
100
AcDbEntity
  8
1
  6
Continuous
 62
     2
100
AcDbLine
 10
207.3257484433629
 20
627.0304545761213
 30
0.0
 11
208.5909875339733
 21
627.0304545761213
 31
0.0
  0
LINE
  5
A0
330
39
100
AcDbEntity
  8
1
  6
Continuous
 62
     2
100
AcDbLine
 10
207.0662122196478
 20
626.0304545761213
 30
0.0
 11
208.834302743706
 21
626.0304545761213
 31
0.0
  0
LINE
  5
A1
330
39
100
AcDbEntity
  8
1
  6
Continuous
 62
     2
100
AcDbLine
 10
206.7093499120399
 20
625.0304545761213
 30
0.0
 11
209.0451759254745
 21
625.0304545761213
 31
0.0
  0
LINE
  5
A2
330
39
100
AcDbEntity
  8
1
  6
Continuous
 62
     2
100
AcDbLine
 10
206.5146977442536
 20
624.0304545761213
 30
0.0
 11
209.1587230233498
 21
624.0304545761213
 31
0.0
  0
LINE
  5
A3
330
39
100
AcDbEntity
  8
1
  6
Continuous
 62
     2
100
AcDbLine
 10
206.348649431802
 20
623.0304545761213
 30
0.0
 11
209.348649431802
 21
623.0304545761213
 31
0.0
  0
LINE
  5
A4
330
39
100
AcDbEntity
  8
1
  6
Continuous
 62
     2
100
AcDbLine
 10
206.348649431802
 20
622.0304545761213
 30
0.0
 11
209.348649431802
 21
622.0304545761213
 31
0.0
  0
LINE
  5
A5
330
39
100
AcDbEntity
  8
1
  6
Continuous
 62
     7
100
AcDbLine
 10
209.6179716308253
 20
622.0304545761213
 30
0.0
 11
209.348649431802
 21
621.0304545761213
 31
0.0
  0
LINE
  5
A6
330
39
100
AcDbEntity
  8
1
  6
Continuous
 62
     7
100
AcDbLine
 10
209.348649431802
 20
621.0304545761213
 30
0.0
 11
206.348649431802
 21
621.0304545761213
 31
0.0
  0
LINE
  5
A7
330
39
100
AcDbEntity
  8
1
  6
Continuous
 62
     7
100
AcDbLine
 10
206.348649431802
 20
635.0304545761213
 30
0.0
 11
209.348649431802
 21
635.0304545761213
 31
0.0
  0
LINE
  5
A8
330
39
100
AcDbEntity
  8
1
  6
Continuous
 62
     7
100
AcDbLine
 10
209.348649431802
 20
635.0304545761213
 30
0.0
 11
209.6179716308253
 21
634.0304545761213
 31
0.0
  0
LINE
  5
A9
330
39
100
AcDbEntity
  8
1
  6
Continuous
 62
     2
100
AcDbLine
 10
209.348649431802
 20
634.0304545761213
 30
0.0
 11
206.348649431802
 21
634.0304545761213
 31
0.0
  0
LINE
  5
AA
330
39
100
AcDbEntity
  8
1
  6
Continuous
 62
     7
100
AcDbLine
 10
206.348649431802
 20
635.0304545761213
 30
0.0
 11
206.348649431802
 21
621.0304545761213
 31
0.0
  0
LINE
  5
AB
330
39
100
AcDbEntity
  8
1
  6
Continuous
 62
     2
100
AcDbLine
 10
209.348649431802
 20
633.0304545761213
 30
0.0
 11
206.348649431802
 21
633.0304545761213
 31
0.0
  0
LINE
  5
AC
330
39
100
AcDbEntity
  8
1
  6
Continuous
 62
     2
100
AcDbLine
 10
209.1587230233498
 20
632.0304545761213
 30
0.0
 11
206.5146977442536
 21
632.0304545761213
 31
0.0
  0
LINE
  5
AD
330
39
100
AcDbEntity
  8
1
  6
Continuous
 62
     2
100
AcDbLine
 10
209.0451759254745
 20
631.0304545761213
 30
0.0
 11
206.7093499120399
 21
631.0304545761213
 31
0.0
  0
LINE
  5
AE
330
39
100
AcDbEntity
  8
1
  6
Continuous
 62
     2
100
AcDbLine
 10
208.834302743706
 20
630.0304545761213
 30
0.0
 11
207.0662122196478
 21
630.0304545761213
 31
0.0
  0
LINE
  5
AF
330
39
100
AcDbEntity
  8
1
  6
Continuous
 62
     2
100
AcDbLine
 10
208.5909875339733
 20
629.0304545761213
 30
0.0
 11
207.3257484433629
 21
629.0304545761213
 31
0.0
  0
LINE
  5
B0
330
39
100
AcDbEntity
  8
1
  6
Continuous
 62
     7
100
AcDbLine
 10
209.6784151520058
 20
633.7804545761213
 30
0.0
 11
209.6784151520058
 21
622.2804545761213
 31
0.0
  0
LINE
  5
B1
330
39
100
AcDbEntity
  8
1
  6
Continuous
 62
     7
100
AcDbLine
 10
209.348649431802
 20
635.0304545761213
 30
0.0
 11
209.348649431802
 21
621.0304545761213
 31
0.0
  0
ARC
  5
B2
330
39
100
AcDbEntity
  8
1
  6
Continuous
 62
     7
100
AcDbCircle
 10
185.348649431802
 20
240.7176887810472
 30
0.0
 40
25.0
100
AcDbArc
 50
0.0
 51
13.29707174720881
  0
ARC
  5
B3
330
39
100
AcDbEntity
  8
1
  6
Continuous
 62
     7
100
AcDbCircle
 10
185.348649431802
 20
240.7176887810472
 30
0.0
 40
24.99999999999996
100
AcDbArc
 50
13.29707174720881
 51
13.88654036262899
  0
ARC
  5
B4
330
39
100
AcDbEntity
  8
1
  6
Continuous
 62
     7
100
AcDbCircle
 10
185.348649431802
 20
240.7176887810472
 30
0.0
 40
25.00000000000004
100
AcDbArc
 50
-13.88654036262924
 51
-13.29707174720906
  0
ARC
  5
B5
330
39
100
AcDbEntity
  8
1
  6
Continuous
 62
     7
100
AcDbCircle
 10
185.348649431802
 20
240.7176887810472
 30
0.0
 40
24.99999999999999
100
AcDbArc
 50
-13.29707174720906
 51
0.0
  0
ARC
  5
B6
330
39
100
AcDbEntity
  8
1
  6
Continuous
 62
     7
100
AcDbCircle
 10
185.348649431802
 20
628.0304545761213
 30
0.0
 40
25.00000000000012
100
AcDbArc
 50
-13.88654036262892
 51
0.0
  0
ARC
  5
B7
330
39
100
AcDbEntity
  8
1
  6
Continuous
 62
     7
100
AcDbCircle
 10
185.348649431802
 20
628.0304545761213
 30
0.0
 40
25.0
100
AcDbArc
 50
0.0
 51
13.88654036262892
  0
CIRCLE
  5
B8
330
39
100
AcDbEntity
  8
0
  6
Continuous
 62
     7
100
AcDbCircle
 10
478.988971511111
 20
240.717688781047
 30
0.0
 40
5.749999999999318
  0
CIRCLE
  5
B9
330
39
100
AcDbEntity
  8
0
  6
Continuous
 62
     7
100
AcDbCircle
 10
478.988971511111
 20
240.717688781047
 30
0.0
 40
6.999999999999801
  0
ENDBLK
  5
3B
330
39
100
AcDbEntity
  8
0
100
AcDbBlockEnd
  0
BLOCK
  5
3E
330
3C
100
AcDbEntity
  8
0
100
AcDbBlockBegin
  2
R20F
 70
     0
 71
     0
 10
250.9471892180193
 20
222.2929144931214
 30
0.0
  3
R20F
  1

  0
INSERT
  5
3D
330
3C
100
AcDbEntity
  8
0
100
AcDbBlockReference
  2
42-1
 10
58.55900042221697
 20
328.8219488676507
 30
0.0
  0
LINE
  5
BA
330
3C
100
AcDbEntity
  8
1
  6
PHANTOM
 62
     4
100
AcDbLine
 10
206.3486494318018
 20
240.7176887810472
 30
0.0
 11
214.2782732241576
 21
240.7176887810472
 31
0.0
  0
ENDBLK
  5
3F
330
3C
100
AcDbEntity
  8
0
100
AcDbBlockEnd
  0
BLOCK
  5
41
330
40
100
AcDbEntity
  8
0
100
AcDbBlockBegin
  2
37-1-13
 70
     0
 71
     0
 10
79.35294354165728
 20
332.5189189978182
 30
0.0
  3
37-1-13
  1

  0
LINE
  5
BB
330
40
100
AcDbEntity
  8
1
  6
Continuous
 62
     7
100
AcDbLine
 10
185.8486494318018
 20
240.7176887810471
 30
0.0
 11
185.8486494318019
 21
228.2176887810474
 31
0.0
  0
LINE
  5
BC
330
40
100
AcDbEntity
  8
1
  6
Continuous
 62
     7
100
AcDbLine
 10
185.8486494318019
 20
253.217688781047
 30
0.0
 11
185.8486494318018
 21
240.7176887810471
 31
0.0
  0
LINE
  5
BD
330
40
100
AcDbEntity
  8
1
  6
Continuous
 62
     7
100
AcDbLine
 10
178.3486494318018
 20
227.6469745667758
 30
0.0
 11
178.3486494318018
 21
253.7884029953187
 31
0.0
  0
LINE
  5
BE
330
40
100
AcDbEntity
  8
1
  6
Continuous
 62
     7
100
AcDbLine
 10
192.3486494318018
 20
234.7176887810471
 30
0.0
 11
192.3486494318018
 21
246.7176887810471
 31
0.0
  0
LINE
  5
BF
330
40
100
AcDbEntity
  8
1
  6
Continuous
 62
     7
100
AcDbLine
 10
185.8486494318017
 20
628.0304545761214
 30
0.0
 11
185.8486494318019
 21
615.5304545761217
 31
0.0
  0
LINE
  5
C0
330
40
100
AcDbEntity
  8
1
  6
Continuous
 62
     7
100
AcDbLine
 10
178.3486494318017
 20
615.0304545761214
 30
0.0
 11
178.3486494318017
 21
628.0304545761214
 31
0.0
  0
LINE
  5
C1
330
40
100
AcDbEntity
  8
1
  6
Continuous
 62
     7
100
AcDbLine
 10
192.3486494318017
 20
622.0304545761214
 30
0.0
 11
192.3486494318017
 21
628.0304545761214
 31
0.0
  0
LINE
  5
C2
330
40
100
AcDbEntity
  8
1
  6
Continuous
 62
     7
100
AcDbLine
 10
178.3486494318017
 20
615.0304545761214
 30
0.0
 11
185.4193636460733
 21
615.0304545761214
 31
0.0
  0
LINE
  5
C3
330
40
100
AcDbEntity
  8
1
  6
Continuous
 62
     7
100
AcDbLine
 10
185.8486494318019
 20
640.5304545761212
 30
0.0
 11
185.8486494318017
 21
628.0304545761214
 31
0.0
  0
LINE
  5
C4
330
40
100
AcDbEntity
  8
1
  6
Continuous
 62
     7
100
AcDbLine
 10
178.3486494318017
 20
628.0304545761214
 30
0.0
 11
178.3486494318017
 21
641.0304545761213
 31
0.0
  0
LINE
  5
C5
330
40
100
AcDbEntity
  8
1
  6
Continuous
 62
     7
100
AcDbLine
 10
192.3486494318017
 20
628.0304545761214
 30
0.0
 11
192.3486494318017
 21
634.0304545761213
 31
0.0
  0
LINE
  5
C6
330
40
100
AcDbEntity
  8
1
  6
Continuous
 62
     7
100
AcDbLine
 10
185.4193636460733
 20
641.0304545761213
 30
0.0
 11
178.3486494318017
 21
641.0304545761213
 31
0.0
  0
ARC
  5
C7
330
40
100
AcDbEntity
  8
1
  6
Continuous
 62
     7
100
AcDbCircle
 10
205.7551046369168
 20
214.8112335759323
 30
0.0
 40
23.99999999999993
100
AcDbArc
 50
123.9591925000979
 51
146.0408074999021
  0
ARC
  5
C8
330
40
100
AcDbEntity
  8
1
  6
Continuous
 62
     7
100
AcDbCircle
 10
181.8486494318018
 20
231.2176887810471
 30
0.0
 40
4.999999999999894
100
AcDbArc
 50
-134.4270040008069
 51
-36.86989764584038
  0
ARC
  5
C9
330
40
100
AcDbEntity
  8
1
  6
Continuous
 62
     7
100
AcDbCircle
 10
205.7551046369167
 20
266.624143986162
 30
0.0
 40
23.99999999999994
100
AcDbArc
 50
-146.0408074999022
 51
-123.9591925000975
  0
ARC
  5
CA
330
40
100
AcDbEntity
  8
1
  6
Continuous
 62
     7
100
AcDbCircle
 10
181.8486494318018
 20
250.2176887810471
 30
0.0
 40
5.00000000000004
100
AcDbArc
 50
36.86989764584246
 51
134.4270040008042
  0
ARC
  5
CB
330
40
100
AcDbEntity
  8
1
  6
Continuous
 62
     7
100
AcDbCircle
 10
205.7551046369167
 20
602.1239993710067
 30
0.0
 40
23.99999999999991
100
AcDbArc
 50
123.9591925000979
 51
146.0408074999022
  0
ARC
  5
CC
330
40
100
AcDbEntity
  8
1
  6
Continuous
 62
     7
100
AcDbCircle
 10
181.8486494318017
 20
618.5304545761214
 30
0.0
 40
5.000000000000117
100
AcDbArc
 50
-44.42700400080438
 51
-36.86989764584057
  0
ARC
  5
CD
330
40
100
AcDbEntity
  8
1
  6
Continuous
 62
     7
100
AcDbCircle
 10
205.7551046369167
 20
653.9369097812363
 30
0.0
 40
24.0
100
AcDbArc
 50
-146.040807499902
 51
-123.9591925000976
  0
ARC
  5
CE
330
40
100
AcDbEntity
  8
1
  6
Continuous
 62
     7
100
AcDbCircle
 10
181.8486494318017
 20
637.5304545761213
 30
0.0
 40
5.000000000000091
100
AcDbArc
 50
36.86989764584161
 51
44.42700400080438
  0
SPLINE
  5
CF
330
40
100
AcDbEntity
  8
1
  6
Continuous
 62
     7
100
AcDbSpline
210
0.0
220
0.0
230
1.0
 70
    11
 71
     3
 72
    79
 73
    75
 74
    73
 42
0.0000000001
 43
0.0000000001
 44
0.00000001
 40
0.0
 40
0.0
 40
0.0
 40
0.0
 40
0.3171598656885374
 40
0.6340856861075673
 40
0.9694901489363448
 40
1.304562820901309
 40
1.666124796939125
 40
2.027385866504928
 40
2.418724079015907
 40
2.809836934323497
 40
3.230628787512777
 40
3.651266058867555
 40
4.098016897818981
 40
4.544667758504478
 40
5.011536287768347
 40
5.47834552214676
 40
5.957894801975138
 40
6.437416541840462
 40
6.921284920564494
 40
7.40515329928864
 40
7.884675039154077
 40
8.364224318982455
 40
8.831033553360761
 40
9.297902082624756
 40
9.744552943310369
 40
10.19130378226166
 40
10.61194105361653
 40
11.03273290680581
 40
11.42384576211332
 40
11.81518397462426
 40
12.17644504419017
 40
12.53800702022806
 40
12.87307969219294
 40
13.20848415502166
 40
13.52540997544068
 40
13.84256984112929
 40
14.15305257372701
 40
14.46353530632468
 40
14.78069517201319
 40
15.09762099243223
 40
15.43302545526099
 40
15.76809812722591
 40
16.1296601032637
 40
16.49092117282969
 40
16.88225938534061
 40
17.27337224064798
 40
17.69416409383724
 40
18.11480136519225
 40
18.5615522041436
 40
19.00820306482921
 40
19.47507159409306
 40
19.94188082847136
 40
20.42143010829973
 40
20.90095184816529
 40
21.38482022688932
 40
21.86868860561347
 40
22.34821034547903
 40
22.8277596253074
 40
23.29456885968535
 40
23.76143738894934
 40
24.20808824963483
 40
24.65483908858635
 40
25.07547635994132
 40
25.49626821313061
 40
25.88738106843801
 40
26.27871928094896
 40
26.63998035051478
 40
27.00154232655257
 40
27.33661499851763
 40
27.67201946134638
 40
27.98894528176549
 40
28.30610514745394
 40
28.6165878800516
 40
28.92707061264932
 40
28.92707061264932
 40
28.92707061264932
 40
28.92707061264932
 10
181.5742813270269
 20
615.9899810504348
 30
0.0
 10
181.470032937528
 20
616.0085589815435
 30
0.0
 10
181.2616130876912
 20
616.0457011343437
 30
0.0
 10
180.9565757839148
 20
616.1565562073071
 30
0.0
 10
180.6614241387521
 20
616.3035765165147
 30
0.0
 10
180.3737345126187
 20
616.4936476256355
 30
0.0
 10
180.1014956856328
 20
616.7187755733751
 30
0.0
 10
179.8400869101396
 20
616.9833598299914
 30
0.0
 10
179.5978993449319
 20
617.2784562550462
 30
0.0
 10
179.3702723698133
 20
617.6091986108571
 30
0.0
 10
179.1645804239194
 20
617.9653246115942
 30
0.0
 10
178.9771991237682
 20
618.3520534591529
 30
0.0
 10
178.8137455254677
 20
618.7587901408929
 30
0.0
 10
178.6719468921664
 20
619.1897756691828
 30
0.0
 10
178.5555099683039
 20
619.6352075294448
 30
0.0
 10
178.4633258770779
 20
620.0974405167781
 30
0.0
 10
178.3974446386653
 20
620.5684084390089
 30
0.0
 10
178.3574509881504
 20
621.0479698022009
 30
0.0
 10
178.3442287981268
 20
621.5304545761188
 30
0.0
 10
178.3574509881493
 20
622.012939350052
 30
0.0
 10
178.3974446386701
 20
622.4925007131992
 30
0.0
 10
178.46332587706
 20
622.9634686355917
 30
0.0
 10
178.5555099683684
 20
623.4257016223387
 30
0.0
 10
178.6719468919303
 20
623.8711334847443
 30
0.0
 10
178.813745526307
 20
624.3021190053657
 30
0.0
 10
178.9771991207086
 20
624.7088557149097
 30
0.0
 10
179.1645804345999
 20
625.0955844644784
 30
0.0
 10
179.3702723310466
 20
625.4517108178565
 30
0.0
 10
179.5978994783488
 20
625.7824519457141
 30
0.0
 10
179.8400864268964
 20
626.0775527685737
 30
0.0
 10
180.1014973363527
 20
626.3421218065101
 30
0.0
 10
180.3737285211438
 20
626.567304255714
 30
0.0
 10
180.6614446953367
 20
626.7571860333436
 30
0.0
 10
180.9565005770745
 20
626.9048892938685
 30
0.0
 10
181.261876725531
 20
627.0133278448545
 30
0.0
 10
181.5711087794686
 20
627.0775104338551
 30
0.0
 10
181.8840065389376
 20
627.1000696622702
 30
0.0
 10
182.1969042984063
 20
627.0775104338546
 30
0.0
 10
182.5061363523439
 20
627.0133278448548
 30
0.0
 10
182.8115125008004
 20
626.9048892938683
 30
0.0
 10
183.1065683825384
 20
626.7571860333436
 30
0.0
 10
183.3942845567311
 20
626.5673042557141
 30
0.0
 10
183.6665157415224
 20
626.3421218065101
 30
0.0
 10
183.9279266509786
 20
626.0775527685739
 30
0.0
 10
184.1701135995261
 20
625.7824519457142
 30
0.0
 10
184.3977407468283
 20
625.4517108178565
 30
0.0
 10
184.603432643275
 20
625.0955844644786
 30
0.0
 10
184.7908139571662
 20
624.7088557149095
 30
0.0
 10
184.9542675515682
 20
624.3021190053656
 30
0.0
 10
185.0960661859448
 20
623.8711334847444
 30
0.0
 10
185.2125031095066
 20
623.4257016223387
 30
0.0
 10
185.3046872008149
 20
622.9634686355919
 30
0.0
 10
185.3705684392047
 20
622.4925007131992
 30
0.0
 10
185.4105620897259
 20
622.0129393500513
 30
0.0
 10
185.4237842797478
 20
621.5304545761211
 30
0.0
 10
185.4105620897259
 20
621.0479698021925
 30
0.0
 10
185.3705684392043
 20
620.5684084390406
 30
0.0
 10
185.3046872008161
 20
620.0974405166601
 30
0.0
 10
185.212503109502
 20
619.6352075298714
 30
0.0
 10
185.0960661859615
 20
619.1897756676184
 30
0.0
 10
184.9542675515085
 20
618.7587901464523
 30
0.0
 10
184.7908139573837
 20
618.3520534388831
 30
0.0
 10
184.6034326425165
 20
617.9653246823539
 30
0.0
 10
184.3977407495819
 20
617.6091983540237
 30
0.0
 10
184.1701135900498
 20
617.2784571389465
 30
0.0
 10
183.9279266853027
 20
616.9833566284553
 30
0.0
 10
183.6665156242746
 20
616.718786509563
 30
0.0
 10
183.3942849822951
 20
616.4936079315031
 30
0.0
 10
183.1065669224399
 20
616.3037127059864
 30
0.0
 10
182.8115178426118
 20
616.1560579543082
 30
0.0
 10
182.5061176266059
 20
616.0474477619607
 30
0.0
 10
182.1969737510678
 20
615.9838940305256
 30
0.0
 10
181.8837533775589
 20
615.9590340313931
 30
0.0
 10
181.6774386772043
 20
615.9796653774208
 30
0.0
 10
181.5742813270269
 20
615.9899810504348
 30
0.0
 11
181.5742813270269
 21
615.9899810504348
 31
0.0
 11
181.2637660892428
 21
616.0545617558151
 31
0.0
 11
180.9648102735459
 21
616.1597634473856
 31
0.0
 11
180.6647072867152
 21
616.3095444574663
 31
0.0
 11
180.3845705613304
 21
616.4933843622432
 31
0.0
 11
180.1055266028601
 21
616.7233007204206
 31
0.0
 11
179.8511093258475
 21
616.9797795880518
 31
0.0
 11
179.6022706737567
 21
617.2818142248021
 31
0.0
 11
179.3800872657297
 21
617.603689664661
 31
0.0
 11
179.1690626153789
 21
617.9677423815233
 31
0.0
 11
178.985296031838
 21
618.3461146278978
 31
0.0
 11
178.8182339894246
 21
618.76045336141
 31
0.0
 11
178.6783977486982
 21
619.184650034111
 31
0.0
 11
178.5599696795138
 21
619.6362483246816
 31
0.0
 11
178.4685377838169
 21
620.0940158090557
 31
0.0
 11
178.4018762349102
 21
620.5689092178131
 31
0.0
 11
178.3620063038766
 21
621.0467705864159
 31
0.0
 11
178.3486494318018
 21
621.5304545761213
 31
0.0
 11
178.3620063038766
 21
622.0141385658269
 31
0.0
 11
178.4018762349102
 21
622.4919999344297
 31
0.0
 11
178.4685377838169
 21
622.9668933431872
 31
0.0
 11
178.5599696795139
 21
623.4246608275612
 31
0.0
 11
178.6783977486983
 21
623.8762591181319
 31
0.0
 11
178.8182339894248
 21
624.300455790833
 31
0.0
 11
178.985296031838
 21
624.7147945243451
 31
0.0
 11
179.1690626153789
 21
625.0931667707197
 31
0.0
 11
179.3800872657297
 21
625.4572194875819
 31
0.0
 11
179.6022706737568
 21
625.7790949274407
 31
0.0
 11
179.8511093258475
 21
626.0811295641911
 31
0.0
 11
180.1055266028601
 21
626.3376084318223
 31
0.0
 11
180.3845705613304
 21
626.5675247899999
 31
0.0
 11
180.6647072867152
 21
626.7513646947767
 31
0.0
 11
180.9648102735459
 21
626.9011457048573
 31
0.0
 11
181.2637660892428
 21
627.0063473964276
 31
0.0
 11
181.5742813270269
 21
627.0709281018083
 31
0.0
 11
181.8840065389375
 21
627.0926034414433
 31
0.0
 11
182.193731750848
 21
627.070928101808
 31
0.0
 11
182.5042469886321
 21
627.0063473964276
 31
0.0
 11
182.8032028043291
 21
626.9011457048573
 31
0.0
 11
183.1033057911598
 21
626.7513646947767
 31
0.0
 11
183.3834425165446
 21
626.5675247899999
 31
0.0
 11
183.6624864750149
 21
626.3376084318225
 31
0.0
 11
183.9169037520275
 21
626.0811295641911
 31
0.0
 11
184.1657424041182
 21
625.7790949274407
 31
0.0
 11
184.3879258121452
 21
625.4572194875821
 31
0.0
 11
184.5989504624959
 21
625.0931667707198
 31
0.0
 11
184.7827170460369
 21
624.7147945243451
 31
0.0
 11
184.9497790884503
 21
624.300455790833
 31
0.0
 11
185.0896153291768
 21
623.8762591181319
 31
0.0
 11
185.2080433983611
 21
623.4246608275613
 31
0.0
 11
185.299475294058
 21
622.9668933431873
 31
0.0
 11
185.3661368429647
 21
622.4919999344298
 31
0.0
 11
185.4060067739983
 21
622.0141385658269
 31
0.0
 11
185.4193636460732
 21
621.5304545761214
 31
0.0
 11
185.4060067739983
 21
621.0467705864159
 31
0.0
 11
185.3661368429647
 21
620.5689092178129
 31
0.0
 11
185.299475294058
 21
620.0940158090555
 31
0.0
 11
185.2080433983611
 21
619.6362483246818
 31
0.0
 11
185.0896153291768
 21
619.1846500341111
 31
0.0
 11
184.9497790884503
 21
618.7604533614101
 31
0.0
 11
184.782717046037
 21
618.3461146278978
 31
0.0
 11
184.5989504624961
 21
617.9677423815231
 31
0.0
 11
184.3879258121453
 21
617.6036896646608
 31
0.0
 11
184.1657424041183
 21
617.2818142248021
 31
0.0
 11
183.9169037520275
 21
616.9797795880518
 31
0.0
 11
183.6624864750149
 21
616.7233007204206
 31
0.0
 11
183.3834425165446
 21
616.4933843622432
 31
0.0
 11
183.1033057911598
 21
616.3095444574661
 31
0.0
 11
182.8032028043291
 21
616.1597634473856
 31
0.0
 11
182.5042469886321
 21
616.0545617558151
 31
0.0
 11
182.193731750848
 21
615.9899810504348
 31
0.0
 11
181.8840065389375
 21
615.9683057107998
 31
0.0
 11
181.5742813270269
 21
615.9899810504348
 31
0.0
  0
SPLINE
  5
D0
330
40
100
AcDbEntity
  8
1
  6
Continuous
 62
     7
100
AcDbSpline
210
0.0
220
0.0
230
1.0
 70
    11
 71
     3
 72
    79
 73
    75
 74
    73
 42
0.0000000001
 43
0.0000000001
 44
0.00000001
 40
0.0
 40
0.0
 40
0.0
 40
0.0
 40
0.3171598656885605
 40
0.6340856861075528
 40
0.9694901489362795
 40
1.304562820901244
 40
1.66612479693906
 40
2.027385866504943
 40
2.418724079015835
 40
2.809836934323518
 40
3.230628787512798
 40
3.651266058867577
 40
4.098016897819004
 40
4.5446677585045
 40
5.011536287768589
 40
5.478345522146778
 40
5.957894801975044
 40
6.437416541840481
 40
6.921284920564513
 40
7.405153299288772
 40
7.884675039154096
 40
8.364224318982474
 40
8.831033553360781
 40
9.297902082624775
 40
9.74455294331028
 40
10.19130378226178
 40
10.61194105361665
 40
11.03273290680593
 40
11.42384576211335
 40
11.81518397462429
 40
12.17644504419028
 40
12.53800702022802
 40
12.8730796921929
 40
13.20848415502167
 40
13.52540997544073
 40
13.84256984112932
 40
14.15305257372704
 40
14.46353530632472
 40
14.78069517201324
 40
15.09762099243229
 40
15.43302545526099
 40
15.76809812722604
 40
16.12966010326384
 40
16.49092117282974
 40
16.88225938534066
 40
17.27337224064803
 40
17.6941640938373
 40
18.1148013651922
 40
18.56155220414365
 40
19.00820306482926
 40
19.47507159409312
 40
19.94188082847142
 40
20.42143010829978
 40
20.90095184816523
 40
21.38482022688949
 40
21.86868860561341
 40
22.34821034547898
 40
22.82775962530723
 40
23.29456885968552
 40
23.76143738894951
 40
24.20808824963489
 40
24.65483908858641
 40
25.07547635994128
 40
25.49626821313058
 40
25.88738106843807
 40
26.27871928094902
 40
26.63998035051492
 40
27.00154232655272
 40
27.33661499851777
 40
27.67201946134647
 40
27.98894528176554
 40
28.30610514745402
 40
28.61658788005169
 40
28.92707061264942
 40
28.92707061264942
 40
28.92707061264942
 40
28.92707061264942
 10
181.5742813270269
 20
640.070928101808
 30
0.0
 10
181.470032937528
 20
640.0523501706991
 30
0.0
 10
181.2616130876913
 20
640.0152080178989
 30
0.0
 10
180.9565757839148
 20
639.9043529449357
 30
0.0
 10
180.6614241387521
 20
639.7573326357283
 30
0.0
 10
180.3737345126187
 20
639.5672615266076
 30
0.0
 10
180.1014956856328
 20
639.3421335788676
 30
0.0
 10
179.8400869101397
 20
639.0775493222515
 30
0.0
 10
179.5978993449319
 20
638.7824528971969
 30
0.0
 10
179.3702723698134
 20
638.4517105413855
 30
0.0
 10
179.1645804239193
 20
638.0955845406487
 30
0.0
 10
178.9771991237681
 20
637.7088556930902
 30
0.0
 10
178.8137455254677
 20
637.3021190113498
 30
0.0
 10
178.6719468921664
 20
636.8711334830601
 30
0.0
 10
178.555509968304
 20
636.425701622798
 30
0.0
 10
178.4633258770778
 20
635.9634686354648
 30
0.0
 10
178.3974446386654
 20
635.4925007132339
 30
0.0
 10
178.3574509881504
 20
635.0129393500417
 30
0.0
 10
178.3442287981269
 20
634.530454576124
 30
0.0
 10
178.3574509881492
 20
634.0479698021911
 30
0.0
 10
178.3974446386701
 20
633.5684084390435
 30
0.0
 10
178.4633258770601
 20
633.0974405166511
 30
0.0
 10
178.5555099683683
 20
632.6352075299041
 30
0.0
 10
178.6719468919303
 20
632.1897756674985
 30
0.0
 10
178.813745526307
 20
631.7587901468772
 30
0.0
 10
178.9771991207086
 20
631.352053437333
 30
0.0
 10
179.1645804345999
 20
630.9653246877643
 30
0.0
 10
179.3702723310465
 20
630.6091983343861
 30
0.0
 10
179.5978994783489
 20
630.2784572065289
 30
0.0
 10
179.8400864268964
 20
629.9833563836689
 30
0.0
 10
180.1014973363526
 20
629.7187873457327
 30
0.0
 10
180.373728521144
 20
629.4936048965288
 30
0.0
 10
180.6614446953366
 20
629.3037231188994
 30
0.0
 10
180.9565005770744
 20
629.1560198583744
 30
0.0
 10
181.261876725531
 20
629.0475813073881
 30
0.0
 10
181.5711087794686
 20
628.9833987183877
 30
0.0
 10
181.8840065389375
 20
628.9608394899726
 30
0.0
 10
182.1969042984064
 20
628.9833987183879
 30
0.0
 10
182.5061363523438
 20
629.0475813073884
 30
0.0
 10
182.8115125008005
 20
629.1560198583745
 30
0.0
 10
183.1065683825384
 20
629.3037231188991
 30
0.0
 10
183.3942845567311
 20
629.493604896529
 30
0.0
 10
183.6665157415224
 20
629.7187873457328
 30
0.0
 10
183.9279266509786
 20
629.9833563836689
 30
0.0
 10
184.1701135995261
 20
630.2784572065287
 30
0.0
 10
184.3977407468283
 20
630.6091983343862
 30
0.0
 10
184.6034326432749
 20
630.9653246877645
 30
0.0
 10
184.7908139571663
 20
631.3520534373329
 30
0.0
 10
184.9542675515682
 20
631.7587901468772
 30
0.0
 10
185.0960661859448
 20
632.1897756674985
 30
0.0
 10
185.2125031095066
 20
632.6352075299042
 30
0.0
 10
185.3046872008149
 20
633.097440516651
 30
0.0
 10
185.3705684392047
 20
633.5684084390432
 30
0.0
 10
185.4105620897259
 20
634.0479698021918
 30
0.0
 10
185.4237842797478
 20
634.5304545761214
 30
0.0
 10
185.4105620897259
 20
635.0129393500506
 30
0.0
 10
185.3705684392044
 20
635.4925007132018
 30
0.0
 10
185.3046872008161
 20
635.9634686355829
 30
0.0
 10
185.2125031095021
 20
636.4257016223712
 30
0.0
 10
185.0960661859615
 20
636.8711334846247
 30
0.0
 10
184.9542675515085
 20
637.3021190057906
 30
0.0
 10
184.7908139573837
 20
637.70885571336
 30
0.0
 10
184.6034326425165
 20
638.0955844698888
 30
0.0
 10
184.3977407495819
 20
638.4517107982192
 30
0.0
 10
184.1701135900498
 20
638.7824520132963
 30
0.0
 10
183.9279266853025
 20
639.0775525237875
 30
0.0
 10
183.6665156242746
 20
639.3421226426804
 30
0.0
 10
183.3942849822951
 20
639.5673012207398
 30
0.0
 10
183.1065669224399
 20
639.7571964462566
 30
0.0
 10
182.8115178426117
 20
639.9048511979346
 30
0.0
 10
182.5061176266058
 20
640.0134613902822
 30
0.0
 10
182.1969737510679
 20
640.0770151217172
 30
0.0
 10
181.8837533775589
 20
640.1018751208501
 30
0.0
 10
181.6774386772043
 20
640.0812437748219
 30
0.0
 10
181.5742813270269
 20
640.070928101808
 30
0.0
 11
181.5742813270269
 21
640.070928101808
 31
0.0
 11
181.2637660892428
 21
640.0063473964276
 31
0.0
 11
180.9648102735459
 21
639.9011457048573
 31
0.0
 11
180.6647072867152
 21
639.7513646947767
 31
0.0
 11
180.3845705613304
 21
639.5675247899998
 31
0.0
 11
180.1055266028601
 21
639.3376084318223
 31
0.0
 11
179.8511093258475
 21
639.0811295641911
 31
0.0
 11
179.6022706737567
 21
638.7790949274408
 31
0.0
 11
179.3800872657297
 21
638.4572194875818
 31
0.0
 11
179.1690626153789
 21
638.0931667707196
 31
0.0
 11
178.985296031838
 21
637.7147945243451
 31
0.0
 11
178.8182339894246
 21
637.3004557908329
 31
0.0
 11
178.6783977486982
 21
636.8762591181319
 31
0.0
 11
178.5599696795138
 21
636.4246608275611
 31
0.0
 11
178.4685377838169
 21
635.9668933431872
 31
0.0
 11
178.4018762349102
 21
635.4919999344298
 31
0.0
 11
178.3620063038766
 21
635.014138565827
 31
0.0
 11
178.3486494318018
 21
634.5304545761215
 31
0.0
 11
178.3620063038766
 21
634.0467705864159
 31
0.0
 11
178.4018762349102
 21
633.5689092178131
 31
0.0
 11
178.4685377838169
 21
633.0940158090557
 31
0.0
 11
178.5599696795139
 21
632.6362483246817
 31
0.0
 11
178.6783977486983
 21
632.184650034111
 31
0.0
 11
178.8182339894248
 21
631.76045336141
 31
0.0
 11
178.985296031838
 21
631.3461146278977
 31
0.0
 11
179.1690626153789
 21
630.9677423815231
 31
0.0
 11
179.3800872657297
 21
630.6036896646608
 31
0.0
 11
179.6022706737568
 21
630.2818142248021
 31
0.0
 11
179.8511093258475
 21
629.9797795880518
 31
0.0
 11
180.1055266028601
 21
629.7233007204204
 31
0.0
 11
180.3845705613304
 21
629.4933843622431
 31
0.0
 11
180.6647072867152
 21
629.3095444574663
 31
0.0
 11
180.9648102735459
 21
629.1597634473856
 31
0.0
 11
181.2637660892428
 21
629.0545617558151
 31
0.0
 11
181.5742813270269
 21
628.9899810504346
 31
0.0
 11
181.8840065389375
 21
628.9683057107994
 31
0.0
 11
182.193731750848
 21
628.9899810504347
 31
0.0
 11
182.5042469886321
 21
629.0545617558153
 31
0.0
 11
182.8032028043291
 21
629.1597634473856
 31
0.0
 11
183.1033057911598
 21
629.309544457466
 31
0.0
 11
183.3834425165446
 21
629.4933843622431
 31
0.0
 11
183.6624864750149
 21
629.7233007204205
 31
0.0
 11
183.9169037520275
 21
629.9797795880518
 31
0.0
 11
184.1657424041182
 21
630.2818142248021
 31
0.0
 11
184.3879258121452
 21
630.6036896646608
 31
0.0
 11
184.5989504624959
 21
630.9677423815231
 31
0.0
 11
184.7827170460369
 21
631.3461146278977
 31
0.0
 11
184.9497790884503
 21
631.7604533614099
 31
0.0
 11
185.0896153291768
 21
632.184650034111
 31
0.0
 11
185.2080433983611
 21
632.6362483246816
 31
0.0
 11
185.299475294058
 21
633.0940158090556
 31
0.0
 11
185.3661368429647
 21
633.568909217813
 31
0.0
 11
185.4060067739983
 21
634.0467705864159
 31
0.0
 11
185.4193636460732
 21
634.5304545761215
 31
0.0
 11
185.4060067739983
 21
635.0141385658269
 31
0.0
 11
185.3661368429647
 21
635.4919999344298
 31
0.0
 11
185.299475294058
 21
635.9668933431872
 31
0.0
 11
185.2080433983611
 21
636.4246608275612
 31
0.0
 11
185.0896153291768
 21
636.8762591181319
 31
0.0
 11
184.9497790884503
 21
637.3004557908328
 31
0.0
 11
184.782717046037
 21
637.7147945243451
 31
0.0
 11
184.5989504624961
 21
638.0931667707197
 31
0.0
 11
184.3879258121453
 21
638.4572194875819
 31
0.0
 11
184.1657424041183
 21
638.7790949274407
 31
0.0
 11
183.9169037520275
 21
639.0811295641911
 31
0.0
 11
183.6624864750149
 21
639.3376084318223
 31
0.0
 11
183.3834425165446
 21
639.5675247899998
 31
0.0
 11
183.1033057911598
 21
639.7513646947768
 31
0.0
 11
182.8032028043291
 21
639.9011457048573
 31
0.0
 11
182.5042469886321
 21
640.0063473964276
 31
0.0
 11
182.193731750848
 21
640.070928101808
 31
0.0
 11
181.8840065389375
 21
640.0926034414432
 31
0.0
 11
181.5742813270269
 21
640.070928101808
 31
0.0
  0
SPLINE
  5
D1
330
40
100
AcDbEntity
  8
1
  6
Continuous
 62
     7
100
AcDbSpline
210
0.0
220
0.0
230
1.0
 70
    11
 71
     3
 72
    79
 73
    75
 74
    73
 42
0.0000000001
 43
0.0000000001
 44
0.00000001
 40
0.0
 40
0.0
 40
0.0
 40
0.0
 40
0.2811775426109088
 40
0.5623408931992655
 40
0.84574666313678
 40
1.129126830422957
 40
1.415908903032493
 40
1.702658539054738
 40
1.993527432940379
 40
2.284362055943468
 40
2.579517800564458
 40
2.874641782101941
 40
3.173769982296816
 40
3.47287212278821
 40
3.775199692337418
 40
4.077508957859715
 40
4.381905225139494
 40
4.686292091405457
 40
4.991400459519056
 40
5.296508827632653
 40
5.600895693898673
 40
5.905291961178458
 40
6.207601226700799
 40
6.509928796250024
 40
6.80903093674138
 40
7.108159136936293
 40
7.403283118473774
 40
7.698438863094756
 40
7.989273486097805
 40
8.280142379983428
 40
8.566892016005658
 40
8.853674088615243
 40
9.137054255901393
 40
9.420460025838962
 40
9.701623376427257
 40
9.982800919038201
 40
10.26319552186837
 40
10.5435901246986
 40
10.82476766730949
 40
11.10593101789784
 40
11.38933678783537
 40
11.67271695512146
 40
11.95949902773101
 40
12.24624866375325
 40
12.53711755763887
 40
12.82795218064202
 40
13.123107925263
 40
13.41823190680049
 40
13.71736010699535
 40
14.01646224748673
 40
14.31878981703601
 40
14.62109908255832
 40
14.92549534983811
 40
15.22988221610406
 40
15.53499058421764
 40
15.84009895233126
 40
16.14448581859728
 40
16.4488820858771
 40
16.75119135139939
 40
17.0535189209486
 40
17.35262106143998
 40
17.65174926163484
 40
17.94687324317233
 40
18.24202898779339
 40
18.53286361079654
 40
18.82373250468212
 40
19.11048214070429
 40
19.3972642133139
 40
19.68064438060003
 40
19.96405015053751
 40
20.2452135011258
 40
20.52639104373673
 40
20.80678564656696
 40
21.08718024939719
 40
21.08718024939719
 40
21.08718024939719
 40
21.08718024939719
 10
185.3352675529204
 20
229.7394336264472
 30
0.0
 10
185.3238164308305
 20
229.8325297015377
 30
0.0
 10
185.3009147646292
 20
230.0187171528313
 30
0.0
 10
185.2328774735804
 20
230.2929546061373
 30
0.0
 10
185.1412553446068
 20
230.5606812734445
 30
0.0
 10
185.0236443568221
 20
230.8202417616126
 30
0.0
 10
184.882426033603
 20
231.0689760539798
 30
0.0
 10
184.7176040628582
 20
231.3057901587704
 30
0.0
 10
184.5315267656934
 20
231.5280485228373
 30
0.0
 10
184.3245019160821
 20
231.7349039099724
 30
0.0
 10
184.099303118368
 20
231.9240177134855
 30
0.0
 10
183.8564382128387
 20
232.0946660976366
 30
0.0
 10
183.5989695818285
 20
232.2449834148863
 30
0.0
 10
183.3276916845571
 20
232.3743067502471
 30
0.0
 10
183.0457385306497
 20
232.4813396776854
 30
0.0
 10
182.7543013772801
 20
232.5654868153472
 30
0.0
 10
182.4563634338224
 20
232.6260313240551
 30
0.0
 10
182.1535977690221
 20
232.6625185207943
 30
0.0
 10
181.8486494318028
 20
232.6747455771454
 30
0.0
 10
181.5437010945779
 20
232.6625185207946
 30
0.0
 10
181.2409354297945
 20
232.626031324054
 30
0.0
 10
180.9429974862749
 20
232.5654868153518
 30
0.0
 10
180.6515603331343
 20
232.4813396776682
 30
0.0
 10
180.3696071783766
 20
232.3743067503109
 30
0.0
 10
180.0983292842455
 20
232.2449834146505
 30
0.0
 10
179.8408606415935
 20
232.0946660985127
 30
0.0
 10
179.5979957789566
 20
231.924017710264
 30
0.0
 10
179.3727968223798
 20
231.7349039219283
 30
0.0
 10
179.1657725573763
 20
231.5280484789402
 30
0.0
 10
178.9796930951923
 20
231.3057903217176
 30
0.0
 10
178.8148790954383
 20
231.0689754553848
 30
0.0
 10
178.6736312270246
 20
230.8202439857427
 30
0.0
 10
178.5561292595705
 20
230.5606730818563
 30
0.0
 10
178.4641023122006
 20
230.2929850905859
 30
0.0
 10
178.3975644845805
 20
230.0186043797028
 30
0.0
 10
178.3576617009679
 20
229.7401133682394
 30
0.0
 10
178.3441495796387
 20
229.4593585318496
 30
0.0
 10
178.3576617009679
 20
229.1786036954596
 30
0.0
 10
178.3975644845805
 20
228.9001126839962
 30
0.0
 10
178.4641023122006
 20
228.6257319731131
 30
0.0
 10
178.5561292595704
 20
228.3580439818427
 30
0.0
 10
178.6736312270245
 20
228.0984730779564
 30
0.0
 10
178.8148790954384
 20
227.8497416083144
 30
0.0
 10
178.9796930951922
 20
227.6129267419814
 30
0.0
 10
179.1657725573764
 20
227.390668584759
 30
0.0
 10
179.3727968223797
 20
227.1838131417706
 30
0.0
 10
179.5979957789566
 20
226.994699353435
 30
0.0
 10
179.8408606415935
 20
226.8240509651862
 30
0.0
 10
180.0983292842455
 20
226.6737336490488
 30
0.0
 10
180.3696071783767
 20
226.5444103133879
 30
0.0
 10
180.6515603331343
 20
226.4373773860309
 30
0.0
 10
180.9429974862749
 20
226.353230248347
 30
0.0
 10
181.2409354297944
 20
226.292685739645
 30
0.0
 10
181.5437010945781
 20
226.2561985429044
 30
0.0
 10
181.8486494318019
 20
226.2439714865536
 30
0.0
 10
182.1535977690253
 20
226.2561985429043
 30
0.0
 10
182.4563634338103
 20
226.2926857396451
 30
0.0
 10
182.7543013773253
 20
226.3532302483468
 30
0.0
 10
183.0457385304823
 20
226.4373773860321
 30
0.0
 10
183.3276916851789
 20
226.5444103133835
 30
0.0
 10
183.5989695795353
 20
226.6737336490658
 30
0.0
 10
183.8564382213526
 20
226.8240509651233
 30
0.0
 10
184.0993030870648
 20
226.994699353666
 30
0.0
 10
184.3245020322518
 20
227.1838131409135
 30
0.0
 10
184.5315263391691
 20
227.3906685879062
 30
0.0
 10
184.7176056461304
 20
227.6129267302989
 30
0.0
 10
184.8824202173712
 20
227.8497416512311
 30
0.0
 10
185.0236659675174
 20
228.0984729184955
 30
0.0
 10
185.1411757512761
 20
228.3580445691456
 30
0.0
 10
185.2331736748495
 20
228.6257297875047
 30
0.0
 10
185.2998190077647
 20
228.9001207693606
 30
0.0
 10
185.3393215937113
 20
229.1785735462484
 30
0.0
 10
185.3543233735289
 20
229.459470703459
 30
0.0
 10
185.3416194931232
 20
229.6461126521177
 30
0.0
 10
185.3352675529204
 20
229.7394336264472
 30
0.0
 11
185.3352675529204
 21
229.7394336264472
 31
0.0
 11
185.2953297434565
 21
230.0177603801809
 31
0.0
 11
185.2291925243174
 21
230.2910344147298
 31
0.0
 11
185.1370387026516
 21
230.5590390855589
 31
0.0
 11
185.0203086513768
 21
230.8172607235766
 31
0.0
 11
184.8787097132149
 21
231.0666473669271
 31
0.0
 11
184.7150321126908
 21
231.3020937447832
 31
0.0
 11
184.5283436391142
 21
231.5251455936074
 31
0.0
 11
184.3227094288433
 21
231.7308136502026
 31
0.0
 11
184.0967152747169
 21
231.9206650549471
 31
0.0
 11
183.8553124655948
 21
232.0904379863186
 31
0.0
 11
183.5970133503714
 21
232.241299668752
 31
0.0
 11
183.3270639389533
 21
232.3700995356835
 31
0.0
 11
183.044430339959
 21
232.4774317676972
 31
0.0
 11
182.7540048258985
 21
232.5613597892595
 31
0.0
 11
182.4557087872576
 21
232.6219944399551
 31
0.0
 11
182.1535132330155
 21
232.6584527908712
 31
0.0
 11
181.8486494318019
 21
232.6706666765158
 31
0.0
 11
181.5437856305883
 21
232.6584527908713
 31
0.0
 11
181.2415900763461
 21
232.6219944399552
 31
0.0
 11
180.9432940377052
 21
232.5613597892595
 31
0.0
 11
180.6528685236447
 21
232.4774317676971
 31
0.0
 11
180.3702349246503
 21
232.3700995356835
 31
0.0
 11
180.1002855132323
 21
232.241299668752
 31
0.0
 11
179.8419863980089
 21
232.0904379863186
 31
0.0
 11
179.6005835888867
 21
231.9206650549471
 31
0.0
 11
179.3745894347603
 21
231.7308136502026
 31
0.0
 11
179.1689552244895
 21
231.5251455936074
 31
0.0
 11
178.9822667509129
 21
231.3020937447832
 31
0.0
 11
178.8185891503888
 21
231.0666473669272
 31
0.0
 11
178.6769902122268
 21
230.8172607235766
 31
0.0
 11
178.5602601609521
 21
230.559039085559
 31
0.0
 11
178.4681063392863
 21
230.2910344147297
 31
0.0
 11
178.4019691201472
 21
230.0177603801809
 31
0.0
 11
178.3620313106833
 21
229.7394336264472
 31
0.0
 11
178.3486494318018
 21
229.4593585318495
 31
0.0
 11
178.3620313106833
 21
229.1792834372518
 31
0.0
 11
178.4019691201472
 21
228.9009566835181
 31
0.0
 11
178.4681063392863
 21
228.6276826489693
 31
0.0
 11
178.5602601609521
 21
228.35967797814
 31
0.0
 11
178.6769902122268
 21
228.1014563401224
 31
0.0
 11
178.8185891503888
 21
227.852069696772
 31
0.0
 11
178.9822667509129
 21
227.6166233189159
 31
0.0
 11
179.1689552244895
 21
227.3935714700917
 31
0.0
 11
179.3745894347603
 21
227.1879034134964
 31
0.0
 11
179.6005835888867
 21
226.9980520087518
 31
0.0
 11
179.8419863980089
 21
226.8282790773804
 31
0.0
 11
180.1002855132323
 21
226.6774173949471
 31
0.0
 11
180.3702349246503
 21
226.5486175280155
 31
0.0
 11
180.6528685236447
 21
226.4412852960018
 31
0.0
 11
180.9432940377052
 21
226.3573572744394
 31
0.0
 11
181.2415900763461
 21
226.2967226237438
 31
0.0
 11
181.5437856305882
 21
226.2602642728277
 31
0.0
 11
181.8486494318018
 21
226.2480503871832
 31
0.0
 11
182.1535132330154
 21
226.2602642728277
 31
0.0
 11
182.4557087872576
 21
226.2967226237438
 31
0.0
 11
182.7540048258986
 21
226.3573572744394
 31
0.0
 11
183.044430339959
 21
226.4412852960019
 31
0.0
 11
183.3270639389533
 21
226.5486175280155
 31
0.0
 11
183.5970133503713
 21
226.6774173949471
 31
0.0
 11
183.8553124655948
 21
226.8282790773804
 31
0.0
 11
184.096715274717
 21
226.9980520087518
 31
0.0
 11
184.3227094288434
 21
227.1879034134964
 31
0.0
 11
184.5283436391142
 21
227.3935714700917
 31
0.0
 11
184.7150321126908
 21
227.6166233189159
 31
0.0
 11
184.8787097132149
 21
227.8520696967719
 31
0.0
 11
185.0203086513769
 21
228.1014563401224
 31
0.0
 11
185.1370387026517
 21
228.35967797814
 31
0.0
 11
185.2291925243175
 21
228.6276826489692
 31
0.0
 11
185.2953297434565
 21
228.900956683518
 31
0.0
 11
185.3352675529204
 21
229.1792834372517
 31
0.0
 11
185.3486494318019
 21
229.4593585318495
 31
0.0
 11
185.3352675529204
 21
229.7394336264472
 31
0.0
  0
SPLINE
  5
D2
330
40
100
AcDbEntity
  8
1
  6
Continuous
 62
     7
100
AcDbSpline
210
0.0
220
0.0
230
1.0
 70
    11
 71
     3
 72
    79
 73
    75
 74
    73
 42
0.0000000001
 43
0.0000000001
 44
0.00000001
 40
0.0
 40
0.0
 40
0.0
 40
0.0
 40
0.2811775426108767
 40
0.562340893199261
 40
0.8457466631367662
 40
1.129126830422877
 40
1.41590890303248
 40
1.702658539054756
 40
1.993527432940321
 40
2.284362055943409
 40
2.579517800564398
 40
2.874641782101879
 40
3.173769982296729
 40
3.472872122788148
 40
3.77519969233742
 40
4.07750895785969
 40
4.381905225139447
 40
4.686292091405473
 40
4.991400459519074
 40
5.296508827632706
 40
5.600895693898679
 40
5.905291961178403
 40
6.207601226700665
 40
6.509928796249949
 40
6.809030936741381
 40
7.108159136936323
 40
7.403283118473797
 40
7.698438863094764
 40
7.989273486097732
 40
8.280142379983321
 40
8.566892016005621
 40
8.853674088615195
 40
9.137054255901308
 40
9.420460025838823
 40
9.701623376427227
 40
9.982800919038139
 40
10.26319552186837
 40
10.54359012469862
 40
10.82476766730946
 40
11.10593101789779
 40
11.38933678783526
 40
11.67271695512135
 40
11.95949902773087
 40
12.24624866375312
 40
12.53711755763873
 40
12.82795218064182
 40
13.12310792526279
 40
13.41823190680031
 40
13.71736010699521
 40
14.0164622474866
 40
14.31878981703585
 40
14.62109908255818
 40
14.92549534983797
 40
15.22988221610398
 40
15.53499058421758
 40
15.84009895233118
 40
16.14448581859717
 40
16.44888208587695
 40
16.75119135139926
 40
17.05351892094847
 40
17.35262106143989
 40
17.65174926163477
 40
17.94687324317222
 40
18.24202898779317
 40
18.53286361079626
 40
18.8237325046818
 40
19.11048214070408
 40
19.39726421331373
 40
19.68064438059986
 40
19.96405015053736
 40
20.24521350112567
 40
20.52639104373658
 40
20.80678564656678
 40
21.08718024939695
 40
21.08718024939695
 40
21.08718024939695
 40
21.08718024939695
 10
185.3352675529204
 20
252.2560941248426
 30
0.0
 10
185.3238164308305
 20
252.349190199933
 30
0.0
 10
185.3009147646293
 20
252.5353776512267
 30
0.0
 10
185.2328774735804
 20
252.8096151045326
 30
0.0
 10
185.1412553446069
 20
253.0773417718398
 30
0.0
 10
185.0236443568221
 20
253.3369022600081
 30
0.0
 10
184.8824260336029
 20
253.5856365523751
 30
0.0
 10
184.7176040628583
 20
253.8224506571658
 30
0.0
 10
184.5315267656934
 20
254.0447090212326
 30
0.0
 10
184.3245019160822
 20
254.2515644083677
 30
0.0
 10
184.0993031183681
 20
254.440678211881
 30
0.0
 10
183.8564382128387
 20
254.6113265960318
 30
0.0
 10
183.5989695818286
 20
254.7616439132817
 30
0.0
 10
183.3276916845571
 20
254.8909672486423
 30
0.0
 10
183.0457385306496
 20
254.9980001760807
 30
0.0
 10
182.75430137728
 20
255.0821473137426
 30
0.0
 10
182.4563634338224
 20
255.1426918224504
 30
0.0
 10
182.153597769022
 20
255.1791790191897
 30
0.0
 10
181.8486494318028
 20
255.191406075541
 30
0.0
 10
181.5437010945778
 20
255.1791790191899
 30
0.0
 10
181.2409354297944
 20
255.1426918224491
 30
0.0
 10
180.942997486275
 20
255.0821473137472
 30
0.0
 10
180.6515603331343
 20
254.9980001760634
 30
0.0
 10
180.3696071783766
 20
254.8909672487064
 30
0.0
 10
180.0983292842454
 20
254.7616439130457
 30
0.0
 10
179.8408606415934
 20
254.6113265969081
 30
0.0
 10
179.5979957789566
 20
254.4406782086591
 30
0.0
 10
179.3727968223798
 20
254.2515644203237
 30
0.0
 10
179.1657725573762
 20
254.0447089773356
 30
0.0
 10
178.9796930951922
 20
253.8224508201131
 30
0.0
 10
178.8148790954385
 20
253.58563595378
 30
0.0
 10
178.6736312270246
 20
253.336904484138
 30
0.0
 10
178.5561292595706
 20
253.0773335802517
 30
0.0
 10
178.4641023122007
 20
252.8096455889813
 30
0.0
 10
178.3975644845805
 20
252.5352648780983
 30
0.0
 10
178.3576617009679
 20
252.2567738666347
 30
0.0
 10
178.3441495796387
 20
251.9760190302449
 30
0.0
 10
178.3576617009679
 20
251.6952641938549
 30
0.0
 10
178.3975644845805
 20
251.4167731823913
 30
0.0
 10
178.4641023122006
 20
251.1423924715084
 30
0.0
 10
178.5561292595705
 20
250.8747044802381
 30
0.0
 10
178.6736312270245
 20
250.6151335763518
 30
0.0
 10
178.8148790954384
 20
250.3664021067097
 30
0.0
 10
178.9796930951922
 20
250.1295872403769
 30
0.0
 10
179.1657725573762
 20
249.9073290831542
 30
0.0
 10
179.3727968223797
 20
249.7004736401661
 30
0.0
 10
179.5979957789567
 20
249.5113598518306
 30
0.0
 10
179.8408606415934
 20
249.3407114635817
 30
0.0
 10
180.0983292842454
 20
249.1903941474442
 30
0.0
 10
180.3696071783766
 20
249.0610708117833
 30
0.0
 10
180.6515603331343
 20
248.9540378844263
 30
0.0
 10
180.9429974862749
 20
248.8698907467424
 30
0.0
 10
181.2409354297944
 20
248.8093462380405
 30
0.0
 10
181.5437010945782
 20
248.7728590412998
 30
0.0
 10
181.8486494318019
 20
248.7606319849491
 30
0.0
 10
182.1535977690253
 20
248.7728590412997
 30
0.0
 10
182.4563634338103
 20
248.8093462380407
 30
0.0
 10
182.7543013773254
 20
248.8698907467422
 30
0.0
 10
183.0457385304823
 20
248.9540378844275
 30
0.0
 10
183.327691685179
 20
249.0610708117789
 30
0.0
 10
183.5989695795352
 20
249.1903941474613
 30
0.0
 10
183.8564382213526
 20
249.3407114635189
 30
0.0
 10
184.0993030870648
 20
249.5113598520615
 30
0.0
 10
184.3245020322518
 20
249.7004736393089
 30
0.0
 10
184.5315263391692
 20
249.9073290863015
 30
0.0
 10
184.7176056461304
 20
250.129587228694
 30
0.0
 10
184.8824202173712
 20
250.3664021496266
 30
0.0
 10
185.0236659675173
 20
250.6151334168908
 30
0.0
 10
185.1411757512759
 20
250.8747050675411
 30
0.0
 10
185.2331736748495
 20
251.1423902859002
 30
0.0
 10
185.2998190077647
 20
251.4167812677562
 30
0.0
 10
185.3393215937113
 20
251.6952340446438
 30
0.0
 10
185.3543233735289
 20
251.9761312018544
 30
0.0
 10
185.3416194931232
 20
252.1627731505132
 30
0.0
 10
185.3352675529204
 20
252.2560941248426
 30
0.0
 11
185.3352675529204
 21
252.2560941248426
 31
0.0
 11
185.2953297434565
 21
252.5344208785762
 31
0.0
 11
185.2291925243174
 21
252.8076949131252
 31
0.0
 11
185.1370387026516
 21
253.0756995839543
 31
0.0
 11
185.0203086513769
 21
253.3339212219719
 31
0.0
 11
184.8787097132148
 21
253.5833078653224
 31
0.0
 11
184.7150321126908
 21
253.8187542431786
 31
0.0
 11
184.5283436391142
 21
254.0418060920028
 31
0.0
 11
184.3227094288434
 21
254.247474148598
 31
0.0
 11
184.0967152747169
 21
254.4373255533424
 31
0.0
 11
183.8553124655948
 21
254.6070984847139
 31
0.0
 11
183.5970133503714
 21
254.7579601671473
 31
0.0
 11
183.3270639389533
 21
254.8867600340788
 31
0.0
 11
183.0444303399589
 21
254.9940922660925
 31
0.0
 11
182.7540048258985
 21
255.0780202876549
 31
0.0
 11
182.4557087872576
 21
255.1386549383505
 31
0.0
 11
182.1535132330154
 21
255.1751132892666
 31
0.0
 11
181.8486494318018
 21
255.1873271749112
 31
0.0
 11
181.5437856305882
 21
255.1751132892666
 31
0.0
 11
181.2415900763461
 21
255.1386549383504
 31
0.0
 11
180.9432940377052
 21
255.0780202876548
 31
0.0
 11
180.6528685236448
 21
254.9940922660925
 31
0.0
 11
180.3702349246503
 21
254.8867600340789
 31
0.0
 11
180.1002855132323
 21
254.7579601671473
 31
0.0
 11
179.8419863980088
 21
254.6070984847138
 31
0.0
 11
179.6005835888867
 21
254.4373255533424
 31
0.0
 11
179.3745894347603
 21
254.2474741485979
 31
0.0
 11
179.1689552244895
 21
254.0418060920029
 31
0.0
 11
178.9822667509129
 21
253.8187542431787
 31
0.0
 11
178.8185891503889
 21
253.5833078653224
 31
0.0
 11
178.6769902122269
 21
253.3339212219719
 31
0.0
 11
178.5602601609522
 21
253.0756995839543
 31
0.0
 11
178.4681063392864
 21
252.8076949131251
 31
0.0
 11
178.4019691201472
 21
252.5344208785762
 31
0.0
 11
178.3620313106833
 21
252.2560941248425
 31
0.0
 11
178.3486494318018
 21
251.9760190302448
 31
0.0
 11
178.3620313106833
 21
251.6959439356471
 31
0.0
 11
178.4019691201472
 21
251.4176171819134
 31
0.0
 11
178.4681063392864
 21
251.1443431473646
 31
0.0
 11
178.5602601609521
 21
250.8763384765354
 31
0.0
 11
178.6769902122268
 21
250.6181168385178
 31
0.0
 11
178.8185891503888
 21
250.3687301951674
 31
0.0
 11
178.9822667509128
 21
250.1332838173112
 31
0.0
 11
179.1689552244894
 21
249.910231968487
 31
0.0
 11
179.3745894347602
 21
249.7045639118918
 31
0.0
 11
179.6005835888867
 21
249.5147125071474
 31
0.0
 11
179.8419863980089
 21
249.3449395757759
 31
0.0
 11
180.1002855132323
 21
249.1940778933425
 31
0.0
 11
180.3702349246503
 21
249.0652780264109
 31
0.0
 11
180.6528685236447
 21
248.9579457943973
 31
0.0
 11
180.9432940377052
 21
248.8740177728349
 31
0.0
 11
181.2415900763461
 21
248.8133831221392
 31
0.0
 11
181.5437856305883
 21
248.7769247712232
 31
0.0
 11
181.8486494318019
 21
248.7647108855786
 31
0.0
 11
182.1535132330155
 21
248.7769247712232
 31
0.0
 11
182.4557087872576
 21
248.8133831221393
 31
0.0
 11
182.7540048258986
 21
248.8740177728349
 31
0.0
 11
183.044430339959
 21
248.9579457943973
 31
0.0
 11
183.3270639389533
 21
249.065278026411
 31
0.0
 11
183.5970133503713
 21
249.1940778933427
 31
0.0
 11
183.8553124655948
 21
249.344939575776
 31
0.0
 11
184.096715274717
 21
249.5147125071474
 31
0.0
 11
184.3227094288434
 21
249.7045639118918
 31
0.0
 11
184.5283436391142
 21
249.910231968487
 31
0.0
 11
184.7150321126908
 21
250.1332838173111
 31
0.0
 11
184.8787097132149
 21
250.3687301951673
 31
0.0
 11
185.0203086513769
 21
250.6181168385179
 31
0.0
 11
185.1370387026516
 21
250.8763384765355
 31
0.0
 11
185.2291925243174
 21
251.1443431473647
 31
0.0
 11
185.2953297434565
 21
251.4176171819135
 31
0.0
 11
185.3352675529204
 21
251.6959439356472
 31
0.0
 11
185.3486494318019
 21
251.9760190302449
 31
0.0
 11
185.3352675529204
 21
252.2560941248426
 31
0.0
  0
SPLINE
  5
D3
330
40
100
AcDbEntity
  8
1
  6
Continuous
 62
     7
100
AcDbSpline
210
0.0
220
0.0
230
1.0
 70
    11
 71
     3
 72
    79
 73
    75
 74
    73
 42
0.0000000001
 43
0.0000000001
 44
0.00000001
 40
0.0
 40
0.0
 40
0.0
 40
0.0
 40
0.3114713439932327
 40
0.6228035292710135
 40
0.9472403639551407
 40
1.271464858045301
 40
1.614803252700134
 40
1.957928915792505
 40
2.323150649724985
 40
2.688197477605003
 40
3.075390759585761
 40
3.462454984676827
 40
3.869243829725749
 40
4.275944688499218
 40
4.698050018426433
 40
5.120101305008016
 40
5.551913313124745
 40
5.98369971491328
 40
6.418825159681668
 40
6.853950604450112
 40
7.285737006238738
 40
7.717549014355546
 40
8.139600300937108
 40
8.561705630864257
 40
8.968406489637726
 40
9.375195334686618
 40
9.762259559777721
 40
10.14945284175846
 40
10.51449966963848
 40
10.87972140357101
 40
11.22284706666337
 40
11.56618546131822
 40
11.89040995540835
 40
12.21484679009248
 40
12.52617897537034
 40
12.83765031936358
 40
13.14443943074729
 40
13.451228542131
 40
13.76269988612425
 40
14.07403207140207
 40
14.39846890608622
 40
14.72269340017632
 40
15.06603179483112
 40
15.40915745792345
 40
15.77437919185603
 40
16.13942601973604
 40
16.52661930171682
 40
16.91368352680786
 40
17.32047237185678
 40
17.72717323063028
 40
18.14927856055744
 40
18.571329847139
 40
19.00314185525575
 40
19.43492825704437
 40
19.87005370181275
 40
20.30517914658114
 40
20.73696554836974
 40
21.16877755648646
 40
21.59082884306802
 40
22.01293417299529
 40
22.41963503176878
 40
22.82642387681765
 40
23.21348810190871
 40
23.60068138388941
 40
23.96572821176948
 40
24.33094994570199
 40
24.67407560879439
 40
25.01741400344924
 40
25.34163849753935
 40
25.66607533222348
 40
25.97740751750131
 40
26.28887886149451
 40
26.59566797287826
 40
26.90245708426197
 40
26.90245708426197
 40
26.90245708426197
 40
26.90245708426197
 10
182.1548270202197
 20
235.737262217999
 30
0.0
 10
182.2574575615809
 20
235.7538479314972
 30
0.0
 10
182.4626727911791
 20
235.7870119483525
 30
0.0
 10
182.7637459467047
 20
235.8859101091099
 30
0.0
 10
183.0559308936669
 20
236.0176923400571
 30
0.0
 10
183.3402995645611
 20
236.1878057832813
 30
0.0
 10
183.610440367256
 20
236.3900744826908
 30
0.0
 10
183.8691618145609
 20
236.6274036719474
 30
0.0
 10
184.1097227093775
 20
236.8929308659852
 30
0.0
 10
184.3351703758313
 20
237.1899761293516
 30
0.0
 10
184.5394908555949
 20
237.5105866221385
 30
0.0
 10
184.7251418650736
 20
237.8581480265092
 30
0.0
 10
184.8874508809428
 20
238.2243236471377
 30
0.0
 10
185.0279637027121
 20
238.6118078866859
 30
0.0
 10
185.1435406510762
 20
239.0127422258563
 30
0.0
 10
185.2348959039862
 20
239.4284269934892
 30
0.0
 10
185.3002750402168
 20
239.8522453551342
 30
0.0
 10
185.339902997699
 20
240.2836060420945
 30
0.0
 10
185.3530394929644
 20
240.7176887810452
 30
0.0
 10
185.3399029976999
 20
241.1517715200079
 30
0.0
 10
185.3002750402133
 20
241.583132206933
 30
0.0
 10
185.2348959039989
 20
242.0069505687057
 30
0.0
 10
185.14354065103
 20
242.4226353358737
 30
0.0
 10
185.0279637028816
 20
242.8235696767496
 30
0.0
 10
184.887450880335
 20
243.2110539101542
 30
0.0
 10
184.7251418672982
 20
243.5772295531677
 30
0.0
 10
184.5394908477367
 20
243.9247908778554
 30
0.0
 10
184.3351704045077
 20
244.2454016593652
 30
0.0
 10
184.1097226091156
 20
244.5424459037704
 30
0.0
 10
183.8691621800928
 20
244.8079767788408
 30
0.0
 10
183.6104390941326
 20
245.0452930182826
 30
0.0
 10
183.3403042170884
 20
245.2476085463918
 30
0.0
 10
183.0559145961956
 20
245.4175564278429
 30
0.0
 10
182.7638058902945
 20
245.54994116982
 30
0.0
 10
182.462459049661
 20
245.6466764764154
 30
0.0
 10
182.1571639464983
 20
245.7041417145722
 30
0.0
 10
181.8486494318016
 20
245.7240929683844
 30
0.0
 10
181.5401349171049
 20
245.7041417145722
 30
0.0
 10
181.2348398139422
 20
245.6466764764154
 30
0.0
 10
180.9334929733088
 20
245.5499411698199
 30
0.0
 10
180.6413842674075
 20
245.4175564278429
 30
0.0
 10
180.3569946465149
 20
245.2476085463917
 30
0.0
 10
180.0868597694705
 20
245.0452930182825
 30
0.0
 10
179.8281366835106
 20
244.8079767788408
 30
0.0
 10
179.5875762544877
 20
244.5424459037702
 30
0.0
 10
179.3621284590958
 20
244.245401659365
 30
0.0
 10
179.1578080158668
 20
243.9247908778552
 30
0.0
 10
178.9721569963051
 20
243.5772295531676
 30
0.0
 10
178.8098479832684
 20
243.211053910154
 30
0.0
 10
178.6693351607217
 20
242.8235696767495
 30
0.0
 10
178.5537582125736
 20
242.4226353358733
 30
0.0
 10
178.4624029596047
 20
242.0069505687055
 30
0.0
 10
178.3970238233902
 20
241.5831322069329
 30
0.0
 10
178.3573958659037
 20
241.1517715200072
 30
0.0
 10
178.3442593706396
 20
240.7176887810469
 30
0.0
 10
178.3573958659038
 20
240.2836060420875
 30
0.0
 10
178.3970238233905
 20
239.8522453551591
 30
0.0
 10
178.462402959604
 20
239.4284269933959
 30
0.0
 10
178.553758212577
 20
239.0127422261948
 30
0.0
 10
178.6693351607098
 20
238.6118078854401
 30
0.0
 10
178.8098479833118
 20
238.2243236515979
 30
0.0
 10
178.9721569961469
 20
237.8581480101793
 30
0.0
 10
179.157808016427
 20
237.5105866798144
 30
0.0
 10
179.3621284570528
 20
237.1899759188759
 30
0.0
 10
179.5875762616315
 20
236.8929316018702
 30
0.0
 10
179.8281366574669
 20
236.627400989071
 30
0.0
 10
180.0868598601801
 20
236.3900838269635
 30
0.0
 10
180.3569943150257
 20
236.1877716353678
 30
0.0
 10
180.6413854285918
 20
236.0178119577515
 30
0.0
 10
180.9334887023687
 20
235.8854701442804
 30
0.0
 10
181.234855042882
 20
235.7885807357793
 30
0.0
 10
181.5400783366168
 20
235.7316829867397
 30
0.0
 10
181.8488570797285
 20
235.7096436122695
 30
0.0
 10
182.052837040056
 20
235.7280560160892
 30
0.0
 10
182.1548270202197
 20
235.737262217999
 30
0.0
 11
182.1548270202197
 21
235.737262217999
 31
0.0
 11
182.4609023684399
 21
235.7949881163532
 31
0.0
 11
182.757525449977
 21
235.8895527878184
 31
0.0
 11
183.0531234248391
 21
236.0232730067729
 31
0.0
 11
183.3317688503952
 21
236.1890386527454
 31
0.0
 11
183.6068434013814
 21
236.3945021401194
 31
0.0
 11
183.8600870016953
 21
236.6260251402137
 31
0.0
 11
184.1056772804747
 21
236.8963440812921
 31
0.0
 11
184.3267320812146
 21
237.1868504695438
 31
0.0
 11
184.5352259036065
 21
237.5131156433449
 31
0.0
 11
184.717889987315
 21
237.8543670856397
 31
0.0
 11
184.8830945441558
 21
238.2260990036334
 31
0.0
 11
185.0219565246651
 21
238.6083593061709
 31
0.0
 11
185.1391551749169
 21
239.0138681050053
 31
0.0
 11
185.2298696355334
 21
239.4260551682912
 31
0.0
 11
185.2958846847669
 21
239.852791179929
 31
0.0
 11
185.3354087346316
 21
240.2827648375544
 31
0.0
 11
185.3486494318019
 21
240.7176887810472
 31
0.0
 11
185.3354087346316
 21
241.1526127245401
 31
0.0
 11
185.2958846847669
 21
241.5825863821656
 31
0.0
 11
185.2298696355334
 21
242.0093223938034
 31
0.0
 11
185.1391551749169
 21
242.4215094570893
 31
0.0
 11
185.021956524665
 21
242.8270182559236
 31
0.0
 11
184.8830945441557
 21
243.2092785584611
 31
0.0
 11
184.7178899873148
 21
243.5810104764548
 31
0.0
 11
184.5352259036063
 21
243.9222619187496
 31
0.0
 11
184.3267320812145
 21
244.2485270925507
 31
0.0
 11
184.1056772804745
 21
244.5390334808024
 31
0.0
 11
183.860087001695
 21
244.8093524218807
 31
0.0
 11
183.6068434013811
 21
245.0408754219749
 31
0.0
 11
183.3317688503949
 21
245.246338909349
 31
0.0
 11
183.0531234248388
 21
245.4121045553214
 31
0.0
 11
182.7575254499766
 21
245.545824774276
 31
0.0
 11
182.4609023684395
 21
245.6403894457411
 31
0.0
 11
182.1548270202193
 21
245.6981153440954
 31
0.0
 11
181.8486494318016
 21
245.7174762122149
 31
0.0
 11
181.5424718433839
 21
245.6981153440954
 31
0.0
 11
181.2363964951637
 21
245.6403894457411
 31
0.0
 11
180.9397734136266
 21
245.5458247742759
 31
0.0
 11
180.6441754387644
 21
245.4121045553214
 31
0.0
 11
180.3655300132083
 21
245.2463389093489
 31
0.0
 11
180.0904554622222
 21
245.0408754219749
 31
0.0
 11
179.8372118619084
 21
244.8093524218806
 31
0.0
 11
179.5916215831289
 21
244.5390334808023
 31
0.0
 11
179.370566782389
 21
244.2485270925505
 31
0.0
 11
179.1620729599971
 21
243.9222619187493
 31
0.0
 11
178.9794088762886
 21
243.5810104764546
 31
0.0
 11
178.8142043194477
 21
243.2092785584609
 31
0.0
 11
178.6753423389384
 21
242.8270182559234
 31
0.0
 11
178.5581436886867
 21
242.421509457089
 31
0.0
 11
178.4674292280702
 21
242.0093223938031
 31
0.0
 11
178.4014141788367
 21
241.5825863821654
 31
0.0
 11
178.3618901289721
 21
241.1526127245398
 31
0.0
 11
178.3486494318019
 21
240.717688781047
 31
0.0
 11
178.3618901289721
 21
240.2827648375542
 31
0.0
 11
178.4014141788368
 21
239.8527911799287
 31
0.0
 11
178.4674292280703
 21
239.426055168291
 31
0.0
 11
178.5581436886868
 21
239.0138681050051
 31
0.0
 11
178.6753423389386
 21
238.6083593061707
 31
0.0
 11
178.8142043194479
 21
238.2260990036331
 31
0.0
 11
178.9794088762888
 21
237.8543670856395
 31
0.0
 11
179.1620729599974
 21
237.5131156433448
 31
0.0
 11
179.3705667823892
 21
237.1868504695437
 31
0.0
 11
179.5916215831291
 21
236.8963440812919
 31
0.0
 11
179.8372118619086
 21
236.6260251402136
 31
0.0
 11
180.0904554622225
 21
236.3945021401194
 31
0.0
 11
180.3655300132087
 21
236.1890386527453
 31
0.0
 11
180.6441754387648
 21
236.0232730067729
 31
0.0
 11
180.9397734136269
 21
235.8895527878183
 31
0.0
 11
181.236396495164
 21
235.7949881163531
 31
0.0
 11
181.5424718433843
 21
235.7372622179989
 31
0.0
 11
181.848649431802
 21
235.7179013498796
 31
0.0
 11
182.1548270202197
 21
235.737262217999
 31
0.0
  0
ENDBLK
  5
42
330
40
100
AcDbEntity
  8
0
100
AcDbBlockEnd
  0
BLOCK
  5
44
330
43
100
AcDbEntity
  8
0
100
AcDbBlockBegin
  2
36-1A-13-M4
 70
     0
 71
     0
 10
98.27952342236557
 20
343.0998147904834
 30
0.0
  3
36-1A-13-M4
  1

  0
LINE
  5
D4
330
43
100
AcDbEntity
  8
1
  6
Continuous
 62
     7
100
AcDbLine
 10
195.3486494318018
 20
235.9676887810471
 30
0.0
 11
192.3486494318018
 21
235.9676887810471
 31
0.0
  0
LINE
  5
D5
330
43
100
AcDbEntity
  8
1
  6
Continuous
 62
     7
100
AcDbLine
 10
192.3486494318018
 20
245.4676887810472
 30
0.0
 11
195.3486494318018
 21
245.4676887810472
 31
0.0
  0
LINE
  5
D6
330
43
100
AcDbEntity
  8
1
  6
Continuous
 62
     7
100
AcDbLine
 10
192.3486494318017
 20
632.7804545761214
 30
0.0
 11
195.348649431802
 21
632.7804545761214
 31
0.0
  0
LINE
  5
D7
330
43
100
AcDbEntity
  8
1
  6
Continuous
 62
     7
100
AcDbLine
 10
195.348649431802
 20
623.2804545761214
 30
0.0
 11
192.3486494318017
 21
623.2804545761214
 31
0.0
  0
ENDBLK
  5
45
330
43
100
AcDbEntity
  8
0
100
AcDbBlockEnd
  0
BLOCK
  5
4A
330
46
100
AcDbEntity
  8
0
100
AcDbBlockBegin
  2
R10A-13
 70
     0
 71
     0
 10
241.8486494318018
 20
195.7176887810471
 30
0.0
  3
R10A-13
  1

  0
INSERT
  5
47
330
46
100
AcDbEntity
  8
0
100
AcDbBlockReference
  2
R20F
 10
250.9471892180193
 20
222.2929144931214
 30
0.0
  0
INSERT
  5
48
330
46
100
AcDbEntity
  8
0
100
AcDbBlockReference
  2
37-1-13
 10
79.35294354165728
 20
332.5189189978182
 30
0.0
  0
INSERT
  5
49
330
46
100
AcDbEntity
  8
0
100
AcDbBlockReference
  2
36-1A-13-M4
 10
98.27952342236557
 20
343.0998147904834
 30
0.0
  0
LINE
  5
D8
330
46
100
AcDbEntity
  8
1
  6
PHANTOM
 62
     4
100
AcDbLine
 10
195.3486494318018
 20
240.7176887810472
 30
0.0
 11
206.3486494318018
 21
240.7176887810472
 31
0.0
  0
ENDBLK
  5
4B
330
46
100
AcDbEntity
  8
0
100
AcDbBlockEnd
  0
BLOCK
  5
4D
330
4C
100
AcDbEntity
  8
0
100
AcDbBlockBegin
  2
A20-0-13
 70
     0
 71
     0
 10
218.8486494318018
 20
217.7176887810471
 30
0.0
  3
A20-0-13
  1

  0
LINE
  5
D9
330
4C
100
AcDbEntity
  8
1
  6
Continuous
 62
     7
100
AcDbLine
 10
517.4889715111103
 20
231.9676887810474
 30
0.0
 11
505.3010165679376
 21
231.9676887810474
 31
0.0
  0
LINE
  5
DA
330
4C
100
AcDbEntity
  8
1
  6
Continuous
 62
     7
100
AcDbLine
 10
472.3753906400032
 20
264.2176887810474
 30
0.0
 11
465.9889715111103
 21
264.2176887810474
 31
0.0
  0
LINE
  5
DB
330
4C
100
AcDbEntity
  8
1
  6
Continuous
 62
     7
100
AcDbLine
 10
525.7210223186792
 20
230.2176887810474
 30
0.0
 11
525.7210223186792
 21
231.2176887810474
 31
0.0
  0
LINE
  5
DC
330
4C
100
AcDbEntity
  8
1
  6
Continuous
 62
     7
100
AcDbLine
 10
536.9889715111103
 20
230.2176887810474
 30
0.0
 11
523.9889715111103
 21
230.2176887810474
 31
0.0
  0
LINE
  5
DD
330
4C
100
AcDbEntity
  8
1
  6
Continuous
 62
     7
100
AcDbLine
 10
523.9889715111103
 20
251.2176887810474
 30
0.0
 11
536.9889715111103
 21
251.2176887810474
 31
0.0
  0
LINE
  5
DE
330
4C
100
AcDbEntity
  8
1
  6
Continuous
 62
     7
100
AcDbLine
 10
537.9889715111103
 20
250.2176887810474
 30
0.0
 11
536.9889715111103
 21
251.2176887810474
 31
0.0
  0
LINE
  5
DF
330
4C
100
AcDbEntity
  8
1
  6
Continuous
 62
     7
100
AcDbLine
 10
525.7210223186792
 20
250.2176887810474
 30
0.0
 11
525.7210223186792
 21
251.2176887810474
 31
0.0
  0
LINE
  5
E0
330
4C
100
AcDbEntity
  8
1
  6
Continuous
 62
     7
100
AcDbLine
 10
536.9889715111103
 20
251.2176887810474
 30
0.0
 11
536.9889715111103
 21
250.2176887810474
 31
0.0
  0
LINE
  5
E1
330
4C
100
AcDbEntity
  8
1
  6
Continuous
 62
     7
100
AcDbLine
 10
536.9889715111103
 20
231.2176887810474
 30
0.0
 11
536.9889715111103
 21
230.2176887810474
 31
0.0
  0
LINE
  5
E2
330
4C
100
AcDbEntity
  8
1
  6
Continuous
 62
     7
100
AcDbLine
 10
536.9889715111103
 20
230.2176887810474
 30
0.0
 11
537.9889715111103
 21
231.2176887810474
 31
0.0
  0
LINE
  5
E3
330
4C
100
AcDbEntity
  8
1
  6
Continuous
 62
     7
100
AcDbLine
 10
537.9889715111103
 20
250.2176887810474
 30
0.0
 11
537.9889715111103
 21
231.2176887810474
 31
0.0
  0
LINE
  5
E4
330
4C
100
AcDbEntity
  8
1
  6
Continuous
 62
     7
100
AcDbLine
 10
491.9889715111103
 20
262.4856379734785
 30
0.0
 11
491.9889715111103
 21
265.7176887810474
 31
0.0
  0
LINE
  5
E5
330
4C
100
AcDbEntity
  8
1
  6
Continuous
 62
     7
100
AcDbLine
 10
491.9889715111103
 20
264.2176887810474
 30
0.0
 11
485.6025523822175
 21
264.2176887810474
 31
0.0
  0
LINE
  5
E6
330
4C
100
AcDbEntity
  8
1
  6
Continuous
 62
     7
100
AcDbLine
 10
465.9889715111103
 20
265.7176887810474
 30
0.0
 11
465.9889715111103
 21
250.0450678341362
 31
0.0
  0
LINE
  5
E7
330
4C
100
AcDbEntity
  8
1
  6
Continuous
 62
     7
100
AcDbLine
 10
491.9889715111103
 20
262.4856379734785
 30
0.0
 11
491.9889715111103
 21
261.4676887810474
 31
0.0
  0
LINE
  5
E8
330
4C
100
AcDbEntity
  8
1
  6
Continuous
 62
     2
100
AcDbLine
 10
466.9889715111103
 20
264.2176887810474
 30
0.0
 11
466.9889715111103
 21
265.7176887810474
 31
0.0
  0
LINE
  5
E9
330
4C
100
AcDbEntity
  8
1
  6
Continuous
 62
     2
100
AcDbLine
 10
466.9889715111103
 20
264.2176887810474
 30
0.0
 11
465.9889715111103
 21
262.4856379734785
 31
0.0
  0
LINE
  5
EA
330
4C
100
AcDbEntity
  8
1
  6
Continuous
 62
     2
100
AcDbLine
 10
491.9889715111103
 20
262.4856379734785
 30
0.0
 11
490.9889715111103
 21
264.2176887810474
 31
0.0
  0
LINE
  5
EB
330
4C
100
AcDbEntity
  8
1
  6
Continuous
 62
     7
100
AcDbLine
 10
521.4889715111103
 20
253.4676887810474
 30
0.0
 11
521.4889715111103
 21
263.2176887810474
 31
0.0
  0
LINE
  5
EC
330
4C
100
AcDbEntity
  8
1
  6
Continuous
 62
     7
100
AcDbLine
 10
517.4889715111103
 20
249.4676887810474
 30
0.0
 11
503.9889715111103
 21
249.4676887810474
 31
0.0
  0
LINE
  5
ED
330
4C
100
AcDbEntity
  8
1
  6
Continuous
 62
     2
100
AcDbLine
 10
525.7210223186792
 20
250.2176887810474
 30
0.0
 11
537.9889715111103
 21
250.2176887810474
 31
0.0
  0
LINE
  5
EE
330
4C
100
AcDbEntity
  8
1
  6
Continuous
 62
     2
100
AcDbLine
 10
523.9889715111103
 20
251.2176887810474
 30
0.0
 11
525.7210223186792
 21
250.2176887810474
 31
0.0
  0
LINE
  5
EF
330
4C
100
AcDbEntity
  8
1
  6
Continuous
 62
     7
100
AcDbLine
 10
523.9889715111103
 20
263.7176887810474
 30
0.0
 11
523.9889715111103
 21
251.2176887810474
 31
0.0
  0
LINE
  5
F0
330
4C
100
AcDbEntity
  8
1
  6
Continuous
 62
     7
100
AcDbLine
 10
523.9889715111103
 20
263.7176887810474
 30
0.0
 11
521.9889715111103
 21
263.7176887810474
 31
0.0
  0
LINE
  5
F1
330
4C
100
AcDbEntity
  8
1
  6
Continuous
 62
     2
100
AcDbLine
 10
537.9889715111103
 20
231.2176887810474
 30
0.0
 11
525.7210223186792
 21
231.2176887810474
 31
0.0
  0
LINE
  5
F2
330
4C
100
AcDbEntity
  8
1
  6
Continuous
 62
     7
100
AcDbLine
 10
521.4889715111103
 20
218.2176887810474
 30
0.0
 11
521.4889715111103
 21
227.9676887810474
 31
0.0
  0
LINE
  5
F3
330
4C
100
AcDbEntity
  8
1
  6
Continuous
 62
     7
100
AcDbLine
 10
521.9889715111103
 20
217.7176887810474
 30
0.0
 11
523.9889715111103
 21
217.7176887810474
 31
0.0
  0
LINE
  5
F4
330
4C
100
AcDbEntity
  8
1
  6
Continuous
 62
     7
100
AcDbLine
 10
523.9889715111103
 20
230.2176887810474
 30
0.0
 11
523.9889715111103
 21
217.7176887810474
 31
0.0
  0
LINE
  5
F5
330
4C
100
AcDbEntity
  8
1
  6
Continuous
 62
     2
100
AcDbLine
 10
525.7210223186792
 20
231.2176887810474
 30
0.0
 11
523.9889715111103
 21
230.2176887810474
 31
0.0
  0
LINE
  5
F6
330
4C
100
AcDbEntity
  8
1
  6
Continuous
 62
     2
100
AcDbLine
 10
490.9889715111103
 20
265.7176887810474
 30
0.0
 11
490.9889715111103
 21
264.2176887810474
 31
0.0
  0
LINE
  5
F7
330
4C
100
AcDbEntity
  8
1
  6
Continuous
 62
     7
100
AcDbLine
 10
521.4889715111103
 20
253.4676887810474
 30
0.0
 11
521.4889715111103
 21
227.9676887810474
 31
0.0
  0
LINE
  5
F8
330
4C
100
AcDbEntity
  8
1
  6
Continuous
 62
     7
100
AcDbLine
 10
523.9889715111103
 20
251.2176887810474
 30
0.0
 11
523.9889715111103
 21
230.2176887810474
 31
0.0
  0
LINE
  5
F9
330
4C
100
AcDbEntity
  8
1
  6
Continuous
 62
     7
100
AcDbLine
 10
525.7210223186792
 20
231.2176887810474
 30
0.0
 11
525.7210223186792
 21
250.2176887810474
 31
0.0
  0
LINE
  5
FA
330
4C
100
AcDbEntity
  8
1
  6
Continuous
 62
     7
100
AcDbLine
 10
536.9889715111103
 20
250.2176887810474
 30
0.0
 11
536.9889715111103
 21
231.2176887810474
 31
0.0
  0
LINE
  5
FB
330
4C
100
AcDbEntity
  8
1
  6
Continuous
 62
     2
100
AcDbLine
 10
143.3486494318023
 20
674.7625053836898
 30
0.0
 11
143.3486494318023
 21
687.030454576121
 31
0.0
  0
LINE
  5
FC
330
4C
100
AcDbEntity
  8
1
  6
Continuous
 62
     2
100
AcDbLine
 10
142.3486494318023
 20
673.030454576121
 30
0.0
 11
143.3486494318023
 21
674.7625053836898
 31
0.0
  0
LINE
  5
FD
330
4C
100
AcDbEntity
  8
1
  6
Continuous
 62
     7
100
AcDbLine
 10
129.8486494318023
 20
673.030454576121
 30
0.0
 11
175.8486494318023
 21
673.030454576121
 31
0.0
  0
LINE
  5
FE
330
4C
100
AcDbEntity
  8
1
  6
Continuous
 62
     7
100
AcDbLine
 10
129.8486494318023
 20
673.030454576121
 30
0.0
 11
129.8486494318023
 21
671.030454576121
 31
0.0
  0
LINE
  5
FF
330
4C
100
AcDbEntity
  8
1
  6
Continuous
 62
     7
100
AcDbLine
 10
175.3486494318023
 20
670.530454576121
 30
0.0
 11
130.3486494318023
 21
670.530454576121
 31
0.0
  0
LINE
  5
100
330
4C
100
AcDbEntity
  8
1
  6
Continuous
 62
     7
100
AcDbLine
 10
144.0986494318023
 20
646.8967605208483
 30
0.0
 11
144.0986494318023
 21
666.530454576121
 31
0.0
  0
LINE
  5
101
330
4C
100
AcDbEntity
  8
1
  6
Continuous
 62
     7
100
AcDbLine
 10
175.8486494318023
 20
671.030454576121
 30
0.0
 11
175.8486494318023
 21
673.030454576121
 31
0.0
  0
LINE
  5
102
330
4C
100
AcDbEntity
  8
1
  6
Continuous
 62
     2
100
AcDbLine
 10
162.3486494318023
 20
674.7625053836898
 30
0.0
 11
163.3486494318023
 21
673.030454576121
 31
0.0
  0
LINE
  5
103
330
4C
100
AcDbEntity
  8
1
  6
Continuous
 62
     2
100
AcDbLine
 10
162.3486494318023
 20
687.030454576121
 30
0.0
 11
162.3486494318023
 21
674.7625053836898
 31
0.0
  0
LINE
  5
104
330
4C
100
AcDbEntity
  8
1
  6
Continuous
 62
     7
100
AcDbLine
 10
161.5986494318023
 20
652.658637334414
 30
0.0
 11
161.5986494318023
 21
666.530454576121
 31
0.0
  0
LINE
  5
105
330
4C
100
AcDbEntity
  8
1
  6
Continuous
 62
     7
100
AcDbLine
 10
163.3486494318023
 20
686.030454576121
 30
0.0
 11
163.3486494318023
 21
673.030454576121
 31
0.0
  0
LINE
  5
106
330
4C
100
AcDbEntity
  8
1
  6
Continuous
 62
     7
100
AcDbLine
 10
163.3486494318023
 20
686.030454576121
 30
0.0
 11
162.3486494318023
 21
687.030454576121
 31
0.0
  0
LINE
  5
107
330
4C
100
AcDbEntity
  8
1
  6
Continuous
 62
     7
100
AcDbLine
 10
163.3486494318023
 20
674.7625053836898
 30
0.0
 11
142.3486494318023
 21
674.7625053836898
 31
0.0
  0
LINE
  5
108
330
4C
100
AcDbEntity
  8
1
  6
Continuous
 62
     7
100
AcDbLine
 10
142.3486494318023
 20
686.030454576121
 30
0.0
 11
163.3486494318023
 21
686.030454576121
 31
0.0
  0
LINE
  5
109
330
4C
100
AcDbEntity
  8
1
  6
Continuous
 62
     7
100
AcDbLine
 10
142.3486494318023
 20
673.030454576121
 30
0.0
 11
142.3486494318023
 21
686.030454576121
 31
0.0
  0
LINE
  5
10A
330
4C
100
AcDbEntity
  8
1
  6
Continuous
 62
     7
100
AcDbLine
 10
143.3486494318023
 20
687.030454576121
 30
0.0
 11
142.3486494318023
 21
686.030454576121
 31
0.0
  0
LINE
  5
10B
330
4C
100
AcDbEntity
  8
1
  6
Continuous
 62
     7
100
AcDbLine
 10
143.3486494318023
 20
687.030454576121
 30
0.0
 11
162.3486494318023
 21
687.030454576121
 31
0.0
  0
LINE
  5
10C
330
4C
100
AcDbEntity
  8
1
  6
Continuous
 62
     7
100
AcDbLine
 10
174.8486494318017
 20
640.0304545761215
 30
0.0
 11
174.8486494318017
 21
640.5397043289444
 31
0.0
  0
LINE
  5
10D
330
4C
100
AcDbEntity
  8
1
  6
Continuous
 62
     7
100
AcDbLine
 10
175.116598624233
 20
640.0304545761215
 30
0.0
 11
174.8486494318017
 21
640.0304545761215
 31
0.0
  0
LINE
  5
10E
330
4C
100
AcDbEntity
  8
1
  6
Continuous
 62
     7
100
AcDbLine
 10
176.8486494318019
 20
640.0304545761215
 30
0.0
 11
175.116598624233
 21
640.0304545761215
 31
0.0
  0
LINE
  5
10F
330
4C
100
AcDbEntity
  8
1
  6
Continuous
 62
     2
100
AcDbLine
 10
176.8486494318019
 20
639.0304545761214
 30
0.0
 11
178.3486494318017
 21
639.0304545761214
 31
0.0
  0
LINE
  5
110
330
4C
100
AcDbEntity
  8
1
  6
Continuous
 62
     2
100
AcDbLine
 10
176.8486494318019
 20
639.0304545761214
 30
0.0
 11
175.116598624233
 21
640.0304545761215
 31
0.0
  0
LINE
  5
111
330
4C
100
AcDbEntity
  8
1
  6
Continuous
 62
     7
100
AcDbLine
 10
176.8486494318019
 20
616.0304545761214
 30
0.0
 11
176.8486494318019
 21
640.0304545761215
 31
0.0
  0
LINE
  5
112
330
4C
100
AcDbEntity
  8
1
  6
Continuous
 62
     2
100
AcDbLine
 10
175.116598624233
 20
616.0304545761214
 30
0.0
 11
176.8486494318019
 21
617.0304545761214
 31
0.0
  0
LINE
  5
113
330
4C
100
AcDbEntity
  8
1
  6
Continuous
 62
     2
100
AcDbLine
 10
176.8486494318019
 20
617.0304545761214
 30
0.0
 11
178.3486494318017
 21
617.0304545761214
 31
0.0
  0
LINE
  5
114
330
4C
100
AcDbEntity
  8
1
  6
Continuous
 62
     7
100
AcDbLine
 10
176.8486494318019
 20
616.0304545761214
 30
0.0
 11
178.3486494318017
 21
616.0304545761214
 31
0.0
  0
LINE
  5
115
330
4C
100
AcDbEntity
  8
1
  6
Continuous
 62
     7
100
AcDbLine
 10
175.116598624233
 20
616.0304545761214
 30
0.0
 11
176.8486494318019
 21
616.0304545761214
 31
0.0
  0
LINE
  5
116
330
4C
100
AcDbEntity
  8
1
  6
Continuous
 62
     7
100
AcDbLine
 10
174.8486494318017
 20
616.0304545761214
 30
0.0
 11
175.116598624233
 21
616.0304545761214
 31
0.0
  0
LINE
  5
117
330
4C
100
AcDbEntity
  8
1
  6
Continuous
 62
     7
100
AcDbLine
 10
174.8486494318017
 20
615.5212048232986
 30
0.0
 11
174.8486494318017
 21
616.0304545761214
 31
0.0
  0
LINE
  5
118
330
4C
100
AcDbEntity
  8
1
  6
Continuous
 62
     7
100
AcDbLine
 10
174.8486494318017
 20
640.0304545761215
 30
0.0
 11
174.8486494318017
 21
616.0304545761214
 31
0.0
  0
LINE
  5
119
330
4C
100
AcDbEntity
  8
1
  6
Continuous
 62
     7
100
AcDbLine
 10
174.8486494318017
 20
640.5397043289444
 30
0.0
 11
172.7489304564185
 21
640.6887594042565
 31
0.0
  0
LINE
  5
11A
330
4C
100
AcDbEntity
  8
1
  6
Continuous
 62
     7
100
AcDbLine
 10
172.0176445235214
 20
615.3202371439281
 30
0.0
 11
174.8486494318017
 21
615.5212048232986
 31
0.0
  0
LINE
  5
11B
330
4C
100
AcDbEntity
  8
1
  6
PHANTOM
 62
     4
100
AcDbLine
 10
133.1891621818156
 20
628.0304545761214
 30
0.0
 11
215.2177849723036
 21
628.0304545761214
 31
0.0
  0
LINE
  5
11C
330
4C
100
AcDbEntity
  8
1
  6
Continuous
 62
     7
100
AcDbLine
 10
178.3486494318017
 20
640.0304545761215
 30
0.0
 11
176.8486494318019
 21
640.0304545761215
 31
0.0
  0
LINE
  5
11D
330
4C
100
AcDbEntity
  8
1
  6
Continuous
 62
     7
100
AcDbLine
 10
160.8486494318017
 20
614.5273713251805
 30
0.0
 11
172.0176445235214
 21
615.3202371439281
 31
0.0
  0
LINE
  5
11E
330
4C
100
AcDbEntity
  8
1
  6
Continuous
 62
     2
100
AcDbLine
 10
164.8486494318018
 20
264.2176887810471
 30
0.0
 11
164.8486494318018
 21
265.7176887810471
 31
0.0
  0
LINE
  5
11F
330
4C
100
AcDbEntity
  8
1
  6
Continuous
 62
     2
100
AcDbLine
 10
165.8486494318018
 20
262.4856379734782
 30
0.0
 11
164.8486494318018
 21
264.2176887810471
 31
0.0
  0
LINE
  5
120
330
4C
100
AcDbEntity
  8
1
  6
Continuous
 62
     7
100
AcDbLine
 10
165.8486494318018
 20
262.4856379734782
 30
0.0
 11
165.8486494318018
 21
261.4676887810471
 31
0.0
  0
LINE
  5
121
330
4C
100
AcDbEntity
  8
1
  6
Continuous
 62
     2
100
AcDbLine
 10
140.8486494318018
 20
264.2176887810471
 30
0.0
 11
139.8486494318018
 21
262.4856379734782
 31
0.0
  0
LINE
  5
122
330
4C
100
AcDbEntity
  8
1
  6
Continuous
 62
     2
100
AcDbLine
 10
140.8486494318018
 20
264.2176887810471
 30
0.0
 11
140.8486494318018
 21
265.7176887810471
 31
0.0
  0
LINE
  5
123
330
4C
100
AcDbEntity
  8
1
  6
Continuous
 62
     7
100
AcDbLine
 10
139.8486494318018
 20
262.4856379734782
 30
0.0
 11
139.8486494318018
 21
259.6913547420575
 31
0.0
  0
LINE
  5
124
330
4C
100
AcDbEntity
  8
1
  6
Continuous
 62
     7
100
AcDbLine
 10
139.8486494318018
 20
262.4856379734782
 30
0.0
 11
139.8486494318018
 21
264.2176887810471
 31
0.0
  0
LINE
  5
125
330
4C
100
AcDbEntity
  8
1
  6
Continuous
 62
     7
100
AcDbLine
 10
139.8486494318018
 20
264.2176887810471
 30
0.0
 11
139.8486494318018
 21
265.7176887810471
 31
0.0
  0
LINE
  5
126
330
4C
100
AcDbEntity
  8
1
  6
Continuous
 62
     7
100
AcDbLine
 10
165.8486494318018
 20
264.2176887810471
 30
0.0
 11
165.8486494318018
 21
262.4856379734782
 31
0.0
  0
LINE
  5
127
330
4C
100
AcDbEntity
  8
1
  6
Continuous
 62
     7
100
AcDbLine
 10
165.8486494318018
 20
264.2176887810471
 30
0.0
 11
139.8486494318018
 21
264.2176887810471
 31
0.0
  0
LINE
  5
128
330
4C
100
AcDbEntity
  8
1
  6
Continuous
 62
     7
100
AcDbLine
 10
174.8486494318018
 20
253.22693853387
 30
0.0
 11
172.0176445235215
 21
253.4279062132404
 31
0.0
  0
LINE
  5
129
330
4C
100
AcDbEntity
  8
1
  6
Continuous
 62
     7
100
AcDbLine
 10
174.8486494318018
 20
252.7176887810472
 30
0.0
 11
174.8486494318018
 21
253.22693853387
 31
0.0
  0
LINE
  5
12A
330
4C
100
AcDbEntity
  8
1
  6
Continuous
 62
     7
100
AcDbLine
 10
175.1165986242329
 20
252.7176887810471
 30
0.0
 11
174.8486494318018
 21
252.7176887810472
 31
0.0
  0
LINE
  5
12B
330
4C
100
AcDbEntity
  8
1
  6
Continuous
 62
     7
100
AcDbLine
 10
176.8486494318018
 20
252.7176887810471
 30
0.0
 11
175.1165986242329
 21
252.7176887810471
 31
0.0
  0
LINE
  5
12C
330
4C
100
AcDbEntity
  8
1
  6
Continuous
 62
     7
100
AcDbLine
 10
178.3486494318018
 20
252.7176887810471
 30
0.0
 11
176.8486494318018
 21
252.7176887810471
 31
0.0
  0
LINE
  5
12D
330
4C
100
AcDbEntity
  8
1
  6
Continuous
 62
     2
100
AcDbLine
 10
176.8486494318018
 20
251.7176887810472
 30
0.0
 11
178.3486494318018
 21
251.7176887810471
 31
0.0
  0
LINE
  5
12E
330
4C
100
AcDbEntity
  8
1
  6
Continuous
 62
     2
100
AcDbLine
 10
176.8486494318018
 20
251.7176887810472
 30
0.0
 11
175.1165986242329
 21
252.7176887810471
 31
0.0
  0
LINE
  5
12F
330
4C
100
AcDbEntity
  8
1
  6
Continuous
 62
     7
100
AcDbLine
 10
176.8486494318018
 20
228.7176887810471
 30
0.0
 11
176.8486494318018
 21
252.7176887810471
 31
0.0
  0
LINE
  5
130
330
4C
100
AcDbEntity
  8
1
  6
Continuous
 62
     2
100
AcDbLine
 10
175.1165986242329
 20
228.7176887810471
 30
0.0
 11
176.8486494318018
 21
229.7176887810471
 31
0.0
  0
LINE
  5
131
330
4C
100
AcDbEntity
  8
1
  6
Continuous
 62
     2
100
AcDbLine
 10
176.8486494318018
 20
229.7176887810471
 30
0.0
 11
178.3486494318018
 21
229.7176887810472
 31
0.0
  0
LINE
  5
132
330
4C
100
AcDbEntity
  8
1
  6
Continuous
 62
     7
100
AcDbLine
 10
176.8486494318018
 20
228.7176887810471
 30
0.0
 11
178.3486494318018
 21
228.7176887810471
 31
0.0
  0
LINE
  5
133
330
4C
100
AcDbEntity
  8
1
  6
Continuous
 62
     7
100
AcDbLine
 10
175.1165986242329
 20
228.7176887810471
 30
0.0
 11
176.8486494318018
 21
228.7176887810471
 31
0.0
  0
LINE
  5
134
330
4C
100
AcDbEntity
  8
1
  6
Continuous
 62
     7
100
AcDbLine
 10
174.8486494318018
 20
228.7176887810471
 30
0.0
 11
175.1165986242329
 21
228.7176887810471
 31
0.0
  0
LINE
  5
135
330
4C
100
AcDbEntity
  8
1
  6
Continuous
 62
     7
100
AcDbLine
 10
174.8486494318018
 20
228.2084390282242
 30
0.0
 11
174.8486494318018
 21
228.7176887810471
 31
0.0
  0
LINE
  5
136
330
4C
100
AcDbEntity
  8
1
  6
Continuous
 62
     7
100
AcDbLine
 10
153.8486494318018
 20
226.7176887810471
 30
0.0
 11
172.0176445235215
 21
228.0074713488538
 31
0.0
  0
LINE
  5
137
330
4C
100
AcDbEntity
  8
1
  6
Continuous
 62
     7
100
AcDbLine
 10
165.8486494318018
 20
261.4676887810471
 30
0.0
 11
165.8486494318018
 21
259.6913547420575
 31
0.0
  0
LINE
  5
138
330
4C
100
AcDbEntity
  8
1
  6
Continuous
 62
     7
100
AcDbLine
 10
172.0176445235215
 20
228.0074713488538
 30
0.0
 11
174.8486494318018
 21
228.2084390282242
 31
0.0
  0
LINE
  5
139
330
4C
100
AcDbEntity
  8
1
  6
Continuous
 62
     7
100
AcDbLine
 10
174.8486494318018
 20
252.7176887810472
 30
0.0
 11
174.8486494318018
 21
228.7176887810471
 31
0.0
  0
LINE
  5
13A
330
4C
100
AcDbEntity
  8
1
  6
Continuous
 62
     7
100
AcDbLine
 10
172.0176445235215
 20
253.4279062132404
 30
0.0
 11
171.4237899441099
 21
253.4700628256712
 31
0.0
  0
LINE
  5
13B
330
4C
100
AcDbEntity
  8
1
  6
Continuous
 62
     7
100
AcDbLine
 10
139.8486494318018
 20
259.6913547420575
 30
0.0
 11
139.8486494318018
 21
240.7176887810472
 31
0.0
  0
LINE
  5
13C
330
4C
100
AcDbEntity
  8
1
  6
Continuous
 62
     7
100
AcDbLine
 10
165.8486494318018
 20
259.6913547420575
 30
0.0
 11
165.8486494318018
 21
259.4550017907499
 31
0.0
  0
LINE
  5
13D
330
4C
100
AcDbEntity
  8
1
  6
Continuous
 62
     7
100
AcDbLine
 10
166.5395506391672
 20
254.2193046393273
 30
0.0
 11
154.7550773948795
 21
242.5977591744491
 31
0.0
  0
LINE
  5
13E
330
4C
100
AcDbEntity
  8
1
  6
Continuous
 62
     7
100
AcDbLine
 10
165.8486494318018
 20
265.7176887810472
 30
0.0
 11
165.8486494318018
 21
264.2176887810471
 31
0.0
  0
ARC
  5
13F
330
4C
100
AcDbEntity
  8
1
  6
Continuous
 62
     7
100
AcDbCircle
 10
478.9889715111103
 20
240.7176887810474
 30
0.0
 40
14.00000000000001
100
AcDbArc
 50
-97.13387664333096
 51
-82.8711740784791
  0
ARC
  5
140
330
4C
100
AcDbEntity
  8
1
  6
Continuous
 62
     7
100
AcDbCircle
 10
503.9889715111103
 20
261.4676887810474
 30
0.0
 40
12.0
100
AcDbArc
 50
180.0
 51
-90.0
  0
ARC
  5
141
330
4C
100
AcDbEntity
  8
1
  6
Continuous
 62
     7
100
AcDbCircle
 10
435.9889715111103
 20
250.0450678341362
 30
0.0
 40
29.99999999999998
100
AcDbArc
 50
-8.8331983696776
 51
0.0
  0
ARC
  5
142
330
4C
100
AcDbEntity
  8
1
  6
Continuous
 62
     7
100
AcDbCircle
 10
152.8486494318018
 20
240.7176887810472
 30
0.0
 40
23.00000000000003
100
AcDbArc
 50
124.4173887104415
 51
-33.54681501581432
  0
ARC
  5
143
330
4C
100
AcDbEntity
  8
1
  6
Continuous
 62
     7
100
AcDbCircle
 10
153.8486494318018
 20
240.7176887810471
 30
0.0
 40
14.0
100
AcDbArc
 50
179.9999999999996
 51
-90.0
  0
ARC
  5
144
330
4C
100
AcDbEntity
  8
1
  6
Continuous
 62
     7
100
AcDbCircle
 10
152.8486494318018
 20
240.7176887810472
 30
0.0
 40
23.00000000000005
100
AcDbArc
 50
33.54681501581391
 51
55.58261128955849
  0
ARC
  5
145
330
4C
100
AcDbEntity
  8
1
  6
Continuous
 62
     7
100
AcDbCircle
 10
521.9889715111103
 20
263.2176887810474
 30
0.0
 40
0.5
100
AcDbArc
 50
90.0
 51
180.0
  0
ARC
  5
146
330
4C
100
AcDbEntity
  8
1
  6
Continuous
 62
     7
100
AcDbCircle
 10
517.4889715111103
 20
253.4676887810474
 30
0.0
 40
4.0
100
AcDbArc
 50
-90.0
 51
0.0
  0
ARC
  5
147
330
4C
100
AcDbEntity
  8
1
  6
Continuous
 62
     7
100
AcDbCircle
 10
521.9889715111103
 20
218.2176887810474
 30
0.0
 40
0.5
100
AcDbArc
 50
180.0
 51
-90.0
  0
ARC
  5
148
330
4C
100
AcDbEntity
  8
1
  6
Continuous
 62
     7
100
AcDbCircle
 10
517.4889715111103
 20
227.9676887810474
 30
0.0
 40
4.0
100
AcDbArc
 50
0.0
 51
90.0
  0
ARC
  5
149
330
4C
100
AcDbEntity
  8
1
  6
Continuous
 62
     7
100
AcDbCircle
 10
140.0986494318023
 20
666.530454576121
 30
0.0
 40
4.0
100
AcDbArc
 50
0.0
 51
90.0
  0
ARC
  5
14A
330
4C
100
AcDbEntity
  8
1
  6
Continuous
 62
     7
100
AcDbCircle
 10
165.5986494318023
 20
666.530454576121
 30
0.0
 40
4.0
100
AcDbArc
 50
90.0
 51
180.0
  0
ARC
  5
14B
330
4C
100
AcDbEntity
  8
1
  6
Continuous
 62
     7
100
AcDbCircle
 10
175.3486494318023
 20
671.030454576121
 30
0.0
 40
0.5
100
AcDbArc
 50
-90.0
 51
0.0
  0
ARC
  5
14C
330
4C
100
AcDbEntity
  8
1
  6
Continuous
 62
     7
100
AcDbCircle
 10
130.3486494318023
 20
671.030454576121
 30
0.0
 40
0.5
100
AcDbArc
 50
180.0
 51
-90.0
  0
ARC
  5
14D
330
4C
100
AcDbEntity
  8
1
  6
Continuous
 62
     7
100
AcDbCircle
 10
114.0986494318023
 20
646.8967605208484
 30
0.0
 40
29.9999999999999
100
AcDbArc
 50
-15.10263691918611
 51
-0.00000000000022
  0
ARC
  5
14E
330
4C
100
AcDbEntity
  8
1
  6
Continuous
 62
     7
100
AcDbCircle
 10
173.5986494318023
 20
652.658637334414
 30
0.0
 40
12.0
100
AcDbArc
 50
180.0
 51
-94.06050734864745
  0
ARC
  5
14F
330
4C
100
AcDbEntity
  8
1
  6
Continuous
 62
     7
100
AcDbCircle
 10
171.8486494318018
 20
259.45500179075
 30
0.0
 40
6.0
100
AcDbArc
 50
-179.9999999999995
 51
-94.06050734864729
  0
ENDBLK
  5
4E
330
4C
100
AcDbEntity
  8
0
100
AcDbBlockEnd
  0
BLOCK
  5
50
330
4F
100
AcDbEntity
  8
0
100
AcDbBlockBegin
  2
32-1-16
 70
     0
 71
     0
 10
266.6359275383104
 20
498.7526000236508
 30
0.0
  3
32-1-16
  1

  0
LINE
  5
150
330
4F
100
AcDbEntity
  8
1
  6
Continuous
 62
     7
100
AcDbLine
 10
468.3549969148947
 20
274.7176887810474
 30
0.0
 11
489.622946107326
 21
274.7176887810474
 31
0.0
  0
LINE
  5
151
330
4F
100
AcDbEntity
  8
1
  6
Continuous
 62
     7
100
AcDbLine
 10
492.9889715111104
 20
273.4308660307604
 30
0.0
 11
492.9889715111104
 21
266.2894376022176
 31
0.0
  0
LINE
  5
152
330
4F
100
AcDbEntity
  8
1
  6
Continuous
 62
     7
100
AcDbLine
 10
464.9889715111104
 20
266.2894376022175
 30
0.0
 11
464.9889715111104
 21
273.4308660307605
 31
0.0
  0
LINE
  5
153
330
4F
100
AcDbEntity
  8
1
  6
Continuous
 62
     7
100
AcDbLine
 10
488.7569207035415
 20
275.7176887810473
 30
0.0
 11
469.2210223186793
 21
275.7176887810473
 31
0.0
  0
LINE
  5
154
330
4F
100
AcDbEntity
  8
1
  6
Continuous
 62
     7
100
AcDbLine
 10
492.2889715111104
 20
265.7176887810474
 30
0.0
 11
485.468577786002
 21
265.7176887810474
 31
0.0
  0
LINE
  5
155
330
4F
100
AcDbEntity
  8
1
  6
Continuous
 62
     7
100
AcDbLine
 10
467.4309504493798
 20
274.7176887810473
 30
0.0
 11
467.4889715111104
 21
274.7176887810474
 31
0.0
  0
LINE
  5
156
330
4F
100
AcDbEntity
  8
1
  6
Continuous
 62
     7
100
AcDbLine
 10
465.8019715111104
 20
265.7176887810474
 30
0.0
 11
465.6889715111104
 21
265.7176887810474
 31
0.0
  0
LINE
  5
157
330
4F
100
AcDbEntity
  8
1
  6
Continuous
 62
     7
100
AcDbLine
 10
490.4889715111104
 20
274.7176887810474
 30
0.0
 11
490.546992572841
 21
274.7176887810474
 31
0.0
  0
LINE
  5
158
330
4F
100
AcDbEntity
  8
1
  6
Continuous
 62
     7
100
AcDbLine
 10
472.5093652362187
 20
265.7176887810473
 30
0.0
 11
465.6889715111104
 21
265.7176887810474
 31
0.0
  0
LINE
  5
159
330
4F
100
AcDbEntity
  8
1
  6
Continuous
 62
     7
100
AcDbLine
 10
137.3982601049074
 20
626.791313887023
 30
0.0
 11
144.0503274527322
 21
615.2695952652201
 31
0.0
  0
LINE
  5
15A
330
4F
100
AcDbEntity
  8
1
  6
Continuous
 62
     7
100
AcDbLine
 10
144.0503274527322
 20
640.791313887023
 30
0.0
 11
137.3982601049074
 21
629.2695952652201
 31
0.0
  0
LINE
  5
15B
330
4F
100
AcDbEntity
  8
1
  6
Continuous
 62
     7
100
AcDbLine
 10
152.8486494318018
 20
275.7176887810473
 30
0.0
 11
143.0807002393706
 21
275.7176887810472
 31
0.0
  0
LINE
  5
15C
330
4F
100
AcDbEntity
  8
1
  6
Continuous
 62
     7
100
AcDbLine
 10
152.8486494318018
 20
265.7176887810471
 30
0.0
 11
166.1486494318018
 21
265.7176887810472
 31
0.0
  0
LINE
  5
15D
330
4F
100
AcDbEntity
  8
1
  6
Continuous
 62
     7
100
AcDbLine
 10
166.1486494318018
 20
265.7176887810472
 30
0.0
 11
166.0356494318018
 21
265.7176887810472
 31
0.0
  0
LINE
  5
15E
330
4F
100
AcDbEntity
  8
1
  6
Continuous
 62
     7
100
AcDbLine
 10
164.3486494318018
 20
274.7176887810472
 30
0.0
 11
164.4066704935324
 21
274.7176887810472
 31
0.0
  0
LINE
  5
15F
330
4F
100
AcDbEntity
  8
1
  6
Continuous
 62
     7
100
AcDbLine
 10
162.616598624233
 20
275.7176887810471
 30
0.0
 11
152.8486494318018
 21
275.7176887810473
 31
0.0
  0
LINE
  5
160
330
4F
100
AcDbEntity
  8
1
  6
Continuous
 62
     7
100
AcDbLine
 10
161.6469714108714
 20
615.2695952652201
 30
0.0
 11
168.2990387586963
 21
626.791313887023
 31
0.0
  0
LINE
  5
161
330
4F
100
AcDbEntity
  8
1
  6
Continuous
 62
     7
100
AcDbLine
 10
168.2990387586963
 20
629.2695952652201
 30
0.0
 11
161.6469714108714
 21
640.791313887023
 31
0.0
  0
LINE
  5
162
330
4F
100
AcDbEntity
  8
1
  6
Continuous
 62
     7
100
AcDbLine
 10
159.5007167796268
 20
642.0304545761215
 30
0.0
 11
146.1965820839767
 21
642.0304545761215
 31
0.0
  0
LINE
  5
163
330
4F
100
AcDbEntity
  8
1
  6
Continuous
 62
     7
100
AcDbLine
 10
139.5486494318019
 20
265.7176887810472
 30
0.0
 11
152.8486494318018
 21
265.7176887810471
 31
0.0
  0
LINE
  5
164
330
4F
100
AcDbEntity
  8
1
  6
Continuous
 62
     7
100
AcDbLine
 10
139.6616494318019
 20
265.7176887810472
 30
0.0
 11
139.5486494318019
 21
265.7176887810472
 31
0.0
  0
LINE
  5
165
330
4F
100
AcDbEntity
  8
1
  6
Continuous
 62
     7
100
AcDbLine
 10
141.2906283700713
 20
274.7176887810472
 30
0.0
 11
141.3486494318018
 21
274.7176887810472
 31
0.0
  0
LINE
  5
166
330
4F
100
AcDbEntity
  8
1
  6
Continuous
 62
     7
100
AcDbLine
 10
142.2146748355863
 20
274.7176887810474
 30
0.0
 11
163.4826240280175
 21
274.7176887810474
 31
0.0
  0
ARC
  5
167
330
4F
100
AcDbEntity
  8
1
  6
Continuous
 62
     7
100
AcDbCircle
 10
489.4889715111104
 20
269.860151816489
 30
0.0
 40
5.000000000000017
100
AcDbArc
 50
-55.94420225743207
 51
-45.57299599919402
  0
ARC
  5
168
330
4F
100
AcDbEntity
  8
1
  6
Continuous
 62
     7
100
AcDbCircle
 10
468.4889715111104
 20
269.860151816489
 30
0.0
 40
5.000000000000094
100
AcDbArc
 50
105.3375576695538
 51
134.4270040008051
  0
ARC
  5
169
330
4F
100
AcDbEntity
  8
1
  6
Continuous
 62
     7
100
AcDbCircle
 10
468.4889715111104
 20
269.860151816489
 30
0.0
 40
5.000000000000057
100
AcDbArc
 50
-134.4270040008051
 51
-124.0557977425674
  0
ARC
  5
16A
330
4F
100
AcDbEntity
  8
1
  6
Continuous
 62
     7
100
AcDbCircle
 10
489.4889715111104
 20
269.860151816489
 30
0.0
 40
4.999999999999975
100
AcDbArc
 50
45.57299599919402
 51
74.66244233044561
  0
ARC
  5
16B
330
4F
100
AcDbEntity
  8
1
  6
Continuous
 62
     7
100
AcDbCircle
 10
152.8486494318018
 20
628.0304545761217
 30
0.0
 40
10.76794919243105
100
AcDbArc
 50
90.00000000000046
 51
-137.9829399353521
  0
ARC
  5
16C
330
4F
100
AcDbEntity
  8
1
  6
Continuous
 62
     7
100
AcDbCircle
 10
152.8486494318018
 20
628.0304545761217
 30
0.0
 40
10.76794919243111
100
AcDbArc
 50
-42.01706006464848
 51
90.00000000000046
  0
ARC
  5
16D
330
4F
100
AcDbEntity
  8
1
  6
Continuous
 62
     7
100
AcDbCircle
 10
152.8486494318018
 20
628.0304545761217
 30
0.0
 40
15.49999999999969
100
AcDbArc
 50
-179.9999999999992
 51
-175.4146209151604
  0
ARC
  5
16E
330
4F
100
AcDbEntity
  8
1
  6
Continuous
 62
     7
100
AcDbCircle
 10
152.8486494318018
 20
628.0304545761217
 30
0.0
 40
15.50000000000004
100
AcDbArc
 50
-124.5853790848387
 51
-121.072950972153
  0
ARC
  5
16F
330
4F
100
AcDbEntity
  8
1
  6
Continuous
 62
     7
100
AcDbCircle
 10
152.8486494318018
 20
628.0304545761217
 30
0.0
 40
15.49999999999973
100
AcDbArc
 50
175.4146209151612
 51
-179.9999999999992
  0
ARC
  5
170
330
4F
100
AcDbEntity
  8
1
  6
Continuous
 62
     7
100
AcDbCircle
 10
152.8486494318018
 20
628.0304545761217
 30
0.0
 40
15.49999999999992
100
AcDbArc
 50
115.4146209151614
 51
124.5853790848392
  0
ARC
  5
171
330
4F
100
AcDbEntity
  8
1
  6
Continuous
 62
     7
100
AcDbCircle
 10
163.3486494318018
 20
269.8601518164888
 30
0.0
 40
5.000000000000017
100
AcDbArc
 50
-55.94420225743207
 51
74.66244233044684
  0
ARC
  5
172
330
4F
100
AcDbEntity
  8
1
  6
Continuous
 62
     7
100
AcDbCircle
 10
152.8486494318018
 20
628.0304545761217
 30
0.0
 40
15.49999999999986
100
AcDbArc
 50
-4.58537908483961
 51
-0.00000000000084
  0
ARC
  5
173
330
4F
100
AcDbEntity
  8
1
  6
Continuous
 62
     7
100
AcDbCircle
 10
152.8486494318018
 20
628.0304545761217
 30
0.0
 40
15.49999999999995
100
AcDbArc
 50
-58.92704902784693
 51
-55.41462091516118
  0
ARC
  5
174
330
4F
100
AcDbEntity
  8
1
  6
Continuous
 62
     7
100
AcDbCircle
 10
152.8486494318018
 20
628.0304545761217
 30
0.0
 40
15.4999999999998
100
AcDbArc
 50
-0.00000000000084
 51
4.58537908483877
  0
ARC
  5
175
330
4F
100
AcDbEntity
  8
1
  6
Continuous
 62
     7
100
AcDbCircle
 10
152.8486494318018
 20
628.0304545761217
 30
0.0
 40
15.49999999999987
100
AcDbArc
 50
55.4146209151607
 51
64.58537908483893
  0
ARC
  5
176
330
4F
100
AcDbEntity
  8
1
  6
Continuous
 62
     7
100
AcDbCircle
 10
142.3486494318018
 20
269.8601518164888
 30
0.0
 40
4.999999999999985
100
AcDbArc
 50
105.3375576695541
 51
-124.0557977425669
  0
SPLINE
  5
177
330
4F
100
AcDbEntity
  8
1
  6
Continuous
 62
     7
100
AcDbSpline
210
0.0
220
0.0
230
1.0
 70
     8
 71
     3
 72
    35
 73
    31
 74
    29
 42
0.0000000001
 43
0.0000000001
 44
0.00000001
 40
0.0
 40
0.0
 40
0.0
 40
0.0
 40
0.8673459349150428
 40
1.728953126560634
 40
2.692183797234464
 40
3.660546091348612
 40
4.162115463308998
 40
4.662703892976619
 40
5.654540569831452
 40
6.647874872103565
 40
7.570089255249981
 40
8.491917096104189
 40
9.294242431892666
 40
10.09681760841128
 40
10.77964060721446
 40
11.45726237541943
 40
11.77113150185472
 40
12.08503392924577
 40
12.7231257207782
 40
13.36530103162708
 40
14.10211462481138
 40
14.84078219882391
 40
15.70714763623094
 40
16.57293386032127
 40
17.53816493973471
 40
18.50348933619999
 40
19.00491876307915
 40
19.50575789490893
 40
19.84605227129172
 40
20.18654343815166
 40
20.18654343815166
 40
20.18654343815166
 40
20.18654343815166
 10
481.5758972484042
 20
272.1553626711542
 30
0.0
 10
481.8248384238845
 20
272.302352094214
 30
0.0
 10
482.3210736702264
 20
272.5953583934775
 30
0.0
 10
483.130443379373
 20
272.9891691077346
 30
0.0
 10
484.0295754194315
 20
273.2479206728338
 30
0.0
 10
484.8331057951591
 20
273.3679720859615
 30
0.0
 10
485.4880188081255
 20
273.4207643527109
 30
0.0
 10
486.1526714490215
 20
273.4402368880479
 30
0.0
 10
486.9819307734031
 20
273.396803589062
 30
0.0
 10
487.9400669597892
 20
273.2383093826668
 30
0.0
 10
488.8519785918278
 20
272.979487407302
 30
0.0
 10
489.6654940260893
 20
272.6313489612923
 30
0.0
 10
490.3896851564894
 20
272.1956450846302
 30
0.0
 10
490.9690875249424
 20
271.6918834903817
 30
0.0
 10
491.4101888769787
 20
271.1157962684155
 30
0.0
 10
491.6435923820955
 20
270.6010187781565
 30
0.0
 10
491.7353959342837
 20
270.1743526651401
 30
0.0
 10
491.7654723632614
 20
269.7520290984023
 30
0.0
 10
491.6810732232926
 20
269.2196363329322
 30
0.0
 10
491.4112291223709
 20
268.5971207695376
 30
0.0
 10
490.9758159405606
 20
268.0325580266384
 30
0.0
 10
490.3802496713172
 20
267.5223495802763
 30
0.0
 10
489.6742640628549
 20
267.0913964439295
 30
0.0
 10
488.8444460712026
 20
266.7387368320605
 30
0.0
 10
487.9456737773496
 20
266.4830045877682
 30
0.0
 10
487.1439099811488
 20
266.3524111933201
 30
0.0
 10
486.490161180505
 20
266.2968770548683
 30
0.0
 10
486.0424425711507
 20
266.2853432120103
 30
0.0
 10
485.6486611604881
 20
266.2968801173509
 30
0.0
 10
485.4220331209788
 20
266.3085667516796
 30
0.0
 10
485.3086863462397
 20
266.3144117579358
 30
0.0
 11
481.5758972484042
 21
272.1553626711542
 31
0.0
 11
482.3286478786312
 21
272.5862402169913
 31
0.0
 11
483.1085418556597
 21
272.9524810357021
 31
0.0
 11
484.0319299543875
 21
273.2266484007453
 31
0.0
 11
484.9886087899768
 21
273.3766188584942
 31
0.0
 11
485.4885887839885
 21
273.4165167340873
 31
0.0
 11
485.9889715111105
 21
273.4308660307605
 31
0.0
 11
486.9794234659115
 21
273.3784740582323
 31
0.0
 11
487.959301438304
 21
273.2155256145752
 31
0.0
 11
488.8456532552635
 21
272.9608496929517
 31
0.0
 11
489.6919804973052
 21
272.5954775982976
 31
0.0
 11
490.3762383500667
 21
272.1765299459801
 31
0.0
 11
490.9780220219792
 21
271.6455089236247
 31
0.0
 11
491.3891354150766
 21
271.1003181077533
 31
0.0
 11
491.6623104244987
 21
270.4801998327666
 31
0.0
 11
491.7280860496475
 21
270.1733001819595
 31
0.0
 11
491.7498308220119
 21
269.860151816489
 31
0.0
 11
491.6555809186222
 21
269.229059041905
 31
0.0
 11
491.4024084949503
 21
268.6388956291489
 31
0.0
 11
490.958276821555
 21
268.050982941934
 31
0.0
 11
490.4020457738167
 21
267.5649409618237
 31
0.0
 11
489.664604858584
 21
267.1102213034911
 31
0.0
 11
488.8694011665612
 21
266.7678225972757
 31
0.0
 11
487.9417153284381
 21
266.5012329830528
 31
0.0
 11
486.9893342322441
 21
266.3436847744836
 31
0.0
 11
486.4896583997963
 21
266.3017856980264
 31
0.0
 11
485.9889715111105
 21
266.2894376022176
 31
0.0
 11
485.6487883602076
 21
266.2981373975916
 31
0.0
 11
485.3086863462397
 21
266.3144117579358
 31
0.0
  0
SPLINE
  5
178
330
4F
100
AcDbEntity
  8
1
  6
Continuous
 62
     7
100
AcDbSpline
210
0.0
220
0.0
230
1.0
 70
     8
 71
     3
 72
    35
 73
    31
 74
    29
 42
0.0000000001
 43
0.0000000001
 44
0.00000001
 40
0.0
 40
0.0
 40
0.0
 40
0.0
 40
0.8673459349151486
 40
1.728953126560689
 40
2.692183797234431
 40
3.660546091348618
 40
4.162115463309061
 40
4.662703892976568
 40
5.654540569831401
 40
6.647874872103458
 40
7.570089255249929
 40
8.491917096104187
 40
9.294242431892645
 40
10.09681760841126
 40
10.77964060721448
 40
11.45726237541945
 40
11.77113150185472
 40
12.08503392924578
 40
12.72312572077827
 40
13.36530103162709
 40
14.10211462481136
 40
14.84078219882393
 40
15.70714763623101
 40
16.57293386032129
 40
17.53816493973478
 40
18.50348933620013
 40
19.00491876307929
 40
19.505757894909
 40
19.84605227129169
 40
20.18654343815179
 40
20.18654343815179
 40
20.18654343815179
 40
20.18654343815179
 10
476.4020457738166
 20
272.1553626711543
 30
0.0
 10
476.1531045983362
 20
272.3023520942141
 30
0.0
 10
475.6568693519945
 20
272.5953583934777
 30
0.0
 10
474.8474996428478
 20
272.9891691077349
 30
0.0
 10
473.9483676027893
 20
273.247920672834
 30
0.0
 10
473.1448372270617
 20
273.3679720859615
 30
0.0
 10
472.4899242140955
 20
273.4207643527109
 30
0.0
 10
471.8252715731992
 20
273.440236888048
 30
0.0
 10
470.9960122488178
 20
273.396803589062
 30
0.0
 10
470.0378760624317
 20
273.2383093826669
 30
0.0
 10
469.1259644303933
 20
272.979487407302
 30
0.0
 10
468.3124489961314
 20
272.6313489612924
 30
0.0
 10
467.5882578657315
 20
272.1956450846301
 30
0.0
 10
467.0088554972783
 20
271.6918834903817
 30
0.0
 10
466.5677541452423
 20
271.1157962684155
 30
0.0
 10
466.3343506401252
 20
270.6010187781565
 30
0.0
 10
466.2425470879372
 20
270.1743526651403
 30
0.0
 10
466.2124706589593
 20
269.7520290984022
 30
0.0
 10
466.296869798928
 20
269.2196363329322
 30
0.0
 10
466.5667138998501
 20
268.5971207695376
 30
0.0
 10
467.0021270816603
 20
268.0325580266383
 30
0.0
 10
467.5976933509035
 20
267.5223495802763
 30
0.0
 10
468.3036789593658
 20
267.0913964439295
 30
0.0
 10
469.1334969510182
 20
266.7387368320605
 30
0.0
 10
470.0322692448714
 20
266.4830045877682
 30
0.0
 10
470.8340330410721
 20
266.3524111933201
 30
0.0
 10
471.487781841716
 20
266.2968770548683
 30
0.0
 10
471.9355004510699
 20
266.2853432120104
 30
0.0
 10
472.329281861733
 20
266.2968801173508
 30
0.0
 10
472.5559099012421
 20
266.3085667516797
 30
0.0
 10
472.6692566759812
 20
266.3144117579358
 30
0.0
 11
476.4020457738166
 21
272.1553626711543
 31
0.0
 11
475.6492951435896
 21
272.5862402169915
 31
0.0
 11
474.8694011665611
 21
272.9524810357023
 31
0.0
 11
473.9460130678334
 21
273.2266484007454
 31
0.0
 11
472.989334232244
 21
273.3766188584942
 31
0.0
 11
472.4893542382323
 21
273.4165167340873
 31
0.0
 11
471.9889715111104
 21
273.4308660307605
 31
0.0
 11
470.9985195563094
 21
273.3784740582323
 31
0.0
 11
470.0186415839169
 21
273.2155256145752
 31
0.0
 11
469.1322897669574
 21
272.9608496929517
 31
0.0
 11
468.2859625249156
 21
272.5954775982976
 31
0.0
 11
467.6017046721541
 21
272.1765299459801
 31
0.0
 11
466.9999210002416
 21
271.6455089236247
 31
0.0
 11
466.5888076071442
 21
271.1003181077533
 31
0.0
 11
466.3156325977221
 21
270.4801998327666
 31
0.0
 11
466.2498569725733
 21
270.1733001819595
 31
0.0
 11
466.2281122002089
 21
269.860151816489
 31
0.0
 11
466.3223621035986
 21
269.229059041905
 31
0.0
 11
466.5755345272705
 21
268.6388956291489
 31
0.0
 11
467.0196662006658
 21
268.050982941934
 31
0.0
 11
467.5758972484041
 21
267.5649409618237
 31
0.0
 11
468.3133381636369
 21
267.1102213034911
 31
0.0
 11
469.1085418556596
 21
266.7678225972757
 31
0.0
 11
470.0362276937827
 21
266.5012329830528
 31
0.0
 11
470.9886087899768
 21
266.3436847744836
 31
0.0
 11
471.4882846224246
 21
266.3017856980264
 31
0.0
 11
471.9889715111104
 21
266.2894376022176
 31
0.0
 11
472.3291546620131
 21
266.2981373975916
 31
0.0
 11
472.6692566759812
 21
266.3144117579358
 31
0.0
  0
SPLINE
  5
179
330
4F
100
AcDbEntity
  8
1
  6
Continuous
 62
     7
100
AcDbSpline
210
0.0
220
0.0
230
1.0
 70
    11
 71
     3
 72
    79
 73
    75
 74
    73
 42
0.0000000001
 43
0.0000000001
 44
0.00000001
 40
0.0
 40
0.0
 40
0.0
 40
0.0
 40
0.2910229153818775
 40
0.5820342278737857
 40
0.8749339334364208
 40
1.167812547519314
 40
1.463561188767243
 40
1.759282806464842
 40
2.058487811140763
 40
2.357663885605868
 40
2.66050334134753
 40
2.963315625194501
 40
3.269530826276348
 40
3.575723468843656
 40
3.884662744191277
 40
4.193586027919023
 40
4.504289085610685
 40
4.814983882015306
 40
5.126294430971066
 40
5.437604979926825
 40
5.748299776331506
 40
6.059002834023161
 40
6.36792611775069
 40
6.676865393098268
 40
6.983058035665525
 40
7.289273236747386
 40
7.592085520594466
 40
7.894924976336203
 40
8.194101050801388
 40
8.493306055477316
 40
8.789027673174875
 40
9.084776314422749
 40
9.377654928505596
 40
9.67055463406825
 40
9.961565946560199
 40
10.25258886194206
 40
10.54295309984908
 40
10.83331733775615
 40
11.12434025313796
 40
11.41535156562984
 40
11.70825127119246
 40
12.00112988527533
 40
12.29687852652331
 40
12.59260014422084
 40
12.89180514889679
 40
13.19098122336199
 40
13.49382067910375
 40
13.79663296295081
 40
14.10284816403266
 40
14.40904080659988
 40
14.7179800819474
 40
15.02690336567492
 40
15.33760642336664
 40
15.64830121977131
 40
15.95961176872713
 40
16.27092231768295
 40
16.58161711408751
 40
16.89232017177917
 40
17.20124345550684
 40
17.51018273085452
 40
17.81637537342179
 40
18.12259057450365
 40
18.42540285835068
 40
18.72824231409233
 40
19.02741838855749
 40
19.32662339323338
 40
19.62234501093097
 40
19.91809365217898
 40
20.21097226626185
 40
20.50387197182452
 40
20.79488328431641
 40
21.08590619969821
 40
21.37627043760528
 40
21.66663467551234
 40
21.66663467551234
 40
21.66663467551234
 40
21.66663467551234
 10
140.4342503240691
 20
273.4172210678898
 30
0.0
 10
140.3378752653521
 20
273.4055454000886
 30
0.0
 10
140.1451289903277
 20
273.3821945299872
 30
0.0
 10
139.8611924810627
 20
273.3128385365363
 30
0.0
 10
139.583928215204
 20
273.2193957789608
 30
0.0
 10
139.3151758313539
 20
273.0994887929836
 30
0.0
 10
139.0575304478342
 20
272.9554432877964
 30
0.0
 10
138.8123035005995
 20
272.787376686951
 30
0.0
 10
138.5820401445424
 20
272.5975419538769
 30
0.0
 10
138.3678079360263
 20
272.3864058252098
 30
0.0
 10
138.1718535072635
 20
272.156626221576
 30
0.0
 10
137.9950961636428
 20
271.9088976893517
 30
0.0
 10
137.8393253296758
 20
271.6461654495178
 30
0.0
 10
137.7053569123067
 20
271.369414437876
 30
0.0
 10
137.5944338810213
 20
271.0816824601123
 30
0.0
 10
137.5072570886499
 20
270.7843290136894
 30
0.0
 10
137.444509078557
 20
270.4802830175464
 30
0.0
 10
137.4067086993449
 20
270.1713414217922
 30
0.0
 10
137.3940316258566
 20
269.8601518164896
 30
0.0
 10
137.4067086993445
 20
269.5489622111813
 30
0.0
 10
137.4445090785582
 20
269.2400206154441
 30
0.0
 10
137.5072570886453
 20
268.9359746192392
 30
0.0
 10
137.5944338810384
 20
268.6386211730456
 30
0.0
 10
137.7053569122436
 20
268.3508891944308
 30
0.0
 10
137.839325329909
 20
268.0741381859388
 30
0.0
 10
137.9950961627764
 20
267.8114059344144
 30
0.0
 10
138.1718535104578
 20
267.5636774453562
 30
0.0
 10
138.3678079241608
 20
267.3338976816354
 30
0.0
 10
138.5820401882319
 20
267.1227621435274
 30
0.0
 10
138.8123033382664
 20
266.9329252204
 30
0.0
 10
139.0575310458614
 20
266.764866702305
 30
0.0
 10
139.315173607541
 20
266.6207912005123
 30
0.0
 10
139.5839364254322
 20
266.5009951300326
 30
0.0
 10
139.8611619111245
 20
266.4071401331912
 30
0.0
 10
140.1452422646271
 20
266.3393132266015
 30
0.0
 10
140.4336097451401
 20
266.2986182649777
 30
0.0
 10
140.7242937788196
 20
266.2848524714128
 30
0.0
 10
141.0149778124992
 20
266.2986182649777
 30
0.0
 10
141.3033452930121
 20
266.3393132266015
 30
0.0
 10
141.5874256465146
 20
266.4071401331913
 30
0.0
 10
141.8646511322069
 20
266.5009951300326
 30
0.0
 10
142.1334139500982
 20
266.6207912005121
 30
0.0
 10
142.3910565117776
 20
266.7648667023051
 30
0.0
 10
142.6362842193728
 20
266.9329252203998
 30
0.0
 10
142.8665473694073
 20
267.1227621435274
 30
0.0
 10
143.0807796334784
 20
267.3338976816353
 30
0.0
 10
143.2767340471815
 20
267.5636774453562
 30
0.0
 10
143.4534913948629
 20
267.8114059344144
 30
0.0
 10
143.6092622277302
 20
268.0741381859386
 30
0.0
 10
143.7432306453957
 20
268.3508891944308
 30
0.0
 10
143.854153676601
 20
268.6386211730455
 30
0.0
 10
143.9413304689939
 20
268.9359746192391
 30
0.0
 10
144.004078479081
 20
269.2400206154441
 30
0.0
 10
144.0418788582948
 20
269.5489622111815
 30
0.0
 10
144.0545559317825
 20
269.8601518164887
 30
0.0
 10
144.0418788582947
 20
270.1713414217955
 30
0.0
 10
144.0040784790809
 20
270.4802830175343
 30
0.0
 10
143.9413304689942
 20
270.7843290137345
 30
0.0
 10
143.8541536765998
 20
271.0816824599448
 30
0.0
 10
143.7432306454002
 20
271.3694144384987
 30
0.0
 10
143.6092622277135
 20
271.6461654472166
 30
0.0
 10
143.453491394925
 20
271.9088976979024
 30
0.0
 10
143.2767340469524
 20
272.1566261900564
 30
0.0
 10
143.0807796343293
 20
272.3864059422963
 30
0.0
 10
142.8665473662741
 20
272.5975415227562
 30
0.0
 10
142.6362842310145
 20
272.7873782888245
 30
0.0
 10
142.3910564688904
 20
272.955437386572
 30
0.0
 10
142.1334141095784
 20
273.0995107371656
 30
0.0
 10
141.8646505434125
 20
273.2193147619225
 30
0.0
 10
141.5874278388301
 20
273.313140195128
 30
0.0
 10
141.303337169574
 20
273.3810767598
 30
0.0
 10
141.0150081085029
 20
273.4213633167167
 30
0.0
 10
140.7241809958371
 20
273.4366500624006
 30
0.0
 10
140.5308938813251
 20
273.4236973993935
 30
0.0
 10
140.4342503240691
 20
273.4172210678899
 30
0.0
 11
140.4342503240691
 21
273.4172210678898
 31
0.0
 11
140.1460908277941
 21
273.3764970948035
 31
0.0
 11
139.8630086214117
 21
273.3090282247381
 31
0.0
 11
139.5855845788679
 21
273.2150806960992
 31
0.0
 11
139.3180228267505
 21
273.0959648222998
 31
0.0
 11
139.0598904580354
 21
272.9516216928426
 31
0.0
 11
138.8158778054242
 21
272.7845615224268
 31
0.0
 11
138.5849982998934
 21
272.594250490826
 31
0.0
 11
138.3718230049422
 21
272.3843395164706
 31
0.0
 11
138.1752886809339
 21
272.1539355333442
 31
0.0
 11
137.9993151451343
 21
271.9075038106566
 31
0.0
 11
137.8431180046615
 21
271.6441215738187
 31
0.0
 11
137.7096223166973
 21
271.3685624410408
 31
0.0
 11
137.5984723911402
 21
271.0803105201435
 31
0.0
 11
137.5114957371138
 21
270.783884042103
 31
0.0
 11
137.4486906627923
 21
270.4795948495601
 31
0.0
 11
137.4109153011208
 21
270.1712050336396
 31
0.0
 11
137.3982601049072
 21
269.8601518164887
 31
0.0
 11
137.4109153011208
 21
269.5490985993378
 31
0.0
 11
137.4486906627923
 21
269.2407087834172
 31
0.0
 11
137.5114957371138
 21
268.9364195908743
 31
0.0
 11
137.5984723911402
 21
268.639993112834
 31
0.0
 11
137.7096223166973
 21
268.3517411919368
 31
0.0
 11
137.8431180046615
 21
268.0761820591589
 31
0.0
 11
137.9993151451344
 21
267.812799822321
 31
0.0
 11
138.175288680934
 21
267.5663680996333
 31
0.0
 11
138.3718230049422
 21
267.3359641165067
 31
0.0
 11
138.5849982998934
 21
267.1260531421512
 31
0.0
 11
138.8158778054242
 21
266.9357421105505
 31
0.0
 11
139.0598904580354
 21
266.7686819401347
 31
0.0
 11
139.3180228267506
 21
266.6243388106777
 31
0.0
 11
139.5855845788679
 21
266.5052229368783
 31
0.0
 11
139.8630086214117
 21
266.4112754082394
 31
0.0
 11
140.1460908277942
 21
266.3438065381741
 31
0.0
 11
140.4342503240691
 21
266.3030825650876
 31
0.0
 11
140.7242937788196
 21
266.2894376022173
 31
0.0
 11
141.0143372335701
 21
266.3030825650876
 31
0.0
 11
141.302496729845
 21
266.3438065381741
 31
0.0
 11
141.5855789362274
 21
266.4112754082395
 31
0.0
 11
141.8630029787712
 21
266.5052229368783
 31
0.0
 11
142.1305647308886
 21
266.6243388106776
 31
0.0
 11
142.3886970996038
 21
266.7686819401348
 31
0.0
 11
142.632709752215
 21
266.9357421105505
 31
0.0
 11
142.8635892577459
 21
267.1260531421512
 31
0.0
 11
143.0767645526971
 21
267.3359641165067
 31
0.0
 11
143.2732988767053
 21
267.5663680996333
 31
0.0
 11
143.4492724125049
 21
267.812799822321
 31
0.0
 11
143.6054695529777
 21
268.0761820591589
 31
0.0
 11
143.738965240942
 21
268.3517411919367
 31
0.0
 11
143.8501151664991
 21
268.6399931128339
 31
0.0
 11
143.9370918205254
 21
268.9364195908742
 31
0.0
 11
143.9998968948469
 21
269.2407087834171
 31
0.0
 11
144.0376722565185
 21
269.5490985993377
 31
0.0
 11
144.050327452732
 21
269.8601518164887
 31
0.0
 11
144.0376722565184
 21
270.1712050336396
 31
0.0
 11
143.9998968948469
 21
270.4795948495601
 31
0.0
 11
143.9370918205254
 21
270.783884042103
 31
0.0
 11
143.8501151664991
 21
271.0803105201435
 31
0.0
 11
143.738965240942
 21
271.3685624410408
 31
0.0
 11
143.6054695529778
 21
271.6441215738187
 31
0.0
 11
143.4492724125049
 21
271.9075038106565
 31
0.0
 11
143.2732988767053
 21
272.1539355333442
 31
0.0
 11
143.076764552697
 21
272.3843395164706
 31
0.0
 11
142.8635892577458
 21
272.5942504908261
 31
0.0
 11
142.632709752215
 21
272.7845615224268
 31
0.0
 11
142.3886970996039
 21
272.9516216928427
 31
0.0
 11
142.1305647308886
 21
273.0959648222998
 31
0.0
 11
141.8630029787712
 21
273.2150806960992
 31
0.0
 11
141.5855789362274
 21
273.3090282247381
 31
0.0
 11
141.302496729845
 21
273.3764970948035
 31
0.0
 11
141.0143372335701
 21
273.4172210678899
 31
0.0
 11
140.7242937788196
 21
273.4308660307601
 31
0.0
 11
140.4342503240691
 21
273.4172210678899
 31
0.0
  0
SPLINE
  5
17A
330
4F
100
AcDbEntity
  8
1
  6
Continuous
 62
     7
100
AcDbSpline
210
0.0
220
0.0
230
1.0
 70
    11
 71
     3
 72
    79
 73
    75
 74
    73
 42
0.0000000001
 43
0.0000000001
 44
0.00000001
 40
0.0
 40
0.0
 40
0.0
 40
0.0
 40
0.3261285623000765
 40
0.6517434317457505
 40
1.007597961146773
 40
1.362821877734729
 40
1.759927766176566
 40
2.156564335175295
 40
2.599261974949932
 40
3.041659941790429
 40
3.528366327139081
 40
4.014888773111867
 40
4.539679837310196
 40
5.064360628292778
 40
5.618299489951149
 40
6.172176031948195
 40
6.744347787841637
 40
7.316491366549683
 40
7.894854140806487
 40
8.473216915063235
 40
9.045360493771343
 40
9.617532249664778
 40
10.1714087916619
 40
10.72534765332017
 40
11.25002844430267
 40
11.77481950850098
 40
12.26134195447384
 40
12.74804833982254
 40
13.19044630666305
 40
13.63314394643763
 40
14.02978051543634
 40
14.42688640387811
 40
14.78211032046615
 40
15.13796484986722
 40
15.46357971931281
 40
15.78970828161286
 40
16.10463414862432
 40
16.41956001563579
 40
16.74568857793585
 40
17.0713034473814
 40
17.42715797678252
 40
17.78238189337051
 40
18.17948778181227
 40
18.57612435081101
 40
19.01882199058559
 40
19.46121995742612
 40
19.94792634277483
 40
20.43444878874768
 40
20.95923985294601
 40
21.4839206439286
 40
22.03785950558687
 40
22.59173604758393
 40
23.16390780347738
 40
23.73605138218545
 40
24.31441415644222
 40
24.892776930699
 40
25.46492050940704
 40
26.03709226530049
 40
26.59096880729754
 40
27.14490766895586
 40
27.66958845993843
 40
28.19437952413676
 40
28.68090197010959
 40
29.16760835545837
 40
29.61000632229885
 40
30.05270396207342
 40
30.44934053107216
 40
30.84644641951392
 40
31.20167033610188
 40
31.557524865503
 40
31.88313973494863
 40
32.20926829724865
 40
32.52419416426007
 40
32.8391200312716
 40
32.8391200312716
 40
32.8391200312716
 40
32.8391200312716
 10
146.2228701914078
 20
269.5463250535755
 30
0.0
 10
146.2454273876994
 20
269.4397320253409
 30
0.0
 10
146.2905062499061
 20
269.2267138660853
 30
0.0
 10
146.4250336136735
 20
268.9168853537376
 30
0.0
 10
146.6017775215578
 20
268.6190914231906
 30
0.0
 10
146.8306586531526
 20
268.3279357215064
 30
0.0
 10
147.0998766042101
 20
268.0545339880334
 30
0.0
 10
147.4171465958726
 20
267.7905653952031
 30
0.0
 10
147.769199215151
 20
267.5475507307436
 30
0.0
 10
148.1650725482936
 20
267.3178887414117
 30
0.0
 10
148.5897812013635
 20
267.1113306428332
 30
0.0
 10
149.0522985860981
 20
266.9223215165104
 30
0.0
 10
149.5375393077847
 20
266.7580020849601
 30
0.0
 10
150.0527808352715
 20
266.6149817630276
 30
0.0
 10
150.5844462795936
 20
266.4978253301854
 30
0.0
 10
151.1368953916721
 20
266.4048483062799
 30
0.0
 10
151.6992863780763
 20
266.3385269912414
 30
0.0
 10
152.2723031146524
 20
266.2981793754873
 30
0.0
 10
152.848649431798
 20
266.2848885883942
 30
0.0
 10
153.4249957489661
 20
266.2981793754851
 30
0.0
 10
153.9980124854759
 20
266.3385269912501
 30
0.0
 10
154.5604034721206
 20
266.404848306248
 30
0.0
 10
155.1128525833297
 20
266.4978253303002
 30
0.0
 10
155.6445180308174
 20
266.6149817626089
 30
0.0
 10
156.1597595470858
 20
266.7580020864324
 30
0.0
 10
156.6450003091586
 20
266.9223215111738
 30
0.0
 10
157.1075175536266
 20
267.111330661145
 30
0.0
 10
157.5322267062261
 20
267.317888675505
 30
0.0
 10
157.9280983359901
 20
267.5475509520189
 30
0.0
 10
158.2801569691815
 20
267.7905646025603
 30
0.0
 10
158.5974067220565
 20
268.0545366075569
 30
0.0
 10
158.866695891169
 20
268.3279263339934
 30
0.0
 10
159.0953376049923
 20
268.6191224004126
 30
0.0
 10
159.272930140938
 20
268.9167732561725
 30
0.0
 10
159.40454280995
 20
269.2270931726469
 30
0.0
 10
159.4819676356206
 20
269.5412618534467
 30
0.0
 10
159.5099275270482
 20
269.8601518164888
 30
0.0
 10
159.4819676356207
 20
270.1790417795307
 30
0.0
 10
159.40454280995
 20
270.4932104603308
 30
0.0
 10
159.2729301409379
 20
270.8035303768049
 30
0.0
 10
159.0953376049924
 20
271.101181232565
 30
0.0
 10
158.8666958911689
 20
271.3923772989841
 30
0.0
 10
158.5974067220565
 20
271.6657670254205
 30
0.0
 10
158.2801569691815
 20
271.9297390304174
 30
0.0
 10
157.9280983359902
 20
272.1727526809586
 30
0.0
 10
157.532226706226
 20
272.4024149574725
 30
0.0
 10
157.1075175536266
 20
272.6089729718325
 30
0.0
 10
156.6450003091586
 20
272.7979821218039
 30
0.0
 10
156.1597595470858
 20
272.9623015465452
 30
0.0
 10
155.6445180308174
 20
273.105321870369
 30
0.0
 10
155.1128525833296
 20
273.2224783026775
 30
0.0
 10
154.5604034721205
 20
273.3154553267296
 30
0.0
 10
153.998012485476
 20
273.3817766417277
 30
0.0
 10
153.4249957489652
 20
273.4221242574927
 30
0.0
 10
152.8486494318015
 20
273.4354150445828
 30
0.0
 10
152.2723031146394
 20
273.4221242574927
 30
0.0
 10
151.6992863781239
 20
273.3817766417271
 30
0.0
 10
151.1368953914964
 20
273.3154553267316
 30
0.0
 10
150.584446280226
 20
273.2224783026695
 30
0.0
 10
150.0527808329615
 20
273.1053218703984
 30
0.0
 10
149.5375393159018
 20
272.9623015464414
 30
0.0
 10
149.0522985566777
 20
272.7979821221802
 30
0.0
 10
148.5897813023158
 20
272.608972970541
 30
0.0
 10
148.1650721849512
 20
272.4024149621212
 30
0.0
 10
147.7692004350375
 20
272.1727526653507
 30
0.0
 10
147.4171422260439
 20
271.9297390863272
 30
0.0
 10
147.0998910456044
 20
271.6657668406497
 30
0.0
 10
146.8306068999335
 20
271.3923779611423
 30
0.0
 10
146.6019482985218
 20
271.1011790475535
 30
0.0
 10
146.4244156214637
 20
270.8035382837265
 30
0.0
 10
146.2925973613409
 20
270.4931837055368
 30
0.0
 10
146.2159176518481
 20
270.1791406478967
 30
0.0
 10
146.1852659634259
 20
269.859796860265
 30
0.0
 10
146.2103354487472
 20
269.6508156558054
 30
0.0
 10
146.2228701914078
 20
269.5463250535755
 30
0.0
 11
146.2228701914078
 21
269.5463250535755
 31
0.0
 11
146.3010426434192
 21
269.2297039757957
 31
0.0
 11
146.4267489391054
 21
268.9293325882952
 31
0.0
 11
146.608304808351
 21
268.6232771808316
 31
0.0
 11
146.8266672041336
 21
268.343095284514
 31
0.0
 11
147.1044142181676
 21
268.0592825243526
 31
0.0
 11
147.4087142654148
 21
267.8048772392023
 31
0.0
 11
147.7723614540062
 21
267.5524056121002
 31
0.0
 11
148.1546949558029
 21
267.3298363993404
 31
0.0
 11
148.5919631924829
 21
267.1161085473185
 31
0.0
 11
149.0421590372399
 21
266.9316423124709
 31
0.0
 11
149.5389985384425
 21
266.76265659974
 31
0.0
 11
150.0444855242313
 21
266.6220406702573
 31
0.0
 11
150.5853432040236
 21
266.5023693175241
 31
0.0
 11
151.1315137320505
 21
266.4102988114457
 31
0.0
 11
151.6997136581775
 21
266.3429982751079
 31
0.0
 11
152.2704434649095
 21
266.3028017284332
 31
0.0
 11
152.8486494318018
 21
266.2893347875735
 31
0.0
 11
153.4268553986941
 21
266.3028017284332
 31
0.0
 11
153.9975852054261
 21
266.3429982751079
 31
0.0
 11
154.5657851315532
 21
266.4102988114457
 31
0.0
 11
155.1119556595801
 21
266.5023693175242
 31
0.0
 11
155.6528133393723
 21
266.6220406702574
 31
0.0
 11
156.158300325161
 21
266.7626565997401
 31
0.0
 11
156.6551398263636
 21
266.9316423124709
 31
0.0
 11
157.1053356711207
 21
267.1161085473185
 31
0.0
 11
157.5426039078008
 21
267.3298363993404
 31
0.0
 11
157.9249374095974
 21
267.5524056121003
 31
0.0
 11
158.2885845981888
 21
267.8048772392024
 31
0.0
 11
158.592884645436
 21
268.0592825243527
 31
0.0
 11
158.87063165947
 21
268.3430952845139
 31
0.0
 11
159.0889940552527
 21
268.6232771808316
 31
0.0
 11
159.2705499244983
 21
268.9293325882953
 31
0.0
 11
159.3962562201844
 21
269.2297039757957
 31
0.0
 11
159.4744286721956
 21
269.5463250535755
 31
0.0
 11
159.5007167796267
 21
269.8601518164888
 31
0.0
 11
159.4744286721956
 21
270.1739785794021
 31
0.0
 11
159.3962562201844
 21
270.4905996571819
 31
0.0
 11
159.2705499244982
 21
270.7909710446822
 31
0.0
 11
159.0889940552526
 21
271.0970264521459
 31
0.0
 11
158.8706316594699
 21
271.3772083484636
 31
0.0
 11
158.592884645436
 21
271.6610211086248
 31
0.0
 11
158.2885845981888
 21
271.9154263937752
 31
0.0
 11
157.9249374095974
 21
272.1678980208773
 31
0.0
 11
157.5426039078008
 21
272.3904672336372
 31
0.0
 11
157.1053356711207
 21
272.6041950856591
 31
0.0
 11
156.6551398263636
 21
272.7886613205067
 31
0.0
 11
156.158300325161
 21
272.9576470332376
 31
0.0
 11
155.6528133393722
 21
273.0982629627204
 31
0.0
 11
155.11195565958
 21
273.2179343154535
 31
0.0
 11
154.5657851315532
 21
273.310004821532
 31
0.0
 11
153.9975852054261
 21
273.3773053578698
 31
0.0
 11
153.4268553986941
 21
273.4175019045444
 31
0.0
 11
152.8486494318018
 21
273.4309688454041
 31
0.0
 11
152.2704434649095
 21
273.4175019045443
 31
0.0
 11
151.6997136581775
 21
273.3773053578698
 31
0.0
 11
151.1315137320505
 21
273.3100048215318
 31
0.0
 11
150.5853432040236
 21
273.2179343154535
 31
0.0
 11
150.0444855242313
 21
273.0982629627202
 31
0.0
 11
149.5389985384426
 21
272.9576470332376
 31
0.0
 11
149.04215903724
 21
272.7886613205067
 31
0.0
 11
148.5919631924829
 21
272.6041950856591
 31
0.0
 11
148.1546949558028
 21
272.3904672336371
 31
0.0
 11
147.7723614540062
 21
272.1678980208772
 31
0.0
 11
147.4087142654148
 21
271.9154263937752
 31
0.0
 11
147.1044142181676
 21
271.6610211086248
 31
0.0
 11
146.8266672041336
 21
271.3772083484636
 31
0.0
 11
146.608304808351
 21
271.0970264521459
 31
0.0
 11
146.4267489391054
 21
270.7909710446822
 31
0.0
 11
146.3010426434191
 21
270.4905996571818
 31
0.0
 11
146.2228701914078
 21
270.1739785794021
 31
0.0
 11
146.1965820839767
 21
269.8601518164888
 31
0.0
 11
146.2228701914078
 21
269.5463250535755
 31
0.0
  0
SPLINE
  5
17B
330
4F
100
AcDbEntity
  8
1
  6
Continuous
 62
     7
100
AcDbSpline
210
0.0
220
0.0
230
1.0
 70
    11
 71
     3
 72
    79
 73
    75
 74
    73
 42
0.0000000001
 43
0.0000000001
 44
0.00000001
 40
0.0
 40
0.0
 40
0.0
 40
0.0
 40
0.2910229153818371
 40
0.5820342278737176
 40
0.8749339334363796
 40
1.167812547519377
 40
1.463561188767405
 40
1.759282806464963
 40
2.058487811140862
 40
2.357663885605987
 40
2.660503341347674
 40
2.963315625194691
 40
3.269530826276616
 40
3.575723468843846
 40
3.884662744191551
 40
4.193586027919118
 40
4.504289085610717
 40
4.814983882015401
 40
5.126294430971333
 40
5.43760497992715
 40
5.748299776331775
 40
6.059002834023486
 40
6.36792611775096
 40
6.67686539309842
 40
6.983058035665714
 40
7.28927323674761
 40
7.59208552059475
 40
7.894924976336492
 40
8.194101050801598
 40
8.493306055477548
 40
8.78902767317509
 40
9.084776314423094
 40
9.377654928506013
 40
9.670554634068756
 40
9.961565946560651
 40
10.2525888619425
 40
10.54295309984948
 40
10.83331733775641
 40
11.12434025313823
 40
11.41535156563021
 40
11.70825127119283
 40
12.00112988527572
 40
12.29687852652362
 40
12.59260014422112
 40
12.89180514889703
 40
13.19098122336219
 40
13.49382067910401
 40
13.79663296295107
 40
14.10284816403297
 40
14.40904080660026
 40
14.71798008194779
 40
15.02690336567527
 40
15.33760642336698
 40
15.64830121977172
 40
15.95961176872754
 40
16.27092231768335
 40
16.58161711408793
 40
16.89232017177953
 40
17.20124345550712
 40
17.51018273085484
 40
17.81637537342217
 40
18.12259057450411
 40
18.42540285835113
 40
18.72824231409278
 40
19.02741838855791
 40
19.32662339323378
 40
19.62234501093138
 40
19.91809365217933
 40
20.2109722662622
 40
20.50387197182483
 40
20.79488328431675
 40
21.0859061996986
 40
21.37627043760556
 40
21.66663467551254
 40
21.66663467551254
 40
21.66663467551254
 40
21.66663467551254
 10
164.6829616300335
 20
273.41722106789
 30
0.0
 10
164.5865865713166
 20
273.4055454000886
 30
0.0
 10
164.3938402962921
 20
273.382194529987
 30
0.0
 10
164.1099037870273
 20
273.3128385365365
 30
0.0
 10
163.8326395211685
 20
273.2193957789608
 30
0.0
 10
163.5638871373183
 20
273.0994887929836
 30
0.0
 10
163.3062417537985
 20
272.9554432877966
 30
0.0
 10
163.0610148065637
 20
272.787376686951
 30
0.0
 10
162.8307514505067
 20
272.5975419538771
 30
0.0
 10
162.6165192419906
 20
272.3864058252098
 30
0.0
 10
162.4205648132279
 20
272.156626221576
 30
0.0
 10
162.2438074696072
 20
271.9088976893516
 30
0.0
 10
162.0880366356401
 20
271.6461654495178
 30
0.0
 10
161.9540682182709
 20
271.3694144378759
 30
0.0
 10
161.8431451869855
 20
271.0816824601123
 30
0.0
 10
161.7559683946141
 20
270.7843290136895
 30
0.0
 10
161.6932203845212
 20
270.4802830175464
 30
0.0
 10
161.655420005309
 20
270.1713414217923
 30
0.0
 10
161.6427429318208
 20
269.8601518164896
 30
0.0
 10
161.6554200053087
 20
269.5489622111813
 30
0.0
 10
161.6932203845224
 20
269.2400206154439
 30
0.0
 10
161.7559683946094
 20
268.9359746192392
 30
0.0
 10
161.8431451870024
 20
268.6386211730455
 30
0.0
 10
161.954068218208
 20
268.3508891944309
 30
0.0
 10
162.0880366358734
 20
268.0741381859388
 30
0.0
 10
162.2438074687407
 20
267.8114059344144
 30
0.0
 10
162.4205648164221
 20
267.5636774453563
 30
0.0
 10
162.616519230125
 20
267.3338976816352
 30
0.0
 10
162.8307514941961
 20
267.1227621435274
 30
0.0
 10
163.0610146442305
 20
266.9329252203999
 30
0.0
 10
163.3062423518259
 20
266.7648667023051
 30
0.0
 10
163.5638849135053
 20
266.6207912005123
 30
0.0
 10
163.8326477313966
 20
266.5009951300325
 30
0.0
 10
164.1098732170891
 20
266.4071401331913
 30
0.0
 10
164.3939535705915
 20
266.3393132266014
 30
0.0
 10
164.6823210511045
 20
266.2986182649775
 30
0.0
 10
164.973005084784
 20
266.2848524714128
 30
0.0
 10
165.2636891184635
 20
266.2986182649776
 30
0.0
 10
165.5520565989765
 20
266.3393132266012
 30
0.0
 10
165.836136952479
 20
266.4071401331913
 30
0.0
 10
166.1133624381713
 20
266.5009951300324
 30
0.0
 10
166.3821252560625
 20
266.6207912005123
 30
0.0
 10
166.639767817742
 20
266.764866702305
 30
0.0
 10
166.8849955253372
 20
266.9329252204
 30
0.0
 10
167.1152586753714
 20
267.1227621435274
 30
0.0
 10
167.3294909394427
 20
267.3338976816353
 30
0.0
 10
167.5254453531457
 20
267.5636774453562
 30
0.0
 10
167.7022027008271
 20
267.8114059344144
 30
0.0
 10
167.8579735336945
 20
268.0741381859388
 30
0.0
 10
167.9919419513601
 20
268.3508891944308
 30
0.0
 10
168.1028649825653
 20
268.6386211730455
 30
0.0
 10
168.1900417749584
 20
268.9359746192392
 30
0.0
 10
168.2527897850454
 20
269.240020615444
 30
0.0
 10
168.2905901642592
 20
269.5489622111816
 30
0.0
 10
168.303267237747
 20
269.8601518164888
 30
0.0
 10
168.2905901642592
 20
270.1713414217955
 30
0.0
 10
168.2527897850454
 20
270.4802830175344
 30
0.0
 10
168.1900417749587
 20
270.7843290137345
 30
0.0
 10
168.1028649825641
 20
271.0816824599448
 30
0.0
 10
167.9919419513644
 20
271.3694144384985
 30
0.0
 10
167.8579735336778
 20
271.6461654472166
 30
0.0
 10
167.7022027008893
 20
271.9088976979025
 30
0.0
 10
167.5254453529166
 20
272.1566261900564
 30
0.0
 10
167.3294909402935
 20
272.3864059422964
 30
0.0
 10
167.1152586722384
 20
272.5975415227562
 30
0.0
 10
166.8849955369788
 20
272.7873782888245
 30
0.0
 10
166.6397677748546
 20
272.9554373865719
 30
0.0
 10
166.3821254155428
 20
273.0995107371657
 30
0.0
 10
166.1133618493768
 20
273.2193147619225
 30
0.0
 10
165.8361391447945
 20
273.313140195128
 30
0.0
 10
165.5520484755384
 20
273.3810767598001
 30
0.0
 10
165.2637194144672
 20
273.4213633167163
 30
0.0
 10
164.9728923018014
 20
273.4366500624007
 30
0.0
 10
164.7796051872895
 20
273.4236973993935
 30
0.0
 10
164.6829616300335
 20
273.41722106789
 30
0.0
 11
164.6829616300335
 21
273.41722106789
 31
0.0
 11
164.3948021337587
 21
273.3764970948035
 31
0.0
 11
164.1117199273762
 21
273.3090282247381
 31
0.0
 11
163.8342958848324
 21
273.2150806960992
 31
0.0
 11
163.5667341327149
 21
273.0959648222998
 31
0.0
 11
163.3086017639997
 21
272.9516216928426
 31
0.0
 11
163.0645891113885
 21
272.7845615224269
 31
0.0
 11
162.8337096058577
 21
272.5942504908261
 31
0.0
 11
162.6205343109065
 21
272.3843395164707
 31
0.0
 11
162.4239999868983
 21
272.1539355333442
 31
0.0
 11
162.2480264510986
 21
271.9075038106565
 31
0.0
 11
162.0918293106258
 21
271.6441215738186
 31
0.0
 11
161.9583336226615
 21
271.3685624410408
 31
0.0
 11
161.8471836971043
 21
271.0803105201435
 31
0.0
 11
161.760207043078
 21
270.7838840421031
 31
0.0
 11
161.6974019687565
 21
270.4795948495603
 31
0.0
 11
161.6596266070849
 21
270.1712050336397
 31
0.0
 11
161.6469714108713
 21
269.8601518164886
 31
0.0
 11
161.6596266070849
 21
269.5490985993376
 31
0.0
 11
161.6974019687565
 21
269.2407087834171
 31
0.0
 11
161.760207043078
 21
268.9364195908742
 31
0.0
 11
161.8471836971043
 21
268.6399931128339
 31
0.0
 11
161.9583336226616
 21
268.3517411919369
 31
0.0
 11
162.0918293106259
 21
268.076182059159
 31
0.0
 11
162.2480264510987
 21
267.8127998223211
 31
0.0
 11
162.4239999868983
 21
267.5663680996332
 31
0.0
 11
162.6205343109064
 21
267.3359641165066
 31
0.0
 11
162.8337096058576
 21
267.1260531421512
 31
0.0
 11
163.0645891113885
 21
266.9357421105505
 31
0.0
 11
163.3086017639997
 21
266.7686819401349
 31
0.0
 11
163.5667341327149
 21
266.6243388106777
 31
0.0
 11
163.8342958848323
 21
266.5052229368782
 31
0.0
 11
164.1117199273762
 21
266.4112754082394
 31
0.0
 11
164.3948021337587
 21
266.343806538174
 31
0.0
 11
164.6829616300336
 21
266.3030825650875
 31
0.0
 11
164.973005084784
 21
266.2894376022173
 31
0.0
 11
165.2630485395344
 21
266.3030825650875
 31
0.0
 11
165.5512080358093
 21
266.3438065381739
 31
0.0
 11
165.8342902421918
 21
266.4112754082394
 31
0.0
 11
166.1117142847356
 21
266.5052229368782
 31
0.0
 11
166.3792760368529
 21
266.6243388106777
 31
0.0
 11
166.6374084055681
 21
266.7686819401348
 31
0.0
 11
166.8814210581792
 21
266.9357421105505
 31
0.0
 11
167.1123005637101
 21
267.1260531421512
 31
0.0
 11
167.3254758586612
 21
267.3359641165067
 31
0.0
 11
167.5220101826695
 21
267.5663680996333
 31
0.0
 11
167.6979837184691
 21
267.812799822321
 31
0.0
 11
167.854180858942
 21
268.0761820591589
 31
0.0
 11
167.9876765469063
 21
268.3517411919368
 31
0.0
 11
168.0988264724635
 21
268.6399931128339
 31
0.0
 11
168.1858031264898
 21
268.9364195908742
 31
0.0
 11
168.2486082008113
 21
269.2407087834171
 31
0.0
 11
168.2863835624829
 21
269.5490985993378
 31
0.0
 11
168.2990387586965
 21
269.8601518164887
 31
0.0
 11
168.286383562483
 21
270.1712050336397
 31
0.0
 11
168.2486082008114
 21
270.4795948495602
 31
0.0
 11
168.1858031264898
 21
270.783884042103
 31
0.0
 11
168.0988264724635
 21
271.0803105201434
 31
0.0
 11
167.9876765469062
 21
271.3685624410407
 31
0.0
 11
167.854180858942
 21
271.6441215738186
 31
0.0
 11
167.6979837184691
 21
271.9075038106565
 31
0.0
 11
167.5220101826695
 21
272.1539355333442
 31
0.0
 11
167.3254758586613
 21
272.3843395164707
 31
0.0
 11
167.1123005637101
 21
272.5942504908261
 31
0.0
 11
166.8814210581792
 21
272.7845615224268
 31
0.0
 11
166.6374084055681
 21
272.9516216928426
 31
0.0
 11
166.3792760368529
 21
273.0959648222998
 31
0.0
 11
166.1117142847355
 21
273.2150806960992
 31
0.0
 11
165.8342902421918
 21
273.3090282247381
 31
0.0
 11
165.5512080358093
 21
273.3764970948034
 31
0.0
 11
165.2630485395344
 21
273.4172210678898
 31
0.0
 11
164.973005084784
 21
273.4308660307601
 31
0.0
 11
164.6829616300335
 21
273.41722106789
 31
0.0
  0
ARC
  5
17C
330
4F
100
AcDbEntity
  8
1
  6
Continuous
 62
     7
100
AcDbCircle
 10
469.2210223186793
 20
274.7176887810473
 30
0.0
 40
1.000000000000088
100
AcDbArc
 50
137.0585971351163
 51
149.9999999999987
  0
ARC
  5
17D
330
4F
100
AcDbEntity
  8
1
  6
Continuous
 62
     7
100
AcDbCircle
 10
467.4889715111104
 20
275.7176887810474
 30
0.0
 40
1.0
100
AcDbArc
 50
-90.0
 51
-30.0000000000038
  0
ARC
  5
17E
330
4F
100
AcDbEntity
  8
1
  6
Continuous
 62
     7
100
AcDbCircle
 10
469.2210223186793
 20
274.7176887810473
 30
0.0
 40
1.0
100
AcDbArc
 50
90.0
 51
137.0585971351163
  0
ARC
  5
17F
330
4F
100
AcDbEntity
  8
1
  6
Continuous
 62
     7
100
AcDbCircle
 10
467.4309504493798
 20
273.7176887810473
 30
0.0
 40
1.0
100
AcDbArc
 50
90.0
 51
105.3375576695486
  0
ARC
  5
180
330
4F
100
AcDbEntity
  8
1
  6
Continuous
 62
     7
100
AcDbCircle
 10
488.7569207035415
 20
274.7176887810473
 30
0.0
 40
1.000000000000139
100
AcDbArc
 50
30.00000000000293
 51
42.94140286488376
  0
ARC
  5
181
330
4F
100
AcDbEntity
  8
1
  6
Continuous
 62
     7
100
AcDbCircle
 10
490.4889715111104
 20
275.7176887810474
 30
0.0
 40
0.9999999999999344
100
AcDbArc
 50
-149.9999999999978
 51
-90.0
  0
ARC
  5
182
330
4F
100
AcDbEntity
  8
1
  6
Continuous
 62
     7
100
AcDbCircle
 10
488.7569207035415
 20
274.7176887810473
 30
0.0
 40
1.000000000000088
100
AcDbArc
 50
42.94140286488376
 51
90.0
  0
ARC
  5
183
330
4F
100
AcDbEntity
  8
1
  6
Continuous
 62
     7
100
AcDbCircle
 10
490.546992572841
 20
273.7176887810474
 30
0.0
 40
1.000000000000109
100
AcDbArc
 50
74.66244233044966
 51
90.0
  0
ARC
  5
184
330
4F
100
AcDbEntity
  8
1
  6
Continuous
 62
     7
100
AcDbCircle
 10
164.4066704935324
 20
273.7176887810472
 30
0.0
 40
0.9999999999999688
100
AcDbArc
 50
74.66244233045423
 51
90.0
  0
ARC
  5
185
330
4F
100
AcDbEntity
  8
1
  6
Continuous
 62
     7
100
AcDbCircle
 10
162.616598624233
 20
274.7176887810471
 30
0.0
 40
0.9999999999999873
100
AcDbArc
 50
30.00000000000418
 51
90.0
  0
ARC
  5
186
330
4F
100
AcDbEntity
  8
1
  6
Continuous
 62
     7
100
AcDbCircle
 10
164.3486494318018
 20
275.7176887810472
 30
0.0
 40
0.9999999999999589
100
AcDbArc
 50
-149.9999999999987
 51
-90.0
  0
ARC
  5
187
330
4F
100
AcDbEntity
  8
1
  6
Continuous
 62
     7
100
AcDbCircle
 10
141.2906283700713
 20
273.7176887810472
 30
0.0
 40
1.0
100
AcDbArc
 50
90.0
 51
105.3375576695568
  0
ARC
  5
188
330
4F
100
AcDbEntity
  8
1
  6
Continuous
 62
     7
100
AcDbCircle
 10
143.0807002393706
 20
274.7176887810472
 30
0.0
 40
1.0
100
AcDbArc
 50
90.0
 51
149.9999999999962
  0
ARC
  5
189
330
4F
100
AcDbEntity
  8
1
  6
Continuous
 62
     7
100
AcDbCircle
 10
141.3486494318018
 20
275.7176887810472
 30
0.0
 40
1.0
100
AcDbArc
 50
-90.0
 51
-29.9999999999981
  0
ENDBLK
  5
51
330
4F
100
AcDbEntity
  8
0
100
AcDbBlockEnd
  0
BLOCK
  5
53
330
52
100
AcDbEntity
  8
0
100
AcDbBlockBegin
  2
61-3-16-190
 70
     0
 71
     0
 10
334.1999330495718
 20
236.2517603236888
 30
0.0
  3
61-3-16-190
  1

  0
LINE
  5
18A
330
52
100
AcDbEntity
  8
1
  6
Continuous
 62
     7
100
AcDbLine
 10
160.8486494318018
 20
275.7176887810472
 30
0.0
 11
160.8486494318018
 21
319.8123450940594
 31
0.0
  0
LINE
  5
18B
330
52
100
AcDbEntity
  8
1
  6
Continuous
 62
     7
100
AcDbLine
 10
144.8486494318018
 20
319.8123450940594
 30
0.0
 11
144.8486494318018
 21
275.7176887810472
 31
0.0
  0
LINE
  5
18C
330
52
100
AcDbEntity
  8
1
  6
Continuous
 62
     7
100
AcDbLine
 10
486.9889715111103
 20
275.7176887810474
 30
0.0
 11
486.9889715111095
 21
283.2176887810482
 31
0.0
  0
LINE
  5
18D
330
52
100
AcDbEntity
  8
1
  6
Continuous
 62
     7
100
AcDbLine
 10
470.9889715111095
 20
283.2176887810482
 30
0.0
 11
470.9889715111104
 21
275.7176887810474
 31
0.0
  0
LINE
  5
18E
330
52
100
AcDbEntity
  8
1
  6
Continuous
 62
     7
100
AcDbLine
 10
462.5299999994927
 20
315.0932410485876
 30
0.0
 11
323.7486980175391
 21
352.2795788391886
 31
0.0
  0
LINE
  5
18F
330
52
100
AcDbEntity
  8
1
  6
Continuous
 62
     7
100
AcDbLine
 10
319.6075932958992
 20
336.8247656185635
 30
0.0
 11
458.3888952778523
 21
299.6384278279624
 31
0.0
  0
LINE
  5
190
330
52
100
AcDbEntity
  8
1
  6
Continuous
 62
     7
100
AcDbLine
 10
298.7869304822427
 20
324.8039503383926
 30
0.0
 11
298.0104733469348
 21
321.9061728595252
 31
0.0
  0
LINE
  5
191
330
52
100
AcDbEntity
  8
1
  6
Continuous
 62
     7
100
AcDbLine
 10
283.3321172616177
 20
328.9450550600342
 30
0.0
 11
282.5556601263096
 21
326.0472775811655
 31
0.0
  0
LINE
  5
192
330
52
100
AcDbEntity
  8
1
  6
Continuous
 62
     7
100
AcDbLine
 10
295.847044877762
 20
317.3094808686726
 30
0.0
 11
288.9889715111096
 21
319.1470960889001
 31
0.0
  0
LINE
  5
193
330
52
100
AcDbEntity
  8
1
  6
Continuous
 62
     7
100
AcDbLine
 10
282.1308981444571
 20
320.9847113091275
 30
0.0
 11
288.9889715111096
 21
319.1470960889001
 31
0.0
  0
LINE
  5
194
330
52
100
AcDbEntity
  8
1
  6
Continuous
 62
     7
100
AcDbLine
 10
298.0104733469348
 20
321.9061728595252
 30
0.0
 11
282.5556601263096
 21
326.0472775811655
 31
0.0
  0
LINE
  5
195
330
52
100
AcDbEntity
  8
1
  6
Continuous
 62
     7
100
AcDbLine
 10
160.8486494318018
 20
323.9767252203452
 30
0.0
 11
160.8486494318018
 21
345.4040265716491
 31
0.0
  0
LINE
  5
196
330
52
100
AcDbEntity
  8
1
  6
Continuous
 62
     7
100
AcDbLine
 10
144.8486494318018
 20
323.9767252203452
 30
0.0
 11
144.8486494318018
 21
345.4040265716491
 31
0.0
  0
LINE
  5
197
330
52
100
AcDbEntity
  8
1
  6
PHANTOM
 62
     4
100
AcDbLine
 10
142.3354290224427
 20
319.1470960889001
 30
0.0
 11
163.7413654402294
 21
319.1470960889001
 31
0.0
  0
LINE
  5
198
330
52
100
AcDbEntity
  8
1
  6
Continuous
 62
     7
100
AcDbLine
 10
160.8486494318016
 20
628.0304545761213
 30
0.0
 11
160.8486494318016
 21
439.324549801634
 31
0.0
  0
LINE
  5
199
330
52
100
AcDbEntity
  8
1
  6
Continuous
 62
     7
100
AcDbLine
 10
144.8486494318016
 20
628.0304545761213
 30
0.0
 11
144.8486494318016
 21
439.324549801634
 31
0.0
  0
LINE
  5
19A
330
52
100
AcDbEntity
  8
1
  6
DASH_CENTER
 62
     2
100
AcDbLine
 10
164.2228716256638
 20
438.0304545761213
 30
0.0
 11
141.8706982195807
 21
438.0304545761213
 31
0.0
  0
ARC
  5
19B
330
52
100
AcDbEntity
  8
1
  6
Continuous
 62
     7
100
AcDbCircle
 10
315.2076695291553
 20
320.4040265716504
 30
0.0
 40
32.99999999999875
100
AcDbArc
 50
89.99999999999803
 51
164.9999999999982
  0
ARC
  5
19C
330
52
100
AcDbEntity
  8
1
  6
Continuous
 62
     7
100
AcDbCircle
 10
315.2076695291577
 20
320.404026571651
 30
0.0
 40
32.99999999999795
100
AcDbArc
 50
75.00000000000233
 51
90.00000000000227
  0
ARC
  5
19D
330
52
100
AcDbEntity
  8
1
  6
Continuous
 62
     7
100
AcDbCircle
 10
453.9889715111094
 20
283.2176887810481
 30
0.0
 40
33.00000000000011
100
AcDbArc
 50
0.0000000000002
 51
74.99999999999993
  0
ARC
  5
19E
330
52
100
AcDbEntity
  8
1
  6
Continuous
 62
     7
100
AcDbCircle
 10
315.2076695291563
 20
320.4040265716499
 30
0.0
 40
16.99999999999946
100
AcDbArc
 50
74.99999999999929
 51
165.0
  0
ARC
  5
19F
330
52
100
AcDbEntity
  8
1
  6
Continuous
 62
     7
100
AcDbCircle
 10
453.9889715111094
 20
283.2176887810481
 30
0.0
 40
17.00000000000011
100
AcDbArc
 50
0.00000000000038
 51
74.99999999999994
  0
ARC
  5
1A0
330
52
100
AcDbEntity
  8
1
  6
Continuous
 62
     7
100
AcDbCircle
 10
152.8486494318018
 20
345.4040265716491
 30
0.0
 40
8.0
100
AcDbArc
 50
0.0
 51
180.0
  0
ARC
  5
1A1
330
52
100
AcDbEntity
  8
1
  6
Continuous
 62
     7
100
AcDbCircle
 10
147.7735543543671
 20
321.8945351572023
 30
0.0
 40
3.590345981252745
100
AcDbArc
 50
-144.5535830140055
 51
-130.0725762075568
  0
ARC
  5
1A2
330
52
100
AcDbEntity
  8
1
  6
Continuous
 62
     7
100
AcDbCircle
 10
157.9237445092365
 20
321.8945351572023
 30
0.0
 40
3.590345981252721
100
AcDbArc
 50
-35.44641698599473
 51
35.44641698599473
  0
ARC
  5
1A3
330
52
100
AcDbEntity
  8
1
  6
Continuous
 62
     7
100
AcDbCircle
 10
152.8486494318018
 20
628.0304545761217
 30
0.0
 40
7.999999999999801
100
AcDbArc
 50
-0.00000000000244
 51
-179.9999999999976
  0
ARC
  5
1A4
330
52
100
AcDbEntity
  8
1
  6
Continuous
 62
     7
100
AcDbCircle
 10
284.7560521973069
 20
323.3135567460685
 30
0.0
 40
3.509266999011464
100
AcDbArc
 50
128.8308446994017
 51
-138.4228972559305
  0
ARC
  5
1A5
330
52
100
AcDbEntity
  8
1
  6
Continuous
 62
     7
100
AcDbCircle
 10
294.7380174976166
 20
320.6388972049745
 30
0.0
 40
3.509266999010782
100
AcDbArc
 50
-71.57710274405733
 51
21.16915530060564
  0
ARC
  5
1A6
330
52
100
AcDbEntity
  8
1
  6
Continuous
 62
     7
100
AcDbCircle
 10
157.9237445092365
 20
321.8945351572023
 30
0.0
 40
3.59034598125266
100
AcDbArc
 50
-49.92742379244321
 51
-35.44641698599473
  0
ARC
  5
1A7
330
52
100
AcDbEntity
  8
1
  6
Continuous
 62
     7
100
AcDbCircle
 10
147.7735543543671
 20
321.8945351572023
 30
0.0
 40
3.590345981252745
100
AcDbArc
 50
144.5535830140055
 51
-144.5535830140055
  0
SPLINE
  5
1A8
330
52
100
AcDbEntity
  8
1
  6
Continuous
 62
     7
100
AcDbSpline
210
0.0
220
0.0
230
1.0
 70
    11
 71
     3
 72
    79
 73
    75
 74
    73
 42
0.0000000001
 43
0.0000000001
 44
0.00000001
 40
0.0
 40
0.0
 40
0.0
 40
0.0
 40
0.207045918704702
 40
0.4107244584657627
 40
0.6841990467143002
 40
0.9559523971524117
 40
1.308725393751295
 40
1.661238034917926
 40
2.09348699138201
 40
2.525514572090577
 40
3.028718325322749
 40
3.531846917520244
 40
4.093749240753347
 40
4.655606025183893
 40
5.261175311125078
 40
5.866722654711981
 40
6.499177245513398
 40
7.131622160923773
 40
7.773148160335797
 40
8.414674159747763
 40
9.047119075158168
 40
9.679573665959554
 40
10.28512100954649
 40
10.89069029548761
 40
11.45254707991814
 40
12.01444940315132
 40
12.51757799534887
 40
13.02078174858092
 40
13.45280932928943
 40
13.88505828575359
 40
14.23757092692022
 40
14.59034392351913
 40
14.86209727395718
 40
15.13557186220577
 40
15.33925040196686
 40
15.54629632067157
 40
15.72113993949277
 40
15.89598355831402
 40
16.10302947701867
 40
16.30670801677971
 40
16.58018260502831
 40
16.85193595546636
 40
17.20470895206535
 40
17.55722159323197
 40
17.98947054969608
 40
18.4214981304046
 40
18.92470188363669
 40
19.42783047583425
 40
19.98973279906739
 40
20.55158958349794
 40
21.1571588694391
 40
21.76270621302598
 40
22.3951608038274
 40
23.0276057192378
 40
23.6691317186498
 40
24.31065771806179
 40
24.94310263347214
 40
25.57555722427358
 40
26.18110456786046
 40
26.78667385380162
 40
27.34853063823214
 40
27.91043296146529
 40
28.41356155366288
 40
28.916765306895
 40
29.34879288760357
 40
29.78104184406762
 40
30.13355448523425
 40
30.48632748183313
 40
30.75808083227122
 40
31.03155542051993
 40
31.235233960281
 40
31.44227987898561
 40
31.6171234978068
 40
31.791967116628
 40
31.791967116628
 40
31.791967116628
 40
31.791967116628
 10
145.4947342076279
 20
318.9752980238436
 30
0.0
 10
145.5232283745196
 20
318.9119310659281
 30
0.0
 10
145.5797532813579
 20
318.7862277454411
 30
0.0
 10
145.7384196022451
 20
318.6181459550563
 30
0.0
 10
145.9369778277463
 20
318.4665090099046
 30
0.0
 10
146.1935954192789
 20
318.3112610208755
 30
0.0
 10
146.4878835919638
 20
318.1708194666433
 30
0.0
 10
146.8403119281766
 20
318.0303871158583
 30
0.0
 10
147.225921395752
 20
317.9038713808748
 30
0.0
 10
147.6651315202173
 20
317.7814899572645
 30
0.0
 10
148.1322510584445
 20
317.6728151871992
 30
0.0
 10
148.6452681485536
 20
317.5720003267746
 30
0.0
 10
149.1806418049112
 20
317.4850411659045
 30
0.0
 10
149.7520762055625
 20
317.4087108802437
 30
0.0
 10
150.3398555025145
 20
317.3465040256032
 30
0.0
 10
150.952429173352
 20
317.2968670214135
 30
0.0
 10
151.5749721352786
 20
317.2615951648052
 30
0.0
 10
152.210135372134
 20
317.240042143531
 30
0.0
 10
152.8486494317925
 20
317.2329921380363
 30
0.0
 10
153.4871634915065
 20
317.2400421435175
 30
0.0
 10
154.122326728198
 20
317.2615951648583
 30
0.0
 10
154.7448696907151
 20
317.2968670212185
 30
0.0
 10
155.3574433594415
 20
317.3465040262969
 30
0.0
 10
155.9452226640109
 20
317.4087108777299
 30
0.0
 10
156.5166570381927
 20
317.4850411745366
 30
0.0
 10
157.0520307883655
 20
317.5720002959034
 30
0.0
 10
157.5650475631436
 20
317.6728152891052
 30
0.0
 10
158.0321681959343
 20
317.7814895982794
 30
0.0
 10
158.4713747814876
 20
317.9038725120303
 30
0.0
 10
158.8569962328571
 20
318.030383200961
 30
0.0
 10
159.2093875983259
 20
318.1708311191305
 30
0.0
 10
159.5037974272831
 20
318.3112214471823
 30
0.0
 10
159.7600578397332
 20
318.4666198347054
 30
0.0
 10
159.9597696454736
 20
318.6177710382808
 30
0.0
 10
160.1151338431032
 20
318.787243263853
 30
0.0
 10
160.2067827835717
 20
318.9618001892024
 30
0.0
 10
160.2480011967685
 20
319.1470960889001
 30
0.0
 10
160.2067827835717
 20
319.3323919885978
 30
0.0
 10
160.1151338431032
 20
319.5069489139472
 30
0.0
 10
159.9597696454736
 20
319.6764211395192
 30
0.0
 10
159.7600578397333
 20
319.8275723430949
 30
0.0
 10
159.5037974272832
 20
319.9829707306177
 30
0.0
 10
159.2093875983259
 20
320.1233610586696
 30
0.0
 10
158.8569962328571
 20
320.2638089768395
 30
0.0
 10
158.4713747814877
 20
320.3903196657699
 30
0.0
 10
158.0321681959344
 20
320.5127025795208
 30
0.0
 10
157.5650475631436
 20
320.621376888695
 30
0.0
 10
157.0520307883655
 20
320.7221918818966
 30
0.0
 10
156.5166570381927
 20
320.8091510032635
 30
0.0
 10
155.9452226640108
 20
320.8854813000702
 30
0.0
 10
155.3574433594416
 20
320.9476881515032
 30
0.0
 10
154.744869690715
 20
320.9973251565818
 30
0.0
 10
154.1223267281986
 20
321.0325970129416
 30
0.0
 10
153.4871634915043
 20
321.0541500342837
 30
0.0
 10
152.8486494318012
 20
321.0612000397598
 30
0.0
 10
152.2101353721018
 20
321.0541500342846
 30
0.0
 10
151.5749721353967
 20
321.0325970129381
 30
0.0
 10
150.9524291729192
 20
320.9973251565946
 30
0.0
 10
150.3398555040537
 20
320.9476881514577
 30
0.0
 10
149.7520761999854
 20
320.8854813002355
 30
0.0
 10
149.1806418240628
 20
320.8091510026961
 30
0.0
 10
148.6452680800593
 20
320.7221918839267
 30
0.0
 10
148.1322512845452
 20
320.6213768819937
 30
0.0
 10
147.6651307237322
 20
320.5127026031274
 30
0.0
 10
147.2259239054625
 20
320.3903195913859
 30
0.0
 10
146.840303242139
 20
320.2638092342803
 30
0.0
 10
146.4879094455
 20
320.1233602924103
 30
0.0
 10
146.1935076165738
 20
319.9829733329561
 30
0.0
 10
145.9372237162782
 20
319.8275650553337
 30
0.0
 10
145.7375877691638
 20
319.676445793783
 30
0.0
 10
145.5820064262289
 20
319.50688213417
 30
0.0
 10
145.4910848905262
 20
319.3326314993806
 30
0.0
 10
145.4475385608145
 20
319.1463553767223
 30
0.0
 10
145.4790023253568
 20
319.0323171414699
 30
0.0
 10
145.4947342076279
 20
318.9752980238436
 30
0.0
 11
145.4947342076279
 21
318.9752980238436
 31
0.0
 11
145.5900567026141
 21
318.791500215364
 31
0.0
 11
145.7251229490016
 21
318.6390467580534
 31
0.0
 11
145.9402645974546
 21
318.4702201561252
 31
0.0
 11
146.1722684290838
 21
318.3287135994441
 31
0.0
 11
146.4894818890384
 21
318.17436202688
 31
0.0
 11
146.8167308434474
 21
318.0433151496931
 31
0.0
 11
147.2269156495769
 21
317.9069788552414
 31
0.0
 11
147.6429847670063
 21
317.7906417587742
 31
0.0
 11
148.132872276447
 21
317.6756450398605
 31
0.0
 11
148.6265045137393
 21
317.5783537525197
 31
0.0
 11
149.1810385480046
 21
317.4876552095529
 31
0.0
 11
149.7379252546027
 21
317.4130881777966
 31
0.0
 11
150.3400910167431
 21
317.348974567844
 31
0.0
 11
150.9436531104227
 21
317.2999808498974
 31
0.0
 11
151.5750824213321
 21
317.2639831451057
 31
0.0
 11
152.2071636749911
 21
317.2425388031653
 31
0.0
 11
152.8486494318018
 21
317.2353532808723
 31
0.0
 11
153.4901351886124
 21
317.2425388031653
 31
0.0
 11
154.1222164422715
 21
317.2639831451057
 31
0.0
 11
154.7536457531809
 21
317.2999808498974
 31
0.0
 11
155.3572078468605
 21
317.348974567844
 31
0.0
 11
155.9593736090009
 21
317.4130881777966
 31
0.0
 11
156.516260315599
 21
317.487655209553
 31
0.0
 11
157.0707943498643
 21
317.5783537525197
 31
0.0
 11
157.5644265871567
 21
317.6756450398605
 31
0.0
 11
158.0543140965972
 21
317.7906417587741
 31
0.0
 11
158.4703832140266
 21
317.9069788552413
 31
0.0
 11
158.8805680201561
 21
318.0433151496931
 31
0.0
 11
159.2078169745652
 21
318.17436202688
 31
0.0
 11
159.5250304345197
 21
318.3287135994442
 31
0.0
 11
159.7570342661489
 21
318.4702201561252
 31
0.0
 11
159.9721759146019
 21
318.6390467580534
 31
0.0
 11
160.1072421609896
 21
318.791500215364
 31
0.0
 11
160.2025646559758
 21
318.9752980238436
 31
0.0
 11
160.2350564377879
 21
319.1470960889001
 31
0.0
 11
160.2025646559758
 21
319.3188941539567
 31
0.0
 11
160.1072421609896
 21
319.5026919624361
 31
0.0
 11
159.972175914602
 21
319.6551454197467
 31
0.0
 11
159.7570342661489
 21
319.823972021675
 31
0.0
 11
159.5250304345198
 21
319.9654785783559
 31
0.0
 11
159.2078169745652
 21
320.1198301509202
 31
0.0
 11
158.8805680201562
 21
320.2508770281072
 31
0.0
 11
158.4703832140266
 21
320.3872133225589
 31
0.0
 11
158.0543140965973
 21
320.5035504190261
 31
0.0
 11
157.5644265871567
 21
320.6185471379398
 31
0.0
 11
157.0707943498643
 21
320.7158384252805
 31
0.0
 11
156.516260315599
 21
320.8065369682471
 31
0.0
 11
155.9593736090009
 21
320.8811040000035
 31
0.0
 11
155.3572078468605
 21
320.9452176099561
 31
0.0
 11
154.7536457531809
 21
320.9942113279028
 31
0.0
 11
154.1222164422715
 21
321.0302090326944
 31
0.0
 11
153.4901351886124
 21
321.0516533746348
 31
0.0
 11
152.8486494318018
 21
321.0588388969279
 31
0.0
 11
152.2071636749911
 21
321.0516533746348
 31
0.0
 11
151.5750824213321
 21
321.0302090326945
 31
0.0
 11
150.9436531104227
 21
320.9942113279028
 31
0.0
 11
150.3400910167431
 21
320.9452176099562
 31
0.0
 11
149.7379252546027
 21
320.8811040000035
 31
0.0
 11
149.1810385480046
 21
320.8065369682472
 31
0.0
 11
148.6265045137394
 21
320.7158384252805
 31
0.0
 11
148.1328722764469
 21
320.6185471379398
 31
0.0
 11
147.6429847670063
 21
320.5035504190261
 31
0.0
 11
147.2269156495769
 21
320.3872133225589
 31
0.0
 11
146.8167308434474
 21
320.2508770281072
 31
0.0
 11
146.4894818890384
 21
320.1198301509202
 31
0.0
 11
146.1722684290839
 21
319.965478578356
 31
0.0
 11
145.9402645974547
 21
319.823972021675
 31
0.0
 11
145.7251229490016
 21
319.6551454197467
 31
0.0
 11
145.5900567026139
 21
319.5026919624361
 31
0.0
 11
145.4947342076278
 21
319.3188941539567
 31
0.0
 11
145.4622424258157
 21
319.1470960889001
 31
0.0
 11
145.4947342076279
 21
318.9752980238436
 31
0.0
  0
SPLINE
  5
1A9
330
52
100
AcDbEntity
  8
1
  6
Continuous
 62
     7
100
AcDbSpline
210
0.0
220
0.0
230
1.0
 70
     8
 71
     3
 72
    45
 73
    41
 74
    39
 42
0.0000000001
 43
0.0000000001
 44
0.00000001
 40
0.0
 40
0.0
 40
0.0
 40
0.0
 40
0.0934497611708388
 40
0.1901557967544278
 40
0.4144011366462901
 40
0.6349993675273802
 40
0.931191643990939
 40
1.225519698448666
 40
1.607597746747927
 40
1.989393811742413
 40
2.457549932696843
 40
2.925466288086812
 40
3.470471460776921
 40
4.01539522876297
 40
4.623975094754887
 40
5.232505639010267
 40
5.888379906919302
 40
6.544230409710337
 40
7.229223359910726
 40
7.914205830979876
 40
8.609023756818061
 40
9.303841682656245
 40
9.988824153725393
 40
10.67381710392579
 40
11.32966760671684
 40
11.98554187462589
 40
12.59407241888126
 40
13.20265228487321
 40
13.74757605285922
 40
14.29258122554938
 40
14.76049758093935
 40
15.22865370189373
 40
15.61044976688817
 40
15.99252781518745
 40
16.28685586964521
 40
16.58304814610876
 40
16.80364637698989
 40
17.02789171688189
 40
17.12459775247085
 40
17.21804751364669
 40
17.21804751364669
 40
17.21804751364669
 40
17.21804751364669
 10
160.8486494318018
 20
323.9767252203558
 30
0.0
 10
160.8469597621902
 20
324.00794642342
 30
0.0
 10
160.8435215461132
 20
324.0714767382108
 30
0.0
 10
160.8023827563001
 20
324.204251724343
 30
0.0
 10
160.7191562089739
 20
324.3667401828111
 30
0.0
 10
160.5503499069727
 20
324.5499223044934
 30
0.0
 10
160.3342351474302
 20
324.7137583725728
 30
0.0
 10
160.056629070237
 20
324.8820259586627
 30
0.0
 10
159.7377821948302
 20
325.0340921576801
 30
0.0
 10
159.3561114798654
 20
325.1862030405615
 30
0.0
 10
158.9384581820308
 20
325.3232243801897
 30
0.0
 10
158.4627658834742
 20
325.4557733169139
 30
0.0
 10
157.9568414540226
 20
325.5734753842827
 30
0.0
 10
157.4012080353785
 20
325.6826651006372
 30
0.0
 10
156.8213605011918
 20
325.776847975701
 30
0.0
 10
156.2024567471095
 20
325.8595190703421
 30
0.0
 10
155.56585028559
 20
325.9268934808415
 30
0.0
 10
154.9023897765264
 20
325.9806538596792
 30
0.0
 10
154.2281318192559
 20
326.0188557690969
 30
0.0
 10
153.5402052143954
 20
326.0421992120538
 30
0.0
 10
152.8486494318019
 20
326.0498348654659
 30
0.0
 10
152.1570936492082
 20
326.0421992120539
 30
0.0
 10
151.4691670443477
 20
326.0188557690969
 30
0.0
 10
150.7949090870773
 20
325.980653859679
 30
0.0
 10
150.1314485780135
 20
325.9268934808418
 30
0.0
 10
149.4948421164942
 20
325.859519070342
 30
0.0
 10
148.8759383624117
 20
325.7768479757011
 30
0.0
 10
148.2960908282251
 20
325.6826651006371
 30
0.0
 10
147.740457409581
 20
325.5734753842827
 30
0.0
 10
147.2345329801294
 20
325.4557733169139
 30
0.0
 10
146.7588406815729
 20
325.3232243801896
 30
0.0
 10
146.3411873837382
 20
325.1862030405615
 30
0.0
 10
145.9595166687735
 20
325.0340921576802
 30
0.0
 10
145.6406697933665
 20
324.8820259586626
 30
0.0
 10
145.3630637161735
 20
324.7137583725729
 30
0.0
 10
145.146948956631
 20
324.5499223044935
 30
0.0
 10
144.9781426546296
 20
324.3667401828111
 30
0.0
 10
144.8949161073027
 20
324.2042517243412
 30
0.0
 10
144.853777317489
 20
324.0714767382054
 30
0.0
 10
144.8503391014129
 20
324.0079464234111
 30
0.0
 10
144.8486494318018
 20
323.9767252203452
 30
0.0
 11
160.8486494318018
 21
323.9767252203558
 31
0.0
 11
160.8398517086897
 21
324.0697599339359
 31
0.0
 11
160.8134585393576
 21
324.1627946475158
 31
0.0
 11
160.7102175509756
 21
324.3618606435601
 31
0.0
 11
160.563931275358
 21
324.5269784955138
 31
0.0
 11
160.3309176888836
 21
324.709829618439
 31
0.0
 11
160.0796411681708
 21
324.8630912045567
 31
0.0
 11
159.7360766072713
 21
325.0302648492684
 31
0.0
 11
159.3816428977356
 21
325.1721978644198
 31
0.0
 11
158.9373838085225
 21
325.3198596917101
 31
0.0
 11
158.4867515949528
 21
325.4458609763648
 31
0.0
 11
157.9561688539328
 21
325.5704105375472
 31
0.0
 11
157.4215303084074
 21
325.6757838669745
 31
0.0
 11
156.8209308193017
 21
325.7740167890359
 31
0.0
 11
156.2177832200462
 21
325.8547781461568
 31
0.0
 11
155.5655952085787
 21
325.9242177098317
 31
0.0
 11
154.9118948715239
 21
325.9772813635481
 31
0.0
 11
154.2280123717942
 21
326.0162694179702
 31
0.0
 11
153.5434237720631
 21
326.0394951534847
 31
0.0
 11
152.8486494318018
 21
326.0472775811654
 31
0.0
 11
152.1538750915406
 21
326.0394951534847
 31
0.0
 11
151.4692864918094
 21
326.0162694179703
 31
0.0
 11
150.7854039920797
 21
325.9772813635481
 31
0.0
 11
150.1317036550249
 21
325.9242177098318
 31
0.0
 11
149.4795156435575
 21
325.8547781461568
 31
0.0
 11
148.8763680443019
 21
325.774016789036
 31
0.0
 11
148.2757685551962
 21
325.6757838669745
 31
0.0
 11
147.7411300096708
 21
325.5704105375472
 31
0.0
 11
147.2105472686508
 21
325.4458609763647
 31
0.0
 11
146.7599150550811
 21
325.3198596917099
 31
0.0
 11
146.3156559658681
 21
325.1721978644198
 31
0.0
 11
145.9612222563323
 21
325.0302648492684
 31
0.0
 11
145.6176576954329
 21
324.8630912045568
 31
0.0
 11
145.36638117472
 21
324.709829618439
 31
0.0
 11
145.1333675882456
 21
324.5269784955139
 31
0.0
 11
144.987081312628
 21
324.3618606435601
 31
0.0
 11
144.883840324246
 21
324.1627946475156
 31
0.0
 11
144.8574471549129
 21
324.0697599339304
 31
0.0
 11
144.8486494318018
 21
323.9767252203452
 31
0.0
  0
SPLINE
  5
1AA
330
52
100
AcDbEntity
  8
1
  6
Continuous
 62
     7
100
AcDbSpline
210
0.0
220
0.0
230
1.0
 70
     8
 71
     3
 72
    11
 73
     7
 74
     5
 42
0.0000000001
 43
0.0000000001
 44
0.00000001
 40
0.0
 40
0.0
 40
0.0
 40
0.0
 40
0.7285913526883628
 40
1.457169136219245
 40
1.994444292985562
 40
2.530859418315739
 40
2.530859418315739
 40
2.530859418315739
 40
2.530859418315739
 10
161.4656330126555
 20
439.4045218148657
 30
0.0
 10
161.4374452283168
 20
439.6459255385364
 30
0.0
 10
161.3810701846039
 20
440.1287284900174
 30
0.0
 10
161.2273704452751
 20
440.7768740705629
 30
0.0
 10
161.0499922104496
 20
441.3513497902017
 30
0.0
 10
160.9157278425353
 20
441.6832775940616
 30
0.0
 10
160.8486494318027
 20
441.8491085580527
 30
0.0
 11
161.4656330126555
 21
439.4045218148657
 31
0.0
 11
161.3670893607507
 21
440.1264182810446
 31
0.0
 11
161.203672643823
 21
440.8364327620823
 31
0.0
 11
161.0427480209625
 21
441.3490416381618
 31
0.0
 11
160.8486494318027
 21
441.8491085580527
 31
0.0
  0
SPLINE
  5
1AB
330
52
100
AcDbEntity
  8
1
  6
Continuous
 62
     7
100
AcDbSpline
210
0.0
220
0.0
230
1.0
 70
     8
 71
     3
 72
    45
 73
    41
 74
    39
 42
0.0000000001
 43
0.0000000001
 44
0.00000001
 40
0.0
 40
0.0
 40
0.0
 40
0.0
 40
0.3369171012853033
 40
0.6745252782935545
 40
1.349599106336649
 40
2.024661081972855
 40
2.701794811173641
 40
3.378906614101199
 40
4.059180411452218
 40
4.739425368351871
 40
5.423529326043647
 40
6.107601429658515
 40
6.795756667842576
 40
7.483881013644533
 40
8.1758205144199
 40
8.867733611511351
 40
9.562741513330591
 40
10.25773026278006
 40
10.95473166615344
 40
11.65172302933036
 40
12.34941203533135
 40
13.04710104133239
 40
13.7440924045094
 40
14.44109380788284
 40
15.13608255733225
 40
15.83109045915144
 40
16.52300355624281
 40
17.21494305701819
 40
17.90306740282014
 40
18.59122264100427
 40
19.2752947446192
 40
19.95939870231089
 40
20.63964365921053
 40
21.31991745656151
 40
21.99702925948912
 40
22.67416298868985
 40
23.34922496432608
 40
24.02429879236917
 40
24.36190696937651
 40
24.69882407066062
 40
24.69882407066062
 40
24.69882407066062
 40
24.69882407066062
 10
144.8486494318016
 20
439.3245498016383
 30
0.0
 10
144.8501257049251
 20
439.2122330280064
 30
0.0
 10
144.8530812792656
 20
438.9873690994549
 30
0.0
 10
144.8846943821629
 20
438.5384183600365
 30
0.0
 10
144.9601177347611
 20
437.9801402108017
 30
0.0
 10
145.1119628169396
 20
437.3207123656119
 30
0.0
 10
145.3220315997023
 20
436.6767714446594
 30
0.0
 10
145.5900165730872
 20
436.0528064538482
 30
0.0
 10
145.9126642783978
 20
435.4541021998143
 30
0.0
 10
146.2887251820554
 20
434.8846392536314
 30
0.0
 10
146.7140219951458
 20
434.3493287812452
 30
0.0
 10
147.1866569416315
 20
433.851689035136
 30
0.0
 10
147.7016186694706
 20
433.3959691345596
 30
0.0
 10
148.2563871307817
 20
432.9852455360402
 30
0.0
 10
148.8453506503049
 20
432.6228768307634
 30
0.0
 10
149.4653413861056
 20
432.311486748109
 30
0.0
 10
150.1104396222583
 20
432.0533992672041
 30
0.0
 10
150.7767971232195
 20
431.850724474919
 30
0.0
 10
151.4584917222972
 20
431.7047055711421
 30
0.0
 10
152.1509917080109
 20
431.6168268374379
 30
0.0
 10
152.8486494318017
 20
431.5872964452159
 30
0.0
 10
153.5463071555924
 20
431.616826837438
 30
0.0
 10
154.2388071413062
 20
431.704705571142
 30
0.0
 10
154.9205017403838
 20
431.850724474919
 30
0.0
 10
155.5868592413451
 20
432.0533992672041
 30
0.0
 10
156.2319574774977
 20
432.3114867481092
 30
0.0
 10
156.8519482132984
 20
432.6228768307632
 30
0.0
 10
157.4409117328216
 20
432.9852455360404
 30
0.0
 10
157.9956801941326
 20
433.3959691345594
 30
0.0
 10
158.5106419219719
 20
433.8516890351361
 30
0.0
 10
158.9832768684576
 20
434.3493287812451
 30
0.0
 10
159.4085736815479
 20
434.8846392536314
 30
0.0
 10
159.7846345852055
 20
435.4541021998142
 30
0.0
 10
160.1072822905161
 20
436.0528064538481
 30
0.0
 10
160.3752672639009
 20
436.6767714446597
 30
0.0
 10
160.5853360466635
 20
437.3207123656118
 30
0.0
 10
160.7371811288422
 20
437.980140210802
 30
0.0
 10
160.8126044814403
 20
438.5384183600361
 30
0.0
 10
160.8442175843377
 20
438.987369099454
 30
0.0
 10
160.8471731586782
 20
439.2122330280046
 30
0.0
 10
160.8486494318016
 20
439.3245498016362
 30
0.0
 11
144.8486494318016
 21
439.3245498016383
 31
0.0
 11
144.8562828128053
 21
438.9877191845131
 31
0.0
 11
144.8791829558164
 21
438.6508885673879
 31
0.0
 11
144.9703161612179
 21
437.9819943962502
 31
0.0
 11
145.1214516928484
 21
437.3240683198339
 31
0.0
 11
145.3315821472898
 21
436.6803639782782
 31
0.0
 11
145.5985932985149
 21
436.0581217113232
 31
0.0
 11
145.9213704933193
 21
435.4593001002598
 31
0.0
 11
146.2960518093256
 21
434.8915438912906
 31
0.0
 11
146.7216298635576
 21
434.3559306495894
 31
0.0
 11
147.1925712136458
 21
433.85977655284
 31
0.0
 11
147.7079218143085
 21
433.4037377494068
 31
0.0
 11
148.2608594179944
 21
432.9941341340474
 31
0.0
 11
148.8501962500785
 21
432.6315567339211
 31
0.0
 11
149.4684304959625
 21
432.3208637163895
 31
0.0
 11
150.1137229332279
 21
432.062728763314
 31
0.0
 11
150.7785968892717
 21
431.8603627967189
 31
0.0
 11
151.460148510725
 21
431.7144232763728
 31
0.0
 11
152.1515814602877
 21
431.6265743344197
 31
0.0
 11
152.8486494318016
 21
431.5971431913213
 31
0.0
 11
153.5457174033156
 21
431.6265743344197
 31
0.0
 11
154.2371503528784
 21
431.7144232763728
 31
0.0
 11
154.9187019743318
 21
431.8603627967189
 31
0.0
 11
155.5835759303755
 21
432.062728763314
 31
0.0
 11
156.2288683676408
 21
432.3208637163895
 31
0.0
 11
156.8471026135248
 21
432.6315567339211
 31
0.0
 11
157.4364394456089
 21
432.9941341340474
 31
0.0
 11
157.9893770492948
 21
433.4037377494068
 31
0.0
 11
158.5047276499575
 21
433.85977655284
 31
0.0
 11
158.9756690000457
 21
434.3559306495894
 31
0.0
 11
159.4012470542777
 21
434.8915438912906
 31
0.0
 11
159.775928370284
 21
435.4593001002598
 31
0.0
 11
160.0987055650883
 21
436.0581217113232
 31
0.0
 11
160.3657167163134
 21
436.6803639782783
 31
0.0
 11
160.5758471707547
 21
437.3240683198339
 31
0.0
 11
160.7269827023854
 21
437.9819943962502
 31
0.0
 11
160.8181159077869
 21
438.6508885673879
 31
0.0
 11
160.841016050798
 21
438.9877191845122
 31
0.0
 11
160.8486494318016
 21
439.3245498016362
 31
0.0
  0
SPLINE
  5
1AC
330
52
100
AcDbEntity
  8
1
  6
Continuous
 62
     7
100
AcDbSpline
210
0.0
220
0.0
230
1.0
 70
     8
 71
     3
 72
     9
 73
     5
 74
     3
 42
0.0000000001
 43
0.0000000001
 44
0.00000001
 40
0.0
 40
0.0
 40
0.0
 40
0.0
 40
0.3369171012820079
 40
0.6745252782870188
 40
0.6745252782870188
 40
0.6745252782870188
 40
0.6745252782870188
 10
160.8486494318016
 20
439.3245498016362
 30
0.0
 10
160.8473719958541
 20
439.4368840721498
 30
0.0
 10
160.844814503715
 20
439.6617830303534
 30
0.0
 10
160.8270215162843
 20
439.8859917973544
 30
0.0
 10
160.8181159077869
 20
439.99821103588
 30
0.0
 11
160.8486494318016
 21
439.3245498016362
 31
0.0
 11
160.8410160507979
 21
439.6613804187581
 31
0.0
 11
160.8181159077869
 21
439.99821103588
 31
0.0
  0
SPLINE
  5
1AD
330
52
100
AcDbEntity
  8
1
  6
Continuous
 62
     7
100
AcDbSpline
210
0.0
220
0.0
230
1.0
 70
     8
 71
     3
 72
    49
 73
    45
 74
    43
 42
0.0000000001
 43
0.0000000001
 44
0.00000001
 40
0.0
 40
0.0
 40
0.0
 40
0.0
 40
0.5364151253313897
 40
1.073690282099136
 40
1.802268065630129
 40
2.530859418318342
 40
3.258628351775355
 40
3.986397285232256
 40
4.714988637920698
 40
5.443566421451592
 40
6.174507149962098
 40
6.905422798771903
 40
7.639944091769269
 40
8.374432441005624
 40
9.113319979140215
 40
9.852171190080838
 40
10.59567561990802
 40
11.33914487858969
 40
12.08696061225225
 40
12.83474633160763
 40
13.58605691400527
 40
14.33734575185299
 40
15.09092647818025
 40
15.84449581445493
 40
16.59885950272017
 40
17.35322319098548
 40
18.10679252726024
 40
18.86037325358756
 40
19.6116620914352
 40
20.36297267383278
 40
21.11075839318803
 40
21.85857412685062
 40
22.60204338553233
 40
23.3455478153595
 40
24.08439902630002
 40
24.82328656443464
 40
25.55777491367103
 40
26.29229620666849
 40
27.02321185547823
 40
27.75415258398884
 40
28.48273036751973
 40
29.21132172020805
 40
29.939090653665
 40
30.66685958712196
 40
30.66685958712196
 40
30.66685958712196
 40
30.66685958712196
 10
144.8486494318016
 20
441.8491085580552
 30
0.0
 10
144.7816113207362
 20
441.6832739779405
 30
0.0
 10
144.6474276167685
 20
441.3513389360361
 30
0.0
 10
144.4693717288594
 20
440.7769240227779
 30
0.0
 10
144.3191618072713
 20
440.1284652979498
 30
0.0
 10
144.2208615472395
 20
439.4057666408224
 30
0.0
 10
144.1875598687024
 20
438.6775064100215
 30
0.0
 10
144.2208206324023
 20
437.9492208428179
 30
0.0
 10
144.3193256811397
 20
437.2265982803297
 30
0.0
 10
144.4833421585848
 20
436.5148932004598
 30
0.0
 10
144.7105369534339
 20
435.8199571004852
 30
0.0
 10
145.0003063984925
 20
435.1465526995099
 30
0.0
 10
145.3491809173879
 20
434.500443484526
 30
0.0
 10
145.7558225062979
 20
433.8858683511311
 30
0.0
 10
146.21567665173
 20
433.3081847606741
 30
0.0
 10
146.7267367005422
 20
432.7711312132331
 30
0.0
 10
147.2835310022514
 20
432.2793480335881
 30
0.0
 10
147.8833896696192
 20
431.8361022667264
 30
0.0
 10
148.5201882844449
 20
431.4450637446143
 30
0.0
 10
149.1905569641
 20
431.1090225250031
 30
0.0
 10
149.8880436728758
 20
430.8305187971417
 30
0.0
 10
150.6085340282475
 20
430.6118020282187
 30
0.0
 10
151.3455874858979
 20
430.4542335676072
 30
0.0
 10
152.0943336298142
 20
430.3593990125288
 30
0.0
 10
152.8486494318018
 20
430.3275346487764
 30
0.0
 10
153.6029652337885
 20
430.3593990125289
 30
0.0
 10
154.3517113777076
 20
430.4542335676074
 30
0.0
 10
155.0887648353479
 20
430.6118020282179
 30
0.0
 10
155.8092551907575
 20
430.8305187971445
 30
0.0
 10
156.5067418993918
 20
431.1090225249931
 30
0.0
 10
157.1771105795718
 20
431.4450637446515
 30
0.0
 10
157.8139091924446
 20
431.8361022665882
 30
0.0
 10
158.4137678670601
 20
432.2793480341003
 30
0.0
 10
158.970562141809
 20
432.771131211326
 30
0.0
 10
159.481622290637
 20
433.3081847677416
 30
0.0
 10
159.9414760640173
 20
433.8858683248143
 30
0.0
 10
160.3481190335639
 20
434.5004435820945
 30
0.0
 10
160.6969884144776
 20
435.1465523360432
 30
0.0
 10
160.9867769451612
 20
435.8199584495874
 30
0.0
 10
161.2139006589472
 20
436.5148881713986
 30
0.0
 10
161.3781816004974
 20
437.2266169818552
 30
0.0
 10
161.4757006749753
 20
437.9491510720437
 30
0.0
 10
161.5126372487399
 20
438.6777664727766
 30
0.0
 10
161.4813010913504
 20
439.1622700341694
 30
0.0
 10
161.4656330126555
 20
439.4045218148657
 30
0.0
 11
144.8486494318016
 21
441.8491085580552
 31
0.0
 11
144.6545508426413
 21
441.3490416381632
 31
0.0
 11
144.4936262197803
 21
440.8364327620824
 31
0.0
 11
144.3302095028526
 21
440.1264182810445
 31
0.0
 11
144.2316658509477
 21
439.4045218148658
 31
0.0
 11
144.1986494318015
 21
438.6775021888777
 31
0.0
 11
144.2316658509477
 21
437.9504825628897
 31
0.0
 11
144.3302095028526
 21
437.2285860967107
 31
0.0
 11
144.4936262197804
 21
436.518571615673
 31
0.0
 11
144.7208493789045
 21
435.8238457815822
 31
0.0
 11
145.0095476867597
 21
435.1523616248692
 31
0.0
 11
145.3585850118107
 21
434.506068753496
 31
0.0
 11
145.7636875492456
 21
433.893398312453
 31
0.0
 11
146.2238894058702
 21
433.3153247486483
 31
0.0
 11
146.7330584823553
 21
432.7799296016217
 31
0.0
 11
147.2903305882003
 21
432.2877440296879
 31
0.0
 11
147.8881477264325
 21
431.8457471882507
 31
0.0
 11
148.5254121987043
 21
431.4544386604961
 31
0.0
 11
149.1938285232408
 21
431.1191729462262
 31
0.0
 11
149.8915815304556
 21
430.8405902257546
 31
0.0
 11
150.6104330746267
 21
430.6222158332141
 31
0.0
 11
151.3473721408466
 21
430.4647206784602
 31
0.0
 11
152.0949546190997
 21
430.3699199253916
 31
0.0
 11
152.8486494318016
 21
430.3381598328331
 31
0.0
 11
153.6023442445036
 21
430.3699199253916
 31
0.0
 11
154.3499267227568
 21
430.4647206784602
 31
0.0
 11
155.0868657889767
 21
430.6222158332141
 31
0.0
 11
155.8057173331478
 21
430.8405902257545
 31
0.0
 11
156.5034703403624
 21
431.1191729462263
 31
0.0
 11
157.1718866648989
 21
431.454438660496
 31
0.0
 11
157.8091511371707
 21
431.8457471882507
 31
0.0
 11
158.406968275403
 21
432.2877440296879
 31
0.0
 11
158.9642403812479
 21
432.7799296016217
 31
0.0
 11
159.473409457733
 21
433.3153247486482
 31
0.0
 11
159.9336113143576
 21
433.893398312453
 31
0.0
 11
160.3387138517925
 21
434.5060687534959
 31
0.0
 11
160.6877511768436
 21
435.1523616248692
 31
0.0
 11
160.9764494846989
 21
435.8238457815821
 31
0.0
 11
161.203672643823
 21
436.518571615673
 31
0.0
 11
161.3670893607508
 21
437.2285860967107
 31
0.0
 11
161.4656330126556
 21
437.9504825628895
 31
0.0
 11
161.4986494318017
 21
438.6775021888776
 31
0.0
 11
161.4656330126555
 21
439.4045218148657
 31
0.0
  0
ENDBLK
  5
54
330
52
100
AcDbEntity
  8
0
100
AcDbBlockEnd
  0
BLOCK
  5
58
330
55
100
AcDbEntity
  8
0
100
AcDbBlockBegin
  2
A27JH-60X
 70
     0
 71
     0
 10
326.2746849347603
 20
253.0857361183254
 30
0.0
  3
A27JH-60X
  1

  0
INSERT
  5
56
330
55
100
AcDbEntity
  8
0
100
AcDbBlockReference
  2
32-1-16
 10
266.6359275383104
 20
498.7526000236508
 30
0.0
  0
INSERT
  5
57
330
55
100
AcDbEntity
  8
1
100
AcDbBlockReference
  2
61-3-16-190
 10
334.1999330495718
 20
236.2517603236888
 30
0.0
  0
LINE
  5
1AE
330
55
100
AcDbEntity
  8
1
  6
PHANTOM
 62
     4
100
AcDbLine
 10
152.8486494318018
 20
355.6366105137338
 30
0.0
 11
152.8486494318018
 21
258.2176887810472
 31
0.0
  0
LINE
  5
1AF
330
55
100
AcDbEntity
  8
1
  6
PHANTOM
 62
     4
100
AcDbLine
 10
288.2125143758019
 20
316.2493186100328
 30
0.0
 11
288.9889715111096
 21
319.1470960889001
 31
0.0
  0
LINE
  5
1B0
330
55
100
AcDbEntity
  8
1
  6
PHANTOM
 62
     4
100
AcDbLine
 10
288.9889715111096
 20
319.1470960889001
 30
0.0
 11
291.0595238719293
 21
326.8745026992127
 31
0.0
  0
LINE
  5
1B1
330
55
100
AcDbEntity
  8
1
  6
PHANTOM
 62
     4
100
AcDbLine
 10
321.6781456567194
 20
344.5521722288765
 30
0.0
 11
460.4594476386725
 21
307.3658344382749
 31
0.0
  0
ARC
  5
1B2
330
55
100
AcDbEntity
  8
1
  6
PHANTOM
 62
     4
100
AcDbCircle
 10
315.207669529156
 20
320.4040265716485
 30
0.0
 40
25.00000000000132
100
AcDbArc
 50
75.0
 51
90.0
  0
ARC
  5
1B3
330
55
100
AcDbEntity
  8
1
  6
PHANTOM
 62
     4
100
AcDbCircle
 10
453.9889715111094
 20
283.2176887810483
 30
0.0
 40
25.00000000000011
100
AcDbArc
 50
-0.00000000000026
 51
74.9999999999998
  0
ARC
  5
1B4
330
55
100
AcDbEntity
  8
1
  6
PHANTOM
 62
     4
100
AcDbCircle
 10
315.207669529156
 20
320.40402657165
 30
0.0
 40
24.99999999999994
100
AcDbArc
 50
90.0
 51
165.0000000000007
  0
ENDBLK
  5
59
330
55
100
AcDbEntity
  8
0
100
AcDbBlockEnd
  0
BLOCK
  5
5B
330
5A
100
AcDbEntity
  8
0
100
AcDbBlockBegin
  2
_J__A4
 70
     0
 71
     0
 10
0.0
 20
0.0
 30
0.0
  3
_J__A4
  1

  0
POINT
  5
1B5
330
5A
100
AcDbEntity
  8
1
 62
     4
100
AcDbPoint
 10
93.75
 20
17.0
 30
0.0
  0
POINT
  5
1B6
330
5A
100
AcDbEntity
  8
1
 62
     4
100
AcDbPoint
 10
85.25
 20
17.0
 30
0.0
  0
POINT
  5
1B7
330
5A
100
AcDbEntity
  8
1
 62
     4
100
AcDbPoint
 10
106.5
 20
19.00000000000001
 30
0.0
  0
POINT
  5
1B8
330
5A
100
AcDbEntity
  8
1
 62
     4
100
AcDbPoint
 10
106.5
 20
12.5
 30
0.0
  0
POINT
  5
1B9
330
5A
100
AcDbEntity
  8
1
 62
     4
100
AcDbPoint
 10
112.25
 20
12.5
 30
0.0
  0
POINT
  5
1BA
330
5A
100
AcDbEntity
  8
1
 62
     4
100
AcDbPoint
 10
100.75
 20
12.5
 30
0.0
  0
POINT
  5
1BB
330
5A
100
AcDbEntity
  8
1
 62
     4
100
AcDbPoint
 10
123.5
 20
19.00000000000001
 30
0.0
  0
POINT
  5
1BC
330
5A
100
AcDbEntity
  8
1
 62
     4
100
AcDbPoint
 10
123.5
 20
12.5
 30
0.0
  0
POINT
  5
1BD
330
5A
100
AcDbEntity
  8
1
 62
     4
100
AcDbPoint
 10
129.25
 20
12.5
 30
0.0
  0
POINT
  5
1BE
330
5A
100
AcDbEntity
  8
1
 62
     4
100
AcDbPoint
 10
117.75
 20
12.5
 30
0.0
  0
POINT
  5
1BF
330
5A
100
AcDbEntity
  8
1
 62
     4
100
AcDbPoint
 10
140.5
 20
19.00000000000001
 30
0.0
  0
POINT
  5
1C0
330
5A
100
AcDbEntity
  8
1
 62
     4
100
AcDbPoint
 10
140.5
 20
12.5
 30
0.0
  0
POINT
  5
1C1
330
5A
100
AcDbEntity
  8
1
 62
     4
100
AcDbPoint
 10
146.25
 20
12.5
 30
0.0
  0
POINT
  5
1C2
330
5A
100
AcDbEntity
  8
1
 62
     4
100
AcDbPoint
 10
134.75
 20
12.5
 30
0.0
  0
POINT
  5
1C3
330
5A
100
AcDbEntity
  8
1
 62
     4
100
AcDbPoint
 10
151.75
 20
12.5
 30
0.0
  0
POINT
  5
1C4
330
5A
100
AcDbEntity
  8
1
 62
     4
100
AcDbPoint
 10
163.25
 20
12.5
 30
0.0
  0
POINT
  5
1C5
330
5A
100
AcDbEntity
  8
1
 62
     4
100
AcDbPoint
 10
157.5
 20
12.5
 30
0.0
  0
POINT
  5
1C6
330
5A
100
AcDbEntity
  8
1
 62
     4
100
AcDbPoint
 10
57.0
 20
14.25
 30
0.0
  0
POINT
  5
1C7
330
5A
100
AcDbEntity
  8
1
 62
     4
100
AcDbPoint
 10
57.0
 20
22.75000000000001
 30
0.0
  0
POINT
  5
1C8
330
5A
100
AcDbEntity
  8
1
 62
     4
100
AcDbPoint
 10
47.5
 20
282.0000000000003
 30
0.0
  0
POINT
  5
1C9
330
5A
100
AcDbEntity
  8
1
 62
     4
100
AcDbPoint
 10
157.5
 20
19.00000000000001
 30
0.0
  0
POINT
  5
1CA
330
5A
100
AcDbEntity
  8
1
 62
     4
100
AcDbPoint
 10
57.0
 20
16.25
 30
0.0
  0
POINT
  5
1CB
330
5A
100
AcDbEntity
  8
1
 62
     4
100
AcDbPoint
 10
57.0
 20
24.75000000000001
 30
0.0
  0
POINT
  5
1CC
330
5A
100
AcDbEntity
  8
1
 62
     4
100
AcDbPoint
 10
57.0
 20
20.75000000000001
 30
0.0
  0
POINT
  5
1CD
330
5A
100
AcDbEntity
  8
1
 62
     4
100
AcDbPoint
 10
57.0
 20
12.25
 30
0.0
  0
POINT
  5
1CE
330
5A
100
AcDbEntity
  8
1
 62
     4
100
AcDbPoint
 10
34.0
 20
34.00000000000001
 30
0.0
  0
LINE
  5
1CF
330
5A
100
AcDbEntity
  8
1
  6
Continuous
 62
     7
100
AcDbLine
 10
105.0
 20
10.0
 30
0.0
 11
200.0
 21
10.0
 31
0.0
  0
LINE
  5
1D0
330
5A
100
AcDbEntity
  8
1
  6
Continuous
 62
     2
100
AcDbLine
 10
105.0
 20
10.0
 30
0.0
 11
105.0
 21
5.0
 31
0.0
  0
LINE
  5
1D1
330
5A
100
AcDbEntity
  8
1
  6
Continuous
 62
     7
100
AcDbLine
 10
200.0
 20
148.5
 30
0.0
 11
200.0
 21
287.0000000000003
 31
0.0
  0
LINE
  5
1D2
330
5A
100
AcDbEntity
  8
1
  6
Continuous
 62
     2
100
AcDbLine
 10
200.0
 20
148.5
 30
0.0
 11
205.0
 21
148.5
 31
0.0
  0
LINE
  5
1D3
330
5A
100
AcDbEntity
  8
1
  6
Continuous
 62
     7
100
AcDbLine
 10
25.0
 20
148.5
 30
0.0
 11
25.0
 21
287.0000000000003
 31
0.0
  0
LINE
  5
1D4
330
5A
100
AcDbEntity
  8
1
  6
Continuous
 62
     2
100
AcDbLine
 10
25.0
 20
148.5
 30
0.0
 11
20.0
 21
148.5
 31
0.0
  0
LINE
  5
1D5
330
5A
100
AcDbEntity
  8
1
  6
Continuous
 62
     7
100
AcDbLine
 10
105.0
 20
287.0000000000003
 30
0.0
 11
25.0
 21
287.0000000000003
 31
0.0
  0
LINE
  5
1D6
330
5A
100
AcDbEntity
  8
1
  6
Continuous
 62
     2
100
AcDbLine
 10
105.0
 20
287.0000000000003
 30
0.0
 11
105.0
 21
292.0000000000003
 31
0.0
  0
LINE
  5
1D7
330
5A
100
AcDbEntity
  8
1
  6
Continuous
 62
     2
100
AcDbLine
 10
166.0
 20
20.00000000000001
 30
0.0
 11
200.0
 21
20.00000000000001
 31
0.0
  0
LINE
  5
1D8
330
5A
100
AcDbEntity
  8
1
  6
Continuous
 62
     2
100
AcDbLine
 10
98.0
 20
27.00000000000001
 30
0.0
 11
98.0
 21
9.99999999999999
 31
0.0
  0
LINE
  5
1D9
330
5A
100
AcDbEntity
  8
1
  6
Continuous
 62
     2
100
AcDbLine
 10
115.0
 20
27.00000000000001
 30
0.0
 11
115.0
 21
9.99999999999999
 31
0.0
  0
LINE
  5
1DA
330
5A
100
AcDbEntity
  8
1
  6
Continuous
 62
     2
100
AcDbLine
 10
149.0
 20
27.00000000000001
 30
0.0
 11
149.0
 21
10.0
 31
0.0
  0
LINE
  5
1DB
330
5A
100
AcDbEntity
  8
1
  6
Continuous
 62
     2
100
AcDbLine
 10
132.0
 20
27.00000000000001
 30
0.0
 11
132.0
 21
9.99999999999999
 31
0.0
  0
LINE
  5
1DC
330
5A
100
AcDbEntity
  8
1
  6
Continuous
 62
     2
100
AcDbLine
 10
166.0
 20
27.00000000000001
 30
0.0
 11
166.0
 21
10.0
 31
0.0
  0
LINE
  5
1DD
330
5A
100
AcDbEntity
  8
1
  6
Continuous
 62
     2
100
AcDbLine
 10
55.0
 20
277.0000000000003
 30
0.0
 11
25.0
 21
277.0000000000003
 31
0.0
  0
LINE
  5
1DE
330
5A
100
AcDbEntity
  8
1
  6
Continuous
 62
     7
100
AcDbLine
 10
25.0
 20
10.0
 30
0.0
 11
25.0
 21
148.5
 31
0.0
  0
LINE
  5
1DF
330
5A
100
AcDbEntity
  8
1
  6
Continuous
 62
     2
100
AcDbLine
 10
40.0
 20
287.0000000000003
 30
0.0
 11
40.0
 21
277.0000000000003
 31
0.0
  0
LINE
  5
1E0
330
5A
100
AcDbEntity
  8
1
  6
Continuous
 62
     2
100
AcDbLine
 10
55.0
 20
287.0000000000003
 30
0.0
 11
55.0
 21
277.0000000000003
 31
0.0
  0
LINE
  5
1E1
330
5A
100
AcDbEntity
  8
1
  6
Continuous
 62
     2
100
AcDbLine
 10
33.0
 20
41.00000000000001
 30
0.0
 11
33.0
 21
27.0
 31
0.0
  0
LINE
  5
1E2
330
5A
100
AcDbEntity
  8
1
  6
Continuous
 62
     7
100
AcDbLine
 10
200.0
 20
27.00000000000001
 30
0.0
 11
25.0
 21
27.00000000000001
 31
0.0
  0
LINE
  5
1E3
330
5A
100
AcDbEntity
  8
1
  6
Continuous
 62
     7
100
AcDbLine
 10
25.0
 20
41.0
 30
0.0
 11
200.0
 21
41.0
 31
0.0
  0
LINE
  5
1E4
330
5A
100
AcDbEntity
  8
1
  6
PHANTOM
 62
     4
100
AcDbLine
 10
0.0
 20
0.0
 30
0.0
 11
210.0
 21
0.0
 31
0.0
  0
LINE
  5
1E5
330
5A
100
AcDbEntity
  8
1
  6
PHANTOM
 62
     4
100
AcDbLine
 10
210.0
 20
0.0
 30
0.0
 11
210.0
 21
297.0
 31
0.0
  0
LINE
  5
1E6
330
5A
100
AcDbEntity
  8
1
  6
PHANTOM
 62
     4
100
AcDbLine
 10
210.0
 20
297.0
 30
0.0
 11
0.0
 21
297.0
 31
0.0
  0
LINE
  5
1E7
330
5A
100
AcDbEntity
  8
1
  6
PHANTOM
 62
     4
100
AcDbLine
 10
0.0
 20
297.0
 30
0.0
 11
0.0
 21
0.0
 31
0.0
  0
LINE
  5
1E8
330
5A
100
AcDbEntity
  8
1
  6
Continuous
 62
     7
100
AcDbLine
 10
25.0
 20
10.0
 30
0.0
 11
105.0
 21
10.0
 31
0.0
  0
LINE
  5
1E9
330
5A
100
AcDbEntity
  8
1
  6
Continuous
 62
     7
100
AcDbLine
 10
200.0
 20
10.0
 30
0.0
 11
200.0
 21
148.5
 31
0.0
  0
LINE
  5
1EA
330
5A
100
AcDbEntity
  8
1
  6
Continuous
 62
     7
100
AcDbLine
 10
200.0
 20
287.0000000000003
 30
0.0
 11
105.0
 21
287.0000000000003
 31
0.0
  0
LINE
  5
1EB
330
5A
100
AcDbEntity
  8
1
  6
Continuous
 62
     2
100
AcDbLine
 10
25.0
 20
18.50000000000001
 30
0.0
 11
81.0
 21
18.50000000000001
 31
0.0
  0
LINE
  5
1EC
330
5A
100
AcDbEntity
  8
1
  6
Continuous
 62
     2
100
AcDbLine
 10
33.0
 20
27.0
 30
0.0
 11
33.0
 21
10.0
 31
0.0
  0
LINE
  5
1ED
330
5A
100
AcDbEntity
  8
1
  6
Continuous
 62
     7
100
AcDbLine
 10
191.0
 20
24.70000000000001
 30
0.0
 11
191.0
 21
22.30000000000001
 31
0.0
  0
LINE
  5
1EE
330
5A
100
AcDbEntity
  8
1
  6
Continuous
 62
     7
100
AcDbLine
 10
191.0
 20
24.70000000000001
 30
0.0
 11
196.0
 21
25.50000000000001
 31
0.0
  0
LINE
  5
1EF
330
5A
100
AcDbEntity
  8
1
  6
Continuous
 62
     7
100
AcDbLine
 10
196.0
 20
25.50000000000001
 30
0.0
 11
196.0
 21
21.50000000000001
 31
0.0
  0
LINE
  5
1F0
330
5A
100
AcDbEntity
  8
1
  6
Continuous
 62
     7
100
AcDbLine
 10
196.0
 20
21.50000000000001
 30
0.0
 11
191.0
 21
22.30000000000001
 31
0.0
  0
LINE
  5
1F1
330
5A
100
AcDbEntity
  8
1
  6
DOT_CENTER
 62
     2
100
AcDbLine
 10
184.0
 20
23.50000000000001
 30
0.0
 11
197.0
 21
23.50000000000001
 31
0.0
  0
LINE
  5
1F2
330
5A
100
AcDbEntity
  8
1
  6
DOT_CENTER
 62
     2
100
AcDbLine
 10
187.0
 20
26.50000000000001
 30
0.0
 11
187.0
 21
20.50000000000001
 31
0.0
  0
LINE
  5
1F3
330
5A
100
AcDbEntity
  8
1
  6
Continuous
 62
     2
100
AcDbLine
 10
81.0
 20
27.00000000000001
 30
0.0
 11
81.0
 21
10.0
 31
0.0
  0
CIRCLE
  5
1F4
330
5A
100
AcDbEntity
  8
1
  6
Continuous
 62
     7
100
AcDbCircle
 10
103.5
 20
12.5
 30
0.0
 40
0.2999999999999972
  0
CIRCLE
  5
1F5
330
5A
100
AcDbEntity
  8
1
  6
Continuous
 62
     7
100
AcDbCircle
 10
109.5
 20
12.5
 30
0.0
 40
0.2999999999999972
  0
CIRCLE
  5
1F6
330
5A
100
AcDbEntity
  8
1
  6
Continuous
 62
     7
100
AcDbCircle
 10
120.5
 20
12.5
 30
0.0
 40
0.2999999999999972
  0
CIRCLE
  5
1F7
330
5A
100
AcDbEntity
  8
1
  6
Continuous
 62
     7
100
AcDbCircle
 10
126.5
 20
12.5
 30
0.0
 40
0.2999999999999972
  0
CIRCLE
  5
1F8
330
5A
100
AcDbEntity
  8
1
  6
Continuous
 62
     7
100
AcDbCircle
 10
137.5
 20
12.5
 30
0.0
 40
0.3000000000000114
  0
CIRCLE
  5
1F9
330
5A
100
AcDbEntity
  8
1
  6
Continuous
 62
     7
100
AcDbCircle
 10
143.5
 20
12.5
 30
0.0
 40
0.3000000000000114
  0
CIRCLE
  5
1FA
330
5A
100
AcDbEntity
  8
1
  6
Continuous
 62
     7
100
AcDbCircle
 10
160.5
 20
12.5
 30
0.0
 40
0.3000000000000114
  0
CIRCLE
  5
1FB
330
5A
100
AcDbEntity
  8
1
  6
Continuous
 62
     7
100
AcDbCircle
 10
154.5
 20
12.5
 30
0.0
 40
0.3000000000000114
  0
CIRCLE
  5
1FC
330
5A
100
AcDbEntity
  8
1
  6
Continuous
 62
     7
100
AcDbCircle
 10
187.0
 20
23.50000000000001
 30
0.0
 40
1.200000000000102
  0
CIRCLE
  5
1FD
330
5A
100
AcDbEntity
  8
1
  6
Continuous
 62
     7
100
AcDbCircle
 10
187.0
 20
23.50000000000001
 30
0.0
 40
2.0
  0
CIRCLE
  5
1FE
330
5A
100
AcDbEntity
  8
1
  6
DOT_CENTER
 62
     7
100
AcDbCircle
 10
89.5
 20
16.0
 30
0.0
 40
0.1000000000000227
  0
CIRCLE
  5
1FF
330
5A
100
AcDbEntity
  8
1
  6
DOT_CENTER
 62
     7
100
AcDbCircle
 10
89.5
 20
18.0
 30
0.0
 40
0.1000000000000227
  0
MTEXT
  5
201
330
5A
100
AcDbEntity
  8
1
 62
     7
100
AcDbMText
 10
188.5
 20
15.0
 30
0.0
 40
3.0
 41
0.0
 71
     5
 72
     1
  1
三栄水栓製作所
  7
CONVERTER_1
 73
     1
 44
1.32052821128451
  0
MTEXT
  5
202
330
5A
100
AcDbEntity
  8
1
 62
     7
100
AcDbMText
 10
171.5
 20
15.0
 30
0.0
 40
2.5
 41
0.0
 71
     5
 72
     1
  1
株式会社
  7
CONVERTER_1
 73
     1
 44
1.32052821128451
  0
MTEXT
  5
203
330
5A
100
AcDbEntity
  8
1
 62
     2
100
AcDbMText
 10
32.5
 20
282.0000000000003
 30
0.0
 40
5.0
 41
0.0
 71
     5
 72
     1
  1
図番
  7
CONVERTER_1
 73
     1
 44
0.60024009603842
  0
MTEXT
  5
204
330
5A
100
AcDbEntity
  8
1
 62
     2
100
AcDbMText
 10
29.0
 20
34.00000000000001
 30
0.0
 40
3.5
 41
0.0
 71
     5
 72
     1
  1
備考
  7
CONVERTER_1
 73
     1
 44
0.60024009603842
  0
MTEXT
  5
205
330
5A
100
AcDbEntity
  8
1
 62
     2
100
AcDbMText
 10
29.0
 20
22.75
 30
0.0
 40
3.5
 41
0.0
 71
     5
 72
     1
  1
品名
  7
CONVERTER_1
 73
     1
 44
0.96038415366146
  0
MTEXT
  5
206
330
5A
100
AcDbEntity
  8
1
 62
     2
100
AcDbMText
 10
29.0
 20
14.25
 30
0.0
 40
3.5
 41
0.0
 71
     5
 72
     1
  1
品番
  7
CONVERTER_1
 73
     1
 44
0.96038415366146
  0
MTEXT
  5
207
330
5A
100
AcDbEntity
  8
1
 62
     2
100
AcDbMText
 10
101.5
 20
25.00000000000001
 30
0.0
 40
3.0
 41
0.0
 71
     5
 72
     1
  1
承認
  7
CONVERTER_1
 73
     1
 44
0.78031212484994
  0
MTEXT
  5
208
330
5A
100
AcDbEntity
  8
1
 62
     2
100
AcDbMText
 10
175.0
 20
23.50000000000001
 30
0.0
 40
3.5
 41
0.0
 71
     5
 72
     1
  1
第三角法
  7
CONVERTER_1
 73
     1
 44
0.7202881152461
  0
MTEXT
  5
209
330
5A
100
AcDbEntity
  8
1
 62
     2
100
AcDbMText
 10
118.5
 20
25.00000000000001
 30
0.0
 40
3.0
 41
0.0
 71
     5
 72
     1
  1
検図
  7
CONVERTER_1
 73
     1
 44
0.78031212484994
  0
MTEXT
  5
20A
330
5A
100
AcDbEntity
  8
1
 62
     2
100
AcDbMText
 10
152.5
 20
25.00000000000001
 30
0.0
 40
3.0
 41
0.0
 71
     5
 72
     1
  1
設計
  7
CONVERTER_1
 73
     1
 44
0.78031212484994
  0
MTEXT
  5
20B
330
5A
100
AcDbEntity
  8
1
 62
     2
100
AcDbMText
 10
135.5
 20
25.00000000000001
 30
0.0
 40
3.0
 41
0.0
 71
     5
 72
     1
  1
製図
  7
CONVERTER_1
 73
     1
 44
0.78031212484994
  0
MTEXT
  5
20C
330
5A
100
AcDbEntity
  8
1
 62
     2
100
AcDbMText
 10
89.5
 20
24.00000000000001
 30
0.0
 40
3.5
 41
0.0
 71
     5
 72
     1
  1
尺度
  7
CONVERTER_1
 73
     1
 44
0.7202881152461
  0
MTEXT
  5
20D
330
5A
100
AcDbEntity
  8
1
 62
   250
100
AcDbMText
 10
25.0
 20
5.0
 30
0.0
 40
3.5
 41
0.0
 71
     4
 72
     1
  1
備考欄の文字列 原点位置=4
  7
CONVERTER_1
 73
     1
 44
0.7202881152461
  0
ENDBLK
  5
5C
330
5A
100
AcDbEntity
  8
0
100
AcDbBlockEnd
  0
BLOCK
  5
22B
330
223
100
AcDbEntity
  8
0
100
AcDbBlockBegin
  2
*D012
 70
     1
 71
     0
 10
0.0
 20
0.0
 30
0.0
  3
*D012
  1

  0
LINE
  5
224
330
223
100
AcDbEntity
  8
0
  6
Continuous
 62
     2
100
AcDbLine
 10
210.348649431802
 20
163.717688781047
 30
0.0
 11
152.8486494318019
 21
163.717688781047
 31
0.0
  0
LINE
  5
225
330
223
100
AcDbEntity
  8
0
  6
Continuous
 62
     2
100
AcDbLine
 10
274.2121974307575
 20
163.717688781047
 30
0.0
 11
210.348649431802
 21
163.717688781047
 31
0.0
  0
LINE
  5
226
330
223
100
AcDbEntity
  8
0
  6
Continuous
 62
     2
100
AcDbLine
 10
210.348649431802
 20
240.7176887810472
 30
0.0
 11
210.348649431802
 21
160.717688781047
 31
0.0
  0
LINE
  5
227
330
223
100
AcDbEntity
  8
0
  6
Continuous
 62
     2
100
AcDbLine
 10
152.8486494318019
 20
214.7176887810471
 30
0.0
 11
152.8486494318019
 21
160.717688781047
 31
0.0
  0
SOLID
  5
228
330
223
100
AcDbEntity
  8
0
 62
     2
100
AcDbTrace
 10
199.848649431802
 20
162.3353375563794
 30
0.0
 11
199.848649431802
 21
165.1000400057147
 31
0.0
 12
210.348649431802
 22
163.717688781047
 32
0.0
 13
210.348649431802
 23
163.717688781047
 33
0.0
  0
SOLID
  5
229
330
223
100
AcDbEntity
  8
0
 62
     2
100
AcDbTrace
 10
163.3486494318019
 20
165.1000400057147
 30
0.0
 11
163.3486494318019
 21
162.3353375563794
 31
0.0
 12
152.8486494318019
 22
163.717688781047
 32
0.0
 13
152.8486494318019
 23
163.717688781047
 33
0.0
  0
MTEXT
  5
22A
330
223
100
AcDbEntity
  8
0
 62
     7
100
AcDbMText
 10
217.5121974307575
 20
166.717688781047
 30
0.0
 40
10.5
 41
0.0
 71
     7
 72
     1
  1
58リフト5
  7
CONVERTER_1
 11
0.9999999999970621
 21
2.424068405545307E-6
 31
0.0
 73
     1
 44
0.60024009603842
  0
ENDBLK
  5
22C
330
223
100
AcDbEntity
  8
0
100
AcDbBlockEnd
  0
BLOCK
  5
236
330
22F
100
AcDbEntity
  8
0
100
AcDbBlockBegin
  2
*D113
 70
     1
 71
     0
 10
0.0
 20
0.0
 30
0.0
  3
*D113
  1

  0
LINE
  5
230
330
22F
100
AcDbEntity
  8
1
  6
Continuous
 62
     2
100
AcDbLine
 10
567.9889715111103
 20
263.7176887810474
 30
0.0
 11
567.9889715111103
 21
217.7176887810474
 31
0.0
  0
LINE
  5
231
330
22F
100
AcDbEntity
  8
1
  6
Continuous
 62
     2
100
AcDbLine
 10
523.9889715111103
 20
217.7176887810474
 30
0.0
 11
570.9889715111103
 21
217.7176887810474
 31
0.0
  0
LINE
  5
232
330
22F
100
AcDbEntity
  8
1
  6
Continuous
 62
     2
100
AcDbLine
 10
523.9889715111103
 20
263.7176887810474
 30
0.0
 11
570.9889715111103
 21
263.7176887810474
 31
0.0
  0
SOLID
  5
233
330
22F
100
AcDbEntity
  8
1
 62
     2
100
AcDbTrace
 10
569.371322735778
 20
253.2176887810474
 30
0.0
 11
566.6066202864427
 21
253.2176887810474
 31
0.0
 12
567.9889715111103
 22
263.7176887810474
 32
0.0
 13
567.9889715111103
 23
263.7176887810474
 33
0.0
  0
SOLID
  5
234
330
22F
100
AcDbEntity
  8
1
 62
     2
100
AcDbTrace
 10
566.6066202864427
 20
228.2176887810474
 30
0.0
 11
569.371322735778
 21
228.2176887810474
 31
0.0
 12
567.9889715111103
 22
217.7176887810474
 32
0.0
 13
567.9889715111103
 23
217.7176887810474
 33
0.0
  0
MTEXT
  5
235
330
22F
100
AcDbEntity
  8
1
 62
     7
100
AcDbMText
 10
564.9889715111103
 20
227.5926887810474
 30
0.0
 40
10.5
 41
0.0
 71
     7
 72
     1
  1
{\Fgdt;n}46
  7
CONVERTER_2
 11
0.0
 21
1.0
 31
0.0
 73
     1
 44
0.60024009603842
  0
ENDBLK
  5
237
330
22F
100
AcDbEntity
  8
0
100
AcDbBlockEnd
  0
BLOCK
  5
241
330
23A
100
AcDbEntity
  8
0
100
AcDbBlockBegin
  2
*D214
 70
     1
 71
     0
 10
0.0
 20
0.0
 30
0.0
  3
*D214
  1

  0
LINE
  5
23B
330
23A
100
AcDbEntity
  8
1
  6
Continuous
 62
     2
100
AcDbLine
 10
478.9889715111103
 20
197.7176887810474
 30
0.0
 11
523.9889715111103
 21
197.7176887810474
 31
0.0
  0
LINE
  5
23C
330
23A
100
AcDbEntity
  8
1
  6
Continuous
 62
     2
100
AcDbLine
 10
523.9889715111103
 20
217.7176887810474
 30
0.0
 11
523.9889715111103
 21
194.7176887810474
 31
0.0
  0
LINE
  5
23D
330
23A
100
AcDbEntity
  8
1
  6
Continuous
 62
     2
100
AcDbLine
 10
478.9889715111103
 20
223.7176887810474
 30
0.0
 11
478.9889715111103
 21
194.7176887810474
 31
0.0
  0
SOLID
  5
23E
330
23A
100
AcDbEntity
  8
1
 62
     2
100
AcDbTrace
 10
489.4889715111103
 20
199.100040005715
 30
0.0
 11
489.4889715111103
 21
196.3353375563798
 31
0.0
 12
478.9889715111103
 22
197.7176887810474
 32
0.0
 13
478.9889715111103
 23
197.7176887810474
 33
0.0
  0
SOLID
  5
23F
330
23A
100
AcDbEntity
  8
1
 62
     2
100
AcDbTrace
 10
513.4889715111103
 20
196.3353375563798
 30
0.0
 11
513.4889715111103
 21
199.100040005715
 31
0.0
 12
523.9889715111103
 22
197.7176887810474
 32
0.0
 13
523.9889715111103
 23
197.7176887810474
 33
0.0
  0
MTEXT
  5
240
330
23A
100
AcDbEntity
  8
1
 62
     7
100
AcDbMText
 10
493.6139715111103
 20
200.7176887810474
 30
0.0
 40
10.5
 41
0.0
 71
     7
 72
     1
  1
45
  7
CONVERTER_2
 11
0.9999999999970621
 21
2.424068405545307E-6
 31
0.0
 73
     1
 44
0.60024009603842
  0
ENDBLK
  5
242
330
23A
100
AcDbEntity
  8
0
100
AcDbBlockEnd
  0
BLOCK
  5
24C
330
245
100
AcDbEntity
  8
0
100
AcDbBlockBegin
  2
*D315
 70
     1
 71
     0
 10
0.0
 20
0.0
 30
0.0
  3
*D315
  1

  0
LINE
  5
246
330
245
100
AcDbEntity
  8
1
  6
Continuous
 62
     2
100
AcDbLine
 10
288.9889715111096
 20
197.7176887810474
 30
0.0
 11
478.9889715111102
 21
197.7176887810474
 31
0.0
  0
LINE
  5
247
330
245
100
AcDbEntity
  8
1
  6
Continuous
 62
     2
100
AcDbLine
 10
478.9889715111102
 20
223.7176887810474
 30
0.0
 11
478.9889715111102
 21
194.7176887810474
 31
0.0
  0
LINE
  5
248
330
245
100
AcDbEntity
  8
1
  6
Continuous
 62
     2
100
AcDbLine
 10
288.9889715111096
 20
319.1470960889001
 30
0.0
 11
288.9889715111096
 21
194.7176887810474
 31
0.0
  0
SOLID
  5
249
330
245
100
AcDbEntity
  8
1
 62
     2
100
AcDbTrace
 10
299.4889715111096
 20
199.100040005715
 30
0.0
 11
299.4889715111096
 21
196.3353375563798
 31
0.0
 12
288.9889715111096
 22
197.7176887810474
 32
0.0
 13
288.9889715111096
 23
197.7176887810474
 33
0.0
  0
SOLID
  5
24A
330
245
100
AcDbEntity
  8
1
 62
     2
100
AcDbTrace
 10
468.4889715111102
 20
196.3353375563798
 30
0.0
 11
468.4889715111102
 21
199.100040005715
 31
0.0
 12
478.9889715111102
 22
197.7176887810474
 32
0.0
 13
478.9889715111102
 23
197.7176887810474
 33
0.0
  0
MTEXT
  5
24B
330
245
100
AcDbEntity
  8
1
 62
     7
100
AcDbMText
 10
372.96397151111
 20
200.7176887810474
 30
0.0
 40
10.5
 41
0.0
 71
     7
 72
     1
  1
190
  7
CONVERTER_2
 11
0.9999999999970621
 21
2.424068405545307E-6
 31
0.0
 73
     1
 44
0.60024009603842
  0
ENDBLK
  5
24D
330
245
100
AcDbEntity
  8
0
100
AcDbBlockEnd
  0
BLOCK
  5
257
330
250
100
AcDbEntity
  8
0
100
AcDbBlockBegin
  2
*D416
 70
     1
 71
     0
 10
0.0
 20
0.0
 30
0.0
  3
*D416
  1

  0
LINE
  5
251
330
250
100
AcDbEntity
  8
1
  6
Continuous
 62
     2
100
AcDbLine
 10
251.290170804623
 20
240.7176887810469
 30
0.0
 11
251.290170804623
 21
319.1470960889001
 31
0.0
  0
LINE
  5
252
330
250
100
AcDbEntity
  8
1
  6
Continuous
 62
     2
100
AcDbLine
 10
288.9889715111096
 20
319.1470960889001
 30
0.0
 11
248.290170804623
 21
319.1470960889001
 31
0.0
  0
LINE
  5
253
330
250
100
AcDbEntity
  8
1
  6
Continuous
 62
     2
100
AcDbLine
 10
452.0485000128754
 20
240.7176887810469
 30
0.0
 11
248.290170804623
 21
240.7176887810469
 31
0.0
  0
SOLID
  5
254
330
250
100
AcDbEntity
  8
1
 62
     2
100
AcDbTrace
 10
249.9078195799553
 20
251.2176887810469
 30
0.0
 11
252.6725220292906
 21
251.2176887810469
 31
0.0
 12
251.290170804623
 22
240.7176887810469
 32
0.0
 13
251.290170804623
 23
240.7176887810469
 33
0.0
  0
SOLID
  5
255
330
250
100
AcDbEntity
  8
1
 62
     2
100
AcDbTrace
 10
252.6725220292906
 20
308.6470960889001
 30
0.0
 11
249.9078195799553
 21
308.6470960889001
 31
0.0
 12
251.290170804623
 22
319.1470960889001
 32
0.0
 13
251.290170804623
 23
319.1470960889001
 33
0.0
  0
MTEXT
  5
256
330
250
100
AcDbEntity
  8
1
 62
     7
100
AcDbMText
 10
248.290170804623
 20
272.0573924349735
 30
0.0
 40
10.5
 41
0.0
 71
     7
 72
     1
  1
78
  7
CONVERTER_2
 11
0.0
 21
1.0
 31
0.0
 73
     1
 44
0.60024009603842
  0
ENDBLK
  5
258
330
250
100
AcDbEntity
  8
0
100
AcDbBlockEnd
  0
BLOCK
  5
262
330
25B
100
AcDbEntity
  8
0
100
AcDbBlockBegin
  2
*D517
 70
     1
 71
     0
 10
0.0
 20
0.0
 30
0.0
  3
*D517
  1

  0
LINE
  5
25C
330
25B
100
AcDbEntity
  8
1
  6
Continuous
 62
     2
100
AcDbLine
 10
227.290170804623
 20
240.7176887810468
 30
0.0
 11
227.290170804623
 21
345.4040265716499
 31
0.0
  0
LINE
  5
25D
330
25B
100
AcDbEntity
  8
1
  6
Continuous
 62
     2
100
AcDbLine
 10
315.2076695291559
 20
345.4040265716499
 30
0.0
 11
224.290170804623
 21
345.4040265716499
 31
0.0
  0
LINE
  5
25E
330
25B
100
AcDbEntity
  8
1
  6
Continuous
 62
     2
100
AcDbLine
 10
452.0485000128754
 20
240.7176887810468
 30
0.0
 11
224.290170804623
 21
240.7176887810468
 31
0.0
  0
SOLID
  5
25F
330
25B
100
AcDbEntity
  8
1
 62
     2
100
AcDbTrace
 10
225.9078195799553
 20
251.2176887810468
 30
0.0
 11
228.6725220292906
 21
251.2176887810468
 31
0.0
 12
227.290170804623
 22
240.7176887810468
 32
0.0
 13
227.290170804623
 23
240.7176887810468
 33
0.0
  0
SOLID
  5
260
330
25B
100
AcDbEntity
  8
1
 62
     2
100
AcDbTrace
 10
228.6725220292906
 20
334.9040265716499
 30
0.0
 11
225.9078195799553
 21
334.9040265716499
 31
0.0
 12
227.290170804623
 22
345.4040265716499
 32
0.0
 13
227.290170804623
 23
345.4040265716499
 33
0.0
  0
MTEXT
  5
261
330
25B
100
AcDbEntity
  8
1
 62
     7
100
AcDbMText
 10
224.290170804623
 20
282.0358576763484
 30
0.0
 40
10.5
 41
0.0
 71
     7
 72
     1
  1
105
  7
CONVERTER_2
 11
0.0
 21
1.0
 31
0.0
 73
     1
 44
0.60024009603842
  0
ENDBLK
  5
263
330
25B
100
AcDbEntity
  8
0
100
AcDbBlockEnd
  0
BLOCK
  5
26D
330
266
100
AcDbEntity
  8
0
100
AcDbBlockBegin
  2
*D618
 70
     1
 71
     0
 10
0.0
 20
0.0
 30
0.0
  3
*D618
  1

  0
LINE
  5
267
330
266
100
AcDbEntity
  8
1
  6
Continuous
 62
     2
100
AcDbLine
 10
558.2332900721428
 20
197.7176887810474
 30
0.0
 11
537.9889715111103
 21
197.7176887810474
 31
0.0
  0
LINE
  5
268
330
266
100
AcDbEntity
  8
1
  6
Continuous
 62
     2
100
AcDbLine
 10
537.9889715111103
 20
197.7176887810474
 30
0.0
 11
523.9889715111103
 21
197.7176887810474
 31
0.0
  0
LINE
  5
269
330
266
100
AcDbEntity
  8
1
  6
Continuous
 62
     2
100
AcDbLine
 10
523.9889715111103
 20
217.7176887810474
 30
0.0
 11
523.9889715111103
 21
194.7176887810474
 31
0.0
  0
LINE
  5
26A
330
266
100
AcDbEntity
  8
1
  6
Continuous
 62
     2
100
AcDbLine
 10
537.9889715111103
 20
231.2176887810474
 30
0.0
 11
537.9889715111103
 21
194.7176887810474
 31
0.0
  0
SOLID
  5
26B
330
266
100
AcDbEntity
  8
1
 62
     2
100
AcDbTrace
 10
546.9889715111103
 20
198.902561259334
 30
0.0
 11
546.9889715111103
 21
196.5328163027608
 31
0.0
 12
537.9889715111103
 22
197.7176887810474
 32
0.0
 13
537.9889715111103
 23
197.7176887810474
 33
0.0
  0
MTEXT
  5
26C
330
266
100
AcDbEntity
  8
1
 62
     7
100
AcDbMText
 10
545.6332900721429
 20
200.7176887810474
 30
0.0
 40
10.5
 41
0.0
 71
     7
 72
     1
  1
14
  7
CONVERTER_2
 11
0.9999999999970621
 21
2.424068405545307E-6
 31
0.0
 73
     1
 44
0.60024009603842
  0
ENDBLK
  5
26E
330
266
100
AcDbEntity
  8
0
100
AcDbBlockEnd
  0
BLOCK
  5
270
330
26F
100
AcDbEntity
  8
0
100
AcDbBlockBegin
  2
_None
 70
     0
 71
     0
 10
0.0
 20
0.0
 30
0.0
  3
_None
  1

  0
ENDBLK
  5
271
330
26F
100
AcDbEntity
  8
0
100
AcDbBlockEnd
  0
ENDSEC
  0
SECTION
  2
ENTITIES
  0
INSERT
  5
5D
330
1F
100
AcDbEntity
  8
0
100
AcDbBlockReference
  2
21-1A
 10
196.8486494318019
 20
195.7176887810471
 30
0.0
  0
INSERT
  5
5E
330
1F
100
AcDbEntity
  8
0
100
AcDbBlockReference
  2
R10A-13
 10
241.8486494318018
 20
195.7176887810471
 30
0.0
  0
INSERT
  5
5F
330
1F
100
AcDbEntity
  8
1
100
AcDbBlockReference
  2
A20-0-13
 10
218.8486494318018
 20
217.7176887810471
 30
0.0
  0
INSERT
  5
60
330
1F
100
AcDbEntity
  8
1
100
AcDbBlockReference
  2
A27JH-60X
 10
326.2746849347603
 20
253.0857361183254
 30
0.0
  0
INSERT
  5
61
330
1F
100
AcDbEntity
  8
1
100
AcDbBlockReference
  2
_J__A4
 10
0.0
 20
0.0
 30
0.0
 41
3.0
 42
3.0
 43
3.0
  0
LINE
  5
20E
330
1F
100
AcDbEntity
  8
1
  6
DASH_CENTER
 62
     2
100
AcDbLine
 10
212.348649431802
 20
240.7176887810471
 30
0.0
 11
126.8486494318018
 21
240.7176887810472
 31
0.0
  0
LINE
  5
20F
330
1F
100
AcDbEntity
  8
1
  6
DASH_CENTER
 62
     2
100
AcDbLine
 10
540.9889715111103
 20
240.7176887810474
 30
0.0
 11
452.0485000128754
 21
240.7176887810468
 31
0.0
  0
LINE
  5
210
330
1F
100
AcDbEntity
  8
1
  6
DASH_CENTER
 62
     2
100
AcDbLine
 10
478.9889715111103
 20
223.7176887810474
 30
0.0
 11
478.9889715111103
 21
283.2176887810482
 31
0.0
  0
LINE
  5
211
330
1F
100
AcDbEntity
  8
1
  6
DASH_CENTER
 62
     2
100
AcDbLine
 10
152.8486494318017
 20
692.7540721746757
 30
0.0
 11
152.8486494318017
 21
425.9268659763208
 31
0.0
  0
LINE
  5
212
330
1F
100
AcDbEntity
  8
1
  6
DASH_CENTER
 62
     2
100
AcDbLine
 10
128.348649431802
 20
628.0304545761217
 30
0.0
 11
219.3486494318021
 21
628.0304545761212
 31
0.0
  0
LINE
  5
213
330
1F
100
AcDbEntity
  8
1
  6
DASH_CENTER
 62
     2
100
AcDbLine
 10
152.8486494318018
 20
362.4040265716491
 30
0.0
 11
152.8486494318018
 21
214.7176887810471
 31
0.0
  0
LINE
  5
214
330
1F
100
AcDbEntity
  8
1
  6
DASH_CENTER
 62
     2
100
AcDbLine
 10
459.2502681452297
 20
252.1138344827925
 30
0.0
 11
513.6299876624878
 21
220.7176887810474
 31
0.0
  0
LINE
  5
215
330
1F
100
AcDbEntity
  8
1
  6
DASH_CENTER
 62
     2
100
AcDbLine
 10
444.3479553597326
 20
220.7176887810473
 30
0.0
 11
498.727674876991
 21
252.1138344827925
 31
0.0
  0
LINE
  5
216
330
1F
100
AcDbEntity
  8
1
  6
DASH_CENTER
 62
     2
100
AcDbLine
 10
460.4594476386725
 20
307.3658344382749
 30
0.0
 11
321.6781456567194
 21
344.5521722288765
 31
0.0
  0
LINE
  5
217
330
1F
100
AcDbEntity
  8
1
  6
DASH_CENTER
 62
     2
100
AcDbLine
 10
291.0595238719293
 20
326.8745026992127
 30
0.0
 11
288.2125143758019
 21
316.2493186100328
 31
0.0
  0
ARC
  5
218
330
1F
100
AcDbEntity
  8
1
  6
DASH_CENTER
 62
     2
100
AcDbCircle
 10
453.9889715111094
 20
283.2176887810481
 30
0.0
 40
25.00000000000091
100
AcDbArc
 50
0.00000000000026
 51
74.99999999999993
  0
ARC
  5
219
330
1F
100
AcDbEntity
  8
1
  6
DASH_CENTER
 62
     2
100
AcDbCircle
 10
315.207669529156
 20
320.4040265716485
 30
0.0
 40
25.00000000000132
100
AcDbArc
 50
75.0
 51
164.9999999999974
  0
SOLID
  5
21A
330
1F
100
AcDbEntity
  8
1
 62
     2
100
AcDbTrace
 10
167.4014981542877
 20
689.3148969281914
 30
0.0
 11
169.7958007093171
 21
687.9325457035237
 31
0.0
 12
163.3486494318023
 22
679.530454576121
 32
0.0
 13
163.3486494318023
 23
679.530454576121
 33
0.0
  0
LEADER
  5
21B
330
1F
100
AcDbEntity
  8
1
  6
Continuous
 62
     2
100
AcDbLeader
  3
Standard
 71
     0
 76
     3
 10
163.3486494318023
 20
679.530454576121
 30
0.0
 10
178.9672081425215
 20
706.5825918040841
 30
0.0
 10
227.825725492407
 20
706.5825918040841
 30
0.0
  0
MTEXT
  5
21C
330
1F
100
AcDbEntity
  8
0
 62
     7
100
AcDbMText
 10
171.0000000000002
 20
68.25000000000001
 30
0.0
 40
10.5
 41
0.0
 71
     5
 72
     1
  1
横形上向自在水栓
  7
CONVERTER_1
 73
     1
 44
1.32052821128451
  0
MTEXT
  5
21E
330
1F
100
AcDbEntity
  8
0
 62
     7
100
AcDbMText
 10
171.0000000000002
 20
42.74999999999998
 30
0.0
 40
10.5
 41
0.0
 71
     5
 72
     1
  1
A27J-13
  7
CONVERTER_2
 73
     1
 44
1.32052821128451
  0
MTEXT
  5
21F
330
1F
100
AcDbEntity
  8
0
 62
     7
100
AcDbMText
 10
281.2500000000002
 20
50.99999999999998
 30
0.0
 40
10.5
 41
0.0
 71
     5
 72
     1
  1
3
  7
CONVERTER_2
 73
     1
 44
1.32052821128451
  0
MTEXT
  5
220
330
1F
100
AcDbEntity
  8
0
 62
     7
100
AcDbMText
 10
255.7500000000002
 20
50.99999999999999
 30
0.0
 40
10.5
 41
0.0
 71
     5
 72
     1
  1
1
  7
CONVERTER_2
 73
     1
 44
1.32052821128451
  0
MTEXT
  5
221
330
1F
100
AcDbEntity
  8
1
 62
     7
100
AcDbMText
 10
203.3964668174642
 20
715.5825918040841
 30
0.0
 40
10.5
 41
0.0
 71
     5
 72
     1
  1
PJ1/2
  7
CONVERTER_2
 73
     1
 44
1.32052821128451
  0
MTEXT
  5
222
330
1F
100
AcDbEntity
  8
0
 62
     7
100
AcDbMText
 10
102.0000000000002
 20
102.0
 30
0.0
 40
10.5
 41
0.0
 71
     4
 72
     1
  1
JIS
  7
CONVERTER_2
 73
     1
 44
1.32052821128451
  0
DIMENSION
  5
22E
330
1F
100
AcDbEntity
  8
0
100
AcDbDimension
  2
*D012
 10
210.348649431802
 20
163.717688781047
 30
0.0
 11
245.8621974307575
 21
171.967688781047
 31
0.0
  1
58リフト5
 71
     5
 42
0.0
 53
0.00013888888889
  3
ME10_DIM_0
100
AcDbAlignedDimension
 13
152.8486494318018
 23
214.7176887810471
 33
0.0
 14
210.348649431802
 24
240.7176887810472
 34
0.0
100
AcDbRotatedDimension
  0
DIMENSION
  5
239
330
1F
100
AcDbEntity
  8
1
100
AcDbDimension
  2
*D113
 10
567.9889715111103
 20
263.7176887810474
 30
0.0
 11
559.7389715111103
 21
240.7176887810474
 31
0.0
  1
^N1^O46
 71
     5
 42
0.0
 53
90.0
  3
ME10_DIM_1
100
AcDbAlignedDimension
 13
523.9889715111103
 23
217.7176887810474
 33
0.0
 14
523.9889715111103
 24
263.7176887810474
 34
0.0
 50
90.0
100
AcDbRotatedDimension
  0
DIMENSION
  5
244
330
1F
100
AcDbEntity
  8
1
100
AcDbDimension
  2
*D214
 10
478.9889715111103
 20
197.7176887810474
 30
0.0
 11
501.4889715111103
 21
205.9676887810474
 31
0.0
  1
<>
 71
     5
 42
0.0
 53
0.00013888888889
  3
ME10_DIM_2
100
AcDbAlignedDimension
 13
523.9889715111103
 23
217.7176887810474
 33
0.0
 14
478.9889715111103
 24
223.7176887810474
 34
0.0
100
AcDbRotatedDimension
  0
DIMENSION
  5
24F
330
1F
100
AcDbEntity
  8
1
100
AcDbDimension
  2
*D315
 10
288.9889715111096
 20
197.7176887810474
 30
0.0
 11
383.98897151111
 21
205.9676887810474
 31
0.0
  1
<>
 71
     5
 42
0.0
 53
0.00013888888889
  3
ME10_DIM_3
100
AcDbAlignedDimension
 13
478.9889715111103
 23
223.7176887810474
 33
0.0
 14
288.9889715111096
 24
319.1470960889001
 34
0.0
100
AcDbRotatedDimension
  0
DIMENSION
  5
25A
330
1F
100
AcDbEntity
  8
1
100
AcDbDimension
  2
*D416
 10
251.290170804623
 20
240.7176887810469
 30
0.0
 11
243.040170804623
 21
279.9323924349735
 31
0.0
  1
<>
 71
     5
 42
0.0
 53
90.0
  3
ME10_DIM_4
100
AcDbAlignedDimension
 13
288.9889715111096
 23
319.1470960889001
 33
0.0
 14
452.0485000128754
 24
240.7176887810468
 34
0.0
 50
90.0
100
AcDbRotatedDimension
  0
DIMENSION
  5
265
330
1F
100
AcDbEntity
  8
1
100
AcDbDimension
  2
*D517
 10
227.290170804623
 20
240.7176887810468
 30
0.0
 11
219.040170804623
 21
293.0608576763484
 31
0.0
  1
<>
 71
     5
 42
0.0
 53
90.0
  3
ME10_DIM_5
100
AcDbAlignedDimension
 13
315.207669529156
 23
345.4040265716499
 33
0.0
 14
452.0485000128754
 24
240.7176887810468
 34
0.0
 50
90.0
100
AcDbRotatedDimension
  0
DIMENSION
  5
273
330
1F
100
AcDbEntity
  8
1
100
AcDbDimension
  2
*D618
 10
537.9889715111103
 20
197.7176887810474
 30
0.0
 11
551.9332900721429
 21
205.9676887810474
 31
0.0
  1
<>
 71
     5
 42
0.0
 53
0.00013888888889
  3
ME10_DIM_6
100
AcDbAlignedDimension
 13
523.9889715111103
 23
217.7176887810474
 33
0.0
 14
537.9889715111103
 24
231.2176887810474
 34
0.0
100
AcDbRotatedDimension
  0
ENDSEC
  0
SECTION
  2
OBJECTS
  0
DICTIONARY
  5
C
330
0
100
AcDbDictionary
281
     1
  3
ACAD_GROUP
350
D
  3
ACAD_LAYOUT
350
1A
  3
ACAD_MLINESTYLE
350
17
  3
ACAD_PLOTSETTINGS
350
19
  3
ACAD_PLOTSTYLENAME
350
E
  3
ACAD_TABLESTYLE
350
2A
  3
AcDbVariableDictionary
350
2C
  0
DICTIONARY
  5
D
102
{ACAD_REACTORS
330
C
102
}
330
C
100
AcDbDictionary
281
     1
  0
DICTIONARY
  5
1A
102
{ACAD_REACTORS
330
C
102
}
330
C
100
AcDbDictionary
281
     1
  3
Layout1
350
1E
  3
Layout2
350
26
  3
Model
350
22
  0
DICTIONARY
  5
17
102
{ACAD_REACTORS
330
C
102
}
330
C
100
AcDbDictionary
281
     1
  3
Standard
350
18
  0
DICTIONARY
  5
19
102
{ACAD_REACTORS
330
C
102
}
330
C
100
AcDbDictionary
281
     1
  0
ACDBDICTIONARYWDFLT
  5
E
102
{ACAD_REACTORS
330
C
102
}
330
C
100
AcDbDictionary
281
     1
  3
Normal
350
F
100
AcDbDictionaryWithDefault
340
F
  0
DICTIONARY
  5
2A
102
{ACAD_REACTORS
330
C
102
}
330
C
100
AcDbDictionary
281
     1
  3
Standard
350
2B
  0
DICTIONARY
  5
2C
102
{ACAD_REACTORS
330
C
102
}
330
C
100
AcDbDictionary
281
     1
  3
CTABLESTYLE
350
2D
  0
LAYOUT
  5
1E
102
{ACAD_REACTORS
330
1A
102
}
330
1A
100
AcDbPlotSettings
  1

  2

  4

  6

 40
0.0
 41
0.0
 42
0.0
 43
0.0
 44
0.0
 45
0.0
 46
0.0
 47
0.0
 48
0.0
 49
0.0
140
0.0
141
0.0
142
1.0
143
1.0
 70
   688
 72
     0
 73
     0
 74
     5
  7

 75
    16
147
1.0
148
0.0
149
0.0
100
AcDbLayout
  1
Layout1
 70
     1
 71
     1
 10
0.0
 20
0.0
 11
12.0
 21
9.0
 12
0.0
 22
0.0
 32
0.0
 14
1.00000000000000E+20
 24
1.00000000000000E+20
 34
1.00000000000000E+20
 15
-1.00000000000000E+20
 25
-1.00000000000000E+20
 35
-1.00000000000000E+20
146
0.0
 13
0.0
 23
0.0
 33
0.0
 16
1.0
 26
0.0
 36
0.0
 17
0.0
 27
1.0
 37
0.0
 76
     0
330
1B
  0
LAYOUT
  5
26
102
{ACAD_REACTORS
330
1A
102
}
330
1A
100
AcDbPlotSettings
  1

  2

  4

  6

 40
0.0
 41
0.0
 42
0.0
 43
0.0
 44
0.0
 45
0.0
 46
0.0
 47
0.0
 48
0.0
 49
0.0
140
0.0
141
0.0
142
1.0
143
1.0
 70
   688
 72
     0
 73
     0
 74
     5
  7

 75
    16
147
1.0
148
0.0
149
0.0
100
AcDbLayout
  1
Layout2
 70
     1
 71
     2
 10
0.0
 20
0.0
 11
0.0
 21
0.0
 12
0.0
 22
0.0
 32
0.0
 14
0.0
 24
0.0
 34
0.0
 15
0.0
 25
0.0
 35
0.0
146
0.0
 13
0.0
 23
0.0
 33
0.0
 16
1.0
 26
0.0
 36
0.0
 17
0.0
 27
1.0
 37
0.0
 76
     0
330
23
  0
LAYOUT
  5
22
102
{ACAD_REACTORS
330
1A
102
}
330
1A
100
AcDbPlotSettings
  1

  2

  4

  6

 40
0.0
 41
0.0
 42
0.0
 43
0.0
 44
0.0
 45
0.0
 46
0.0
 47
0.0
 48
0.0
 49
0.0
140
0.0
141
0.0
142
1.0
143
1.0
 70
  1712
 72
     0
 73
     0
 74
     0
  7

 75
     0
147
1.0
148
0.0
149
0.0
100
AcDbLayout
  1
Model
 70
     1
 71
     0
 10
0.0
 20
0.0
 11
0.0
 21
0.0
 12
0.0
 22
0.0
 32
0.0
 14
0.0
 24
0.0
 34
0.0
 15
630.0
 25
891.0
 35
0.0
146
0.0
 13
0.0
 23
0.0
 33
0.0
 16
1.0
 26
0.0
 36
0.0
 17
0.0
 27
1.0
 37
0.0
 76
     0
330
1F
  0
MLINESTYLE
  5
18
102
{ACAD_REACTORS
330
17
102
}
330
17
100
AcDbMlineStyle
  2
Standard
 70
     0
  3

 62
   256
 51
90.0
 52
90.0
 71
     2
 49
0.5
 62
   256
  6
BYLAYER
 49
-0.5
 62
   256
  6
BYLAYER
  0
ACDBPLACEHOLDER
  5
F
102
{ACAD_REACTORS
330
E
102
}
330
E
  0
TABLESTYLE
  5
2B
102
{ACAD_REACTORS
330
2A
102
}
330
2A
100
AcDbTableStyle
  3
Standard
 70
     0
 71
     0
 40
0.06
 41
0.06
280
     0
281
     0
  7
Standard
140
0.18
170
     2
 62
     0
 63
     7
283
     0
274
    -2
284
     1
 64
     0
275
    -2
285
     1
 65
     0
276
    -2
286
     1
 66
     0
277
    -2
287
     1
 67
     0
278
    -2
288
     1
 68
     0
279
    -2
289
     1
 69
     0
  7
Standard
140
0.25
170
     5
 62
     0
 63
     7
283
     0
274
    -2
284
     1
 64
     0
275
    -2
285
     1
 65
     0
276
    -2
286
     1
 66
     0
277
    -2
287
     1
 67
     0
278
    -2
288
     1
 68
     0
279
    -2
289
     1
 69
     0
  7
Standard
140
0.18
170
     5
 62
     0
 63
     7
283
     0
274
    -2
284
     1
 64
     0
275
    -2
285
     1
 65
     0
276
    -2
286
     1
 66
     0
277
    -2
287
     1
 67
     0
278
    -2
288
     1
 68
     0
279
    -2
289
     1
 69
     0
  0
DICTIONARYVAR
  5
2D
102
{ACAD_REACTORS
330
2C
102
}
330
2C
100
DictionaryVariables
280
     0
  1
Standard
  0
ENDSEC
  0
EOF
