  0
SECTION
  2
HEADER
  9
$ACADVER
  1
AC1015
  9
$ACADMAINTVER
 70
     6
  9
$DWGCODEPAGE
  3
ANSI_932
  9
$INSBASE
 10
0.0
 20
0.0
 30
0.0
  9
$EXTMIN
 10
0.0
 20
0.0
 30
0.0
  9
$EXTMAX
 10
735.0
 20
1039.5
 30
0.0
  9
$LIMMIN
 10
0.0
 20
0.0
  9
$LIMMAX
 10
12.0
 20
9.0
  9
$ORTHOMODE
 70
     0
  9
$REGENMODE
 70
     1
  9
$FILLMODE
 70
     1
  9
$QTEXTMODE
 70
     0
  9
$MIRRTEXT
 70
     1
  9
$LTSCALE
 40
1.0
  9
$ATTMODE
 70
     1
  9
$TEXTSIZE
 40
0.2
  9
$TRACEWID
 40
0.05
  9
$TEXTSTYLE
  7
Standard
  9
$CLAYER
  8
0
  9
$CELTYPE
  6
ByLayer
  9
$CECOLOR
 62
   256
  9
$CELTSCALE
 40
1.0
  9
$DISPSILH
 70
     0
  9
$DIMSCALE
 40
1.0
  9
$DIMASZ
 40
0.18
  9
$DIMEXO
 40
0.0625
  9
$DIMDLI
 40
0.38
  9
$DIMRND
 40
0.0
  9
$DIMDLE
 40
0.0
  9
$DIMEXE
 40
0.18
  9
$DIMTP
 40
0.0
  9
$DIMTM
 40
0.0
  9
$DIMTXT
 40
0.18
  9
$DIMCEN
 40
0.09
  9
$DIMTSZ
 40
0.0
  9
$DIMTOL
 70
     0
  9
$DIMLIM
 70
     0
  9
$DIMTIH
 70
     1
  9
$DIMTOH
 70
     1
  9
$DIMSE1
 70
     0
  9
$DIMSE2
 70
     0
  9
$DIMTAD
 70
     0
  9
$DIMZIN
 70
     0
  9
$DIMBLK
  1

  9
$DIMASO
 70
     1
  9
$DIMSHO
 70
     1
  9
$DIMPOST
  1

  9
$DIMAPOST
  1

  9
$DIMALT
 70
     0
  9
$DIMALTD
 70
     2
  9
$DIMALTF
 40
25.4
  9
$DIMLFAC
 40
1.0
  9
$DIMTOFL
 70
     0
  9
$DIMTVP
 40
0.0
  9
$DIMTIX
 70
     0
  9
$DIMSOXD
 70
     0
  9
$DIMSAH
 70
     0
  9
$DIMBLK1
  1

  9
$DIMBLK2
  1

  9
$DIMSTYLE
  2
Standard
  9
$DIMCLRD
 70
     0
  9
$DIMCLRE
 70
     0
  9
$DIMCLRT
 70
     0
  9
$DIMTFAC
 40
1.0
  9
$DIMGAP
 40
0.09
  9
$DIMJUST
 70
     0
  9
$DIMSD1
 70
     0
  9
$DIMSD2
 70
     0
  9
$DIMTOLJ
 70
     1
  9
$DIMTZIN
 70
     0
  9
$DIMALTZ
 70
     0
  9
$DIMALTTZ
 70
     0
  9
$DIMUPT
 70
     0
  9
$DIMDEC
 70
     4
  9
$DIMTDEC
 70
     4
  9
$DIMALTU
 70
     2
  9
$DIMALTTD
 70
     2
  9
$DIMTXSTY
  7
Standard
  9
$DIMAUNIT
 70
     0
  9
$DIMADEC
 70
     0
  9
$DIMALTRND
 40
0.0
  9
$DIMAZIN
 70
     0
  9
$DIMDSEP
 70
    46
  9
$DIMATFIT
 70
     3
  9
$DIMFRAC
 70
     0
  9
$DIMLDRBLK
  1

  9
$DIMLUNIT
 70
     2
  9
$DIMLWD
 70
    -2
  9
$DIMLWE
 70
    -2
  9
$DIMTMOVE
 70
     0
  9
$LUNITS
 70
     2
  9
$LUPREC
 70
     4
  9
$SKETCHINC
 40
0.1
  9
$FILLETRAD
 40
0.5
  9
$AUNITS
 70
     0
  9
$AUPREC
 70
     0
  9
$MENU
  1
.
  9
$ELEVATION
 40
0.0
  9
$PELEVATION
 40
0.0
  9
$THICKNESS
 40
0.0
  9
$LIMCHECK
 70
     0
  9
$CHAMFERA
 40
0.5
  9
$CHAMFERB
 40
0.5
  9
$CHAMFERC
 40
1.0
  9
$CHAMFERD
 40
0.0
  9
$SKPOLY
 70
     0
  9
$TDCREATE
 40
2457213.565500683
  9
$TDUCREATE
 40
2457213.190500683
  9
$TDUPDATE
 40
2457213.565501771
  9
$TDUUPDATE
 40
2457213.190501771
  9
$TDINDWG
 40
0.0000000116
  9
$TDUSRTIMER
 40
0.0000000116
  9
$USRTIMER
 70
     1
  9
$ANGBASE
 50
0.0
  9
$ANGDIR
 70
     0
  9
$PDMODE
 70
     0
  9
$PDSIZE
 40
0.0
  9
$PLINEWID
 40
0.0
  9
$SPLFRAME
 70
     0
  9
$SPLINETYPE
 70
     6
  9
$SPLINESEGS
 70
     8
  9
$HANDSEED
  5
507
  9
$SURFTAB1
 70
     6
  9
$SURFTAB2
 70
     6
  9
$SURFTYPE
 70
     6
  9
$SURFU
 70
     6
  9
$SURFV
 70
     6
  9
$UCSBASE
  2

  9
$UCSNAME
  2

  9
$UCSORG
 10
0.0
 20
0.0
 30
0.0
  9
$UCSXDIR
 10
1.0
 20
0.0
 30
0.0
  9
$UCSYDIR
 10
0.0
 20
1.0
 30
0.0
  9
$UCSORTHOREF
  2

  9
$UCSORTHOVIEW
 70
     0
  9
$UCSORGTOP
 10
0.0
 20
0.0
 30
0.0
  9
$UCSORGBOTTOM
 10
0.0
 20
0.0
 30
0.0
  9
$UCSORGLEFT
 10
0.0
 20
0.0
 30
0.0
  9
$UCSORGRIGHT
 10
0.0
 20
0.0
 30
0.0
  9
$UCSORGFRONT
 10
0.0
 20
0.0
 30
0.0
  9
$UCSORGBACK
 10
0.0
 20
0.0
 30
0.0
  9
$PUCSBASE
  2

  9
$PUCSNAME
  2

  9
$PUCSORG
 10
0.0
 20
0.0
 30
0.0
  9
$PUCSXDIR
 10
1.0
 20
0.0
 30
0.0
  9
$PUCSYDIR
 10
0.0
 20
1.0
 30
0.0
  9
$PUCSORTHOREF
  2

  9
$PUCSORTHOVIEW
 70
     0
  9
$PUCSORGTOP
 10
0.0
 20
0.0
 30
0.0
  9
$PUCSORGBOTTOM
 10
0.0
 20
0.0
 30
0.0
  9
$PUCSORGLEFT
 10
0.0
 20
0.0
 30
0.0
  9
$PUCSORGRIGHT
 10
0.0
 20
0.0
 30
0.0
  9
$PUCSORGFRONT
 10
0.0
 20
0.0
 30
0.0
  9
$PUCSORGBACK
 10
0.0
 20
0.0
 30
0.0
  9
$USERI1
 70
     0
  9
$USERI2
 70
     0
  9
$USERI3
 70
     0
  9
$USERI4
 70
     0
  9
$USERI5
 70
     0
  9
$USERR1
 40
18.1
  9
$USERR2
 40
0.0
  9
$USERR3
 40
0.0
  9
$USERR4
 40
0.0
  9
$USERR5
 40
0.0
  9
$WORLDVIEW
 70
     1
  9
$SHADEDGE
 70
     3
  9
$SHADEDIF
 70
    70
  9
$TILEMODE
 70
     1
  9
$MAXACTVP
 70
    64
  9
$PINSBASE
 10
0.0
 20
0.0
 30
0.0
  9
$PLIMCHECK
 70
     0
  9
$PEXTMIN
 10
1.00000000000000E+20
 20
1.00000000000000E+20
 30
1.00000000000000E+20
  9
$PEXTMAX
 10
-1.00000000000000E+20
 20
-1.00000000000000E+20
 30
-1.00000000000000E+20
  9
$PLIMMIN
 10
0.0
 20
0.0
  9
$PLIMMAX
 10
12.0
 20
9.0
  9
$UNITMODE
 70
     0
  9
$VISRETAIN
 70
     1
  9
$PLINEGEN
 70
     0
  9
$PSLTSCALE
 70
     1
  9
$TREEDEPTH
 70
  3020
  9
$CMLSTYLE
  2
Standard
  9
$CMLJUST
 70
     0
  9
$CMLSCALE
 40
1.0
  9
$PROXYGRAPHICS
 70
     1
  9
$MEASUREMENT
 70
     1
  9
$CELWEIGHT
370
    -1
  9
$ENDCAPS
280
     0
  9
$JOINSTYLE
280
     0
  9
$LWDISPLAY
290
     0
  9
$INSUNITS
 70
     4
  9
$HYPERLINKBASE
  1

  9
$STYLESHEET
  1

  9
$XEDIT
290
     1
  9
$CEPSNTYPE
380
     0
  9
$PSTYLEMODE
290
     1
  9
$FINGERPRINTGUID
  2
{09FA1C32-672A-42B6-8BBC-7D9FDDD02638}
  9
$VERSIONGUID
  2
{FAEB1C32-E019-11D5-929B-00C0DF256EC4}
  9
$EXTNAMES
290
     1
  9
$PSVPSCALE
 40
0.0
  9
$OLESTARTUP
290
     0
  0
ENDSEC
  0
SECTION
  2
CLASSES
  0
CLASS
  1
ACDBDICTIONARYWDFLT
  2
AcDbDictionaryWithDefault
  3
ObjectDBX Classes
 90
        0
280
     0
281
     0
  0
CLASS
  1
VISUALSTYLE
  2
AcDbVisualStyle
  3
ObjectDBX Classes
 90
     4095
280
     0
281
     0
  0
CLASS
  1
MATERIAL
  2
AcDbMaterial
  3
ObjectDBX Classes
 90
     1153
280
     0
281
     0
  0
CLASS
  1
DICTIONARYVAR
  2
AcDbDictionaryVar
  3
ObjectDBX Classes
 90
        0
280
     0
281
     0
  0
CLASS
  1
ACDBPLACEHOLDER
  2
AcDbPlaceHolder
  3
ObjectDBX Classes
 90
        0
280
     0
281
     0
  0
CLASS
  1
LAYOUT
  2
AcDbLayout
  3
ObjectDBX Classes
 90
        0
280
     0
281
     0
  0
ENDSEC
  0
SECTION
  2
TABLES
  0
TABLE
  2
VPORT
  5
8
330
0
100
AcDbSymbolTable
 70
     1
  0
VPORT
  5
29
330
8
100
AcDbSymbolTableRecord
100
AcDbViewportTableRecord
  2
*Active
 70
     0
 10
0.0
 20
0.0
 11
1.0
 21
1.0
 12
367.5
 22
519.75
 13
0.0
 23
0.0
 14
0.5
 24
0.5
 15
0.5
 25
0.5
 16
0.0
 26
0.0
 36
1.0
 17
0.0
 27
0.0
 37
0.0
 40
1143.45
 41
1.60267857142857
 42
50.0
 43
0.0
 44
0.0
 50
0.0
 51
0.0
 71
     0
 72
   100
 73
     1
 74
     3
 75
     0
 76
     0
 77
     0
 78
     0
281
     0
 65
     1
110
0.0
120
0.0
130
0.0
111
1.0
121
0.0
131
0.0
112
0.0
122
1.0
132
0.0
 79
     0
146
0.0
  0
ENDTAB
  0
TABLE
  2
LTYPE
  5
5
330
0
100
AcDbSymbolTable
 70
     8
  0
LTYPE
  5
14
330
5
100
AcDbSymbolTableRecord
100
AcDbLinetypeTableRecord
  2
ByBlock
 70
     0
  3

 72
    65
 73
     0
 40
0.0
  0
LTYPE
  5
15
330
5
100
AcDbSymbolTableRecord
100
AcDbLinetypeTableRecord
  2
ByLayer
 70
     0
  3

 72
    65
 73
     0
 40
0.0
  0
LTYPE
  5
16
330
5
100
AcDbSymbolTableRecord
100
AcDbLinetypeTableRecord
  2
Continuous
 70
     0
  3
Solid line
 72
    65
 73
     0
 40
0.0
  0
LTYPE
  5
3F
330
5
100
AcDbSymbolTableRecord
100
AcDbLinetypeTableRecord
  2
DASHED
 70
     0
  3
Dashed
 72
    65
 73
     2
 40
15.0
 49
7.0
 74
     0
 49
-8.0
 74
     0
  0
LTYPE
  5
40
330
5
100
AcDbSymbolTableRecord
100
AcDbLinetypeTableRecord
  2
DOTTED
 70
     0
  3
Dotted
 72
    65
 73
     2
 40
1.0
 49
0.0
 74
     0
 49
-1.0
 74
     0
  0
LTYPE
  5
41
330
5
100
AcDbSymbolTableRecord
100
AcDbLinetypeTableRecord
  2
DOT_CENTER
 70
     0
  3
Dot_Center
 72
    65
 73
     4
 40
14.0
 49
12.0
 74
     0
 49
-1.0
 74
     0
 49
0.0
 74
     0
 49
-1.0
 74
     0
  0
LTYPE
  5
42
330
5
100
AcDbSymbolTableRecord
100
AcDbLinetypeTableRecord
  2
LONG_DASHED
 70
     0
  3
Long_Dashed
 72
    65
 73
     2
 40
15.0
 49
10.0
 74
     0
 49
-5.0
 74
     0
  0
LTYPE
  5
43
330
5
100
AcDbSymbolTableRecord
100
AcDbLinetypeTableRecord
  2
DASH_CENTER
 70
     0
  3
Dash_Center
 72
    65
 73
     4
 40
14.0
 49
11.0
 74
     0
 49
-1.0
 74
     0
 49
1.0
 74
     0
 49
-1.0
 74
     0
  0
LTYPE
  5
44
330
5
100
AcDbSymbolTableRecord
100
AcDbLinetypeTableRecord
  2
PHANTOM
 70
     0
  3
Phantom
 72
    65
 73
     6
 40
13.0
 49
10.0
 74
     0
 49
-1.0
 74
     0
 49
0.0
 74
     0
 49
-1.0
 74
     0
 49
0.0
 74
     0
 49
-1.0
 74
     0
  0
LTYPE
  5
45
330
5
100
AcDbSymbolTableRecord
100
AcDbLinetypeTableRecord
  2
CENTER_DASH_DASH
 70
     0
  3
Center_Dash_Dash
 72
    65
 73
     6
 40
14.0
 49
9.0
 74
     0
 49
-1.0
 74
     0
 49
1.0
 74
     0
 49
-1.0
 74
     0
 49
1.0
 74
     0
 49
-1.0
 74
     0
  0
ENDTAB
  0
TABLE
  2
LAYER
  5
2
330
0
100
AcDbSymbolTable
 70
     2
  0
LAYER
  5
10
330
2
100
AcDbSymbolTableRecord
100
AcDbLayerTableRecord
  2
0
 70
     0
 62
     7
  6
Continuous
370
    -3
390
F
  0
LAYER
  5
46
330
2
100
AcDbSymbolTableRecord
100
AcDbLayerTableRecord
  2
1
 70
     0
 62
     7
  6
Continuous
370
    -3
390
F
  0
ENDTAB
  0
TABLE
  2
STYLE
  5
3
330
0
100
AcDbSymbolTable
 70
     3
  0
STYLE
  5
11
330
3
100
AcDbSymbolTableRecord
100
AcDbTextStyleTableRecord
  2
Standard
 70
     0
 40
0.0
 41
1.0
 50
0.0
 71
     0
 42
0.2
  3
txt
  4

  0
STYLE
  5
313
330
3
100
AcDbSymbolTableRecord
100
AcDbTextStyleTableRecord
  2
CONVERTER_11
 70
     0
 40
0.0
 41
0.89
 50
0.0
 71
     0
 42
0.2
  3
MS Mincho.ttf
  4

1001
ACAD
1000
MS Mincho
1071
    32785
  0
STYLE
  5
48C
330
3
100
AcDbSymbolTableRecord
100
AcDbTextStyleTableRecord
  2
CONVERTER_12
 70
     0
 40
0.0
 41
0.9
 50
0.0
 71
     0
 42
0.2
  3
txt.shx
  4

  0
ENDTAB
  0
TABLE
  2
VIEW
  5
6
330
0
100
AcDbSymbolTable
 70
     0
  0
ENDTAB
  0
TABLE
  2
UCS
  5
7
330
0
100
AcDbSymbolTable
 70
     0
  0
ENDTAB
  0
TABLE
  2
APPID
  5
9
330
0
100
AcDbSymbolTable
 70
     1
  0
APPID
  5
12
330
9
100
AcDbSymbolTableRecord
100
AcDbRegAppTableRecord
  2
ACAD
 70
     0
  0
ENDTAB
  0
TABLE
  2
DIMSTYLE
  5
A
330
0
100
AcDbSymbolTable
 70
     6
100
AcDbDimStyleTable
  0
DIMSTYLE
105
27
330
A
100
AcDbSymbolTableRecord
100
AcDbDimStyleTableRecord
  2
Standard
 70
     0
178
     0
340
11
  0
DIMSTYLE
105
49B
102
{ACAD_REACTORS
330
49C
102
}
330
A
100
AcDbSymbolTableRecord
100
AcDbDimStyleTableRecord
  2
ME10_DIM_10
 70
     0
  3
{\Fgdt;n}<>
 41
12.25
 42
0.0
 44
3.5
 73
     0
 74
     0
 77
     1
 78
     8
140
12.25
147
3.5
172
     1
173
     1
174
     1
175
     1
176
     2
177
     2
271
     2
178
     7
271
     2
340
48C
  0
DIMSTYLE
105
4A8
102
{ACAD_REACTORS
330
4A9
102
}
330
A
100
AcDbSymbolTableRecord
100
AcDbDimStyleTableRecord
  2
ME10_DIM_11
 70
     0
 41
12.25
 42
0.0
 44
3.5
 73
     0
 74
     0
 77
     1
 78
     8
140
12.25
147
3.5
172
     1
173
     1
174
     1
175
     1
176
     2
177
     2
271
     2
178
     7
271
     2
340
48C
  0
DIMSTYLE
105
4B3
102
{ACAD_REACTORS
330
4B4
102
}
330
A
100
AcDbSymbolTableRecord
100
AcDbDimStyleTableRecord
  2
ME10_DIM_12
 70
     0
 41
12.25
 42
0.0
 44
3.5
 73
     0
 74
     0
 77
     1
 78
     8
140
12.25
147
3.5
172
     1
173
     1
174
     1
175
     1
176
     2
177
     2
271
     2
178
     7
271
     2
340
48C
  0
DIMSTYLE
105
4BF
102
{ACAD_REACTORS
330
4C0
102
}
330
A
100
AcDbSymbolTableRecord
100
AcDbDimStyleTableRecord
  2
ME10_DIM_13
 70
     0
 41
12.25
 42
0.0
 44
3.5
 73
     0
 74
     0
 77
     1
 78
     8
140
12.25
147
3.5
172
     1
173
     1
174
     1
175
     1
176
     2
177
     2
271
     2
178
     7
271
     2
340
313
  0
DIMSTYLE
105
4CA
102
{ACAD_REACTORS
330
4CB
102
}
330
A
100
AcDbSymbolTableRecord
100
AcDbDimStyleTableRecord
  2
ME10_DIM_14
 70
     0
 41
12.25
 42
0.0
 44
3.5
 73
     0
 74
     0
 77
     1
 78
     8
140
12.25
147
3.5
172
     1
173
     1
174
     1
175
     1
176
     2
177
     2
271
     2
178
     7
271
     2
340
48C
  0
ENDTAB
  0
TABLE
  2
BLOCK_RECORD
  5
1
330
0
100
AcDbSymbolTable
 70
    21
  0
BLOCK_RECORD
  5
1F
330
1
100
AcDbSymbolTableRecord
100
AcDbBlockTableRecord
  2
*Model_Space
340
22
  0
BLOCK_RECORD
  5
1B
330
1
100
AcDbSymbolTableRecord
100
AcDbBlockTableRecord
  2
*Paper_Space
340
1E
  0
BLOCK_RECORD
  5
23
330
1
100
AcDbSymbolTableRecord
100
AcDbBlockTableRecord
  2
*Paper_Space0
340
26
  0
BLOCK_RECORD
  5
47
330
1
100
AcDbSymbolTableRecord
100
AcDbBlockTableRecord
  2
76-120-H3
340
0
102
{BLKREFS
331
51
102
}
  0
BLOCK_RECORD
  5
4A
330
1
100
AcDbSymbolTableRecord
100
AcDbBlockTableRecord
  2
76-120-_長さ_-H2
340
0
102
{BLKREFS
331
52
102
}
  0
BLOCK_RECORD
  5
4D
330
1
100
AcDbSymbolTableRecord
100
AcDbBlockTableRecord
  2
76-120-H1
340
0
102
{BLKREFS
331
53
102
}
  0
BLOCK_RECORD
  5
50
330
1
100
AcDbSymbolTableRecord
100
AcDbBlockTableRecord
  2
76-120-300
340
0
102
{BLKREFS
331
57
102
}
  0
BLOCK_RECORD
  5
56
330
1
100
AcDbSymbolTableRecord
100
AcDbBlockTableRecord
  2
76-120F-300
340
0
102
{BLKREFS
331
72
102
}
  0
BLOCK_RECORD
  5
5A
330
1
100
AcDbSymbolTableRecord
100
AcDbBlockTableRecord
  2
30-111
340
0
102
{BLKREFS
331
73
102
}
  0
BLOCK_RECORD
  5
5D
330
1
100
AcDbSymbolTableRecord
100
AcDbBlockTableRecord
  2
開示A4
340
0
102
{BLKREFS
331
74
102
}
  0
BLOCK_RECORD
  5
60
330
1
100
AcDbSymbolTableRecord
100
AcDbBlockTableRecord
  2
A20-0-13
340
0
102
{BLKREFS
331
75
102
}
  0
BLOCK_RECORD
  5
63
330
1
100
AcDbSymbolTableRecord
100
AcDbBlockTableRecord
  2
21-1C
340
0
102
{BLKREFS
331
76
102
}
  0
BLOCK_RECORD
  5
66
330
1
100
AcDbSymbolTableRecord
100
AcDbBlockTableRecord
  2
42-1
340
0
102
{BLKREFS
331
77
102
}
  0
BLOCK_RECORD
  5
69
330
1
100
AcDbSymbolTableRecord
100
AcDbBlockTableRecord
  2
37-1-13
340
0
102
{BLKREFS
331
78
102
}
  0
BLOCK_RECORD
  5
6C
330
1
100
AcDbSymbolTableRecord
100
AcDbBlockTableRecord
  2
36-1A-13-M4
340
0
102
{BLKREFS
331
79
102
}
  0
BLOCK_RECORD
  5
6F
330
1
100
AcDbSymbolTableRecord
100
AcDbBlockTableRecord
  2
32-1-16
340
0
102
{BLKREFS
331
7A
102
}
  0
BLOCK_RECORD
  5
492
330
1
100
AcDbSymbolTableRecord
100
AcDbBlockTableRecord
  2
*D14
340
0
  0
BLOCK_RECORD
  5
49D
330
1
100
AcDbSymbolTableRecord
100
AcDbBlockTableRecord
  2
*D15
340
0
  0
BLOCK_RECORD
  5
4AA
330
1
100
AcDbSymbolTableRecord
100
AcDbBlockTableRecord
  2
*D16
340
0
  0
BLOCK_RECORD
  5
4B5
330
1
100
AcDbSymbolTableRecord
100
AcDbBlockTableRecord
  2
*D17
340
0
  0
BLOCK_RECORD
  5
4C1
330
1
100
AcDbSymbolTableRecord
100
AcDbBlockTableRecord
  2
*D18
340
0
  0
BLOCK_RECORD
  5
4CC
330
1
100
AcDbSymbolTableRecord
100
AcDbBlockTableRecord
  2
*D19
340
0
102
{BLKREFS
331
4D3
102
}
  0
BLOCK_RECORD
  5
4D4
330
1
100
AcDbSymbolTableRecord
100
AcDbBlockTableRecord
  2
*D20
340
0
102
{BLKREFS
331
4DB
102
}
  0
ENDTAB
  0
ENDSEC
  0
SECTION
  2
BLOCKS
  0
BLOCK
  5
20
330
1F
100
AcDbEntity
  8
0
100
AcDbBlockBegin
  2
*Model_Space
 70
     0
 10
0.0
 20
0.0
 30
0.0
  3
*Model_Space
  1

  0
ENDBLK
  5
21
330
1F
100
AcDbEntity
  8
0
100
AcDbBlockEnd
  0
BLOCK
  5
1C
330
1B
100
AcDbEntity
 67
     1
  8
0
100
AcDbBlockBegin
  2
*Paper_Space
 70
     0
 10
0.0
 20
0.0
 30
0.0
  3
*Paper_Space
  1

  0
ENDBLK
  5
1D
330
1B
100
AcDbEntity
 67
     1
  8
0
100
AcDbBlockEnd
  0
BLOCK
  5
24
330
23
100
AcDbEntity
  8
0
100
AcDbBlockBegin
  2
*Paper_Space0
 70
     0
 10
0.0
 20
0.0
 30
0.0
  3
*Paper_Space0
  1

  0
ENDBLK
  5
25
330
23
100
AcDbEntity
  8
0
100
AcDbBlockEnd
  0
BLOCK
  5
48
330
47
100
AcDbEntity
  8
0
100
AcDbBlockBegin
  2
76-120-H3
 70
     0
 10
1040.506069880822
 20
902.7491930018404
 30
0.0
  3
76-120-H3
  1

  0
LINE
  5
7B
330
47
100
AcDbEntity
  8
1
  6
Continuous
 62
     7
100
AcDbLine
 10
178.3367870212701
 20
555.9113846460584
 30
0.0
 11
176.7258744519161
 21
552.0222976733257
 31
0.0
  0
LINE
  5
7C
330
47
100
AcDbEntity
  8
1
  6
Continuous
 62
     7
100
AcDbLine
 10
177.5270886479057
 20
559.7795866022914
 30
0.0
 11
178.3367870212701
 21
557.8248018078839
 31
0.0
  0
LINE
  5
7D
330
47
100
AcDbEntity
  8
1
  6
Continuous
 62
     7
100
AcDbLine
 10
175.3728842015505
 20
550.6693074229602
 30
0.0
 11
171.4837972288183
 21
549.0583948536059
 31
0.0
  0
LINE
  5
7E
330
47
100
AcDbEntity
  8
1
  6
Continuous
 62
     7
100
AcDbLine
 10
169.5703800669933
 20
549.0583948536059
 30
0.0
 11
165.6812930942608
 21
550.6693074229602
 31
0.0
  0
LINE
  5
7F
330
47
100
AcDbEntity
  8
1
  6
Continuous
 62
     7
100
AcDbLine
 10
164.3283028438952
 20
552.0222976733255
 30
0.0
 11
162.7173902745415
 21
555.9113846460584
 31
0.0
  0
LINE
  5
80
330
47
100
AcDbEntity
  8
1
  6
Continuous
 62
     7
100
AcDbLine
 10
162.7173902745415
 20
557.8248018078839
 30
0.0
 11
163.5270886479057
 21
559.7795866022909
 31
0.0
  0
LINE
  5
81
330
47
100
AcDbEntity
  8
1
  6
Continuous
 62
     7
100
AcDbLine
 10
176.7258744519161
 20
267.2680932269707
 30
0.0
 11
176.7258744519161
 21
278.2680932269707
 31
0.0
  0
LINE
  5
82
330
47
100
AcDbEntity
  8
1
  6
Continuous
 62
     7
100
AcDbLine
 10
353.4450248645551
 20
278.2680932269707
 30
0.0
 11
369.4450248645551
 21
278.2680932269707
 31
0.0
  0
LINE
  5
83
330
47
100
AcDbEntity
  8
0
  6
Continuous
 62
     7
100
AcDbLine
 10
369.4450248645551
 20
278.2680932269707
 30
0.0
 11
369.4450248645551
 21
267.2680932269707
 31
0.0
  0
LINE
  5
84
330
47
100
AcDbEntity
  8
0
  6
Continuous
 62
     7
100
AcDbLine
 10
353.4450248645551
 20
267.2680932269707
 30
0.0
 11
353.4450248645551
 21
278.2680932269707
 31
0.0
  0
LINE
  5
85
330
47
100
AcDbEntity
  8
0
  6
Continuous
 62
     7
100
AcDbLine
 10
353.4450248645551
 20
264.7680932269707
 30
0.0
 11
353.4450248645551
 21
267.2680932269707
 31
0.0
  0
LINE
  5
86
330
47
100
AcDbEntity
  8
0
  6
Continuous
 62
     7
100
AcDbLine
 10
369.4450248645551
 20
267.2680932269707
 30
0.0
 11
369.4450248645551
 21
264.7680932269707
 31
0.0
  0
LINE
  5
87
330
47
100
AcDbEntity
  8
0
  6
Continuous
 62
     7
100
AcDbLine
 10
351.255024864555
 20
259.7680932269707
 30
0.0
 11
350.4450248645551
 21
258.9580932269706
 31
0.0
  0
LINE
  5
88
330
47
100
AcDbEntity
  8
0
  6
Continuous
 62
     7
100
AcDbLine
 10
372.4450248645551
 20
258.9580932269706
 30
0.0
 11
372.4450248645551
 21
258.8680932269709
 31
0.0
  0
LINE
  5
89
330
47
100
AcDbEntity
  8
0
  6
Continuous
 62
     2
100
AcDbLine
 10
371.6350248645549
 20
259.7680932269707
 30
0.0
 11
371.6350248645549
 21
258.8680932269709
 31
0.0
  0
LINE
  5
8A
330
47
100
AcDbEntity
  8
0
  6
Continuous
 62
     7
100
AcDbLine
 10
372.4450248645551
 20
258.9580932269706
 30
0.0
 11
371.6350248645549
 21
259.7680932269707
 31
0.0
  0
LINE
  5
8B
330
47
100
AcDbEntity
  8
1
  6
Continuous
 62
     7
100
AcDbLine
 10
372.4450248645551
 20
258.9580932269706
 30
0.0
 11
350.4450248645551
 21
258.9580932269706
 31
0.0
  0
LINE
  5
8C
330
47
100
AcDbEntity
  8
1
  6
Continuous
 62
     7
100
AcDbLine
 10
353.6353264911904
 20
267.2680932269707
 30
0.0
 11
353.6353264911904
 21
278.2680932269707
 31
0.0
  0
LINE
  5
8D
330
47
100
AcDbEntity
  8
1
  6
Continuous
 62
     7
100
AcDbLine
 10
355.2462390605447
 20
278.2680932269707
 30
0.0
 11
355.2462390605447
 21
267.2680932269707
 31
0.0
  0
LINE
  5
8E
330
47
100
AcDbEntity
  8
1
  6
Continuous
 62
     7
100
AcDbLine
 10
356.59922931091
 20
278.2680932269707
 30
0.0
 11
356.59922931091
 21
267.2680932269707
 31
0.0
  0
LINE
  5
8F
330
47
100
AcDbEntity
  8
1
  6
Continuous
 62
     7
100
AcDbLine
 10
360.4883162836425
 20
267.2680932269707
 30
0.0
 11
360.4883162836425
 21
278.2680932269707
 31
0.0
  0
LINE
  5
90
330
47
100
AcDbEntity
  8
1
  6
Continuous
 62
     7
100
AcDbLine
 10
362.4017334454679
 20
267.2680932269707
 30
0.0
 11
362.4017334454679
 21
278.2680932269707
 31
0.0
  0
LINE
  5
91
330
47
100
AcDbEntity
  8
1
  6
Continuous
 62
     7
100
AcDbLine
 10
366.2908204181999
 20
267.2680932269707
 30
0.0
 11
366.2908204181999
 21
278.2680932269707
 31
0.0
  0
LINE
  5
92
330
47
100
AcDbEntity
  8
1
  6
Continuous
 62
     7
100
AcDbLine
 10
367.6438106685655
 20
267.2680932269707
 30
0.0
 11
367.6438106685655
 21
278.2680932269707
 31
0.0
  0
LINE
  5
93
330
47
100
AcDbEntity
  8
1
  6
Continuous
 62
     7
100
AcDbLine
 10
369.2547232379195
 20
278.2680932269707
 30
0.0
 11
369.2547232379195
 21
267.2680932269707
 31
0.0
  0
LINE
  5
94
330
47
100
AcDbEntity
  8
1
  6
Continuous
 62
     7
100
AcDbLine
 10
369.4450248645551
 20
267.2680932269707
 30
0.0
 11
353.4450248645551
 21
267.2680932269707
 31
0.0
  0
LINE
  5
95
330
47
100
AcDbEntity
  8
0
  6
Continuous
 62
     7
100
AcDbLine
 10
350.4450248645551
 20
258.8680932269709
 30
0.0
 11
350.4450248645551
 21
258.9580932269706
 31
0.0
  0
LINE
  5
96
330
47
100
AcDbEntity
  8
0
  6
Continuous
 62
     2
100
AcDbLine
 10
351.255024864555
 20
258.8680932269709
 30
0.0
 11
351.255024864555
 21
259.7680932269707
 31
0.0
  0
LINE
  5
97
330
47
100
AcDbEntity
  8
0
  6
Continuous
 62
     2
100
AcDbLine
 10
160.3370886479058
 20
258.8680932269709
 30
0.0
 11
160.3370886479058
 21
259.7680932269707
 31
0.0
  0
LINE
  5
98
330
47
100
AcDbEntity
  8
0
  6
Continuous
 62
     7
100
AcDbLine
 10
159.5270886479057
 20
258.8680932269709
 30
0.0
 11
159.5270886479057
 21
258.9580932269706
 31
0.0
  0
LINE
  5
99
330
47
100
AcDbEntity
  8
1
  6
Continuous
 62
     7
100
AcDbLine
 10
178.5270886479057
 20
267.2680932269707
 30
0.0
 11
162.5270886479057
 21
267.2680932269707
 31
0.0
  0
LINE
  5
9A
330
47
100
AcDbEntity
  8
1
  6
Continuous
 62
     7
100
AcDbLine
 10
178.3367870212701
 20
278.2680932269707
 30
0.0
 11
178.3367870212701
 21
267.2680932269707
 31
0.0
  0
LINE
  5
9B
330
47
100
AcDbEntity
  8
1
  6
Continuous
 62
     7
100
AcDbLine
 10
175.3728842015507
 20
267.2680932269707
 30
0.0
 11
175.3728842015507
 21
278.2680932269707
 31
0.0
  0
LINE
  5
9C
330
47
100
AcDbEntity
  8
1
  6
Continuous
 62
     7
100
AcDbLine
 10
171.4837972288187
 20
267.2680932269707
 30
0.0
 11
171.4837972288187
 21
278.2680932269707
 31
0.0
  0
LINE
  5
9D
330
47
100
AcDbEntity
  8
1
  6
Continuous
 62
     7
100
AcDbLine
 10
169.5703800669933
 20
267.2680932269707
 30
0.0
 11
169.5703800669933
 21
278.2680932269707
 31
0.0
  0
LINE
  5
9E
330
47
100
AcDbEntity
  8
1
  6
Continuous
 62
     7
100
AcDbLine
 10
165.6812930942606
 20
278.2680932269707
 30
0.0
 11
165.6812930942606
 21
267.2680932269707
 31
0.0
  0
LINE
  5
9F
330
47
100
AcDbEntity
  8
1
  6
Continuous
 62
     7
100
AcDbLine
 10
164.3283028438952
 20
278.2680932269707
 30
0.0
 11
164.3283028438952
 21
267.2680932269707
 31
0.0
  0
LINE
  5
A0
330
47
100
AcDbEntity
  8
1
  6
Continuous
 62
     7
100
AcDbLine
 10
162.7173902745412
 20
267.2680932269707
 30
0.0
 11
162.7173902745412
 21
278.2680932269707
 31
0.0
  0
LINE
  5
A1
330
47
100
AcDbEntity
  8
1
  6
Continuous
 62
     7
100
AcDbLine
 10
181.5270886479057
 20
258.9580932269706
 30
0.0
 11
159.5270886479057
 21
258.9580932269706
 31
0.0
  0
LINE
  5
A2
330
47
100
AcDbEntity
  8
0
  6
Continuous
 62
     7
100
AcDbLine
 10
181.5270886479057
 20
258.9580932269706
 30
0.0
 11
180.7170886479055
 21
259.7680932269707
 31
0.0
  0
LINE
  5
A3
330
47
100
AcDbEntity
  8
0
  6
Continuous
 62
     2
100
AcDbLine
 10
180.7170886479055
 20
259.7680932269707
 30
0.0
 11
180.7170886479055
 21
258.8680932269709
 31
0.0
  0
LINE
  5
A4
330
47
100
AcDbEntity
  8
0
  6
Continuous
 62
     7
100
AcDbLine
 10
181.5270886479057
 20
258.9580932269706
 30
0.0
 11
181.5270886479057
 21
258.8680932269709
 31
0.0
  0
LINE
  5
A5
330
47
100
AcDbEntity
  8
0
  6
Continuous
 62
     7
100
AcDbLine
 10
160.3370886479058
 20
259.7680932269707
 30
0.0
 11
159.5270886479057
 21
258.9580932269706
 31
0.0
  0
LINE
  5
A6
330
47
100
AcDbEntity
  8
0
  6
Continuous
 62
     7
100
AcDbLine
 10
178.5270886479057
 20
267.2680932269707
 30
0.0
 11
178.5270886479057
 21
264.7680932269707
 31
0.0
  0
LINE
  5
A7
330
47
100
AcDbEntity
  8
0
  6
Continuous
 62
     7
100
AcDbLine
 10
162.5270886479057
 20
264.7680932269707
 30
0.0
 11
162.5270886479057
 21
267.2680932269707
 31
0.0
  0
LINE
  5
A8
330
47
100
AcDbEntity
  8
0
  6
Continuous
 62
     7
100
AcDbLine
 10
162.5270886479057
 20
267.2680932269707
 30
0.0
 11
162.5270886479057
 21
278.2680932269707
 31
0.0
  0
LINE
  5
A9
330
47
100
AcDbEntity
  8
0
  6
Continuous
 62
     7
100
AcDbLine
 10
178.5270886479057
 20
278.2680932269707
 30
0.0
 11
178.5270886479057
 21
267.2680932269707
 31
0.0
  0
LINE
  5
AA
330
47
100
AcDbEntity
  8
1
  6
Continuous
 62
     7
100
AcDbLine
 10
162.5270886479057
 20
278.2680932269707
 30
0.0
 11
178.5270886479057
 21
278.2680932269707
 31
0.0
  0
ARC
  5
AB
330
47
100
AcDbEntity
  8
1
  6
Continuous
 62
     2
100
AcDbCircle
 10
170.5270886479057
 20
556.8680932269706
 30
0.0
 40
10.18999999999991
100
AcDbArc
 50
133.3889986126777
 51
0.0
  0
ARC
  5
AC
330
47
100
AcDbEntity
  8
1
  6
Continuous
 62
     2
100
AcDbCircle
 10
170.5270886479057
 20
556.8680932269706
 30
0.0
 40
10.19
100
AcDbArc
 50
0.0
 51
46.61100138732151
  0
ARC
  5
AD
330
47
100
AcDbEntity
  8
1
  6
Continuous
 62
     7
100
AcDbCircle
 10
170.5270886479057
 20
556.8680932269706
 30
0.0
 40
11.00000000000023
100
AcDbArc
 50
129.5211963586412
 51
0.0
  0
ARC
  5
AE
330
47
100
AcDbEntity
  8
1
  6
Continuous
 62
     7
100
AcDbCircle
 10
170.5270886479057
 20
556.8680932269706
 30
0.0
 40
11.0000000000002
100
AcDbArc
 50
0.0
 51
50.47880364135881
  0
ARC
  5
AF
330
47
100
AcDbEntity
  8
0
  6
Continuous
 62
     7
100
AcDbCircle
 10
345.4617520187669
 20
265.2851567334257
 30
0.0
 40
8.000000000000243
100
AcDbArc
 50
316.3989402251076
 51
356.2942222607953
  0
ARC
  5
B0
330
47
100
AcDbEntity
  8
0
  6
Continuous
 62
     7
100
AcDbCircle
 10
377.428297710343
 20
265.2851567334257
 30
0.0
 40
8.000000000000119
100
AcDbArc
 50
183.7057777392048
 51
223.6010597748927
  0
ARC
  5
B1
330
47
100
AcDbEntity
  8
0
  6
Continuous
 62
     7
100
AcDbCircle
 10
186.5103614936938
 20
265.2851567334257
 30
0.0
 40
8.000000000000318
100
AcDbArc
 50
183.7057777392047
 51
223.6010597748916
  0
ARC
  5
B2
330
47
100
AcDbEntity
  8
0
  6
Continuous
 62
     7
100
AcDbCircle
 10
154.5438158021175
 20
265.2851567334257
 30
0.0
 40
8.000000000000368
100
AcDbArc
 50
316.3989402251084
 51
356.2942222607953
  0
ARC
  5
B3
330
47
100
AcDbEntity
  8
1
  6
Continuous
 62
     7
100
AcDbCircle
 10
176.0270881899921
 20
556.868093226971
 30
0.0
 40
2.499999999999771
100
AcDbArc
 50
337.5000000000005
 51
22.50000000000436
  0
ARC
  5
B4
330
47
100
AcDbEntity
  8
1
  6
Continuous
 62
     7
100
AcDbCircle
 10
174.4161756206379
 20
552.9790062542382
 30
0.0
 40
2.499999999999823
100
AcDbArc
 50
292.499999999999
 51
337.5000000000046
  0
ARC
  5
B5
330
47
100
AcDbEntity
  8
1
  6
Continuous
 62
     7
100
AcDbCircle
 10
170.5270886479057
 20
551.3680936848841
 30
0.0
 40
2.499999999999852
100
AcDbArc
 50
247.5000000000062
 51
292.4999999999974
  0
ARC
  5
B6
330
47
100
AcDbEntity
  8
1
  6
Continuous
 62
     7
100
AcDbCircle
 10
166.6380016751737
 20
552.9790062542382
 30
0.0
 40
2.500000000000287
100
AcDbArc
 50
202.4999999999974
 51
247.4999999999949
  0
ARC
  5
B7
330
47
100
AcDbEntity
  8
1
  6
Continuous
 62
     7
100
AcDbCircle
 10
165.0270891058194
 20
556.868093226971
 30
0.0
 40
2.499999999999779
100
AcDbArc
 50
157.4999999999949
 51
202.5000000000003
  0
ENDBLK
  5
49
330
47
100
AcDbEntity
  8
0
100
AcDbBlockEnd
  0
BLOCK
  5
4B
330
4A
100
AcDbEntity
  8
0
100
AcDbBlockBegin
  2
76-120-_長さ_-H2
 70
     0
 10
1221.445024864555
 20
379.9047528732349
 30
0.0
  3
76-120-_長さ_-H2
  1

  0
LINE
  5
B8
330
4A
100
AcDbEntity
  8
1
  6
PHANTOM
 62
     5
100
AcDbLine
 10
163.5270886479061
 20
648.1930932269706
 30
0.0
 11
163.5270886479052
 21
650.5146726813869
 31
0.0
  0
LINE
  5
B9
330
4A
100
AcDbEntity
  8
1
  6
PHANTOM
 62
     5
100
AcDbLine
 10
163.5270886479057
 20
556.8680932269706
 30
0.0
 11
163.5270886479061
 21
648.1930932269706
 31
0.0
  0
LINE
  5
BA
330
4A
100
AcDbEntity
  8
1
  6
PHANTOM
 62
     5
100
AcDbLine
 10
177.5270886479061
 20
650.5146726813869
 30
0.0
 11
177.5270886479056
 21
556.8680932269706
 31
0.0
  0
LINE
  5
BB
330
4A
100
AcDbEntity
  8
1
  6
PHANTOM
 62
     5
100
AcDbLine
 10
354.4450248645551
 20
293.889672681386
 30
0.0
 11
354.4450248645551
 21
301.8680932269713
 31
0.0
  0
LINE
  5
BC
330
4A
100
AcDbEntity
  8
1
  6
PHANTOM
 62
     5
100
AcDbLine
 10
368.4450248645551
 20
294.8065368710917
 30
0.0
 11
368.4450248645551
 21
301.8680932269713
 31
0.0
  0
LINE
  5
BD
330
4A
100
AcDbEntity
  8
1
  6
Continuous
 62
     7
100
AcDbLine
 10
354.4450248645551
 20
293.889672681386
 30
0.0
 11
354.4450248645551
 21
291.5680932269698
 31
0.0
  0
LINE
  5
BE
330
4A
100
AcDbEntity
  8
1
  6
PHANTOM
 62
     5
100
AcDbLine
 10
411.4450248645549
 20
344.8680932269715
 30
0.0
 11
483.9666043189716
 21
344.8680932269714
 31
0.0
  0
LINE
  5
BF
330
4A
100
AcDbEntity
  8
1
  6
PHANTOM
 62
     5
100
AcDbLine
 10
481.6450248645554
 20
358.8680932269714
 30
0.0
 11
411.4450248645549
 21
358.8680932269713
 31
0.0
  0
LINE
  5
C0
330
4A
100
AcDbEntity
  8
1
  6
Continuous
 62
     7
100
AcDbLine
 10
508.9450248645553
 20
356.3680932269712
 30
0.0
 11
508.6450248645554
 21
357.8680932269714
 31
0.0
  0
LINE
  5
C1
330
4A
100
AcDbEntity
  8
0
  6
Continuous
 62
     7
100
AcDbLine
 10
508.9450248645553
 20
356.6825049583832
 30
0.0
 11
508.6450248645554
 21
358.3680932269714
 31
0.0
  0
LINE
  5
C2
330
4A
100
AcDbEntity
  8
1
  6
Continuous
 62
     7
100
AcDbLine
 10
508.6450248645554
 20
358.3680932269714
 30
0.0
 11
508.6450248645554
 21
357.8680932269714
 31
0.0
  0
LINE
  5
C3
330
4A
100
AcDbEntity
  8
1
  6
Continuous
 62
     7
100
AcDbLine
 10
508.6450248645554
 20
357.8680932269714
 30
0.0
 11
506.8164534359837
 21
357.8680932269714
 31
0.0
  0
LINE
  5
C4
330
4A
100
AcDbEntity
  8
0
  6
Continuous
 62
     7
100
AcDbLine
 10
505.3697674484258
 20
345.8680932269714
 30
0.0
 11
503.9532656070398
 21
353.8268895145484
 31
0.0
  0
LINE
  5
C5
330
4A
100
AcDbEntity
  8
0
  6
Continuous
 62
     7
100
AcDbLine
 10
505.3825889531524
 20
345.7960539671282
 30
0.0
 11
505.3697674484258
 21
345.8680932269714
 31
0.0
  0
LINE
  5
C6
330
4A
100
AcDbEntity
  8
1
  6
Continuous
 62
     7
100
AcDbLine
 10
505.9666043189716
 20
344.8680932269714
 30
0.0
 11
508.5450248645554
 21
344.8680932269714
 31
0.0
  0
LINE
  5
C7
330
4A
100
AcDbEntity
  8
1
  6
Continuous
 62
     7
100
AcDbLine
 10
508.2329552773699
 20
349.9092969393934
 30
0.0
 11
508.9450248645553
 21
346.3489490034665
 31
0.0
  0
LINE
  5
C8
330
4A
100
AcDbEntity
  8
0
  6
Continuous
 62
     7
100
AcDbLine
 10
505.4737931915649
 20
345.2836113194161
 30
0.0
 11
505.3825889531524
 21
345.7960539671282
 31
0.0
  0
LINE
  5
C9
330
4A
100
AcDbEntity
  8
0
  6
Continuous
 62
     7
100
AcDbLine
 10
506.8828098311303
 20
357.4952613562909
 30
0.0
 11
508.2329552773699
 21
349.9092969393934
 31
0.0
  0
LINE
  5
CA
330
4A
100
AcDbEntity
  8
1
  6
Continuous
 62
     7
100
AcDbLine
 10
503.9532656070398
 20
353.8268895145484
 30
0.0
 11
503.1450248645554
 21
357.8680932269714
 31
0.0
  0
LINE
  5
CB
330
4A
100
AcDbEntity
  8
0
  6
Continuous
 62
     7
100
AcDbLine
 10
503.9532656070398
 20
353.8268895145484
 30
0.0
 11
503.1450248645554
 21
358.3680932269714
 31
0.0
  0
LINE
  5
CC
330
4A
100
AcDbEntity
  8
0
  6
Continuous
 62
     7
100
AcDbLine
 10
503.9532656070398
 20
353.8268895145484
 30
0.0
 11
503.1450248645554
 21
358.3680932269714
 31
0.0
  0
LINE
  5
CD
330
4A
100
AcDbEntity
  8
1
  6
Continuous
 62
     7
100
AcDbLine
 10
503.1450248645554
 20
358.3680932269714
 30
0.0
 11
503.1450248645554
 21
357.8680932269714
 31
0.0
  0
LINE
  5
CE
330
4A
100
AcDbEntity
  8
1
  6
Continuous
 62
     7
100
AcDbLine
 10
506.2196165654382
 20
358.8680932269714
 30
0.0
 11
503.6450248645554
 21
358.8680932269714
 31
0.0
  0
LINE
  5
CF
330
4A
100
AcDbEntity
  8
0
  6
Continuous
 62
     7
100
AcDbLine
 10
506.8164534359837
 20
357.8680932269714
 30
0.0
 11
506.8828098311303
 21
357.4952613562909
 31
0.0
  0
LINE
  5
D0
330
4A
100
AcDbEntity
  8
0
  6
Continuous
 62
     7
100
AcDbLine
 10
506.7124276928448
 20
358.4525751345267
 30
0.0
 11
506.8164534359837
 21
357.8680932269714
 31
0.0
  0
LINE
  5
D1
330
4A
100
AcDbEntity
  8
1
  6
Continuous
 62
     7
100
AcDbLine
 10
368.4450248645551
 20
278.2680932269714
 30
0.0
 11
368.4450248645551
 21
279.9680932269698
 31
0.0
  0
LINE
  5
D2
330
4A
100
AcDbEntity
  8
0
  6
Continuous
 62
     7
100
AcDbLine
 10
355.5840442282527
 20
278.2680932269714
 30
0.0
 11
363.4038211521329
 21
279.6598524844856
 31
0.0
  0
LINE
  5
D3
330
4A
100
AcDbEntity
  8
1
  6
Continuous
 62
     7
100
AcDbLine
 10
367.9450248645551
 20
280.4680932269698
 30
0.0
 11
367.4450248645551
 21
280.4680932269698
 31
0.0
  0
LINE
  5
D4
330
4A
100
AcDbEntity
  8
1
  6
Continuous
 62
     7
100
AcDbLine
 10
363.4038211521329
 20
279.6598524844856
 30
0.0
 11
367.4450248645551
 21
280.4680932269698
 31
0.0
  0
LINE
  5
D5
330
4A
100
AcDbEntity
  8
0
  6
Continuous
 62
     7
100
AcDbLine
 10
363.4038211521329
 20
279.6598524844856
 30
0.0
 11
367.9450248645551
 21
280.4680932269698
 31
0.0
  0
LINE
  5
D6
330
4A
100
AcDbEntity
  8
1
  6
Continuous
 62
     7
100
AcDbLine
 10
355.4450248645551
 20
280.0680932269698
 30
0.0
 11
355.4450248645551
 21
278.2680932269714
 31
0.0
  0
LINE
  5
D7
330
4A
100
AcDbEntity
  8
1
  6
Continuous
 62
     7
100
AcDbLine
 10
367.4450248645551
 20
280.4680932269698
 30
0.0
 11
367.4450248645551
 21
282.2928358108402
 31
0.0
  0
LINE
  5
D8
330
4A
100
AcDbEntity
  8
0
  6
Continuous
 62
     7
100
AcDbLine
 10
367.4450248645551
 20
282.2928358108402
 30
0.0
 11
359.486228576978
 21
280.8763339694546
 31
0.0
  0
LINE
  5
D9
330
4A
100
AcDbEntity
  8
0
  6
Continuous
 62
     7
100
AcDbLine
 10
363.4038211521329
 20
285.1598524844856
 30
0.0
 11
367.9450248645551
 21
285.9680932269698
 31
0.0
  0
LINE
  5
DA
330
4A
100
AcDbEntity
  8
1
  6
Continuous
 62
     7
100
AcDbLine
 10
363.4038211521329
 20
285.1598524844856
 30
0.0
 11
367.4450248645551
 21
285.9680932269698
 31
0.0
  0
LINE
  5
DB
330
4A
100
AcDbEntity
  8
1
  6
Continuous
 62
     7
100
AcDbLine
 10
367.9450248645551
 20
285.9680932269698
 30
0.0
 11
367.4450248645551
 21
285.9680932269698
 31
0.0
  0
LINE
  5
DC
330
4A
100
AcDbEntity
  8
1
  6
Continuous
 62
     7
100
AcDbLine
 10
368.4450248645551
 20
282.889672681386
 30
0.0
 11
368.4450248645551
 21
285.4680932269698
 31
0.0
  0
LINE
  5
DD
330
4A
100
AcDbEntity
  8
0
  6
Continuous
 62
     7
100
AcDbLine
 10
368.0295067721104
 20
282.3968615539793
 30
0.0
 11
367.4450248645551
 21
282.2928358108402
 31
0.0
  0
LINE
  5
DE
330
4A
100
AcDbEntity
  8
0
  6
Continuous
 62
     7
100
AcDbLine
 10
355.4450248645551
 20
283.7433506430994
 30
0.0
 11
363.4038211521329
 21
285.1598524844856
 31
0.0
  0
LINE
  5
DF
330
4A
100
AcDbEntity
  8
0
  6
Continuous
 62
     7
100
AcDbLine
 10
359.486228576978
 20
280.8763339694546
 30
0.0
 11
354.9450248645551
 21
280.0680932269698
 31
0.0
  0
LINE
  5
E0
330
4A
100
AcDbEntity
  8
1
  6
Continuous
 62
     7
100
AcDbLine
 10
359.486228576978
 20
280.8763339694546
 30
0.0
 11
355.4450248645551
 21
280.0680932269698
 31
0.0
  0
LINE
  5
E1
330
4A
100
AcDbEntity
  8
1
  6
Continuous
 62
     7
100
AcDbLine
 10
354.9450248645551
 20
280.0680932269698
 30
0.0
 11
355.4450248645551
 21
280.0680932269698
 31
0.0
  0
LINE
  5
E2
330
4A
100
AcDbEntity
  8
1
  6
Continuous
 62
     7
100
AcDbLine
 10
354.4450248645551
 20
283.1465137725537
 30
0.0
 11
354.4450248645551
 21
280.5680932269698
 31
0.0
  0
LINE
  5
E3
330
4A
100
AcDbEntity
  8
0
  6
Continuous
 62
     7
100
AcDbLine
 10
354.8605429569998
 20
283.6393248999605
 30
0.0
 11
355.4450248645551
 21
283.7433506430994
 31
0.0
  0
LINE
  5
E4
330
4A
100
AcDbEntity
  8
1
  6
Continuous
 62
     7
100
AcDbLine
 10
367.4450248645551
 20
285.9680932269698
 30
0.0
 11
367.4450248645551
 21
287.7928358108402
 31
0.0
  0
LINE
  5
E5
330
4A
100
AcDbEntity
  8
0
  6
Continuous
 62
     7
100
AcDbLine
 10
367.4450248645551
 20
287.7928358108402
 30
0.0
 11
359.486228576978
 21
286.3763339694546
 31
0.0
  0
LINE
  5
E6
330
4A
100
AcDbEntity
  8
0
  6
Continuous
 62
     7
100
AcDbLine
 10
368.0295067721104
 20
287.8968615539793
 30
0.0
 11
367.4450248645551
 21
287.7928358108402
 31
0.0
  0
LINE
  5
E7
330
4A
100
AcDbEntity
  8
1
  6
Continuous
 62
     7
100
AcDbLine
 10
368.4450248645551
 20
288.389672681386
 30
0.0
 11
368.4450248645551
 21
290.9680932269698
 31
0.0
  0
LINE
  5
E8
330
4A
100
AcDbEntity
  8
1
  6
Continuous
 62
     7
100
AcDbLine
 10
367.9450248645551
 20
291.4680932269698
 30
0.0
 11
367.4450248645551
 21
291.4680932269698
 31
0.0
  0
LINE
  5
E9
330
4A
100
AcDbEntity
  8
1
  6
Continuous
 62
     7
100
AcDbLine
 10
363.4038211521329
 20
290.6598524844856
 30
0.0
 11
367.4450248645551
 21
291.4680932269698
 31
0.0
  0
LINE
  5
EA
330
4A
100
AcDbEntity
  8
0
  6
Continuous
 62
     7
100
AcDbLine
 10
363.4038211521329
 20
290.6598524844856
 30
0.0
 11
367.9450248645551
 21
291.4680932269698
 31
0.0
  0
LINE
  5
EB
330
4A
100
AcDbEntity
  8
0
  6
Continuous
 62
     7
100
AcDbLine
 10
355.4450248645551
 20
289.2433506430994
 30
0.0
 11
363.4038211521329
 21
290.6598524844856
 31
0.0
  0
LINE
  5
EC
330
4A
100
AcDbEntity
  8
0
  6
Continuous
 62
     7
100
AcDbLine
 10
354.8605429569998
 20
289.1393248999605
 30
0.0
 11
355.4450248645551
 21
289.2433506430994
 31
0.0
  0
LINE
  5
ED
330
4A
100
AcDbEntity
  8
1
  6
Continuous
 62
     7
100
AcDbLine
 10
354.4450248645551
 20
288.6465137725537
 30
0.0
 11
354.4450248645551
 21
286.0680932269698
 31
0.0
  0
LINE
  5
EE
330
4A
100
AcDbEntity
  8
1
  6
Continuous
 62
     7
100
AcDbLine
 10
354.9450248645551
 20
285.5680932269698
 30
0.0
 11
355.4450248645551
 21
285.5680932269698
 31
0.0
  0
LINE
  5
EF
330
4A
100
AcDbEntity
  8
1
  6
Continuous
 62
     7
100
AcDbLine
 10
359.486228576978
 20
286.3763339694546
 30
0.0
 11
355.4450248645551
 21
285.5680932269698
 31
0.0
  0
LINE
  5
F0
330
4A
100
AcDbEntity
  8
0
  6
Continuous
 62
     7
100
AcDbLine
 10
359.486228576978
 20
286.3763339694546
 30
0.0
 11
354.9450248645551
 21
285.5680932269698
 31
0.0
  0
LINE
  5
F1
330
4A
100
AcDbEntity
  8
1
  6
Continuous
 62
     7
100
AcDbLine
 10
355.4450248645551
 20
285.5680932269698
 30
0.0
 11
355.4450248645551
 21
283.7433506430994
 31
0.0
  0
LINE
  5
F2
330
4A
100
AcDbEntity
  8
1
  6
Continuous
 62
     7
100
AcDbLine
 10
355.4450248645551
 20
291.0680932269698
 30
0.0
 11
355.4450248645551
 21
289.2433506430994
 31
0.0
  0
LINE
  5
F3
330
4A
100
AcDbEntity
  8
1
  6
Continuous
 62
     7
100
AcDbLine
 10
367.4450248645551
 20
291.4680932269698
 30
0.0
 11
367.4450248645551
 21
293.2928358108402
 31
0.0
  0
LINE
  5
F4
330
4A
100
AcDbEntity
  8
0
  6
Continuous
 62
     7
100
AcDbLine
 10
367.4450248645551
 20
293.2928358108402
 30
0.0
 11
359.486228576978
 21
291.8763339694546
 31
0.0
  0
LINE
  5
F5
330
4A
100
AcDbEntity
  8
1
  6
Continuous
 62
     7
100
AcDbLine
 10
368.4450248645551
 20
293.889672681386
 30
0.0
 11
368.4450248645551
 21
294.8065368710917
 31
0.0
  0
LINE
  5
F6
330
4A
100
AcDbEntity
  8
0
  6
Continuous
 62
     7
100
AcDbLine
 10
368.0295067721104
 20
293.3968615539793
 30
0.0
 11
367.4450248645551
 21
293.2928358108402
 31
0.0
  0
LINE
  5
F7
330
4A
100
AcDbEntity
  8
0
  6
Continuous
 62
     7
100
AcDbLine
 10
359.486228576978
 20
291.8763339694546
 30
0.0
 11
354.9450248645551
 21
291.0680932269698
 31
0.0
  0
LINE
  5
F8
330
4A
100
AcDbEntity
  8
1
  6
Continuous
 62
     7
100
AcDbLine
 10
359.486228576978
 20
291.8763339694546
 30
0.0
 11
355.4450248645551
 21
291.0680932269698
 31
0.0
  0
LINE
  5
F9
330
4A
100
AcDbEntity
  8
1
  6
Continuous
 62
     7
100
AcDbLine
 10
354.9450248645551
 20
291.0680932269698
 30
0.0
 11
355.4450248645551
 21
291.0680932269698
 31
0.0
  0
LINE
  5
FA
330
4A
100
AcDbEntity
  8
0
  6
Continuous
 62
     7
100
AcDbLine
 10
176.5270886479061
 20
655.4178358108411
 30
0.0
 11
168.568292360329
 21
654.0013339694553
 31
0.0
  0
LINE
  5
FB
330
4A
100
AcDbEntity
  8
0
  6
Continuous
 62
     7
100
AcDbLine
 10
164.5270886479061
 20
651.3683506431003
 30
0.0
 11
172.4858849354839
 21
652.7848524844862
 31
0.0
  0
LINE
  5
FC
330
4A
100
AcDbEntity
  8
0
  6
Continuous
 62
     7
100
AcDbLine
 10
164.5270886479061
 20
656.8683506431003
 30
0.0
 11
172.4858849354839
 21
658.2848524844862
 31
0.0
  0
LINE
  5
FD
330
4A
100
AcDbEntity
  8
0
  6
Continuous
 62
     7
100
AcDbLine
 10
164.5270886479061
 20
667.8683506431003
 30
0.0
 11
172.4858849354839
 21
669.2848524844862
 31
0.0
  0
LINE
  5
FE
330
4A
100
AcDbEntity
  8
0
  6
Continuous
 62
     7
100
AcDbLine
 10
164.5270886479061
 20
662.3683506431003
 30
0.0
 11
172.4858849354839
 21
663.7848524844862
 31
0.0
  0
LINE
  5
FF
330
4A
100
AcDbEntity
  8
0
  6
Continuous
 62
     7
100
AcDbLine
 10
176.5270886479061
 20
660.9178358108411
 30
0.0
 11
168.568292360329
 21
659.5013339694553
 31
0.0
  0
LINE
  5
100
330
4A
100
AcDbEntity
  8
0
  6
Continuous
 62
     7
100
AcDbLine
 10
176.5270886479061
 20
666.4178358108411
 30
0.0
 11
168.568292360329
 21
665.0013339694553
 31
0.0
  0
LINE
  5
101
330
4A
100
AcDbEntity
  8
0
  6
Continuous
 62
     7
100
AcDbLine
 10
176.5270886479061
 20
671.9178358108411
 30
0.0
 11
168.568292360329
 21
670.5013339694551
 31
0.0
  0
LINE
  5
102
330
4A
100
AcDbEntity
  8
0
  6
Continuous
 62
     7
100
AcDbLine
 10
176.5270886479061
 20
677.4178358108411
 30
0.0
 11
168.568292360329
 21
676.0013339694551
 31
0.0
  0
LINE
  5
103
330
4A
100
AcDbEntity
  8
0
  6
Continuous
 62
     7
100
AcDbLine
 10
164.5270886479061
 20
673.3683506431003
 30
0.0
 11
172.4858849354841
 21
674.7848524844862
 31
0.0
  0
LINE
  5
104
330
4A
100
AcDbEntity
  8
0
  6
Continuous
 62
     7
100
AcDbLine
 10
164.5270886479061
 20
678.8683506431003
 30
0.0
 11
172.4858849354841
 21
680.2848524844862
 31
0.0
  0
LINE
  5
105
330
4A
100
AcDbEntity
  8
0
  6
Continuous
 62
     7
100
AcDbLine
 10
164.5270886479061
 20
684.3683506431003
 30
0.0
 11
172.4858849354841
 21
685.7848524844862
 31
0.0
  0
LINE
  5
106
330
4A
100
AcDbEntity
  8
0
  6
Continuous
 62
     7
100
AcDbLine
 10
176.5270886479061
 20
682.9178358108411
 30
0.0
 11
168.568292360329
 21
681.5013339694551
 31
0.0
  0
LINE
  5
107
330
4A
100
AcDbEntity
  8
0
  6
Continuous
 62
     7
100
AcDbLine
 10
176.5270886479061
 20
688.4178358108411
 30
0.0
 11
168.568292360329
 21
687.0013339694551
 31
0.0
  0
LINE
  5
108
330
4A
100
AcDbEntity
  8
0
  6
Continuous
 62
     7
100
AcDbLine
 10
176.5270886479061
 20
693.9178358108411
 30
0.0
 11
168.568292360329
 21
692.5013339694551
 31
0.0
  0
LINE
  5
109
330
4A
100
AcDbEntity
  8
0
  6
Continuous
 62
     7
100
AcDbLine
 10
164.5270886479061
 20
689.8645217983992
 30
0.0
 11
172.4858849354841
 21
691.2810236397852
 31
0.0
  0
LINE
  5
10A
330
4A
100
AcDbEntity
  8
1
  6
Continuous
 62
     7
100
AcDbLine
 10
163.5270886479061
 20
689.2676849278535
 30
0.0
 11
163.5270886479061
 21
686.6930932269706
 31
0.0
  0
LINE
  5
10B
330
4A
100
AcDbEntity
  8
0
  6
Continuous
 62
     7
100
AcDbLine
 10
495.8164534359839
 20
357.8680932269714
 30
0.0
 11
497.2329552773699
 21
349.9092969393934
 31
0.0
  0
LINE
  5
10C
330
4A
100
AcDbEntity
  8
0
  6
Continuous
 62
     7
100
AcDbLine
 10
490.320282280685
 20
357.8680932269714
 30
0.0
 11
491.736784122071
 21
349.9092969393934
 31
0.0
  0
LINE
  5
10D
330
4A
100
AcDbEntity
  8
0
  6
Continuous
 62
     7
100
AcDbLine
 10
484.820282280685
 20
357.8680932269714
 30
0.0
 11
486.236784122071
 21
349.9092969393934
 31
0.0
  0
LINE
  5
10E
330
4A
100
AcDbEntity
  8
0
  6
Continuous
 62
     7
100
AcDbLine
 10
494.3697674484258
 20
345.8680932269714
 30
0.0
 11
492.9532656070398
 21
353.8268895145484
 31
0.0
  0
LINE
  5
10F
330
4A
100
AcDbEntity
  8
0
  6
Continuous
 62
     7
100
AcDbLine
 10
488.8697674484258
 20
345.8680932269714
 30
0.0
 11
487.4532656070398
 21
353.8268895145484
 31
0.0
  0
LINE
  5
110
330
4A
100
AcDbEntity
  8
1
  6
Continuous
 62
     7
100
AcDbLine
 10
168.568292360329
 20
692.5013339694551
 30
0.0
 11
164.5270886479061
 21
691.6930932269706
 31
0.0
  0
LINE
  5
111
330
4A
100
AcDbEntity
  8
0
  6
Continuous
 62
     7
100
AcDbLine
 10
173.4382898141894
 20
704.3680932269706
 30
0.0
 11
168.568292360329
 21
703.5013339694551
 31
0.0
  0
LINE
  5
112
330
4A
100
AcDbEntity
  8
1
  6
Continuous
 62
     7
100
AcDbLine
 10
163.5270886479061
 20
704.3680932269706
 30
0.0
 11
163.5270886479061
 21
703.1930932269706
 31
0.0
  0
LINE
  5
113
330
4A
100
AcDbEntity
  8
1
  6
Continuous
 62
     7
100
AcDbLine
 10
164.0270886479061
 20
702.6930932269706
 30
0.0
 11
164.5270886479061
 21
702.6930932269706
 31
0.0
  0
LINE
  5
114
330
4A
100
AcDbEntity
  8
1
  6
Continuous
 62
     7
100
AcDbLine
 10
168.568292360329
 20
703.5013339694551
 30
0.0
 11
164.5270886479061
 21
702.6930932269706
 31
0.0
  0
LINE
  5
115
330
4A
100
AcDbEntity
  8
0
  6
Continuous
 62
     7
100
AcDbLine
 10
168.568292360329
 20
703.5013339694551
 30
0.0
 11
164.0270886479061
 21
702.6930932269706
 31
0.0
  0
LINE
  5
116
330
4A
100
AcDbEntity
  8
0
  6
Continuous
 62
     7
100
AcDbLine
 10
163.9426067403506
 20
700.7604960552601
 30
0.0
 11
164.5270886479061
 21
700.8645217983992
 31
0.0
  0
LINE
  5
117
330
4A
100
AcDbEntity
  8
0
  6
Continuous
 62
     7
100
AcDbLine
 10
164.5270886479061
 20
700.8645217983992
 30
0.0
 11
172.4858849354841
 21
702.2810236397852
 31
0.0
  0
LINE
  5
118
330
4A
100
AcDbEntity
  8
1
  6
Continuous
 62
     7
100
AcDbLine
 10
172.4858849354841
 20
702.2810236397852
 30
0.0
 11
176.5270886479061
 21
703.0892643822697
 31
0.0
  0
LINE
  5
119
330
4A
100
AcDbEntity
  8
1
  6
Continuous
 62
     7
100
AcDbLine
 10
177.0270886479061
 20
703.0892643822697
 30
0.0
 11
176.5270886479061
 21
703.0892643822697
 31
0.0
  0
LINE
  5
11A
330
4A
100
AcDbEntity
  8
1
  6
Continuous
 62
     7
100
AcDbLine
 10
177.0270886479061
 20
703.0892643822697
 30
0.0
 11
176.5270886479061
 21
703.0892643822697
 31
0.0
  0
LINE
  5
11B
330
4A
100
AcDbEntity
  8
1
  6
Continuous
 62
     7
100
AcDbLine
 10
177.0270886479061
 20
703.0892643822697
 30
0.0
 11
176.5270886479061
 21
703.0892643822697
 31
0.0
  0
LINE
  5
11C
330
4A
100
AcDbEntity
  8
1
  6
Continuous
 62
     7
100
AcDbLine
 10
177.0270886479061
 20
703.0892643822697
 30
0.0
 11
176.5270886479061
 21
703.0892643822697
 31
0.0
  0
LINE
  5
11D
330
4A
100
AcDbEntity
  8
1
  6
Continuous
 62
     7
100
AcDbLine
 10
176.5270886479061
 20
703.0892643822697
 30
0.0
 11
176.5270886479061
 21
704.3680932269706
 31
0.0
  0
LINE
  5
11E
330
4A
100
AcDbEntity
  8
1
  6
Continuous
 62
     7
100
AcDbLine
 10
163.5270886479061
 20
650.7715137725545
 30
0.0
 11
163.5270886479061
 21
648.1930932269706
 31
0.0
  0
LINE
  5
11F
330
4A
100
AcDbEntity
  8
0
  6
Continuous
 62
     7
100
AcDbLine
 10
163.9426067403506
 20
651.2643248999611
 30
0.0
 11
164.5270886479061
 21
651.3683506431003
 31
0.0
  0
LINE
  5
120
330
4A
100
AcDbEntity
  8
1
  6
Continuous
 62
     7
100
AcDbLine
 10
172.4858849354839
 20
652.7848524844862
 30
0.0
 11
176.5270886479061
 21
653.5930932269707
 31
0.0
  0
LINE
  5
121
330
4A
100
AcDbEntity
  8
1
  6
Continuous
 62
     7
100
AcDbLine
 10
177.0270886479061
 20
653.5930932269707
 30
0.0
 11
176.5270886479061
 21
653.5930932269707
 31
0.0
  0
LINE
  5
122
330
4A
100
AcDbEntity
  8
0
  6
Continuous
 62
     7
100
AcDbLine
 10
172.4858849354839
 20
652.7848524844862
 30
0.0
 11
177.0270886479061
 21
653.5930932269707
 31
0.0
  0
LINE
  5
123
330
4A
100
AcDbEntity
  8
1
  6
Continuous
 62
     7
100
AcDbLine
 10
177.5270886479061
 20
650.5146726813869
 30
0.0
 11
177.5270886479061
 21
653.0930932269707
 31
0.0
  0
LINE
  5
124
330
4A
100
AcDbEntity
  8
1
  6
Continuous
 62
     7
100
AcDbLine
 10
164.0270886479061
 20
653.1930932269706
 30
0.0
 11
164.5270886479061
 21
653.1930932269706
 31
0.0
  0
LINE
  5
125
330
4A
100
AcDbEntity
  8
1
  6
Continuous
 62
     7
100
AcDbLine
 10
163.5270886479061
 20
656.2715137725545
 30
0.0
 11
163.5270886479061
 21
653.6930932269706
 31
0.0
  0
LINE
  5
126
330
4A
100
AcDbEntity
  8
1
  6
Continuous
 62
     7
100
AcDbLine
 10
177.5270886479061
 20
656.0146726813869
 30
0.0
 11
177.5270886479061
 21
658.5930932269707
 31
0.0
  0
LINE
  5
127
330
4A
100
AcDbEntity
  8
0
  6
Continuous
 62
     7
100
AcDbLine
 10
177.1115705554614
 20
655.5218615539802
 30
0.0
 11
176.5270886479061
 21
655.4178358108411
 31
0.0
  0
LINE
  5
128
330
4A
100
AcDbEntity
  8
0
  6
Continuous
 62
     7
100
AcDbLine
 10
168.568292360329
 20
654.0013339694553
 30
0.0
 11
164.0270886479061
 21
653.1930932269706
 31
0.0
  0
LINE
  5
129
330
4A
100
AcDbEntity
  8
1
  6
Continuous
 62
     7
100
AcDbLine
 10
168.568292360329
 20
654.0013339694553
 30
0.0
 11
164.5270886479061
 21
653.1930932269706
 31
0.0
  0
LINE
  5
12A
330
4A
100
AcDbEntity
  8
1
  6
Continuous
 62
     7
100
AcDbLine
 10
176.5270886479061
 20
653.5930932269707
 30
0.0
 11
176.5270886479061
 21
655.4178358108411
 31
0.0
  0
LINE
  5
12B
330
4A
100
AcDbEntity
  8
1
  6
Continuous
 62
     7
100
AcDbLine
 10
164.5270886479061
 20
653.1930932269706
 30
0.0
 11
164.5270886479061
 21
651.3683506431003
 31
0.0
  0
LINE
  5
12C
330
4A
100
AcDbEntity
  8
0
  6
Continuous
 62
     7
100
AcDbLine
 10
163.9426067403506
 20
662.2643248999611
 30
0.0
 11
164.5270886479061
 21
662.3683506431003
 31
0.0
  0
LINE
  5
12D
330
4A
100
AcDbEntity
  8
0
  6
Continuous
 62
     7
100
AcDbLine
 10
163.9426067403506
 20
667.7643248999611
 30
0.0
 11
164.5270886479061
 21
667.8683506431003
 31
0.0
  0
LINE
  5
12E
330
4A
100
AcDbEntity
  8
0
  6
Continuous
 62
     7
100
AcDbLine
 10
177.1115705554614
 20
666.5218615539802
 30
0.0
 11
176.5270886479061
 21
666.4178358108411
 31
0.0
  0
LINE
  5
12F
330
4A
100
AcDbEntity
  8
0
  6
Continuous
 62
     7
100
AcDbLine
 10
168.568292360329
 20
665.0013339694553
 30
0.0
 11
164.0270886479061
 21
664.1930932269706
 31
0.0
  0
LINE
  5
130
330
4A
100
AcDbEntity
  8
1
  6
Continuous
 62
     7
100
AcDbLine
 10
168.568292360329
 20
665.0013339694553
 30
0.0
 11
164.5270886479061
 21
664.1930932269706
 31
0.0
  0
LINE
  5
131
330
4A
100
AcDbEntity
  8
0
  6
Continuous
 62
     7
100
AcDbLine
 10
163.9426067403506
 20
656.7643248999611
 30
0.0
 11
164.5270886479061
 21
656.8683506431003
 31
0.0
  0
LINE
  5
132
330
4A
100
AcDbEntity
  8
0
  6
Continuous
 62
     7
100
AcDbLine
 10
168.568292360329
 20
659.5013339694553
 30
0.0
 11
164.0270886479061
 21
658.6930932269706
 31
0.0
  0
LINE
  5
133
330
4A
100
AcDbEntity
  8
1
  6
Continuous
 62
     7
100
AcDbLine
 10
168.568292360329
 20
659.5013339694553
 30
0.0
 11
164.5270886479061
 21
658.6930932269706
 31
0.0
  0
LINE
  5
134
330
4A
100
AcDbEntity
  8
0
  6
Continuous
 62
     7
100
AcDbLine
 10
177.1115705554614
 20
661.0218615539802
 30
0.0
 11
176.5270886479061
 21
660.9178358108411
 31
0.0
  0
LINE
  5
135
330
4A
100
AcDbEntity
  8
0
  6
Continuous
 62
     7
100
AcDbLine
 10
176.5270886479061
 20
699.4178358108411
 30
0.0
 11
168.568292360329
 21
698.0013339694551
 31
0.0
  0
LINE
  5
136
330
4A
100
AcDbEntity
  8
0
  6
Continuous
 62
     7
100
AcDbLine
 10
177.1115705554614
 20
683.0218615539802
 30
0.0
 11
176.5270886479061
 21
682.9178358108411
 31
0.0
  0
LINE
  5
137
330
4A
100
AcDbEntity
  8
1
  6
Continuous
 62
     7
100
AcDbLine
 10
177.5270886479061
 20
683.5146726813869
 30
0.0
 11
177.5270886479061
 21
686.0930932269707
 31
0.0
  0
LINE
  5
138
330
4A
100
AcDbEntity
  8
0
  6
Continuous
 62
     7
100
AcDbLine
 10
163.9426067403506
 20
684.2643248999611
 30
0.0
 11
164.5270886479061
 21
684.3683506431003
 31
0.0
  0
LINE
  5
139
330
4A
100
AcDbEntity
  8
0
  6
Continuous
 62
     7
100
AcDbLine
 10
172.4858849354841
 20
685.7848524844862
 30
0.0
 11
177.0270886479061
 21
686.5930932269707
 31
0.0
  0
LINE
  5
13A
330
4A
100
AcDbEntity
  8
1
  6
Continuous
 62
     7
100
AcDbLine
 10
172.4858849354841
 20
685.7848524844862
 30
0.0
 11
176.5270886479061
 21
686.5930932269707
 31
0.0
  0
LINE
  5
13B
330
4A
100
AcDbEntity
  8
0
  6
Continuous
 62
     7
100
AcDbLine
 10
163.9426067403506
 20
678.7643248999611
 30
0.0
 11
164.5270886479061
 21
678.8683506431003
 31
0.0
  0
LINE
  5
13C
330
4A
100
AcDbEntity
  8
1
  6
Continuous
 62
     7
100
AcDbLine
 10
172.4858849354841
 20
680.2848524844862
 30
0.0
 11
176.5270886479061
 21
681.0930932269707
 31
0.0
  0
LINE
  5
13D
330
4A
100
AcDbEntity
  8
0
  6
Continuous
 62
     7
100
AcDbLine
 10
172.4858849354841
 20
680.2848524844862
 30
0.0
 11
177.0270886479061
 21
681.0930932269707
 31
0.0
  0
LINE
  5
13E
330
4A
100
AcDbEntity
  8
0
  6
Continuous
 62
     7
100
AcDbLine
 10
177.1115705554614
 20
677.5218615539802
 30
0.0
 11
176.5270886479061
 21
677.4178358108411
 31
0.0
  0
LINE
  5
13F
330
4A
100
AcDbEntity
  8
0
  6
Continuous
 62
     7
100
AcDbLine
 10
168.568292360329
 20
676.0013339694551
 30
0.0
 11
164.0270886479061
 21
675.1930932269706
 31
0.0
  0
LINE
  5
140
330
4A
100
AcDbEntity
  8
1
  6
Continuous
 62
     7
100
AcDbLine
 10
168.568292360329
 20
676.0013339694551
 30
0.0
 11
164.5270886479061
 21
675.1930932269706
 31
0.0
  0
LINE
  5
141
330
4A
100
AcDbEntity
  8
1
  6
Continuous
 62
     7
100
AcDbLine
 10
172.4858849354841
 20
674.7848524844862
 30
0.0
 11
176.5270886479061
 21
675.5930932269707
 31
0.0
  0
LINE
  5
142
330
4A
100
AcDbEntity
  8
0
  6
Continuous
 62
     7
100
AcDbLine
 10
163.9426067403506
 20
673.2643248999611
 30
0.0
 11
164.5270886479061
 21
673.3683506431003
 31
0.0
  0
LINE
  5
143
330
4A
100
AcDbEntity
  8
0
  6
Continuous
 62
     7
100
AcDbLine
 10
177.1115705554614
 20
672.0218615539802
 30
0.0
 11
176.5270886479061
 21
671.9178358108411
 31
0.0
  0
LINE
  5
144
330
4A
100
AcDbEntity
  8
1
  6
Continuous
 62
     7
100
AcDbLine
 10
168.568292360329
 20
670.5013339694551
 30
0.0
 11
164.5270886479061
 21
669.6930932269706
 31
0.0
  0
LINE
  5
145
330
4A
100
AcDbEntity
  8
0
  6
Continuous
 62
     7
100
AcDbLine
 10
168.568292360329
 20
670.5013339694551
 30
0.0
 11
164.0270886479061
 21
669.6930932269706
 31
0.0
  0
LINE
  5
146
330
4A
100
AcDbEntity
  8
1
  6
Continuous
 62
     7
100
AcDbLine
 10
164.5270886479061
 20
675.1930932269706
 30
0.0
 11
164.5270886479061
 21
673.3683506431003
 31
0.0
  0
LINE
  5
147
330
4A
100
AcDbEntity
  8
1
  6
Continuous
 62
     7
100
AcDbLine
 10
163.5270886479061
 20
672.7715137725545
 30
0.0
 11
163.5270886479061
 21
670.1930932269706
 31
0.0
  0
LINE
  5
148
330
4A
100
AcDbEntity
  8
1
  6
Continuous
 62
     7
100
AcDbLine
 10
164.5270886479061
 20
669.6930932269706
 30
0.0
 11
164.5270886479061
 21
667.8683506431003
 31
0.0
  0
LINE
  5
149
330
4A
100
AcDbEntity
  8
1
  6
Continuous
 62
     7
100
AcDbLine
 10
172.4858849354839
 20
669.2848524844862
 30
0.0
 11
176.5270886479061
 21
670.0930932269707
 31
0.0
  0
LINE
  5
14A
330
4A
100
AcDbEntity
  8
0
  6
Continuous
 62
     7
100
AcDbLine
 10
172.4858849354839
 20
669.2848524844862
 30
0.0
 11
177.0270886479061
 21
670.0930932269707
 31
0.0
  0
LINE
  5
14B
330
4A
100
AcDbEntity
  8
1
  6
Continuous
 62
     7
100
AcDbLine
 10
172.4858849354839
 20
663.7848524844862
 30
0.0
 11
176.5270886479061
 21
664.5930932269707
 31
0.0
  0
LINE
  5
14C
330
4A
100
AcDbEntity
  8
0
  6
Continuous
 62
     7
100
AcDbLine
 10
172.4858849354839
 20
663.7848524844862
 30
0.0
 11
177.0270886479061
 21
664.5930932269707
 31
0.0
  0
LINE
  5
14D
330
4A
100
AcDbEntity
  8
1
  6
Continuous
 62
     7
100
AcDbLine
 10
177.5270886479061
 20
700.0146726813869
 30
0.0
 11
177.5270886479061
 21
702.5930932269707
 31
0.0
  0
LINE
  5
14E
330
4A
100
AcDbEntity
  8
1
  6
Continuous
 62
     7
100
AcDbLine
 10
163.5270886479061
 20
700.2676849278535
 30
0.0
 11
163.5270886479061
 21
697.6930932269706
 31
0.0
  0
LINE
  5
14F
330
4A
100
AcDbEntity
  8
1
  6
Continuous
 62
     7
100
AcDbLine
 10
168.568292360329
 20
681.5013339694551
 30
0.0
 11
164.5270886479061
 21
680.6930932269706
 31
0.0
  0
LINE
  5
150
330
4A
100
AcDbEntity
  8
1
  6
Continuous
 62
     7
100
AcDbLine
 10
176.5270886479061
 20
697.5892643822697
 30
0.0
 11
176.5270886479061
 21
699.4178358108411
 31
0.0
  0
LINE
  5
151
330
4A
100
AcDbEntity
  8
1
  6
Continuous
 62
     7
100
AcDbLine
 10
177.0270886479061
 20
697.5892643822697
 30
0.0
 11
176.5270886479061
 21
697.5892643822697
 31
0.0
  0
LINE
  5
152
330
4A
100
AcDbEntity
  8
1
  6
Continuous
 62
     7
100
AcDbLine
 10
177.0270886479061
 20
697.5892643822697
 30
0.0
 11
176.5270886479061
 21
697.5892643822697
 31
0.0
  0
LINE
  5
153
330
4A
100
AcDbEntity
  8
1
  6
Continuous
 62
     7
100
AcDbLine
 10
164.5270886479061
 20
697.1930932269706
 30
0.0
 11
164.5270886479061
 21
695.3645217983992
 31
0.0
  0
LINE
  5
154
330
4A
100
AcDbEntity
  8
1
  6
Continuous
 62
     7
100
AcDbLine
 10
177.0270886479061
 20
697.5892643822697
 30
0.0
 11
176.5270886479061
 21
697.5892643822697
 31
0.0
  0
LINE
  5
155
330
4A
100
AcDbEntity
  8
1
  6
Continuous
 62
     7
100
AcDbLine
 10
177.0270886479061
 20
686.5930932269707
 30
0.0
 11
176.5270886479061
 21
686.5930932269707
 31
0.0
  0
LINE
  5
156
330
4A
100
AcDbEntity
  8
1
  6
Continuous
 62
     7
100
AcDbLine
 10
177.0270886479061
 20
697.5892643822697
 30
0.0
 11
176.5270886479061
 21
697.5892643822697
 31
0.0
  0
LINE
  5
157
330
4A
100
AcDbEntity
  8
1
  6
Continuous
 62
     7
100
AcDbLine
 10
177.0270886479061
 20
686.5930932269707
 30
0.0
 11
176.5270886479061
 21
686.5930932269707
 31
0.0
  0
LINE
  5
158
330
4A
100
AcDbEntity
  8
1
  6
Continuous
 62
     7
100
AcDbLine
 10
177.0270886479061
 20
681.0930932269707
 30
0.0
 11
176.5270886479061
 21
681.0930932269707
 31
0.0
  0
LINE
  5
159
330
4A
100
AcDbEntity
  8
1
  6
Continuous
 62
     7
100
AcDbLine
 10
164.5270886479061
 20
680.6930932269706
 30
0.0
 11
164.5270886479061
 21
678.8683506431003
 31
0.0
  0
LINE
  5
15A
330
4A
100
AcDbEntity
  8
1
  6
Continuous
 62
     7
100
AcDbLine
 10
176.5270886479061
 20
681.0930932269707
 30
0.0
 11
176.5270886479061
 21
682.9178358108411
 31
0.0
  0
LINE
  5
15B
330
4A
100
AcDbEntity
  8
0
  6
Continuous
 62
     7
100
AcDbLine
 10
168.568292360329
 20
681.5013339694551
 30
0.0
 11
164.0270886479061
 21
680.6930932269706
 31
0.0
  0
LINE
  5
15C
330
4A
100
AcDbEntity
  8
1
  6
Continuous
 62
     7
100
AcDbLine
 10
163.5270886479061
 20
683.7715137725545
 30
0.0
 11
163.5270886479061
 21
681.1930932269706
 31
0.0
  0
LINE
  5
15D
330
4A
100
AcDbEntity
  8
1
  6
Continuous
 62
     7
100
AcDbLine
 10
177.0270886479061
 20
686.5930932269707
 30
0.0
 11
176.5270886479061
 21
686.5930932269707
 31
0.0
  0
LINE
  5
15E
330
4A
100
AcDbEntity
  8
1
  6
Continuous
 62
     7
100
AcDbLine
 10
164.0270886479061
 20
680.6930932269706
 30
0.0
 11
164.5270886479061
 21
680.6930932269706
 31
0.0
  0
LINE
  5
15F
330
4A
100
AcDbEntity
  8
1
  6
Continuous
 62
     7
100
AcDbLine
 10
164.0270886479061
 20
675.1930932269706
 30
0.0
 11
164.5270886479061
 21
675.1930932269706
 31
0.0
  0
LINE
  5
160
330
4A
100
AcDbEntity
  8
1
  6
Continuous
 62
     7
100
AcDbLine
 10
177.5270886479061
 20
678.0146726813869
 30
0.0
 11
177.5270886479061
 21
680.5930932269707
 31
0.0
  0
LINE
  5
161
330
4A
100
AcDbEntity
  8
1
  6
Continuous
 62
     7
100
AcDbLine
 10
177.0270886479061
 20
681.0930932269707
 30
0.0
 11
176.5270886479061
 21
681.0930932269707
 31
0.0
  0
LINE
  5
162
330
4A
100
AcDbEntity
  8
1
  6
Continuous
 62
     7
100
AcDbLine
 10
163.5270886479061
 20
678.2715137725545
 30
0.0
 11
163.5270886479061
 21
675.6930932269706
 31
0.0
  0
LINE
  5
163
330
4A
100
AcDbEntity
  8
1
  6
Continuous
 62
     7
100
AcDbLine
 10
176.5270886479061
 20
675.5930932269707
 30
0.0
 11
176.5270886479061
 21
677.4178358108411
 31
0.0
  0
LINE
  5
164
330
4A
100
AcDbEntity
  8
1
  6
Continuous
 62
     7
100
AcDbLine
 10
177.0270886479061
 20
670.0930932269707
 30
0.0
 11
176.5270886479061
 21
670.0930932269707
 31
0.0
  0
LINE
  5
165
330
4A
100
AcDbEntity
  8
1
  6
Continuous
 62
     7
100
AcDbLine
 10
177.0270886479061
 20
675.5930932269707
 30
0.0
 11
176.5270886479061
 21
675.5930932269707
 31
0.0
  0
LINE
  5
166
330
4A
100
AcDbEntity
  8
1
  6
Continuous
 62
     7
100
AcDbLine
 10
177.5270886479061
 20
672.5146726813869
 30
0.0
 11
177.5270886479061
 21
675.0930932269707
 31
0.0
  0
LINE
  5
167
330
4A
100
AcDbEntity
  8
1
  6
Continuous
 62
     7
100
AcDbLine
 10
164.0270886479061
 20
669.6930932269706
 30
0.0
 11
164.5270886479061
 21
669.6930932269706
 31
0.0
  0
LINE
  5
168
330
4A
100
AcDbEntity
  8
1
  6
Continuous
 62
     7
100
AcDbLine
 10
176.5270886479061
 20
670.0930932269707
 30
0.0
 11
176.5270886479061
 21
671.9178358108411
 31
0.0
  0
LINE
  5
169
330
4A
100
AcDbEntity
  8
1
  6
Continuous
 62
     7
100
AcDbLine
 10
177.0270886479061
 20
659.0930932269707
 30
0.0
 11
176.5270886479061
 21
659.0930932269707
 31
0.0
  0
LINE
  5
16A
330
4A
100
AcDbEntity
  8
1
  6
Continuous
 62
     7
100
AcDbLine
 10
172.4858849354839
 20
658.2848524844862
 30
0.0
 11
176.5270886479061
 21
659.0930932269707
 31
0.0
  0
LINE
  5
16B
330
4A
100
AcDbEntity
  8
1
  6
Continuous
 62
     7
100
AcDbLine
 10
164.0270886479061
 20
658.6930932269706
 30
0.0
 11
164.5270886479061
 21
658.6930932269706
 31
0.0
  0
LINE
  5
16C
330
4A
100
AcDbEntity
  8
1
  6
Continuous
 62
     7
100
AcDbLine
 10
163.5270886479061
 20
661.7715137725545
 30
0.0
 11
163.5270886479061
 21
659.1930932269706
 31
0.0
  0
LINE
  5
16D
330
4A
100
AcDbEntity
  8
1
  6
Continuous
 62
     7
100
AcDbLine
 10
177.0270886479061
 20
664.5930932269707
 30
0.0
 11
176.5270886479061
 21
664.5930932269707
 31
0.0
  0
LINE
  5
16E
330
4A
100
AcDbEntity
  8
1
  6
Continuous
 62
     7
100
AcDbLine
 10
177.5270886479061
 20
661.5146726813869
 30
0.0
 11
177.5270886479061
 21
664.0930932269707
 31
0.0
  0
LINE
  5
16F
330
4A
100
AcDbEntity
  8
1
  6
Continuous
 62
     7
100
AcDbLine
 10
164.5270886479061
 20
658.6930932269706
 30
0.0
 11
164.5270886479061
 21
656.8683506431003
 31
0.0
  0
LINE
  5
170
330
4A
100
AcDbEntity
  8
1
  6
Continuous
 62
     7
100
AcDbLine
 10
176.5270886479061
 20
659.0930932269707
 30
0.0
 11
176.5270886479061
 21
660.9178358108411
 31
0.0
  0
LINE
  5
171
330
4A
100
AcDbEntity
  8
1
  6
Continuous
 62
     7
100
AcDbLine
 10
177.0270886479061
 20
670.0930932269707
 30
0.0
 11
176.5270886479061
 21
670.0930932269707
 31
0.0
  0
LINE
  5
172
330
4A
100
AcDbEntity
  8
1
  6
Continuous
 62
     7
100
AcDbLine
 10
177.5270886479061
 20
667.0146726813869
 30
0.0
 11
177.5270886479061
 21
669.5930932269707
 31
0.0
  0
LINE
  5
173
330
4A
100
AcDbEntity
  8
1
  6
Continuous
 62
     7
100
AcDbLine
 10
164.0270886479061
 20
664.1930932269706
 30
0.0
 11
164.5270886479061
 21
664.1930932269706
 31
0.0
  0
LINE
  5
174
330
4A
100
AcDbEntity
  8
1
  6
Continuous
 62
     7
100
AcDbLine
 10
163.5270886479061
 20
667.2715137725545
 30
0.0
 11
163.5270886479061
 21
664.6930932269706
 31
0.0
  0
LINE
  5
175
330
4A
100
AcDbEntity
  8
1
  6
Continuous
 62
     7
100
AcDbLine
 10
164.5270886479061
 20
664.1930932269706
 30
0.0
 11
164.5270886479061
 21
662.3683506431003
 31
0.0
  0
LINE
  5
176
330
4A
100
AcDbEntity
  8
1
  6
Continuous
 62
     7
100
AcDbLine
 10
176.5270886479061
 20
664.5930932269707
 30
0.0
 11
176.5270886479061
 21
666.4178358108411
 31
0.0
  0
LINE
  5
177
330
4A
100
AcDbEntity
  8
0
  6
Continuous
 62
     7
100
AcDbLine
 10
172.4858849354839
 20
658.2848524844862
 30
0.0
 11
177.0270886479061
 21
659.0930932269707
 31
0.0
  0
LINE
  5
178
330
4A
100
AcDbEntity
  8
1
  6
Continuous
 62
     7
100
AcDbLine
 10
168.568292360329
 20
698.0013339694551
 30
0.0
 11
164.5270886479061
 21
697.1930932269706
 31
0.0
  0
LINE
  5
179
330
4A
100
AcDbEntity
  8
1
  6
Continuous
 62
     7
100
AcDbLine
 10
164.0270886479061
 20
697.1930932269706
 30
0.0
 11
164.5270886479061
 21
697.1930932269706
 31
0.0
  0
LINE
  5
17A
330
4A
100
AcDbEntity
  8
0
  6
Continuous
 62
     7
100
AcDbLine
 10
168.568292360329
 20
698.0013339694551
 30
0.0
 11
164.0270886479061
 21
697.1930932269706
 31
0.0
  0
LINE
  5
17B
330
4A
100
AcDbEntity
  8
0
  6
Continuous
 62
     7
100
AcDbLine
 10
164.8999205185867
 20
695.4308781935456
 30
0.0
 11
172.4858849354841
 21
696.7810236397852
 31
0.0
  0
LINE
  5
17C
330
4A
100
AcDbEntity
  8
1
  6
Continuous
 62
     7
100
AcDbLine
 10
164.5270886479061
 20
702.6930932269706
 30
0.0
 11
164.5270886479061
 21
700.8645217983992
 31
0.0
  0
LINE
  5
17D
330
4A
100
AcDbEntity
  8
0
  6
Continuous
 62
     7
100
AcDbLine
 10
168.568292360329
 20
692.5013339694551
 30
0.0
 11
164.0270886479061
 21
691.6930932269706
 31
0.0
  0
LINE
  5
17E
330
4A
100
AcDbEntity
  8
0
  6
Continuous
 62
     7
100
AcDbLine
 10
168.568292360329
 20
692.5013339694551
 30
0.0
 11
164.0270886479061
 21
691.6930932269706
 31
0.0
  0
LINE
  5
17F
330
4A
100
AcDbEntity
  8
1
  6
Continuous
 62
     7
100
AcDbLine
 10
164.0270886479061
 20
691.6930932269706
 30
0.0
 11
164.5270886479061
 21
691.6930932269706
 31
0.0
  0
LINE
  5
180
330
4A
100
AcDbEntity
  8
1
  6
Continuous
 62
     7
100
AcDbLine
 10
163.5270886479061
 20
694.7676849278535
 30
0.0
 11
163.5270886479061
 21
692.1930932269706
 31
0.0
  0
LINE
  5
181
330
4A
100
AcDbEntity
  8
0
  6
Continuous
 62
     7
100
AcDbLine
 10
176.5991279077491
 20
693.9306573155677
 30
0.0
 11
176.5270886479061
 21
693.9178358108411
 31
0.0
  0
LINE
  5
182
330
4A
100
AcDbEntity
  8
1
  6
Continuous
 62
     7
100
AcDbLine
 10
177.5270886479061
 20
694.5532654737319
 30
0.0
 11
177.5270886479061
 21
697.0930932269707
 31
0.0
  0
LINE
  5
183
330
4A
100
AcDbEntity
  8
1
  6
Continuous
 62
     7
100
AcDbLine
 10
164.5270886479061
 20
691.6930932269706
 30
0.0
 11
164.5270886479061
 21
689.8645217983992
 31
0.0
  0
LINE
  5
184
330
4A
100
AcDbEntity
  8
0
  6
Continuous
 62
     7
100
AcDbLine
 10
163.9426067403506
 20
689.7604960552601
 30
0.0
 11
164.5270886479061
 21
689.8645217983992
 31
0.0
  0
LINE
  5
185
330
4A
100
AcDbEntity
  8
1
  6
Continuous
 62
     7
100
AcDbLine
 10
172.4858849354841
 20
691.2810236397852
 30
0.0
 11
176.5270886479061
 21
692.0892643822697
 31
0.0
  0
LINE
  5
186
330
4A
100
AcDbEntity
  8
1
  6
Continuous
 62
     7
100
AcDbLine
 10
177.0270886479061
 20
692.0892643822697
 30
0.0
 11
176.5270886479061
 21
692.0892643822697
 31
0.0
  0
LINE
  5
187
330
4A
100
AcDbEntity
  8
1
  6
Continuous
 62
     7
100
AcDbLine
 10
177.0270886479061
 20
692.0892643822697
 30
0.0
 11
176.5270886479061
 21
692.0892643822697
 31
0.0
  0
LINE
  5
188
330
4A
100
AcDbEntity
  8
1
  6
Continuous
 62
     7
100
AcDbLine
 10
177.0270886479061
 20
692.0892643822697
 30
0.0
 11
176.5270886479061
 21
692.0892643822697
 31
0.0
  0
LINE
  5
189
330
4A
100
AcDbEntity
  8
1
  6
Continuous
 62
     7
100
AcDbLine
 10
177.0270886479061
 20
692.0892643822697
 30
0.0
 11
176.5270886479061
 21
692.0892643822697
 31
0.0
  0
LINE
  5
18A
330
4A
100
AcDbEntity
  8
1
  6
Continuous
 62
     7
100
AcDbLine
 10
177.5270886479061
 20
689.0146726813869
 30
0.0
 11
177.5270886479061
 21
691.5930932269707
 31
0.0
  0
LINE
  5
18B
330
4A
100
AcDbEntity
  8
1
  6
Continuous
 62
     7
100
AcDbLine
 10
177.5270886479061
 20
689.0146726813869
 30
0.0
 11
177.5270886479061
 21
691.5930932269707
 31
0.0
  0
LINE
  5
18C
330
4A
100
AcDbEntity
  8
0
  6
Continuous
 62
     7
100
AcDbLine
 10
177.1115705554614
 20
688.5218615539802
 30
0.0
 11
176.5270886479061
 21
688.4178358108411
 31
0.0
  0
LINE
  5
18D
330
4A
100
AcDbEntity
  8
0
  6
Continuous
 62
     7
100
AcDbLine
 10
168.568292360329
 20
687.0013339694551
 30
0.0
 11
164.0270886479061
 21
686.1930932269706
 31
0.0
  0
LINE
  5
18E
330
4A
100
AcDbEntity
  8
1
  6
Continuous
 62
     7
100
AcDbLine
 10
168.568292360329
 20
687.0013339694551
 30
0.0
 11
164.5270886479061
 21
686.1930932269706
 31
0.0
  0
LINE
  5
18F
330
4A
100
AcDbEntity
  8
1
  6
Continuous
 62
     7
100
AcDbLine
 10
164.0270886479061
 20
686.1930932269706
 30
0.0
 11
164.5270886479061
 21
686.1930932269706
 31
0.0
  0
LINE
  5
190
330
4A
100
AcDbEntity
  8
0
  6
Continuous
 62
     7
100
AcDbLine
 10
163.9426067403506
 20
689.7604960552601
 30
0.0
 11
172.4858849354841
 21
691.2810236397852
 31
0.0
  0
LINE
  5
191
330
4A
100
AcDbEntity
  8
1
  6
Continuous
 62
     7
100
AcDbLine
 10
164.5270886479061
 20
686.1930932269706
 30
0.0
 11
164.5270886479061
 21
684.3683506431003
 31
0.0
  0
LINE
  5
192
330
4A
100
AcDbEntity
  8
1
  6
Continuous
 62
     7
100
AcDbLine
 10
176.5270886479061
 20
686.5930932269707
 30
0.0
 11
176.5270886479061
 21
688.4178358108411
 31
0.0
  0
LINE
  5
193
330
4A
100
AcDbEntity
  8
1
  6
Continuous
 62
     7
100
AcDbLine
 10
177.5270886479061
 20
694.5146726813869
 30
0.0
 11
177.5270886479061
 21
694.5532654737319
 31
0.0
  0
LINE
  5
194
330
4A
100
AcDbEntity
  8
0
  6
Continuous
 62
     7
100
AcDbLine
 10
164.5270886479061
 20
695.3645217983992
 30
0.0
 11
164.8999205185867
 21
695.4308781935456
 31
0.0
  0
LINE
  5
195
330
4A
100
AcDbEntity
  8
0
  6
Continuous
 62
     7
100
AcDbLine
 10
163.9426067403506
 20
695.2604960552601
 30
0.0
 11
164.5270886479061
 21
695.3645217983992
 31
0.0
  0
LINE
  5
196
330
4A
100
AcDbEntity
  8
0
  6
Continuous
 62
     7
100
AcDbLine
 10
177.1115705554614
 20
699.5218615539802
 30
0.0
 11
176.5270886479061
 21
699.4178358108411
 31
0.0
  0
LINE
  5
197
330
4A
100
AcDbEntity
  8
1
  6
Continuous
 62
     7
100
AcDbLine
 10
172.4858849354841
 20
696.7810236397852
 30
0.0
 11
176.5270886479061
 21
697.5892643822697
 31
0.0
  0
LINE
  5
198
330
4A
100
AcDbEntity
  8
0
  6
Continuous
 62
     7
100
AcDbLine
 10
177.1115705554614
 20
694.0218615539802
 30
0.0
 11
176.5991279077491
 21
693.9306573155677
 31
0.0
  0
LINE
  5
199
330
4A
100
AcDbEntity
  8
1
  6
Continuous
 62
     7
100
AcDbLine
 10
176.5270886479061
 20
692.0892643822697
 30
0.0
 11
176.5270886479061
 21
693.9178358108411
 31
0.0
  0
LINE
  5
19A
330
4A
100
AcDbEntity
  8
1
  6
Continuous
 62
     7
100
AcDbLine
 10
498.0411960198544
 20
345.8680932269714
 30
0.0
 11
499.8697674484258
 21
345.8680932269714
 31
0.0
  0
LINE
  5
19B
330
4A
100
AcDbEntity
  8
0
  6
Continuous
 62
     7
100
AcDbLine
 10
499.9737931915649
 20
345.2836113194161
 30
0.0
 11
499.8825889531524
 21
345.7960539671282
 31
0.0
  0
LINE
  5
19C
330
4A
100
AcDbEntity
  8
1
  6
Continuous
 62
     7
100
AcDbLine
 10
502.7329552773699
 20
349.9092969393934
 30
0.0
 11
503.5411960198544
 21
345.8680932269714
 31
0.0
  0
LINE
  5
19D
330
4A
100
AcDbEntity
  8
0
  6
Continuous
 62
     7
100
AcDbLine
 10
501.2124276928448
 20
358.4525751345267
 30
0.0
 11
501.3164534359839
 21
357.8680932269714
 31
0.0
  0
LINE
  5
19E
330
4A
100
AcDbEntity
  8
0
  6
Continuous
 62
     7
100
AcDbLine
 10
501.3164534359839
 20
357.8680932269714
 30
0.0
 11
501.3828098311303
 21
357.4952613562909
 31
0.0
  0
LINE
  5
19F
330
4A
100
AcDbEntity
  8
1
  6
Continuous
 62
     7
100
AcDbLine
 10
500.4666043189716
 20
344.8680932269714
 30
0.0
 11
503.0450248645554
 21
344.8680932269714
 31
0.0
  0
LINE
  5
1A0
330
4A
100
AcDbEntity
  8
1
  6
Continuous
 62
     7
100
AcDbLine
 10
492.5411960198544
 20
345.8680932269714
 30
0.0
 11
494.3697674484258
 21
345.8680932269714
 31
0.0
  0
LINE
  5
1A1
330
4A
100
AcDbEntity
  8
1
  6
Continuous
 62
     7
100
AcDbLine
 10
492.1450248645554
 20
357.8680932269714
 30
0.0
 11
490.320282280685
 21
357.8680932269714
 31
0.0
  0
LINE
  5
1A2
330
4A
100
AcDbEntity
  8
0
  6
Continuous
 62
     7
100
AcDbLine
 10
495.7124276928448
 20
358.4525751345267
 30
0.0
 11
495.8164534359839
 21
357.8680932269714
 31
0.0
  0
LINE
  5
1A3
330
4A
100
AcDbEntity
  8
1
  6
Continuous
 62
     7
100
AcDbLine
 10
495.2234454101392
 20
358.8680932269714
 30
0.0
 11
492.6450248645554
 21
358.8680932269714
 31
0.0
  0
LINE
  5
1A4
330
4A
100
AcDbEntity
  8
1
  6
Continuous
 62
     7
100
AcDbLine
 10
492.1450248645554
 20
358.3680932269714
 30
0.0
 11
492.1450248645554
 21
357.8680932269714
 31
0.0
  0
LINE
  5
1A5
330
4A
100
AcDbEntity
  8
1
  6
Continuous
 62
     7
100
AcDbLine
 10
492.9532656070398
 20
353.8268895145484
 30
0.0
 11
492.1450248645554
 21
357.8680932269714
 31
0.0
  0
LINE
  5
1A6
330
4A
100
AcDbEntity
  8
0
  6
Continuous
 62
     7
100
AcDbLine
 10
492.9532656070398
 20
353.8268895145484
 30
0.0
 11
492.1450248645554
 21
358.3680932269714
 31
0.0
  0
LINE
  5
1A7
330
4A
100
AcDbEntity
  8
0
  6
Continuous
 62
     7
100
AcDbLine
 10
494.4737931915649
 20
345.2836113194161
 30
0.0
 11
494.3697674484258
 21
345.8680932269714
 31
0.0
  0
LINE
  5
1A8
330
4A
100
AcDbEntity
  8
1
  6
Continuous
 62
     7
100
AcDbLine
 10
494.9666043189716
 20
344.8680932269714
 30
0.0
 11
497.5450248645554
 21
344.8680932269714
 31
0.0
  0
LINE
  5
1A9
330
4A
100
AcDbEntity
  8
1
  6
Continuous
 62
     7
100
AcDbLine
 10
494.9666043189716
 20
344.8680932269714
 30
0.0
 11
497.5450248645554
 21
344.8680932269714
 31
0.0
  0
LINE
  5
1AA
330
4A
100
AcDbEntity
  8
1
  6
Continuous
 62
     7
100
AcDbLine
 10
498.0411960198544
 20
345.3680932269714
 30
0.0
 11
498.0411960198544
 21
345.8680932269714
 31
0.0
  0
LINE
  5
1AB
330
4A
100
AcDbEntity
  8
1
  6
Continuous
 62
     7
100
AcDbLine
 10
498.0411960198544
 20
345.3680932269714
 30
0.0
 11
498.0411960198544
 21
345.8680932269714
 31
0.0
  0
LINE
  5
1AC
330
4A
100
AcDbEntity
  8
1
  6
Continuous
 62
     7
100
AcDbLine
 10
498.0411960198544
 20
345.3680932269714
 30
0.0
 11
498.0411960198544
 21
345.8680932269714
 31
0.0
  0
LINE
  5
1AD
330
4A
100
AcDbEntity
  8
1
  6
Continuous
 62
     7
100
AcDbLine
 10
498.0411960198544
 20
345.3680932269714
 30
0.0
 11
498.0411960198544
 21
345.8680932269714
 31
0.0
  0
LINE
  5
1AE
330
4A
100
AcDbEntity
  8
1
  6
Continuous
 62
     7
100
AcDbLine
 10
497.2329552773699
 20
349.9092969393934
 30
0.0
 11
498.0411960198544
 21
345.8680932269714
 31
0.0
  0
LINE
  5
1AF
330
4A
100
AcDbEntity
  8
0
  6
Continuous
 62
     7
100
AcDbLine
 10
495.7124276928448
 20
358.4525751345267
 30
0.0
 11
497.2329552773699
 21
349.9092969393934
 31
0.0
  0
LINE
  5
1B0
330
4A
100
AcDbEntity
  8
1
  6
Continuous
 62
     7
100
AcDbLine
 10
497.6450248645554
 20
357.8680932269714
 30
0.0
 11
495.8164534359839
 21
357.8680932269714
 31
0.0
  0
LINE
  5
1B1
330
4A
100
AcDbEntity
  8
0
  6
Continuous
 62
     7
100
AcDbLine
 10
499.8825889531524
 20
345.7960539671282
 30
0.0
 11
499.8697674484258
 21
345.8680932269714
 31
0.0
  0
LINE
  5
1B2
330
4A
100
AcDbEntity
  8
1
  6
Continuous
 62
     7
100
AcDbLine
 10
500.7196165654382
 20
358.8680932269714
 30
0.0
 11
498.1450248645554
 21
358.8680932269714
 31
0.0
  0
LINE
  5
1B3
330
4A
100
AcDbEntity
  8
1
  6
Continuous
 62
     7
100
AcDbLine
 10
497.6450248645554
 20
358.3680932269714
 30
0.0
 11
497.6450248645554
 21
357.8680932269714
 31
0.0
  0
LINE
  5
1B4
330
4A
100
AcDbEntity
  8
0
  6
Continuous
 62
     7
100
AcDbLine
 10
498.4532656070398
 20
353.8268895145484
 30
0.0
 11
497.6450248645554
 21
358.3680932269714
 31
0.0
  0
LINE
  5
1B5
330
4A
100
AcDbEntity
  8
0
  6
Continuous
 62
     7
100
AcDbLine
 10
498.4532656070398
 20
353.8268895145484
 30
0.0
 11
497.6450248645554
 21
358.3680932269714
 31
0.0
  0
LINE
  5
1B6
330
4A
100
AcDbEntity
  8
1
  6
Continuous
 62
     7
100
AcDbLine
 10
498.4532656070398
 20
353.8268895145484
 30
0.0
 11
497.6450248645554
 21
357.8680932269714
 31
0.0
  0
LINE
  5
1B7
330
4A
100
AcDbEntity
  8
0
  6
Continuous
 62
     7
100
AcDbLine
 10
501.3828098311303
 20
357.4952613562909
 30
0.0
 11
502.7329552773699
 21
349.9092969393934
 31
0.0
  0
LINE
  5
1B8
330
4A
100
AcDbEntity
  8
1
  6
Continuous
 62
     7
100
AcDbLine
 10
484.2234454101392
 20
358.8680932269714
 30
0.0
 11
481.6450248645554
 21
358.8680932269714
 31
0.0
  0
LINE
  5
1B9
330
4A
100
AcDbEntity
  8
1
  6
Continuous
 62
     7
100
AcDbLine
 10
487.0450248645554
 20
345.3680932269714
 30
0.0
 11
487.0450248645554
 21
345.8680932269714
 31
0.0
  0
LINE
  5
1BA
330
4A
100
AcDbEntity
  8
1
  6
Continuous
 62
     7
100
AcDbLine
 10
483.9666043189716
 20
344.8680932269714
 30
0.0
 11
486.5450248645554
 21
344.8680932269714
 31
0.0
  0
LINE
  5
1BB
330
4A
100
AcDbEntity
  8
1
  6
Continuous
 62
     7
100
AcDbLine
 10
486.6450248645554
 20
358.3680932269714
 30
0.0
 11
486.6450248645554
 21
357.8680932269714
 31
0.0
  0
LINE
  5
1BC
330
4A
100
AcDbEntity
  8
1
  6
Continuous
 62
     7
100
AcDbLine
 10
492.5450248645554
 20
345.3680932269714
 30
0.0
 11
492.5450248645554
 21
345.8680932269714
 31
0.0
  0
LINE
  5
1BD
330
4A
100
AcDbEntity
  8
1
  6
Continuous
 62
     7
100
AcDbLine
 10
489.7234454101392
 20
358.8680932269714
 30
0.0
 11
487.1450248645554
 21
358.8680932269714
 31
0.0
  0
LINE
  5
1BE
330
4A
100
AcDbEntity
  8
0
  6
Continuous
 62
     7
100
AcDbLine
 10
487.4532656070398
 20
353.8268895145484
 30
0.0
 11
486.6450248645554
 21
358.3680932269714
 31
0.0
  0
LINE
  5
1BF
330
4A
100
AcDbEntity
  8
1
  6
Continuous
 62
     7
100
AcDbLine
 10
487.0450248645554
 20
345.8680932269714
 30
0.0
 11
488.8697674484258
 21
345.8680932269714
 31
0.0
  0
LINE
  5
1C0
330
4A
100
AcDbEntity
  8
1
  6
Continuous
 62
     7
100
AcDbLine
 10
486.6450248645554
 20
357.8680932269714
 30
0.0
 11
484.820282280685
 21
357.8680932269714
 31
0.0
  0
LINE
  5
1C1
330
4A
100
AcDbEntity
  8
1
  6
Continuous
 62
     7
100
AcDbLine
 10
487.0450248645554
 20
345.3680932269714
 30
0.0
 11
487.0450248645554
 21
345.8680932269714
 31
0.0
  0
LINE
  5
1C2
330
4A
100
AcDbEntity
  8
1
  6
Continuous
 62
     7
100
AcDbLine
 10
492.5450248645554
 20
345.3680932269714
 30
0.0
 11
492.5450248645554
 21
345.8680932269714
 31
0.0
  0
LINE
  5
1C3
330
4A
100
AcDbEntity
  8
1
  6
Continuous
 62
     7
100
AcDbLine
 10
503.5411960198544
 20
345.3680932269714
 30
0.0
 11
503.5411960198544
 21
345.8680932269714
 31
0.0
  0
LINE
  5
1C4
330
4A
100
AcDbEntity
  8
1
  6
Continuous
 62
     7
100
AcDbLine
 10
492.5450248645554
 20
345.3680932269714
 30
0.0
 11
492.5450248645554
 21
345.8680932269714
 31
0.0
  0
LINE
  5
1C5
330
4A
100
AcDbEntity
  8
1
  6
Continuous
 62
     7
100
AcDbLine
 10
503.5411960198544
 20
345.3680932269714
 30
0.0
 11
503.5411960198544
 21
345.8680932269714
 31
0.0
  0
LINE
  5
1C6
330
4A
100
AcDbEntity
  8
1
  6
Continuous
 62
     7
100
AcDbLine
 10
503.1450248645554
 20
357.8680932269714
 30
0.0
 11
501.3164534359839
 21
357.8680932269714
 31
0.0
  0
LINE
  5
1C7
330
4A
100
AcDbEntity
  8
1
  6
Continuous
 62
     7
100
AcDbLine
 10
503.5411960198544
 20
345.3680932269714
 30
0.0
 11
503.5411960198544
 21
345.8680932269714
 31
0.0
  0
LINE
  5
1C8
330
4A
100
AcDbEntity
  8
1
  6
Continuous
 62
     7
100
AcDbLine
 10
503.5411960198544
 20
345.3680932269714
 30
0.0
 11
503.5411960198544
 21
345.8680932269714
 31
0.0
  0
LINE
  5
1C9
330
4A
100
AcDbEntity
  8
1
  6
Continuous
 62
     7
100
AcDbLine
 10
503.5411960198544
 20
345.8680932269714
 30
0.0
 11
505.3697674484258
 21
345.8680932269714
 31
0.0
  0
LINE
  5
1CA
330
4A
100
AcDbEntity
  8
1
  6
Continuous
 62
     7
100
AcDbLine
 10
487.4532656070398
 20
353.8268895145484
 30
0.0
 11
486.6450248645554
 21
357.8680932269714
 31
0.0
  0
LINE
  5
1CB
330
4A
100
AcDbEntity
  8
0
  6
Continuous
 62
     7
100
AcDbLine
 10
486.236784122071
 20
349.9092969393934
 30
0.0
 11
487.0450248645554
 21
345.3680932269714
 31
0.0
  0
LINE
  5
1CC
330
4A
100
AcDbEntity
  8
1
  6
Continuous
 62
     7
100
AcDbLine
 10
486.236784122071
 20
349.9092969393934
 30
0.0
 11
487.0450248645554
 21
345.8680932269714
 31
0.0
  0
LINE
  5
1CD
330
4A
100
AcDbEntity
  8
0
  6
Continuous
 62
     7
100
AcDbLine
 10
484.7162565375459
 20
358.4525751345267
 30
0.0
 11
484.820282280685
 21
357.8680932269714
 31
0.0
  0
LINE
  5
1CE
330
4A
100
AcDbEntity
  8
1
  6
Continuous
 62
     7
100
AcDbLine
 10
491.736784122071
 20
349.9092969393934
 30
0.0
 11
492.5450248645554
 21
345.8680932269714
 31
0.0
  0
LINE
  5
1CF
330
4A
100
AcDbEntity
  8
0
  6
Continuous
 62
     7
100
AcDbLine
 10
491.736784122071
 20
349.9092969393934
 30
0.0
 11
492.5450248645554
 21
345.3680932269714
 31
0.0
  0
LINE
  5
1D0
330
4A
100
AcDbEntity
  8
0
  6
Continuous
 62
     7
100
AcDbLine
 10
490.2162565375459
 20
358.4525751345267
 30
0.0
 11
490.320282280685
 21
357.8680932269714
 31
0.0
  0
LINE
  5
1D1
330
4A
100
AcDbEntity
  8
1
  6
Continuous
 62
     7
100
AcDbLine
 10
489.4666043189716
 20
344.8680932269714
 30
0.0
 11
492.0450248645554
 21
344.8680932269714
 31
0.0
  0
LINE
  5
1D2
330
4A
100
AcDbEntity
  8
0
  6
Continuous
 62
     7
100
AcDbLine
 10
488.9737931915649
 20
345.2836113194161
 30
0.0
 11
488.8697674484258
 21
345.8680932269714
 31
0.0
  0
LINE
  5
1D3
330
4A
100
AcDbEntity
  8
0
  6
Continuous
 62
     7
100
AcDbLine
 10
499.8697674484258
 20
345.8680932269714
 30
0.0
 11
498.4532656070398
 21
353.8268895145484
 31
0.0
  0
LINE
  5
1D4
330
4A
100
AcDbEntity
  8
1
  6
Continuous
 62
     7
100
AcDbLine
 10
164.0270886479057
 20
291.0680932269693
 30
0.0
 11
164.5270886479057
 21
291.0680932269693
 31
0.0
  0
LINE
  5
1D5
330
4A
100
AcDbEntity
  8
1
  6
Continuous
 62
     7
100
AcDbLine
 10
168.5682923603288
 20
291.8763339694539
 30
0.0
 11
164.5270886479057
 21
291.0680932269693
 31
0.0
  0
LINE
  5
1D6
330
4A
100
AcDbEntity
  8
0
  6
Continuous
 62
     7
100
AcDbLine
 10
168.5682923603288
 20
291.8763339694539
 30
0.0
 11
164.0270886479057
 21
291.0680932269693
 31
0.0
  0
LINE
  5
1D7
330
4A
100
AcDbEntity
  8
0
  6
Continuous
 62
     7
100
AcDbLine
 10
177.1115705554612
 20
293.3968615539786
 30
0.0
 11
176.5270886479057
 21
293.2928358108396
 31
0.0
  0
LINE
  5
1D8
330
4A
100
AcDbEntity
  8
1
  6
Continuous
 62
     7
100
AcDbLine
 10
177.5270886479057
 20
293.8896726813853
 30
0.0
 11
177.5270886479057
 21
294.8065368710912
 31
0.0
  0
LINE
  5
1D9
330
4A
100
AcDbEntity
  8
0
  6
Continuous
 62
     7
100
AcDbLine
 10
176.5270886479057
 20
293.2928358108396
 30
0.0
 11
168.5682923603288
 21
291.8763339694539
 31
0.0
  0
LINE
  5
1DA
330
4A
100
AcDbEntity
  8
1
  6
Continuous
 62
     7
100
AcDbLine
 10
176.5270886479057
 20
291.468093226969
 30
0.0
 11
176.5270886479057
 21
293.2928358108396
 31
0.0
  0
LINE
  5
1DB
330
4A
100
AcDbEntity
  8
1
  6
Continuous
 62
     7
100
AcDbLine
 10
164.5270886479057
 20
291.0680932269693
 30
0.0
 11
164.5270886479057
 21
289.2433506430987
 31
0.0
  0
LINE
  5
1DC
330
4A
100
AcDbEntity
  8
1
  6
Continuous
 62
     7
100
AcDbLine
 10
164.5270886479057
 20
285.5680932269693
 30
0.0
 11
164.5270886479057
 21
283.7433506430987
 31
0.0
  0
LINE
  5
1DD
330
4A
100
AcDbEntity
  8
0
  6
Continuous
 62
     7
100
AcDbLine
 10
168.5682923603288
 20
286.3763339694539
 30
0.0
 11
164.0270886479057
 21
285.5680932269693
 31
0.0
  0
LINE
  5
1DE
330
4A
100
AcDbEntity
  8
1
  6
Continuous
 62
     7
100
AcDbLine
 10
168.5682923603288
 20
286.3763339694539
 30
0.0
 11
164.5270886479057
 21
285.5680932269693
 31
0.0
  0
LINE
  5
1DF
330
4A
100
AcDbEntity
  8
1
  6
Continuous
 62
     7
100
AcDbLine
 10
164.0270886479057
 20
285.5680932269693
 30
0.0
 11
164.5270886479057
 21
285.5680932269693
 31
0.0
  0
LINE
  5
1E0
330
4A
100
AcDbEntity
  8
1
  6
Continuous
 62
     7
100
AcDbLine
 10
163.5270886479057
 20
288.646513772553
 30
0.0
 11
163.5270886479057
 21
286.0680932269693
 31
0.0
  0
LINE
  5
1E1
330
4A
100
AcDbEntity
  8
0
  6
Continuous
 62
     7
100
AcDbLine
 10
163.9426067403504
 20
289.1393248999597
 30
0.0
 11
164.5270886479057
 21
289.2433506430987
 31
0.0
  0
LINE
  5
1E2
330
4A
100
AcDbEntity
  8
0
  6
Continuous
 62
     7
100
AcDbLine
 10
164.5270886479057
 20
289.2433506430987
 30
0.0
 11
172.4858849354835
 21
290.6598524844848
 31
0.0
  0
LINE
  5
1E3
330
4A
100
AcDbEntity
  8
0
  6
Continuous
 62
     7
100
AcDbLine
 10
172.4858849354835
 20
290.6598524844848
 30
0.0
 11
177.0270886479057
 21
291.468093226969
 31
0.0
  0
LINE
  5
1E4
330
4A
100
AcDbEntity
  8
1
  6
Continuous
 62
     7
100
AcDbLine
 10
172.4858849354835
 20
290.6598524844848
 30
0.0
 11
176.5270886479057
 21
291.468093226969
 31
0.0
  0
LINE
  5
1E5
330
4A
100
AcDbEntity
  8
1
  6
Continuous
 62
     7
100
AcDbLine
 10
177.0270886479057
 20
291.468093226969
 30
0.0
 11
176.5270886479057
 21
291.468093226969
 31
0.0
  0
LINE
  5
1E6
330
4A
100
AcDbEntity
  8
1
  6
Continuous
 62
     7
100
AcDbLine
 10
177.5270886479057
 20
288.3896726813853
 30
0.0
 11
177.5270886479057
 21
290.968093226969
 31
0.0
  0
LINE
  5
1E7
330
4A
100
AcDbEntity
  8
0
  6
Continuous
 62
     7
100
AcDbLine
 10
177.1115705554612
 20
287.8968615539786
 30
0.0
 11
176.5270886479057
 21
287.7928358108396
 31
0.0
  0
LINE
  5
1E8
330
4A
100
AcDbEntity
  8
0
  6
Continuous
 62
     7
100
AcDbLine
 10
176.5270886479057
 20
287.7928358108396
 30
0.0
 11
168.5682923603288
 21
286.3763339694539
 31
0.0
  0
LINE
  5
1E9
330
4A
100
AcDbEntity
  8
1
  6
Continuous
 62
     7
100
AcDbLine
 10
176.5270886479057
 20
285.968093226969
 30
0.0
 11
176.5270886479057
 21
287.7928358108396
 31
0.0
  0
LINE
  5
1EA
330
4A
100
AcDbEntity
  8
0
  6
Continuous
 62
     7
100
AcDbLine
 10
163.9426067403504
 20
283.6393248999597
 30
0.0
 11
164.5270886479057
 21
283.7433506430987
 31
0.0
  0
LINE
  5
1EB
330
4A
100
AcDbEntity
  8
1
  6
Continuous
 62
     7
100
AcDbLine
 10
163.5270886479057
 20
283.146513772553
 30
0.0
 11
163.5270886479057
 21
280.5680932269693
 31
0.0
  0
LINE
  5
1EC
330
4A
100
AcDbEntity
  8
1
  6
Continuous
 62
     7
100
AcDbLine
 10
164.0270886479057
 20
280.0680932269693
 30
0.0
 11
164.5270886479057
 21
280.0680932269693
 31
0.0
  0
LINE
  5
1ED
330
4A
100
AcDbEntity
  8
1
  6
Continuous
 62
     7
100
AcDbLine
 10
168.5682923603288
 20
280.8763339694539
 30
0.0
 11
164.5270886479057
 21
280.0680932269693
 31
0.0
  0
LINE
  5
1EE
330
4A
100
AcDbEntity
  8
0
  6
Continuous
 62
     7
100
AcDbLine
 10
168.5682923603288
 20
280.8763339694539
 30
0.0
 11
164.0270886479057
 21
280.0680932269693
 31
0.0
  0
LINE
  5
1EF
330
4A
100
AcDbEntity
  8
0
  6
Continuous
 62
     7
100
AcDbLine
 10
164.5270886479057
 20
283.7433506430987
 30
0.0
 11
172.4858849354835
 21
285.1598524844848
 31
0.0
  0
LINE
  5
1F0
330
4A
100
AcDbEntity
  8
0
  6
Continuous
 62
     7
100
AcDbLine
 10
177.1115705554612
 20
282.3968615539786
 30
0.0
 11
176.5270886479057
 21
282.2928358108396
 31
0.0
  0
LINE
  5
1F1
330
4A
100
AcDbEntity
  8
1
  6
Continuous
 62
     7
100
AcDbLine
 10
177.5270886479057
 20
282.8896726813853
 30
0.0
 11
177.5270886479057
 21
285.468093226969
 31
0.0
  0
LINE
  5
1F2
330
4A
100
AcDbEntity
  8
1
  6
Continuous
 62
     7
100
AcDbLine
 10
177.0270886479057
 20
285.968093226969
 30
0.0
 11
176.5270886479057
 21
285.968093226969
 31
0.0
  0
LINE
  5
1F3
330
4A
100
AcDbEntity
  8
1
  6
Continuous
 62
     7
100
AcDbLine
 10
172.4858849354835
 20
285.1598524844848
 30
0.0
 11
176.5270886479057
 21
285.968093226969
 31
0.0
  0
LINE
  5
1F4
330
4A
100
AcDbEntity
  8
0
  6
Continuous
 62
     7
100
AcDbLine
 10
172.4858849354835
 20
285.1598524844848
 30
0.0
 11
177.0270886479057
 21
285.968093226969
 31
0.0
  0
LINE
  5
1F5
330
4A
100
AcDbEntity
  8
0
  6
Continuous
 62
     7
100
AcDbLine
 10
176.5270886479057
 20
282.2928358108396
 30
0.0
 11
168.5682923603288
 21
280.8763339694539
 31
0.0
  0
LINE
  5
1F6
330
4A
100
AcDbEntity
  8
1
  6
Continuous
 62
     7
100
AcDbLine
 10
176.5270886479057
 20
280.468093226969
 30
0.0
 11
176.5270886479057
 21
282.2928358108396
 31
0.0
  0
LINE
  5
1F7
330
4A
100
AcDbEntity
  8
1
  6
Continuous
 62
     7
100
AcDbLine
 10
164.5270886479057
 20
280.0680932269693
 30
0.0
 11
164.5270886479057
 21
278.2680932269707
 31
0.0
  0
LINE
  5
1F8
330
4A
100
AcDbEntity
  8
0
  6
Continuous
 62
     7
100
AcDbLine
 10
172.4858849354835
 20
279.6598524844848
 30
0.0
 11
177.0270886479057
 21
280.468093226969
 31
0.0
  0
LINE
  5
1F9
330
4A
100
AcDbEntity
  8
1
  6
Continuous
 62
     7
100
AcDbLine
 10
172.4858849354835
 20
279.6598524844848
 30
0.0
 11
176.5270886479057
 21
280.468093226969
 31
0.0
  0
LINE
  5
1FA
330
4A
100
AcDbEntity
  8
1
  6
Continuous
 62
     7
100
AcDbLine
 10
177.0270886479057
 20
280.468093226969
 30
0.0
 11
176.5270886479057
 21
280.468093226969
 31
0.0
  0
LINE
  5
1FB
330
4A
100
AcDbEntity
  8
0
  6
Continuous
 62
     7
100
AcDbLine
 10
164.6661080116035
 20
278.2680932269707
 30
0.0
 11
172.4858849354835
 21
279.6598524844848
 31
0.0
  0
LINE
  5
1FC
330
4A
100
AcDbEntity
  8
1
  6
Continuous
 62
     7
100
AcDbLine
 10
177.5270886479057
 20
278.2680932269707
 30
0.0
 11
177.5270886479057
 21
279.968093226969
 31
0.0
  0
LINE
  5
1FD
330
4A
100
AcDbEntity
  8
1
  6
Continuous
 62
     7
100
AcDbLine
 10
163.5270886479057
 20
293.8896726813853
 30
0.0
 11
163.5270886479057
 21
291.5680932269693
 31
0.0
  0
LINE
  5
1FE
330
4A
100
AcDbEntity
  8
1
  6
PHANTOM
 62
     5
100
AcDbLine
 10
177.5270886479057
 20
294.8065368710912
 30
0.0
 11
177.5270886479057
 21
351.8680932269709
 31
0.0
  0
LINE
  5
1FF
330
4A
100
AcDbEntity
  8
1
  6
PHANTOM
 62
     5
100
AcDbLine
 10
163.5270886479057
 20
293.8896726813853
 30
0.0
 11
163.5270886479057
 21
351.8680932269709
 31
0.0
  0
ARC
  5
200
330
4A
100
AcDbEntity
  8
1
  6
PHANTOM
 62
     5
100
AcDbCircle
 10
170.5270886479057
 20
556.8680932269706
 30
0.0
 40
7.0
100
AcDbArc
 50
180.0
 51
0.0
  0
ARC
  5
201
330
4A
100
AcDbEntity
  8
1
  6
PHANTOM
 62
     5
100
AcDbCircle
 10
170.5270886479057
 20
351.8680932269709
 30
0.0
 40
7.0
100
AcDbArc
 50
0.0
 51
180.0
  0
SPLINE
  5
202
330
4A
100
AcDbEntity
  8
1
  6
Continuous
 62
     2
100
AcDbSpline
210
0.0
220
0.0
230
1.0
 70
     8
 71
     3
 72
     9
 73
     5
 74
     3
 42
0.000000001
 43
0.0000000001
 44
0.00000001
 40
0.0
 40
0.0
 40
0.0
 40
0.0
 40
7.284887666915161
 40
14.23310587328967
 40
14.23310587328967
 40
14.23310587328967
 40
14.23310587328967
 10
163.5270886479061
 20
648.1930932269706
 30
0.0
 10
165.9614648203941
 20
648.3157654789053
 30
0.0
 10
170.7177130103372
 20
648.5554407317209
 30
0.0
 10
175.2933742883741
 20
649.8719757854143
 30
0.0
 10
177.5270886479061
 20
650.5146726813869
 30
0.0
 11
163.5270886479061
 21
648.1930932269706
 31
0.0
 11
170.78290937765
 21
648.8432115766336
 31
0.0
 11
177.5270886479061
 21
650.5146726813869
 31
0.0
  0
SPLINE
  5
203
330
4A
100
AcDbEntity
  8
1
  6
Continuous
 62
     2
100
AcDbSpline
210
0.0
220
0.0
230
1.0
 70
     8
 71
     3
 72
     9
 73
     5
 74
     3
 42
0.000000001
 43
0.0000000001
 44
0.00000001
 40
0.0
 40
0.0
 40
0.0
 40
0.0
 40
6.99052776458958
 40
14.04907306511521
 40
14.04907306511521
 40
14.04907306511521
 40
14.04907306511521
 10
354.4450248645551
 20
293.889672681386
 30
0.0
 10
356.7550951195869
 20
294.2237589870687
 30
0.0
 10
361.3977125161879
 20
294.8951822240198
 30
0.0
 10
366.0883509564989
 20
294.8361805461483
 30
0.0
 10
368.4450248645551
 20
294.8065368710917
 30
0.0
 11
354.4450248645551
 21
293.889672681386
 31
0.0
 11
361.3871249279975
 21
294.7110892285376
 31
0.0
 11
368.4450248645551
 21
294.8065368710917
 31
0.0
  0
SPLINE
  5
204
330
4A
100
AcDbEntity
  8
1
  6
Continuous
 62
     2
100
AcDbSpline
210
0.0
220
0.0
230
1.0
 70
     8
 71
     3
 72
    13
 73
     9
 74
     7
 42
0.000000001
 43
0.0000000001
 44
0.00000001
 40
0.0
 40
0.0
 40
0.0
 40
0.0
 40
2.910331871439217
 40
5.827967244083153
 40
7.44917081891067
 40
9.098349475153379
 40
12.14675603405244
 40
15.19964918266105
 40
15.19964918266105
 40
15.19964918266105
 40
15.19964918266105
 10
481.6450248645554
 20
358.8680932269714
 30
0.0
 10
481.8032827477222
 20
357.8734274381876
 30
0.0
 10
482.1201956511102
 20
355.881599735116
 30
0.0
 10
484.261357278007
 20
354.3078499162984
 30
0.0
 10
485.0556327929946
 20
352.361136805657
 30
0.0
 10
485.4144182367229
 20
350.2863967445209
 30
0.0
 10
485.332771177743
 20
347.6300878570437
 30
0.0
 10
484.4222164678891
 20
345.7892093320118
 30
0.0
 10
483.9666043189716
 20
344.8680932269714
 30
0.0
 11
481.6450248645554
 21
358.8680932269714
 31
0.0
 11
482.4585119879823
 21
356.0737649946261
 31
0.0
 11
484.3356455669669
 21
353.8401657216937
 31
0.0
 11
484.9945184394962
 21
352.3588866896352
 31
0.0
 11
485.2959951704938
 21
350.7374977718358
 31
0.0
 11
485.1215592811722
 21
347.6940860872977
 31
0.0
 11
483.9666043189716
 21
344.8680932269714
 31
0.0
  0
SPLINE
  5
205
330
4A
100
AcDbEntity
  8
1
  6
Continuous
 62
     2
100
AcDbSpline
210
0.0
220
0.0
230
1.0
 70
     8
 71
     3
 72
     9
 73
     5
 74
     3
 42
0.000000001
 43
0.0000000001
 44
0.00000001
 40
0.0
 40
0.0
 40
0.0
 40
0.0
 40
6.990527764589713
 40
14.04907306511523
 40
14.04907306511523
 40
14.04907306511523
 40
14.04907306511523
 10
163.5270886479057
 20
293.8896726813853
 30
0.0
 10
165.8371589029376
 20
294.2237589870681
 30
0.0
 10
170.4797762995385
 20
294.8951822240192
 30
0.0
 10
175.1704147398497
 20
294.8361805461478
 30
0.0
 10
177.5270886479057
 20
294.8065368710912
 30
0.0
 11
163.5270886479057
 21
293.8896726813853
 31
0.0
 11
170.4691887113483
 21
294.711089228537
 31
0.0
 11
177.5270886479057
 21
294.8065368710912
 31
0.0
  0
ARC
  5
206
330
4A
100
AcDbEntity
  8
1
  6
PHANTOM
 62
     5
100
AcDbCircle
 10
411.4450248645551
 20
301.8680932269713
 30
0.0
 40
43.00000000000017
100
AcDbArc
 50
90.00000000000021
 51
180.0
  0
ARC
  5
207
330
4A
100
AcDbEntity
  8
1
  6
Continuous
 62
     5
100
AcDbCircle
 10
411.4450248645551
 20
301.8680932269713
 30
0.0
 40
57.0
100
AcDbArc
 50
90.00000000000018
 51
180.0
  0
ARC
  5
208
330
4A
100
AcDbEntity
  8
0
  6
Continuous
 62
     7
100
AcDbCircle
 10
508.5411960198542
 20
345.3680932269714
 30
0.0
 40
0.5
100
AcDbArc
 50
270.0
 51
323.8677085728947
  0
ARC
  5
209
330
4A
100
AcDbEntity
  8
0
  6
Continuous
 62
     7
100
AcDbCircle
 10
509.1450248645554
 20
358.3680932269714
 30
0.0
 40
0.4999999999998738
100
AcDbArc
 50
113.5781784782209
 51
180.0
  0
ARC
  5
20A
330
4A
100
AcDbEntity
  8
0
  6
Continuous
 62
     7
100
AcDbCircle
 10
505.9666043189716
 20
345.3680932269714
 30
0.0
 40
0.5000000000000415
100
AcDbArc
 50
189.7275785513866
 51
270.0
  0
ARC
  5
20B
330
4A
100
AcDbEntity
  8
0
  6
Continuous
 62
     7
100
AcDbCircle
 10
503.6450248645554
 20
358.3680932269714
 30
0.0
 40
0.5
100
AcDbArc
 50
90.0
 51
180.0
  0
ARC
  5
20C
330
4A
100
AcDbEntity
  8
0
  6
Continuous
 62
     7
100
AcDbCircle
 10
506.2196165654382
 20
358.3680932269714
 30
0.0
 40
0.4999999999999855
100
AcDbArc
 50
9.72757855138766
 51
86.84092014205692
  0
ARC
  5
20D
330
4A
100
AcDbEntity
  8
0
  6
Continuous
 62
     7
100
AcDbCircle
 10
367.9450248645551
 20
279.9680932269698
 30
0.0
 40
0.5
100
AcDbArc
 50
0.0
 51
90.0
  0
ARC
  5
20E
330
4A
100
AcDbEntity
  8
0
  6
Continuous
 62
     7
100
AcDbCircle
 10
367.9450248645551
 20
285.4680932269698
 30
0.0
 40
0.5
100
AcDbArc
 50
0.0
 51
90.0
  0
ARC
  5
20F
330
4A
100
AcDbEntity
  8
0
  6
Continuous
 62
     7
100
AcDbCircle
 10
367.9450248645551
 20
282.889672681386
 30
0.0
 40
0.5000000000000415
100
AcDbArc
 50
279.7275785513866
 51
0.0
  0
ARC
  5
210
330
4A
100
AcDbEntity
  8
0
  6
Continuous
 62
     7
100
AcDbCircle
 10
354.9450248645551
 20
280.5680932269698
 30
0.0
 40
0.5
100
AcDbArc
 50
180.0
 51
270.0
  0
ARC
  5
211
330
4A
100
AcDbEntity
  8
0
  6
Continuous
 62
     7
100
AcDbCircle
 10
354.9450248645551
 20
283.1465137725537
 30
0.0
 40
0.5000000000001535
100
AcDbArc
 50
99.72757855138437
 51
180.0
  0
ARC
  5
212
330
4A
100
AcDbEntity
  8
0
  6
Continuous
 62
     7
100
AcDbCircle
 10
367.9450248645551
 20
288.389672681386
 30
0.0
 40
0.5000000000000415
100
AcDbArc
 50
279.7275785513866
 51
0.0
  0
ARC
  5
213
330
4A
100
AcDbEntity
  8
0
  6
Continuous
 62
     7
100
AcDbCircle
 10
367.9450248645551
 20
290.9680932269698
 30
0.0
 40
0.5
100
AcDbArc
 50
0.0
 51
90.0
  0
ARC
  5
214
330
4A
100
AcDbEntity
  8
0
  6
Continuous
 62
     7
100
AcDbCircle
 10
354.9450248645551
 20
288.6465137725537
 30
0.0
 40
0.5000000000001535
100
AcDbArc
 50
99.72757855138437
 51
180.0
  0
ARC
  5
215
330
4A
100
AcDbEntity
  8
0
  6
Continuous
 62
     7
100
AcDbCircle
 10
354.9450248645551
 20
286.0680932269698
 30
0.0
 40
0.5
100
AcDbArc
 50
180.0
 51
270.0
  0
ARC
  5
216
330
4A
100
AcDbEntity
  8
0
  6
Continuous
 62
     7
100
AcDbCircle
 10
367.9450248645551
 20
293.889672681386
 30
0.0
 40
0.5000000000000415
100
AcDbArc
 50
279.7275785513866
 51
0.0
  0
ARC
  5
217
330
4A
100
AcDbEntity
  8
0
  6
Continuous
 62
     7
100
AcDbCircle
 10
354.9450248645551
 20
291.5680932269698
 30
0.0
 40
0.5
100
AcDbArc
 50
180.0
 51
270.0
  0
ARC
  5
218
330
4A
100
AcDbEntity
  8
0
  6
Continuous
 62
     7
100
AcDbCircle
 10
164.0270886479061
 20
703.1930932269706
 30
0.0
 40
0.5
100
AcDbArc
 50
180.0
 51
270.0
  0
ARC
  5
219
330
4A
100
AcDbEntity
  8
0
  6
Continuous
 62
     7
100
AcDbCircle
 10
164.0270886479061
 20
700.2676849278535
 30
0.0
 40
0.5000000000000191
100
AcDbArc
 50
99.72757855141013
 51
180.0
  0
ARC
  5
21A
330
4A
100
AcDbEntity
  8
0
  6
Continuous
 62
     7
100
AcDbCircle
 10
177.0270886479061
 20
702.5892643822697
 30
0.0
 40
0.5
100
AcDbArc
 50
0.0
 51
90.0
  0
ARC
  5
21B
330
4A
100
AcDbEntity
  8
0
  6
Continuous
 62
     7
100
AcDbCircle
 10
177.0270886479061
 20
702.5892643822697
 30
0.0
 40
0.5
100
AcDbArc
 50
0.0
 51
90.0
  0
ARC
  5
21C
330
4A
100
AcDbEntity
  8
0
  6
Continuous
 62
     7
100
AcDbCircle
 10
177.0270886479061
 20
702.5892643822697
 30
0.0
 40
0.5
100
AcDbArc
 50
0.0
 51
90.0
  0
ARC
  5
21D
330
4A
100
AcDbEntity
  8
0
  6
Continuous
 62
     7
100
AcDbCircle
 10
177.0270886479061
 20
702.5892643822697
 30
0.0
 40
0.5
100
AcDbArc
 50
0.0
 51
90.0
  0
ARC
  5
21E
330
4A
100
AcDbEntity
  8
0
  6
Continuous
 62
     7
100
AcDbCircle
 10
164.0270886479061
 20
650.7715137725545
 30
0.0
 40
0.5000000000000191
100
AcDbArc
 50
99.72757855141013
 51
180.0
  0
ARC
  5
21F
330
4A
100
AcDbEntity
  8
0
  6
Continuous
 62
     7
100
AcDbCircle
 10
177.0270886479061
 20
653.0930932269707
 30
0.0
 40
0.5
100
AcDbArc
 50
0.0
 51
90.0
  0
ARC
  5
220
330
4A
100
AcDbEntity
  8
0
  6
Continuous
 62
     7
100
AcDbCircle
 10
164.0270886479061
 20
653.6930932269706
 30
0.0
 40
0.5
100
AcDbArc
 50
180.0
 51
270.0
  0
ARC
  5
221
330
4A
100
AcDbEntity
  8
0
  6
Continuous
 62
     7
100
AcDbCircle
 10
164.0270886479061
 20
656.2715137725545
 30
0.0
 40
0.5000000000000191
100
AcDbArc
 50
99.72757855141013
 51
180.0
  0
ARC
  5
222
330
4A
100
AcDbEntity
  8
0
  6
Continuous
 62
     7
100
AcDbCircle
 10
177.0270886479061
 20
658.5930932269707
 30
0.0
 40
0.5
100
AcDbArc
 50
0.0
 51
90.0
  0
ARC
  5
223
330
4A
100
AcDbEntity
  8
0
  6
Continuous
 62
     7
100
AcDbCircle
 10
177.0270886479061
 20
656.0146726813869
 30
0.0
 40
0.4999999999999855
100
AcDbArc
 50
279.7275785513877
 51
0.0
  0
ARC
  5
224
330
4A
100
AcDbEntity
  8
0
  6
Continuous
 62
     7
100
AcDbCircle
 10
164.0270886479061
 20
683.7715137725545
 30
0.0
 40
0.5000000000000191
100
AcDbArc
 50
99.72757855141013
 51
180.0
  0
ARC
  5
225
330
4A
100
AcDbEntity
  8
0
  6
Continuous
 62
     7
100
AcDbCircle
 10
164.0270886479061
 20
672.7715137725545
 30
0.0
 40
0.5000000000000191
100
AcDbArc
 50
99.72757855141013
 51
180.0
  0
ARC
  5
226
330
4A
100
AcDbEntity
  8
0
  6
Continuous
 62
     7
100
AcDbCircle
 10
177.0270886479061
 20
700.0146726813869
 30
0.0
 40
0.4999999999999855
100
AcDbArc
 50
279.7275785513877
 51
0.0
  0
ARC
  5
227
330
4A
100
AcDbEntity
  8
0
  6
Continuous
 62
     7
100
AcDbCircle
 10
177.0270886479061
 20
686.0930932269707
 30
0.0
 40
0.5
100
AcDbArc
 50
0.0
 51
90.0
  0
ARC
  5
228
330
4A
100
AcDbEntity
  8
0
  6
Continuous
 62
     7
100
AcDbCircle
 10
177.0270886479061
 20
686.0930932269707
 30
0.0
 40
0.5
100
AcDbArc
 50
0.0
 51
90.0
  0
ARC
  5
229
330
4A
100
AcDbEntity
  8
0
  6
Continuous
 62
     7
100
AcDbCircle
 10
164.0270886479061
 20
678.2715137725545
 30
0.0
 40
0.5000000000000191
100
AcDbArc
 50
99.72757855141013
 51
180.0
  0
ARC
  5
22A
330
4A
100
AcDbEntity
  8
0
  6
Continuous
 62
     7
100
AcDbCircle
 10
177.0270886479061
 20
680.5930932269707
 30
0.0
 40
0.5
100
AcDbArc
 50
0.0
 51
90.0
  0
ARC
  5
22B
330
4A
100
AcDbEntity
  8
0
  6
Continuous
 62
     7
100
AcDbCircle
 10
164.0270886479061
 20
681.1930932269706
 30
0.0
 40
0.5
100
AcDbArc
 50
180.0
 51
270.0
  0
ARC
  5
22C
330
4A
100
AcDbEntity
  8
0
  6
Continuous
 62
     7
100
AcDbCircle
 10
177.0270886479061
 20
686.0930932269707
 30
0.0
 40
0.5
100
AcDbArc
 50
0.0
 51
90.0
  0
ARC
  5
22D
330
4A
100
AcDbEntity
  8
0
  6
Continuous
 62
     7
100
AcDbCircle
 10
177.0270886479061
 20
683.5146726813869
 30
0.0
 40
0.4999999999999855
100
AcDbArc
 50
279.7275785513877
 51
0.0
  0
ARC
  5
22E
330
4A
100
AcDbEntity
  8
0
  6
Continuous
 62
     7
100
AcDbCircle
 10
177.0270886479061
 20
678.0146726813869
 30
0.0
 40
0.4999999999999855
100
AcDbArc
 50
279.7275785513877
 51
0.0
  0
ARC
  5
22F
330
4A
100
AcDbEntity
  8
0
  6
Continuous
 62
     7
100
AcDbCircle
 10
177.0270886479061
 20
680.5930932269707
 30
0.0
 40
0.5
100
AcDbArc
 50
0.0
 51
90.0
  0
ARC
  5
230
330
4A
100
AcDbEntity
  8
0
  6
Continuous
 62
     7
100
AcDbCircle
 10
164.0270886479061
 20
678.2715137725545
 30
0.0
 40
0.5000000000000191
100
AcDbArc
 50
99.72757855141013
 51
180.0
  0
ARC
  5
231
330
4A
100
AcDbEntity
  8
0
  6
Continuous
 62
     7
100
AcDbCircle
 10
164.0270886479061
 20
675.6930932269706
 30
0.0
 40
0.5
100
AcDbArc
 50
180.0
 51
270.0
  0
ARC
  5
232
330
4A
100
AcDbEntity
  8
0
  6
Continuous
 62
     7
100
AcDbCircle
 10
177.0270886479061
 20
675.0930932269707
 30
0.0
 40
0.5
100
AcDbArc
 50
0.0
 51
90.0
  0
ARC
  5
233
330
4A
100
AcDbEntity
  8
0
  6
Continuous
 62
     7
100
AcDbCircle
 10
164.0270886479061
 20
670.1930932269706
 30
0.0
 40
0.5
100
AcDbArc
 50
180.0
 51
270.0
  0
ARC
  5
234
330
4A
100
AcDbEntity
  8
0
  6
Continuous
 62
     7
100
AcDbCircle
 10
177.0270886479061
 20
672.5146726813869
 30
0.0
 40
0.4999999999999855
100
AcDbArc
 50
279.7275785513877
 51
0.0
  0
ARC
  5
235
330
4A
100
AcDbEntity
  8
0
  6
Continuous
 62
     7
100
AcDbCircle
 10
177.0270886479061
 20
669.5930932269707
 30
0.0
 40
0.5
100
AcDbArc
 50
0.0
 51
90.0
  0
ARC
  5
236
330
4A
100
AcDbEntity
  8
0
  6
Continuous
 62
     7
100
AcDbCircle
 10
177.0270886479061
 20
669.5930932269707
 30
0.0
 40
0.5
100
AcDbArc
 50
0.0
 51
90.0
  0
ARC
  5
237
330
4A
100
AcDbEntity
  8
0
  6
Continuous
 62
     7
100
AcDbCircle
 10
164.0270886479061
 20
667.2715137725545
 30
0.0
 40
0.5000000000000191
100
AcDbArc
 50
99.72757855141013
 51
180.0
  0
ARC
  5
238
330
4A
100
AcDbEntity
  8
0
  6
Continuous
 62
     7
100
AcDbCircle
 10
164.0270886479061
 20
664.6930932269706
 30
0.0
 40
0.5
100
AcDbArc
 50
180.0
 51
270.0
  0
ARC
  5
239
330
4A
100
AcDbEntity
  8
0
  6
Continuous
 62
     7
100
AcDbCircle
 10
177.0270886479061
 20
667.0146726813869
 30
0.0
 40
0.4999999999999855
100
AcDbArc
 50
279.7275785513877
 51
0.0
  0
ARC
  5
23A
330
4A
100
AcDbEntity
  8
0
  6
Continuous
 62
     7
100
AcDbCircle
 10
177.0270886479061
 20
664.0930932269707
 30
0.0
 40
0.5
100
AcDbArc
 50
0.0
 51
90.0
  0
ARC
  5
23B
330
4A
100
AcDbEntity
  8
0
  6
Continuous
 62
     7
100
AcDbCircle
 10
164.0270886479061
 20
661.7715137725545
 30
0.0
 40
0.5000000000000191
100
AcDbArc
 50
99.72757855141013
 51
180.0
  0
ARC
  5
23C
330
4A
100
AcDbEntity
  8
0
  6
Continuous
 62
     7
100
AcDbCircle
 10
164.0270886479061
 20
659.1930932269706
 30
0.0
 40
0.5
100
AcDbArc
 50
180.0
 51
270.0
  0
ARC
  5
23D
330
4A
100
AcDbEntity
  8
0
  6
Continuous
 62
     7
100
AcDbCircle
 10
177.0270886479061
 20
661.5146726813869
 30
0.0
 40
0.4999999999999855
100
AcDbArc
 50
279.7275785513877
 51
0.0
  0
ARC
  5
23E
330
4A
100
AcDbEntity
  8
0
  6
Continuous
 62
     7
100
AcDbCircle
 10
164.0270886479061
 20
697.6930932269706
 30
0.0
 40
0.5
100
AcDbArc
 50
180.0
 51
270.0
  0
ARC
  5
23F
330
4A
100
AcDbEntity
  8
0
  6
Continuous
 62
     7
100
AcDbCircle
 10
177.0270886479061
 20
697.0892643822697
 30
0.0
 40
0.5
100
AcDbArc
 50
0.0
 51
90.0
  0
ARC
  5
240
330
4A
100
AcDbEntity
  8
0
  6
Continuous
 62
     7
100
AcDbCircle
 10
177.0270886479061
 20
697.0892643822697
 30
0.0
 40
0.5
100
AcDbArc
 50
0.0
 51
90.0
  0
ARC
  5
241
330
4A
100
AcDbEntity
  8
0
  6
Continuous
 62
     7
100
AcDbCircle
 10
177.0270886479061
 20
697.0892643822697
 30
0.0
 40
0.5
100
AcDbArc
 50
0.0
 51
90.0
  0
ARC
  5
242
330
4A
100
AcDbEntity
  8
0
  6
Continuous
 62
     7
100
AcDbCircle
 10
177.0270886479061
 20
697.0892643822697
 30
0.0
 40
0.5
100
AcDbArc
 50
0.0
 51
90.0
  0
ARC
  5
243
330
4A
100
AcDbEntity
  8
0
  6
Continuous
 62
     7
100
AcDbCircle
 10
164.0270886479061
 20
692.1930932269706
 30
0.0
 40
0.5
100
AcDbArc
 50
180.0
 51
270.0
  0
ARC
  5
244
330
4A
100
AcDbEntity
  8
0
  6
Continuous
 62
     7
100
AcDbCircle
 10
177.0270886479061
 20
694.5146726813869
 30
0.0
 40
0.4999999999999855
100
AcDbArc
 50
279.7275785513877
 51
0.0
  0
ARC
  5
245
330
4A
100
AcDbEntity
  8
0
  6
Continuous
 62
     7
100
AcDbCircle
 10
177.0270886479061
 20
691.5892643822697
 30
0.0
 40
0.5
100
AcDbArc
 50
0.0
 51
90.0
  0
ARC
  5
246
330
4A
100
AcDbEntity
  8
0
  6
Continuous
 62
     7
100
AcDbCircle
 10
177.0270886479061
 20
691.5892643822697
 30
0.0
 40
0.5
100
AcDbArc
 50
0.0
 51
90.0
  0
ARC
  5
247
330
4A
100
AcDbEntity
  8
0
  6
Continuous
 62
     7
100
AcDbCircle
 10
177.0270886479061
 20
691.5892643822697
 30
0.0
 40
0.5
100
AcDbArc
 50
0.0
 51
90.0
  0
ARC
  5
248
330
4A
100
AcDbEntity
  8
0
  6
Continuous
 62
     7
100
AcDbCircle
 10
177.0270886479061
 20
691.5892643822697
 30
0.0
 40
0.5
100
AcDbArc
 50
0.0
 51
90.0
  0
ARC
  5
249
330
4A
100
AcDbEntity
  8
0
  6
Continuous
 62
     7
100
AcDbCircle
 10
177.0270886479061
 20
689.0146726813869
 30
0.0
 40
0.4999999999999855
100
AcDbArc
 50
279.7275785513877
 51
0.0
  0
ARC
  5
24A
330
4A
100
AcDbEntity
  8
0
  6
Continuous
 62
     7
100
AcDbCircle
 10
164.0270886479061
 20
686.6930932269706
 30
0.0
 40
0.5
100
AcDbArc
 50
180.0
 51
270.0
  0
ARC
  5
24B
330
4A
100
AcDbEntity
  8
0
  6
Continuous
 62
     7
100
AcDbCircle
 10
164.0270886479061
 20
689.2676849278535
 30
0.0
 40
0.5000000000000191
100
AcDbArc
 50
99.72757855141013
 51
180.0
  0
ARC
  5
24C
330
4A
100
AcDbEntity
  8
0
  6
Continuous
 62
     7
100
AcDbCircle
 10
164.0270886479061
 20
689.2676849278535
 30
0.0
 40
0.5000000000000191
100
AcDbArc
 50
99.72757855141013
 51
180.0
  0
ARC
  5
24D
330
4A
100
AcDbEntity
  8
0
  6
Continuous
 62
     7
100
AcDbCircle
 10
164.0270886479061
 20
694.7676849278535
 30
0.0
 40
0.5000000000000191
100
AcDbArc
 50
99.72757855141013
 51
180.0
  0
ARC
  5
24E
330
4A
100
AcDbEntity
  8
0
  6
Continuous
 62
     7
100
AcDbCircle
 10
500.7196165654382
 20
358.3680932269714
 30
0.0
 40
0.4999999999999855
100
AcDbArc
 50
9.72757855138766
 51
86.84092014205692
  0
ARC
  5
24F
330
4A
100
AcDbEntity
  8
0
  6
Continuous
 62
     7
100
AcDbCircle
 10
495.2196165654382
 20
358.3680932269714
 30
0.0
 40
0.4999999999999855
100
AcDbArc
 50
9.72757855138766
 51
90.0
  0
ARC
  5
250
330
4A
100
AcDbEntity
  8
0
  6
Continuous
 62
     7
100
AcDbCircle
 10
495.2196165654382
 20
358.3680932269714
 30
0.0
 40
0.4999999999999855
100
AcDbArc
 50
9.72757855138766
 51
90.0
  0
ARC
  5
251
330
4A
100
AcDbEntity
  8
0
  6
Continuous
 62
     7
100
AcDbCircle
 10
492.6450248645554
 20
358.3680932269714
 30
0.0
 40
0.5
100
AcDbArc
 50
90.0
 51
180.0
  0
ARC
  5
252
330
4A
100
AcDbEntity
  8
0
  6
Continuous
 62
     7
100
AcDbCircle
 10
494.9666043189716
 20
345.3680932269714
 30
0.0
 40
0.5000000000000415
100
AcDbArc
 50
189.7275785513866
 51
270.0
  0
ARC
  5
253
330
4A
100
AcDbEntity
  8
0
  6
Continuous
 62
     7
100
AcDbCircle
 10
497.5411960198544
 20
345.3680932269714
 30
0.0
 40
0.5
100
AcDbArc
 50
270.0
 51
0.0
  0
ARC
  5
254
330
4A
100
AcDbEntity
  8
0
  6
Continuous
 62
     7
100
AcDbCircle
 10
497.5411960198544
 20
345.3680932269714
 30
0.0
 40
0.5
100
AcDbArc
 50
270.0
 51
0.0
  0
ARC
  5
255
330
4A
100
AcDbEntity
  8
0
  6
Continuous
 62
     7
100
AcDbCircle
 10
497.5411960198544
 20
345.3680932269714
 30
0.0
 40
0.5
100
AcDbArc
 50
270.0
 51
0.0
  0
ARC
  5
256
330
4A
100
AcDbEntity
  8
0
  6
Continuous
 62
     7
100
AcDbCircle
 10
497.5411960198544
 20
345.3680932269714
 30
0.0
 40
0.5
100
AcDbArc
 50
270.0
 51
0.0
  0
ARC
  5
257
330
4A
100
AcDbEntity
  8
0
  6
Continuous
 62
     7
100
AcDbCircle
 10
500.4666043189716
 20
345.3680932269714
 30
0.0
 40
0.5000000000000415
100
AcDbArc
 50
189.7275785513866
 51
270.0
  0
ARC
  5
258
330
4A
100
AcDbEntity
  8
0
  6
Continuous
 62
     7
100
AcDbCircle
 10
498.1450248645554
 20
358.3680932269714
 30
0.0
 40
0.5
100
AcDbArc
 50
90.0
 51
180.0
  0
ARC
  5
259
330
4A
100
AcDbEntity
  8
0
  6
Continuous
 62
     7
100
AcDbCircle
 10
503.0411960198544
 20
345.3680932269714
 30
0.0
 40
0.5
100
AcDbArc
 50
270.0
 51
0.0
  0
ARC
  5
25A
330
4A
100
AcDbEntity
  8
0
  6
Continuous
 62
     7
100
AcDbCircle
 10
503.0411960198544
 20
345.3680932269714
 30
0.0
 40
0.5
100
AcDbArc
 50
270.0
 51
0.0
  0
ARC
  5
25B
330
4A
100
AcDbEntity
  8
0
  6
Continuous
 62
     7
100
AcDbCircle
 10
503.0411960198544
 20
345.3680932269714
 30
0.0
 40
0.5
100
AcDbArc
 50
270.0
 51
0.0
  0
ARC
  5
25C
330
4A
100
AcDbEntity
  8
0
  6
Continuous
 62
     7
100
AcDbCircle
 10
503.0411960198544
 20
345.3680932269714
 30
0.0
 40
0.5
100
AcDbArc
 50
270.0
 51
0.0
  0
ARC
  5
25D
330
4A
100
AcDbEntity
  8
0
  6
Continuous
 62
     7
100
AcDbCircle
 10
484.2234454101392
 20
358.3680932269714
 30
0.0
 40
0.5000000000000415
100
AcDbArc
 50
9.72757855138656
 51
90.0
  0
ARC
  5
25E
330
4A
100
AcDbEntity
  8
0
  6
Continuous
 62
     7
100
AcDbCircle
 10
486.5450248645554
 20
345.3680932269714
 30
0.0
 40
0.5
100
AcDbArc
 50
270.0
 51
0.0
  0
ARC
  5
25F
330
4A
100
AcDbEntity
  8
0
  6
Continuous
 62
     7
100
AcDbCircle
 10
489.4666043189716
 20
345.3680932269714
 30
0.0
 40
0.5000000000000415
100
AcDbArc
 50
189.7275785513866
 51
270.0
  0
ARC
  5
260
330
4A
100
AcDbEntity
  8
0
  6
Continuous
 62
     7
100
AcDbCircle
 10
492.0450248645554
 20
345.3680932269714
 30
0.0
 40
0.5
100
AcDbArc
 50
270.0
 51
0.0
  0
ARC
  5
261
330
4A
100
AcDbEntity
  8
0
  6
Continuous
 62
     7
100
AcDbCircle
 10
487.1450248645554
 20
358.3680932269714
 30
0.0
 40
0.5
100
AcDbArc
 50
90.0
 51
180.0
  0
ARC
  5
262
330
4A
100
AcDbEntity
  8
0
  6
Continuous
 62
     7
100
AcDbCircle
 10
486.5450248645554
 20
345.3680932269714
 30
0.0
 40
0.5
100
AcDbArc
 50
270.0
 51
0.0
  0
ARC
  5
263
330
4A
100
AcDbEntity
  8
0
  6
Continuous
 62
     7
100
AcDbCircle
 10
484.2234454101392
 20
358.3680932269714
 30
0.0
 40
0.5000000000000415
100
AcDbArc
 50
9.72757855138656
 51
90.0
  0
ARC
  5
264
330
4A
100
AcDbEntity
  8
0
  6
Continuous
 62
     7
100
AcDbCircle
 10
492.0450248645554
 20
345.3680932269714
 30
0.0
 40
0.5
100
AcDbArc
 50
270.0
 51
0.0
  0
ARC
  5
265
330
4A
100
AcDbEntity
  8
0
  6
Continuous
 62
     7
100
AcDbCircle
 10
492.0450248645554
 20
345.3680932269714
 30
0.0
 40
0.5
100
AcDbArc
 50
270.0
 51
0.0
  0
ARC
  5
266
330
4A
100
AcDbEntity
  8
0
  6
Continuous
 62
     7
100
AcDbCircle
 10
489.7234454101392
 20
358.3680932269714
 30
0.0
 40
0.5000000000000415
100
AcDbArc
 50
9.72757855138656
 51
90.0
  0
ARC
  5
267
330
4A
100
AcDbEntity
  8
0
  6
Continuous
 62
     7
100
AcDbCircle
 10
164.0270886479057
 20
291.5680932269693
 30
0.0
 40
0.5
100
AcDbArc
 50
180.0
 51
270.0
  0
ARC
  5
268
330
4A
100
AcDbEntity
  8
0
  6
Continuous
 62
     7
100
AcDbCircle
 10
177.0270886479057
 20
293.8896726813853
 30
0.0
 40
0.500000000000075
100
AcDbArc
 50
279.727578551409
 51
0.0
  0
ARC
  5
269
330
4A
100
AcDbEntity
  8
0
  6
Continuous
 62
     7
100
AcDbCircle
 10
164.0270886479057
 20
286.0680932269693
 30
0.0
 40
0.5
100
AcDbArc
 50
180.0
 51
270.0
  0
ARC
  5
26A
330
4A
100
AcDbEntity
  8
0
  6
Continuous
 62
     7
100
AcDbCircle
 10
164.0270886479057
 20
288.646513772553
 30
0.0
 40
0.5000000000000415
100
AcDbArc
 50
99.72757855138657
 51
180.0
  0
ARC
  5
26B
330
4A
100
AcDbEntity
  8
0
  6
Continuous
 62
     7
100
AcDbCircle
 10
177.0270886479057
 20
290.968093226969
 30
0.0
 40
0.5
100
AcDbArc
 50
0.0
 51
90.0
  0
ARC
  5
26C
330
4A
100
AcDbEntity
  8
0
  6
Continuous
 62
     7
100
AcDbCircle
 10
177.0270886479057
 20
288.3896726813853
 30
0.0
 40
0.500000000000075
100
AcDbArc
 50
279.727578551409
 51
0.0
  0
ARC
  5
26D
330
4A
100
AcDbEntity
  8
0
  6
Continuous
 62
     7
100
AcDbCircle
 10
164.0270886479057
 20
283.146513772553
 30
0.0
 40
0.5000000000000415
100
AcDbArc
 50
99.72757855138657
 51
180.0
  0
ARC
  5
26E
330
4A
100
AcDbEntity
  8
0
  6
Continuous
 62
     7
100
AcDbCircle
 10
164.0270886479057
 20
280.5680932269693
 30
0.0
 40
0.5
100
AcDbArc
 50
180.0
 51
270.0
  0
ARC
  5
26F
330
4A
100
AcDbEntity
  8
0
  6
Continuous
 62
     7
100
AcDbCircle
 10
177.0270886479057
 20
282.8896726813853
 30
0.0
 40
0.500000000000075
100
AcDbArc
 50
279.727578551409
 51
0.0
  0
ARC
  5
270
330
4A
100
AcDbEntity
  8
0
  6
Continuous
 62
     7
100
AcDbCircle
 10
177.0270886479057
 20
285.468093226969
 30
0.0
 40
0.5
100
AcDbArc
 50
0.0
 51
90.0
  0
ARC
  5
271
330
4A
100
AcDbEntity
  8
0
  6
Continuous
 62
     7
100
AcDbCircle
 10
177.0270886479057
 20
279.968093226969
 30
0.0
 40
0.5
100
AcDbArc
 50
0.0
 51
90.0
  0
ENDBLK
  5
4C
330
4A
100
AcDbEntity
  8
0
100
AcDbBlockEnd
  0
BLOCK
  5
4E
330
4D
100
AcDbEntity
  8
0
100
AcDbBlockBegin
  2
76-120-H1
 70
     0
 10
542.3457720980216
 20
396.0297528732306
 30
0.0
  3
76-120-H1
  1

  0
POINT
  5
272
330
4D
100
AcDbEntity
  8
0
 62
     7
100
AcDbPoint
 10
178.5270886479059
 20
704.3680932269708
 30
0.0
  0
POINT
  5
273
330
4D
100
AcDbEntity
  8
0
 62
     7
100
AcDbPoint
 10
508.9450248645553
 20
359.8680932269708
 30
0.0
  0
POINT
  5
274
330
4D
100
AcDbEntity
  8
0
 62
     7
100
AcDbPoint
 10
508.9450248645553
 20
359.8680932269708
 30
0.0
  0
LINE
  5
275
330
4D
100
AcDbEntity
  8
1
  6
Continuous
 62
     7
100
AcDbLine
 10
163.5270886479057
 20
348.9565998516492
 30
0.0
 11
162.7173902745412
 21
350.9113846460581
 31
0.0
  0
LINE
  5
276
330
4D
100
AcDbEntity
  8
1
  6
Continuous
 62
     7
100
AcDbLine
 10
178.3367870212701
 20
350.9113846460581
 30
0.0
 11
177.5270886479057
 21
348.95659985165
 31
0.0
  0
LINE
  5
277
330
4D
100
AcDbEntity
  8
1
  6
Continuous
 62
     7
100
AcDbLine
 10
176.7258744519158
 20
356.7138887806169
 30
0.0
 11
178.3367870212701
 21
352.8248018078839
 31
0.0
  0
LINE
  5
278
330
4D
100
AcDbEntity
  8
1
  6
Continuous
 62
     7
100
AcDbLine
 10
162.7173902745412
 20
352.8248018078839
 30
0.0
 11
164.3283028438952
 21
356.7138887806171
 31
0.0
  0
LINE
  5
279
330
4D
100
AcDbEntity
  8
1
  6
Continuous
 62
     7
100
AcDbLine
 10
171.4837972288183
 20
359.6777916003367
 30
0.0
 11
175.3728842015503
 21
358.0668790309825
 31
0.0
  0
LINE
  5
27A
330
4D
100
AcDbEntity
  8
1
  6
Continuous
 62
     7
100
AcDbLine
 10
165.6812930942608
 20
358.0668790309827
 30
0.0
 11
169.5703800669928
 21
359.6777916003367
 31
0.0
  0
LINE
  5
27B
330
4D
100
AcDbEntity
  8
1
  6
Continuous
 62
     7
100
AcDbLine
 10
178.5270886479057
 20
322.3680932269713
 30
0.0
 11
178.5270886479057
 21
351.8680932269713
 31
0.0
  0
LINE
  5
27C
330
4D
100
AcDbEntity
  8
1
  6
Continuous
 62
     7
100
AcDbLine
 10
162.5270886479057
 20
351.8680932269713
 30
0.0
 11
162.5270886479057
 21
322.3680932269713
 31
0.0
  0
LINE
  5
27D
330
4D
100
AcDbEntity
  8
1
  6
Continuous
 62
     7
100
AcDbLine
 10
178.5270886479059
 20
724.3680932269708
 30
0.0
 11
162.5270886479059
 21
724.3680932269708
 31
0.0
  0
LINE
  5
27E
330
4D
100
AcDbEntity
  8
1
  6
Continuous
 62
     7
100
AcDbLine
 10
162.717390274541
 20
704.3680932269708
 30
0.0
 11
162.717390274541
 21
724.3680932269708
 31
0.0
  0
LINE
  5
27F
330
4D
100
AcDbEntity
  8
1
  6
Continuous
 62
     7
100
AcDbLine
 10
164.3283028438952
 20
724.3680932269708
 30
0.0
 11
164.3283028438952
 21
704.3680932269708
 31
0.0
  0
LINE
  5
280
330
4D
100
AcDbEntity
  8
1
  6
Continuous
 62
     7
100
AcDbLine
 10
165.6812930942606
 20
704.3680932269708
 30
0.0
 11
165.6812930942606
 21
724.3680932269708
 31
0.0
  0
LINE
  5
281
330
4D
100
AcDbEntity
  8
1
  6
Continuous
 62
     7
100
AcDbLine
 10
169.570380066993
 20
704.3680932269708
 30
0.0
 11
169.570380066993
 21
724.3680932269708
 31
0.0
  0
LINE
  5
282
330
4D
100
AcDbEntity
  8
1
  6
Continuous
 62
     7
100
AcDbLine
 10
171.4837972288185
 20
704.3680932269708
 30
0.0
 11
171.4837972288185
 21
724.3680932269708
 31
0.0
  0
LINE
  5
283
330
4D
100
AcDbEntity
  8
1
  6
Continuous
 62
     7
100
AcDbLine
 10
175.3728842015505
 20
724.3680932269708
 30
0.0
 11
175.3728842015505
 21
704.3680932269708
 31
0.0
  0
LINE
  5
284
330
4D
100
AcDbEntity
  8
1
  6
Continuous
 62
     7
100
AcDbLine
 10
176.7258744519163
 20
704.3680932269708
 30
0.0
 11
176.7258744519163
 21
724.3680932269708
 31
0.0
  0
LINE
  5
285
330
4D
100
AcDbEntity
  8
1
  6
Continuous
 62
     7
100
AcDbLine
 10
178.3367870212701
 20
724.3680932269708
 30
0.0
 11
178.3367870212701
 21
704.3680932269708
 31
0.0
  0
LINE
  5
286
330
4D
100
AcDbEntity
  8
1
  6
Continuous
 62
     7
100
AcDbLine
 10
178.5270886479059
 20
704.3680932269708
 30
0.0
 11
162.5270886479059
 21
704.3680932269708
 31
0.0
  0
LINE
  5
287
330
4D
100
AcDbEntity
  8
1
  6
Continuous
 62
     7
100
AcDbLine
 10
508.9450248645553
 20
343.8680932269708
 30
0.0
 11
508.9450248645553
 21
359.8680932269708
 31
0.0
  0
LINE
  5
288
330
4D
100
AcDbEntity
  8
0
  6
Continuous
 62
     7
100
AcDbLine
 10
508.9450248645553
 20
343.8680932269708
 30
0.0
 11
547.9450248645553
 21
343.8680932269708
 31
0.0
  0
LINE
  5
289
330
4D
100
AcDbEntity
  8
0
  6
Continuous
 62
     7
100
AcDbLine
 10
508.9450248645553
 20
359.8680932269708
 30
0.0
 11
547.9450248645553
 21
359.8680932269708
 31
0.0
  0
LINE
  5
28A
330
4D
100
AcDbEntity
  8
0
  6
Continuous
 62
     7
100
AcDbLine
 10
178.5270886479054
 20
768.3680932269706
 30
0.0
 11
178.5270886479059
 21
704.3680932269708
 31
0.0
  0
LINE
  5
28B
330
4D
100
AcDbEntity
  8
0
  6
Continuous
 62
     7
100
AcDbLine
 10
162.5270886479052
 20
768.3680932269705
 30
0.0
 11
162.5270886479059
 21
704.3680932269708
 31
0.0
  0
LINE
  5
28C
330
4D
100
AcDbEntity
  8
0
  6
Continuous
 62
     7
100
AcDbLine
 10
580.9450248645553
 20
326.868093226971
 30
0.0
 11
580.9450248645553
 21
322.3680932269709
 31
0.0
  0
LINE
  5
28D
330
4D
100
AcDbEntity
  8
0
  6
Continuous
 62
     7
100
AcDbLine
 10
564.9450248645553
 20
326.868093226971
 30
0.0
 11
564.9450248645553
 21
322.3680932269709
 31
0.0
  0
LINE
  5
28E
330
4D
100
AcDbEntity
  8
1
  6
Continuous
 62
     7
100
AcDbLine
 10
508.9450248645553
 20
343.8680932269708
 30
0.0
 11
508.9450248645553
 21
359.8680932269708
 31
0.0
  0
LINE
  5
28F
330
4D
100
AcDbEntity
  8
1
  6
Continuous
 62
     7
100
AcDbLine
 10
508.9450248645553
 20
359.6777916003351
 30
0.0
 11
528.9450248645553
 21
359.6777916003356
 31
0.0
  0
LINE
  5
290
330
4D
100
AcDbEntity
  8
1
  6
Continuous
 62
     7
100
AcDbLine
 10
528.9450248645553
 20
358.0668790309817
 30
0.0
 11
508.9450248645553
 21
358.0668790309817
 31
0.0
  0
LINE
  5
291
330
4D
100
AcDbEntity
  8
1
  6
Continuous
 62
     7
100
AcDbLine
 10
508.9450248645553
 20
356.7138887806162
 30
0.0
 11
528.9450248645553
 21
356.7138887806162
 31
0.0
  0
LINE
  5
292
330
4D
100
AcDbEntity
  8
1
  6
Continuous
 62
     7
100
AcDbLine
 10
528.9450248645553
 20
352.8248018078842
 30
0.0
 11
508.9450248645553
 21
352.8248018078842
 31
0.0
  0
LINE
  5
293
330
4D
100
AcDbEntity
  8
1
  6
Continuous
 62
     7
100
AcDbLine
 10
528.9450248645553
 20
350.9113846460588
 30
0.0
 11
508.9450248645553
 21
350.9113846460588
 31
0.0
  0
LINE
  5
294
330
4D
100
AcDbEntity
  8
1
  6
Continuous
 62
     7
100
AcDbLine
 10
528.9450248645553
 20
347.0222976733256
 30
0.0
 11
508.9450248645553
 21
347.0222976733256
 31
0.0
  0
LINE
  5
295
330
4D
100
AcDbEntity
  8
1
  6
Continuous
 62
     7
100
AcDbLine
 10
508.9450248645553
 20
345.6693074229601
 30
0.0
 11
528.9450248645553
 21
345.6693074229601
 31
0.0
  0
LINE
  5
296
330
4D
100
AcDbEntity
  8
1
  6
Continuous
 62
     7
100
AcDbLine
 10
528.9450248645553
 20
344.0583948536062
 30
0.0
 11
508.9450248645553
 21
344.0583948536062
 31
0.0
  0
LINE
  5
297
330
4D
100
AcDbEntity
  8
1
  6
Continuous
 62
     7
100
AcDbLine
 10
528.9450248645553
 20
343.8680932269705
 30
0.0
 11
528.9450248645553
 21
359.8680932269705
 31
0.0
  0
ARC
  5
298
330
4D
100
AcDbEntity
  8
1
  6
Continuous
 62
     7
100
AcDbCircle
 10
170.5270886479054
 20
768.3680932269706
 30
0.0
 40
8.0
100
AcDbArc
 50
0.0
 51
180.0000000000008
  0
ARC
  5
299
330
4D
100
AcDbEntity
  8
1
  6
Continuous
 62
     7
100
AcDbCircle
 10
165.0270891058194
 20
351.8680932269712
 30
0.0
 40
2.5
100
AcDbArc
 50
179.9999999999974
 51
202.5000000000086
  0
ARC
  5
29A
330
4D
100
AcDbEntity
  8
1
  6
Continuous
 62
     7
100
AcDbCircle
 10
176.0270881899921
 20
351.8680932269712
 30
0.0
 40
2.499999999999967
100
AcDbArc
 50
337.4999999999897
 51
0.00000000000261
  0
ARC
  5
29B
330
4D
100
AcDbEntity
  8
1
  6
Continuous
 62
     7
100
AcDbCircle
 10
174.4161756206377
 20
355.7571801997042
 30
0.0
 40
2.499999999999893
100
AcDbArc
 50
22.5000000000012
 51
67.50000000000294
  0
ARC
  5
29C
330
4D
100
AcDbEntity
  8
1
  6
Continuous
 62
     7
100
AcDbCircle
 10
165.0270891058194
 20
351.8680932269712
 30
0.0
 40
2.499999999999976
100
AcDbArc
 50
157.500000000001
 51
179.9999999999974
  0
ARC
  5
29D
330
4D
100
AcDbEntity
  8
1
  6
Continuous
 62
     7
100
AcDbCircle
 10
166.6380016751734
 20
355.7571801997042
 30
0.0
 40
2.500000000000233
100
AcDbArc
 50
112.4999999999945
 51
157.4999999999962
  0
ARC
  5
29E
330
4D
100
AcDbEntity
  8
1
  6
Continuous
 62
     7
100
AcDbCircle
 10
170.5270886479057
 20
357.3680927690585
 30
0.0
 40
2.49999999999997
100
AcDbArc
 50
67.50000000000306
 51
112.5000000000036
  0
ARC
  5
29F
330
4D
100
AcDbEntity
  8
1
  6
Continuous
 62
     7
100
AcDbCircle
 10
547.9450248645553
 20
326.868093226971
 30
0.0
 40
17.0
100
AcDbArc
 50
0.0
 51
90.0
  0
ARC
  5
2A0
330
4D
100
AcDbEntity
  8
1
  6
Continuous
 62
     7
100
AcDbCircle
 10
547.9450248645553
 20
326.868093226971
 30
0.0
 40
33.0
100
AcDbArc
 50
0.0
 51
90.0
  0
ARC
  5
2A1
330
4D
100
AcDbEntity
  8
1
  6
Continuous
 62
     7
100
AcDbCircle
 10
176.0270881899921
 20
351.8680932269712
 30
0.0
 40
2.499999999999801
100
AcDbArc
 50
0.00000000000261
 51
22.50000000000075
  0
ENDBLK
  5
4F
330
4D
100
AcDbEntity
  8
0
100
AcDbBlockEnd
  0
BLOCK
  5
54
330
50
100
AcDbEntity
  8
0
100
AcDbBlockBegin
  2
76-120-300
 70
     0
 10
770.5084344248921
 20
75.68215527892197
 30
0.0
  3
76-120-300
  1

  0
INSERT
  5
51
330
50
100
AcDbEntity
  8
0
100
AcDbBlockReference
  2
76-120-H3
 10
1040.506069880822
 20
902.7491930018404
 30
0.0
  0
INSERT
  5
52
330
50
100
AcDbEntity
  8
0
100
AcDbBlockReference
  2
76-120-_長さ_-H2
 10
1221.445024864555
 20
379.9047528732349
 30
0.0
  0
INSERT
  5
53
330
50
100
AcDbEntity
  8
1
100
AcDbBlockReference
  2
76-120-H1
 10
542.3457720980216
 20
396.0297528732306
 30
0.0
  0
LINE
  5
2A2
330
50
100
AcDbEntity
  8
1
  6
PHANTOM
 62
     4
100
AcDbLine
 10
361.4450248645549
 20
231.3680932269709
 30
0.0
 11
361.4450248645549
 21
301.8680932269709
 31
0.0
  0
LINE
  5
2A3
330
50
100
AcDbEntity
  8
0
  6
PHANTOM
 62
     4
100
AcDbLine
 10
561.8996883403622
 20
318.3680932269708
 30
0.0
 11
572.9450248645553
 21
318.3680932269708
 31
0.0
  0
LINE
  5
2A4
330
50
100
AcDbEntity
  8
0
  6
PHANTOM
 62
     4
100
AcDbLine
 10
583.7465193314879
 20
318.3680932269708
 30
0.0
 11
572.9450248645553
 21
318.3680932269708
 31
0.0
  0
LINE
  5
2A5
330
50
100
AcDbEntity
  8
0
  6
PHANTOM
 62
     4
100
AcDbLine
 10
572.9450248645553
 20
326.8680932269708
 30
0.0
 11
572.9450248645553
 21
302.8680932269708
 31
0.0
  0
LINE
  5
2A6
330
50
100
AcDbEntity
  8
1
  6
PHANTOM
 62
     4
100
AcDbLine
 10
411.4450248645549
 20
351.8680932269709
 30
0.0
 11
547.9450248645553
 21
351.8680932269708
 31
0.0
  0
ARC
  5
2A7
330
50
100
AcDbEntity
  8
1
  6
PHANTOM
 62
     4
100
AcDbCircle
 10
411.4450248645549
 20
301.8680932269709
 30
0.0
 40
50.0
100
AcDbArc
 50
90.0
 51
180.0
  0
ARC
  5
2A8
330
50
100
AcDbEntity
  8
1
  6
PHANTOM
 62
     4
100
AcDbCircle
 10
547.9450248645553
 20
326.8680932269708
 30
0.0
 40
25.0
100
AcDbArc
 50
0.0
 51
90.0
  0
ENDBLK
  5
55
330
50
100
AcDbEntity
  8
0
100
AcDbBlockEnd
  0
BLOCK
  5
58
330
56
100
AcDbEntity
  8
0
100
AcDbBlockBegin
  2
76-120F-300
 70
     0
 10
2653.31822560261
 20
200.5623926502506
 30
0.0
  3
76-120F-300
  1

  0
INSERT
  5
57
330
56
100
AcDbEntity
  8
1
100
AcDbBlockReference
  2
76-120-300
 10
770.5084344248921
 20
75.68215527892197
 30
0.0
  0
LINE
  5
2A9
330
56
100
AcDbEntity
  8
1
  6
PHANTOM
 62
     4
100
AcDbLine
 10
572.9450248645571
 20
302.8680932269708
 30
0.0
 11
572.9450248645553
 21
326.8680932269721
 31
0.0
  0
LINE
  5
2AA
330
56
100
AcDbEntity
  8
1
  6
PHANTOM
 62
     4
100
AcDbLine
 10
411.4450248645549
 20
351.8680932269709
 30
0.0
 11
547.9450248645574
 21
351.8680932269709
 31
0.0
  0
LINE
  5
2AB
330
56
100
AcDbEntity
  8
1
  6
PHANTOM
 62
     4
100
AcDbLine
 10
361.4450248645549
 20
231.368093226971
 30
0.0
 11
361.4450248645549
 21
301.8680932269709
 31
0.0
  0
ARC
  5
2AC
330
56
100
AcDbEntity
  8
1
  6
PHANTOM
 62
     4
100
AcDbCircle
 10
547.9450248645571
 20
326.8680932269701
 30
0.0
 40
25.0
100
AcDbArc
 50
0.0
 51
89.99999999999947
  0
ARC
  5
2AD
330
56
100
AcDbEntity
  8
1
  6
PHANTOM
 62
     4
100
AcDbCircle
 10
411.4450248645549
 20
301.8680932269709
 30
0.0
 40
50.0
100
AcDbArc
 50
90.0
 51
180.0
  0
ENDBLK
  5
59
330
56
100
AcDbEntity
  8
0
100
AcDbBlockEnd
  0
BLOCK
  5
5B
330
5A
100
AcDbEntity
  8
0
100
AcDbBlockBegin
  2
30-111
 70
     0
 10
1796.338679485853
 20
1119.590422467432
 30
0.0
  3
30-111
  1

  0
LINE
  5
2AE
330
5A
100
AcDbEntity
  8
1
  6
Continuous
 62
     7
100
AcDbLine
 10
158.7770886479063
 20
258.668093226971
 30
0.0
 11
182.2770886479063
 21
258.668093226971
 31
0.0
  0
LINE
  5
2AF
330
5A
100
AcDbEntity
  8
1
  6
Continuous
 62
     7
100
AcDbLine
 10
158.7770886479063
 20
258.668093226971
 30
0.0
 11
158.9770886479062
 21
258.8680932269709
 31
0.0
  0
LINE
  5
2B0
330
5A
100
AcDbEntity
  8
1
  6
PHANTOM
 62
     4
100
AcDbLine
 10
170.5270886479063
 20
261.8680932269709
 30
0.0
 11
170.5270886479063
 21
240.3680932269709
 31
0.0
  0
LINE
  5
2B1
330
5A
100
AcDbEntity
  8
1
  6
Continuous
 62
     7
100
AcDbLine
 10
158.9770886479062
 20
258.8680932269709
 30
0.0
 11
182.0770886479061
 21
258.8680932269709
 31
0.0
  0
LINE
  5
2B2
330
5A
100
AcDbEntity
  8
1
  6
Continuous
 62
     7
100
AcDbLine
 10
182.2770886479063
 20
258.668093226971
 30
0.0
 11
182.2770886479063
 21
243.8680932269709
 31
0.0
  0
LINE
  5
2B3
330
5A
100
AcDbEntity
  8
1
  6
Continuous
 62
     7
100
AcDbLine
 10
181.1770886479062
 20
241.868093226971
 30
0.0
 11
159.8770886479063
 21
241.8680932269709
 31
0.0
  0
LINE
  5
2B4
330
5A
100
AcDbEntity
  8
1
  6
Continuous
 62
     7
100
AcDbLine
 10
158.7770886479063
 20
243.8680932269709
 30
0.0
 11
158.7770886479063
 21
258.668093226971
 31
0.0
  0
LINE
  5
2B5
330
5A
100
AcDbEntity
  8
1
  6
Continuous
 62
     7
100
AcDbLine
 10
158.7770886479063
 20
243.8680932269709
 30
0.0
 11
182.2770886479063
 21
243.8680932269709
 31
0.0
  0
LINE
  5
2B6
330
5A
100
AcDbEntity
  8
1
  6
Continuous
 62
     7
100
AcDbLine
 10
182.2770886479063
 20
258.668093226971
 30
0.0
 11
182.0770886479061
 21
258.8680932269709
 31
0.0
  0
LINE
  5
2B7
330
5A
100
AcDbEntity
  8
1
  6
Continuous
 62
     7
100
AcDbLine
 10
373.1950248645555
 20
258.668093226971
 30
0.0
 11
372.9950248645555
 21
258.8680932269709
 31
0.0
  0
LINE
  5
2B8
330
5A
100
AcDbEntity
  8
1
  6
Continuous
 62
     7
100
AcDbLine
 10
349.6950248645555
 20
243.8680932269709
 30
0.0
 11
373.1950248645555
 21
243.8680932269709
 31
0.0
  0
LINE
  5
2B9
330
5A
100
AcDbEntity
  8
1
  6
Continuous
 62
     7
100
AcDbLine
 10
349.6950248645555
 20
243.8680932269709
 30
0.0
 11
349.6950248645555
 21
258.668093226971
 31
0.0
  0
LINE
  5
2BA
330
5A
100
AcDbEntity
  8
1
  6
Continuous
 62
     7
100
AcDbLine
 10
372.0950248645556
 20
241.868093226971
 30
0.0
 11
350.7950248645554
 21
241.8680932269709
 31
0.0
  0
LINE
  5
2BB
330
5A
100
AcDbEntity
  8
1
  6
Continuous
 62
     7
100
AcDbLine
 10
373.1950248645555
 20
258.668093226971
 30
0.0
 11
373.1950248645555
 21
243.8680932269709
 31
0.0
  0
LINE
  5
2BC
330
5A
100
AcDbEntity
  8
1
  6
Continuous
 62
     7
100
AcDbLine
 10
349.8950248645556
 20
258.8680932269709
 30
0.0
 11
372.9950248645555
 21
258.8680932269709
 31
0.0
  0
LINE
  5
2BD
330
5A
100
AcDbEntity
  8
1
  6
PHANTOM
 62
     4
100
AcDbLine
 10
361.4450248645555
 20
261.8680932269709
 30
0.0
 11
361.4450248645555
 21
240.3680932269709
 31
0.0
  0
LINE
  5
2BE
330
5A
100
AcDbEntity
  8
1
  6
Continuous
 62
     7
100
AcDbLine
 10
349.6950248645555
 20
258.668093226971
 30
0.0
 11
349.8950248645556
 21
258.8680932269709
 31
0.0
  0
LINE
  5
2BF
330
5A
100
AcDbEntity
  8
1
  6
Continuous
 62
     7
100
AcDbLine
 10
349.6950248645555
 20
258.668093226971
 30
0.0
 11
373.1950248645555
 21
258.668093226971
 31
0.0
  0
ARC
  5
2C0
330
5A
100
AcDbEntity
  8
1
  6
Continuous
 62
     7
100
AcDbCircle
 10
173.3108329807458
 20
250.5591526100327
 30
0.0
 40
16.0000000000001
100
AcDbArc
 50
204.7204436720412
 51
212.9011438139054
  0
ARC
  5
2C1
330
5A
100
AcDbEntity
  8
1
  6
Continuous
 62
     7
100
AcDbCircle
 10
167.7433443150667
 20
250.5591526100327
 30
0.0
 40
16.00000000000006
100
AcDbArc
 50
327.098856186095
 51
335.279556327959
  0
ARC
  5
2C2
330
5A
100
AcDbEntity
  8
1
  6
Continuous
 62
     7
100
AcDbCircle
 10
358.6612805317161
 20
250.5591526100327
 30
0.0
 40
16.00000000000008
100
AcDbArc
 50
327.098856186095
 51
335.2795563279586
  0
ARC
  5
2C3
330
5A
100
AcDbEntity
  8
1
  6
Continuous
 62
     7
100
AcDbCircle
 10
364.228769197395
 20
250.5591526100327
 30
0.0
 40
16.00000000000015
100
AcDbArc
 50
204.7204436720411
 51
212.9011438139052
  0
ARC
  5
2C4
330
5A
100
AcDbEntity
  8
1
  6
Continuous
 62
     7
100
AcDbCircle
 10
170.5270886479063
 20
556.8680932269707
 30
0.0
 40
11.54999999999998
100
AcDbArc
 50
0.0
 51
52.6947990342151
  0
ARC
  5
2C5
330
5A
100
AcDbEntity
  8
1
  6
Continuous
 62
     7
100
AcDbCircle
 10
170.5270886479063
 20
556.8680932269707
 30
0.0
 40
11.54999999999987
100
AcDbArc
 50
127.3052009657838
 51
0.0
  0
ARC
  5
2C6
330
5A
100
AcDbEntity
  8
1
  6
Continuous
 62
     7
100
AcDbCircle
 10
170.5270886479063
 20
556.8680932269707
 30
0.0
 40
11.74999999999979
100
AcDbArc
 50
126.5657369321824
 51
0.0
  0
ARC
  5
2C7
330
5A
100
AcDbEntity
  8
1
  6
Continuous
 62
     7
100
AcDbCircle
 10
170.5270886479063
 20
556.8680932269707
 30
0.0
 40
11.75
100
AcDbArc
 50
0.0
 51
53.43426306781646
  0
ENDBLK
  5
5C
330
5A
100
AcDbEntity
  8
0
100
AcDbBlockEnd
  0
BLOCK
  5
5E
330
5D
100
AcDbEntity
  8
0
100
AcDbBlockBegin
  2
開示A4
 70
     0
 10
0.0
 20
0.0
 30
0.0
  3
開示A4
  1

  0
POINT
  5
2C8
330
5D
100
AcDbEntity
  8
1
 62
     4
100
AcDbPoint
 10
93.75
 20
17.0
 30
0.0
  0
POINT
  5
2C9
330
5D
100
AcDbEntity
  8
1
 62
     4
100
AcDbPoint
 10
85.25
 20
17.0
 30
0.0
  0
POINT
  5
2CA
330
5D
100
AcDbEntity
  8
1
 62
     4
100
AcDbPoint
 10
106.5
 20
19.00000000000001
 30
0.0
  0
POINT
  5
2CB
330
5D
100
AcDbEntity
  8
1
 62
     4
100
AcDbPoint
 10
106.5
 20
12.5
 30
0.0
  0
POINT
  5
2CC
330
5D
100
AcDbEntity
  8
1
 62
     4
100
AcDbPoint
 10
112.25
 20
12.5
 30
0.0
  0
POINT
  5
2CD
330
5D
100
AcDbEntity
  8
1
 62
     4
100
AcDbPoint
 10
100.75
 20
12.5
 30
0.0
  0
POINT
  5
2CE
330
5D
100
AcDbEntity
  8
1
 62
     4
100
AcDbPoint
 10
123.5
 20
19.00000000000001
 30
0.0
  0
POINT
  5
2CF
330
5D
100
AcDbEntity
  8
1
 62
     4
100
AcDbPoint
 10
123.5
 20
12.5
 30
0.0
  0
POINT
  5
2D0
330
5D
100
AcDbEntity
  8
1
 62
     4
100
AcDbPoint
 10
129.25
 20
12.5
 30
0.0
  0
POINT
  5
2D1
330
5D
100
AcDbEntity
  8
1
 62
     4
100
AcDbPoint
 10
117.75
 20
12.5
 30
0.0
  0
POINT
  5
2D2
330
5D
100
AcDbEntity
  8
1
 62
     4
100
AcDbPoint
 10
140.5
 20
19.00000000000001
 30
0.0
  0
POINT
  5
2D3
330
5D
100
AcDbEntity
  8
1
 62
     4
100
AcDbPoint
 10
140.5
 20
12.5
 30
0.0
  0
POINT
  5
2D4
330
5D
100
AcDbEntity
  8
1
 62
     4
100
AcDbPoint
 10
146.25
 20
12.5
 30
0.0
  0
POINT
  5
2D5
330
5D
100
AcDbEntity
  8
1
 62
     4
100
AcDbPoint
 10
151.75
 20
12.5
 30
0.0
  0
POINT
  5
2D6
330
5D
100
AcDbEntity
  8
1
 62
     4
100
AcDbPoint
 10
163.25
 20
12.5
 30
0.0
  0
POINT
  5
2D7
330
5D
100
AcDbEntity
  8
1
 62
     4
100
AcDbPoint
 10
157.5
 20
12.5
 30
0.0
  0
POINT
  5
2D8
330
5D
100
AcDbEntity
  8
1
 62
     4
100
AcDbPoint
 10
57.0
 20
14.25
 30
0.0
  0
POINT
  5
2D9
330
5D
100
AcDbEntity
  8
1
 62
     4
100
AcDbPoint
 10
57.0
 20
22.75000000000001
 30
0.0
  0
POINT
  5
2DA
330
5D
100
AcDbEntity
  8
1
 62
     4
100
AcDbPoint
 10
47.5
 20
282.0000000000003
 30
0.0
  0
POINT
  5
2DB
330
5D
100
AcDbEntity
  8
1
 62
     4
100
AcDbPoint
 10
157.5
 20
19.00000000000001
 30
0.0
  0
POINT
  5
2DC
330
5D
100
AcDbEntity
  8
1
 62
     4
100
AcDbPoint
 10
57.0
 20
16.25
 30
0.0
  0
POINT
  5
2DD
330
5D
100
AcDbEntity
  8
1
 62
     4
100
AcDbPoint
 10
57.0
 20
24.75000000000001
 30
0.0
  0
POINT
  5
2DE
330
5D
100
AcDbEntity
  8
1
 62
     4
100
AcDbPoint
 10
57.0
 20
20.75000000000001
 30
0.0
  0
POINT
  5
2DF
330
5D
100
AcDbEntity
  8
1
 62
     4
100
AcDbPoint
 10
57.0
 20
12.25
 30
0.0
  0
POINT
  5
2E0
330
5D
100
AcDbEntity
  8
1
 62
     4
100
AcDbPoint
 10
34.0
 20
34.00000000000001
 30
0.0
  0
POINT
  5
2E1
330
5D
100
AcDbEntity
  8
1
 62
     4
100
AcDbPoint
 10
134.75
 20
12.5
 30
0.0
  0
LINE
  5
2E2
330
5D
100
AcDbEntity
  8
1
  6
Continuous
 62
     7
100
AcDbLine
 10
105.0
 20
10.0
 30
0.0
 11
200.0
 21
10.0
 31
0.0
  0
LINE
  5
2E3
330
5D
100
AcDbEntity
  8
1
  6
Continuous
 62
     2
100
AcDbLine
 10
105.0
 20
10.0
 30
0.0
 11
105.0
 21
5.0
 31
0.0
  0
LINE
  5
2E4
330
5D
100
AcDbEntity
  8
1
  6
Continuous
 62
     7
100
AcDbLine
 10
200.0
 20
148.5
 30
0.0
 11
200.0
 21
287.0000000000003
 31
0.0
  0
LINE
  5
2E5
330
5D
100
AcDbEntity
  8
1
  6
Continuous
 62
     2
100
AcDbLine
 10
200.0
 20
148.5
 30
0.0
 11
205.0
 21
148.5
 31
0.0
  0
LINE
  5
2E6
330
5D
100
AcDbEntity
  8
1
  6
Continuous
 62
     7
100
AcDbLine
 10
25.0
 20
148.5
 30
0.0
 11
25.0
 21
287.0000000000003
 31
0.0
  0
LINE
  5
2E7
330
5D
100
AcDbEntity
  8
1
  6
Continuous
 62
     2
100
AcDbLine
 10
25.0
 20
148.5
 30
0.0
 11
20.0
 21
148.5
 31
0.0
  0
LINE
  5
2E8
330
5D
100
AcDbEntity
  8
1
  6
Continuous
 62
     7
100
AcDbLine
 10
105.0
 20
287.0000000000003
 30
0.0
 11
25.0
 21
287.0000000000003
 31
0.0
  0
LINE
  5
2E9
330
5D
100
AcDbEntity
  8
1
  6
Continuous
 62
     2
100
AcDbLine
 10
105.0
 20
287.0000000000003
 30
0.0
 11
105.0
 21
292.0000000000003
 31
0.0
  0
LINE
  5
2EA
330
5D
100
AcDbEntity
  8
1
  6
Continuous
 62
     2
100
AcDbLine
 10
166.0
 20
20.00000000000001
 30
0.0
 11
200.0
 21
20.00000000000001
 31
0.0
  0
LINE
  5
2EB
330
5D
100
AcDbEntity
  8
1
  6
Continuous
 62
     2
100
AcDbLine
 10
98.0
 20
27.00000000000001
 30
0.0
 11
98.0
 21
9.99999999999999
 31
0.0
  0
LINE
  5
2EC
330
5D
100
AcDbEntity
  8
1
  6
Continuous
 62
     2
100
AcDbLine
 10
115.0
 20
27.00000000000001
 30
0.0
 11
115.0
 21
9.99999999999999
 31
0.0
  0
LINE
  5
2ED
330
5D
100
AcDbEntity
  8
1
  6
Continuous
 62
     2
100
AcDbLine
 10
149.0
 20
27.00000000000001
 30
0.0
 11
149.0
 21
10.0
 31
0.0
  0
LINE
  5
2EE
330
5D
100
AcDbEntity
  8
1
  6
Continuous
 62
     2
100
AcDbLine
 10
132.0
 20
27.00000000000001
 30
0.0
 11
132.0
 21
9.99999999999999
 31
0.0
  0
LINE
  5
2EF
330
5D
100
AcDbEntity
  8
1
  6
Continuous
 62
     2
100
AcDbLine
 10
166.0
 20
27.00000000000001
 30
0.0
 11
166.0
 21
10.0
 31
0.0
  0
LINE
  5
2F0
330
5D
100
AcDbEntity
  8
1
  6
Continuous
 62
     2
100
AcDbLine
 10
55.0
 20
277.0000000000003
 30
0.0
 11
25.0
 21
277.0000000000003
 31
0.0
  0
LINE
  5
2F1
330
5D
100
AcDbEntity
  8
1
  6
Continuous
 62
     7
100
AcDbLine
 10
25.0
 20
10.0
 30
0.0
 11
25.0
 21
148.5
 31
0.0
  0
LINE
  5
2F2
330
5D
100
AcDbEntity
  8
1
  6
Continuous
 62
     2
100
AcDbLine
 10
40.0
 20
287.0000000000003
 30
0.0
 11
40.0
 21
277.0000000000003
 31
0.0
  0
LINE
  5
2F3
330
5D
100
AcDbEntity
  8
1
  6
Continuous
 62
     2
100
AcDbLine
 10
55.0
 20
287.0000000000003
 30
0.0
 11
55.0
 21
277.0000000000003
 31
0.0
  0
LINE
  5
2F4
330
5D
100
AcDbEntity
  8
1
  6
Continuous
 62
     2
100
AcDbLine
 10
33.0
 20
41.00000000000001
 30
0.0
 11
33.0
 21
27.0
 31
0.0
  0
LINE
  5
2F5
330
5D
100
AcDbEntity
  8
1
  6
Continuous
 62
     7
100
AcDbLine
 10
200.0
 20
27.00000000000001
 30
0.0
 11
25.0
 21
27.00000000000001
 31
0.0
  0
LINE
  5
2F6
330
5D
100
AcDbEntity
  8
1
  6
Continuous
 62
     7
100
AcDbLine
 10
25.0
 20
41.0
 30
0.0
 11
200.0
 21
41.0
 31
0.0
  0
LINE
  5
2F7
330
5D
100
AcDbEntity
  8
1
  6
PHANTOM
 62
     4
100
AcDbLine
 10
0.0
 20
0.0
 30
0.0
 11
210.0
 21
0.0
 31
0.0
  0
LINE
  5
2F8
330
5D
100
AcDbEntity
  8
1
  6
PHANTOM
 62
     4
100
AcDbLine
 10
210.0
 20
0.0
 30
0.0
 11
210.0
 21
297.0
 31
0.0
  0
LINE
  5
2F9
330
5D
100
AcDbEntity
  8
1
  6
PHANTOM
 62
     4
100
AcDbLine
 10
210.0
 20
297.0
 30
0.0
 11
0.0
 21
297.0
 31
0.0
  0
LINE
  5
2FA
330
5D
100
AcDbEntity
  8
1
  6
PHANTOM
 62
     4
100
AcDbLine
 10
0.0
 20
297.0
 30
0.0
 11
0.0
 21
0.0
 31
0.0
  0
LINE
  5
2FB
330
5D
100
AcDbEntity
  8
1
  6
Continuous
 62
     7
100
AcDbLine
 10
25.0
 20
10.0
 30
0.0
 11
105.0
 21
10.0
 31
0.0
  0
LINE
  5
2FC
330
5D
100
AcDbEntity
  8
1
  6
Continuous
 62
     7
100
AcDbLine
 10
200.0
 20
10.0
 30
0.0
 11
200.0
 21
148.5
 31
0.0
  0
LINE
  5
2FD
330
5D
100
AcDbEntity
  8
1
  6
Continuous
 62
     7
100
AcDbLine
 10
200.0
 20
287.0000000000003
 30
0.0
 11
105.0
 21
287.0000000000003
 31
0.0
  0
LINE
  5
2FE
330
5D
100
AcDbEntity
  8
1
  6
Continuous
 62
     2
100
AcDbLine
 10
25.0
 20
18.50000000000001
 30
0.0
 11
81.0
 21
18.50000000000001
 31
0.0
  0
LINE
  5
2FF
330
5D
100
AcDbEntity
  8
1
  6
Continuous
 62
     2
100
AcDbLine
 10
33.0
 20
27.0
 30
0.0
 11
33.0
 21
10.0
 31
0.0
  0
LINE
  5
300
330
5D
100
AcDbEntity
  8
1
  6
Continuous
 62
     7
100
AcDbLine
 10
191.0
 20
24.70000000000001
 30
0.0
 11
191.0
 21
22.30000000000001
 31
0.0
  0
LINE
  5
301
330
5D
100
AcDbEntity
  8
1
  6
Continuous
 62
     7
100
AcDbLine
 10
191.0
 20
24.70000000000001
 30
0.0
 11
196.0
 21
25.50000000000001
 31
0.0
  0
LINE
  5
302
330
5D
100
AcDbEntity
  8
1
  6
Continuous
 62
     7
100
AcDbLine
 10
196.0
 20
25.50000000000001
 30
0.0
 11
196.0
 21
21.50000000000001
 31
0.0
  0
LINE
  5
303
330
5D
100
AcDbEntity
  8
1
  6
Continuous
 62
     7
100
AcDbLine
 10
196.0
 20
21.50000000000001
 30
0.0
 11
191.0
 21
22.30000000000001
 31
0.0
  0
LINE
  5
304
330
5D
100
AcDbEntity
  8
1
  6
DOT_CENTER
 62
     2
100
AcDbLine
 10
184.0
 20
23.50000000000001
 30
0.0
 11
197.0
 21
23.50000000000001
 31
0.0
  0
LINE
  5
305
330
5D
100
AcDbEntity
  8
1
  6
DOT_CENTER
 62
     2
100
AcDbLine
 10
187.0
 20
26.50000000000001
 30
0.0
 11
187.0
 21
20.50000000000001
 31
0.0
  0
LINE
  5
306
330
5D
100
AcDbEntity
  8
1
  6
Continuous
 62
     2
100
AcDbLine
 10
81.0
 20
27.00000000000001
 30
0.0
 11
81.0
 21
10.0
 31
0.0
  0
CIRCLE
  5
307
330
5D
100
AcDbEntity
  8
1
  6
Continuous
 62
     7
100
AcDbCircle
 10
103.5
 20
12.5
 30
0.0
 40
0.2999999999999972
  0
CIRCLE
  5
308
330
5D
100
AcDbEntity
  8
1
  6
Continuous
 62
     7
100
AcDbCircle
 10
109.5
 20
12.5
 30
0.0
 40
0.2999999999999972
  0
CIRCLE
  5
309
330
5D
100
AcDbEntity
  8
1
  6
Continuous
 62
     7
100
AcDbCircle
 10
120.5
 20
12.5
 30
0.0
 40
0.2999999999999972
  0
CIRCLE
  5
30A
330
5D
100
AcDbEntity
  8
1
  6
Continuous
 62
     7
100
AcDbCircle
 10
126.5
 20
12.5
 30
0.0
 40
0.2999999999999972
  0
CIRCLE
  5
30B
330
5D
100
AcDbEntity
  8
1
  6
Continuous
 62
     7
100
AcDbCircle
 10
137.5
 20
12.5
 30
0.0
 40
0.3000000000000114
  0
CIRCLE
  5
30C
330
5D
100
AcDbEntity
  8
1
  6
Continuous
 62
     7
100
AcDbCircle
 10
143.5
 20
12.5
 30
0.0
 40
0.3000000000000114
  0
CIRCLE
  5
30D
330
5D
100
AcDbEntity
  8
1
  6
Continuous
 62
     7
100
AcDbCircle
 10
160.5
 20
12.5
 30
0.0
 40
0.3000000000000114
  0
CIRCLE
  5
30E
330
5D
100
AcDbEntity
  8
1
  6
Continuous
 62
     7
100
AcDbCircle
 10
154.5
 20
12.5
 30
0.0
 40
0.3000000000000114
  0
CIRCLE
  5
30F
330
5D
100
AcDbEntity
  8
1
  6
Continuous
 62
     7
100
AcDbCircle
 10
187.0
 20
23.50000000000001
 30
0.0
 40
1.200000000000102
  0
CIRCLE
  5
310
330
5D
100
AcDbEntity
  8
1
  6
Continuous
 62
     7
100
AcDbCircle
 10
187.0
 20
23.50000000000001
 30
0.0
 40
2.0
  0
CIRCLE
  5
311
330
5D
100
AcDbEntity
  8
1
  6
DOT_CENTER
 62
     7
100
AcDbCircle
 10
89.5
 20
16.0
 30
0.0
 40
0.1000000000000227
  0
CIRCLE
  5
312
330
5D
100
AcDbEntity
  8
1
  6
DOT_CENTER
 62
     7
100
AcDbCircle
 10
89.5
 20
18.0
 30
0.0
 40
0.1000000000000227
  0
MTEXT
  5
314
330
5D
100
AcDbEntity
  8
1
 62
     7
100
AcDbMText
 10
188.5
 20
15.0
 30
0.0
 40
3.0
 41
0.0
 71
     5
 72
     1
  1
三栄水栓製作所
  7
CONVERTER_11
 73
     1
 44
1.0
  0
MTEXT
  5
315
330
5D
100
AcDbEntity
  8
1
 62
     7
100
AcDbMText
 10
171.5
 20
15.0
 30
0.0
 40
2.5
 41
0.0
 71
     5
 72
     1
  1
株式会社
  7
CONVERTER_11
 73
     1
 44
1.0
  0
MTEXT
  5
316
330
5D
100
AcDbEntity
  8
1
 62
     2
100
AcDbMText
 10
32.5
 20
282.0000000000003
 30
0.0
 40
5.0
 41
0.0
 71
     5
 72
     1
  1
図番
  7
CONVERTER_11
 73
     1
 44
0.45454545454545
  0
MTEXT
  5
317
330
5D
100
AcDbEntity
  8
1
 62
     2
100
AcDbMText
 10
29.0
 20
34.00000000000001
 30
0.0
 40
3.5
 41
0.0
 71
     5
 72
     1
  1
備考
  7
CONVERTER_11
 73
     1
 44
0.45454545454545
  0
MTEXT
  5
318
330
5D
100
AcDbEntity
  8
1
 62
     2
100
AcDbMText
 10
29.0
 20
22.75
 30
0.0
 40
3.5
 41
0.0
 71
     5
 72
     1
  1
品名
  7
CONVERTER_11
 73
     1
 44
0.72727272727273
  0
MTEXT
  5
319
330
5D
100
AcDbEntity
  8
1
 62
     2
100
AcDbMText
 10
29.0
 20
14.25
 30
0.0
 40
3.5
 41
0.0
 71
     5
 72
     1
  1
品番
  7
CONVERTER_11
 73
     1
 44
0.72727272727273
  0
MTEXT
  5
31A
330
5D
100
AcDbEntity
  8
1
 62
     2
100
AcDbMText
 10
101.5
 20
25.00000000000001
 30
0.0
 40
3.0
 41
0.0
 71
     5
 72
     1
  1
承認
  7
CONVERTER_11
 73
     1
 44
0.59090909090909
  0
MTEXT
  5
31B
330
5D
100
AcDbEntity
  8
1
 62
     2
100
AcDbMText
 10
175.0
 20
23.50000000000001
 30
0.0
 40
3.5
 41
0.0
 71
     5
 72
     1
  1
第三角法
  7
CONVERTER_11
 73
     1
 44
0.54545454545455
  0
MTEXT
  5
31C
330
5D
100
AcDbEntity
  8
1
 62
     2
100
AcDbMText
 10
118.5
 20
25.00000000000001
 30
0.0
 40
3.0
 41
0.0
 71
     5
 72
     1
  1
検図
  7
CONVERTER_11
 73
     1
 44
0.59090909090909
  0
MTEXT
  5
31D
330
5D
100
AcDbEntity
  8
1
 62
     2
100
AcDbMText
 10
152.5
 20
25.00000000000001
 30
0.0
 40
3.0
 41
0.0
 71
     5
 72
     1
  1
設計
  7
CONVERTER_11
 73
     1
 44
0.59090909090909
  0
MTEXT
  5
31E
330
5D
100
AcDbEntity
  8
1
 62
     2
100
AcDbMText
 10
135.5
 20
25.00000000000001
 30
0.0
 40
3.0
 41
0.0
 71
     5
 72
     1
  1
製図
  7
CONVERTER_11
 73
     1
 44
0.59090909090909
  0
MTEXT
  5
31F
330
5D
100
AcDbEntity
  8
1
 62
     2
100
AcDbMText
 10
89.5
 20
24.00000000000001
 30
0.0
 40
3.5
 41
0.0
 71
     5
 72
     1
  1
尺度
  7
CONVERTER_11
 73
     1
 44
0.54545454545455
  0
MTEXT
  5
320
330
5D
100
AcDbEntity
  8
1
 62
   250
100
AcDbMText
 10
25.0
 20
5.0
 30
0.0
 40
3.5
 41
0.0
 71
     4
 72
     1
  1
備考欄の文字列 原点位置=4
  7
CONVERTER_11
 73
     1
 44
0.54545454545455
  0
ENDBLK
  5
5F
330
5D
100
AcDbEntity
  8
0
100
AcDbBlockEnd
  0
BLOCK
  5
61
330
60
100
AcDbEntity
  8
0
100
AcDbBlockBegin
  2
A20-0-13
 70
     0
 10
508.8047027852473
 20
165.3340216843292
 30
0.0
  3
A20-0-13
  1

  0
LINE
  5
321
330
60
100
AcDbEntity
  8
1
  6
Continuous
 62
     7
100
AcDbLine
 10
178.5270886479057
 20
273.8650099760298
 30
0.0
 11
189.6960837396254
 21
274.6578757947775
 31
0.0
  0
LINE
  5
322
330
60
100
AcDbEntity
  8
1
  6
Continuous
 62
     7
100
AcDbLine
 10
163.5270886479057
 20
310.868093226971
 30
0.0
 11
157.5270886479058
 21
310.8680932269711
 31
0.0
  0
LINE
  5
323
330
60
100
AcDbEntity
  8
1
  6
Continuous
 62
     7
100
AcDbLine
 10
599.5758320810526
 20
296.1180932269708
 30
0.0
 11
597.9450248645558
 21
296.1180932269708
 31
0.0
  0
LINE
  5
324
330
60
100
AcDbEntity
  8
1
  6
Continuous
 62
     7
100
AcDbLine
 10
192.5270886479058
 20
299.3680932269707
 30
0.0
 11
195.9567799360908
 21
299.3680932269707
 31
0.0
  0
LINE
  5
325
330
60
100
AcDbEntity
  8
1
  6
Continuous
 62
     2
100
AcDbLine
 10
619.6770756721247
 20
277.8680932269708
 30
0.0
 11
617.9450248645558
 21
276.8680932269708
 31
0.0
  0
LINE
  5
326
330
60
100
AcDbEntity
  8
1
  6
Continuous
 62
     7
100
AcDbLine
 10
617.9450248645558
 20
276.8680932269708
 30
0.0
 11
617.9450248645558
 21
264.3680932269708
 31
0.0
  0
LINE
  5
327
330
60
100
AcDbEntity
  8
1
  6
Continuous
 62
     7
100
AcDbLine
 10
615.9450248645558
 20
264.3680932269708
 30
0.0
 11
617.9450248645558
 21
264.3680932269708
 31
0.0
  0
LINE
  5
328
330
60
100
AcDbEntity
  8
1
  6
Continuous
 62
     7
100
AcDbLine
 10
615.4450248645558
 20
264.8680932269708
 30
0.0
 11
615.4450248645558
 21
274.6180932269708
 31
0.0
  0
LINE
  5
329
330
60
100
AcDbEntity
  8
1
  6
Continuous
 62
     2
100
AcDbLine
 10
631.9450248645558
 20
277.8680932269708
 30
0.0
 11
630.9450248645558
 21
277.8680932269708
 31
0.0
  0
LINE
  5
32A
330
60
100
AcDbEntity
  8
1
  6
Continuous
 62
     7
100
AcDbLine
 10
611.4450248645558
 20
278.6180932269708
 30
0.0
 11
601.2049059160452
 21
278.6180932269708
 31
0.0
  0
LINE
  5
32B
330
60
100
AcDbEntity
  8
1
  6
Continuous
 62
     7
100
AcDbLine
 10
617.9450248645558
 20
310.3680932269708
 30
0.0
 11
615.9450248645558
 21
310.3680932269708
 31
0.0
  0
LINE
  5
32C
330
60
100
AcDbEntity
  8
1
  6
Continuous
 62
     7
100
AcDbLine
 10
617.9450248645558
 20
310.3680932269708
 30
0.0
 11
617.9450248645558
 21
276.8680932269708
 31
0.0
  0
LINE
  5
32D
330
60
100
AcDbEntity
  8
1
  6
Continuous
 62
     2
100
AcDbLine
 10
617.9450248645558
 20
297.8680932269708
 30
0.0
 11
619.6770756721247
 21
296.8680932269708
 31
0.0
  0
LINE
  5
32E
330
60
100
AcDbEntity
  8
1
  6
Continuous
 62
     2
100
AcDbLine
 10
619.6770756721247
 20
296.8680932269708
 30
0.0
 11
630.9450248645558
 21
296.8680932269708
 31
0.0
  0
LINE
  5
32F
330
60
100
AcDbEntity
  8
1
  6
Continuous
 62
     7
100
AcDbLine
 10
611.4450248645558
 20
296.1180932269708
 30
0.0
 11
599.5758320810526
 21
296.1180932269708
 31
0.0
  0
LINE
  5
330
330
60
100
AcDbEntity
  8
1
  6
Continuous
 62
     7
100
AcDbLine
 10
615.4450248645558
 20
274.6180932269708
 30
0.0
 11
615.4450248645558
 21
309.8680932269708
 31
0.0
  0
LINE
  5
331
330
60
100
AcDbEntity
  8
1
  6
Continuous
 62
     7
100
AcDbLine
 10
631.9450248645558
 20
293.3680932269708
 30
0.0
 11
631.9450248645558
 21
296.8680932269708
 31
0.0
  0
LINE
  5
332
330
60
100
AcDbEntity
  8
1
  6
Continuous
 62
     7
100
AcDbLine
 10
631.9450248645558
 20
281.3680932269708
 30
0.0
 11
631.9450248645558
 21
277.8680932269708
 31
0.0
  0
LINE
  5
333
330
60
100
AcDbEntity
  8
1
  6
Continuous
 62
     7
100
AcDbLine
 10
585.9450248645558
 20
309.1360424194019
 30
0.0
 11
585.9450248645558
 21
308.1180932269708
 31
0.0
  0
LINE
  5
334
330
60
100
AcDbEntity
  8
1
  6
Continuous
 62
     7
100
AcDbLine
 10
183.5270886479058
 20
309.1360424194018
 30
0.0
 11
183.5270886479058
 21
308.1180932269707
 31
0.0
  0
LINE
  5
335
330
60
100
AcDbEntity
  8
1
  6
Continuous
 62
     7
100
AcDbLine
 10
157.5270886479058
 20
312.3680932269707
 30
0.0
 11
157.5270886479058
 21
306.341759187981
 31
0.0
  0
LINE
  5
336
330
60
100
AcDbEntity
  8
1
  6
Continuous
 62
     7
100
AcDbLine
 10
192.5270886479058
 20
299.8773429797936
 30
0.0
 11
189.6960837396254
 21
300.078310659164
 31
0.0
  0
LINE
  5
337
330
60
100
AcDbEntity
  8
1
  6
Continuous
 62
     7
100
AcDbLine
 10
192.5270886479058
 20
275.3680932269707
 30
0.0
 11
192.5270886479058
 21
299.8773429797936
 31
0.0
  0
LINE
  5
338
330
60
100
AcDbEntity
  8
1
  6
Continuous
 62
     7
100
AcDbLine
 10
192.5270886479058
 20
274.8588434741478
 30
0.0
 11
192.5270886479058
 21
275.3680932269707
 31
0.0
  0
LINE
  5
339
330
60
100
AcDbEntity
  8
1
  6
Continuous
 62
     7
100
AcDbLine
 10
183.5270886479058
 20
308.1180932269707
 30
0.0
 11
183.5270886479058
 21
306.341759187981
 31
0.0
  0
LINE
  5
33A
330
60
100
AcDbEntity
  8
1
  6
Continuous
 62
     7
100
AcDbLine
 10
189.6960837396254
 20
274.6578757947775
 30
0.0
 11
192.5270886479058
 21
274.8588434741478
 31
0.0
  0
LINE
  5
33B
330
60
100
AcDbEntity
  8
1
  6
Continuous
 62
     7
100
AcDbLine
 10
189.6960837396254
 20
300.078310659164
 30
0.0
 11
189.1022291602141
 21
300.1204672715947
 31
0.0
  0
LINE
  5
33C
330
60
100
AcDbEntity
  8
1
  6
Continuous
 62
     7
100
AcDbLine
 10
157.5270886479058
 20
306.341759187981
 30
0.0
 11
157.5270886479058
 21
287.3680932269707
 31
0.0
  0
LINE
  5
33D
330
60
100
AcDbEntity
  8
1
  6
Continuous
 62
     7
100
AcDbLine
 10
183.5270886479058
 20
306.341759187981
 30
0.0
 11
183.5270886479058
 21
306.1054062366735
 31
0.0
  0
LINE
  5
33E
330
60
100
AcDbEntity
  8
1
  6
Continuous
 62
     7
100
AcDbLine
 10
192.5270886479058
 20
275.3680932269707
 30
0.0
 11
195.9567799360908
 21
275.3680932269706
 31
0.0
  0
LINE
  5
33F
330
60
100
AcDbEntity
  8
1
  6
Continuous
 62
     7
100
AcDbLine
 10
559.9450248645558
 20
312.3680932269709
 30
0.0
 11
559.9450248645558
 21
296.6954722800596
 31
0.0
  0
LINE
  5
340
330
60
100
AcDbEntity
  8
1
  6
Continuous
 62
     7
100
AcDbLine
 10
585.9450248645558
 20
309.1360424194019
 30
0.0
 11
585.9450248645558
 21
312.3680932269709
 31
0.0
  0
LINE
  5
341
330
60
100
AcDbEntity
  8
1
  6
Continuous
 62
     7
100
AcDbLine
 10
631.9450248645558
 20
287.3680932269708
 30
0.0
 11
631.9450248645558
 21
293.3680932269708
 31
0.0
  0
LINE
  5
342
330
60
100
AcDbEntity
  8
1
  6
Continuous
 62
     7
100
AcDbLine
 10
631.9450248645558
 20
287.3680932269708
 30
0.0
 11
631.9450248645558
 21
281.3680932269708
 31
0.0
  0
LINE
  5
343
330
60
100
AcDbEntity
  8
1
  6
Continuous
 62
     7
100
AcDbLine
 10
630.9450248645558
 20
276.8680932269708
 30
0.0
 11
631.9450248645558
 21
277.8680932269708
 31
0.0
  0
LINE
  5
344
330
60
100
AcDbEntity
  8
1
  6
Continuous
 62
     7
100
AcDbLine
 10
630.9450248645558
 20
276.8680932269708
 30
0.0
 11
619.6770756721247
 21
276.8680932269708
 31
0.0
  0
LINE
  5
345
330
60
100
AcDbEntity
  8
1
  6
Continuous
 62
     7
100
AcDbLine
 10
619.6770756721247
 20
297.8680932269708
 30
0.0
 11
630.9450248645558
 21
297.8680932269708
 31
0.0
  0
LINE
  5
346
330
60
100
AcDbEntity
  8
1
  6
Continuous
 62
     7
100
AcDbLine
 10
619.6770756721247
 20
277.8680932269708
 30
0.0
 11
619.6770756721247
 21
297.8680932269708
 31
0.0
  0
LINE
  5
347
330
60
100
AcDbEntity
  8
1
  6
Continuous
 62
     7
100
AcDbLine
 10
631.9450248645558
 20
296.8680932269708
 30
0.0
 11
630.9450248645558
 21
297.8680932269708
 31
0.0
  0
LINE
  5
348
330
60
100
AcDbEntity
  8
1
  6
Continuous
 62
     7
100
AcDbLine
 10
617.9450248645558
 20
297.8680932269708
 30
0.0
 11
619.6770756721247
 21
297.8680932269708
 31
0.0
  0
LINE
  5
349
330
60
100
AcDbEntity
  8
1
  6
Continuous
 62
     7
100
AcDbLine
 10
619.6770756721247
 20
276.8680932269708
 30
0.0
 11
617.9450248645558
 21
276.8680932269708
 31
0.0
  0
LINE
  5
34A
330
60
100
AcDbEntity
  8
1
  6
Continuous
 62
     7
100
AcDbLine
 10
619.6770756721247
 20
276.8680932269708
 30
0.0
 11
619.6770756721247
 21
277.8680932269708
 31
0.0
  0
LINE
  5
34B
330
60
100
AcDbEntity
  8
1
  6
Continuous
 62
     7
100
AcDbLine
 10
601.2049059160452
 20
278.6180932269708
 30
0.0
 11
599.2570699213832
 21
278.6180932269708
 31
0.0
  0
LINE
  5
34C
330
60
100
AcDbEntity
  8
1
  6
Continuous
 62
     7
100
AcDbLine
 10
630.9450248645558
 20
297.8680932269708
 30
0.0
 11
630.9450248645558
 21
277.8680932269708
 31
0.0
  0
LINE
  5
34D
330
60
100
AcDbEntity
  8
1
  6
Continuous
 62
     2
100
AcDbLine
 10
630.9450248645558
 20
296.8680932269708
 30
0.0
 11
631.9450248645558
 21
296.8680932269708
 31
0.0
  0
LINE
  5
34E
330
60
100
AcDbEntity
  8
1
  6
Continuous
 62
     7
100
AcDbLine
 10
630.9450248645558
 20
276.8680932269708
 30
0.0
 11
630.9450248645558
 21
277.8680932269708
 31
0.0
  0
LINE
  5
34F
330
60
100
AcDbEntity
  8
1
  6
Continuous
 62
     2
100
AcDbLine
 10
630.9450248645558
 20
277.8680932269708
 30
0.0
 11
619.6770756721247
 21
277.8680932269708
 31
0.0
  0
LINE
  5
350
330
60
100
AcDbEntity
  8
1
  6
Continuous
 62
     2
100
AcDbLine
 10
180.0270886479057
 20
815.1001440345395
 30
0.0
 11
181.0270886479057
 21
813.3680932269706
 31
0.0
  0
LINE
  5
351
330
60
100
AcDbEntity
  8
1
  6
Continuous
 62
     7
100
AcDbLine
 10
181.0270886479057
 20
813.3680932269706
 30
0.0
 11
193.5270886479057
 21
813.3680932269706
 31
0.0
  0
LINE
  5
352
330
60
100
AcDbEntity
  8
1
  6
Continuous
 62
     7
100
AcDbLine
 10
193.5270886479057
 20
811.3680932269706
 30
0.0
 11
193.5270886479057
 21
813.3680932269706
 31
0.0
  0
LINE
  5
353
330
60
100
AcDbEntity
  8
1
  6
Continuous
 62
     7
100
AcDbLine
 10
193.0270886479057
 20
810.8680932269706
 30
0.0
 11
183.2770886479057
 21
810.8680932269706
 31
0.0
  0
LINE
  5
354
330
60
100
AcDbEntity
  8
1
  6
Continuous
 62
     2
100
AcDbLine
 10
180.0270886479057
 20
827.3680932269706
 30
0.0
 11
180.0270886479057
 21
826.3680932269706
 31
0.0
  0
LINE
  5
355
330
60
100
AcDbEntity
  8
1
  6
Continuous
 62
     7
100
AcDbLine
 10
147.5270886479057
 20
813.3680932269706
 30
0.0
 11
147.5270886479057
 21
811.3680932269706
 31
0.0
  0
LINE
  5
356
330
60
100
AcDbEntity
  8
1
  6
Continuous
 62
     7
100
AcDbLine
 10
147.5270886479057
 20
813.3680932269706
 30
0.0
 11
181.0270886479057
 21
813.3680932269706
 31
0.0
  0
LINE
  5
357
330
60
100
AcDbEntity
  8
1
  6
Continuous
 62
     2
100
AcDbLine
 10
160.0270886479057
 20
813.3680932269706
 30
0.0
 11
161.0270886479057
 21
815.1001440345395
 31
0.0
  0
LINE
  5
358
330
60
100
AcDbEntity
  8
1
  6
Continuous
 62
     2
100
AcDbLine
 10
161.0270886479057
 20
815.1001440345395
 30
0.0
 11
161.0270886479057
 21
826.3680932269706
 31
0.0
  0
LINE
  5
359
330
60
100
AcDbEntity
  8
1
  6
Continuous
 62
     7
100
AcDbLine
 10
183.2770886479057
 20
810.8680932269706
 30
0.0
 11
148.0270886479057
 21
810.8680932269706
 31
0.0
  0
LINE
  5
35A
330
60
100
AcDbEntity
  8
1
  6
Continuous
 62
     7
100
AcDbLine
 10
164.5270886479057
 20
827.3680932269706
 30
0.0
 11
161.0270886479057
 21
827.3680932269706
 31
0.0
  0
LINE
  5
35B
330
60
100
AcDbEntity
  8
1
  6
Continuous
 62
     7
100
AcDbLine
 10
176.5270886479057
 20
827.3680932269706
 30
0.0
 11
180.0270886479057
 21
827.3680932269706
 31
0.0
  0
LINE
  5
35C
330
60
100
AcDbEntity
  8
1
  6
Continuous
 62
     7
100
AcDbLine
 10
170.5270886479057
 20
827.3680932269706
 30
0.0
 11
164.5270886479057
 21
827.3680932269706
 31
0.0
  0
LINE
  5
35D
330
60
100
AcDbEntity
  8
1
  6
Continuous
 62
     7
100
AcDbLine
 10
170.5270886479057
 20
827.3680932269706
 30
0.0
 11
176.5270886479057
 21
827.3680932269706
 31
0.0
  0
LINE
  5
35E
330
60
100
AcDbEntity
  8
1
  6
Continuous
 62
     7
100
AcDbLine
 10
181.0270886479057
 20
826.3680932269706
 30
0.0
 11
180.0270886479057
 21
827.3680932269706
 31
0.0
  0
LINE
  5
35F
330
60
100
AcDbEntity
  8
1
  6
Continuous
 62
     7
100
AcDbLine
 10
181.0270886479057
 20
826.3680932269706
 30
0.0
 11
181.0270886479057
 21
815.1001440345395
 31
0.0
  0
LINE
  5
360
330
60
100
AcDbEntity
  8
1
  6
Continuous
 62
     7
100
AcDbLine
 10
160.0270886479057
 20
815.1001440345395
 30
0.0
 11
160.0270886479057
 21
826.3680932269706
 31
0.0
  0
LINE
  5
361
330
60
100
AcDbEntity
  8
1
  6
Continuous
 62
     7
100
AcDbLine
 10
180.0270886479057
 20
815.1001440345395
 30
0.0
 11
160.0270886479057
 21
815.1001440345395
 31
0.0
  0
LINE
  5
362
330
60
100
AcDbEntity
  8
1
  6
Continuous
 62
     7
100
AcDbLine
 10
161.0270886479057
 20
827.3680932269706
 30
0.0
 11
160.0270886479057
 21
826.3680932269706
 31
0.0
  0
LINE
  5
363
330
60
100
AcDbEntity
  8
1
  6
Continuous
 62
     7
100
AcDbLine
 10
160.0270886479057
 20
813.3680932269706
 30
0.0
 11
160.0270886479057
 21
815.1001440345395
 31
0.0
  0
LINE
  5
364
330
60
100
AcDbEntity
  8
1
  6
Continuous
 62
     7
100
AcDbLine
 10
181.0270886479057
 20
815.1001440345395
 30
0.0
 11
181.0270886479057
 21
813.3680932269706
 31
0.0
  0
LINE
  5
365
330
60
100
AcDbEntity
  8
1
  6
Continuous
 62
     7
100
AcDbLine
 10
181.0270886479057
 20
815.1001440345395
 30
0.0
 11
180.0270886479057
 21
815.1001440345395
 31
0.0
  0
LINE
  5
366
330
60
100
AcDbEntity
  8
1
  6
Continuous
 62
     7
100
AcDbLine
 10
160.0270886479057
 20
826.3680932269706
 30
0.0
 11
180.0270886479057
 21
826.3680932269706
 31
0.0
  0
LINE
  5
367
330
60
100
AcDbEntity
  8
1
  6
Continuous
 62
     2
100
AcDbLine
 10
161.0270886479057
 20
826.3680932269706
 30
0.0
 11
161.0270886479057
 21
827.3680932269706
 31
0.0
  0
LINE
  5
368
330
60
100
AcDbEntity
  8
1
  6
Continuous
 62
     7
100
AcDbLine
 10
181.0270886479057
 20
826.3680932269706
 30
0.0
 11
180.0270886479057
 21
826.3680932269706
 31
0.0
  0
LINE
  5
369
330
60
100
AcDbEntity
  8
1
  6
Continuous
 62
     2
100
AcDbLine
 10
180.0270886479057
 20
826.3680932269706
 30
0.0
 11
180.0270886479057
 21
815.1001440345395
 31
0.0
  0
LINE
  5
36A
330
60
100
AcDbEntity
  8
1
  6
Continuous
 62
     7
100
AcDbLine
 10
161.7770886479065
 20
787.2343991716966
 30
0.0
 11
161.7770886479057
 21
806.8680932269706
 31
0.0
  0
LINE
  5
36B
330
60
100
AcDbEntity
  8
1
  6
Continuous
 62
     7
100
AcDbLine
 10
179.2770886479065
 20
786.8669513397922
 30
0.0
 11
179.2770886479057
 21
806.8680932269706
 31
0.0
  0
LINE
  5
36C
330
60
100
AcDbEntity
  8
1
  6
Continuous
 62
     7
100
AcDbLine
 10
185.0686941173685
 20
780.8705714552584
 30
0.0
 11
192.3638492390656
 21
780.6170400819865
 31
0.0
  0
LINE
  5
36D
330
60
100
AcDbEntity
  8
1
  6
Continuous
 62
     7
100
AcDbLine
 10
192.5270886479065
 20
755.8588434741478
 30
0.0
 11
192.5270886479065
 21
780.3680932269706
 31
0.0
  0
LINE
  5
36E
330
60
100
AcDbEntity
  8
1
  6
Continuous
 62
     7
100
AcDbLine
 10
192.3638492390656
 20
780.6170400819865
 30
0.0
 11
192.5270886479065
 21
780.6077603740368
 31
0.0
  0
LINE
  5
36F
330
60
100
AcDbEntity
  8
1
  6
Continuous
 62
     7
100
AcDbLine
 10
192.5270886479065
 20
780.6077603740368
 30
0.0
 11
192.5270886479065
 21
780.3680932269706
 31
0.0
  0
LINE
  5
370
330
60
100
AcDbEntity
  8
1
  6
Continuous
 62
     7
100
AcDbLine
 10
192.5270886479065
 20
756.3680932269706
 30
0.0
 11
195.957088647906
 21
756.3680932269704
 31
0.0
  0
LINE
  5
371
330
60
100
AcDbEntity
  8
1
  6
Continuous
 62
     7
100
AcDbLine
 10
192.5270886479065
 20
780.3680932269706
 30
0.0
 11
195.957088647906
 21
780.3680932269706
 31
0.0
  0
LINE
  5
372
330
60
100
AcDbEntity
  8
1
  6
Continuous
 62
     7
100
AcDbLine
 10
178.5270886479059
 20
754.8650099760296
 30
0.0
 11
192.5270886479065
 21
755.8588434741478
 31
0.0
  0
LINE
  5
373
330
60
100
AcDbEntity
  8
1
  6
Continuous
 62
     7
100
AcDbLine
 10
183.5270886479058
 20
312.3680932269707
 30
0.0
 11
183.5270886479058
 21
309.1360424194018
 31
0.0
  0
LINE
  5
374
330
60
100
AcDbEntity
  8
1
  6
Continuous
 62
     7
100
AcDbLine
 10
183.5270886479052
 20
310.868093226971
 30
0.0
 11
177.5270886479057
 21
310.8680932269709
 31
0.0
  0
LINE
  5
375
330
60
100
AcDbEntity
  8
1
  6
Continuous
 62
     2
100
AcDbLine
 10
182.5270886479052
 20
312.368093226971
 30
0.0
 11
182.5270886479052
 21
310.868093226971
 31
0.0
  0
LINE
  5
376
330
60
100
AcDbEntity
  8
1
  6
Continuous
 62
     2
100
AcDbLine
 10
183.5270886479058
 20
309.1360424194018
 30
0.0
 11
182.5270886479052
 21
310.868093226971
 31
0.0
  0
LINE
  5
377
330
60
100
AcDbEntity
  8
1
  6
Continuous
 62
     2
100
AcDbLine
 10
158.5270886479052
 20
310.868093226971
 30
0.0
 11
158.5270886479052
 21
312.368093226971
 31
0.0
  0
LINE
  5
378
330
60
100
AcDbEntity
  8
1
  6
Continuous
 62
     2
100
AcDbLine
 10
158.5270886479052
 20
310.868093226971
 30
0.0
 11
157.5270886479052
 21
309.1360424194021
 31
0.0
  0
LINE
  5
379
330
60
100
AcDbEntity
  8
1
  6
Continuous
 62
     7
100
AcDbLine
 10
585.9450248645549
 20
310.8680932269709
 30
0.0
 11
579.558605735662
 21
310.8680932269709
 31
0.0
  0
LINE
  5
37A
330
60
100
AcDbEntity
  8
1
  6
Continuous
 62
     2
100
AcDbLine
 10
584.9450248645549
 20
312.3680932269709
 30
0.0
 11
584.9450248645549
 21
310.8680932269709
 31
0.0
  0
LINE
  5
37B
330
60
100
AcDbEntity
  8
1
  6
Continuous
 62
     2
100
AcDbLine
 10
585.9450248645558
 20
309.1360424194019
 30
0.0
 11
584.9450248645549
 21
310.8680932269709
 31
0.0
  0
LINE
  5
37C
330
60
100
AcDbEntity
  8
1
  6
Continuous
 62
     7
100
AcDbLine
 10
566.3314439934477
 20
310.8680932269709
 30
0.0
 11
559.9450248645549
 21
310.8680932269709
 31
0.0
  0
LINE
  5
37D
330
60
100
AcDbEntity
  8
1
  6
Continuous
 62
     2
100
AcDbLine
 10
560.9450248645549
 20
310.8680932269709
 30
0.0
 11
560.9450248645549
 21
312.3680932269709
 31
0.0
  0
LINE
  5
37E
330
60
100
AcDbEntity
  8
1
  6
Continuous
 62
     2
100
AcDbLine
 10
560.9450248645549
 20
310.8680932269709
 30
0.0
 11
559.9450248645549
 21
309.136042419402
 31
0.0
  0
ARC
  5
37F
330
60
100
AcDbEntity
  8
1
  6
Continuous
 62
     7
100
AcDbCircle
 10
170.5270886479058
 20
287.3680932269707
 30
0.0
 40
23.0
100
AcDbArc
 50
124.4173887104416
 51
249.6455936017625
  0
ARC
  5
380
330
60
100
AcDbEntity
  8
1
  6
Continuous
 62
     7
100
AcDbCircle
 10
171.5270886479058
 20
287.3680932269707
 30
0.0
 40
14.0
100
AcDbArc
 50
180.0
 51
229.9947991151392
  0
ARC
  5
381
330
60
100
AcDbEntity
  8
1
  6
Continuous
 62
     7
100
AcDbCircle
 10
529.9450248645559
 20
296.6954722800596
 30
0.0
 40
29.99999999999985
100
AcDbArc
 50
351.1668016303225
 51
0.0
  0
ARC
  5
382
330
60
100
AcDbEntity
  8
1
  6
Continuous
 62
     7
100
AcDbCircle
 10
597.9450248645558
 20
308.1180932269708
 30
0.0
 40
12.0
100
AcDbArc
 50
180.0
 51
270.0
  0
ARC
  5
383
330
60
100
AcDbEntity
  8
1
  6
Continuous
 62
     7
100
AcDbCircle
 10
170.5270886479058
 20
287.3680932269707
 30
0.0
 40
22.99999999999993
100
AcDbArc
 50
290.354406398237
 51
326.453184984186
  0
ARC
  5
384
330
60
100
AcDbEntity
  8
1
  6
Continuous
 62
     7
100
AcDbCircle
 10
170.5270886479058
 20
287.3680932269707
 30
0.0
 40
23.00000000000002
100
AcDbArc
 50
33.5468150158143
 51
55.58261128955844
  0
ARC
  5
385
330
60
100
AcDbEntity
  8
1
  6
Continuous
 62
     7
100
AcDbCircle
 10
572.9450248645558
 20
287.3680932269708
 30
0.0
 40
13.99999999999981
100
AcDbArc
 50
262.8661233566689
 51
277.1288259215207
  0
ARC
  5
386
330
60
100
AcDbEntity
  8
1
  6
Continuous
 62
     7
100
AcDbCircle
 10
185.2770886479065
 20
786.8669513397922
 30
0.0
 40
6.0
100
AcDbArc
 50
180.0
 51
268.0095784963412
  0
ARC
  5
387
330
60
100
AcDbEntity
  8
1
  6
Continuous
 62
     7
100
AcDbCircle
 10
131.7770886479065
 20
787.2343991716966
 30
0.0
 40
29.99999999999967
100
AcDbArc
 50
344.8973630808176
 51
0.0
  0
ARC
  5
388
330
60
100
AcDbEntity
  8
1
  6
Continuous
 62
     7
100
AcDbCircle
 10
611.4450248645558
 20
274.6180932269708
 30
0.0
 40
4.0
100
AcDbArc
 50
0.0
 51
90.0
  0
ARC
  5
389
330
60
100
AcDbEntity
  8
1
  6
Continuous
 62
     7
100
AcDbCircle
 10
615.9450248645558
 20
264.8680932269708
 30
0.0
 40
0.5
100
AcDbArc
 50
180.0
 51
270.0
  0
ARC
  5
38A
330
60
100
AcDbEntity
  8
1
  6
Continuous
 62
     7
100
AcDbCircle
 10
611.4450248645558
 20
300.1180932269708
 30
0.0
 40
4.0
100
AcDbArc
 50
270.0
 51
0.0
  0
ARC
  5
38B
330
60
100
AcDbEntity
  8
1
  6
Continuous
 62
     7
100
AcDbCircle
 10
615.9450248645558
 20
309.8680932269708
 30
0.0
 40
0.5
100
AcDbArc
 50
90.0
 51
180.0
  0
ARC
  5
38C
330
60
100
AcDbEntity
  8
1
  6
Continuous
 62
     7
100
AcDbCircle
 10
189.5270886479058
 20
306.1054062366735
 30
0.0
 40
6.0
100
AcDbArc
 50
180.0
 51
265.9394926513546
  0
ARC
  5
38D
330
60
100
AcDbEntity
  8
1
  6
Continuous
 62
     7
100
AcDbCircle
 10
183.2770886479057
 20
806.8680932269706
 30
0.0
 40
4.0
100
AcDbArc
 50
90.0
 51
180.0
  0
ARC
  5
38E
330
60
100
AcDbEntity
  8
1
  6
Continuous
 62
     7
100
AcDbCircle
 10
193.0270886479057
 20
811.3680932269706
 30
0.0
 40
0.5
100
AcDbArc
 50
270.0
 51
0.0
  0
ARC
  5
38F
330
60
100
AcDbEntity
  8
1
  6
Continuous
 62
     7
100
AcDbCircle
 10
157.7770886479057
 20
806.8680932269706
 30
0.0
 40
4.0
100
AcDbArc
 50
0.0
 51
90.0
  0
ARC
  5
390
330
60
100
AcDbEntity
  8
1
  6
Continuous
 62
     7
100
AcDbCircle
 10
148.0270886479057
 20
811.3680932269706
 30
0.0
 40
0.5
100
AcDbArc
 50
180.0
 51
270.0
  0
ENDBLK
  5
62
330
60
100
AcDbEntity
  8
0
100
AcDbBlockEnd
  0
BLOCK
  5
64
330
63
100
AcDbEntity
  8
0
100
AcDbBlockBegin
  2
21-1C
 70
     0
 10
490.744607060256
 20
72.89160076419404
 30
0.0
  3
21-1C
  1

  0
LINE
  5
391
330
63
100
AcDbEntity
  8
1
  6
Continuous
 62
     7
100
AcDbLine
 10
224.0270886479059
 20
767.63740796312
 30
0.0
 11
224.0270886479059
 21
769.0987784908214
 31
0.0
  0
LINE
  5
392
330
63
100
AcDbEntity
  8
1
  6
Continuous
 62
     7
100
AcDbLine
 10
213.5966751983859
 20
740.7174581323598
 30
0.0
 11
213.0270886479059
 21
740.7174581323598
 31
0.0
  0
LINE
  5
393
330
63
100
AcDbEntity
  8
1
  6
Continuous
 62
     7
100
AcDbLine
 10
213.5966751983859
 20
740.7174581323598
 30
0.0
 11
216.8121684032565
 21
741.1693662313521
 31
0.0
  0
LINE
  5
394
330
63
100
AcDbEntity
  8
1
  6
Continuous
 62
     7
100
AcDbLine
 10
213.0270886479059
 20
796.0187283215816
 30
0.0
 11
213.5966751983859
 21
796.0187283215816
 31
0.0
  0
LINE
  5
395
330
63
100
AcDbEntity
  8
1
  6
Continuous
 62
     7
100
AcDbLine
 10
216.8121684032565
 20
795.5668202225893
 30
0.0
 11
213.5966751983859
 21
796.0187283215816
 31
0.0
  0
LINE
  5
396
330
63
100
AcDbEntity
  8
1
  6
Continuous
 62
     7
100
AcDbLine
 10
213.0270886479059
 20
740.7174581323598
 30
0.0
 11
213.0270886479059
 21
796.0187283215816
 31
0.0
  0
LINE
  5
397
330
63
100
AcDbEntity
  8
1
  6
Continuous
 62
     7
100
AcDbLine
 10
224.0270886479058
 20
291.3680932269706
 30
0.0
 11
224.0270886479058
 21
283.3680932269706
 31
0.0
  0
LINE
  5
398
330
63
100
AcDbEntity
  8
1
  6
Continuous
 62
     7
100
AcDbLine
 10
213.0270886479058
 20
273.5758018234801
 30
0.0
 11
213.0270886479058
 21
269.443318939045
 31
0.0
  0
LINE
  5
399
330
63
100
AcDbEntity
  8
1
  6
Continuous
 62
     7
100
AcDbLine
 10
216.8121684032564
 20
317.8361349587386
 30
0.0
 11
213.5966751983858
 21
318.2880430577309
 31
0.0
  0
LINE
  5
39A
330
63
100
AcDbEntity
  8
1
  6
Continuous
 62
     7
100
AcDbLine
 10
578.7405798222902
 20
313.9210074975855
 30
0.0
 11
582.3919890337608
 21
300.2937628011527
 31
0.0
  0
LINE
  5
39B
330
63
100
AcDbEntity
  8
1
  6
Continuous
 62
     7
100
AcDbLine
 10
598.8383006462861
 20
279.1107339140897
 30
0.0
 11
588.8624651613237
 21
289.0865693990521
 31
0.0
  0
LINE
  5
39C
330
63
100
AcDbEntity
  8
1
  6
Continuous
 62
     7
100
AcDbLine
 10
593.0427456885517
 20
269.072538269236
 30
0.0
 11
579.415500992119
 21
272.7239474807066
 31
0.0
  0
LINE
  5
39D
330
63
100
AcDbEntity
  8
1
  6
Continuous
 62
     7
100
AcDbLine
 10
552.0867991379396
 20
268.8687615947391
 30
0.0
 11
566.4745487369928
 21
272.7239474807066
 31
0.0
  0
LINE
  5
39E
330
63
100
AcDbEntity
  8
1
  6
Continuous
 62
     7
100
AcDbLine
 10
547.0517490828256
 20
279.1107339140897
 30
0.0
 11
557.0275845677879
 21
289.0865693990521
 31
0.0
  0
LINE
  5
39F
330
63
100
AcDbEntity
  8
1
  6
Continuous
 62
     7
100
AcDbLine
 10
567.1494699068214
 20
313.9210074975855
 30
0.0
 11
563.498060695351
 21
300.2937628011527
 31
0.0
  0
LINE
  5
3A0
330
63
100
AcDbEntity
  8
1
  6
Continuous
 62
     7
100
AcDbLine
 10
217.9861652536494
 20
269.5654073726194
 30
0.0
 11
213.5967105806186
 21
268.9481898786119
 31
0.0
  0
LINE
  5
3A1
330
63
100
AcDbEntity
  8
1
  6
Continuous
 62
     7
100
AcDbLine
 10
213.0270886479058
 20
273.5758018234801
 30
0.0
 11
213.0270886479058
 21
275.141158454572
 31
0.0
  0
LINE
  5
3A2
330
63
100
AcDbEntity
  8
1
  6
Continuous
 62
     7
100
AcDbLine
 10
213.0270886479058
 20
282.6180932269706
 30
0.0
 11
213.0270886479058
 21
281.6180932269706
 31
0.0
  0
LINE
  5
3A3
330
63
100
AcDbEntity
  8
1
  6
Continuous
 62
     7
100
AcDbLine
 10
213.0270886479058
 20
292.1180932269706
 30
0.0
 11
213.0270886479058
 21
293.1180932269706
 31
0.0
  0
LINE
  5
3A4
330
63
100
AcDbEntity
  8
1
  6
Continuous
 62
     7
100
AcDbLine
 10
213.0270886479058
 20
281.6180932269706
 30
0.0
 11
213.0270886479058
 21
273.5758018234801
 31
0.0
  0
LINE
  5
3A5
330
63
100
AcDbEntity
  8
1
  6
Continuous
 62
     7
100
AcDbLine
 10
213.0270886479057
 20
317.7929090233603
 30
0.0
 11
213.0270886479057
 21
316.8014099419008
 31
0.0
  0
LINE
  5
3A6
330
63
100
AcDbEntity
  8
1
  6
Continuous
 62
     7
100
AcDbLine
 10
213.0270886479057
 20
316.8014099419008
 30
0.0
 11
213.0270886479058
 21
281.6180932269706
 31
0.0
  0
ARC
  5
3A7
330
63
100
AcDbEntity
  8
1
  6
Continuous
 62
     7
100
AcDbCircle
 10
74.027088647906
 20
765.0987784908214
 30
0.0
 40
150.0533238552215
100
AcDbArc
 50
1.52752544221293
 51
9.80290179376779
  0
ARC
  5
3A8
330
63
100
AcDbEntity
  8
1
  6
Continuous
 62
     7
100
AcDbCircle
 10
74.027088647906
 20
771.63740796312
 30
0.0
 40
150.0533238552215
100
AcDbArc
 50
350.1970982062322
 51
358.4724745577871
  0
ARC
  5
3A9
330
63
100
AcDbEntity
  8
1
  6
Continuous
 62
     7
100
AcDbCircle
 10
74.02708864790588
 20
287.3680932269706
 30
0.0
 40
150.0533238552215
100
AcDbArc
 50
1.52752544221293
 51
9.80290179376783
  0
ARC
  5
3AA
330
63
100
AcDbEntity
  8
1
  6
Continuous
 62
     7
100
AcDbCircle
 10
572.9450248645559
 20
312.3680932269704
 30
0.0
 40
5.999999999999919
100
AcDbArc
 50
14.99999999999973
 51
90.0
  0
ARC
  5
3AB
330
63
100
AcDbEntity
  8
1
  6
Continuous
 62
     7
100
AcDbCircle
 10
594.5956599591668
 20
274.8680932269704
 30
0.0
 40
5.999999999999988
100
AcDbArc
 50
254.9999999999999
 51
44.99999999999962
  0
ARC
  5
3AC
330
63
100
AcDbEntity
  8
1
  6
Continuous
 62
     7
100
AcDbCircle
 10
551.2943897699449
 20
274.8680932269704
 30
0.0
 40
6.000000000000008
100
AcDbArc
 50
135.0000000000004
 51
277.524241078941
  0
ARC
  5
3AD
330
63
100
AcDbEntity
  8
1
  6
Continuous
 62
     7
100
AcDbCircle
 10
572.9450248645559
 20
312.3680932269704
 30
0.0
 40
6.000000000000057
100
AcDbArc
 50
90.0
 51
165.0000000000005
  0
ARC
  5
3AE
330
63
100
AcDbEntity
  8
1
  6
Continuous
 62
     7
100
AcDbCircle
 10
149.1152676392067
 20
287.0038975617241
 30
0.0
 40
74.99999999999987
100
AcDbArc
 50
353.7877069573924
 51
357.2213610340372
  0
ARC
  5
3AF
330
63
100
AcDbEntity
  8
1
  6
Continuous
 62
     7
100
AcDbCircle
 10
149.1152676392067
 20
287.0038975617241
 30
0.0
 40
74.99999999999993
100
AcDbArc
 50
350.4085075173347
 51
353.7877069573924
  0
ARC
  5
3B0
330
63
100
AcDbEntity
  8
1
  6
Continuous
 62
     7
100
AcDbCircle
 10
215.9771297974961
 20
789.62521181014
 30
0.0
 40
6.000000000000088
100
AcDbArc
 50
9.80290179376685
 51
81.99999999999994
  0
ARC
  5
3B1
330
63
100
AcDbEntity
  8
1
  6
Continuous
 62
     7
100
AcDbCircle
 10
215.9771297974961
 20
747.1109746438015
 30
0.0
 40
5.999999999999919
100
AcDbArc
 50
278.0000000000001
 51
350.1970982062331
  0
ARC
  5
3B2
330
63
100
AcDbEntity
  8
1
  6
Continuous
 62
     7
100
AcDbCircle
 10
215.9771297974961
 20
311.8945265462891
 30
0.0
 40
6.000000000000033
100
AcDbArc
 50
9.80290179376859
 51
82.00000000000097
  0
ARC
  5
3B3
330
63
100
AcDbEntity
  8
1
  6
Continuous
 62
     7
100
AcDbCircle
 10
606.5401346909874
 20
306.7642389287157
 30
0.0
 40
24.99999999999997
100
AcDbArc
 50
195.0
 51
224.9999999999998
  0
ARC
  5
3B4
330
63
100
AcDbEntity
  8
1
  6
Continuous
 62
     7
100
AcDbCircle
 10
572.9450248645559
 20
248.5758018234798
 30
0.0
 40
25.00000000000012
100
AcDbArc
 50
74.99999999999996
 51
105.0000000000001
  0
ARC
  5
3B5
330
63
100
AcDbEntity
  8
1
  6
Continuous
 62
     7
100
AcDbCircle
 10
539.3499150381242
 20
306.7642389287157
 30
0.0
 40
24.99999999999996
100
AcDbArc
 50
315.0000000000002
 51
345.0000000000001
  0
ARC
  5
3B6
330
63
100
AcDbEntity
  8
1
  6
Continuous
 62
     7
100
AcDbCircle
 10
217.150702061098
 20
275.5069560978166
 30
0.0
 40
6.000000000000063
100
AcDbArc
 50
278.0040943717009
 51
350.4085075173343
  0
ARC
  5
3B7
330
63
100
AcDbEntity
  8
1
  6
Continuous
 62
     7
100
AcDbCircle
 10
213.5270886479057
 20
317.7929090233603
 30
0.0
 40
0.499999999999777
100
AcDbArc
 50
81.99999999998904
 51
180.0
  0
ARC
  5
3B8
330
63
100
AcDbEntity
  8
1
  6
Continuous
 62
     7
100
AcDbCircle
 10
213.5270886479058
 20
269.443318939045
 30
0.0
 40
0.5
100
AcDbArc
 50
180.0
 51
278.0040943717224
  0
ENDBLK
  5
65
330
63
100
AcDbEntity
  8
0
100
AcDbBlockEnd
  0
BLOCK
  5
67
330
66
100
AcDbEntity
  8
0
100
AcDbBlockBegin
  2
42-1
 70
     0
 10
506.7821338062691
 20
78.02858284706103
 30
0.0
  3
42-1
  1

  0
LINE
  5
3B9
330
66
100
AcDbEntity
  8
1
  6
Continuous
 62
     7
100
AcDbLine
 10
227.3568543681097
 20
768.3680932269708
 30
0.0
 11
227.3568543681097
 21
762.6180932269708
 31
0.0
  0
LINE
  5
3BA
330
66
100
AcDbEntity
  8
1
  6
Continuous
 62
     7
100
AcDbLine
 10
227.0270886479059
 20
762.8680932269708
 30
0.0
 11
227.0270886479059
 21
762.3680932269708
 31
0.0
  0
LINE
  5
3BB
330
66
100
AcDbEntity
  8
1
  6
Continuous
 62
     2
100
AcDbLine
 10
224.0270886479059
 20
762.3680932269708
 30
0.0
 11
227.0270886479059
 21
762.3680932269708
 31
0.0
  0
LINE
  5
3BC
330
66
100
AcDbEntity
  8
1
  6
Continuous
 62
     7
100
AcDbLine
 10
227.0270886479059
 20
761.8680932269708
 30
0.0
 11
227.0270886479059
 21
761.3680932269708
 31
0.0
  0
LINE
  5
3BD
330
66
100
AcDbEntity
  8
1
  6
Continuous
 62
     7
100
AcDbLine
 10
227.2964108469294
 20
762.3680932269706
 30
0.0
 11
227.0270886479059
 21
761.3680932269708
 31
0.0
  0
LINE
  5
3BE
330
66
100
AcDbEntity
  8
1
  6
Continuous
 62
     7
100
AcDbLine
 10
227.0270886479059
 20
761.3680932269708
 30
0.0
 11
224.0270886479059
 21
761.3680932269708
 31
0.0
  0
LINE
  5
3BF
330
66
100
AcDbEntity
  8
1
  6
Continuous
 62
     2
100
AcDbLine
 10
224.0270886479059
 20
761.8680932269708
 30
0.0
 11
227.0270886479059
 21
761.8680932269708
 31
0.0
  0
LINE
  5
3C0
330
66
100
AcDbEntity
  8
1
  6
Continuous
 62
     7
100
AcDbLine
 10
227.0270886479059
 20
762.3680932269708
 30
0.0
 11
227.0270886479059
 21
761.8680932269708
 31
0.0
  0
LINE
  5
3C1
330
66
100
AcDbEntity
  8
1
  6
Continuous
 62
     2
100
AcDbLine
 10
224.0270886479059
 20
762.8680932269708
 30
0.0
 11
227.0270886479059
 21
762.8680932269708
 31
0.0
  0
LINE
  5
3C2
330
66
100
AcDbEntity
  8
1
  6
Continuous
 62
     7
100
AcDbLine
 10
227.0270886479059
 20
763.3680932269708
 30
0.0
 11
227.0270886479059
 21
762.8680932269708
 31
0.0
  0
LINE
  5
3C3
330
66
100
AcDbEntity
  8
1
  6
Continuous
 62
     7
100
AcDbLine
 10
227.3568543681097
 20
774.1180932269708
 30
0.0
 11
227.3568543681097
 21
768.3680932269708
 31
0.0
  0
LINE
  5
3C4
330
66
100
AcDbEntity
  8
1
  6
Continuous
 62
     2
100
AcDbLine
 10
226.2694267500772
 20
769.3680932269708
 30
0.0
 11
225.0041876594668
 21
769.3680932269708
 31
0.0
  0
LINE
  5
3C5
330
66
100
AcDbEntity
  8
1
  6
Continuous
 62
     2
100
AcDbLine
 10
226.5127419598099
 20
770.3680932269708
 30
0.0
 11
224.7446514357519
 21
770.3680932269708
 31
0.0
  0
LINE
  5
3C6
330
66
100
AcDbEntity
  8
1
  6
Continuous
 62
     7
100
AcDbLine
 10
227.0270886479059
 20
774.3680932269708
 30
0.0
 11
227.0270886479059
 21
773.8680932269708
 31
0.0
  0
LINE
  5
3C7
330
66
100
AcDbEntity
  8
1
  6
Continuous
 62
     7
100
AcDbLine
 10
227.0270886479059
 20
775.3680932269708
 30
0.0
 11
227.0270886479059
 21
774.8680932269708
 31
0.0
  0
LINE
  5
3C8
330
66
100
AcDbEntity
  8
1
  6
Continuous
 62
     7
100
AcDbLine
 10
227.0270886479059
 20
775.3680932269708
 30
0.0
 11
227.2964108469294
 21
774.3680932269708
 31
0.0
  0
LINE
  5
3C9
330
66
100
AcDbEntity
  8
1
  6
Continuous
 62
     7
100
AcDbLine
 10
227.0270886479059
 20
774.8680932269708
 30
0.0
 11
227.0270886479059
 21
774.3680932269708
 31
0.0
  0
LINE
  5
3CA
330
66
100
AcDbEntity
  8
1
  6
Continuous
 62
     7
100
AcDbLine
 10
227.0270886479059
 20
773.8680932269708
 30
0.0
 11
227.0270886479059
 21
773.3680932269708
 31
0.0
  0
LINE
  5
3CB
330
66
100
AcDbEntity
  8
1
  6
Continuous
 62
     2
100
AcDbLine
 10
226.5586317751918
 20
770.8680932269708
 30
0.0
 11
224.6406378385834
 21
770.8680932269708
 31
0.0
  0
LINE
  5
3CC
330
66
100
AcDbEntity
  8
1
  6
Continuous
 62
     2
100
AcDbLine
 10
226.3134088061278
 20
769.8680932269708
 30
0.0
 11
224.9646824762752
 21
769.8680932269708
 31
0.0
  0
LINE
  5
3CD
330
66
100
AcDbEntity
  8
1
  6
Continuous
 62
     7
100
AcDbLine
 10
227.0270886479059
 20
773.3680932269708
 30
0.0
 11
227.0270886479059
 21
763.3680932269708
 31
0.0
  0
LINE
  5
3CE
330
66
100
AcDbEntity
  8
1
  6
Continuous
 62
     2
100
AcDbLine
 10
225.0041876594668
 20
767.3680932269708
 30
0.0
 11
226.2694267500772
 21
767.3680932269708
 31
0.0
  0
LINE
  5
3CF
330
66
100
AcDbEntity
  8
1
  6
Continuous
 62
     2
100
AcDbLine
 10
224.7446514357519
 20
766.3680932269708
 30
0.0
 11
226.5127419598099
 21
766.3680932269708
 31
0.0
  0
LINE
  5
3D0
330
66
100
AcDbEntity
  8
1
  6
Continuous
 62
     2
100
AcDbLine
 10
224.6406378385834
 20
765.8680932269708
 30
0.0
 11
226.5586317751918
 21
765.8680932269708
 31
0.0
  0
LINE
  5
3D1
330
66
100
AcDbEntity
  8
1
  6
Continuous
 62
     2
100
AcDbLine
 10
224.9646824762752
 20
766.8680932269708
 30
0.0
 11
226.3134088061278
 21
766.8680932269708
 31
0.0
  0
LINE
  5
3D2
330
66
100
AcDbEntity
  8
1
  6
Continuous
 62
     2
100
AcDbLine
 10
224.3877891281438
 20
765.3680932269708
 30
0.0
 11
226.7236151415784
 21
765.3680932269708
 31
0.0
  0
LINE
  5
3D3
330
66
100
AcDbEntity
  8
1
  6
Continuous
 62
     2
100
AcDbLine
 10
224.2815613481681
 20
764.8680932269708
 30
0.0
 11
226.7513069651708
 21
764.8680932269708
 31
0.0
  0
LINE
  5
3D4
330
66
100
AcDbEntity
  8
1
  6
Continuous
 62
     2
100
AcDbLine
 10
224.1931369603576
 20
764.3680932269708
 30
0.0
 11
226.8371622394539
 21
764.3680932269708
 31
0.0
  0
LINE
  5
3D5
330
66
100
AcDbEntity
  8
1
  6
Continuous
 62
     2
100
AcDbLine
 10
224.1326759740934
 20
763.8680932269708
 30
0.0
 11
226.8826764128838
 21
763.8680932269708
 31
0.0
  0
LINE
  5
3D6
330
66
100
AcDbEntity
  8
1
  6
Continuous
 62
     2
100
AcDbLine
 10
224.0270886479059
 20
763.3680932269708
 30
0.0
 11
227.0270886479059
 21
763.3680932269708
 31
0.0
  0
LINE
  5
3D7
330
66
100
AcDbEntity
  8
1
  6
Continuous
 62
     7
100
AcDbLine
 10
224.0270886479059
 20
761.3680932269708
 30
0.0
 11
224.0270886479059
 21
766.0680932269706
 31
0.0
  0
LINE
  5
3D8
330
66
100
AcDbEntity
  8
1
  6
Continuous
 62
     7
100
AcDbLine
 10
224.0270886479059
 20
770.6680932269708
 30
0.0
 11
224.0270886479059
 21
766.0680932269706
 31
0.0
  0
LINE
  5
3D9
330
66
100
AcDbEntity
  8
1
  6
Continuous
 62
     7
100
AcDbLine
 10
224.0270886479059
 20
770.6680932269708
 30
0.0
 11
224.0270886479059
 21
775.3680932269708
 31
0.0
  0
LINE
  5
3DA
330
66
100
AcDbEntity
  8
1
  6
Continuous
 62
     2
100
AcDbLine
 10
226.7236151415784
 20
771.3680932269708
 30
0.0
 11
224.3877891281438
 21
771.3680932269708
 31
0.0
  0
LINE
  5
3DB
330
66
100
AcDbEntity
  8
1
  6
Continuous
 62
     2
100
AcDbLine
 10
226.7513069651708
 20
771.8680932269708
 30
0.0
 11
224.2815613481681
 21
771.8680932269708
 31
0.0
  0
LINE
  5
3DC
330
66
100
AcDbEntity
  8
1
  6
Continuous
 62
     2
100
AcDbLine
 10
226.8371622394539
 20
772.3680932269708
 30
0.0
 11
224.1931369603576
 21
772.3680932269708
 31
0.0
  0
LINE
  5
3DD
330
66
100
AcDbEntity
  8
1
  6
Continuous
 62
     2
100
AcDbLine
 10
226.8826764128838
 20
772.8680932269708
 30
0.0
 11
224.1326759740934
 21
772.8680932269708
 31
0.0
  0
LINE
  5
3DE
330
66
100
AcDbEntity
  8
1
  6
Continuous
 62
     2
100
AcDbLine
 10
227.0270886479059
 20
773.3680932269708
 30
0.0
 11
224.0270886479059
 21
773.3680932269708
 31
0.0
  0
LINE
  5
3DF
330
66
100
AcDbEntity
  8
1
  6
Continuous
 62
     2
100
AcDbLine
 10
227.0270886479059
 20
773.8680932269708
 30
0.0
 11
224.0270886479059
 21
773.8680932269708
 31
0.0
  0
LINE
  5
3E0
330
66
100
AcDbEntity
  8
1
  6
Continuous
 62
     2
100
AcDbLine
 10
227.0270886479059
 20
774.3680932269708
 30
0.0
 11
224.0270886479059
 21
774.3680932269708
 31
0.0
  0
LINE
  5
3E1
330
66
100
AcDbEntity
  8
1
  6
Continuous
 62
     2
100
AcDbLine
 10
227.0270886479059
 20
774.8680932269708
 30
0.0
 11
224.0270886479059
 21
774.8680932269708
 31
0.0
  0
LINE
  5
3E2
330
66
100
AcDbEntity
  8
1
  6
Continuous
 62
     7
100
AcDbLine
 10
224.0270886479059
 20
775.3680932269708
 30
0.0
 11
227.0270886479059
 21
775.3680932269708
 31
0.0
  0
LINE
  5
3E3
330
66
100
AcDbEntity
  8
1
  6
Continuous
 62
     7
100
AcDbLine
 10
227.3568543681095
 20
287.3680932269706
 30
0.0
 11
227.3568543681095
 21
281.6180932269707
 31
0.0
  0
LINE
  5
3E4
330
66
100
AcDbEntity
  8
1
  6
Continuous
 62
     7
100
AcDbLine
 10
227.0270886479058
 20
281.8680932269707
 30
0.0
 11
227.0270886479058
 21
281.3680932269707
 31
0.0
  0
LINE
  5
3E5
330
66
100
AcDbEntity
  8
1
  6
Continuous
 62
     2
100
AcDbLine
 10
224.0270886479058
 20
281.3680932269707
 30
0.0
 11
227.0270886479058
 21
281.3680932269707
 31
0.0
  0
LINE
  5
3E6
330
66
100
AcDbEntity
  8
1
  6
Continuous
 62
     7
100
AcDbLine
 10
227.0270886479058
 20
280.8680932269707
 30
0.0
 11
227.0270886479058
 21
280.3680932269707
 31
0.0
  0
LINE
  5
3E7
330
66
100
AcDbEntity
  8
1
  6
Continuous
 62
     7
100
AcDbLine
 10
227.296410846929
 20
281.3680932269706
 30
0.0
 11
227.0270886479058
 21
280.3680932269707
 31
0.0
  0
LINE
  5
3E8
330
66
100
AcDbEntity
  8
1
  6
Continuous
 62
     7
100
AcDbLine
 10
227.0270886479058
 20
280.3680932269707
 30
0.0
 11
224.0270886479058
 21
280.3680932269707
 31
0.0
  0
LINE
  5
3E9
330
66
100
AcDbEntity
  8
1
  6
Continuous
 62
     2
100
AcDbLine
 10
224.0270886479058
 20
280.8680932269707
 30
0.0
 11
227.0270886479058
 21
280.8680932269707
 31
0.0
  0
LINE
  5
3EA
330
66
100
AcDbEntity
  8
1
  6
Continuous
 62
     7
100
AcDbLine
 10
227.0270886479058
 20
281.3680932269707
 30
0.0
 11
227.0270886479058
 21
280.8680932269707
 31
0.0
  0
LINE
  5
3EB
330
66
100
AcDbEntity
  8
1
  6
Continuous
 62
     2
100
AcDbLine
 10
224.0270886479058
 20
281.8680932269707
 30
0.0
 11
227.0270886479058
 21
281.8680932269707
 31
0.0
  0
LINE
  5
3EC
330
66
100
AcDbEntity
  8
1
  6
Continuous
 62
     7
100
AcDbLine
 10
227.0270886479058
 20
282.3680932269707
 30
0.0
 11
227.0270886479058
 21
281.8680932269707
 31
0.0
  0
LINE
  5
3ED
330
66
100
AcDbEntity
  8
1
  6
Continuous
 62
     7
100
AcDbLine
 10
227.3568543681095
 20
293.1180932269706
 30
0.0
 11
227.3568543681095
 21
287.3680932269706
 31
0.0
  0
LINE
  5
3EE
330
66
100
AcDbEntity
  8
1
  6
Continuous
 62
     2
100
AcDbLine
 10
226.269426750077
 20
288.3680932269706
 30
0.0
 11
225.0041876594667
 21
288.3680932269706
 31
0.0
  0
LINE
  5
3EF
330
66
100
AcDbEntity
  8
1
  6
Continuous
 62
     2
100
AcDbLine
 10
226.5127419598097
 20
289.3680932269706
 30
0.0
 11
224.7446514357516
 21
289.3680932269706
 31
0.0
  0
LINE
  5
3F0
330
66
100
AcDbEntity
  8
1
  6
Continuous
 62
     7
100
AcDbLine
 10
227.0270886479058
 20
293.3680932269706
 30
0.0
 11
227.0270886479058
 21
292.8680932269706
 31
0.0
  0
LINE
  5
3F1
330
66
100
AcDbEntity
  8
1
  6
Continuous
 62
     7
100
AcDbLine
 10
227.0270886479058
 20
294.3680932269706
 30
0.0
 11
227.0270886479058
 21
293.8680932269706
 31
0.0
  0
LINE
  5
3F2
330
66
100
AcDbEntity
  8
1
  6
Continuous
 62
     7
100
AcDbLine
 10
227.0270886479058
 20
294.3680932269706
 30
0.0
 11
227.296410846929
 21
293.3680932269708
 31
0.0
  0
LINE
  5
3F3
330
66
100
AcDbEntity
  8
1
  6
Continuous
 62
     7
100
AcDbLine
 10
227.0270886479058
 20
293.8680932269706
 30
0.0
 11
227.0270886479058
 21
293.3680932269706
 31
0.0
  0
LINE
  5
3F4
330
66
100
AcDbEntity
  8
1
  6
Continuous
 62
     7
100
AcDbLine
 10
227.0270886479058
 20
292.8680932269706
 30
0.0
 11
227.0270886479058
 21
292.3680932269706
 31
0.0
  0
LINE
  5
3F5
330
66
100
AcDbEntity
  8
1
  6
Continuous
 62
     2
100
AcDbLine
 10
226.5586317751917
 20
289.8680932269706
 30
0.0
 11
224.6406378385833
 21
289.8680932269706
 31
0.0
  0
LINE
  5
3F6
330
66
100
AcDbEntity
  8
1
  6
Continuous
 62
     2
100
AcDbLine
 10
226.3134088061277
 20
288.8680932269706
 30
0.0
 11
224.964682476275
 21
288.8680932269706
 31
0.0
  0
LINE
  5
3F7
330
66
100
AcDbEntity
  8
1
  6
Continuous
 62
     7
100
AcDbLine
 10
227.0270886479058
 20
292.3680932269706
 30
0.0
 11
227.0270886479058
 21
282.3680932269707
 31
0.0
  0
LINE
  5
3F8
330
66
100
AcDbEntity
  8
1
  6
Continuous
 62
     2
100
AcDbLine
 10
225.0041876594667
 20
286.3680932269707
 30
0.0
 11
226.269426750077
 21
286.3680932269707
 31
0.0
  0
LINE
  5
3F9
330
66
100
AcDbEntity
  8
1
  6
Continuous
 62
     2
100
AcDbLine
 10
224.7446514357516
 20
285.3680932269707
 30
0.0
 11
226.5127419598097
 21
285.3680932269707
 31
0.0
  0
LINE
  5
3FA
330
66
100
AcDbEntity
  8
1
  6
Continuous
 62
     2
100
AcDbLine
 10
224.6406378385833
 20
284.8680932269707
 30
0.0
 11
226.5586317751917
 21
284.8680932269707
 31
0.0
  0
LINE
  5
3FB
330
66
100
AcDbEntity
  8
1
  6
Continuous
 62
     2
100
AcDbLine
 10
224.964682476275
 20
285.8680932269707
 30
0.0
 11
226.3134088061277
 21
285.8680932269707
 31
0.0
  0
LINE
  5
3FC
330
66
100
AcDbEntity
  8
1
  6
Continuous
 62
     2
100
AcDbLine
 10
224.3877891281437
 20
284.3680932269707
 30
0.0
 11
226.7236151415783
 21
284.3680932269707
 31
0.0
  0
LINE
  5
3FD
330
66
100
AcDbEntity
  8
1
  6
Continuous
 62
     2
100
AcDbLine
 10
224.2815613481681
 20
283.8680932269707
 30
0.0
 11
226.7513069651706
 21
283.8680932269707
 31
0.0
  0
LINE
  5
3FE
330
66
100
AcDbEntity
  8
1
  6
Continuous
 62
     2
100
AcDbLine
 10
224.1931369603573
 20
283.3680932269707
 30
0.0
 11
226.8371622394535
 21
283.3680932269707
 31
0.0
  0
LINE
  5
3FF
330
66
100
AcDbEntity
  8
1
  6
Continuous
 62
     2
100
AcDbLine
 10
224.1326759740932
 20
282.8680932269707
 30
0.0
 11
226.8826764128837
 21
282.8680932269707
 31
0.0
  0
LINE
  5
400
330
66
100
AcDbEntity
  8
1
  6
Continuous
 62
     2
100
AcDbLine
 10
224.0270886479058
 20
282.3680932269707
 30
0.0
 11
227.0270886479058
 21
282.3680932269707
 31
0.0
  0
LINE
  5
401
330
66
100
AcDbEntity
  8
1
  6
Continuous
 62
     7
100
AcDbLine
 10
224.0270886479058
 20
280.3680932269707
 30
0.0
 11
224.0270886479058
 21
285.0680932269708
 31
0.0
  0
LINE
  5
402
330
66
100
AcDbEntity
  8
1
  6
Continuous
 62
     7
100
AcDbLine
 10
224.0270886479058
 20
289.6680932269707
 30
0.0
 11
224.0270886479058
 21
285.0680932269708
 31
0.0
  0
LINE
  5
403
330
66
100
AcDbEntity
  8
1
  6
Continuous
 62
     7
100
AcDbLine
 10
224.0270886479058
 20
289.6680932269707
 30
0.0
 11
224.0270886479058
 21
294.3680932269706
 31
0.0
  0
LINE
  5
404
330
66
100
AcDbEntity
  8
1
  6
Continuous
 62
     2
100
AcDbLine
 10
226.7236151415783
 20
290.3680932269706
 30
0.0
 11
224.3877891281437
 21
290.3680932269706
 31
0.0
  0
LINE
  5
405
330
66
100
AcDbEntity
  8
1
  6
Continuous
 62
     2
100
AcDbLine
 10
226.7513069651706
 20
290.8680932269706
 30
0.0
 11
224.2815613481681
 21
290.8680932269706
 31
0.0
  0
LINE
  5
406
330
66
100
AcDbEntity
  8
1
  6
Continuous
 62
     2
100
AcDbLine
 10
226.8371622394535
 20
291.3680932269706
 30
0.0
 11
224.1931369603573
 21
291.3680932269706
 31
0.0
  0
LINE
  5
407
330
66
100
AcDbEntity
  8
1
  6
Continuous
 62
     2
100
AcDbLine
 10
226.8826764128837
 20
291.8680932269706
 30
0.0
 11
224.1326759740932
 21
291.8680932269706
 31
0.0
  0
LINE
  5
408
330
66
100
AcDbEntity
  8
1
  6
Continuous
 62
     2
100
AcDbLine
 10
227.0270886479058
 20
292.3680932269706
 30
0.0
 11
224.0270886479058
 21
292.3680932269706
 31
0.0
  0
LINE
  5
409
330
66
100
AcDbEntity
  8
1
  6
Continuous
 62
     2
100
AcDbLine
 10
227.0270886479058
 20
292.8680932269706
 30
0.0
 11
224.0270886479058
 21
292.8680932269706
 31
0.0
  0
LINE
  5
40A
330
66
100
AcDbEntity
  8
1
  6
Continuous
 62
     2
100
AcDbLine
 10
227.0270886479058
 20
293.3680932269706
 30
0.0
 11
224.0270886479058
 21
293.3680932269706
 31
0.0
  0
LINE
  5
40B
330
66
100
AcDbEntity
  8
1
  6
Continuous
 62
     2
100
AcDbLine
 10
227.0270886479058
 20
293.8680932269706
 30
0.0
 11
224.0270886479058
 21
293.8680932269706
 31
0.0
  0
LINE
  5
40C
330
66
100
AcDbEntity
  8
1
  6
Continuous
 62
     7
100
AcDbLine
 10
224.0270886479058
 20
294.3680932269706
 30
0.0
 11
227.0270886479058
 21
294.3680932269706
 31
0.0
  0
ARC
  5
40D
330
66
100
AcDbEntity
  8
1
  6
Continuous
 62
     7
100
AcDbCircle
 10
203.0270886479059
 20
768.3680932269706
 30
0.0
 40
25.00000000000002
100
AcDbArc
 50
346.7029282527915
 51
0.00000000000052
  0
ARC
  5
40E
330
66
100
AcDbEntity
  8
1
  6
Continuous
 62
     7
100
AcDbCircle
 10
203.0270886479059
 20
768.3680932269706
 30
0.0
 40
25.0
100
AcDbArc
 50
0.00000000000052
 51
13.29707174720953
  0
ARC
  5
40F
330
66
100
AcDbEntity
  8
1
  6
Continuous
 62
     7
100
AcDbCircle
 10
203.0270886479059
 20
768.3680932269706
 30
0.0
 40
25.00000000000029
100
AcDbArc
 50
346.1134596373711
 51
346.7029282527915
  0
ARC
  5
410
330
66
100
AcDbEntity
  8
1
  6
Continuous
 62
     7
100
AcDbCircle
 10
203.0270886479059
 20
768.3680932269706
 30
0.0
 40
25.00000000000013
100
AcDbArc
 50
13.29707174720953
 51
13.88654036262933
  0
ARC
  5
411
330
66
100
AcDbEntity
  8
1
  6
Continuous
 62
     7
100
AcDbCircle
 10
203.0270886479058
 20
287.3680932269706
 30
0.0
 40
24.99999999999996
100
AcDbArc
 50
346.7029282527912
 51
0.0
  0
ARC
  5
412
330
66
100
AcDbEntity
  8
1
  6
Continuous
 62
     7
100
AcDbCircle
 10
203.0270886479058
 20
287.3680932269706
 30
0.0
 40
25.0
100
AcDbArc
 50
0.0
 51
13.29707174720906
  0
ARC
  5
413
330
66
100
AcDbEntity
  8
1
  6
Continuous
 62
     7
100
AcDbCircle
 10
203.0270886479058
 20
287.3680932269706
 30
0.0
 40
25.00000000000001
100
AcDbArc
 50
346.113459637371
 51
346.7029282527912
  0
ARC
  5
414
330
66
100
AcDbEntity
  8
1
  6
Continuous
 62
     7
100
AcDbCircle
 10
203.0270886479058
 20
287.3680932269706
 30
0.0
 40
24.99999999999999
100
AcDbArc
 50
13.29707174720906
 51
13.88654036262949
  0
CIRCLE
  5
415
330
66
100
AcDbEntity
  8
1
  6
Continuous
 62
     7
100
AcDbCircle
 10
572.9450248645558
 20
287.3680932269704
 30
0.0
 40
5.75
  0
CIRCLE
  5
416
330
66
100
AcDbEntity
  8
1
  6
Continuous
 62
     7
100
AcDbCircle
 10
572.9450248645558
 20
287.3680932269704
 30
0.0
 40
7.0
  0
ENDBLK
  5
68
330
66
100
AcDbEntity
  8
0
100
AcDbBlockEnd
  0
BLOCK
  5
6A
330
69
100
AcDbEntity
  8
0
100
AcDbBlockBegin
  2
37-1-13
 70
     0
 10
499.8907436783971
 20
-5.03449106111395
 30
0.0
  3
37-1-13
  1

  0
LINE
  5
417
330
69
100
AcDbEntity
  8
1
  6
Continuous
 62
     7
100
AcDbLine
 10
209.9567799360908
 20
281.3680932269704
 30
0.0
 11
209.9567799360908
 21
293.3680932269704
 31
0.0
  0
LINE
  5
418
330
69
100
AcDbEntity
  8
1
  6
Continuous
 62
     7
100
AcDbLine
 10
195.9567799360908
 20
274.2973790126993
 30
0.0
 11
195.9567799360908
 21
300.438807441242
 31
0.0
  0
LINE
  5
419
330
69
100
AcDbEntity
  8
1
  6
Continuous
 62
     7
100
AcDbLine
 10
209.957088647906
 20
768.3680932269706
 30
0.0
 11
209.957088647906
 21
773.3680932269706
 31
0.0
  0
LINE
  5
41A
330
69
100
AcDbEntity
  8
1
  6
Continuous
 62
     7
100
AcDbLine
 10
209.957088647906
 20
768.3680932269706
 30
0.0
 11
209.957088647906
 21
762.3680932269706
 31
0.0
  0
LINE
  5
41B
330
69
100
AcDbEntity
  8
1
  6
Continuous
 62
     7
100
AcDbLine
 10
209.957088647906
 20
773.3680932269706
 30
0.0
 11
209.957088647906
 21
774.3680932269706
 31
0.0
  0
LINE
  5
41C
330
69
100
AcDbEntity
  8
1
  6
Continuous
 62
     7
100
AcDbLine
 10
195.957088647906
 20
768.3680932269706
 30
0.0
 11
195.957088647906
 21
755.3680932269706
 31
0.0
  0
LINE
  5
41D
330
69
100
AcDbEntity
  8
1
  6
Continuous
 62
     7
100
AcDbLine
 10
195.957088647906
 20
768.3680932269706
 30
0.0
 11
195.957088647906
 21
781.3680932269706
 31
0.0
  0
LINE
  5
41E
330
69
100
AcDbEntity
  8
1
  6
Continuous
 62
     7
100
AcDbLine
 10
203.0278028621773
 20
755.3680932269706
 30
0.0
 11
195.957088647906
 21
755.3680932269706
 31
0.0
  0
LINE
  5
41F
330
69
100
AcDbEntity
  8
1
  6
Continuous
 62
     7
100
AcDbLine
 10
195.957088647906
 20
781.3680932269706
 30
0.0
 11
203.0278028621773
 21
781.3680932269706
 31
0.0
  0
LINE
  5
420
330
69
100
AcDbEntity
  8
1
  6
Continuous
 62
     7
100
AcDbLine
 10
583.9693940288344
 20
296.0142777212586
 30
0.0
 11
585.0071737298775
 21
295.4151153315018
 31
0.0
  0
LINE
  5
421
330
69
100
AcDbEntity
  8
1
  6
Continuous
 62
     7
100
AcDbLine
 10
559.9450248645558
 20
292.5923847367894
 30
0.0
 11
559.9450248645558
 21
293.790709516303
 31
0.0
  0
LINE
  5
422
330
69
100
AcDbEntity
  8
1
  6
Continuous
 62
     7
100
AcDbLine
 10
574.9206557002772
 20
273.4976172228633
 30
0.0
 11
573.8828759992341
 21
272.8984548331064
 31
0.0
  0
LINE
  5
423
330
69
100
AcDbEntity
  8
1
  6
Continuous
 62
     7
100
AcDbLine
 10
560.8828759992341
 20
295.4151153315018
 30
0.0
 11
561.9206557002772
 21
296.0142777212586
 31
0.0
  0
LINE
  5
424
330
69
100
AcDbEntity
  8
1
  6
Continuous
 62
     7
100
AcDbLine
 10
572.0071737298775
 20
272.8984548331064
 30
0.0
 11
570.9693940288344
 21
273.4976172228633
 31
0.0
  0
LINE
  5
425
330
69
100
AcDbEntity
  8
1
  6
Continuous
 62
     7
100
AcDbLine
 10
585.9450248645558
 20
293.790709516303
 30
0.0
 11
585.9450248645558
 21
292.5923847367893
 31
0.0
  0
ARC
  5
426
330
69
100
AcDbEntity
  8
1
  6
Continuous
 62
     7
100
AcDbCircle
 10
199.4567799360908
 20
296.8680932269704
 30
0.0
 40
5.0
100
AcDbArc
 50
36.86989764584402
 51
134.4270040008046
  0
ARC
  5
427
330
69
100
AcDbEntity
  8
1
  6
Continuous
 62
     7
100
AcDbCircle
 10
223.3632351412057
 20
313.2745484320856
 30
0.0
 40
24.00000000000014
100
AcDbArc
 50
213.9591925000981
 51
236.0408074999029
  0
ARC
  5
428
330
69
100
AcDbEntity
  8
1
  6
Continuous
 62
     7
100
AcDbCircle
 10
199.4567799360908
 20
277.8680932269704
 30
0.0
 40
4.999999999999773
100
AcDbArc
 50
225.5729959991918
 51
323.1301023541596
  0
ARC
  5
429
330
69
100
AcDbEntity
  8
1
  6
Continuous
 62
     7
100
AcDbCircle
 10
223.3632351412056
 20
261.4616380218558
 30
0.0
 40
23.99999999999969
100
AcDbArc
 50
123.9591925000976
 51
146.0408074999021
  0
ARC
  5
42A
330
69
100
AcDbEntity
  8
1
  6
Continuous
 62
     7
100
AcDbCircle
 10
223.3635438530207
 20
742.4616380218556
 30
0.0
 40
23.99999999999992
100
AcDbArc
 50
123.959192500097
 51
146.0408074999021
  0
ARC
  5
42B
330
69
100
AcDbEntity
  8
1
  6
Continuous
 62
     7
100
AcDbCircle
 10
199.457088647906
 20
758.8680932269706
 30
0.0
 40
4.999999999999915
100
AcDbArc
 50
315.5729959991933
 51
323.130102354156
  0
ARC
  5
42C
330
69
100
AcDbEntity
  8
1
  6
Continuous
 62
     7
100
AcDbCircle
 10
223.3635438530207
 20
794.2745484320855
 30
0.0
 40
23.99999999999984
100
AcDbArc
 50
213.9591925000979
 51
236.0408074999029
  0
ARC
  5
42D
330
69
100
AcDbEntity
  8
1
  6
Continuous
 62
     7
100
AcDbCircle
 10
199.457088647906
 20
777.8680932269706
 30
0.0
 40
4.999999999999932
100
AcDbArc
 50
36.86989764584298
 51
44.42700400080667
  0
ARC
  5
42E
330
69
100
AcDbEntity
  8
1
  6
Continuous
 62
     7
100
AcDbCircle
 10
572.9450248645558
 20
287.3680932269704
 30
0.0
 40
14.5
100
AcDbArc
 50
266.2915552747295
 51
270.0
  0
ARC
  5
42F
330
69
100
AcDbEntity
  8
1
  6
Continuous
 62
     7
100
AcDbCircle
 10
572.9450248645558
 20
287.3680932269704
 30
0.0
 40
14.4999999999999
100
AcDbArc
 50
146.2915552747293
 51
153.7084447252705
  0
ARC
  5
430
330
69
100
AcDbEntity
  8
1
  6
Continuous
 62
     7
100
AcDbCircle
 10
572.9450248645558
 20
287.3680932269704
 30
0.0
 40
14.5
100
AcDbArc
 50
270.0
 51
273.708444725271
  0
ARC
  5
431
330
69
100
AcDbEntity
  8
1
  6
Continuous
 62
     7
100
AcDbCircle
 10
572.9450248645558
 20
287.3680932269704
 30
0.0
 40
14.50000000000002
100
AcDbArc
 50
26.29155527472953
 51
33.70844472527044
  0
SPLINE
  5
432
330
69
100
AcDbEntity
  8
1
  6
Continuous
 62
     7
100
AcDbSpline
210
0.0
220
0.0
230
1.0
 70
    11
 71
     3
 72
    79
 73
    75
 74
    73
 42
0.000000001
 43
0.0000000001
 44
0.00000001
 40
0.0
 40
0.0
 40
0.0
 40
0.0
 40
0.3102615582252665
 40
0.6205595420822039
 40
0.9422162975288515
 40
1.263944872753727
 40
1.606039020845064
 40
1.948193468907209
 40
2.31605188519068
 40
2.683951048240214
 40
3.079084664080537
 40
3.474244780173851
 40
3.894897959207667
 40
4.315568207494331
 40
4.757452126736837
 40
5.199346674241918
 40
5.656354161987256
 40
6.113367478658285
 40
6.578223037733371
 40
7.043080455842878
 40
7.507937873950333
 40
7.972793433018609
 40
8.429806749677631
 40
8.88681423740359
 40
9.328708784880396
 40
9.770592704081771
 40
10.19126295231274
 40
10.6119161312693
 40
11.00707624726311
 40
11.40220986296882
 40
11.77010902584999
 40
12.13796744190994
 40
12.48012188969647
 40
12.82221603741961
 40
13.14394461216179
 40
13.465601366825
 40
13.77589934864169
 40
14.08616091447285
 40
14.39642248030389
 40
14.70672046212052
 40
15.02837721678376
 40
15.35010579152591
 40
15.69219993924888
 40
16.03435438703532
 40
16.4022128030954
 40
16.77011196597666
 40
17.16524558168222
 40
17.56040569767612
 40
17.98105887663262
 40
18.4017291248637
 40
18.84361304406492
 40
19.28550759154179
 40
19.74251507926766
 40
20.19952839592683
 40
20.66438395499487
 40
21.12924137310209
 40
21.59409879121194
 40
22.05895435028713
 40
22.51596766695819
 40
22.97297515470355
 40
23.41486970220872
 40
23.85675362145105
 40
24.27742386973773
 40
24.69807704877158
 40
25.09323716486486
 40
25.48837078070515
 40
25.85626994375481
 40
26.22412836003837
 40
26.56628280810042
 40
26.90837695619159
 40
27.23010553141639
 40
27.5517622868631
 40
27.86206027071993
 40
28.17232182894509
 40
28.17232182894509
 40
28.17232182894509
 40
28.17232182894509
 10
199.4924457550415
 20
769.3059443616489
 30
0.0
 10
199.5959359369637
 20
769.309977553365
 30
0.0
 10
199.8029284513085
 20
769.3180444020356
 30
0.0
 10
200.111777319331
 20
769.382028379845
 30
0.0
 10
200.4137442330651
 20
769.4834491761425
 30
0.0
 10
200.7106538891798
 20
769.6258716762402
 30
0.0
 10
200.9949719975402
 20
769.8049742490001
 30
0.0
 10
201.2704730438368
 20
770.0229445168607
 30
0.0
 10
201.5290790645053
 20
770.2732266708956
 30
0.0
 10
201.7748369541179
 20
770.5596888326676
 30
0.0
 10
202.0004822143127
 20
770.8735195849545
 30
0.0
 10
202.2092538822005
 20
771.2194337499858
 30
0.0
 10
202.3954746504718
 20
771.5875525421361
 30
0.0
 10
202.5611591808183
 20
771.9822464770532
 30
0.0
 10
202.702466953668
 20
772.3937996770254
 30
0.0
 10
202.8202464422424
 20
772.8252253766196
 30
0.0
 10
202.9123647438813
 20
773.2679994053302
 30
0.0
 10
202.9788506712742
 20
773.723057403924
 30
0.0
 10
203.0189082281844
 20
774.1838245060051
 30
0.0
 10
203.0322501854794
 20
774.6487466814358
 30
0.0
 10
203.0189082282629
 20
775.1136688568629
 30
0.0
 10
202.9788506714354
 20
775.5744359589555
 30
0.0
 10
202.9123647441338
 20
776.0294939575078
 30
0.0
 10
202.8202464425988
 20
776.4722679863728
 30
0.0
 10
202.7024669541458
 20
776.9036936854147
 30
0.0
 10
202.561159181438
 20
777.3152468874134
 30
0.0
 10
202.3954746512607
 20
777.7099408151355
 30
0.0
 10
202.209253883187
 20
778.0780596333577
 30
0.0
 10
202.0004822155344
 20
778.4239737067805
 30
0.0
 10
201.7748369556117
 20
778.7378047887189
 30
0.0
 10
201.5290790663205
 20
779.0242658011917
 30
0.0
 10
201.2704730460217
 20
779.2745520802653
 30
0.0
 10
200.994972000165
 20
779.4925079782719
 30
0.0
 10
200.7106538923256
 20
779.6716622920113
 30
0.0
 10
200.4137442369133
 20
779.8139026433988
 30
0.0
 10
200.111777324404
 20
779.9159862954389
 30
0.0
 10
199.8029284552576
 20
779.977579535367
 30
0.0
 10
199.4924457550415
 20
779.998533338828
 30
0.0
 10
199.1819630548255
 20
779.9775795353669
 30
0.0
 10
198.8731141856792
 20
779.915986295439
 30
0.0
 10
198.5711472731699
 20
779.8139026433987
 30
0.0
 10
198.2742376177576
 20
779.6716622920113
 30
0.0
 10
197.9899195099184
 20
779.492507978272
 30
0.0
 10
197.7144184640617
 20
779.2745520802649
 30
0.0
 10
197.4558124437628
 20
779.024265801192
 30
0.0
 10
197.2100545544716
 20
778.7378047887187
 30
0.0
 10
196.9844092945488
 20
778.4239737067807
 30
0.0
 10
196.7756376268963
 20
778.0780596333576
 30
0.0
 10
196.5894168588225
 20
777.7099408151357
 30
0.0
 10
196.4237323286452
 20
777.3152468874134
 30
0.0
 10
196.2824245559375
 20
776.9036936854147
 30
0.0
 10
196.1646450674849
 20
776.472267986373
 30
0.0
 10
196.0725267659496
 20
776.0294939575078
 30
0.0
 10
196.0060408386477
 20
775.5744359589557
 30
0.0
 10
195.9659832818204
 20
775.1136688568631
 30
0.0
 10
195.9526413246039
 20
774.6487466814364
 30
0.0
 10
195.9659832818988
 20
774.1838245060052
 30
0.0
 10
196.0060408388089
 20
773.723057403924
 30
0.0
 10
196.0725267662022
 20
773.2679994053301
 30
0.0
 10
196.1646450678411
 20
772.8252253766199
 30
0.0
 10
196.2824245564155
 20
772.3937996770253
 30
0.0
 10
196.4237323292649
 20
771.982246477053
 30
0.0
 10
196.5894168596114
 20
771.5875525421366
 30
0.0
 10
196.7756376278828
 20
771.2194337499855
 30
0.0
 10
196.9844092957705
 20
770.8735195849546
 30
0.0
 10
197.2100545559653
 20
770.5596888326675
 30
0.0
 10
197.4558124455781
 20
770.2732266708956
 30
0.0
 10
197.7144184662467
 20
770.0229445168607
 30
0.0
 10
197.9899195125431
 20
769.8049742490001
 30
0.0
 10
198.2742376209033
 20
769.62587167624
 30
0.0
 10
198.5711472770182
 20
769.4834491761424
 30
0.0
 10
198.8731141907521
 20
769.382028379845
 30
0.0
 10
199.1819630587747
 20
769.3180444020358
 30
0.0
 10
199.3889555731193
 20
769.309977553365
 30
0.0
 10
199.4924457550415
 20
769.3059443616489
 30
0.0
 11
199.4924457550415
 21
769.3059443616489
 31
0.0
 11
199.8020215531782
 21
769.3265614548496
 31
0.0
 11
200.1063540740975
 21
769.3871135342476
 31
0.0
 11
200.4112534093608
 21
769.4895804228795
 31
0.0
 11
200.7016090995314
 21
769.6281547678084
 31
0.0
 11
200.9914022302231
 21
769.8099468121657
 31
0.0
 11
201.2601243086097
 21
770.0217441464218
 31
0.0
 11
201.5249126523785
 21
770.2771006566958
 31
0.0
 11
201.7649294993257
 21
770.5559226559851
 31
0.0
 11
201.996047431651
 21
770.87641458361
 31
0.0
 11
202.2006864214042
 21
771.2144595527918
 31
0.0
 11
202.3909527539954
 21
771.589623276636
 31
0.0
 11
202.5541548212709
 21
771.9773455264689
 31
0.0
 11
202.697940091853
 21
772.3951818509304
 31
0.0
 11
202.8145947404601
 21
772.8214006727449
 31
0.0
 11
202.9078581421596
 21
773.2687906388347
 31
0.0
 11
202.9740928438158
 21
773.7209788031123
 31
0.0
 11
203.0144178325825
 21
774.1840820163246
 31
0.0
 11
203.0278028621773
 21
774.6487466912888
 31
0.0
 11
203.0144178325825
 21
775.1134113662531
 31
0.0
 11
202.9740928438158
 21
775.5765145794654
 31
0.0
 11
202.9078581421596
 21
776.0287027437432
 31
0.0
 11
202.8145947404601
 21
776.4760927098332
 31
0.0
 11
202.697940091853
 21
776.9023115316477
 31
0.0
 11
202.5541548212709
 21
777.3201478561091
 31
0.0
 11
202.3909527539953
 21
777.7078701059417
 31
0.0
 11
202.2006864214042
 21
778.0830338297858
 31
0.0
 11
201.996047431651
 21
778.4210787989676
 31
0.0
 11
201.7649294993257
 21
778.7415707265928
 31
0.0
 11
201.5249126523785
 21
779.0203927258822
 31
0.0
 11
201.2601243086097
 21
779.2757492361561
 31
0.0
 11
200.9914022302231
 21
779.4875465704122
 31
0.0
 11
200.7016090995314
 21
779.6693386147695
 31
0.0
 11
200.4112534093608
 21
779.8079129596983
 31
0.0
 11
200.1063540740975
 21
779.9103798483302
 31
0.0
 11
199.8020215531782
 21
779.9709319277282
 31
0.0
 11
199.4924457550415
 21
779.991549020929
 31
0.0
 11
199.1828699569049
 21
779.9709319277283
 31
0.0
 11
198.8785374359857
 21
779.9103798483302
 31
0.0
 11
198.5736381007223
 21
779.8079129596983
 31
0.0
 11
198.2832824105518
 21
779.6693386147695
 31
0.0
 11
197.9934892798603
 21
779.4875465704122
 31
0.0
 11
197.7247672014738
 21
779.2757492361561
 31
0.0
 11
197.4599788577048
 21
779.0203927258822
 31
0.0
 11
197.2199620107575
 21
778.7415707265928
 31
0.0
 11
196.9888440784323
 21
778.4210787989678
 31
0.0
 11
196.7842050886791
 21
778.0830338297858
 31
0.0
 11
196.5939387560879
 21
777.7078701059418
 31
0.0
 11
196.4307366888123
 21
777.3201478561091
 31
0.0
 11
196.2869514182304
 21
776.9023115316478
 31
0.0
 11
196.1702967696234
 21
776.4760927098332
 31
0.0
 11
196.0770333679238
 21
776.0287027437433
 31
0.0
 11
196.0107986662674
 21
775.5765145794654
 31
0.0
 11
195.9704736775008
 21
775.1134113662533
 31
0.0
 11
195.957088647906
 21
774.6487466912893
 31
0.0
 11
195.9704736775008
 21
774.1840820163247
 31
0.0
 11
196.0107986662674
 21
773.7209788031123
 31
0.0
 11
196.0770333679238
 21
773.2687906388347
 31
0.0
 11
196.1702967696234
 21
772.8214006727449
 31
0.0
 11
196.2869514182305
 21
772.3951818509303
 31
0.0
 11
196.4307366888123
 21
771.9773455264689
 31
0.0
 11
196.5939387560879
 21
771.589623276636
 31
0.0
 11
196.7842050886791
 21
771.2144595527918
 31
0.0
 11
196.9888440784322
 21
770.87641458361
 31
0.0
 11
197.2199620107575
 21
770.5559226559851
 31
0.0
 11
197.4599788577049
 21
770.2771006566958
 31
0.0
 11
197.7247672014738
 21
770.0217441464218
 31
0.0
 11
197.9934892798603
 21
769.8099468121657
 31
0.0
 11
198.2832824105518
 21
769.6281547678084
 31
0.0
 11
198.5736381007224
 21
769.4895804228796
 31
0.0
 11
198.8785374359857
 21
769.3871135342476
 31
0.0
 11
199.1828699569049
 21
769.3265614548498
 31
0.0
 11
199.4924457550415
 21
769.3059443616489
 31
0.0
  0
SPLINE
  5
433
330
69
100
AcDbEntity
  8
1
  6
Continuous
 62
     7
100
AcDbSpline
210
0.0
220
0.0
230
1.0
 70
    11
 71
     3
 72
    79
 73
    75
 74
    73
 42
0.000000001
 43
0.0000000001
 44
0.00000001
 40
0.0
 40
0.0
 40
0.0
 40
0.0
 40
0.3102615582252382
 40
0.6205595420822034
 40
0.9422162975288872
 40
1.263944872753714
 40
1.606039020845123
 40
1.948193468907383
 40
2.316051885190656
 40
2.683951048239968
 40
3.079084664080509
 40
3.474244780173891
 40
3.894897959207656
 40
4.315568207494364
 40
4.757452126736546
 40
5.199346674241736
 40
5.656354161987075
 40
6.113367478658216
 40
6.578223037733416
 40
7.043080455843149
 40
7.50793787395049
 40
7.972793433018879
 40
8.42980674967779
 40
8.886814237403636
 40
9.328708784880341
 40
9.770592704081492
 40
10.19126295231288
 40
10.61191613126954
 40
11.00707624726345
 40
11.40220986296906
 40
11.77010902585015
 40
12.13796744190995
 40
12.48012188969648
 40
12.82221603741955
 40
13.14394461216178
 40
13.465601366825
 40
13.77589934864166
 40
14.08616091447282
 40
14.39642248030387
 40
14.70672046212045
 40
15.02837721678372
 40
15.35010579152588
 40
15.69219993924879
 40
16.03435438703523
 40
16.4022128030951
 40
16.77011196597633
 40
17.1652455816819
 40
17.56040569767578
 40
17.9810588766326
 40
18.40172912486388
 40
18.84361304406486
 40
19.28550759154165
 40
19.74251507926752
 40
20.19952839592646
 40
20.66438395499473
 40
21.12924137310218
 40
21.59409879121192
 40
22.05895435028711
 40
22.51596766695828
 40
22.97297515470364
 40
23.41486970220868
 40
23.85675362145092
 40
24.27742386973752
 40
24.69807704877143
 40
25.09323716486491
 40
25.4883707807053
 40
25.8562699437547
 40
26.22412836003809
 40
26.56628280810015
 40
26.9083769561915
 40
27.2301055314164
 40
27.55176228686304
 40
27.86206027071989
 40
28.17232182894504
 40
28.17232182894504
 40
28.17232182894504
 40
28.17232182894504
 10
199.4924457550415
 20
767.4302420922922
 30
0.0
 10
199.5959359369637
 20
767.426208900576
 30
0.0
 10
199.8029284513084
 20
767.4181420519056
 30
0.0
 10
200.1117773193311
 20
767.3541580740962
 30
0.0
 10
200.413744233065
 20
767.2527372777986
 30
0.0
 10
200.71065388918
 20
767.1103147777012
 30
0.0
 10
200.9949719975401
 20
766.9312122049408
 30
0.0
 10
201.2704730438367
 20
766.7132419370803
 30
0.0
 10
201.5290790645052
 20
766.4629597830453
 30
0.0
 10
201.7748369541181
 20
766.1764976212737
 30
0.0
 10
202.0004822143128
 20
765.8626668689868
 30
0.0
 10
202.2092538822005
 20
765.5167527039555
 30
0.0
 10
202.3954746504717
 20
765.1486339118046
 30
0.0
 10
202.5611591808183
 20
764.753939976888
 30
0.0
 10
202.702466953668
 20
764.3423867769159
 30
0.0
 10
202.8202464422425
 20
763.9109610773219
 30
0.0
 10
202.9123647438812
 20
763.4681870486107
 30
0.0
 10
202.9788506712742
 20
763.0131290500174
 30
0.0
 10
203.0189082281844
 20
762.5523619479357
 30
0.0
 10
203.0322501854794
 20
762.0874397725051
 30
0.0
 10
203.0189082282629
 20
761.6225175970778
 30
0.0
 10
202.9788506714354
 20
761.1617504949854
 30
0.0
 10
202.9123647441338
 20
760.7066924964329
 30
0.0
 10
202.8202464425987
 20
760.2639184675681
 30
0.0
 10
202.7024669541458
 20
759.8324927685265
 30
0.0
 10
202.5611591814379
 20
759.4209395665276
 30
0.0
 10
202.3954746512608
 20
759.0262456388056
 30
0.0
 10
202.209253883187
 20
758.658126820583
 30
0.0
 10
202.0004822155345
 20
758.3122127471602
 30
0.0
 10
201.7748369556117
 20
757.9983816652219
 30
0.0
 10
201.5290790663206
 20
757.7119206527492
 30
0.0
 10
201.2704730460217
 20
757.461634373676
 30
0.0
 10
200.994972000165
 20
757.2436784756693
 30
0.0
 10
200.7106538923256
 20
757.0645241619302
 30
0.0
 10
200.4137442369133
 20
756.9222838105422
 30
0.0
 10
200.111777324404
 20
756.8202001585024
 30
0.0
 10
199.8029284552575
 20
756.7586069185745
 30
0.0
 10
199.4924457550415
 20
756.7376531151131
 30
0.0
 10
199.1819630548256
 20
756.7586069185744
 30
0.0
 10
198.8731141856792
 20
756.8202001585024
 30
0.0
 10
198.57114727317
 20
756.9222838105424
 30
0.0
 10
198.2742376177576
 20
757.0645241619302
 30
0.0
 10
197.9899195099183
 20
757.2436784756694
 30
0.0
 10
197.7144184640619
 20
757.4616343736762
 30
0.0
 10
197.4558124437627
 20
757.7119206527491
 30
0.0
 10
197.2100545544716
 20
757.998381665222
 30
0.0
 10
196.9844092945488
 20
758.3122127471602
 30
0.0
 10
196.7756376268963
 20
758.6581268205834
 30
0.0
 10
196.5894168588224
 20
759.0262456388054
 30
0.0
 10
196.4237323286453
 20
759.4209395665277
 30
0.0
 10
196.2824245559376
 20
759.8324927685268
 30
0.0
 10
196.1646450674848
 20
760.263918467568
 30
0.0
 10
196.0725267659496
 20
760.7066924964329
 30
0.0
 10
196.0060408386478
 20
761.1617504949853
 30
0.0
 10
195.9659832818204
 20
761.6225175970778
 30
0.0
 10
195.9526413246039
 20
762.0874397725049
 30
0.0
 10
195.9659832818989
 20
762.5523619479359
 30
0.0
 10
196.0060408388089
 20
763.0131290500171
 30
0.0
 10
196.0725267662022
 20
763.4681870486111
 30
0.0
 10
196.164645067841
 20
763.9109610773213
 30
0.0
 10
196.2824245564154
 20
764.342386776916
 30
0.0
 10
196.4237323292649
 20
764.753939976888
 30
0.0
 10
196.5894168596116
 20
765.148633911805
 30
0.0
 10
196.7756376278828
 20
765.5167527039553
 30
0.0
 10
196.9844092957705
 20
765.8626668689865
 30
0.0
 10
197.2100545559652
 20
766.1764976212742
 30
0.0
 10
197.4558124455782
 20
766.4629597830453
 30
0.0
 10
197.7144184662467
 20
766.7132419370802
 30
0.0
 10
197.9899195125432
 20
766.9312122049406
 30
0.0
 10
198.2742376209034
 20
767.1103147777009
 30
0.0
 10
198.571147277018
 20
767.252737277799
 30
0.0
 10
198.8731141907522
 20
767.3541580740961
 30
0.0
 10
199.1819630587746
 20
767.4181420519056
 30
0.0
 10
199.3889555731193
 20
767.4262089005763
 30
0.0
 10
199.4924457550415
 20
767.4302420922922
 30
0.0
 11
199.4924457550415
 21
767.4302420922922
 31
0.0
 11
199.8020215531782
 21
767.4096249990915
 31
0.0
 11
200.1063540740975
 21
767.3490729196935
 31
0.0
 11
200.4112534093608
 21
767.2466060310616
 31
0.0
 11
200.7016090995314
 21
767.1080316861328
 31
0.0
 11
200.991402230223
 21
766.9262396417753
 31
0.0
 11
201.2601243086097
 21
766.714442307519
 31
0.0
 11
201.5249126523785
 21
766.4590857972453
 31
0.0
 11
201.7649294993257
 21
766.1802637979563
 31
0.0
 11
201.9960474316511
 21
765.8597718703312
 31
0.0
 11
202.2006864214042
 21
765.5217269011492
 31
0.0
 11
202.3909527539952
 21
765.1465631773051
 31
0.0
 11
202.5541548212709
 21
764.7588409274722
 31
0.0
 11
202.697940091853
 21
764.341004603011
 31
0.0
 11
202.8145947404601
 21
763.9147857811964
 31
0.0
 11
202.9078581421596
 21
763.4673958151066
 31
0.0
 11
202.9740928438158
 21
763.0152076508289
 31
0.0
 11
203.0144178325825
 21
762.5521044376164
 31
0.0
 11
203.0278028621773
 21
762.087439762652
 31
0.0
 11
203.0144178325825
 21
761.6227750876878
 31
0.0
 11
202.9740928438158
 21
761.1596718744754
 31
0.0
 11
202.9078581421596
 21
760.7074837101977
 31
0.0
 11
202.8145947404601
 21
760.2600937441078
 31
0.0
 11
202.697940091853
 21
759.8338749222935
 31
0.0
 11
202.5541548212709
 21
759.4160385978323
 31
0.0
 11
202.3909527539953
 21
759.0283163479993
 31
0.0
 11
202.2006864214042
 21
758.653152624155
 31
0.0
 11
201.996047431651
 21
758.3151076549731
 31
0.0
 11
201.7649294993257
 21
757.994615727348
 31
0.0
 11
201.5249126523785
 21
757.7157937280588
 31
0.0
 11
201.2601243086097
 21
757.460437217785
 31
0.0
 11
200.9914022302231
 21
757.248639883529
 31
0.0
 11
200.7016090995314
 21
757.0668478391718
 31
0.0
 11
200.4112534093608
 21
756.9282734942428
 31
0.0
 11
200.1063540740975
 21
756.825806605611
 31
0.0
 11
199.8020215531782
 21
756.7652545262131
 31
0.0
 11
199.4924457550415
 21
756.7446374330123
 31
0.0
 11
199.1828699569049
 21
756.7652545262131
 31
0.0
 11
198.8785374359857
 21
756.825806605611
 31
0.0
 11
198.5736381007223
 21
756.928273494243
 31
0.0
 11
198.2832824105518
 21
757.0668478391718
 31
0.0
 11
197.9934892798603
 21
757.248639883529
 31
0.0
 11
197.7247672014738
 21
757.460437217785
 31
0.0
 11
197.4599788577049
 21
757.7157937280588
 31
0.0
 11
197.2199620107575
 21
757.994615727348
 31
0.0
 11
196.9888440784323
 21
758.3151076549731
 31
0.0
 11
196.7842050886791
 21
758.653152624155
 31
0.0
 11
196.5939387560879
 21
759.0283163479994
 31
0.0
 11
196.4307366888123
 21
759.4160385978323
 31
0.0
 11
196.2869514182304
 21
759.8338749222934
 31
0.0
 11
196.1702967696234
 21
760.2600937441078
 31
0.0
 11
196.0770333679238
 21
760.7074837101977
 31
0.0
 11
196.0107986662674
 21
761.1596718744754
 31
0.0
 11
195.9704736775008
 21
761.6227750876877
 31
0.0
 11
195.957088647906
 21
762.087439762652
 31
0.0
 11
195.9704736775008
 21
762.5521044376164
 31
0.0
 11
196.0107986662674
 21
763.0152076508289
 31
0.0
 11
196.0770333679238
 21
763.4673958151066
 31
0.0
 11
196.1702967696234
 21
763.9147857811964
 31
0.0
 11
196.2869514182304
 21
764.3410046030109
 31
0.0
 11
196.4307366888123
 21
764.7588409274722
 31
0.0
 11
196.593938756088
 21
765.146563177305
 31
0.0
 11
196.7842050886791
 21
765.5217269011492
 31
0.0
 11
196.9888440784322
 21
765.8597718703313
 31
0.0
 11
197.2199620107575
 21
766.1802637979563
 31
0.0
 11
197.4599788577049
 21
766.4590857972453
 31
0.0
 11
197.7247672014738
 21
766.714442307519
 31
0.0
 11
197.9934892798603
 21
766.9262396417752
 31
0.0
 11
198.2832824105518
 21
767.1080316861328
 31
0.0
 11
198.5736381007224
 21
767.2466060310618
 31
0.0
 11
198.8785374359857
 21
767.3490729196935
 31
0.0
 11
199.1828699569049
 21
767.4096249990915
 31
0.0
 11
199.4924457550415
 21
767.4302420922922
 31
0.0
  0
SPLINE
  5
434
330
69
100
AcDbEntity
  8
1
  6
Continuous
 62
     7
100
AcDbSpline
210
0.0
220
0.0
230
1.0
 70
    11
 71
     3
 72
    79
 73
    75
 74
    73
 42
0.000000001
 43
0.0000000001
 44
0.00000001
 40
0.0
 40
0.0
 40
0.0
 40
0.0
 40
0.2803981055170699
 40
0.5607977780794449
 40
0.8427454767816187
 40
1.12469746594307
 40
1.409536444711988
 40
1.694381494092168
 40
1.983071303433809
 40
2.271767836809166
 40
2.564776135645501
 40
2.857790848031777
 40
3.155055692063478
 40
3.452325972452623
 40
3.75328482090951
 40
4.054247736388289
 40
4.357919800455362
 40
4.661594361771643
 40
4.966700742338228
 40
5.271807963175678
 40
5.576915184002948
 40
5.882021564538496
 40
6.185696125802625
 40
6.489368189796068
 40
6.790331105179868
 40
7.091289953518753
 40
7.388560233767625
 40
7.685825077633963
 40
7.97883978983062
 40
8.271848088449223
 40
8.56054462157989
 40
8.849234430642598
 40
9.134079479707369
 40
9.418918458106265
 40
9.700870446812875
 40
9.982818144856239
 40
10.26321781600901
 40
10.54361593035252
 40
10.82401404469597
 40
11.10441371584863
 40
11.38636141389211
 40
11.66831340259877
 40
11.95315238099776
 40
12.23799743006255
 40
12.52668723912518
 40
12.81538377225574
 40
13.10839207087442
 40
13.40140678307107
 40
13.69867162693735
 40
13.99594190718619
 40
14.2969007555251
 40
14.5978636709089
 40
14.90153573490234
 40
15.20521029616647
 40
15.51031667670201
 40
15.81542389752931
 40
16.12053111836676
 40
16.42563749893337
 40
16.72931206024968
 40
17.03298412431672
 40
17.33394703979545
 40
17.63490588825242
 40
17.93217616864155
 40
18.22944101267317
 40
18.52245572505948
 40
18.81546402389586
 40
19.10416055727115
 40
19.39285036661267
 40
19.67769541599284
 40
19.96253439476187
 40
20.24448638392338
 40
20.52643408262566
 40
20.80683375518792
 40
21.08723186070494
 40
21.08723186070494
 40
21.08723186070494
 40
21.08723186070494
 10
202.9567799360908
 20
276.1097629777729
 30
0.0
 10
202.9541985502848
 20
276.0162624377307
 30
0.0
 10
202.9490357695801
 20
275.8292608349287
 30
0.0
 10
202.9075634210166
 20
275.5507764237355
 30
0.0
 10
202.8416632611749
 20
275.2768342265829
 30
0.0
 10
202.7494311522176
 20
275.0089060608141
 30
0.0
 10
202.6323489630887
 20
274.7498602729436
 30
0.0
 10
202.4908726816897
 20
274.5007009785268
 30
0.0
 10
202.3265903358535
 20
274.2643909581124
 30
0.0
 10
202.1401301877748
 20
274.0416159639748
 30
0.0
 10
201.9337057129617
 20
273.8351599314688
 30
0.0
 10
201.7079880186382
 20
273.6455471876288
 30
0.0
 10
201.4656972203933
 20
273.4751480115103
 30
0.0
 10
201.2076397276495
 20
273.3244352037146
 30
0.0
 10
200.9368125242568
 20
273.1952120670053
 30
0.0
 10
200.6542956708437
 20
273.0879323936401
 30
0.0
 10
200.3631077003285
 20
273.0037778899067
 30
0.0
 10
200.0647289274872
 20
272.9431346158992
 30
0.0
 10
199.7619679556762
 20
272.9066008534527
 30
0.0
 10
199.4567799454936
 20
272.894381822541
 30
0.0
 10
199.1515919353091
 20
272.9066008531026
 30
0.0
 10
198.8488309634824
 20
272.9431346151981
 30
0.0
 10
198.5504521906396
 20
273.0037778888524
 30
0.0
 10
198.2592642200356
 20
273.0879323922296
 30
0.0
 10
197.9767473668196
 20
273.195212065234
 30
0.0
 10
197.7059201625234
 20
273.3244352015777
 30
0.0
 10
197.4478626728968
 20
273.475148009001
 30
0.0
 10
197.2055718628403
 20
273.6455471847402
 30
0.0
 10
196.9798542116785
 20
273.8351599281912
 30
0.0
 10
196.7734295766847
 20
274.0416159602981
 30
0.0
 10
196.5869700175366
 20
274.2643909540219
 30
0.0
 10
196.422685489851
 20
274.5007009740037
 30
0.0
 10
196.2812172468028
 20
274.749860267958
 30
0.0
 10
196.1641052432189
 20
275.0089060553184
 30
0.0
 10
196.0719833247599
 20
275.2768342204522
 30
0.0
 10
196.0056735592021
 20
275.5507764166521
 30
0.0
 10
195.9657218941125
 20
275.8292608296887
 30
0.0
 10
195.9523089844917
 20
276.109762977773
 30
0.0
 10
195.9657218941124
 20
276.3902651258569
 30
0.0
 10
196.0056735592021
 20
276.6687495388936
 30
0.0
 10
196.0719833247598
 20
276.9426917350934
 30
0.0
 10
196.1641052432189
 20
277.2106199002275
 30
0.0
 10
196.2812172468028
 20
277.4696656875878
 30
0.0
 10
196.4226854898509
 20
277.7188249815423
 30
0.0
 10
196.5869700175367
 20
277.9551350015239
 30
0.0
 10
196.7734295766847
 20
278.1779099952477
 30
0.0
 10
196.9798542116785
 20
278.3843660273544
 30
0.0
 10
197.2055718628403
 20
278.5739787708056
 30
0.0
 10
197.4478626728968
 20
278.7443779465447
 30
0.0
 10
197.7059201625235
 20
278.8950907539678
 30
0.0
 10
197.9767473668195
 20
279.0243138903116
 30
0.0
 10
198.2592642200356
 20
279.1315935633162
 30
0.0
 10
198.5504521906396
 20
279.2157480666933
 30
0.0
 10
198.8488309634824
 20
279.2763913403476
 30
0.0
 10
199.151591935309
 20
279.3129251024433
 30
0.0
 10
199.4567799454937
 20
279.3251441330049
 30
0.0
 10
199.7619679556762
 20
279.3129251020931
 30
0.0
 10
200.0647289274872
 20
279.2763913396465
 30
0.0
 10
200.3631077003286
 20
279.215748065639
 30
0.0
 10
200.6542956708436
 20
279.1315935619056
 30
0.0
 10
200.9368125242569
 20
279.0243138885405
 30
0.0
 10
201.2076397276493
 20
278.895090751831
 30
0.0
 10
201.4656972203933
 20
278.7443779440354
 30
0.0
 10
201.7079880186382
 20
278.573978767917
 30
0.0
 10
201.9337057129617
 20
278.3843660240769
 30
0.0
 10
202.1401301877748
 20
278.177909991571
 30
0.0
 10
202.3265903358535
 20
277.9551349974333
 30
0.0
 10
202.4908726816897
 20
277.7188249770192
 30
0.0
 10
202.6323489630888
 20
277.4696656826023
 30
0.0
 10
202.7494311522175
 20
277.2106198947317
 30
0.0
 10
202.841663261175
 20
276.9426917289628
 30
0.0
 10
202.9075634210166
 20
276.6687495318101
 30
0.0
 10
202.9490357695801
 20
276.390265120617
 30
0.0
 10
202.9541985502847
 20
276.203263517815
 30
0.0
 10
202.9567799360908
 20
276.1097629777729
 30
0.0
 11
202.9567799360908
 21
276.1097629777729
 31
0.0
 11
202.9434271507927
 21
275.8296829789033
 31
0.0
 11
202.9036070716335
 21
275.5521251705246
 31
0.0
 11
202.8373474889094
 21
275.2780737661457
 31
0.0
 11
202.7457041088413
 21
275.0114309058712
 31
0.0
 11
202.6284561085562
 21
274.7518424813352
 31
0.0
 11
202.4878688493363
 21
274.5041089054398
 31
0.0
 11
202.3231716539843
 21
274.2670084208307
 31
0.0
 11
202.1379354870072
 21
274.0455738914959
 31
0.0
 11
201.9308426100919
 21
273.8382905021862
 31
0.0
 11
201.7065365699936
 21
273.6497582184086
 31
0.0
 11
201.4634417392929
 21
273.478669671835
 31
0.0
 11
201.2067799360908
 21
273.328688545112
 31
0.0
 11
200.9351917161197
 21
273.1990117652376
 31
0.0
 11
200.6538504377307
 21
273.0921204111602
 31
0.0
 11
200.3621329541852
 21
273.0077543498299
 31
0.0
 11
200.0645485579249
 21
272.9472418195942
 31
0.0
 11
199.7616428233907
 21
272.9106628710314
 31
0.0
 11
199.4567799360908
 21
272.8984548331067
 31
0.0
 11
199.1519170487908
 21
272.9106628710314
 31
0.0
 11
198.8490113142565
 21
272.9472418195942
 31
0.0
 11
198.5514269179964
 21
273.0077543498299
 31
0.0
 11
198.2597094344509
 21
273.0921204111602
 31
0.0
 11
197.9783681560619
 21
273.1990117652376
 31
0.0
 11
197.7067799360908
 21
273.328688545112
 31
0.0
 11
197.4501181328886
 21
273.478669671835
 31
0.0
 11
197.2070233021877
 21
273.6497582184086
 31
0.0
 11
196.9827172620895
 21
273.8382905021861
 31
0.0
 11
196.7756243851744
 21
274.0455738914959
 31
0.0
 11
196.5903882181974
 21
274.2670084208308
 31
0.0
 11
196.4256910228453
 21
274.5041089054398
 31
0.0
 11
196.2851037636254
 21
274.7518424813352
 31
0.0
 11
196.1678557633401
 21
275.0114309058712
 31
0.0
 11
196.0762123832719
 21
275.2780737661457
 31
0.0
 11
196.0099528005479
 21
275.5521251705246
 31
0.0
 11
195.9701327213888
 21
275.8296829789033
 31
0.0
 11
195.9567799360908
 21
276.1097629777729
 31
0.0
 11
195.9701327213888
 21
276.3898429766425
 31
0.0
 11
196.0099528005479
 21
276.667400785021
 31
0.0
 11
196.0762123832719
 21
276.9414521894001
 31
0.0
 11
196.1678557633401
 21
277.2080950496746
 31
0.0
 11
196.2851037636253
 21
277.4676834742107
 31
0.0
 11
196.4256910228453
 21
277.7154170501061
 31
0.0
 11
196.5903882181974
 21
277.952517534715
 31
0.0
 11
196.7756243851744
 21
278.1739520640498
 31
0.0
 11
196.9827172620896
 21
278.3812354533596
 31
0.0
 11
197.2070233021877
 21
278.5697677371372
 31
0.0
 11
197.4501181328886
 21
278.7408562837107
 31
0.0
 11
197.7067799360908
 21
278.8908374104336
 31
0.0
 11
197.9783681560619
 21
279.0205141903081
 31
0.0
 11
198.2597094344509
 21
279.1274055443855
 31
0.0
 11
198.5514269179964
 21
279.2117716057158
 31
0.0
 11
198.8490113142565
 21
279.2722841359515
 31
0.0
 11
199.1519170487908
 21
279.3088630845145
 31
0.0
 11
199.4567799360908
 21
279.3210711224392
 31
0.0
 11
199.7616428233907
 21
279.3088630845145
 31
0.0
 11
200.0645485579249
 21
279.2722841359515
 31
0.0
 11
200.3621329541852
 21
279.2117716057158
 31
0.0
 11
200.6538504377307
 21
279.1274055443855
 31
0.0
 11
200.9351917161197
 21
279.0205141903081
 31
0.0
 11
201.2067799360908
 21
278.8908374104336
 31
0.0
 11
201.4634417392929
 21
278.7408562837107
 31
0.0
 11
201.7065365699936
 21
278.5697677371372
 31
0.0
 11
201.9308426100919
 21
278.3812354533596
 31
0.0
 11
202.1379354870072
 21
278.1739520640498
 31
0.0
 11
202.3231716539843
 21
277.952517534715
 31
0.0
 11
202.4878688493363
 21
277.7154170501061
 31
0.0
 11
202.6284561085562
 21
277.4676834742107
 31
0.0
 11
202.7457041088413
 21
277.2080950496746
 31
0.0
 11
202.8373474889095
 21
276.9414521894001
 31
0.0
 11
202.9036070716335
 21
276.667400785021
 31
0.0
 11
202.9434271507927
 21
276.3898429766425
 31
0.0
 11
202.9567799360908
 21
276.1097629777729
 31
0.0
  0
SPLINE
  5
435
330
69
100
AcDbEntity
  8
1
  6
Continuous
 62
     7
100
AcDbSpline
210
0.0
220
0.0
230
1.0
 70
     8
 71
     3
 72
    29
 73
    25
 74
    23
 42
0.000000001
 43
0.0000000001
 44
0.00000001
 40
0.0
 40
0.0
 40
0.0
 40
0.0
 40
0.6069077071333305
 40
1.212222618921865
 40
1.842666699980748
 40
2.474631891987482
 40
3.102420163134746
 40
3.729333881624317
 40
4.271042929452934
 40
4.812985317241089
 40
5.340107969103932
 40
5.866248914948698
 40
6.263874824440315
 40
6.661485222726681
 40
7.280966483141036
 40
7.902596723210063
 40
8.549168899022604
 40
9.195896755584803
 40
9.722415956711881
 40
10.24911839923889
 40
11.0789753537707
 40
11.90732205839647
 40
12.6733170789443
 40
13.44191268485634
 40
13.44191268485634
 40
13.44191268485634
 40
13.44191268485634
 10
202.9567799360908
 20
287.3680932269704
 30
0.0
 10
202.9469045627267
 20
287.1660333994247
 30
0.0
 10
202.9271797215141
 20
286.7624440397477
 30
0.0
 10
202.8633893732925
 20
286.1507384916639
 30
0.0
 10
202.7292060755522
 20
285.5413214305219
 30
0.0
 10
202.5287504560257
 20
284.9429152555437
 30
0.0
 10
202.2701893397956
 20
284.3683527240698
 30
0.0
 10
201.9612599506912
 20
283.8534549267013
 30
0.0
 10
201.6074430267467
 20
283.4044360529452
 30
0.0
 10
201.2194183592297
 20
283.0304944506473
 30
0.0
 10
200.7824879561546
 20
282.7235285493405
 30
0.0
 10
200.3422739897183
 20
282.5162198919012
 30
0.0
 10
199.9155648696656
 20
282.4003173036807
 30
0.0
 10
199.4446494278636
 20
282.3496140988032
 30
0.0
 10
198.8956748356228
 20
282.4100704220442
 30
0.0
 10
198.2979287703011
 20
282.6230176536737
 30
0.0
 10
197.7563265251606
 20
282.9702545908261
 30
0.0
 10
197.3157185577705
 20
283.3916123164063
 30
0.0
 10
196.9658446348009
 20
283.8390258063864
 30
0.0
 10
196.6369342524592
 20
284.3748621919315
 30
0.0
 10
196.3331956320574
 20
285.0397532413173
 30
0.0
 10
196.108425766341
 20
285.8194143019541
 30
0.0
 10
196.0040389669503
 20
286.6018199180583
 30
0.0
 10
195.9726164764444
 20
287.112380384232
 30
0.0
 10
195.9568786121777
 20
287.3680932269704
 30
0.0
 11
202.9567799360908
 21
287.3680932269704
 31
0.0
 11
202.9215790703283
 21
286.7622072052123
 31
0.0
 11
202.8532220782441
 21
286.160764385731
 31
0.0
 11
202.7185455924198
 21
285.5448731739899
 31
0.0
 11
202.5184807004748
 21
284.9454117124412
 31
0.0
 11
202.2590994622245
 21
284.3737129391211
 31
0.0
 11
201.9348795074465
 21
283.837147722108
 31
0.0
 11
201.5982703674655
 21
283.4127151833289
 31
0.0
 11
201.2067799360908
 21
283.0379662080485
 31
0.0
 11
200.7744347748722
 21
282.7364103220884
 31
0.0
 11
200.2974323892559
 21
282.5143900082546
 31
0.0
 11
199.9135833591262
 21
282.4106292911115
 31
0.0
 11
199.5181718133119
 21
282.3688711932908
 31
0.0
 11
198.9020673591021
 21
282.4334648049122
 31
0.0
 11
198.3161331888254
 21
282.6410829750636
 31
0.0
 11
197.7695315549114
 21
282.9864555759186
 31
0.0
 11
197.299555574831
 21
283.4307297025216
 31
0.0
 11
196.9740809272598
 21
283.8446001212962
 31
0.0
 11
196.6971754290801
 21
284.2926389685202
 31
0.0
 11
196.3522133409026
 21
285.0473996751578
 31
0.0
 11
196.1235358511563
 21
285.843555985546
 31
0.0
 11
196.0132157221418
 21
286.6015651161455
 31
0.0
 11
195.9568786121777
 21
287.3680932269704
 31
0.0
  0
SPLINE
  5
436
330
69
100
AcDbEntity
  8
1
  6
Continuous
 62
     7
100
AcDbSpline
210
0.0
220
0.0
230
1.0
 70
    11
 71
     3
 72
    79
 73
    75
 74
    73
 42
0.000000001
 43
0.0000000001
 44
0.00000001
 40
0.0
 40
0.0
 40
0.0
 40
0.0
 40
0.2803981055171834
 40
0.5607977780795584
 40
0.8427454767816838
 40
1.124697465942964
 40
1.409536444711987
 40
1.694381494092265
 40
1.983071303433813
 40
2.27176783680917
 40
2.564776135645465
 40
2.857790848031704
 40
3.155055692063471
 40
3.452325972452672
 40
3.753284820909535
 40
4.054247736388254
 40
4.357919800455327
 40
4.661594361771607
 40
4.966700742338212
 40
5.271807963175666
 40
5.576915184002939
 40
5.882021564538515
 40
6.185696125802667
 40
6.489368189796078
 40
6.790331105179818
 40
7.091289953518678
 40
7.388560233767606
 40
7.68582507763401
 40
7.97883978983066
 40
8.271848088449183
 40
8.56054462157978
 40
8.849234430642472
 40
9.134079479707342
 40
9.418918458106342
 40
9.70087044681279
 40
9.982818144856099
 40
10.26321781600893
 40
10.54361593035249
 40
10.824014044696
 40
11.10441371584872
 40
11.38636141389203
 40
11.66831340259864
 40
11.95315238099752
 40
12.23799743006236
 40
12.52668723912515
 40
12.81538377225579
 40
13.10839207087427
 40
13.40140678307096
 40
13.69867162693733
 40
13.9959419071862
 40
14.29690075552509
 40
14.59786367090887
 40
14.9015357349023
 40
15.20521029616644
 40
15.51031667670197
 40
15.81542389752927
 40
16.12053111836672
 40
16.42563749893331
 40
16.7293120602496
 40
17.03298412431666
 40
17.33394703979543
 40
17.63490588825231
 40
17.93217616864145
 40
18.22944101267319
 40
18.52245572505943
 40
18.81546402389572
 40
19.1041605572711
 40
19.39285036661276
 40
19.67769541599293
 40
19.96253439476191
 40
20.24448638392337
 40
20.52643408262548
 40
20.8068337551878
 40
21.08723186070487
 40
21.08723186070487
 40
21.08723186070487
 40
21.08723186070487
 10
202.9567799360908
 20
298.6264234761682
 30
0.0
 10
202.9541985502847
 20
298.7199240162103
 30
0.0
 10
202.9490357695801
 20
298.9069256190125
 30
0.0
 10
202.9075634210167
 20
299.1854100302057
 30
0.0
 10
202.8416632611748
 20
299.4593522273582
 30
0.0
 10
202.7494311522176
 20
299.727280393127
 30
0.0
 10
202.6323489630887
 20
299.9863261809975
 30
0.0
 10
202.4908726816898
 20
300.2354854754146
 30
0.0
 10
202.3265903358535
 20
300.4717954958285
 30
0.0
 10
202.1401301877748
 20
300.6945704899663
 30
0.0
 10
201.9337057129618
 20
300.9010265224723
 30
0.0
 10
201.707988018638
 20
301.0906392663121
 30
0.0
 10
201.4656972203932
 20
301.2610384424307
 30
0.0
 10
201.2076397276495
 20
301.4117512502268
 30
0.0
 10
200.9368125242569
 20
301.5409743869358
 30
0.0
 10
200.6542956708436
 20
301.6482540603009
 30
0.0
 10
200.3631077003285
 20
301.7324085640342
 30
0.0
 10
200.0647289274872
 20
301.7930518380418
 30
0.0
 10
199.7619679556762
 20
301.8295856004885
 30
0.0
 10
199.4567799454937
 20
301.8418046314002
 30
0.0
 10
199.151591935309
 20
301.8295856008386
 30
0.0
 10
198.8488309634825
 20
301.793051838743
 30
0.0
 10
198.5504521906396
 20
301.7324085650884
 30
0.0
 10
198.2592642200357
 20
301.6482540617115
 30
0.0
 10
197.9767473668196
 20
301.5409743887071
 30
0.0
 10
197.7059201625234
 20
301.4117512523636
 30
0.0
 10
197.4478626728968
 20
301.2610384449401
 30
0.0
 10
197.2055718628403
 20
301.0906392692008
 30
0.0
 10
196.9798542116787
 20
300.9010265257497
 30
0.0
 10
196.7734295766846
 20
300.694570493643
 30
0.0
 10
196.5869700175366
 20
300.4717954999194
 30
0.0
 10
196.4226854898509
 20
300.2354854799376
 30
0.0
 10
196.2812172468028
 20
299.9863261859831
 30
0.0
 10
196.164105243219
 20
299.7272803986227
 30
0.0
 10
196.0719833247599
 20
299.4593522334889
 30
0.0
 10
196.0056735592021
 20
299.1854100372891
 30
0.0
 10
195.9657218941125
 20
298.9069256242525
 30
0.0
 10
195.9523089844917
 20
298.6264234761682
 30
0.0
 10
195.9657218941125
 20
298.345921328084
 30
0.0
 10
196.0056735592021
 20
298.0674369150474
 30
0.0
 10
196.0719833247599
 20
297.7934947188477
 30
0.0
 10
196.1641052432189
 20
297.5255665537138
 30
0.0
 10
196.2812172468028
 20
297.2665207663534
 30
0.0
 10
196.4226854898509
 20
297.017361472399
 30
0.0
 10
196.5869700175366
 20
296.7810514524172
 30
0.0
 10
196.7734295766846
 20
296.5582764586934
 30
0.0
 10
196.9798542116786
 20
296.3518204265868
 30
0.0
 10
197.2055718628403
 20
296.1622076831356
 30
0.0
 10
197.4478626728967
 20
295.9918085073964
 30
0.0
 10
197.7059201625235
 20
295.8410956999732
 30
0.0
 10
197.9767473668196
 20
295.7118725636294
 30
0.0
 10
198.2592642200356
 20
295.6045928906249
 30
0.0
 10
198.5504521906396
 20
295.520438387248
 30
0.0
 10
198.8488309634824
 20
295.4597951135935
 30
0.0
 10
199.1515919353091
 20
295.423261351498
 30
0.0
 10
199.4567799454937
 20
295.4110423209363
 30
0.0
 10
199.7619679556761
 20
295.4232613518481
 30
0.0
 10
200.0647289274872
 20
295.4597951142945
 30
0.0
 10
200.3631077003286
 20
295.5204383883024
 30
0.0
 10
200.6542956708437
 20
295.6045928920356
 30
0.0
 10
200.9368125242569
 20
295.7118725654006
 30
0.0
 10
201.2076397276494
 20
295.8410957021099
 30
0.0
 10
201.4656972203933
 20
295.9918085099056
 30
0.0
 10
201.7079880186382
 20
296.1622076860243
 30
0.0
 10
201.9337057129617
 20
296.3518204298641
 30
0.0
 10
202.1401301877748
 20
296.5582764623701
 30
0.0
 10
202.3265903358536
 20
296.7810514565079
 30
0.0
 10
202.4908726816897
 20
297.0173614769221
 30
0.0
 10
202.6323489630887
 20
297.2665207713389
 30
0.0
 10
202.7494311522176
 20
297.5255665592096
 30
0.0
 10
202.8416632611749
 20
297.7934947249784
 30
0.0
 10
202.9075634210166
 20
298.0674369221308
 30
0.0
 10
202.9490357695801
 20
298.345921333324
 30
0.0
 10
202.9541985502848
 20
298.5329229361262
 30
0.0
 10
202.9567799360908
 20
298.6264234761682
 30
0.0
 11
202.9567799360908
 21
298.6264234761682
 31
0.0
 11
202.9434271507927
 21
298.9065034750379
 31
0.0
 11
202.9036070716335
 21
299.1840612834166
 31
0.0
 11
202.8373474889094
 21
299.4581126877955
 31
0.0
 11
202.7457041088413
 21
299.7247555480698
 31
0.0
 11
202.6284561085562
 21
299.9843439726059
 31
0.0
 11
202.4878688493363
 21
300.2320775485014
 31
0.0
 11
202.3231716539843
 21
300.4691780331104
 31
0.0
 11
202.1379354870072
 21
300.6906125624452
 31
0.0
 11
201.9308426100919
 21
300.8978959517549
 31
0.0
 11
201.7065365699936
 21
301.0864282355324
 31
0.0
 11
201.4634417392929
 21
301.2575167821061
 31
0.0
 11
201.2067799360908
 21
301.4074979088292
 31
0.0
 11
200.9351917161197
 21
301.5371746887035
 31
0.0
 11
200.6538504377307
 21
301.6440660427808
 31
0.0
 11
200.3621329541852
 21
301.7284321041111
 31
0.0
 11
200.0645485579249
 21
301.7889446343468
 31
0.0
 11
199.7616428233907
 21
301.8255235829098
 31
0.0
 11
199.4567799360908
 21
301.8377316208346
 31
0.0
 11
199.1519170487908
 21
301.8255235829099
 31
0.0
 11
198.8490113142565
 21
301.7889446343468
 31
0.0
 11
198.5514269179964
 21
301.728432104111
 31
0.0
 11
198.2597094344509
 21
301.6440660427808
 31
0.0
 11
197.9783681560619
 21
301.5371746887035
 31
0.0
 11
197.7067799360908
 21
301.4074979088292
 31
0.0
 11
197.4501181328886
 21
301.2575167821062
 31
0.0
 11
197.2070233021877
 21
301.0864282355324
 31
0.0
 11
196.9827172620896
 21
300.8978959517548
 31
0.0
 11
196.7756243851744
 21
300.6906125624452
 31
0.0
 11
196.5903882181973
 21
300.4691780331104
 31
0.0
 11
196.4256910228453
 21
300.2320775485014
 31
0.0
 11
196.2851037636254
 21
299.9843439726059
 31
0.0
 11
196.1678557633401
 21
299.7247555480698
 31
0.0
 11
196.0762123832719
 21
299.4581126877955
 31
0.0
 11
196.0099528005479
 21
299.1840612834166
 31
0.0
 11
195.9701327213888
 21
298.9065034750379
 31
0.0
 11
195.9567799360908
 21
298.6264234761682
 31
0.0
 11
195.9701327213888
 21
298.3463434772986
 31
0.0
 11
196.0099528005479
 21
298.06878566892
 31
0.0
 11
196.0762123832719
 21
297.7947342645411
 31
0.0
 11
196.1678557633401
 21
297.5280914042666
 31
0.0
 11
196.2851037636253
 21
297.2685029797307
 31
0.0
 11
196.4256910228453
 21
297.0207694038352
 31
0.0
 11
196.5903882181973
 21
296.7836689192261
 31
0.0
 11
196.7756243851744
 21
296.5622343898912
 31
0.0
 11
196.9827172620895
 21
296.3549510005816
 31
0.0
 11
197.2070233021877
 21
296.166418716804
 31
0.0
 11
197.4501181328886
 21
295.9953301702303
 31
0.0
 11
197.7067799360908
 21
295.8453490435074
 31
0.0
 11
197.9783681560619
 21
295.715672263633
 31
0.0
 11
198.2597094344509
 21
295.6087809095556
 31
0.0
 11
198.5514269179964
 21
295.5244148482254
 31
0.0
 11
198.8490113142565
 21
295.4639023179896
 31
0.0
 11
199.1519170487908
 21
295.4273233694267
 31
0.0
 11
199.4567799360908
 21
295.415115331502
 31
0.0
 11
199.7616428233907
 21
295.4273233694267
 31
0.0
 11
200.0645485579249
 21
295.4639023179896
 31
0.0
 11
200.3621329541852
 21
295.5244148482254
 31
0.0
 11
200.6538504377307
 21
295.6087809095556
 31
0.0
 11
200.9351917161197
 21
295.7156722636329
 31
0.0
 11
201.2067799360908
 21
295.8453490435074
 31
0.0
 11
201.4634417392929
 21
295.9953301702304
 31
0.0
 11
201.7065365699936
 21
296.166418716804
 31
0.0
 11
201.9308426100919
 21
296.3549510005815
 31
0.0
 11
202.1379354870072
 21
296.5622343898912
 31
0.0
 11
202.3231716539843
 21
296.7836689192261
 31
0.0
 11
202.4878688493363
 21
297.0207694038352
 31
0.0
 11
202.6284561085562
 21
297.2685029797306
 31
0.0
 11
202.7457041088413
 21
297.5280914042666
 31
0.0
 11
202.8373474889095
 21
297.7947342645411
 31
0.0
 11
202.9036070716335
 21
298.06878566892
 31
0.0
 11
202.9434271507927
 21
298.3463434772986
 31
0.0
 11
202.9567799360908
 21
298.6264234761682
 31
0.0
  0
SPLINE
  5
437
330
69
100
AcDbEntity
  8
1
  6
Continuous
 62
     7
100
AcDbSpline
210
0.0
220
0.0
230
1.0
 70
     8
 71
     3
 72
    29
 73
    25
 74
    23
 42
0.000000001
 43
0.0000000001
 44
0.00000001
 40
0.0
 40
0.0
 40
0.0
 40
0.0
 40
0.6069077071335576
 40
1.212222618922206
 40
1.842666699981138
 40
2.474631891987881
 40
3.102420163135093
 40
3.729333881624664
 40
4.271042929453325
 40
4.812985317241599
 40
5.340107969104409
 40
5.866248914949127
 40
6.263874824440729
 40
6.661485222727094
 40
7.280966483141365
 40
7.902596723210454
 40
8.549168899022934
 40
9.195896755585016
 40
9.722415956712227
 40
10.24911839923953
 40
11.07897535377124
 40
11.90732205839688
 40
12.67331707894482
 40
13.44191268485714
 40
13.44191268485714
 40
13.44191268485714
 40
13.44191268485714
 10
202.9567799360908
 20
287.3680932269704
 30
0.0
 10
202.9469045627267
 20
287.5701530545161
 30
0.0
 10
202.9271797215139
 20
287.9737424141935
 30
0.0
 10
202.8633893732926
 20
288.5854479622772
 30
0.0
 10
202.7292060755522
 20
289.1948650234194
 30
0.0
 10
202.5287504560257
 20
289.7932711983976
 30
0.0
 10
202.2701893397955
 20
290.3678337298713
 30
0.0
 10
201.9612599506912
 20
290.8827315272401
 30
0.0
 10
201.6074430267467
 20
291.331750400996
 30
0.0
 10
201.2194183592298
 20
291.705692003294
 30
0.0
 10
200.7824879561546
 20
292.012657904601
 30
0.0
 10
200.3422739897182
 20
292.2199665620401
 30
0.0
 10
199.9155648696657
 20
292.3358691502605
 30
0.0
 10
199.4446494278636
 20
292.3865723551381
 30
0.0
 10
198.8956748356229
 20
292.326116031897
 30
0.0
 10
198.297928770301
 20
292.1131688002675
 30
0.0
 10
197.7563265251607
 20
291.7659318631154
 30
0.0
 10
197.3157185577704
 20
291.3445741375352
 30
0.0
 10
196.9658446348009
 20
290.8971606475549
 30
0.0
 10
196.6369342524593
 20
290.3613242620096
 30
0.0
 10
196.3331956320575
 20
289.6964332126238
 30
0.0
 10
196.108425766341
 20
288.9167721519871
 30
0.0
 10
196.0040389669503
 20
288.1343665358828
 30
0.0
 10
195.9726164764444
 20
287.623806069709
 30
0.0
 10
195.9568786121777
 20
287.3680932269704
 30
0.0
 11
202.9567799360908
 21
287.3680932269704
 31
0.0
 11
202.9215790703283
 21
287.9739792487287
 31
0.0
 11
202.8532220782441
 21
288.5754220682102
 31
0.0
 11
202.7185455924198
 21
289.1913132799513
 31
0.0
 11
202.5184807004748
 21
289.7907747415
 31
0.0
 11
202.2590994622245
 21
290.3624735148201
 31
0.0
 11
201.9348795074465
 21
290.8990387318332
 31
0.0
 11
201.5982703674655
 21
291.3234712706123
 31
0.0
 11
201.2067799360908
 21
291.6982202458929
 31
0.0
 11
200.7744347748722
 21
291.9997761318529
 31
0.0
 11
200.2974323892559
 21
292.2217964456866
 31
0.0
 11
199.9135833591262
 21
292.3255571628296
 31
0.0
 11
199.5181718133119
 21
292.3673152606504
 31
0.0
 11
198.9020673591022
 21
292.302721649029
 31
0.0
 11
198.3161331888254
 21
292.0951034788776
 31
0.0
 11
197.7695315549114
 21
291.7497308780227
 31
0.0
 11
197.299555574831
 21
291.3054567514199
 31
0.0
 11
196.9740809272598
 21
290.8915863326451
 31
0.0
 11
196.6971754290801
 21
290.4435474854208
 31
0.0
 11
196.3522133409026
 21
289.6887867787833
 31
0.0
 11
196.1235358511563
 21
288.8926304683952
 31
0.0
 11
196.0132157221417
 21
288.1346213377956
 31
0.0
 11
195.9568786121777
 21
287.3680932269704
 31
0.0
  0
ENDBLK
  5
6B
330
69
100
AcDbEntity
  8
0
100
AcDbBlockEnd
  0
BLOCK
  5
6D
330
6C
100
AcDbEntity
  8
0
100
AcDbBlockBegin
  2
36-1A-13-M4
 70
     0
 10
451.3850624974775
 20
251.2124389505173
 30
0.0
  3
36-1A-13-M4
  1

  0
LINE
  5
438
330
6C
100
AcDbEntity
  8
1
  6
Continuous
 62
     7
100
AcDbLine
 10
213.0270886479058
 20
282.6180932269706
 30
0.0
 11
209.9567799360908
 21
282.6180932269706
 31
0.0
  0
LINE
  5
439
330
6C
100
AcDbEntity
  8
1
  6
Continuous
 62
     7
100
AcDbLine
 10
209.9567799360908
 20
292.1180932269706
 30
0.0
 11
213.0270886479058
 21
292.1180932269706
 31
0.0
  0
LINE
  5
43A
330
6C
100
AcDbEntity
  8
1
  6
Continuous
 62
     7
100
AcDbLine
 10
213.0270886479059
 20
763.6180932269707
 30
0.0
 11
209.9567799360908
 21
763.6180932269707
 31
0.0
  0
LINE
  5
43B
330
6C
100
AcDbEntity
  8
1
  6
Continuous
 62
     7
100
AcDbLine
 10
209.9567799360908
 20
773.1180932269707
 30
0.0
 11
213.0270886479059
 21
773.1180932269707
 31
0.0
  0
ENDBLK
  5
6E
330
6C
100
AcDbEntity
  8
0
100
AcDbBlockEnd
  0
BLOCK
  5
70
330
6F
100
AcDbEntity
  8
0
100
AcDbBlockBegin
  2
32-1-16
 70
     0
 10
565.5919808917558
 20
446.3689329269329
 30
0.0
  3
32-1-16
  1

  0
LINE
  5
43C
330
6F
100
AcDbEntity
  8
1
  6
Continuous
 62
     7
100
AcDbLine
 10
163.5270886479057
 20
312.3680932269707
 30
0.0
 11
157.2270886479059
 21
312.3680932269707
 31
0.0
  0
LINE
  5
43D
330
6F
100
AcDbEntity
  8
1
  6
Continuous
 62
     7
100
AcDbLine
 10
177.5270886479057
 20
322.3680932269709
 30
0.0
 11
178.5270886479061
 21
322.3680932269709
 31
0.0
  0
LINE
  5
43E
330
6F
100
AcDbEntity
  8
1
  6
Continuous
 62
     7
100
AcDbLine
 10
161.827088647906
 20
322.3680932269709
 30
0.0
 11
160.7591394554747
 21
322.3680932269709
 31
0.0
  0
LINE
  5
43F
330
6F
100
AcDbEntity
  8
1
  6
Continuous
 62
     7
100
AcDbLine
 10
157.3400886479058
 20
312.3680932269707
 30
0.0
 11
157.2270886479059
 21
312.3680932269707
 31
0.0
  0
LINE
  5
440
330
6F
100
AcDbEntity
  8
1
  6
Continuous
 62
     7
100
AcDbLine
 10
158.9690675861754
 20
321.3680932269707
 30
0.0
 11
159.0270886479061
 21
321.3680932269709
 31
0.0
  0
LINE
  5
441
330
6F
100
AcDbEntity
  8
1
  6
Continuous
 62
     7
100
AcDbLine
 10
183.827088647906
 20
312.3680932269707
 30
0.0
 11
183.714088647906
 21
312.3680932269707
 31
0.0
  0
LINE
  5
442
330
6F
100
AcDbEntity
  8
1
  6
Continuous
 62
     7
100
AcDbLine
 10
180.2950378403371
 20
322.3680932269709
 30
0.0
 11
179.2270886479058
 21
322.3680932269709
 31
0.0
  0
LINE
  5
443
330
6F
100
AcDbEntity
  8
1
  6
Continuous
 62
     7
100
AcDbLine
 10
182.0270886479061
 20
321.3680932269709
 30
0.0
 11
182.0851097096365
 21
321.3680932269707
 31
0.0
  0
LINE
  5
444
330
6F
100
AcDbEntity
  8
1
  6
Continuous
 62
     7
100
AcDbLine
 10
178.5270886479061
 20
322.3680932269709
 30
0.0
 11
179.2270886479058
 21
322.3680932269709
 31
0.0
  0
LINE
  5
445
330
6F
100
AcDbEntity
  8
1
  6
Continuous
 62
     7
100
AcDbLine
 10
161.827088647906
 20
322.3680932269709
 30
0.0
 11
163.5270886479057
 21
322.3680932269709
 31
0.0
  0
LINE
  5
446
330
6F
100
AcDbEntity
  8
1
  6
Continuous
 62
     7
100
AcDbLine
 10
183.714088647906
 20
312.3680932269707
 30
0.0
 11
177.5270886479057
 21
312.3680932269707
 31
0.0
  0
LINE
  5
447
330
6F
100
AcDbEntity
  8
1
  6
Continuous
 62
     7
100
AcDbLine
 10
162.5270886479059
 20
755.1463225065534
 30
0.0
 11
161.7287666688362
 21
755.6072339160692
 31
0.0
  0
LINE
  5
448
330
6F
100
AcDbEntity
  8
1
  6
Continuous
 62
     7
100
AcDbLine
 10
161.703896564773
 20
755.6503101998962
 30
0.0
 11
155.0766993210114
 21
767.128952537872
 31
0.0
  0
LINE
  5
449
330
6F
100
AcDbEntity
  8
1
  6
Continuous
 62
     7
100
AcDbLine
 10
179.3254106269753
 20
755.6072339160692
 30
0.0
 11
185.9774779748004
 21
767.128952537872
 31
0.0
  0
LINE
  5
44A
330
6F
100
AcDbEntity
  8
1
  6
Continuous
 62
     7
100
AcDbLine
 10
161.7287666688362
 20
755.6072339160692
 30
0.0
 11
161.703896564773
 21
755.6503101998962
 31
0.0
  0
LINE
  5
44B
330
6F
100
AcDbEntity
  8
1
  6
Continuous
 62
     7
100
AcDbLine
 10
155.0766993210114
 20
769.6072339160692
 30
0.0
 11
161.7287666688366
 21
781.1289525378721
 31
0.0
  0
LINE
  5
44C
330
6F
100
AcDbEntity
  8
1
  6
Continuous
 62
     7
100
AcDbLine
 10
177.1791559957312
 20
782.3680932269706
 30
0.0
 11
163.8750213000809
 21
782.3680932269706
 31
0.0
  0
LINE
  5
44D
330
6F
100
AcDbEntity
  8
1
  6
Continuous
 62
     7
100
AcDbLine
 10
185.9774779748007
 20
769.607233916069
 30
0.0
 11
179.3254106269756
 21
781.128952537872
 31
0.0
  0
LINE
  5
44E
330
6F
100
AcDbEntity
  8
1
  6
Continuous
 62
     7
100
AcDbLine
 10
586.9450248645558
 20
320.0812704766839
 30
0.0
 11
586.9450248645558
 21
312.939842048141
 31
0.0
  0
LINE
  5
44F
330
6F
100
AcDbEntity
  8
1
  6
Continuous
 62
     7
100
AcDbLine
 10
558.9450248645558
 20
312.939842048141
 30
0.0
 11
558.9450248645558
 21
320.081270476684
 31
0.0
  0
LINE
  5
450
330
6F
100
AcDbEntity
  8
1
  6
Continuous
 62
     7
100
AcDbLine
 10
582.7129740569869
 20
322.3680932269709
 30
0.0
 11
563.1770756721247
 21
322.3680932269709
 31
0.0
  0
LINE
  5
451
330
6F
100
AcDbEntity
  8
1
  6
Continuous
 62
     7
100
AcDbLine
 10
586.2450248645558
 20
312.3680932269708
 30
0.0
 11
579.1605968718468
 21
312.3680932269708
 31
0.0
  0
LINE
  5
452
330
6F
100
AcDbEntity
  8
1
  6
Continuous
 62
     7
100
AcDbLine
 10
561.3870038028252
 20
321.3680932269709
 30
0.0
 11
561.4450248645558
 21
321.3680932269709
 31
0.0
  0
LINE
  5
453
330
6F
100
AcDbEntity
  8
1
  6
Continuous
 62
     7
100
AcDbLine
 10
559.7580248645559
 20
312.3680932269708
 30
0.0
 11
559.6450248645558
 21
312.3680932269708
 31
0.0
  0
LINE
  5
454
330
6F
100
AcDbEntity
  8
1
  6
Continuous
 62
     7
100
AcDbLine
 10
584.4450248645558
 20
321.3680932269709
 30
0.0
 11
584.5030459262864
 21
321.3680932269709
 31
0.0
  0
LINE
  5
455
330
6F
100
AcDbEntity
  8
1
  6
Continuous
 62
     7
100
AcDbLine
 10
566.7401778844823
 20
312.3680932269708
 30
0.0
 11
559.6450248645558
 21
312.3680932269708
 31
0.0
  0
ARC
  5
456
330
6F
100
AcDbEntity
  8
1
  6
Continuous
 62
     7
100
AcDbCircle
 10
160.0270886479061
 20
316.5105562624124
 30
0.0
 40
5.000000000000014
100
AcDbArc
 50
105.3375576695554
 51
235.9442022574309
  0
ARC
  5
457
330
6F
100
AcDbEntity
  8
1
  6
Continuous
 62
     7
100
AcDbCircle
 10
181.0270886479061
 20
316.5105562624124
 30
0.0
 40
5.000000000000047
100
AcDbArc
 50
304.0557977425661
 51
74.6624423304481
  0
ARC
  5
458
330
6F
100
AcDbEntity
  8
1
  6
Continuous
 62
     7
100
AcDbCircle
 10
170.5270886479058
 20
768.3680932269708
 30
0.0
 40
10.49999999999977
100
AcDbArc
 50
89.99999999999939
 51
220.3675935441869
  0
ARC
  5
459
330
6F
100
AcDbEntity
  8
1
  6
Continuous
 62
     7
100
AcDbCircle
 10
170.5270886479058
 20
768.3680932269708
 30
0.0
 40
15.49999999999996
100
AcDbArc
 50
355.41462091516
 51
4.58537908483781
  0
ARC
  5
45A
330
6F
100
AcDbEntity
  8
1
  6
Continuous
 62
     7
100
AcDbCircle
 10
170.5270886479058
 20
768.3680932269708
 30
0.0
 40
15.50000000000006
100
AcDbArc
 50
301.0729509721537
 51
304.5853790848382
  0
ARC
  5
45B
330
6F
100
AcDbEntity
  8
1
  6
Continuous
 62
     7
100
AcDbCircle
 10
170.5270886479058
 20
768.3680932269708
 30
0.0
 40
15.49999999999972
100
AcDbArc
 50
175.4146209151616
 51
184.5853790848401
  0
ARC
  5
45C
330
6F
100
AcDbEntity
  8
1
  6
Continuous
 62
     7
100
AcDbCircle
 10
170.5270886479058
 20
768.3680932269708
 30
0.0
 40
15.49999999999984
100
AcDbArc
 50
119.9999999999999
 51
124.585379084838
  0
ARC
  5
45D
330
6F
100
AcDbEntity
  8
1
  6
Continuous
 62
     7
100
AcDbCircle
 10
170.5270886479058
 20
768.3680932269708
 30
0.0
 40
15.49999999999974
100
AcDbArc
 50
115.4146209151609
 51
119.9999999999999
  0
ARC
  5
45E
330
6F
100
AcDbEntity
  8
1
  6
Continuous
 62
     7
100
AcDbCircle
 10
170.5270886479058
 20
768.3680932269708
 30
0.0
 40
15.49999999999989
100
AcDbArc
 50
55.41462091515986
 51
64.58537908483741
  0
ARC
  5
45F
330
6F
100
AcDbEntity
  8
1
  6
Continuous
 62
     7
100
AcDbCircle
 10
170.5270886479058
 20
768.3680932269708
 30
0.0
 40
10.50000000000024
100
AcDbArc
 50
319.6324064558138
 51
89.99999999999939
  0
ARC
  5
460
330
6F
100
AcDbEntity
  8
1
  6
Continuous
 62
     7
100
AcDbCircle
 10
583.4450248645558
 20
316.5105562624125
 30
0.0
 40
5.000000000000095
100
AcDbArc
 50
304.0557977425681
 51
314.427004000805
  0
ARC
  5
461
330
6F
100
AcDbEntity
  8
1
  6
Continuous
 62
     7
100
AcDbCircle
 10
562.4450248645558
 20
316.5105562624125
 30
0.0
 40
4.99999999999997
100
AcDbArc
 50
105.3375576695535
 51
134.4270040008051
  0
ARC
  5
462
330
6F
100
AcDbEntity
  8
1
  6
Continuous
 62
     7
100
AcDbCircle
 10
562.4450248645558
 20
316.5105562624125
 30
0.0
 40
5.000000000000057
100
AcDbArc
 50
225.5729959991949
 51
235.9442022574329
  0
ARC
  5
463
330
6F
100
AcDbEntity
  8
1
  6
Continuous
 62
     7
100
AcDbCircle
 10
583.4450248645558
 20
316.5105562624125
 30
0.0
 40
5.000000000000016
100
AcDbArc
 50
45.57299599919448
 51
74.66244233044527
  0
SPLINE
  5
464
330
6F
100
AcDbEntity
  8
1
  6
Continuous
 62
     7
100
AcDbSpline
210
0.0
220
0.0
230
1.0
 70
    11
 71
     3
 72
    79
 73
    75
 74
    73
 42
0.000000001
 43
0.0000000001
 44
0.00000001
 40
0.0
 40
0.0
 40
0.0
 40
0.0
 40
0.290367247183158
 40
0.5807357518971572
 40
0.8724070977359295
 40
1.164081911024035
 40
1.458189924522181
 40
1.752302920472695
 40
2.049663201046328
 40
2.347029106415353
 40
2.648045786115829
 40
2.949067936325125
 40
3.253697746552252
 40
3.558332275330013
 40
3.866104857780098
 40
4.173881019540048
 40
4.483966061108322
 40
4.794053321447481
 40
5.105362217358471
 40
5.416671863434622
 40
5.727981509499917
 40
6.039290405378576
 40
6.349377665663523
 40
6.659462707155261
 40
6.967238868816594
 40
7.275011451144456
 40
7.579645979777144
 40
7.884275789834177
 40
8.185297939849507
 40
8.486314619328336
 40
8.783680524448753
 40
9.081040804740848
 40
9.375153800374067
 40
9.669261813502095
 40
9.960936626337102
 40
10.25260797152392
 40
10.54297647485862
 40
10.83334373090407
 40
11.12371098694956
 40
11.41407949028424
 40
11.70575083547095
 40
11.99742564830594
 40
12.29153366143413
 40
12.58564665706747
 40
12.88300693735956
 40
13.18037284247998
 40
13.48138952195883
 40
13.78241167197414
 40
14.08704148203109
 40
14.39167601066369
 40
14.6994485929916
 40
15.007224754653
 40
15.31730979614471
 40
15.6273970564297
 40
15.93870595230833
 40
16.25001559837362
 40
16.56132524444971
 40
16.87263414036074
 40
17.18272140069994
 40
17.49280644226818
 40
17.80058260402819
 40
18.10835518647834
 40
18.41298971525606
 40
18.71761952548305
 40
19.01864167569233
 40
19.31965835539282
 40
19.61702426076189
 40
19.91438454133549
 40
20.20849753728612
 40
20.50260555078443
 40
20.79428036407254
 40
21.08595170991119
 40
21.37632021462519
 40
21.66668746180835
 40
21.66668746180835
 40
21.66668746180835
 40
21.66668746180835
 10
182.6514443008881
 20
320.0812704766837
 30
0.0
 10
182.7482681075978
 20
320.0786388793631
 30
0.0
 10
182.9419161405134
 20
320.0733756785445
 30
0.0
 10
183.2302770168204
 20
320.0310806063628
 30
0.0
 10
183.5139891607995
 20
319.9638697138693
 30
0.0
 10
183.7914142235852
 20
319.8698145486
 30
0.0
 10
184.0597351349664
 20
319.7503830909167
 30
0.0
 10
184.3177348983372
 20
319.6061075954302
 30
0.0
 10
184.5625369015935
 20
319.4385035202274
 30
0.0
 10
184.7932331266557
 20
319.2483409660673
 30
0.0
 10
185.0071288339323
 20
319.0377182457556
 30
0.0
 10
185.2035023765119
 20
318.8074966299241
 30
0.0
 10
185.3800517216754
 20
318.5602602065261
 30
0.0
 10
185.5361545183457
 20
318.2970260322793
 30
0.0
 10
185.670043532955
 20
318.0206624776974
 30
0.0
 10
185.781171549958
 20
317.732449033836
 30
0.0
 10
185.8683623099401
 20
317.4353105906831
 30
0.0
 10
185.9311879165804
 20
317.1308874366514
 30
0.0
 10
185.9690364665357
 20
316.8219508243591
 30
0.0
 10
185.9816987286741
 20
316.5105562717847
 30
0.0
 10
185.9690364668972
 20
316.1991617192077
 30
0.0
 10
185.9311879173043
 20
315.8902251068993
 30
0.0
 10
185.8683623110284
 20
315.5858019528649
 30
0.0
 10
185.7811715514128
 20
315.2886635096215
 30
0.0
 10
185.6700435347804
 20
315.0004500659555
 30
0.0
 10
185.5361545205454
 20
314.7240865104673
 30
0.0
 10
185.3800517242554
 20
314.4608523393455
 30
0.0
 10
185.203502379478
 20
314.2136159040815
 30
0.0
 10
185.0071288372932
 20
313.9833943317047
 30
0.0
 10
184.7932331304204
 20
313.7727714498881
 30
0.0
 10
184.562536905775
 20
313.582609491011
 30
0.0
 10
184.3177349029529
 20
313.4150032074178
 30
0.0
 10
184.0597351400448
 20
313.2707358669562
 30
0.0
 10
183.7914142291723
 20
313.1512741276176
 30
0.0
 10
183.5139891670172
 20
313.0573310805635
 30
0.0
 10
183.2302770239766
 20
312.9897031081264
 30
0.0
 10
182.941916145795
 20
312.9489579832841
 30
0.0
 10
182.651444300888
 20
312.9352841053589
 30
0.0
 10
182.3609724559813
 20
312.948957983284
 30
0.0
 10
182.0726115777996
 20
312.9897031081264
 30
0.0
 10
181.7888994347591
 20
313.0573310805636
 30
0.0
 10
181.5114743726039
 20
313.1512741276177
 30
0.0
 10
181.2431534617313
 20
313.2707358669562
 30
0.0
 10
180.9851536988232
 20
313.4150032074177
 30
0.0
 10
180.7403516960009
 20
313.5826094910111
 30
0.0
 10
180.5096554713556
 20
313.772771449888
 30
0.0
 10
180.2957597644828
 20
313.9833943317049
 30
0.0
 10
180.0993862222979
 20
314.2136159040813
 30
0.0
 10
179.9228368775209
 20
314.4608523393456
 30
0.0
 10
179.7667340812309
 20
314.7240865104673
 30
0.0
 10
179.6328450669959
 20
315.0004500659554
 30
0.0
 10
179.5217170503631
 20
315.2886635096216
 30
0.0
 10
179.4345262907476
 20
315.5858019528648
 30
0.0
 10
179.3717006844717
 20
315.8902251068992
 30
0.0
 10
179.3338521348789
 20
316.1991617192078
 30
0.0
 10
179.3211898731024
 20
316.5105562717846
 30
0.0
 10
179.3338521352405
 20
316.8219508243592
 30
0.0
 10
179.3717006851956
 20
317.1308874366514
 30
0.0
 10
179.4345262918358
 20
317.4353105906831
 30
0.0
 10
179.5217170518179
 20
317.732449033836
 30
0.0
 10
179.6328450688212
 20
318.0206624776974
 30
0.0
 10
179.7667340834306
 20
318.2970260322791
 30
0.0
 10
179.9228368801008
 20
318.5602602065261
 30
0.0
 10
180.0993862252641
 20
318.8074966299242
 30
0.0
 10
180.2957597678437
 20
319.0377182457557
 30
0.0
 10
180.5096554751203
 20
319.2483409660675
 30
0.0
 10
180.7403517001825
 20
319.4385035202274
 30
0.0
 10
180.9851537034388
 20
319.6061075954303
 30
0.0
 10
181.2431534668098
 20
319.7503830909167
 30
0.0
 10
181.5114743781911
 20
319.8698145485999
 30
0.0
 10
181.7888994409768
 20
319.9638697138693
 30
0.0
 10
182.0726115849559
 20
320.0310806063627
 30
0.0
 10
182.3609724612627
 20
320.0733756785445
 30
0.0
 10
182.5546204941785
 20
320.0786388793631
 30
0.0
 10
182.6514443008881
 20
320.0812704766837
 30
0.0
 11
182.6514443008881
 21
320.0812704766837
 31
0.0
 11
182.9414920626861
 21
320.0676528638312
 31
0.0
 11
183.2290039872218
 21
320.0270233044177
 31
0.0
 11
183.5127412970905
 21
319.9594562065792
 31
0.0
 11
183.7890148147457
 21
319.8659300604985
 31
0.0
 11
184.0577318768444
 21
319.7463864950609
 31
0.0
 11
184.3144611378443
 21
319.6028854816257
 31
0.0
 11
184.5598784276264
 21
319.4349763089189
 31
0.0
 11
184.7893775358792
 21
319.2458820442209
 31
0.0
 11
185.003932094916
 21
319.0347484783913
 31
0.0
 11
185.1993339144153
 21
318.8057671170777
 31
0.0
 11
185.3764373195556
 21
318.5579088810802
 31
0.0
 11
185.5318739563388
 21
318.295913369548
 31
0.0
 11
185.6661271849619
 21
318.018965661281
 31
0.0
 11
185.776893600749
 21
317.7318124497524
 31
0.0
 11
185.864251356222
 21
317.4342870633051
 31
0.0
 11
185.9269480497367
 21
317.13060427869
 31
0.0
 11
185.964830469706
 21
316.8216088888176
 31
0.0
 11
185.9774779748007
 21
316.5105562624124
 31
0.0
 11
185.964830469706
 21
316.1995036360073
 31
0.0
 11
185.9269480497367
 21
315.8905082461347
 31
0.0
 11
185.864251356222
 21
315.5868254615195
 31
0.0
 11
185.776893600749
 21
315.2893000750723
 31
0.0
 11
185.6661271849619
 21
315.0021468635436
 31
0.0
 11
185.5318739563388
 21
314.7251991552767
 31
0.0
 11
185.3764373195556
 21
314.4632036437446
 31
0.0
 11
185.1993339144153
 21
314.2153454077471
 31
0.0
 11
185.003932094916
 21
313.9863640464333
 31
0.0
 11
184.7893775358792
 21
313.7752304806037
 31
0.0
 11
184.5598784276265
 21
313.5861362159059
 31
0.0
 11
184.3144611378443
 21
313.4182270431992
 31
0.0
 11
184.0577318768444
 21
313.2747260297639
 31
0.0
 11
183.7890148147457
 21
313.1551824643262
 31
0.0
 11
183.5127412970905
 21
313.0616563182454
 31
0.0
 11
183.2290039872218
 21
312.9940892204069
 31
0.0
 11
182.9414920626861
 21
312.9534596609935
 31
0.0
 11
182.6514443008881
 21
312.939842048141
 31
0.0
 11
182.3613965390901
 21
312.9534596609934
 31
0.0
 11
182.0738846145544
 21
312.9940892204069
 31
0.0
 11
181.7901473046859
 21
313.0616563182454
 31
0.0
 11
181.5138737870306
 21
313.1551824643262
 31
0.0
 11
181.2451567249318
 21
313.2747260297639
 31
0.0
 11
180.9884274639317
 21
313.4182270431992
 31
0.0
 11
180.7430101741495
 21
313.5861362159059
 31
0.0
 11
180.5135110658968
 21
313.7752304806037
 31
0.0
 11
180.29895650686
 21
313.9863640464333
 31
0.0
 11
180.1035546873607
 21
314.2153454077471
 31
0.0
 11
179.9264512822206
 21
314.4632036437446
 31
0.0
 11
179.7710146454375
 21
314.7251991552767
 31
0.0
 11
179.6367614168143
 21
315.0021468635436
 31
0.0
 11
179.525995001027
 21
315.2893000750723
 31
0.0
 11
179.438637245554
 21
315.5868254615195
 31
0.0
 11
179.3759405520393
 21
315.8905082461347
 31
0.0
 11
179.3380581320702
 21
316.1995036360073
 31
0.0
 11
179.3254106269756
 21
316.5105562624124
 31
0.0
 11
179.3380581320702
 21
316.8216088888175
 31
0.0
 11
179.3759405520393
 21
317.13060427869
 31
0.0
 11
179.438637245554
 21
317.4342870633052
 31
0.0
 11
179.525995001027
 21
317.7318124497524
 31
0.0
 11
179.6367614168143
 21
318.018965661281
 31
0.0
 11
179.7710146454375
 21
318.295913369548
 31
0.0
 11
179.9264512822206
 21
318.5579088810802
 31
0.0
 11
180.1035546873607
 21
318.8057671170777
 31
0.0
 11
180.29895650686
 21
319.0347484783913
 31
0.0
 11
180.5135110658968
 21
319.2458820442209
 31
0.0
 11
180.7430101741496
 21
319.4349763089189
 31
0.0
 11
180.9884274639317
 21
319.6028854816257
 31
0.0
 11
181.2451567249317
 21
319.7463864950609
 31
0.0
 11
181.5138737870306
 21
319.8659300604985
 31
0.0
 11
181.7901473046859
 21
319.9594562065791
 31
0.0
 11
182.0738846145544
 21
320.0270233044177
 31
0.0
 11
182.3613965390901
 21
320.0676528638312
 31
0.0
 11
182.6514443008881
 21
320.0812704766837
 31
0.0
  0
SPLINE
  5
465
330
6F
100
AcDbEntity
  8
1
  6
Continuous
 62
     7
100
AcDbSpline
210
0.0
220
0.0
230
1.0
 70
    11
 71
     3
 72
    79
 73
    75
 74
    73
 42
0.000000001
 43
0.0000000001
 44
0.00000001
 40
0.0
 40
0.0
 40
0.0
 40
0.0
 40
0.290367247183158
 40
0.5807357518971572
 40
0.8724070977358189
 40
1.164081911023925
 40
1.458189924522096
 40
1.75230292047261
 40
2.049663201046196
 40
2.347029106415178
 40
2.648045786115675
 40
2.949067936325033
 40
3.253697746552126
 40
3.558332275329902
 40
3.866104857779987
 40
4.173881019539948
 40
4.483966061108221
 40
4.794053321447381
 40
5.105362217358364
 40
5.416671863434517
 40
5.727981509499814
 40
6.039290405378466
 40
6.349377665663413
 40
6.659462707155151
 40
6.967238868816441
 40
7.275011451144354
 40
7.579645979777057
 40
7.884275789834057
 40
8.185297939849423
 40
8.486314619328294
 40
8.78368052444863
 40
9.08104080474071
 40
9.375153800373928
 40
9.669261813501981
 40
9.960936626336933
 40
10.25260797152369
 40
10.54297647485839
 40
10.83334373090385
 40
11.12371098694936
 40
11.4140794902841
 40
11.70575083547087
 40
11.9974256483058
 40
12.29153366143401
 40
12.58564665706736
 40
12.8830069373594
 40
13.18037284247978
 40
13.48138952195873
 40
13.78241167197401
 40
14.08704148203091
 40
14.39167601066355
 40
14.69944859299152
 40
15.00722475465287
 40
15.31730979614456
 40
15.62739705642954
 40
15.93870595230818
 40
16.25001559837347
 40
16.56132524444956
 40
16.87263414036059
 40
17.18272140069973
 40
17.49280644226799
 40
17.800582604028
 40
18.10835518647816
 40
18.41298971525587
 40
18.71761952548286
 40
19.01864167569218
 40
19.31965835539271
 40
19.6170242607617
 40
19.91438454133528
 40
20.20849753728592
 40
20.50260555078425
 40
20.79428036407233
 40
21.08595170991101
 40
21.37632021462501
 40
21.66668746180825
 40
21.66668746180825
 40
21.66668746180825
 40
21.66668746180825
 10
158.4027329949236
 20
320.0812704766837
 30
0.0
 10
158.3059091882139
 20
320.0786388793631
 30
0.0
 10
158.1122611552982
 20
320.0733756785445
 30
0.0
 10
157.8239002789915
 20
320.0310806063627
 30
0.0
 10
157.5401881350123
 20
319.9638697138693
 30
0.0
 10
157.2627630722266
 20
319.8698145485999
 30
0.0
 10
156.9944421608455
 20
319.7503830909166
 30
0.0
 10
156.7364423974746
 20
319.6061075954303
 30
0.0
 10
156.4916403942184
 20
319.4385035202274
 30
0.0
 10
156.2609441691563
 20
319.2483409660673
 30
0.0
 10
156.0470484618794
 20
319.0377182457559
 30
0.0
 10
155.8506749193
 20
318.8074966299241
 30
0.0
 10
155.6741255741364
 20
318.5602602065261
 30
0.0
 10
155.5180227774662
 20
318.2970260322791
 30
0.0
 10
155.3841337628568
 20
318.0206624776976
 30
0.0
 10
155.2730057458537
 20
317.732449033836
 30
0.0
 10
155.1858149858717
 20
317.4353105906831
 30
0.0
 10
155.1229893792315
 20
317.1308874366515
 30
0.0
 10
155.0851408292762
 20
316.8219508243592
 30
0.0
 10
155.0724785671378
 20
316.5105562717847
 30
0.0
 10
155.0851408289146
 20
316.1991617192078
 30
0.0
 10
155.1229893785075
 20
315.8902251068993
 30
0.0
 10
155.1858149847835
 20
315.5858019528648
 30
0.0
 10
155.2730057443989
 20
315.2886635096217
 30
0.0
 10
155.3841337610315
 20
315.0004500659554
 30
0.0
 10
155.5180227752664
 20
314.7240865104673
 30
0.0
 10
155.6741255715565
 20
314.4608523393455
 30
0.0
 10
155.8506749163338
 20
314.2136159040813
 30
0.0
 10
156.0470484585186
 20
313.983394331705
 30
0.0
 10
156.2609441653914
 20
313.772771449888
 30
0.0
 10
156.4916403900368
 20
313.5826094910112
 30
0.0
 10
156.7364423928589
 20
313.4150032074177
 30
0.0
 10
156.994442155767
 20
313.2707358669562
 30
0.0
 10
157.2627630666395
 20
313.1512741276176
 30
0.0
 10
157.5401881287946
 20
313.0573310805635
 30
0.0
 10
157.8239002718351
 20
312.9897031081264
 30
0.0
 10
158.1122611500168
 20
312.9489579832841
 30
0.0
 10
158.4027329949236
 20
312.935284105359
 30
0.0
 10
158.6932048398305
 20
312.9489579832839
 30
0.0
 10
158.9815657180122
 20
312.9897031081264
 30
0.0
 10
159.2652778610527
 20
313.0573310805636
 30
0.0
 10
159.5427029232079
 20
313.1512741276177
 30
0.0
 10
159.8110238340805
 20
313.2707358669562
 30
0.0
 10
160.0690235969887
 20
313.4150032074177
 30
0.0
 10
160.3138255998108
 20
313.582609491011
 30
0.0
 10
160.5445218244562
 20
313.7727714498881
 30
0.0
 10
160.758417531329
 20
313.9833943317049
 30
0.0
 10
160.9547910735139
 20
314.2136159040813
 30
0.0
 10
161.1313404182909
 20
314.4608523393454
 30
0.0
 10
161.2874432145808
 20
314.7240865104673
 30
0.0
 10
161.421332228816
 20
315.0004500659555
 30
0.0
 10
161.5324602454487
 20
315.2886635096216
 30
0.0
 10
161.6196510050642
 20
315.5858019528647
 30
0.0
 10
161.68247661134
 20
315.8902251068992
 30
0.0
 10
161.7203251609329
 20
316.1991617192078
 30
0.0
 10
161.7329874227094
 20
316.5105562717846
 30
0.0
 10
161.7203251605713
 20
316.8219508243592
 30
0.0
 10
161.682476610616
 20
317.1308874366514
 30
0.0
 10
161.6196510039759
 20
317.4353105906831
 30
0.0
 10
161.5324602439939
 20
317.732449033836
 30
0.0
 10
161.4213322269907
 20
318.0206624776976
 30
0.0
 10
161.2874432123811
 20
318.2970260322791
 30
0.0
 10
161.131340415711
 20
318.5602602065261
 30
0.0
 10
160.9547910705477
 20
318.8074966299241
 30
0.0
 10
160.7584175279681
 20
319.0377182457557
 30
0.0
 10
160.5445218206914
 20
319.2483409660674
 30
0.0
 10
160.3138255956292
 20
319.4385035202274
 30
0.0
 10
160.069023592373
 20
319.6061075954303
 30
0.0
 10
159.811023829002
 20
319.7503830909166
 30
0.0
 10
159.5427029176207
 20
319.8698145485999
 30
0.0
 10
159.265277854835
 20
319.9638697138691
 30
0.0
 10
158.9815657108559
 20
320.0310806063628
 30
0.0
 10
158.693204834549
 20
320.0733756785445
 30
0.0
 10
158.4995568016333
 20
320.0786388793631
 30
0.0
 10
158.4027329949236
 20
320.0812704766837
 30
0.0
 11
158.4027329949236
 21
320.0812704766837
 31
0.0
 11
158.1126852331256
 21
320.0676528638312
 31
0.0
 11
157.8251733085899
 21
320.0270233044177
 31
0.0
 11
157.5414359987213
 21
319.9594562065792
 31
0.0
 11
157.2651624810661
 21
319.8659300604985
 31
0.0
 11
156.9964454189674
 21
319.7463864950609
 31
0.0
 11
156.7397161579675
 21
319.6028854816257
 31
0.0
 11
156.4942988681854
 21
319.4349763089189
 31
0.0
 11
156.2647997599327
 21
319.2458820442209
 31
0.0
 11
156.0502452008958
 21
319.0347484783914
 31
0.0
 11
155.8548433813965
 21
318.8057671170777
 31
0.0
 11
155.6777399762562
 21
318.5579088810802
 31
0.0
 11
155.522303339473
 21
318.295913369548
 31
0.0
 11
155.3880501108499
 21
318.018965661281
 31
0.0
 11
155.2772836950628
 21
317.7318124497524
 31
0.0
 11
155.1899259395898
 21
317.4342870633051
 31
0.0
 11
155.1272292460751
 21
317.13060427869
 31
0.0
 11
155.0893468261059
 21
316.8216088888176
 31
0.0
 11
155.0766993210111
 21
316.5105562624124
 31
0.0
 11
155.0893468261059
 21
316.1995036360073
 31
0.0
 11
155.1272292460751
 21
315.8905082461347
 31
0.0
 11
155.1899259395898
 21
315.5868254615195
 31
0.0
 11
155.2772836950628
 21
315.2893000750723
 31
0.0
 11
155.3880501108499
 21
315.0021468635437
 31
0.0
 11
155.522303339473
 21
314.7251991552767
 31
0.0
 11
155.6777399762562
 21
314.4632036437446
 31
0.0
 11
155.8548433813965
 21
314.2153454077471
 31
0.0
 11
156.0502452008958
 21
313.9863640464333
 31
0.0
 11
156.2647997599327
 21
313.7752304806037
 31
0.0
 11
156.4942988681854
 21
313.5861362159059
 31
0.0
 11
156.7397161579675
 21
313.4182270431992
 31
0.0
 11
156.9964454189674
 21
313.2747260297639
 31
0.0
 11
157.2651624810661
 21
313.1551824643262
 31
0.0
 11
157.5414359987213
 21
313.0616563182454
 31
0.0
 11
157.8251733085899
 21
312.9940892204069
 31
0.0
 11
158.1126852331256
 21
312.9534596609935
 31
0.0
 11
158.4027329949236
 21
312.939842048141
 31
0.0
 11
158.6927807567217
 21
312.9534596609934
 31
0.0
 11
158.9802926812574
 21
312.9940892204069
 31
0.0
 11
159.264029991126
 21
313.0616563182454
 31
0.0
 11
159.5403035087812
 21
313.1551824643262
 31
0.0
 11
159.8090205708801
 21
313.2747260297639
 31
0.0
 11
160.0657498318801
 21
313.4182270431992
 31
0.0
 11
160.3111671216622
 21
313.5861362159059
 31
0.0
 11
160.5406662299149
 21
313.7752304806037
 31
0.0
 11
160.7552207889518
 21
313.9863640464334
 31
0.0
 11
160.9506226084511
 21
314.2153454077471
 31
0.0
 11
161.1277260135912
 21
314.4632036437446
 31
0.0
 11
161.2831626503743
 21
314.7251991552767
 31
0.0
 11
161.4174158789975
 21
315.0021468635437
 31
0.0
 11
161.5281822947848
 21
315.2893000750723
 31
0.0
 11
161.6155400502578
 21
315.5868254615195
 31
0.0
 11
161.6782367437724
 21
315.8905082461347
 31
0.0
 11
161.7161191637416
 21
316.1995036360073
 31
0.0
 11
161.7287666688362
 21
316.5105562624124
 31
0.0
 11
161.7161191637416
 21
316.8216088888175
 31
0.0
 11
161.6782367437724
 21
317.13060427869
 31
0.0
 11
161.6155400502577
 21
317.4342870633051
 31
0.0
 11
161.5281822947848
 21
317.7318124497524
 31
0.0
 11
161.4174158789975
 21
318.018965661281
 31
0.0
 11
161.2831626503743
 21
318.295913369548
 31
0.0
 11
161.1277260135912
 21
318.5579088810802
 31
0.0
 11
160.9506226084511
 21
318.8057671170777
 31
0.0
 11
160.7552207889518
 21
319.0347484783913
 31
0.0
 11
160.5406662299149
 21
319.2458820442209
 31
0.0
 11
160.3111671216622
 21
319.4349763089189
 31
0.0
 11
160.0657498318801
 21
319.6028854816257
 31
0.0
 11
159.8090205708801
 21
319.7463864950609
 31
0.0
 11
159.5403035087812
 21
319.8659300604985
 31
0.0
 11
159.264029991126
 21
319.9594562065791
 31
0.0
 11
158.9802926812574
 21
320.0270233044177
 31
0.0
 11
158.6927807567217
 21
320.0676528638312
 31
0.0
 11
158.4027329949236
 21
320.0812704766837
 31
0.0
  0
SPLINE
  5
466
330
6F
100
AcDbEntity
  8
0
  6
Continuous
 62
     7
100
AcDbSpline
210
0.0
220
0.0
230
1.0
 70
     8
 71
     3
 72
    37
 73
    33
 74
    31
 42
0.000000001
 43
0.0000000001
 44
0.00000001
 40
0.0
 40
0.0
 40
0.0
 40
0.0
 40
0.3210813059560709
 40
0.6418951350010111
 40
0.982898885750815
 40
1.323531048884055
 40
1.692967052918167
 40
2.062075176613205
 40
2.463733852986314
 40
2.865152861442247
 40
3.298564778592757
 40
3.731815223363939
 40
4.193131260544864
 40
4.654344167927592
 40
5.137240967161564
 40
5.620077100473905
 40
6.116559526704134
 40
6.613013905409753
 40
7.1141212326195
 40
7.615228559873655
 40
8.111682938715967
 40
8.6081653651713
 40
9.091001498790838
 40
9.573898298405522
 40
10.03511120620618
 40
10.49642724379883
 40
10.92967768885336
 40
11.3630896058704
 40
11.76450861288002
 40
12.16616728858398
 40
12.49906321627368
 40
12.83192840998592
 40
12.83192840998592
 40
12.83192840998592
 40
12.83192840998592
 10
585.6833931936565
 20
316.8235111139781
 30
0.0
 10
585.6641133428897
 20
316.9289721971376
 30
0.0
 10
585.6255696882785
 20
317.1398065054626
 30
0.0
 10
585.5105164000801
 20
317.448146134626
 30
0.0
 10
585.3581279315388
 20
317.7462342280216
 30
0.0
 10
585.1610512887247
 20
318.0369063138779
 30
0.0
 10
584.9278647785984
 20
318.311671893009
 30
0.0
 10
584.6536963121783
 20
318.5757008389318
 30
0.0
 10
584.348153112031
 20
318.8200848155761
 30
0.0
 10
584.005535521078
 20
319.0499563905217
 30
0.0
 10
583.6368393042113
 20
319.2575236432825
 30
0.0
 10
583.2362845619459
 20
319.4467406034556
 30
0.0
 10
582.8151800646417
 20
319.6117052191828
 30
0.0
 10
582.3688217584936
 20
319.7548892413774
 30
0.0
 10
581.9076259004374
 20
319.8724164688754
 30
0.0
 10
581.4289308038244
 20
319.965500275932
 30
0.0
 10
580.941263494488
 20
320.0320030750862
 30
0.0
 10
580.4446456884748
 20
320.0723886380298
 30
0.0
 10
579.9450248720638
 20
320.0857321191615
 30
0.0
 10
579.4454040574718
 20
320.0723886382793
 30
0.0
 10
578.9487862455915
 20
320.0320030811083
 30
0.0
 10
578.4611189563129
 20
319.9655002657952
 30
0.0
 10
577.982423785005
 20
319.8724165227842
 30
0.0
 10
577.521228197369
 20
319.7548890662613
 30
0.0
 10
577.0748689222565
 20
319.6117058668261
 30
0.0
 10
576.6537679306274
 20
319.446738275895
 30
0.0
 10
576.2532008595746
 20
319.2575317801337
 30
0.0
 10
575.8845489342804
 20
319.0499269356839
 30
0.0
 10
575.541777626204
 20
318.8201858294678
 30
0.0
 10
575.2462058817123
 20
318.5828997472217
 30
0.0
 10
574.986859993116
 20
318.338295357988
 30
0.0
 10
574.8443087123998
 20
318.1679916921459
 30
0.0
 10
574.7730363680741
 20
318.0828437852061
 30
0.0
 11
585.6833931936565
 21
316.8235111139781
 31
0.0
 11
585.6163976519535
 21
317.1375251375912
 31
0.0
 11
585.5074428198093
 21
317.4392706584612
 31
0.0
 11
585.3520179532321
 21
317.7427944098568
 31
0.0
 11
585.1617822291264
 21
318.0253552690397
 31
0.0
 11
584.9232889325712
 21
318.3074969143854
 31
0.0
 11
584.657951803466
 21
318.5640841597657
 31
0.0
 11
584.3447904462444
 21
318.8155988835125
 31
0.0
 11
584.0117633270634
 21
319.0397197391057
 31
0.0
 11
583.6344349643451
 21
319.2529548119209
 31
0.0
 11
583.2428672951517
 21
319.4383751668718
 31
0.0
 11
582.8135339434124
 21
319.6071512283187
 31
0.0
 11
582.3744448549121
 21
319.7482827909889
 31
0.0
 11
581.9065989645112
 21
319.86790528554
 31
0.0
 11
581.4326669370124
 21
319.9602046062062
 31
0.0
 11
580.9407702303188
 21
320.0275279239794
 31
0.0
 11
580.4459506783364
 21
320.0677841123866
 31
0.0
 11
579.9450248645567
 21
320.0812704766839
 31
0.0
 11
579.4440990507771
 21
320.0677841123865
 31
0.0
 11
578.9492794987949
 21
320.0275279239794
 31
0.0
 11
578.4573827921013
 21
319.9602046062063
 31
0.0
 11
577.9834507646026
 21
319.8679052855402
 31
0.0
 11
577.5156048742017
 21
319.748282790989
 31
0.0
 11
577.0765157857013
 21
319.6071512283188
 31
0.0
 11
576.647182433962
 21
319.4383751668718
 31
0.0
 11
576.2556147647686
 21
319.2529548119209
 31
0.0
 11
575.8782864020503
 21
319.0397197391057
 31
0.0
 11
575.5452592828694
 21
318.8155988835124
 31
0.0
 11
575.2320979256477
 21
318.5640841597657
 31
0.0
 11
574.9916543403453
 21
318.3338525867767
 31
0.0
 11
574.7730363680741
 21
318.0828437852061
 31
0.0
  0
SPLINE
  5
467
330
6F
100
AcDbEntity
  8
0
  6
Continuous
 62
     7
100
AcDbSpline
210
0.0
220
0.0
230
1.0
 70
     8
 71
     3
 72
    29
 73
    25
 74
    23
 42
0.000000001
 43
0.0000000001
 44
0.00000001
 40
0.0
 40
0.0
 40
0.0
 40
0.0
 40
0.2275667810615555
 40
0.4552975788503585
 40
0.9564049061500237
 40
1.457512232987503
 40
1.953966611283321
 40
2.450449037103651
 40
2.933285170027743
 40
3.416181968878169
 40
3.877394875896289
 40
4.338710912705056
 40
4.771961357114483
 40
5.205373273878527
 40
5.606792281942926
 40
6.008450957869051
 40
6.377559081070444
 40
6.746995084458435
 40
7.087627246674167
 40
7.428630995756146
 40
7.749444827814973
 40
8.070526140501169
 40
8.384288122126145
 40
8.698050100056674
 40
8.698050100056674
 40
8.698050100056674
 40
8.698050100056674
 10
578.990253762166
 20
312.9892116685647
 30
0.0
 10
579.0657588231553
 20
312.9818821720527
 30
0.0
 10
579.2168233657052
 20
312.9672179070974
 30
0.0
 10
579.5349948884099
 20
312.9465209293584
 30
0.0
 10
579.9450232214879
 20
312.9353143560186
 30
0.0
 10
580.4446461278515
 20
312.9487414141504
 30
0.0
 10
580.9412633783056
 20
312.9891047775155
 30
0.0
 10
581.4289308349121
 20
313.0556134724158
 30
0.0
 10
581.9076258921402
 20
313.1486957407793
 30
0.0
 10
582.3688217621311
 20
313.2662233722435
 30
0.0
 10
582.8151800577747
 20
313.4094072916874
 30
0.0
 10
583.2362845829884
 20
313.5743719296477
 30
0.0
 10
583.6368392279502
 20
313.7635888988736
 30
0.0
 10
584.0055357923711
 20
313.9711560954439
 30
0.0
 10
584.3481521757443
 20
314.2010278702378
 30
0.0
 10
584.6536996894771
 20
314.4454111303629
 30
0.0
 10
584.9278532901335
 20
314.7094425446306
 30
0.0
 10
585.1610928985318
 20
314.9841993052409
 30
0.0
 10
585.3579859543236
 20
315.2749018781356
 30
0.0
 10
585.5110350346847
 20
315.5728802642178
 30
0.0
 10
585.6237603273282
 20
315.8816065020499
 30
0.0
 10
585.6896612721226
 20
316.1940834175456
 30
0.0
 10
585.715512767446
 20
316.5108247835644
 30
0.0
 10
585.6940997222567
 20
316.7192823377836
 30
0.0
 10
585.6833931936565
 20
316.8235111139781
 30
0.0
 11
578.990253762166
 21
312.9892116685647
 31
0.0
 11
579.2168692039165
 21
312.9684251785673
 31
0.0
 11
579.4440990507771
 21
312.9533284124383
 31
0.0
 11
579.9450248645568
 21
312.939842048141
 31
0.0
 11
580.4459506783364
 21
312.9533284124383
 31
0.0
 11
580.9407702303188
 21
312.9935846008455
 31
0.0
 11
581.4326669370124
 21
313.0609079186186
 31
0.0
 11
581.9065989645112
 21
313.1532072392848
 31
0.0
 11
582.3744448549121
 21
313.2728297338358
 31
0.0
 11
582.8135339434124
 21
313.413961296506
 31
0.0
 11
583.2428672951515
 21
313.582737357953
 31
0.0
 11
583.6344349643451
 21
313.768157712904
 31
0.0
 11
584.0117633270635
 21
313.9813927857192
 31
0.0
 11
584.3447904462444
 21
314.2055136413125
 31
0.0
 11
584.6579518034661
 21
314.4570283650592
 31
0.0
 11
584.9232889325709
 21
314.7136156104394
 31
0.0
 11
585.1617822291263
 21
314.9957572557852
 31
0.0
 11
585.3520179532319
 21
315.2783181149682
 31
0.0
 11
585.5074428198092
 21
315.5818418663638
 31
0.0
 11
585.6163976519535
 21
315.8835873872337
 31
0.0
 11
585.6833931936565
 21
316.1976014108468
 31
0.0
 11
585.7058841754586
 21
316.5105562624125
 31
0.0
 11
585.6833931936565
 21
316.8235111139781
 31
0.0
  0
SPLINE
  5
468
330
6F
100
AcDbEntity
  8
0
  6
Continuous
 62
     7
100
AcDbSpline
210
0.0
220
0.0
230
1.0
 70
     8
 71
     3
 72
    29
 73
    25
 74
    23
 42
0.000000001
 43
0.0000000001
 44
0.00000001
 40
0.0
 40
0.0
 40
0.0
 40
0.0
 40
0.2275667810614423
 40
0.4552975788504722
 40
0.9564049061501374
 40
1.457512232987503
 40
1.953966611283321
 40
2.450449037103763
 40
2.933285170027855
 40
3.416181968878171
 40
3.877394875896182
 40
4.338710912705162
 40
4.771961357114589
 40
5.205373273878435
 40
5.606792281942929
 40
6.008450957869054
 40
6.377559081070529
 40
6.746995084458373
 40
7.087627246674169
 40
7.428630995756148
 40
7.749444827814974
 40
8.07052614050117
 40
8.384288122126138
 40
8.69805010005666
 40
8.69805010005666
 40
8.69805010005666
 40
8.69805010005666
 10
566.8997959669452
 20
312.9892116685647
 30
0.0
 10
566.8242909059558
 20
312.9818821720527
 30
0.0
 10
566.6732263634063
 20
312.9672179070974
 30
0.0
 10
566.3550548407015
 20
312.9465209293584
 30
0.0
 10
565.9450265076232
 20
312.9353143560186
 30
0.0
 10
565.44540360126
 20
312.9487414141504
 30
0.0
 10
564.9487863508057
 20
312.9891047775155
 30
0.0
 10
564.4611188941992
 20
313.0556134724157
 30
0.0
 10
563.9824238369711
 20
313.1486957407793
 30
0.0
 10
563.5212279669803
 20
313.2662233722434
 30
0.0
 10
563.0748696713367
 20
313.4094072916874
 30
0.0
 10
562.6537651461229
 20
313.5743719296476
 30
0.0
 10
562.2532105011611
 20
313.7635888988735
 30
0.0
 10
561.8845139367402
 20
313.9711560954439
 30
0.0
 10
561.5418975533672
 20
314.2010278702379
 30
0.0
 10
561.2363500396339
 20
314.4454111303629
 30
0.0
 10
560.9621964389776
 20
314.7094425446305
 30
0.0
 10
560.7289568305798
 20
314.9841993052411
 30
0.0
 10
560.5320637747875
 20
315.2749018781354
 30
0.0
 10
560.3790146944267
 20
315.572880264218
 30
0.0
 10
560.2662894017831
 20
315.8816065020499
 30
0.0
 10
560.2003884569885
 20
316.1940834175455
 30
0.0
 10
560.1745369616654
 20
316.5108247835643
 30
0.0
 10
560.1959500068548
 20
316.7192823377837
 30
0.0
 10
560.2066565354548
 20
316.8235111139781
 30
0.0
 11
566.8997959669452
 21
312.9892116685647
 31
0.0
 11
566.6731805251949
 21
312.9684251785673
 31
0.0
 11
566.445950678334
 21
312.9533284124383
 31
0.0
 11
565.9450248645544
 21
312.939842048141
 31
0.0
 11
565.4440990507749
 21
312.9533284124383
 31
0.0
 11
564.9492794987925
 21
312.9935846008455
 31
0.0
 11
564.4573827920988
 21
313.0609079186186
 31
0.0
 11
563.9834507646
 21
313.1532072392848
 31
0.0
 11
563.5156048741992
 21
313.2728297338358
 31
0.0
 11
563.076515785699
 21
313.413961296506
 31
0.0
 11
562.6471824339596
 21
313.582737357953
 31
0.0
 11
562.255614764766
 21
313.768157712904
 31
0.0
 11
561.8782864020479
 21
313.9813927857192
 31
0.0
 11
561.5452592828669
 21
314.2055136413125
 31
0.0
 11
561.2320979256452
 21
314.4570283650592
 31
0.0
 11
560.9667607965403
 21
314.7136156104394
 31
0.0
 11
560.7282674999851
 21
314.9957572557852
 31
0.0
 11
560.5380317758794
 21
315.2783181149682
 31
0.0
 11
560.3826069093021
 21
315.5818418663638
 31
0.0
 11
560.2736520771577
 21
315.8835873872337
 31
0.0
 11
560.2066565354548
 21
316.1976014108468
 31
0.0
 11
560.1841655536529
 21
316.5105562624125
 31
0.0
 11
560.2066565354548
 21
316.8235111139781
 31
0.0
  0
SPLINE
  5
469
330
6F
100
AcDbEntity
  8
0
  6
Continuous
 62
     7
100
AcDbSpline
210
0.0
220
0.0
230
1.0
 70
     8
 71
     3
 72
    37
 73
    33
 74
    31
 42
0.000000001
 43
0.0000000001
 44
0.00000001
 40
0.0
 40
0.0
 40
0.0
 40
0.0
 40
0.3210813059560709
 40
0.6418951350010111
 40
0.9828988857508668
 40
1.323531048884043
 40
1.692967052918228
 40
2.062075176613103
 40
2.463733852986389
 40
2.865152861442228
 40
3.298564778592739
 40
3.73181522336392
 40
4.193131260544741
 40
4.654344167927577
 40
5.137240967161549
 40
5.620077100473889
 40
6.116559526704118
 40
6.613013905409737
 40
7.114121232619484
 40
7.615228559873639
 40
8.111682938716065
 40
8.608165365171285
 40
9.091001498790822
 40
9.573898298405506
 40
10.03511120620627
 40
10.4964272437987
 40
10.92967768885324
 40
11.36308960587038
 40
11.76450861288
 40
12.16616728858396
 40
12.49906321627374
 40
12.83192840998591
 40
12.83192840998591
 40
12.83192840998591
 40
12.83192840998591
 10
560.2066565354548
 20
316.8235111139781
 30
0.0
 10
560.2259363862216
 20
316.9289721971376
 30
0.0
 10
560.2644800408327
 20
317.1398065054625
 30
0.0
 10
560.3795333290312
 20
317.4481461346259
 30
0.0
 10
560.5319217975725
 20
317.7462342280217
 30
0.0
 10
560.7289984403866
 20
318.036906313878
 30
0.0
 10
560.9621849505129
 20
318.3116718930087
 30
0.0
 10
561.2363534169328
 20
318.5757008389321
 30
0.0
 10
561.5418966170803
 20
318.820084815576
 30
0.0
 10
561.8845142080334
 20
319.0499563905216
 30
0.0
 10
562.2532104249001
 20
319.2575236432826
 30
0.0
 10
562.653765167165
 20
319.4467406034555
 30
0.0
 10
563.0748696644697
 20
319.6117052191829
 30
0.0
 10
563.5212279706178
 20
319.7548892413774
 30
0.0
 10
563.9824238286736
 20
319.8724164688753
 30
0.0
 10
564.4611189252869
 20
319.9655002759321
 30
0.0
 10
564.9487862346233
 20
320.0320030750862
 30
0.0
 10
565.4454040406363
 20
320.0723886380298
 30
0.0
 10
565.9450248570475
 20
320.0857321191614
 30
0.0
 10
566.4446456716398
 20
320.0723886382793
 30
0.0
 10
566.9412634835197
 20
320.0320030811083
 30
0.0
 10
567.4289307727985
 20
319.9655002657952
 30
0.0
 10
567.907625944106
 20
319.8724165227844
 30
0.0
 10
568.3688215317425
 20
319.7548890662612
 30
0.0
 10
568.8151808068549
 20
319.6117058668262
 30
0.0
 10
569.2362817984838
 20
319.446738275895
 30
0.0
 10
569.6368488695365
 20
319.2575317801337
 30
0.0
 10
570.0055007948308
 20
319.0499269356839
 30
0.0
 10
570.3482721029075
 20
318.8201858294678
 30
0.0
 10
570.6438438473989
 20
318.5828997472217
 30
0.0
 10
570.9031897359953
 20
318.3382953579881
 30
0.0
 10
571.0457410167116
 20
318.1679916921459
 30
0.0
 10
571.1170133610372
 20
318.0828437852061
 30
0.0
 11
560.2066565354548
 21
316.8235111139781
 31
0.0
 11
560.2736520771577
 21
317.1375251375912
 31
0.0
 11
560.382606909302
 21
317.4392706584612
 31
0.0
 11
560.5380317758793
 21
317.7427944098568
 31
0.0
 11
560.7282674999849
 21
318.0253552690397
 31
0.0
 11
560.9667607965403
 21
318.3074969143854
 31
0.0
 11
561.2320979256452
 21
318.5640841597657
 31
0.0
 11
561.545259282867
 21
318.8155988835125
 31
0.0
 11
561.8782864020479
 21
319.0397197391057
 31
0.0
 11
562.2556147647662
 21
319.2529548119209
 31
0.0
 11
562.6471824339596
 21
319.4383751668718
 31
0.0
 11
563.0765157856988
 21
319.6071512283187
 31
0.0
 11
563.5156048741992
 21
319.7482827909889
 31
0.0
 11
563.9834507646001
 21
319.86790528554
 31
0.0
 11
564.4573827920989
 21
319.9602046062062
 31
0.0
 11
564.9492794987925
 21
320.0275279239794
 31
0.0
 11
565.4440990507749
 21
320.0677841123866
 31
0.0
 11
565.9450248645546
 21
320.0812704766839
 31
0.0
 11
566.4459506783342
 21
320.0677841123865
 31
0.0
 11
566.9407702303165
 21
320.0275279239794
 31
0.0
 11
567.43266693701
 21
319.9602046062063
 31
0.0
 11
567.9065989645087
 21
319.8679052855402
 31
0.0
 11
568.3744448549096
 21
319.748282790989
 31
0.0
 11
568.8135339434101
 21
319.6071512283188
 31
0.0
 11
569.2428672951492
 21
319.4383751668718
 31
0.0
 11
569.6344349643426
 21
319.2529548119209
 31
0.0
 11
570.011763327061
 21
319.0397197391057
 31
0.0
 11
570.3447904462419
 21
318.8155988835124
 31
0.0
 11
570.6579518034636
 21
318.5640841597657
 31
0.0
 11
570.8983953887661
 21
318.3338525867767
 31
0.0
 11
571.1170133610372
 21
318.0828437852061
 31
0.0
  0
ARC
  5
46A
330
6F
100
AcDbEntity
  8
1
  6
Continuous
 62
     7
100
AcDbCircle
 10
158.9690675861754
 20
320.3680932269707
 30
0.0
 40
1.0
100
AcDbArc
 50
90.0
 51
105.3375576695503
  0
ARC
  5
46B
330
6F
100
AcDbEntity
  8
1
  6
Continuous
 62
     7
100
AcDbCircle
 10
160.7591394554747
 20
321.3680932269709
 30
0.0
 40
1.0
100
AcDbArc
 50
90.0
 51
137.0585971351136
  0
ARC
  5
46C
330
6F
100
AcDbEntity
  8
1
  6
Continuous
 62
     7
100
AcDbCircle
 10
159.0270886479061
 20
322.3680932269709
 30
0.0
 40
1.0
100
AcDbArc
 50
270.0
 51
329.9999999999817
  0
ARC
  5
46D
330
6F
100
AcDbEntity
  8
1
  6
Continuous
 62
     7
100
AcDbCircle
 10
160.7591394554747
 20
321.3680932269709
 30
0.0
 40
0.9999999999997047
100
AcDbArc
 50
137.0585971351136
 51
150.0000000000099
  0
ARC
  5
46E
330
6F
100
AcDbEntity
  8
1
  6
Continuous
 62
     7
100
AcDbCircle
 10
180.2950378403371
 20
321.3680932269709
 30
0.0
 40
1.000000000000017
100
AcDbArc
 50
42.94140286486979
 51
90.0
  0
ARC
  5
46F
330
6F
100
AcDbEntity
  8
1
  6
Continuous
 62
     7
100
AcDbCircle
 10
180.2950378403371
 20
321.3680932269709
 30
0.0
 40
0.9999999999997714
100
AcDbArc
 50
29.99999999999252
 51
42.94140286486979
  0
ARC
  5
470
330
6F
100
AcDbEntity
  8
1
  6
Continuous
 62
     7
100
AcDbCircle
 10
182.0270886479061
 20
322.3680932269709
 30
0.0
 40
1.000000000000344
100
AcDbArc
 50
210.0000000000037
 51
270.0
  0
ARC
  5
471
330
6F
100
AcDbEntity
  8
1
  6
Continuous
 62
     7
100
AcDbCircle
 10
182.0851097096365
 20
320.3680932269707
 30
0.0
 40
1.000000000000109
100
AcDbArc
 50
74.66244233044966
 51
90.0
  0
ARC
  5
472
330
6F
100
AcDbEntity
  8
1
  6
Continuous
 62
     7
100
AcDbCircle
 10
563.1770756721247
 20
321.3680932269709
 30
0.0
 40
1.000000000000014
100
AcDbArc
 50
137.0585971351256
 51
149.9999999999995
  0
ARC
  5
473
330
6F
100
AcDbEntity
  8
1
  6
Continuous
 62
     7
100
AcDbCircle
 10
561.4450248645558
 20
322.3680932269709
 30
0.0
 40
1.0
100
AcDbArc
 50
270.0
 51
330.0000000000027
  0
ARC
  5
474
330
6F
100
AcDbEntity
  8
1
  6
Continuous
 62
     7
100
AcDbCircle
 10
563.1770756721247
 20
321.3680932269709
 30
0.0
 40
1.0
100
AcDbArc
 50
90.0
 51
137.0585971351256
  0
ARC
  5
475
330
6F
100
AcDbEntity
  8
1
  6
Continuous
 62
     7
100
AcDbCircle
 10
561.3870038028252
 20
320.3680932269709
 30
0.0
 40
1.0
100
AcDbArc
 50
90.0
 51
105.3375576695529
  0
ARC
  5
476
330
6F
100
AcDbEntity
  8
1
  6
Continuous
 62
     7
100
AcDbCircle
 10
582.7129740569869
 20
321.3680932269709
 30
0.0
 40
0.9999999999999836
100
AcDbArc
 50
30.00000000000054
 51
42.94140286487882
  0
ARC
  5
477
330
6F
100
AcDbEntity
  8
1
  6
Continuous
 62
     7
100
AcDbCircle
 10
584.4450248645558
 20
322.3680932269709
 30
0.0
 40
0.9999999999999836
100
AcDbArc
 50
210.0000000000005
 51
270.0
  0
ARC
  5
478
330
6F
100
AcDbEntity
  8
1
  6
Continuous
 62
     7
100
AcDbCircle
 10
582.7129740569869
 20
321.3680932269709
 30
0.0
 40
0.9999999999999306
100
AcDbArc
 50
42.94140286487882
 51
90.0
  0
ARC
  5
479
330
6F
100
AcDbEntity
  8
1
  6
Continuous
 62
     7
100
AcDbCircle
 10
584.5030459262864
 20
320.3680932269709
 30
0.0
 40
0.999999999999944
100
AcDbArc
 50
74.66244233044709
 51
90.0
  0
ENDBLK
  5
71
330
6F
100
AcDbEntity
  8
0
100
AcDbBlockEnd
  0
BLOCK
  5
499
330
492
100
AcDbEntity
  8
0
100
AcDbBlockBegin
  2
*D14
 70
     1
 10
0.0
 20
0.0
 30
0.0
  3
*D14
  1

  0
LINE
  5
493
330
492
100
AcDbEntity
  8
1
  6
Continuous
 62
     2
100
AcDbLine
 10
666.9450248645558
 20
264.3680932269709
 30
0.0
 11
666.9450248645558
 21
310.3680932269709
 31
0.0
  0
LINE
  5
494
330
492
100
AcDbEntity
  8
1
  6
Continuous
 62
     2
100
AcDbLine
 10
617.9450248645558
 20
310.3680932269708
 30
0.0
 11
670.4450248645558
 21
310.3680932269708
 31
0.0
  0
LINE
  5
495
330
492
100
AcDbEntity
  8
1
  6
Continuous
 62
     2
100
AcDbLine
 10
617.9450248645558
 20
264.3680932269708
 30
0.0
 11
670.4450248645558
 21
264.3680932269708
 31
0.0
  0
SOLID
  5
496
330
492
100
AcDbEntity
  8
1
 62
     2
100
AcDbTrace
 10
665.3322817691102
 20
276.6180932269709
 30
0.0
 11
668.5577679600013
 21
276.6180932269709
 31
0.0
 12
666.9450248645558
 22
264.3680932269709
 32
0.0
 13
666.9450248645558
 23
264.3680932269709
 33
0.0
  0
SOLID
  5
497
330
492
100
AcDbEntity
  8
1
 62
     2
100
AcDbTrace
 10
668.5577679600013
 20
298.1180932269709
 30
0.0
 11
665.3322817691102
 21
298.1180932269709
 31
0.0
 12
666.9450248645558
 22
310.3680932269709
 32
0.0
 13
666.9450248645558
 23
310.3680932269709
 33
0.0
  0
MTEXT
  5
498
330
492
100
AcDbEntity
  8
1
 62
     7
100
AcDbMText
 10
663.4450248645558
 20
275.4855932269708
 30
0.0
 40
12.25
 41
0.0
 71
     7
 72
     1
  1
\C7;{\Fgdt;n}\C7;46
  7
CONVERTER_12
 11
0.0
 21
1.0
 31
0.0
 73
     1
 44
0.60024009603842
  0
ENDBLK
  5
49A
330
492
100
AcDbEntity
  8
0
100
AcDbBlockEnd
  0
BLOCK
  5
4A6
330
49D
100
AcDbEntity
  8
0
100
AcDbBlockBegin
  2
*D15
 70
     1
 10
0.0
 20
0.0
 30
0.0
  3
*D15
  1

  0
LINE
  5
49E
330
49D
100
AcDbEntity
  8
1
  6
Continuous
 62
     2
100
AcDbLine
 10
631.9450248645558
 20
229.3680932269708
 30
0.0
 11
656.4450248645558
 21
229.3680932269708
 31
0.0
  0
LINE
  5
49F
330
49D
100
AcDbEntity
  8
1
  6
Continuous
 62
     2
100
AcDbLine
 10
617.9450248645558
 20
229.3680932269708
 30
0.0
 11
631.9450248645558
 21
229.3680932269708
 31
0.0
  0
LINE
  5
4A0
330
49D
100
AcDbEntity
  8
1
  6
Continuous
 62
     2
100
AcDbLine
 10
593.4450248645558
 20
229.3680932269708
 30
0.0
 11
617.9450248645558
 21
229.3680932269708
 31
0.0
  0
LINE
  5
4A1
330
49D
100
AcDbEntity
  8
1
  6
Continuous
 62
     2
100
AcDbLine
 10
631.9450248645558
 20
277.8680932269708
 30
0.0
 11
631.9450248645558
 21
225.8680932269708
 31
0.0
  0
LINE
  5
4A2
330
49D
100
AcDbEntity
  8
1
  6
Continuous
 62
     2
100
AcDbLine
 10
617.9450248645558
 20
264.3680932269708
 30
0.0
 11
617.9450248645558
 21
225.8680932269708
 31
0.0
  0
SOLID
  5
4A3
330
49D
100
AcDbEntity
  8
1
 62
     2
100
AcDbTrace
 10
605.6950248645558
 20
227.7553501315252
 30
0.0
 11
605.6950248645558
 21
230.9808363224164
 31
0.0
 12
617.9450248645558
 22
229.3680932269708
 32
0.0
 13
617.9450248645558
 23
229.3680932269708
 33
0.0
  0
SOLID
  5
4A4
330
49D
100
AcDbEntity
  8
1
 62
     2
100
AcDbTrace
 10
644.1950248645558
 20
230.9808363224164
 30
0.0
 11
644.1950248645558
 21
227.7553501315252
 31
0.0
 12
631.9450248645558
 22
229.3680932269708
 32
0.0
 13
631.9450248645558
 23
229.3680932269708
 33
0.0
  0
MTEXT
  5
4A5
330
49D
100
AcDbEntity
  8
1
 62
     7
100
AcDbMText
 10
617.5950248645557
 20
232.8680932269708
 30
0.0
 40
12.25
 41
0.0
 71
     7
 72
     1
  1
14
  7
CONVERTER_12
 11
0.9999999999970619
 21
2.424068405545306E-6
 31
0.0
 73
     1
 44
0.60024009603842
  0
ENDBLK
  5
4A7
330
49D
100
AcDbEntity
  8
0
100
AcDbBlockEnd
  0
BLOCK
  5
4B1
330
4AA
100
AcDbEntity
  8
0
100
AcDbBlockBegin
  2
*D16
 70
     1
 10
0.0
 20
0.0
 30
0.0
  3
*D16
  1

  0
LINE
  5
4AB
330
4AA
100
AcDbEntity
  8
1
  6
Continuous
 62
     2
100
AcDbLine
 10
572.9450248645558
 20
229.3680932269708
 30
0.0
 11
617.9450248645558
 21
229.3680932269708
 31
0.0
  0
LINE
  5
4AC
330
4AA
100
AcDbEntity
  8
1
  6
Continuous
 62
     2
100
AcDbLine
 10
617.9450248645558
 20
264.3680932269708
 30
0.0
 11
617.9450248645558
 21
225.8680932269708
 31
0.0
  0
LINE
  5
4AD
330
4AA
100
AcDbEntity
  8
1
  6
Continuous
 62
     2
100
AcDbLine
 10
572.9450248645558
 20
270.3680932269708
 30
0.0
 11
572.9450248645558
 21
225.8680932269708
 31
0.0
  0
SOLID
  5
4AE
330
4AA
100
AcDbEntity
  8
1
 62
     2
100
AcDbTrace
 10
585.1950248645558
 20
230.9808363224164
 30
0.0
 11
585.1950248645558
 21
227.7553501315252
 31
0.0
 12
572.9450248645558
 22
229.3680932269708
 32
0.0
 13
572.9450248645558
 23
229.3680932269708
 33
0.0
  0
SOLID
  5
4AF
330
4AA
100
AcDbEntity
  8
1
 62
     2
100
AcDbTrace
 10
605.6950248645558
 20
227.7553501315252
 30
0.0
 11
605.6950248645558
 21
230.9808363224164
 31
0.0
 12
617.9450248645558
 22
229.3680932269708
 32
0.0
 13
617.9450248645558
 23
229.3680932269708
 33
0.0
  0
MTEXT
  5
4B0
330
4AA
100
AcDbEntity
  8
1
 62
     7
100
AcDbMText
 10
586.2575248645556
 20
232.8680932269708
 30
0.0
 40
12.25
 41
0.0
 71
     7
 72
     1
  1
45
  7
CONVERTER_12
 11
0.9999999999970619
 21
2.424068405545306E-6
 31
0.0
 73
     1
 44
0.60024009603842
  0
ENDBLK
  5
4B2
330
4AA
100
AcDbEntity
  8
0
100
AcDbBlockEnd
  0
BLOCK
  5
4BD
330
4B5
100
AcDbEntity
  8
0
100
AcDbBlockBegin
  2
*D17
 70
     1
 10
0.0
 20
0.0
 30
0.0
  3
*D17
  1

  0
LINE
  5
4B6
330
4B5
100
AcDbEntity
  8
1
  6
Continuous
 62
     2
100
AcDbLine
 10
228.0270886479058
 20
229.3680932269708
 30
0.0
 11
309.2356498645559
 21
229.3680932269708
 31
0.0
  0
LINE
  5
4B7
330
4B5
100
AcDbEntity
  8
1
  6
Continuous
 62
     2
100
AcDbLine
 10
170.5270886479057
 20
229.3680932269708
 30
0.0
 11
228.0270886479058
 21
229.3680932269708
 31
0.0
  0
LINE
  5
4B8
330
4B5
100
AcDbEntity
  8
1
  6
Continuous
 62
     2
100
AcDbLine
 10
228.0270886479058
 20
287.3680932269707
 30
0.0
 11
228.0270886479058
 21
225.8680932269708
 31
0.0
  0
LINE
  5
4B9
330
4B5
100
AcDbEntity
  8
1
  6
Continuous
 62
     2
100
AcDbLine
 10
170.5270886479057
 20
231.368093226971
 30
0.0
 11
170.5270886479057
 21
225.8680932269708
 31
0.0
  0
SOLID
  5
4BA
330
4B5
100
AcDbEntity
  8
1
 62
     2
100
AcDbTrace
 10
182.7770886479057
 20
230.9808363224164
 30
0.0
 11
182.7770886479057
 21
227.7553501315252
 31
0.0
 12
170.5270886479057
 22
229.3680932269708
 32
0.0
 13
170.5270886479057
 23
229.3680932269708
 33
0.0
  0
SOLID
  5
4BB
330
4B5
100
AcDbEntity
  8
1
 62
     2
100
AcDbTrace
 10
215.7770886479058
 20
227.7553501315252
 30
0.0
 11
215.7770886479058
 21
230.9808363224164
 31
0.0
 12
228.0270886479058
 22
229.3680932269708
 32
0.0
 13
228.0270886479058
 23
229.3680932269708
 33
0.0
  0
MTEXT
  5
4BC
330
4B5
100
AcDbEntity
  8
1
 62
     7
100
AcDbMText
 10
236.6543998645558
 20
232.8680932269708
 30
0.0
 40
12.25
 41
0.0
 71
     7
 72
     1
  1
58リフト5
  7
CONVERTER_11
 11
0.9999999999970619
 21
2.424068405545306E-6
 31
0.0
 73
     1
 44
0.45454545454545
  0
ENDBLK
  5
4BE
330
4B5
100
AcDbEntity
  8
0
100
AcDbBlockEnd
  0
BLOCK
  5
4C8
330
4C1
100
AcDbEntity
  8
0
100
AcDbBlockBegin
  2
*D18
 70
     1
 10
0.0
 20
0.0
 30
0.0
  3
*D18
  1

  0
LINE
  5
4C2
330
4C1
100
AcDbEntity
  8
1
  6
Continuous
 62
     2
100
AcDbLine
 10
610.9450248645553
 20
351.8680932269709
 30
0.0
 11
610.9450248645553
 21
287.3680932269707
 31
0.0
  0
LINE
  5
4C3
330
4C1
100
AcDbEntity
  8
1
  6
Continuous
 62
     2
100
AcDbLine
 10
547.9450248645574
 20
351.8680932269709
 30
0.0
 11
614.4450248645553
 21
351.8680932269709
 31
0.0
  0
LINE
  5
4C4
330
4C1
100
AcDbEntity
  8
1
  6
Continuous
 62
     2
100
AcDbLine
 10
572.9450248645554
 20
287.3680932269707
 30
0.0
 11
614.4450248645553
 21
287.3680932269707
 31
0.0
  0
SOLID
  5
4C5
330
4C1
100
AcDbEntity
  8
1
 62
     2
100
AcDbTrace
 10
612.5577679600009
 20
339.6180932269709
 30
0.0
 11
609.3322817691097
 21
339.6180932269709
 31
0.0
 12
610.9450248645553
 22
351.8680932269709
 32
0.0
 13
610.9450248645553
 23
351.8680932269709
 33
0.0
  0
SOLID
  5
4C6
330
4C1
100
AcDbEntity
  8
1
 62
     2
100
AcDbTrace
 10
609.3322817691097
 20
299.6180932269707
 30
0.0
 11
612.5577679600009
 21
299.6180932269707
 31
0.0
 12
610.9450248645553
 22
287.3680932269707
 32
0.0
 13
610.9450248645553
 23
287.3680932269707
 33
0.0
  0
MTEXT
  5
4C7
330
4C1
100
AcDbEntity
  8
1
 62
     7
100
AcDbMText
 10
607.4450248645553
 20
310.4305932269707
 30
0.0
 40
12.25
 41
0.0
 71
     7
 72
     1
  1
65
  7
CONVERTER_12
 11
0.0
 21
1.0
 31
0.0
 73
     1
 44
0.60024009603842
  0
ENDBLK
  5
4C9
330
4C1
100
AcDbEntity
  8
0
100
AcDbBlockEnd
  0
BLOCK
  5
4D1
330
4CC
100
AcDbEntity
  8
0
100
AcDbBlockBegin
  2
*D19
 70
     1
 10
0.0
 20
0.0
 30
0.0
  3
*D19
  1

  0
LINE
  5
4CD
330
4CC
100
AcDbEntity
  8
1
  6
Continuous
 62
     2
100
AcDbLine
 10
572.9450248645553
 20
308.8680932269708
 30
0.0
 11
497.459657075594
 21
308.8680932269708
 31
0.0
  0
LINE
  5
4CE
330
4CC
100
AcDbEntity
  8
1
  6
Continuous
 62
     2
100
AcDbLine
 10
572.9450248645553
 20
326.8680932269708
 30
0.0
 11
572.9450248645553
 21
305.3680932269708
 31
0.0
  0
SOLID
  5
4CF
330
4CC
100
AcDbEntity
  8
1
 62
     2
100
AcDbTrace
 10
560.6950248645553
 20
307.2553501315252
 30
0.0
 11
560.6950248645553
 21
310.4808363224164
 31
0.0
 12
572.9450248645553
 22
308.8680932269708
 32
0.0
 13
572.9450248645553
 23
308.8680932269708
 33
0.0
  0
MTEXT
  5
4D0
330
4CC
100
AcDbEntity
  8
1
 62
     7
100
AcDbMText
 10
468.059657075594
 20
312.3680932269708
 30
0.0
 40
12.25
 41
0.0
 71
     7
 72
     1
  1
300
  7
CONVERTER_12
 11
0.9999999999970619
 21
2.424068405545306E-6
 31
0.0
 73
     1
 44
0.60024009603842
  0
ENDBLK
  5
4D2
330
4CC
100
AcDbEntity
  8
0
100
AcDbBlockEnd
  0
BLOCK
  5
4D9
330
4D4
100
AcDbEntity
  8
0
100
AcDbBlockBegin
  2
*D20
 70
     1
 10
0.0
 20
0.0
 30
0.0
  3
*D20
  1

  0
LINE
  5
4D5
330
4D4
100
AcDbEntity
  8
1
  6
Continuous
 62
     2
100
AcDbLine
 10
408.1950248645554
 20
241.868093226971
 30
0.0
 11
408.1950248645554
 21
288.8680932269707
 31
0.0
  0
LINE
  5
4D6
330
4D4
100
AcDbEntity
  8
1
  6
Continuous
 62
     2
100
AcDbLine
 10
372.0950248645556
 20
241.868093226971
 30
0.0
 11
411.6950248645554
 21
241.868093226971
 31
0.0
  0
SOLID
  5
4D7
330
4D4
100
AcDbEntity
  8
1
 62
     2
100
AcDbTrace
 10
406.5822817691098
 20
254.118093226971
 30
0.0
 11
409.807767960001
 21
254.118093226971
 31
0.0
 12
408.1950248645554
 22
241.868093226971
 32
0.0
 13
408.1950248645554
 23
241.868093226971
 33
0.0
  0
MTEXT
  5
4D8
330
4D4
100
AcDbEntity
  8
1
 62
     7
100
AcDbMText
 10
410.8200248645554
 20
279.6805932269707
 30
0.0
 40
12.25
 41
0.0
 71
     7
 72
     1
  1

  7
CONVERTER_12
 11
0.0
 21
1.0
 31
0.0
 73
     1
 44
0.60024009603842
  0
ENDBLK
  5
4DA
330
4D4
100
AcDbEntity
  8
0
100
AcDbBlockEnd
  0
ENDSEC
  0
SECTION
  2
ENTITIES
  0
INSERT
  5
72
330
1F
100
AcDbEntity
  8
1
100
AcDbBlockReference
  2
76-120F-300
 10
2653.31822560261
 20
200.5623926502506
 30
0.0
  0
INSERT
  5
73
330
1F
100
AcDbEntity
  8
1
100
AcDbBlockReference
  2
30-111
 10
1796.338679485853
 20
1119.590422467432
 30
0.0
  0
INSERT
  5
74
330
1F
100
AcDbEntity
  8
1
100
AcDbBlockReference
  2
開示A4
 10
0.0
 20
0.0
 30
0.0
 41
3.5
 42
3.5
 43
3.5
  0
INSERT
  5
75
330
1F
100
AcDbEntity
  8
1
100
AcDbBlockReference
  2
A20-0-13
 10
508.8047027852473
 20
165.3340216843292
 30
0.0
  0
INSERT
  5
76
330
1F
100
AcDbEntity
  8
0
100
AcDbBlockReference
  2
21-1C
 10
490.744607060256
 20
72.89160076419404
 30
0.0
  0
INSERT
  5
77
330
1F
100
AcDbEntity
  8
1
100
AcDbBlockReference
  2
42-1
 10
506.7821338062691
 20
78.02858284706103
 30
0.0
  0
INSERT
  5
78
330
1F
100
AcDbEntity
  8
1
100
AcDbBlockReference
  2
37-1-13
 10
499.8907436783971
 20
-5.03449106111395
 30
0.0
  0
INSERT
  5
79
330
1F
100
AcDbEntity
  8
1
100
AcDbBlockReference
  2
36-1A-13-M4
 10
451.3850624974775
 20
251.2124389505173
 30
0.0
  0
INSERT
  5
7A
330
1F
100
AcDbEntity
  8
0
100
AcDbBlockReference
  2
32-1-16
 10
565.5919808917558
 20
446.3689329269329
 30
0.0
  0
LINE
  5
47A
330
1F
100
AcDbEntity
  8
1
  6
Continuous
 62
     2
100
AcDbLine
 10
428.1950248645555
 20
308.8680932269708
 30
0.0
 11
497.4380756221059
 21
308.8680932269708
 31
0.0
  0
LINE
  5
47B
330
1F
100
AcDbEntity
  8
1
  6
DASH_CENTER
 62
     2
100
AcDbLine
 10
642.4450248645558
 20
287.3680932269707
 30
0.0
 11
572.9450248645554
 21
287.3680932269707
 31
0.0
  0
LINE
  5
47C
330
1F
100
AcDbEntity
  8
1
  6
DASH_CENTER
 62
     2
100
AcDbLine
 10
238.5270886479061
 20
768.3680932269706
 30
0.0
 11
144.5270886479061
 21
768.3680932269706
 31
0.0
  0
LINE
  5
47D
330
1F
100
AcDbEntity
  8
1
  6
DASH_CENTER
 62
     2
100
AcDbLine
 10
547.9450248645553
 20
351.8680932269708
 30
0.0
 11
411.4450248645549
 21
351.8680932269709
 31
0.0
  0
LINE
  5
47E
330
1F
100
AcDbEntity
  8
1
  6
DASH_CENTER
 62
     2
100
AcDbLine
 10
361.4450248645547
 20
231.3680932269709
 30
0.0
 11
361.4450248645549
 21
301.8680932269709
 31
0.0
  0
LINE
  5
47F
330
1F
100
AcDbEntity
  8
1
  6
DASH_CENTER
 62
     2
100
AcDbLine
 10
142.0582789254829
 20
287.3680932269706
 30
0.0
 11
231.0582789254829
 21
287.3680932269706
 31
0.0
  0
LINE
  5
480
330
1F
100
AcDbEntity
  8
1
  6
DASH_CENTER
 62
     2
100
AcDbLine
 10
557.7895802983282
 20
296.1180932269704
 30
0.0
 11
602.3898885932267
 21
270.3680932269704
 31
0.0
  0
LINE
  5
481
330
1F
100
AcDbEntity
  8
1
  6
DASH_CENTER
 62
     2
100
AcDbLine
 10
543.5001611358849
 20
270.3680932269704
 30
0.0
 11
588.1004694307834
 21
296.1180932269704
 31
0.0
  0
LINE
  5
482
330
1F
100
AcDbEntity
  8
1
  6
DASH_CENTER
 62
     2
100
AcDbLine
 10
572.9450248645558
 20
270.3680932269708
 30
0.0
 11
572.9450248645553
 21
326.8680932269708
 31
0.0
  0
LINE
  5
483
330
1F
100
AcDbEntity
  8
1
  6
DASH_CENTER
 62
     2
100
AcDbLine
 10
170.5270886479061
 20
370.3680927690585
 30
0.0
 11
170.5270886479057
 21
231.368093226971
 31
0.0
  0
LINE
  5
484
330
1F
100
AcDbEntity
  8
1
  6
DASH_CENTER
 62
     2
100
AcDbLine
 10
170.5270886479059
 20
745.155039801097
 30
0.0
 11
170.5270886479057
 21
837.8680932269706
 31
0.0
  0
LINE
  5
485
330
1F
100
AcDbEntity
  8
1
  6
DASH_CENTER
 62
     2
100
AcDbLine
 10
170.5270886479059
 20
534.6180932269706
 30
0.0
 11
170.5270886479059
 21
745.155039801097
 31
0.0
  0
LINE
  5
486
330
1F
100
AcDbEntity
  8
1
  6
DASH_CENTER
 62
     2
100
AcDbLine
 10
572.9450248645554
 20
287.3680932269707
 30
0.0
 11
544.8091083957065
 21
287.3680932269707
 31
0.0
  0
ARC
  5
487
330
1F
100
AcDbEntity
  8
1
  6
Continuous
 62
     2
100
AcDbCircle
 10
428.1950248645555
 20
288.8680932269708
 30
0.0
 40
20.0
100
AcDbArc
 50
90.0
 51
180.0000000000003
  0
ARC
  5
488
330
1F
100
AcDbEntity
  8
1
  6
PHANTOM
 62
     2
100
AcDbCircle
 10
411.4450248645549
 20
301.8680932269709
 30
0.0
 40
50.0
100
AcDbArc
 50
90.0
 51
180.0
  0
ARC
  5
489
330
1F
100
AcDbEntity
  8
1
  6
DASH_CENTER
 62
     2
100
AcDbCircle
 10
547.9450248645553
 20
326.8680932269708
 30
0.0
 40
25.0
100
AcDbArc
 50
0.0
 51
90.0
  0
SOLID
  5
48A
330
1F
100
AcDbEntity
  8
0
 62
     2
100
AcDbTrace
 10
185.755412157472
 20
832.0216748876039
 30
0.0
 11
188.5487651383396
 21
830.4089317921583
 31
0.0
 12
181.0270886479057
 22
820.6064921435218
 32
0.0
 13
181.0270886479057
 23
820.6064921435218
 33
0.0
  0
LEADER
  5
48B
330
1F
100
AcDbEntity
  8
0
  6
Continuous
 62
     2
100
AcDbLeader
  3
Standard
 71
     0
 76
     3
 10
181.0270886479057
 20
820.6064921435218
 30
0.0
 10
194.486693320051
 20
843.919211285469
 30
0.0
 10
236.7630576071769
 20
843.919211285469
 30
0.0
  0
MTEXT
  5
48D
330
1F
100
AcDbEntity
  8
1
 62
     7
100
AcDbMText
 10
215.3686013186946
 20
854.419211285469
 30
0.0
 40
12.25
 41
0.0
 71
     5
 72
     1
  1
PJ1/2
  7
CONVERTER_12
 73
     1
 44
1.32052821128451
  0
MTEXT
  5
48E
330
1F
100
AcDbEntity
  8
0
 62
     7
100
AcDbMText
 10
328.1250000000001
 20
59.50000000000001
 30
0.0
 40
10.5
 41
0.0
 71
     5
 72
     1
  1
3,5
  7
CONVERTER_12
 73
     1
 44
1.32052821128451
  0
MTEXT
  5
48F
330
1F
100
AcDbEntity
  8
0
 62
     7
100
AcDbMText
 10
298.3750000000001
 20
59.50000000000001
 30
0.0
 40
10.5
 41
0.0
 71
     5
 72
     1
  1
1
  7
CONVERTER_12
 73
     1
 44
1.32052821128451
  0
MTEXT
  5
490
330
1F
100
AcDbEntity
  8
0
 62
     7
100
AcDbMText
 10
199.5
 20
49.875
 30
0.0
 40
12.25
 41
0.0
 71
     5
 72
     1
  1
A28A3-13
  7
CONVERTER_12
 73
     1
 44
0.90036014405762
  0
MTEXT
  5
491
330
1F
100
AcDbEntity
  8
0
 62
     7
100
AcDbMText
 10
199.5
 20
79.62500000000004
 30
0.0
 40
12.25
 41
0.0
 71
     5
 72
     1
  1
ベンリー横形自在水栓
  7
CONVERTER_11
 73
     1
 44
1.0
  0
DIMENSION
  5
49C
330
1F
100
AcDbEntity
  8
1
100
AcDbDimension
  2
*D14
 10
666.9450248645558
 20
264.3680932269709
 30
0.0
 11
657.3200248645558
 21
287.3680932269708
 31
0.0
 70
    32
  1
<>
 71
     5
 42
-1.0
 53
90.0
  3
ME10_DIM_10
100
AcDbAlignedDimension
 13
617.9450248645558
 23
310.3680932269708
 33
0.0
 14
617.9450248645558
 24
264.3680932269708
 34
0.0
 50
90.0
100
AcDbRotatedDimension
  0
DIMENSION
  5
4A9
330
1F
100
AcDbEntity
  8
1
100
AcDbDimension
  2
*D15
 10
617.9450248645558
 20
229.3680932269708
 30
0.0
 11
624.9450248645558
 21
238.9930932269708
 31
0.0
 70
    32
  1
<>
 71
     5
 42
-1.0
 53
0.00013888888889
  3
ME10_DIM_11
100
AcDbAlignedDimension
 13
631.9450248645558
 23
277.8680932269708
 33
0.0
 14
617.9450248645558
 24
264.3680932269708
 34
0.0
100
AcDbRotatedDimension
  0
DIMENSION
  5
4B4
330
1F
100
AcDbEntity
  8
1
100
AcDbDimension
  2
*D16
 10
572.9450248645558
 20
229.3680932269708
 30
0.0
 11
595.4450248645556
 21
238.9930932269708
 31
0.0
 70
    32
  1
<>
 71
     5
 42
-1.0
 53
0.00013888888889
  3
ME10_DIM_12
100
AcDbAlignedDimension
 13
617.9450248645558
 23
264.3680932269708
 33
0.0
 14
572.9450248645558
 24
270.3680932269708
 34
0.0
100
AcDbRotatedDimension
  0
DIMENSION
  5
4C0
330
1F
100
AcDbEntity
  8
1
100
AcDbDimension
  2
*D17
 10
170.5270886479057
 20
229.3680932269708
 30
0.0
 11
272.9450248645558
 21
238.9930932269708
 31
0.0
 70
    32
  1
58リフト5
 71
     5
 42
-1.0
 53
0.00013888888889
  3
ME10_DIM_13
100
AcDbAlignedDimension
 13
228.0270886479058
 23
287.3680932269706
 33
0.0
 14
170.5270886479057
 24
231.368093226971
 34
0.0
100
AcDbRotatedDimension
  0
DIMENSION
  5
4CB
330
1F
100
AcDbEntity
  8
1
100
AcDbDimension
  2
*D18
 10
610.9450248645553
 20
351.8680932269709
 30
0.0
 11
601.3200248645553
 21
319.6180932269707
 31
0.0
 70
    32
  1
65
 71
     5
 42
-1.0
 53
90.0
  3
ME10_DIM_14
100
AcDbAlignedDimension
 13
572.9450248645554
 23
287.3680932269707
 33
0.0
 14
547.9450248645574
 24
351.8680932269709
 34
0.0
 50
90.0
100
AcDbRotatedDimension
  0
INSERT
  5
4D3
330
1F
100
AcDbEntity
  8
1
100
AcDbBlockReference
  2
*D19
 10
0.0
 20
0.0
 30
0.0
  0
INSERT
  5
4DB
330
1F
100
AcDbEntity
  8
1
100
AcDbBlockReference
  2
*D20
 10
0.0
 20
0.0
 30
0.0
  0
ENDSEC
  0
SECTION
  2
OBJECTS
  0
DICTIONARY
  5
C
330
0
100
AcDbDictionary
281
     1
  3
ACAD_GROUP
350
D
  3
ACAD_LAYOUT
350
1A
  3
ACAD_MATERIAL
350
3B
  3
ACAD_MLEADERSTYLE
350
4DE
  3
ACAD_MLINESTYLE
350
17
  3
ACAD_PLOTSETTINGS
350
19
  3
ACAD_PLOTSTYLENAME
350
E
  3
ACAD_VISUALSTYLE
350
2A
  3
AcDbVariableDictionary
350
4DC
  0
DICTIONARY
  5
D
102
{ACAD_REACTORS
330
C
102
}
330
C
100
AcDbDictionary
281
     1
  0
DICTIONARY
  5
1A
102
{ACAD_REACTORS
330
C
102
}
330
C
100
AcDbDictionary
281
     1
  3
Layout1
350
1E
  3
Layout2
350
26
  3
Model
350
22
  0
DICTIONARY
  5
3B
102
{ACAD_REACTORS
330
C
102
}
330
C
100
AcDbDictionary
281
     1
  3
ByBlock
350
3D
  3
ByLayer
350
3C
  3
Global
350
3E
  0
DICTIONARY
  5
4DE
102
{ACAD_REACTORS
330
C
102
}
330
C
100
AcDbDictionary
281
     1
  0
DICTIONARY
  5
17
102
{ACAD_REACTORS
330
C
102
}
330
C
100
AcDbDictionary
281
     1
  3
Standard
350
18
  0
DICTIONARY
  5
19
102
{ACAD_REACTORS
330
C
102
}
330
C
100
AcDbDictionary
281
     1
  0
ACDBDICTIONARYWDFLT
  5
E
102
{ACAD_REACTORS
330
C
102
}
330
C
100
AcDbDictionary
281
     1
  3
Normal
350
F
100
AcDbDictionaryWithDefault
340
F
  0
DICTIONARY
  5
2A
102
{ACAD_REACTORS
330
C
102
}
330
C
100
AcDbDictionary
281
     1
  3
2dWireframe
350
2F
  3
3D Hidden
350
31
  3
3dWireframe
350
30
  3
Basic
350
32
  3
Brighten
350
36
  3
ColorChange
350
3A
  3
Conceptual
350
34
  3
Dim
350
35
  3
Facepattern
350
39
  3
Flat
350
2B
  3
FlatWithEdges
350
2C
  3
Gouraud
350
2D
  3
GouraudWithEdges
350
2E
  3
Linepattern
350
38
  3
Realistic
350
33
  3
Thicken
350
37
  0
DICTIONARY
  5
4DC
102
{ACAD_REACTORS
330
C
102
}
330
C
100
AcDbDictionary
281
     1
  3
DIMASSOC
350
4DF
  3
HIDETEXT
350
4E0
  0
LAYOUT
  5
1E
102
{ACAD_REACTORS
330
1A
102
}
330
1A
100
AcDbPlotSettings
  1

  2
none_device
  4

  6

 40
0.0
 41
0.0
 42
0.0
 43
0.0
 44
0.0
 45
0.0
 46
0.0
 47
0.0
 48
0.0
 49
0.0
140
0.0
141
0.0
142
1.0
143
1.0
 70
   688
 72
     0
 73
     0
 74
     5
  7

 75
    16
147
1.0
148
0.0
149
0.0
100
AcDbLayout
  1
Layout1
 70
     1
 71
     1
 10
0.0
 20
0.0
 11
12.0
 21
9.0
 12
0.0
 22
0.0
 32
0.0
 14
1.00000000000000E+20
 24
1.00000000000000E+20
 34
1.00000000000000E+20
 15
-1.00000000000000E+20
 25
-1.00000000000000E+20
 35
-1.00000000000000E+20
146
0.0
 13
0.0
 23
0.0
 33
0.0
 16
1.0
 26
0.0
 36
0.0
 17
0.0
 27
1.0
 37
0.0
 76
     0
330
1B
  0
LAYOUT
  5
26
102
{ACAD_REACTORS
330
1A
102
}
330
1A
100
AcDbPlotSettings
  1

  2
none_device
  4

  6

 40
0.0
 41
0.0
 42
0.0
 43
0.0
 44
0.0
 45
0.0
 46
0.0
 47
0.0
 48
0.0
 49
0.0
140
0.0
141
0.0
142
1.0
143
1.0
 70
   688
 72
     0
 73
     0
 74
     5
  7

 75
    16
147
1.0
148
0.0
149
0.0
100
AcDbLayout
  1
Layout2
 70
     1
 71
     2
 10
0.0
 20
0.0
 11
0.0
 21
0.0
 12
0.0
 22
0.0
 32
0.0
 14
0.0
 24
0.0
 34
0.0
 15
0.0
 25
0.0
 35
0.0
146
0.0
 13
0.0
 23
0.0
 33
0.0
 16
1.0
 26
0.0
 36
0.0
 17
0.0
 27
1.0
 37
0.0
 76
     0
330
23
  0
LAYOUT
  5
22
102
{ACAD_REACTORS
330
1A
102
}
330
1A
100
AcDbPlotSettings
  1

  2
none_device
  4

  6

 40
0.0
 41
0.0
 42
0.0
 43
0.0
 44
0.0
 45
0.0
 46
0.0
 47
0.0
 48
0.0
 49
0.0
140
0.0
141
0.0
142
1.0
143
1.0
 70
  1712
 72
     0
 73
     0
 74
     0
  7

 75
     0
147
1.0
148
0.0
149
0.0
100
AcDbLayout
  1
Model
 70
     1
 71
     0
 10
0.0
 20
0.0
 11
12.0
 21
9.0
 12
0.0
 22
0.0
 32
0.0
 14
0.0
 24
0.0
 34
0.0
 15
735.0
 25
1039.5
 35
0.0
146
0.0
 13
0.0
 23
0.0
 33
0.0
 16
1.0
 26
0.0
 36
0.0
 17
0.0
 27
1.0
 37
0.0
 76
     0
330
1F
331
29
  0
MATERIAL
  5
3D
102
{ACAD_REACTORS
330
3B
102
}
102
{ACAD_XDICTIONARY
360
503
102
}
330
3B
100
AcDbMaterial
  1
ByBlock
  0
MATERIAL
  5
3C
102
{ACAD_REACTORS
330
3B
102
}
102
{ACAD_XDICTIONARY
360
501
102
}
330
3B
100
AcDbMaterial
  1
ByLayer
  0
MATERIAL
  5
3E
102
{ACAD_REACTORS
330
3B
102
}
102
{ACAD_XDICTIONARY
360
505
102
}
330
3B
100
AcDbMaterial
  1
Global
  0
MLINESTYLE
  5
18
102
{ACAD_REACTORS
330
17
102
}
330
17
100
AcDbMlineStyle
  2
Standard
 70
     0
  3

 62
   256
 51
90.0
 52
90.0
 71
     2
 49
0.5
 62
   256
  6
BYLAYER
 49
-0.5
 62
   256
  6
BYLAYER
  0
ACDBPLACEHOLDER
  5
F
102
{ACAD_REACTORS
330
E
102
}
330
E
  0
VISUALSTYLE
  5
2F
102
{ACAD_REACTORS
330
2A
102
}
102
{ACAD_XDICTIONARY
360
4E9
102
}
330
2A
100
AcDbVisualStyle
  2
2dWireframe
 70
     4
 71
     0
 72
     2
 73
     0
 90
        0
 40
-0.6
 41
-30.0
 62
     5
 63
     7
 74
     1
 91
        4
 64
     7
 65
   257
 75
     1
175
     1
 42
1.0
 92
        0
 66
   257
 43
1.0
 76
     1
 77
     6
 78
     2
 67
     7
 79
     5
170
     0
171
     0
290
     0
174
     0
 93
        1
 44
0.0
173
     0
291
     0
 45
0.0
1001
ACAD
1000
AcDbSavedByObjectVersion
1070
     0
  0
VISUALSTYLE
  5
31
102
{ACAD_REACTORS
330
2A
102
}
102
{ACAD_XDICTIONARY
360
4ED
102
}
330
2A
100
AcDbVisualStyle
  2
3D Hidden
 70
     6
 71
     1
 72
     2
 73
     2
 90
        0
 40
-0.6
 41
-30.0
 62
     5
 63
     7
 74
     2
 91
        2
 64
     7
 65
   257
 75
     2
175
     1
 42
40.0
 92
        0
 66
   257
 43
1.0
 76
     1
 77
     6
 78
     2
 67
     7
 79
     3
170
     0
171
     0
290
     0
174
     0
 93
        1
 44
0.0
173
     0
291
     0
 45
0.0
1001
ACAD
1000
AcDbSavedByObjectVersion
1070
     0
  0
VISUALSTYLE
  5
30
102
{ACAD_REACTORS
330
2A
102
}
102
{ACAD_XDICTIONARY
360
4EB
102
}
330
2A
100
AcDbVisualStyle
  2
3dWireframe
 70
     5
 71
     0
 72
     2
 73
     0
 90
        0
 40
-0.6
 41
-30.0
 62
     5
 63
     7
 74
     1
 91
        4
 64
     7
 65
   257
 75
     1
175
     1
 42
1.0
 92
        0
 66
   257
 43
1.0
 76
     1
 77
     6
 78
     2
 67
     7
 79
     5
170
     0
171
     0
290
     0
174
     0
 93
        1
 44
0.0
173
     0
291
     0
 45
0.0
1001
ACAD
1000
AcDbSavedByObjectVersion
1070
     0
  0
VISUALSTYLE
  5
32
102
{ACAD_REACTORS
330
2A
102
}
102
{ACAD_XDICTIONARY
360
4EF
102
}
330
2A
100
AcDbVisualStyle
  2
Basic
 70
     7
 71
     1
 72
     0
 73
     1
 90
        0
 40
-0.6
 41
-30.0
 62
     5
 63
     7
 74
     0
 91
        4
 64
     7
 65
   257
 75
     1
175
     1
 42
1.0
 92
        8
 66
     7
 43
1.0
 76
     1
 77
     6
 78
     2
 67
     7
 79
     5
170
     0
171
     0
290
     0
174
     0
 93
        1
 44
0.0
173
     0
291
     1
 45
0.0
1001
ACAD
1000
AcDbSavedByObjectVersion
1070
     0
  0
VISUALSTYLE
  5
36
102
{ACAD_REACTORS
330
2A
102
}
102
{ACAD_XDICTIONARY
360
4F7
102
}
330
2A
100
AcDbVisualStyle
  2
Brighten
 70
    12
 71
     2
 72
     2
 73
     0
 90
        0
 40
-0.6
 41
-30.0
 62
     5
 63
     7
 74
     1
 91
        4
 64
     7
 65
   257
 75
     1
175
     1
 42
1.0
 92
        8
 66
     7
 43
1.0
 76
     1
 77
     6
 78
     2
 67
     7
 79
     5
170
     0
171
     0
290
     0
174
     0
 93
        1
 44
50.0
173
     0
291
     1
 45
0.0
1001
ACAD
1000
AcDbSavedByObjectVersion
1070
     0
  0
VISUALSTYLE
  5
3A
102
{ACAD_REACTORS
330
2A
102
}
102
{ACAD_XDICTIONARY
360
4FF
102
}
330
2A
100
AcDbVisualStyle
  2
ColorChange
 70
    16
 71
     2
 72
     2
 73
     3
 90
        0
 40
-0.6
 41
-30.0
 62
     5
 63
     8
 74
     1
 91
        4
 64
     7
 65
   257
 75
     1
175
     1
 42
1.0
 92
        8
 66
     8
 43
1.0
 76
     1
 77
     6
 78
     2
 67
     7
 79
     5
170
     0
171
     0
290
     0
174
     0
 93
        1
 44
0.0
173
     0
291
     1
 45
0.0
1001
ACAD
1000
AcDbSavedByObjectVersion
1070
     0
  0
VISUALSTYLE
  5
34
102
{ACAD_REACTORS
330
2A
102
}
102
{ACAD_XDICTIONARY
360
4F3
102
}
330
2A
100
AcDbVisualStyle
  2
Conceptual
 70
     9
 71
     3
 72
     2
 73
     0
 90
        0
 40
-0.6
 41
-30.0
 62
     5
 63
     7
 74
     2
 91
        2
 64
     7
 65
   257
 75
     1
175
     1
 42
40.0
 92
        8
 66
     7
 43
1.0
 76
     1
 77
     6
 78
     2
 67
     7
 79
     3
170
     0
171
     0
290
     0
174
     0
 93
        1
 44
0.0
173
     0
291
     0
 45
0.0
1001
ACAD
1000
AcDbSavedByObjectVersion
1070
     0
  0
VISUALSTYLE
  5
35
102
{ACAD_REACTORS
330
2A
102
}
102
{ACAD_XDICTIONARY
360
4F5
102
}
330
2A
100
AcDbVisualStyle
  2
Dim
 70
    11
 71
     2
 72
     2
 73
     0
 90
        0
 40
-0.6
 41
-30.0
 62
     5
 63
     7
 74
     1
 91
        4
 64
     7
 65
   257
 75
     1
175
     1
 42
1.0
 92
        8
 66
     7
 43
1.0
 76
     1
 77
     6
 78
     2
 67
     7
 79
     5
170
     0
171
     0
290
     0
174
     0
 93
        1
 44
-50.0
173
     0
291
     1
 45
0.0
1001
ACAD
1000
AcDbSavedByObjectVersion
1070
     0
  0
VISUALSTYLE
  5
39
102
{ACAD_REACTORS
330
2A
102
}
102
{ACAD_XDICTIONARY
360
4FD
102
}
330
2A
100
AcDbVisualStyle
  2
Facepattern
 70
    15
 71
     2
 72
     2
 73
     0
 90
        0
 40
-0.6
 41
-30.0
 62
     5
 63
     7
 74
     1
 91
        4
 64
     7
 65
   257
 75
     1
175
     1
 42
1.0
 92
        8
 66
     7
 43
1.0
 76
     1
 77
     6
 78
     2
 67
     7
 79
     5
170
     0
171
     0
290
     0
174
     0
 93
        1
 44
0.0
173
     0
291
     1
 45
0.0
1001
ACAD
1000
AcDbSavedByObjectVersion
1070
     0
  0
VISUALSTYLE
  5
2B
102
{ACAD_REACTORS
330
2A
102
}
102
{ACAD_XDICTIONARY
360
4E1
102
}
330
2A
100
AcDbVisualStyle
  2
Flat
 70
     0
 71
     2
 72
     1
 73
     1
 90
        2
 40
-0.6
 41
30.0
 62
     5
 63
     7
 74
     0
 91
        4
 64
     7
 65
   257
 75
     1
175
     1
 42
1.0
 92
        8
 66
     7
 43
1.0
 76
     1
 77
     6
 78
     2
 67
     7
 79
     5
170
     0
171
     0
290
     0
174
     0
 93
       13
 44
0.0
173
     0
291
     1
 45
0.0
1001
ACAD
1000
AcDbSavedByObjectVersion
1070
     0
  0
VISUALSTYLE
  5
2C
102
{ACAD_REACTORS
330
2A
102
}
102
{ACAD_XDICTIONARY
360
4E3
102
}
330
2A
100
AcDbVisualStyle
  2
FlatWithEdges
 70
     1
 71
     2
 72
     1
 73
     1
 90
        2
 40
-0.6
 41
30.0
 62
     5
 63
     7
 74
     1
 91
        4
 64
     7
 65
   257
 75
     1
175
     1
 42
1.0
 92
        0
 66
   257
 43
1.0
 76
     1
 77
     6
 78
     2
 67
     7
 79
     5
170
     0
171
     0
290
     0
174
     0
 93
       13
 44
0.0
173
     0
291
     1
 45
0.0
1001
ACAD
1000
AcDbSavedByObjectVersion
1070
     0
  0
VISUALSTYLE
  5
2D
102
{ACAD_REACTORS
330
2A
102
}
102
{ACAD_XDICTIONARY
360
4E5
102
}
330
2A
100
AcDbVisualStyle
  2
Gouraud
 70
     2
 71
     2
 72
     2
 73
     1
 90
        2
 40
-0.6
 41
30.0
 62
     5
 63
     7
 74
     0
 91
        4
 64
     7
 65
   257
 75
     1
175
     1
 42
1.0
 92
        0
 66
     7
 43
1.0
 76
     1
 77
     6
 78
     2
 67
     7
 79
     5
170
     0
171
     0
290
     0
174
     0
 93
       13
 44
0.0
173
     0
291
     1
 45
0.0
1001
ACAD
1000
AcDbSavedByObjectVersion
1070
     0
  0
VISUALSTYLE
  5
2E
102
{ACAD_REACTORS
330
2A
102
}
102
{ACAD_XDICTIONARY
360
4E7
102
}
330
2A
100
AcDbVisualStyle
  2
GouraudWithEdges
 70
     3
 71
     2
 72
     2
 73
     1
 90
        2
 40
-0.6
 41
30.0
 62
     5
 63
     7
 74
     1
 91
        4
 64
     7
 65
   257
 75
     1
175
     1
 42
1.0
 92
        0
 66
   257
 43
1.0
 76
     1
 77
     6
 78
     2
 67
     7
 79
     5
170
     0
171
     0
290
     0
174
     0
 93
       13
 44
0.0
173
     0
291
     1
 45
0.0
1001
ACAD
1000
AcDbSavedByObjectVersion
1070
     0
  0
VISUALSTYLE
  5
38
102
{ACAD_REACTORS
330
2A
102
}
102
{ACAD_XDICTIONARY
360
4FB
102
}
330
2A
100
AcDbVisualStyle
  2
Linepattern
 70
    14
 71
     2
 72
     2
 73
     0
 90
        0
 40
-0.6
 41
-30.0
 62
     5
 63
     7
 74
     1
 91
        4
 64
     7
 65
   257
 75
     7
175
     7
 42
1.0
 92
        8
 66
     7
 43
1.0
 76
     1
 77
     6
 78
     2
 67
     7
 79
     5
170
     0
171
     0
290
     0
174
     0
 93
        1
 44
0.0
173
     0
291
     1
 45
0.0
1001
ACAD
1000
AcDbSavedByObjectVersion
1070
     0
  0
VISUALSTYLE
  5
33
102
{ACAD_REACTORS
330
2A
102
}
102
{ACAD_XDICTIONARY
360
4F1
102
}
330
2A
100
AcDbVisualStyle
  2
Realistic
 70
     8
 71
     2
 72
     2
 73
     0
 90
        0
 40
-0.6
 41
-30.0
 62
     5
 63
     7
 74
     1
 91
        0
 64
     7
 65
   257
 75
     1
175
     1
 42
1.0
 92
        8
 66
     8
 43
1.0
 76
     1
 77
     6
 78
     2
 67
     7
 79
     5
170
     0
171
     0
290
     0
174
     0
 93
       13
 44
0.0
173
     0
291
     0
 45
0.0
1001
ACAD
1000
AcDbSavedByObjectVersion
1070
     0
  0
VISUALSTYLE
  5
37
102
{ACAD_REACTORS
330
2A
102
}
102
{ACAD_XDICTIONARY
360
4F9
102
}
330
2A
100
AcDbVisualStyle
  2
Thicken
 70
    13
 71
     2
 72
     2
 73
     0
 90
        0
 40
-0.6
 41
-30.0
 62
     5
 63
     7
 74
     1
 91
        4
 64
     7
 65
   257
 75
     1
175
     1
 42
1.0
 92
       12
 66
     7
 43
1.0
 76
     1
 77
     6
 78
     2
 67
     7
 79
     5
170
     0
171
     0
290
     0
174
     0
 93
        1
 44
0.0
173
     0
291
     1
 45
0.0
1001
ACAD
1000
AcDbSavedByObjectVersion
1070
     0
  0
DICTIONARYVAR
  5
4DF
102
{ACAD_REACTORS
330
4DC
102
}
330
4DC
100
DictionaryVariables
280
     0
  1
2
  0
DICTIONARYVAR
  5
4E0
102
{ACAD_REACTORS
330
4DC
102
}
330
4DC
100
DictionaryVariables
280
     0
  1
1
  0
DICTIONARY
  5
503
330
3D
100
AcDbDictionary
280
     1
281
     1
  3
ACAD_XREC_ROUNDTRIP
360
504
  0
DICTIONARY
  5
501
330
3C
100
AcDbDictionary
280
     1
281
     1
  3
ACAD_XREC_ROUNDTRIP
360
502
  0
DICTIONARY
  5
505
330
3E
100
AcDbDictionary
280
     1
281
     1
  3
ACAD_XREC_ROUNDTRIP
360
506
  0
DICTIONARY
  5
4E9
330
2F
100
AcDbDictionary
280
     1
281
     1
  3
ACAD_XREC_ROUNDTRIP
360
4EA
  0
DICTIONARY
  5
4ED
330
31
100
AcDbDictionary
280
     1
281
     1
  3
ACAD_XREC_ROUNDTRIP
360
4EE
  0
DICTIONARY
  5
4EB
330
30
100
AcDbDictionary
280
     1
281
     1
  3
ACAD_XREC_ROUNDTRIP
360
4EC
  0
DICTIONARY
  5
4EF
330
32
100
AcDbDictionary
280
     1
281
     1
  3
ACAD_XREC_ROUNDTRIP
360
4F0
  0
DICTIONARY
  5
4F7
330
36
100
AcDbDictionary
280
     1
281
     1
  3
ACAD_XREC_ROUNDTRIP
360
4F8
  0
DICTIONARY
  5
4FF
330
3A
100
AcDbDictionary
280
     1
281
     1
  3
ACAD_XREC_ROUNDTRIP
360
500
  0
DICTIONARY
  5
4F3
330
34
100
AcDbDictionary
280
     1
281
     1
  3
ACAD_XREC_ROUNDTRIP
360
4F4
  0
DICTIONARY
  5
4F5
330
35
100
AcDbDictionary
280
     1
281
     1
  3
ACAD_XREC_ROUNDTRIP
360
4F6
  0
DICTIONARY
  5
4FD
330
39
100
AcDbDictionary
280
     1
281
     1
  3
ACAD_XREC_ROUNDTRIP
360
4FE
  0
DICTIONARY
  5
4E1
330
2B
100
AcDbDictionary
280
     1
281
     1
  3
ACAD_XREC_ROUNDTRIP
360
4E2
  0
DICTIONARY
  5
4E3
330
2C
100
AcDbDictionary
280
     1
281
     1
  3
ACAD_XREC_ROUNDTRIP
360
4E4
  0
DICTIONARY
  5
4E5
330
2D
100
AcDbDictionary
280
     1
281
     1
  3
ACAD_XREC_ROUNDTRIP
360
4E6
  0
DICTIONARY
  5
4E7
330
2E
100
AcDbDictionary
280
     1
281
     1
  3
ACAD_XREC_ROUNDTRIP
360
4E8
  0
DICTIONARY
  5
4FB
330
38
100
AcDbDictionary
280
     1
281
     1
  3
ACAD_XREC_ROUNDTRIP
360
4FC
  0
DICTIONARY
  5
4F1
330
33
100
AcDbDictionary
280
     1
281
     1
  3
ACAD_XREC_ROUNDTRIP
360
4F2
  0
DICTIONARY
  5
4F9
330
37
100
AcDbDictionary
280
     1
281
     1
  3
ACAD_XREC_ROUNDTRIP
360
4FA
  0
XRECORD
  5
504
102
{ACAD_REACTORS
330
503
102
}
330
503
100
AcDbXrecord
280
     1
102
MATERIAL
148
0.0
149
0.0
149
0.0
 93
        0
 94
      127
282
     0
 72
     1
 77
     1
171
     1
175
     1
179
     1
273
     0
  0
XRECORD
  5
502
102
{ACAD_REACTORS
330
501
102
}
330
501
100
AcDbXrecord
280
     1
102
MATERIAL
148
0.0
149
0.0
149
0.0
 93
        0
 94
      127
282
     0
 72
     1
 77
     1
171
     1
175
     1
179
     1
273
     0
  0
XRECORD
  5
506
102
{ACAD_REACTORS
330
505
102
}
330
505
100
AcDbXrecord
280
     1
102
MATERIAL
148
0.0
149
0.0
149
0.0
 93
        0
 94
      127
282
     0
 72
     1
 77
     1
171
     1
175
     1
179
     1
273
     0
  0
XRECORD
  5
4EA
102
{ACAD_REACTORS
330
4E9
102
}
330
4E9
100
AcDbXrecord
280
     1
102
RTVSPropertyOp0
 70
     1
102
RTVSPropertyOp1
 70
     1
102
RTVSPropertyOp2
 70
     1
102
RTVSPropertyOp3
 70
     1
102
RTVSPropertyOp4
 70
     1
102
RTVSPropertyOp5
 70
     1
102
RTVSPropertyOp6
 70
     1
102
RTVSPropertyOp7
 70
     1
102
RTVSPropertyOp8
 70
     1
102
RTVSPropertyOp9
 70
     1
102
RTVSPropertyOp10
 70
     1
102
RTVSPropertyOp11
 70
     1
102
RTVSPropertyOp12
 70
     1
102
RTVSPropertyOp13
 70
     1
102
RTVSPropertyOp14
 70
     1
102
RTVSPropertyOp15
 70
     1
102
RTVSPropertyOp16
 70
     1
102
RTVSPropertyOp17
 70
     1
102
RTVSPropertyOp18
 70
     1
102
RTVSPropertyOp19
 70
     1
102
RTVSPropertyOp20
 70
     1
102
RTVSPropertyOp21
 70
     1
102
RTVSPropertyOp22
 70
     1
102
RTVSPropertyOp23
 70
     1
102
RTVSPropertyOp24
 70
     1
102
RTVSPropertyOp25
 70
     1
102
RTVSPropertyOp26
 70
     1
102
RTVSPropertyOp27
 70
     1
102
RTVSPropertyOp28
 70
     1
102
RTVSPropertyOp29
 70
     1
102
RTVSPropertyOp30
 70
     1
102
RTVSPropertyOp31
 70
     1
102
RTVSPropertyOp32
 70
     1
  0
XRECORD
  5
4EE
102
{ACAD_REACTORS
330
4ED
102
}
330
4ED
100
AcDbXrecord
280
     1
102
RTVSPropertyOp0
 70
     1
102
RTVSPropertyOp1
 70
     1
102
RTVSPropertyOp2
 70
     1
102
RTVSPropertyOp3
 70
     1
102
RTVSPropertyOp4
 70
     1
102
RTVSPropertyOp5
 70
     1
102
RTVSPropertyOp6
 70
     1
102
RTVSPropertyOp7
 70
     1
102
RTVSPropertyOp8
 70
     1
102
RTVSPropertyOp9
 70
     1
102
RTVSPropertyOp10
 70
     1
102
RTVSPropertyOp11
 70
     1
102
RTVSPropertyOp12
 70
     1
102
RTVSPropertyOp13
 70
     1
102
RTVSPropertyOp14
 70
     1
102
RTVSPropertyOp15
 70
     1
102
RTVSPropertyOp16
 70
     1
102
RTVSPropertyOp17
 70
     1
102
RTVSPropertyOp18
 70
     1
102
RTVSPropertyOp19
 70
     1
102
RTVSPropertyOp20
 70
     1
102
RTVSPropertyOp21
 70
     1
102
RTVSPropertyOp22
 70
     1
102
RTVSPropertyOp23
 70
     1
102
RTVSPropertyOp24
 70
     1
102
RTVSPropertyOp25
 70
     1
102
RTVSPropertyOp26
 70
     1
102
RTVSPropertyOp27
 70
     1
102
RTVSPropertyOp28
 70
     1
102
RTVSPropertyOp29
 70
     1
102
RTVSPropertyOp30
 70
     1
102
RTVSPropertyOp31
 70
     1
102
RTVSPropertyOp32
 70
     1
  0
XRECORD
  5
4EC
102
{ACAD_REACTORS
330
4EB
102
}
330
4EB
100
AcDbXrecord
280
     1
102
RTVSPropertyOp0
 70
     1
102
RTVSPropertyOp1
 70
     1
102
RTVSPropertyOp2
 70
     1
102
RTVSPropertyOp3
 70
     1
102
RTVSPropertyOp4
 70
     1
102
RTVSPropertyOp5
 70
     1
102
RTVSPropertyOp6
 70
     1
102
RTVSPropertyOp7
 70
     1
102
RTVSPropertyOp8
 70
     1
102
RTVSPropertyOp9
 70
     1
102
RTVSPropertyOp10
 70
     1
102
RTVSPropertyOp11
 70
     1
102
RTVSPropertyOp12
 70
     1
102
RTVSPropertyOp13
 70
     1
102
RTVSPropertyOp14
 70
     1
102
RTVSPropertyOp15
 70
     1
102
RTVSPropertyOp16
 70
     1
102
RTVSPropertyOp17
 70
     1
102
RTVSPropertyOp18
 70
     1
102
RTVSPropertyOp19
 70
     1
102
RTVSPropertyOp20
 70
     1
102
RTVSPropertyOp21
 70
     1
102
RTVSPropertyOp22
 70
     1
102
RTVSPropertyOp23
 70
     1
102
RTVSPropertyOp24
 70
     1
102
RTVSPropertyOp25
 70
     1
102
RTVSPropertyOp26
 70
     1
102
RTVSPropertyOp27
 70
     1
102
RTVSPropertyOp28
 70
     1
102
RTVSPropertyOp29
 70
     1
102
RTVSPropertyOp30
 70
     1
102
RTVSPropertyOp31
 70
     1
102
RTVSPropertyOp32
 70
     1
  0
XRECORD
  5
4F0
102
{ACAD_REACTORS
330
4EF
102
}
330
4EF
100
AcDbXrecord
280
     1
102
RTVSPropertyOp0
 70
     1
102
RTVSPropertyOp1
 70
     1
102
RTVSPropertyOp2
 70
     1
102
RTVSPropertyOp3
 70
     1
102
RTVSPropertyOp4
 70
     1
102
RTVSPropertyOp5
 70
     1
102
RTVSPropertyOp6
 70
     1
102
RTVSPropertyOp7
 70
     1
102
RTVSPropertyOp8
 70
     1
102
RTVSPropertyOp9
 70
     1
102
RTVSPropertyOp10
 70
     1
102
RTVSPropertyOp11
 70
     1
102
RTVSPropertyOp12
 70
     1
102
RTVSPropertyOp13
 70
     1
102
RTVSPropertyOp14
 70
     1
102
RTVSPropertyOp15
 70
     1
102
RTVSPropertyOp16
 70
     1
102
RTVSPropertyOp17
 70
     1
102
RTVSPropertyOp18
 70
     1
102
RTVSPropertyOp19
 70
     1
102
RTVSPropertyOp20
 70
     1
102
RTVSPropertyOp21
 70
     1
102
RTVSPropertyOp22
 70
     1
102
RTVSPropertyOp23
 70
     1
102
RTVSPropertyOp24
 70
     1
102
RTVSPropertyOp25
 70
     1
102
RTVSPropertyOp26
 70
     1
102
RTVSPropertyOp27
 70
     1
102
RTVSPropertyOp28
 70
     1
102
RTVSPropertyOp29
 70
     1
102
RTVSPropertyOp30
 70
     1
102
RTVSPropertyOp31
 70
     1
102
RTVSPropertyOp32
 70
     1
  0
XRECORD
  5
4F8
102
{ACAD_REACTORS
330
4F7
102
}
330
4F7
100
AcDbXrecord
280
     1
102
RTVSPropertyOp0
 70
     1
102
RTVSPropertyOp1
 70
     1
102
RTVSPropertyOp2
 70
     1
102
RTVSPropertyOp3
 70
     1
102
RTVSPropertyOp4
 70
     1
102
RTVSPropertyOp5
 70
     1
102
RTVSPropertyOp6
 70
     1
102
RTVSPropertyOp7
 70
     1
102
RTVSPropertyOp8
 70
     1
102
RTVSPropertyOp9
 70
     1
102
RTVSPropertyOp10
 70
     1
102
RTVSPropertyOp11
 70
     1
102
RTVSPropertyOp12
 70
     1
102
RTVSPropertyOp13
 70
     1
102
RTVSPropertyOp14
 70
     1
102
RTVSPropertyOp15
 70
     1
102
RTVSPropertyOp16
 70
     1
102
RTVSPropertyOp17
 70
     1
102
RTVSPropertyOp18
 70
     1
102
RTVSPropertyOp19
 70
     1
102
RTVSPropertyOp20
 70
     1
102
RTVSPropertyOp21
 70
     1
102
RTVSPropertyOp22
 70
     1
102
RTVSPropertyOp23
 70
     1
102
RTVSPropertyOp24
 70
     1
102
RTVSPropertyOp25
 70
     1
102
RTVSPropertyOp26
 70
     1
102
RTVSPropertyOp27
 70
     1
102
RTVSPropertyOp28
 70
     1
102
RTVSPropertyOp29
 70
     1
102
RTVSPropertyOp30
 70
     1
102
RTVSPropertyOp31
 70
     1
102
RTVSPropertyOp32
 70
     1
  0
XRECORD
  5
500
102
{ACAD_REACTORS
330
4FF
102
}
330
4FF
100
AcDbXrecord
280
     1
102
RTVSPropertyOp0
 70
     1
102
RTVSPropertyOp1
 70
     1
102
RTVSPropertyOp2
 70
     1
102
RTVSPropertyOp3
 70
     1
102
RTVSPropertyOp4
 70
     1
102
RTVSPropertyOp5
 70
     1
102
RTVSPropertyOp6
 70
     1
102
RTVSPropertyOp7
 70
     1
102
RTVSPropertyOp8
 70
     1
102
RTVSPropertyOp9
 70
     1
102
RTVSPropertyOp10
 70
     1
102
RTVSPropertyOp11
 70
     1
102
RTVSPropertyOp12
 70
     1
102
RTVSPropertyOp13
 70
     1
102
RTVSPropertyOp14
 70
     1
102
RTVSPropertyOp15
 70
     1
102
RTVSPropertyOp16
 70
     1
102
RTVSPropertyOp17
 70
     1
102
RTVSPropertyOp18
 70
     1
102
RTVSPropertyOp19
 70
     1
102
RTVSPropertyOp20
 70
     1
102
RTVSPropertyOp21
 70
     1
102
RTVSPropertyOp22
 70
     1
102
RTVSPropertyOp23
 70
     1
102
RTVSPropertyOp24
 70
     1
102
RTVSPropertyOp25
 70
     1
102
RTVSPropertyOp26
 70
     1
102
RTVSPropertyOp27
 70
     1
102
RTVSPropertyOp28
 70
     1
102
RTVSPropertyOp29
 70
     1
102
RTVSPropertyOp30
 70
     1
102
RTVSPropertyOp31
 70
     1
102
RTVSPropertyOp32
 70
     1
  0
XRECORD
  5
4F4
102
{ACAD_REACTORS
330
4F3
102
}
330
4F3
100
AcDbXrecord
280
     1
102
RTVSPropertyOp0
 70
     1
102
RTVSPropertyOp1
 70
     1
102
RTVSPropertyOp2
 70
     1
102
RTVSPropertyOp3
 70
     1
102
RTVSPropertyOp4
 70
     1
102
RTVSPropertyOp5
 70
     1
102
RTVSPropertyOp6
 70
     1
102
RTVSPropertyOp7
 70
     1
102
RTVSPropertyOp8
 70
     1
102
RTVSPropertyOp9
 70
     1
102
RTVSPropertyOp10
 70
     1
102
RTVSPropertyOp11
 70
     1
102
RTVSPropertyOp12
 70
     1
102
RTVSPropertyOp13
 70
     1
102
RTVSPropertyOp14
 70
     1
102
RTVSPropertyOp15
 70
     1
102
RTVSPropertyOp16
 70
     1
102
RTVSPropertyOp17
 70
     1
102
RTVSPropertyOp18
 70
     1
102
RTVSPropertyOp19
 70
     1
102
RTVSPropertyOp20
 70
     1
102
RTVSPropertyOp21
 70
     1
102
RTVSPropertyOp22
 70
     1
102
RTVSPropertyOp23
 70
     1
102
RTVSPropertyOp24
 70
     1
102
RTVSPropertyOp25
 70
     1
102
RTVSPropertyOp26
 70
     1
102
RTVSPropertyOp27
 70
     1
102
RTVSPropertyOp28
 70
     1
102
RTVSPropertyOp29
 70
     1
102
RTVSPropertyOp30
 70
     1
102
RTVSPropertyOp31
 70
     1
102
RTVSPropertyOp32
 70
     1
  0
XRECORD
  5
4F6
102
{ACAD_REACTORS
330
4F5
102
}
330
4F5
100
AcDbXrecord
280
     1
102
RTVSPropertyOp0
 70
     1
102
RTVSPropertyOp1
 70
     1
102
RTVSPropertyOp2
 70
     1
102
RTVSPropertyOp3
 70
     1
102
RTVSPropertyOp4
 70
     1
102
RTVSPropertyOp5
 70
     1
102
RTVSPropertyOp6
 70
     1
102
RTVSPropertyOp7
 70
     1
102
RTVSPropertyOp8
 70
     1
102
RTVSPropertyOp9
 70
     1
102
RTVSPropertyOp10
 70
     1
102
RTVSPropertyOp11
 70
     1
102
RTVSPropertyOp12
 70
     1
102
RTVSPropertyOp13
 70
     1
102
RTVSPropertyOp14
 70
     1
102
RTVSPropertyOp15
 70
     1
102
RTVSPropertyOp16
 70
     1
102
RTVSPropertyOp17
 70
     1
102
RTVSPropertyOp18
 70
     1
102
RTVSPropertyOp19
 70
     1
102
RTVSPropertyOp20
 70
     1
102
RTVSPropertyOp21
 70
     1
102
RTVSPropertyOp22
 70
     1
102
RTVSPropertyOp23
 70
     1
102
RTVSPropertyOp24
 70
     1
102
RTVSPropertyOp25
 70
     1
102
RTVSPropertyOp26
 70
     1
102
RTVSPropertyOp27
 70
     1
102
RTVSPropertyOp28
 70
     1
102
RTVSPropertyOp29
 70
     1
102
RTVSPropertyOp30
 70
     1
102
RTVSPropertyOp31
 70
     1
102
RTVSPropertyOp32
 70
     1
  0
XRECORD
  5
4FE
102
{ACAD_REACTORS
330
4FD
102
}
330
4FD
100
AcDbXrecord
280
     1
102
RTVSPropertyOp0
 70
     1
102
RTVSPropertyOp1
 70
     1
102
RTVSPropertyOp2
 70
     1
102
RTVSPropertyOp3
 70
     1
102
RTVSPropertyOp4
 70
     1
102
RTVSPropertyOp5
 70
     1
102
RTVSPropertyOp6
 70
     1
102
RTVSPropertyOp7
 70
     1
102
RTVSPropertyOp8
 70
     1
102
RTVSPropertyOp9
 70
     1
102
RTVSPropertyOp10
 70
     1
102
RTVSPropertyOp11
 70
     1
102
RTVSPropertyOp12
 70
     1
102
RTVSPropertyOp13
 70
     1
102
RTVSPropertyOp14
 70
     1
102
RTVSPropertyOp15
 70
     1
102
RTVSPropertyOp16
 70
     1
102
RTVSPropertyOp17
 70
     1
102
RTVSPropertyOp18
 70
     1
102
RTVSPropertyOp19
 70
     1
102
RTVSPropertyOp20
 70
     1
102
RTVSPropertyOp21
 70
     1
102
RTVSPropertyOp22
 70
     1
102
RTVSPropertyOp23
 70
     1
102
RTVSPropertyOp24
 70
     1
102
RTVSPropertyOp25
 70
     1
102
RTVSPropertyOp26
 70
     1
102
RTVSPropertyOp27
 70
     1
102
RTVSPropertyOp28
 70
     1
102
RTVSPropertyOp29
 70
     1
102
RTVSPropertyOp30
 70
     1
102
RTVSPropertyOp31
 70
     1
102
RTVSPropertyOp32
 70
     1
  0
XRECORD
  5
4E2
102
{ACAD_REACTORS
330
4E1
102
}
330
4E1
100
AcDbXrecord
280
     1
102
RTVSPropertyOp0
 70
     1
102
RTVSPropertyOp1
 70
     1
102
RTVSPropertyOp2
 70
     1
102
RTVSPropertyOp3
 70
     1
102
RTVSPropertyOp4
 70
     1
102
RTVSPropertyOp5
 70
     1
102
RTVSPropertyOp6
 70
     1
102
RTVSPropertyOp7
 70
     1
102
RTVSPropertyOp8
 70
     1
102
RTVSPropertyOp9
 70
     1
102
RTVSPropertyOp10
 70
     1
102
RTVSPropertyOp11
 70
     1
102
RTVSPropertyOp12
 70
     1
102
RTVSPropertyOp13
 70
     1
102
RTVSPropertyOp14
 70
     1
102
RTVSPropertyOp15
 70
     1
102
RTVSPropertyOp16
 70
     1
102
RTVSPropertyOp17
 70
     1
102
RTVSPropertyOp18
 70
     1
102
RTVSPropertyOp19
 70
     1
102
RTVSPropertyOp20
 70
     1
102
RTVSPropertyOp21
 70
     1
102
RTVSPropertyOp22
 70
     1
102
RTVSPropertyOp23
 70
     1
102
RTVSPropertyOp24
 70
     1
102
RTVSPropertyOp25
 70
     1
102
RTVSPropertyOp26
 70
     1
102
RTVSPropertyOp27
 70
     1
102
RTVSPropertyOp28
 70
     1
102
RTVSPropertyOp29
 70
     1
102
RTVSPropertyOp30
 70
     1
102
RTVSPropertyOp31
 70
     1
102
RTVSPropertyOp32
 70
     1
  0
XRECORD
  5
4E4
102
{ACAD_REACTORS
330
4E3
102
}
330
4E3
100
AcDbXrecord
280
     1
102
RTVSPropertyOp0
 70
     1
102
RTVSPropertyOp1
 70
     1
102
RTVSPropertyOp2
 70
     1
102
RTVSPropertyOp3
 70
     1
102
RTVSPropertyOp4
 70
     1
102
RTVSPropertyOp5
 70
     1
102
RTVSPropertyOp6
 70
     1
102
RTVSPropertyOp7
 70
     1
102
RTVSPropertyOp8
 70
     1
102
RTVSPropertyOp9
 70
     1
102
RTVSPropertyOp10
 70
     1
102
RTVSPropertyOp11
 70
     1
102
RTVSPropertyOp12
 70
     1
102
RTVSPropertyOp13
 70
     1
102
RTVSPropertyOp14
 70
     1
102
RTVSPropertyOp15
 70
     1
102
RTVSPropertyOp16
 70
     1
102
RTVSPropertyOp17
 70
     1
102
RTVSPropertyOp18
 70
     1
102
RTVSPropertyOp19
 70
     1
102
RTVSPropertyOp20
 70
     1
102
RTVSPropertyOp21
 70
     1
102
RTVSPropertyOp22
 70
     1
102
RTVSPropertyOp23
 70
     1
102
RTVSPropertyOp24
 70
     1
102
RTVSPropertyOp25
 70
     1
102
RTVSPropertyOp26
 70
     1
102
RTVSPropertyOp27
 70
     1
102
RTVSPropertyOp28
 70
     1
102
RTVSPropertyOp29
 70
     1
102
RTVSPropertyOp30
 70
     1
102
RTVSPropertyOp31
 70
     1
102
RTVSPropertyOp32
 70
     1
  0
XRECORD
  5
4E6
102
{ACAD_REACTORS
330
4E5
102
}
330
4E5
100
AcDbXrecord
280
     1
102
RTVSPropertyOp0
 70
     1
102
RTVSPropertyOp1
 70
     1
102
RTVSPropertyOp2
 70
     1
102
RTVSPropertyOp3
 70
     1
102
RTVSPropertyOp4
 70
     1
102
RTVSPropertyOp5
 70
     1
102
RTVSPropertyOp6
 70
     1
102
RTVSPropertyOp7
 70
     1
102
RTVSPropertyOp8
 70
     1
102
RTVSPropertyOp9
 70
     1
102
RTVSPropertyOp10
 70
     1
102
RTVSPropertyOp11
 70
     1
102
RTVSPropertyOp12
 70
     1
102
RTVSPropertyOp13
 70
     1
102
RTVSPropertyOp14
 70
     1
102
RTVSPropertyOp15
 70
     1
102
RTVSPropertyOp16
 70
     1
102
RTVSPropertyOp17
 70
     1
102
RTVSPropertyOp18
 70
     1
102
RTVSPropertyOp19
 70
     1
102
RTVSPropertyOp20
 70
     1
102
RTVSPropertyOp21
 70
     1
102
RTVSPropertyOp22
 70
     1
102
RTVSPropertyOp23
 70
     1
102
RTVSPropertyOp24
 70
     1
102
RTVSPropertyOp25
 70
     1
102
RTVSPropertyOp26
 70
     1
102
RTVSPropertyOp27
 70
     1
102
RTVSPropertyOp28
 70
     1
102
RTVSPropertyOp29
 70
     1
102
RTVSPropertyOp30
 70
     1
102
RTVSPropertyOp31
 70
     1
102
RTVSPropertyOp32
 70
     1
  0
XRECORD
  5
4E8
102
{ACAD_REACTORS
330
4E7
102
}
330
4E7
100
AcDbXrecord
280
     1
102
RTVSPropertyOp0
 70
     1
102
RTVSPropertyOp1
 70
     1
102
RTVSPropertyOp2
 70
     1
102
RTVSPropertyOp3
 70
     1
102
RTVSPropertyOp4
 70
     1
102
RTVSPropertyOp5
 70
     1
102
RTVSPropertyOp6
 70
     1
102
RTVSPropertyOp7
 70
     1
102
RTVSPropertyOp8
 70
     1
102
RTVSPropertyOp9
 70
     1
102
RTVSPropertyOp10
 70
     1
102
RTVSPropertyOp11
 70
     1
102
RTVSPropertyOp12
 70
     1
102
RTVSPropertyOp13
 70
     1
102
RTVSPropertyOp14
 70
     1
102
RTVSPropertyOp15
 70
     1
102
RTVSPropertyOp16
 70
     1
102
RTVSPropertyOp17
 70
     1
102
RTVSPropertyOp18
 70
     1
102
RTVSPropertyOp19
 70
     1
102
RTVSPropertyOp20
 70
     1
102
RTVSPropertyOp21
 70
     1
102
RTVSPropertyOp22
 70
     1
102
RTVSPropertyOp23
 70
     1
102
RTVSPropertyOp24
 70
     1
102
RTVSPropertyOp25
 70
     1
102
RTVSPropertyOp26
 70
     1
102
RTVSPropertyOp27
 70
     1
102
RTVSPropertyOp28
 70
     1
102
RTVSPropertyOp29
 70
     1
102
RTVSPropertyOp30
 70
     1
102
RTVSPropertyOp31
 70
     1
102
RTVSPropertyOp32
 70
     1
  0
XRECORD
  5
4FC
102
{ACAD_REACTORS
330
4FB
102
}
330
4FB
100
AcDbXrecord
280
     1
102
RTVSPropertyOp0
 70
     1
102
RTVSPropertyOp1
 70
     1
102
RTVSPropertyOp2
 70
     1
102
RTVSPropertyOp3
 70
     1
102
RTVSPropertyOp4
 70
     1
102
RTVSPropertyOp5
 70
     1
102
RTVSPropertyOp6
 70
     1
102
RTVSPropertyOp7
 70
     1
102
RTVSPropertyOp8
 70
     1
102
RTVSPropertyOp9
 70
     1
102
RTVSPropertyOp10
 70
     1
102
RTVSPropertyOp11
 70
     1
102
RTVSPropertyOp12
 70
     1
102
RTVSPropertyOp13
 70
     1
102
RTVSPropertyOp14
 70
     1
102
RTVSPropertyOp15
 70
     1
102
RTVSPropertyOp16
 70
     1
102
RTVSPropertyOp17
 70
     1
102
RTVSPropertyOp18
 70
     1
102
RTVSPropertyOp19
 70
     1
102
RTVSPropertyOp20
 70
     1
102
RTVSPropertyOp21
 70
     1
102
RTVSPropertyOp22
 70
     1
102
RTVSPropertyOp23
 70
     1
102
RTVSPropertyOp24
 70
     1
102
RTVSPropertyOp25
 70
     1
102
RTVSPropertyOp26
 70
     1
102
RTVSPropertyOp27
 70
     1
102
RTVSPropertyOp28
 70
     1
102
RTVSPropertyOp29
 70
     1
102
RTVSPropertyOp30
 70
     1
102
RTVSPropertyOp31
 70
     1
102
RTVSPropertyOp32
 70
     1
  0
XRECORD
  5
4F2
102
{ACAD_REACTORS
330
4F1
102
}
330
4F1
100
AcDbXrecord
280
     1
102
RTVSPropertyOp0
 70
     1
102
RTVSPropertyOp1
 70
     1
102
RTVSPropertyOp2
 70
     1
102
RTVSPropertyOp3
 70
     1
102
RTVSPropertyOp4
 70
     1
102
RTVSPropertyOp5
 70
     1
102
RTVSPropertyOp6
 70
     1
102
RTVSPropertyOp7
 70
     1
102
RTVSPropertyOp8
 70
     1
102
RTVSPropertyOp9
 70
     1
102
RTVSPropertyOp10
 70
     1
102
RTVSPropertyOp11
 70
     1
102
RTVSPropertyOp12
 70
     1
102
RTVSPropertyOp13
 70
     1
102
RTVSPropertyOp14
 70
     1
102
RTVSPropertyOp15
 70
     1
102
RTVSPropertyOp16
 70
     1
102
RTVSPropertyOp17
 70
     1
102
RTVSPropertyOp18
 70
     1
102
RTVSPropertyOp19
 70
     1
102
RTVSPropertyOp20
 70
     1
102
RTVSPropertyOp21
 70
     1
102
RTVSPropertyOp22
 70
     1
102
RTVSPropertyOp23
 70
     1
102
RTVSPropertyOp24
 70
     1
102
RTVSPropertyOp25
 70
     1
102
RTVSPropertyOp26
 70
     1
102
RTVSPropertyOp27
 70
     1
102
RTVSPropertyOp28
 70
     1
102
RTVSPropertyOp29
 70
     1
102
RTVSPropertyOp30
 70
     1
102
RTVSPropertyOp31
 70
     1
102
RTVSPropertyOp32
 70
     1
  0
XRECORD
  5
4FA
102
{ACAD_REACTORS
330
4F9
102
}
330
4F9
100
AcDbXrecord
280
     1
102
RTVSPropertyOp0
 70
     1
102
RTVSPropertyOp1
 70
     1
102
RTVSPropertyOp2
 70
     1
102
RTVSPropertyOp3
 70
     1
102
RTVSPropertyOp4
 70
     1
102
RTVSPropertyOp5
 70
     1
102
RTVSPropertyOp6
 70
     1
102
RTVSPropertyOp7
 70
     1
102
RTVSPropertyOp8
 70
     1
102
RTVSPropertyOp9
 70
     1
102
RTVSPropertyOp10
 70
     1
102
RTVSPropertyOp11
 70
     1
102
RTVSPropertyOp12
 70
     1
102
RTVSPropertyOp13
 70
     1
102
RTVSPropertyOp14
 70
     1
102
RTVSPropertyOp15
 70
     1
102
RTVSPropertyOp16
 70
     1
102
RTVSPropertyOp17
 70
     1
102
RTVSPropertyOp18
 70
     1
102
RTVSPropertyOp19
 70
     1
102
RTVSPropertyOp20
 70
     1
102
RTVSPropertyOp21
 70
     1
102
RTVSPropertyOp22
 70
     1
102
RTVSPropertyOp23
 70
     1
102
RTVSPropertyOp24
 70
     1
102
RTVSPropertyOp25
 70
     1
102
RTVSPropertyOp26
 70
     1
102
RTVSPropertyOp27
 70
     1
102
RTVSPropertyOp28
 70
     1
102
RTVSPropertyOp29
 70
     1
102
RTVSPropertyOp30
 70
     1
102
RTVSPropertyOp31
 70
     1
102
RTVSPropertyOp32
 70
     1
  0
ENDSEC
  0
EOF
