  0
SECTION
  2
HEADER
  9
$ACADVER
  1
AC1015
  9
$ACADMAINTVER
 70
     6
  9
$DWGCODEPAGE
  3
ANSI_932
  9
$INSBASE
 10
0.0
 20
0.0
 30
0.0
  9
$EXTMIN
 10
0.0
 20
0.0
 30
0.0
  9
$EXTMAX
 10
735.0
 20
1039.5
 30
0.0
  9
$LIMMIN
 10
0.0
 20
0.0
  9
$LIMMAX
 10
12.0
 20
9.0
  9
$ORTHOMODE
 70
     0
  9
$REGENMODE
 70
     1
  9
$FILLMODE
 70
     1
  9
$QTEXTMODE
 70
     0
  9
$MIRRTEXT
 70
     1
  9
$LTSCALE
 40
1.0
  9
$ATTMODE
 70
     1
  9
$TEXTSIZE
 40
0.2
  9
$TRACEWID
 40
0.05
  9
$TEXTSTYLE
  7
Standard
  9
$CLAYER
  8
0
  9
$CELTYPE
  6
ByLayer
  9
$CECOLOR
 62
   256
  9
$CELTSCALE
 40
1.0
  9
$DISPSILH
 70
     0
  9
$DIMSCALE
 40
1.0
  9
$DIMASZ
 40
0.18
  9
$DIMEXO
 40
0.0625
  9
$DIMDLI
 40
0.38
  9
$DIMRND
 40
0.0
  9
$DIMDLE
 40
0.0
  9
$DIMEXE
 40
0.18
  9
$DIMTP
 40
0.0
  9
$DIMTM
 40
0.0
  9
$DIMTXT
 40
0.18
  9
$DIMCEN
 40
0.09
  9
$DIMTSZ
 40
0.0
  9
$DIMTOL
 70
     0
  9
$DIMLIM
 70
     0
  9
$DIMTIH
 70
     1
  9
$DIMTOH
 70
     1
  9
$DIMSE1
 70
     0
  9
$DIMSE2
 70
     0
  9
$DIMTAD
 70
     0
  9
$DIMZIN
 70
     0
  9
$DIMBLK
  1

  9
$DIMASO
 70
     1
  9
$DIMSHO
 70
     1
  9
$DIMPOST
  1

  9
$DIMAPOST
  1

  9
$DIMALT
 70
     0
  9
$DIMALTD
 70
     2
  9
$DIMALTF
 40
25.4
  9
$DIMLFAC
 40
1.0
  9
$DIMTOFL
 70
     0
  9
$DIMTVP
 40
0.0
  9
$DIMTIX
 70
     0
  9
$DIMSOXD
 70
     0
  9
$DIMSAH
 70
     0
  9
$DIMBLK1
  1

  9
$DIMBLK2
  1

  9
$DIMSTYLE
  2
Standard
  9
$DIMCLRD
 70
     0
  9
$DIMCLRE
 70
     0
  9
$DIMCLRT
 70
     0
  9
$DIMTFAC
 40
1.0
  9
$DIMGAP
 40
0.09
  9
$DIMJUST
 70
     0
  9
$DIMSD1
 70
     0
  9
$DIMSD2
 70
     0
  9
$DIMTOLJ
 70
     1
  9
$DIMTZIN
 70
     0
  9
$DIMALTZ
 70
     0
  9
$DIMALTTZ
 70
     0
  9
$DIMUPT
 70
     0
  9
$DIMDEC
 70
     4
  9
$DIMTDEC
 70
     4
  9
$DIMALTU
 70
     2
  9
$DIMALTTD
 70
     2
  9
$DIMTXSTY
  7
Standard
  9
$DIMAUNIT
 70
     0
  9
$DIMADEC
 70
     0
  9
$DIMALTRND
 40
0.0
  9
$DIMAZIN
 70
     0
  9
$DIMDSEP
 70
    46
  9
$DIMATFIT
 70
     3
  9
$DIMFRAC
 70
     0
  9
$DIMLDRBLK
  1

  9
$DIMLUNIT
 70
     2
  9
$DIMLWD
 70
    -2
  9
$DIMLWE
 70
    -2
  9
$DIMTMOVE
 70
     0
  9
$LUNITS
 70
     2
  9
$LUPREC
 70
     4
  9
$SKETCHINC
 40
0.1
  9
$FILLETRAD
 40
0.5
  9
$AUNITS
 70
     0
  9
$AUPREC
 70
     0
  9
$MENU
  1
.
  9
$ELEVATION
 40
0.0
  9
$PELEVATION
 40
0.0
  9
$THICKNESS
 40
0.0
  9
$LIMCHECK
 70
     0
  9
$CHAMFERA
 40
0.5
  9
$CHAMFERB
 40
0.5
  9
$CHAMFERC
 40
1.0
  9
$CHAMFERD
 40
0.0
  9
$SKPOLY
 70
     0
  9
$TDCREATE
 40
2457213.566134803
  9
$TDUCREATE
 40
2457213.191134803
  9
$TDUPDATE
 40
2457213.56613588
  9
$TDUUPDATE
 40
2457213.19113588
  9
$TDINDWG
 40
0.0000000116
  9
$TDUSRTIMER
 40
0.0000000116
  9
$USRTIMER
 70
     1
  9
$ANGBASE
 50
0.0
  9
$ANGDIR
 70
     0
  9
$PDMODE
 70
     0
  9
$PDSIZE
 40
0.0
  9
$PLINEWID
 40
0.0
  9
$SPLFRAME
 70
     0
  9
$SPLINETYPE
 70
     6
  9
$SPLINESEGS
 70
     8
  9
$HANDSEED
  5
4E1
  9
$SURFTAB1
 70
     6
  9
$SURFTAB2
 70
     6
  9
$SURFTYPE
 70
     6
  9
$SURFU
 70
     6
  9
$SURFV
 70
     6
  9
$UCSBASE
  2

  9
$UCSNAME
  2

  9
$UCSORG
 10
0.0
 20
0.0
 30
0.0
  9
$UCSXDIR
 10
1.0
 20
0.0
 30
0.0
  9
$UCSYDIR
 10
0.0
 20
1.0
 30
0.0
  9
$UCSORTHOREF
  2

  9
$UCSORTHOVIEW
 70
     0
  9
$UCSORGTOP
 10
0.0
 20
0.0
 30
0.0
  9
$UCSORGBOTTOM
 10
0.0
 20
0.0
 30
0.0
  9
$UCSORGLEFT
 10
0.0
 20
0.0
 30
0.0
  9
$UCSORGRIGHT
 10
0.0
 20
0.0
 30
0.0
  9
$UCSORGFRONT
 10
0.0
 20
0.0
 30
0.0
  9
$UCSORGBACK
 10
0.0
 20
0.0
 30
0.0
  9
$PUCSBASE
  2

  9
$PUCSNAME
  2

  9
$PUCSORG
 10
0.0
 20
0.0
 30
0.0
  9
$PUCSXDIR
 10
1.0
 20
0.0
 30
0.0
  9
$PUCSYDIR
 10
0.0
 20
1.0
 30
0.0
  9
$PUCSORTHOREF
  2

  9
$PUCSORTHOVIEW
 70
     0
  9
$PUCSORGTOP
 10
0.0
 20
0.0
 30
0.0
  9
$PUCSORGBOTTOM
 10
0.0
 20
0.0
 30
0.0
  9
$PUCSORGLEFT
 10
0.0
 20
0.0
 30
0.0
  9
$PUCSORGRIGHT
 10
0.0
 20
0.0
 30
0.0
  9
$PUCSORGFRONT
 10
0.0
 20
0.0
 30
0.0
  9
$PUCSORGBACK
 10
0.0
 20
0.0
 30
0.0
  9
$USERI1
 70
     0
  9
$USERI2
 70
     0
  9
$USERI3
 70
     0
  9
$USERI4
 70
     0
  9
$USERI5
 70
     0
  9
$USERR1
 40
18.1
  9
$USERR2
 40
0.0
  9
$USERR3
 40
0.0
  9
$USERR4
 40
0.0
  9
$USERR5
 40
0.0
  9
$WORLDVIEW
 70
     1
  9
$SHADEDGE
 70
     3
  9
$SHADEDIF
 70
    70
  9
$TILEMODE
 70
     1
  9
$MAXACTVP
 70
    64
  9
$PINSBASE
 10
0.0
 20
0.0
 30
0.0
  9
$PLIMCHECK
 70
     0
  9
$PEXTMIN
 10
1.00000000000000E+20
 20
1.00000000000000E+20
 30
1.00000000000000E+20
  9
$PEXTMAX
 10
-1.00000000000000E+20
 20
-1.00000000000000E+20
 30
-1.00000000000000E+20
  9
$PLIMMIN
 10
0.0
 20
0.0
  9
$PLIMMAX
 10
12.0
 20
9.0
  9
$UNITMODE
 70
     0
  9
$VISRETAIN
 70
     1
  9
$PLINEGEN
 70
     0
  9
$PSLTSCALE
 70
     1
  9
$TREEDEPTH
 70
  3020
  9
$CMLSTYLE
  2
Standard
  9
$CMLJUST
 70
     0
  9
$CMLSCALE
 40
1.0
  9
$PROXYGRAPHICS
 70
     1
  9
$MEASUREMENT
 70
     1
  9
$CELWEIGHT
370
    -1
  9
$ENDCAPS
280
     0
  9
$JOINSTYLE
280
     0
  9
$LWDISPLAY
290
     0
  9
$INSUNITS
 70
     4
  9
$HYPERLINKBASE
  1

  9
$STYLESHEET
  1

  9
$XEDIT
290
     1
  9
$CEPSNTYPE
380
     0
  9
$PSTYLEMODE
290
     1
  9
$FINGERPRINTGUID
  2
{DDADC75A-E3AA-4C22-8A88-60EEA4072040}
  9
$VERSIONGUID
  2
{FAEB1C32-E019-11D5-929B-00C0DF256EC4}
  9
$EXTNAMES
290
     1
  9
$PSVPSCALE
 40
0.0
  9
$OLESTARTUP
290
     0
  0
ENDSEC
  0
SECTION
  2
CLASSES
  0
CLASS
  1
ACDBDICTIONARYWDFLT
  2
AcDbDictionaryWithDefault
  3
ObjectDBX Classes
 90
        0
280
     0
281
     0
  0
CLASS
  1
VISUALSTYLE
  2
AcDbVisualStyle
  3
ObjectDBX Classes
 90
     4095
280
     0
281
     0
  0
CLASS
  1
MATERIAL
  2
AcDbMaterial
  3
ObjectDBX Classes
 90
     1153
280
     0
281
     0
  0
CLASS
  1
DICTIONARYVAR
  2
AcDbDictionaryVar
  3
ObjectDBX Classes
 90
        0
280
     0
281
     0
  0
CLASS
  1
ACDBPLACEHOLDER
  2
AcDbPlaceHolder
  3
ObjectDBX Classes
 90
        0
280
     0
281
     0
  0
CLASS
  1
LAYOUT
  2
AcDbLayout
  3
ObjectDBX Classes
 90
        0
280
     0
281
     0
  0
ENDSEC
  0
SECTION
  2
TABLES
  0
TABLE
  2
VPORT
  5
8
330
0
100
AcDbSymbolTable
 70
     1
  0
VPORT
  5
29
330
8
100
AcDbSymbolTableRecord
100
AcDbViewportTableRecord
  2
*Active
 70
     0
 10
0.0
 20
0.0
 11
1.0
 21
1.0
 12
367.5
 22
519.75
 13
0.0
 23
0.0
 14
0.5
 24
0.5
 15
0.5
 25
0.5
 16
0.0
 26
0.0
 36
1.0
 17
0.0
 27
0.0
 37
0.0
 40
1143.45
 41
1.60267857142857
 42
50.0
 43
0.0
 44
0.0
 50
0.0
 51
0.0
 71
     0
 72
   100
 73
     1
 74
     3
 75
     0
 76
     0
 77
     0
 78
     0
281
     0
 65
     1
110
0.0
120
0.0
130
0.0
111
1.0
121
0.0
131
0.0
112
0.0
122
1.0
132
0.0
 79
     0
146
0.0
  0
ENDTAB
  0
TABLE
  2
LTYPE
  5
5
330
0
100
AcDbSymbolTable
 70
     8
  0
LTYPE
  5
14
330
5
100
AcDbSymbolTableRecord
100
AcDbLinetypeTableRecord
  2
ByBlock
 70
     0
  3

 72
    65
 73
     0
 40
0.0
  0
LTYPE
  5
15
330
5
100
AcDbSymbolTableRecord
100
AcDbLinetypeTableRecord
  2
ByLayer
 70
     0
  3

 72
    65
 73
     0
 40
0.0
  0
LTYPE
  5
16
330
5
100
AcDbSymbolTableRecord
100
AcDbLinetypeTableRecord
  2
Continuous
 70
     0
  3
Solid line
 72
    65
 73
     0
 40
0.0
  0
LTYPE
  5
3F
330
5
100
AcDbSymbolTableRecord
100
AcDbLinetypeTableRecord
  2
DASHED
 70
     0
  3
Dashed
 72
    65
 73
     2
 40
15.0
 49
7.0
 74
     0
 49
-8.0
 74
     0
  0
LTYPE
  5
40
330
5
100
AcDbSymbolTableRecord
100
AcDbLinetypeTableRecord
  2
DOTTED
 70
     0
  3
Dotted
 72
    65
 73
     2
 40
1.0
 49
0.0
 74
     0
 49
-1.0
 74
     0
  0
LTYPE
  5
41
330
5
100
AcDbSymbolTableRecord
100
AcDbLinetypeTableRecord
  2
DOT_CENTER
 70
     0
  3
Dot_Center
 72
    65
 73
     4
 40
14.0
 49
12.0
 74
     0
 49
-1.0
 74
     0
 49
0.0
 74
     0
 49
-1.0
 74
     0
  0
LTYPE
  5
42
330
5
100
AcDbSymbolTableRecord
100
AcDbLinetypeTableRecord
  2
LONG_DASHED
 70
     0
  3
Long_Dashed
 72
    65
 73
     2
 40
15.0
 49
10.0
 74
     0
 49
-5.0
 74
     0
  0
LTYPE
  5
43
330
5
100
AcDbSymbolTableRecord
100
AcDbLinetypeTableRecord
  2
DASH_CENTER
 70
     0
  3
Dash_Center
 72
    65
 73
     4
 40
14.0
 49
11.0
 74
     0
 49
-1.0
 74
     0
 49
1.0
 74
     0
 49
-1.0
 74
     0
  0
LTYPE
  5
44
330
5
100
AcDbSymbolTableRecord
100
AcDbLinetypeTableRecord
  2
PHANTOM
 70
     0
  3
Phantom
 72
    65
 73
     6
 40
13.0
 49
10.0
 74
     0
 49
-1.0
 74
     0
 49
0.0
 74
     0
 49
-1.0
 74
     0
 49
0.0
 74
     0
 49
-1.0
 74
     0
  0
LTYPE
  5
45
330
5
100
AcDbSymbolTableRecord
100
AcDbLinetypeTableRecord
  2
CENTER_DASH_DASH
 70
     0
  3
Center_Dash_Dash
 72
    65
 73
     6
 40
14.0
 49
9.0
 74
     0
 49
-1.0
 74
     0
 49
1.0
 74
     0
 49
-1.0
 74
     0
 49
1.0
 74
     0
 49
-1.0
 74
     0
  0
ENDTAB
  0
TABLE
  2
LAYER
  5
2
330
0
100
AcDbSymbolTable
 70
     2
  0
LAYER
  5
10
330
2
100
AcDbSymbolTableRecord
100
AcDbLayerTableRecord
  2
0
 70
     0
 62
     7
  6
Continuous
370
    -3
390
F
  0
LAYER
  5
46
330
2
100
AcDbSymbolTableRecord
100
AcDbLayerTableRecord
  2
1
 70
     0
 62
     7
  6
Continuous
370
    -3
390
F
  0
ENDTAB
  0
TABLE
  2
STYLE
  5
3
330
0
100
AcDbSymbolTable
 70
     3
  0
STYLE
  5
11
330
3
100
AcDbSymbolTableRecord
100
AcDbTextStyleTableRecord
  2
Standard
 70
     0
 40
0.0
 41
1.0
 50
0.0
 71
     0
 42
0.2
  3
txt
  4

  0
STYLE
  5
447
330
3
100
AcDbSymbolTableRecord
100
AcDbTextStyleTableRecord
  2
CONVERTER_11
 70
     0
 40
0.0
 41
0.89
 50
0.0
 71
     0
 42
0.2
  3
MS Mincho.ttf
  4

1001
ACAD
1000
MS Mincho
1071
    32785
  0
STYLE
  5
466
330
3
100
AcDbSymbolTableRecord
100
AcDbTextStyleTableRecord
  2
CONVERTER_12
 70
     0
 40
0.0
 41
0.9
 50
0.0
 71
     0
 42
0.2
  3
txt.shx
  4

  0
ENDTAB
  0
TABLE
  2
VIEW
  5
6
330
0
100
AcDbSymbolTable
 70
     0
  0
ENDTAB
  0
TABLE
  2
UCS
  5
7
330
0
100
AcDbSymbolTable
 70
     0
  0
ENDTAB
  0
TABLE
  2
APPID
  5
9
330
0
100
AcDbSymbolTable
 70
     1
  0
APPID
  5
12
330
9
100
AcDbSymbolTableRecord
100
AcDbRegAppTableRecord
  2
ACAD
 70
     0
  0
ENDTAB
  0
TABLE
  2
DIMSTYLE
  5
A
330
0
100
AcDbSymbolTable
 70
     6
100
AcDbDimStyleTable
  0
DIMSTYLE
105
27
330
A
100
AcDbSymbolTableRecord
100
AcDbDimStyleTableRecord
  2
Standard
 70
     0
178
     0
340
11
  0
DIMSTYLE
105
475
102
{ACAD_REACTORS
330
476
102
}
330
A
100
AcDbSymbolTableRecord
100
AcDbDimStyleTableRecord
  2
ME10_DIM_10
 70
     0
 41
12.25
 42
0.0
 44
3.5
 73
     0
 74
     0
 77
     1
 78
     8
140
12.25
147
3.5
172
     1
173
     1
174
     1
175
     1
176
     2
177
     2
271
     2
178
     7
271
     2
340
466
  0
DIMSTYLE
105
481
102
{ACAD_REACTORS
330
482
102
}
330
A
100
AcDbSymbolTableRecord
100
AcDbDimStyleTableRecord
  2
ME10_DIM_11
 70
     0
 41
12.25000000000001
 42
0.0
 44
3.5
 73
     0
 74
     0
 77
     1
 78
     8
140
12.25
147
3.5
172
     1
173
     1
174
     1
175
     1
176
     2
177
     2
271
     2
178
     7
271
     2
340
447
  0
DIMSTYLE
105
48C
102
{ACAD_REACTORS
330
48D
102
}
330
A
100
AcDbSymbolTableRecord
100
AcDbDimStyleTableRecord
  2
ME10_DIM_12
 70
     0
  3
{\Fgdt;n}<>
 41
12.25
 42
0.0
 44
3.5
 73
     0
 74
     0
 77
     1
 78
     8
140
12.25
147
3.5
172
     1
173
     1
174
     1
175
     1
176
     2
177
     2
271
     2
178
     7
271
     2
340
466
  0
DIMSTYLE
105
499
102
{ACAD_REACTORS
330
49A
102
}
330
A
100
AcDbSymbolTableRecord
100
AcDbDimStyleTableRecord
  2
ME10_DIM_13
 70
     0
 41
12.25
 42
0.0
 44
3.5
 73
     0
 74
     0
 77
     1
 78
     8
140
12.25
147
3.5
172
     1
173
     1
174
     1
175
     1
176
     2
177
     2
271
     2
178
     7
271
     2
340
466
  0
DIMSTYLE
105
4A4
102
{ACAD_REACTORS
330
4A5
102
}
330
A
100
AcDbSymbolTableRecord
100
AcDbDimStyleTableRecord
  2
ME10_DIM_14
 70
     0
 41
12.25
 42
0.0
 44
3.5
 73
     0
 74
     0
 77
     1
 78
     8
140
12.25
147
3.5
172
     1
173
     1
174
     1
175
     1
176
     2
177
     2
271
     2
178
     7
271
     2
340
466
  0
ENDTAB
  0
TABLE
  2
BLOCK_RECORD
  5
1
330
0
100
AcDbSymbolTable
 70
    20
  0
BLOCK_RECORD
  5
1F
330
1
100
AcDbSymbolTableRecord
100
AcDbBlockTableRecord
  2
*Model_Space
340
22
  0
BLOCK_RECORD
  5
1B
330
1
100
AcDbSymbolTableRecord
100
AcDbBlockTableRecord
  2
*Paper_Space
340
1E
  0
BLOCK_RECORD
  5
23
330
1
100
AcDbSymbolTableRecord
100
AcDbBlockTableRecord
  2
*Paper_Space0
340
26
  0
BLOCK_RECORD
  5
47
330
1
100
AcDbSymbolTableRecord
100
AcDbBlockTableRecord
  2
21-1C-M1K
340
0
102
{BLKREFS
331
6E
102
}
  0
BLOCK_RECORD
  5
4A
330
1
100
AcDbSymbolTableRecord
100
AcDbBlockTableRecord
  2
30-111
340
0
102
{BLKREFS
331
6F
102
}
  0
BLOCK_RECORD
  5
4D
330
1
100
AcDbSymbolTableRecord
100
AcDbBlockTableRecord
  2
76-120-H1
340
0
102
{BLKREFS
331
57
102
}
  0
BLOCK_RECORD
  5
50
330
1
100
AcDbSymbolTableRecord
100
AcDbBlockTableRecord
  2
76-120-_長さ_-H2
340
0
102
{BLKREFS
331
58
102
}
  0
BLOCK_RECORD
  5
53
330
1
100
AcDbSymbolTableRecord
100
AcDbBlockTableRecord
  2
76-120-H3
340
0
102
{BLKREFS
331
59
102
}
  0
BLOCK_RECORD
  5
56
330
1
100
AcDbSymbolTableRecord
100
AcDbBlockTableRecord
  2
76-120-300
340
0
102
{BLKREFS
331
70
102
}
  0
BLOCK_RECORD
  5
5C
330
1
100
AcDbSymbolTableRecord
100
AcDbBlockTableRecord
  2
A20-0-13
340
0
102
{BLKREFS
331
71
102
}
  0
BLOCK_RECORD
  5
5F
330
1
100
AcDbSymbolTableRecord
100
AcDbBlockTableRecord
  2
37-1-13
340
0
102
{BLKREFS
331
72
102
}
  0
BLOCK_RECORD
  5
62
330
1
100
AcDbSymbolTableRecord
100
AcDbBlockTableRecord
  2
36-1A-13-M4
340
0
102
{BLKREFS
331
73
102
}
  0
BLOCK_RECORD
  5
65
330
1
100
AcDbSymbolTableRecord
100
AcDbBlockTableRecord
  2
32-1-16
340
0
102
{BLKREFS
331
74
102
}
  0
BLOCK_RECORD
  5
68
330
1
100
AcDbSymbolTableRecord
100
AcDbBlockTableRecord
  2
42-1
340
0
102
{BLKREFS
331
75
102
}
  0
BLOCK_RECORD
  5
6B
330
1
100
AcDbSymbolTableRecord
100
AcDbBlockTableRecord
  2
開示A4
340
0
102
{BLKREFS
331
76
102
}
  0
BLOCK_RECORD
  5
46C
330
1
100
AcDbSymbolTableRecord
100
AcDbBlockTableRecord
  2
*D13
340
0
  0
BLOCK_RECORD
  5
477
330
1
100
AcDbSymbolTableRecord
100
AcDbBlockTableRecord
  2
*D14
340
0
  0
BLOCK_RECORD
  5
483
330
1
100
AcDbSymbolTableRecord
100
AcDbBlockTableRecord
  2
*D15
340
0
  0
BLOCK_RECORD
  5
48E
330
1
100
AcDbSymbolTableRecord
100
AcDbBlockTableRecord
  2
*D16
340
0
  0
BLOCK_RECORD
  5
49B
330
1
100
AcDbSymbolTableRecord
100
AcDbBlockTableRecord
  2
*D17
340
0
  0
BLOCK_RECORD
  5
4A6
330
1
100
AcDbSymbolTableRecord
100
AcDbBlockTableRecord
  2
*D18
340
0
102
{BLKREFS
331
4AD
102
}
  0
BLOCK_RECORD
  5
4AE
330
1
100
AcDbSymbolTableRecord
100
AcDbBlockTableRecord
  2
*D19
340
0
102
{BLKREFS
331
4B5
102
}
  0
ENDTAB
  0
ENDSEC
  0
SECTION
  2
BLOCKS
  0
BLOCK
  5
20
330
1F
100
AcDbEntity
  8
0
100
AcDbBlockBegin
  2
*Model_Space
 70
     0
 10
0.0
 20
0.0
 30
0.0
  3
*Model_Space
  1

  0
ENDBLK
  5
21
330
1F
100
AcDbEntity
  8
0
100
AcDbBlockEnd
  0
BLOCK
  5
1C
330
1B
100
AcDbEntity
 67
     1
  8
0
100
AcDbBlockBegin
  2
*Paper_Space
 70
     0
 10
0.0
 20
0.0
 30
0.0
  3
*Paper_Space
  1

  0
ENDBLK
  5
1D
330
1B
100
AcDbEntity
 67
     1
  8
0
100
AcDbBlockEnd
  0
BLOCK
  5
24
330
23
100
AcDbEntity
  8
0
100
AcDbBlockBegin
  2
*Paper_Space0
 70
     0
 10
0.0
 20
0.0
 30
0.0
  3
*Paper_Space0
  1

  0
ENDBLK
  5
25
330
23
100
AcDbEntity
  8
0
100
AcDbBlockEnd
  0
BLOCK
  5
48
330
47
100
AcDbEntity
  8
0
100
AcDbBlockBegin
  2
21-1C-M1K
 70
     0
 10
1567.478123933683
 20
969.0876952220939
 30
0.0
  3
21-1C-M1K
  1

  0
LINE
  5
77
330
47
100
AcDbEntity
  8
1
  6
Continuous
 62
     7
100
AcDbLine
 10
213.0270886479057
 20
785.0187283215816
 30
0.0
 11
213.0270886479057
 21
730.7174581323598
 31
0.0
  0
LINE
  5
78
330
47
100
AcDbEntity
  8
1
  6
Continuous
 62
     7
100
AcDbLine
 10
213.5966751983858
 20
730.222324097989
 30
0.0
 11
217.3121684032562
 21
730.6742321969814
 31
0.0
  0
LINE
  5
79
330
47
100
AcDbEntity
  8
1
  6
Continuous
 62
     7
100
AcDbLine
 10
217.3121684032562
 20
785.06195425696
 30
0.0
 11
213.5966751983858
 21
785.5138623559526
 31
0.0
  0
LINE
  5
7A
330
47
100
AcDbEntity
  8
1
  6
Continuous
 62
     7
100
AcDbLine
 10
578.7405798222902
 20
303.4210074975856
 30
0.0
 11
582.3919890337605
 21
289.7937628011528
 31
0.0
  0
LINE
  5
7B
330
47
100
AcDbEntity
  8
1
  6
Continuous
 62
     7
100
AcDbLine
 10
598.8383006462863
 20
268.6107339140899
 30
0.0
 11
588.8624651613237
 21
278.5865693990521
 31
0.0
  0
LINE
  5
7C
330
47
100
AcDbEntity
  8
1
  6
Continuous
 62
     7
100
AcDbLine
 10
593.0427456885517
 20
258.5725382692361
 30
0.0
 11
579.4155009921191
 21
262.2239474807066
 31
0.0
  0
LINE
  5
7D
330
47
100
AcDbEntity
  8
1
  6
Continuous
 62
     7
100
AcDbLine
 10
552.0867991379395
 20
258.3687615947391
 30
0.0
 11
566.4745487369929
 21
262.2239474807066
 31
0.0
  0
LINE
  5
7E
330
47
100
AcDbEntity
  8
1
  6
Continuous
 62
     7
100
AcDbLine
 10
547.0517490828255
 20
268.6107339140899
 30
0.0
 11
557.0275845677878
 21
278.5865693990521
 31
0.0
  0
LINE
  5
7F
330
47
100
AcDbEntity
  8
1
  6
Continuous
 62
     7
100
AcDbLine
 10
567.1494699068215
 20
303.4210074975856
 30
0.0
 11
563.498060695351
 21
289.7937628011528
 31
0.0
  0
LINE
  5
80
330
47
100
AcDbEntity
  8
1
  6
Continuous
 62
     7
100
AcDbLine
 10
216.8121684032562
 20
307.3361349587385
 30
0.0
 11
213.5966751983858
 21
307.7880430577309
 31
0.0
  0
LINE
  5
81
330
47
100
AcDbEntity
  8
1
  6
PHANTOM
 62
     4
100
AcDbLine
 10
227.0270886479059
 20
276.8680932269706
 30
0.0
 11
210.0270886479059
 21
276.8680932269706
 31
0.0
  0
LINE
  5
82
330
47
100
AcDbEntity
  8
1
  6
Continuous
 62
     7
100
AcDbLine
 10
217.9861652536492
 20
259.0654073726194
 30
0.0
 11
213.5967105806185
 21
258.4481898786118
 31
0.0
  0
LINE
  5
83
330
47
100
AcDbEntity
  8
1
  6
Continuous
 62
     2
100
AcDbLine
 10
213.5966751983858
 20
307.7880430577309
 30
0.0
 11
213.6059340330967
 21
307.7880430577309
 31
0.0
  0
LINE
  5
84
330
47
100
AcDbEntity
  8
1
  6
Continuous
 62
     7
100
AcDbLine
 10
213.0270886479059
 20
307.29290902336
 30
0.0
 11
213.0270886479059
 21
306.3014099419008
 31
0.0
  0
LINE
  5
85
330
47
100
AcDbEntity
  8
1
  6
Continuous
 62
     7
100
AcDbLine
 10
213.0270886479059
 20
306.3014099419008
 30
0.0
 11
213.0270886479059
 21
258.9433189390449
 31
0.0
  0
ARC
  5
86
330
47
100
AcDbEntity
  8
1
  6
Continuous
 62
     7
100
AcDbCircle
 10
97.15693610758126
 20
756.2310028760814
 30
0.0
 40
127.4948334081411
100
AcDbArc
 50
3.88445645049951
 51
10.80949324635215
  0
ARC
  5
87
330
47
100
AcDbEntity
  8
1
  6
Continuous
 62
     7
100
AcDbCircle
 10
572.9450248645556
 20
301.8680932269705
 30
0.0
 40
6.000000000000154
100
AcDbArc
 50
14.99999999999969
 51
90.0
  0
ARC
  5
88
330
47
100
AcDbEntity
  8
1
  6
Continuous
 62
     7
100
AcDbCircle
 10
594.5956599591667
 20
264.3680932269705
 30
0.0
 40
5.999999999999959
100
AcDbArc
 50
255.0000000000009
 51
44.99999999999923
  0
ARC
  5
89
330
47
100
AcDbEntity
  8
1
  6
Continuous
 62
     7
100
AcDbCircle
 10
551.294389769945
 20
264.3680932269705
 30
0.0
 40
6.00000000000029
100
AcDbArc
 50
135.0000000000008
 51
277.5242410789388
  0
ARC
  5
8A
330
47
100
AcDbEntity
  8
1
  6
Continuous
 62
     7
100
AcDbCircle
 10
572.9450248645556
 20
301.8680932269705
 30
0.0
 40
6.0
100
AcDbArc
 50
90.0
 51
164.9999999999992
  0
ARC
  5
8B
330
47
100
AcDbEntity
  8
1
  6
Continuous
 62
     7
100
AcDbCircle
 10
97.15693610758126
 20
759.50518357786
 30
0.0
 40
127.4948334081411
100
AcDbArc
 50
349.1905067536478
 51
356.1155435495006
  0
ARC
  5
8C
330
47
100
AcDbEntity
  8
1
  6
Continuous
 62
     7
100
AcDbCircle
 10
149.1152676392067
 20
276.5038975617239
 30
0.0
 40
74.99999999999989
100
AcDbArc
 50
350.4085075173349
 51
357.2213610340373
  0
ARC
  5
8D
330
47
100
AcDbEntity
  8
1
  6
Continuous
 62
     7
100
AcDbCircle
 10
74.02708864790588
 20
276.8680932269706
 30
0.0
 40
150.0533238552215
100
AcDbArc
 50
8.63404412973968
 51
9.80290179376779
  0
ARC
  5
8E
330
47
100
AcDbEntity
  8
1
  6
Continuous
 62
     7
100
AcDbCircle
 10
74.02708864790588
 20
276.8680932269706
 30
0.0
 40
150.0533238552216
100
AcDbArc
 50
1.52752544221293
 51
8.63404412973968
  0
ARC
  5
8F
330
47
100
AcDbEntity
  8
1
  6
Continuous
 62
     7
100
AcDbCircle
 10
216.477129797496
 20
736.615840609431
 30
0.0
 40
6.000000000000121
100
AcDbArc
 50
277.9999999999982
 51
350.1970982062289
  0
ARC
  5
90
330
47
100
AcDbEntity
  8
1
  6
Continuous
 62
     7
100
AcDbCircle
 10
213.5270886479057
 20
730.7174581323598
 30
0.0
 40
0.5
100
AcDbArc
 50
180.0
 51
278.0000000000082
  0
ARC
  5
91
330
47
100
AcDbEntity
  8
1
  6
Continuous
 62
     7
100
AcDbCircle
 10
213.5270886479057
 20
785.0187283215816
 30
0.0
 40
0.500000000000171
100
AcDbArc
 50
81.9999999999954
 51
180.0
  0
ARC
  5
92
330
47
100
AcDbEntity
  8
1
  6
Continuous
 62
     7
100
AcDbCircle
 10
216.477129797496
 20
779.1203458445107
 30
0.0
 40
6.000000000000116
100
AcDbArc
 50
9.80290179376681
 51
82.00000000000156
  0
ARC
  5
93
330
47
100
AcDbEntity
  8
1
  6
Continuous
 62
     7
100
AcDbCircle
 10
606.5401346909874
 20
296.2642389287158
 30
0.0
 40
25.00000000000019
100
AcDbArc
 50
194.9999999999999
 51
225.0
  0
ARC
  5
94
330
47
100
AcDbEntity
  8
1
  6
Continuous
 62
     7
100
AcDbCircle
 10
572.9450248645556
 20
238.0758018234799
 30
0.0
 40
25.0000000000001
100
AcDbArc
 50
74.99999999999912
 51
104.9999999999994
  0
ARC
  5
95
330
47
100
AcDbEntity
  8
1
  6
Continuous
 62
     7
100
AcDbCircle
 10
539.3499150381243
 20
296.2642389287158
 30
0.0
 40
24.99999999999988
100
AcDbArc
 50
314.9999999999997
 51
345.0
  0
ARC
  5
96
330
47
100
AcDbEntity
  8
1
  6
Continuous
 62
     7
100
AcDbCircle
 10
215.9771297974962
 20
301.3945265462891
 30
0.0
 40
5.99999999999993
100
AcDbArc
 50
9.80290179376766
 51
82.0000000000035
  0
ARC
  5
97
330
47
100
AcDbEntity
  8
1
  6
Continuous
 62
     7
100
AcDbCircle
 10
217.150702061098
 20
265.0069560978165
 30
0.0
 40
5.999999999999923
100
AcDbArc
 50
278.0040943716992
 51
350.4085075173354
  0
ARC
  5
98
330
47
100
AcDbEntity
  8
1
  6
Continuous
 62
     7
100
AcDbCircle
 10
213.5270886479059
 20
307.29290902336
 30
0.0
 40
0.500000000000087
100
AcDbArc
 50
82.00000000001707
 51
180.0
  0
ARC
  5
99
330
47
100
AcDbEntity
  8
1
  6
Continuous
 62
     7
100
AcDbCircle
 10
213.5270886479059
 20
258.9433189390449
 30
0.0
 40
0.5
100
AcDbArc
 50
180.0
 51
278.0040943716966
  0
ENDBLK
  5
49
330
47
100
AcDbEntity
  8
0
100
AcDbBlockEnd
  0
BLOCK
  5
4B
330
4A
100
AcDbEntity
  8
0
100
AcDbBlockBegin
  2
30-111
 70
     0
 10
2771.97460432544
 20
1185.256446672795
 30
0.0
  3
30-111
  1

  0
LINE
  5
9A
330
4A
100
AcDbEntity
  8
1
  6
Continuous
 62
     7
100
AcDbLine
 10
158.7770886479057
 20
248.1680932269711
 30
0.0
 11
182.2770886479057
 21
248.1680932269711
 31
0.0
  0
LINE
  5
9B
330
4A
100
AcDbEntity
  8
1
  6
Continuous
 62
     7
100
AcDbLine
 10
158.7770886479057
 20
248.1680932269711
 30
0.0
 11
158.9770886479055
 21
248.368093226971
 31
0.0
  0
LINE
  5
9C
330
4A
100
AcDbEntity
  8
1
  6
PHANTOM
 62
     4
100
AcDbLine
 10
170.5270886479057
 20
251.368093226971
 30
0.0
 11
170.5270886479057
 21
229.8680932269709
 31
0.0
  0
LINE
  5
9D
330
4A
100
AcDbEntity
  8
1
  6
Continuous
 62
     7
100
AcDbLine
 10
158.9770886479055
 20
248.368093226971
 30
0.0
 11
182.0770886479054
 21
248.368093226971
 31
0.0
  0
LINE
  5
9E
330
4A
100
AcDbEntity
  8
1
  6
Continuous
 62
     7
100
AcDbLine
 10
182.2770886479057
 20
248.1680932269711
 30
0.0
 11
182.2770886479057
 21
233.3680932269709
 31
0.0
  0
LINE
  5
9F
330
4A
100
AcDbEntity
  8
1
  6
Continuous
 62
     7
100
AcDbLine
 10
181.1770886479055
 20
231.368093226971
 30
0.0
 11
159.8770886479056
 21
231.3680932269709
 31
0.0
  0
LINE
  5
A0
330
4A
100
AcDbEntity
  8
1
  6
Continuous
 62
     7
100
AcDbLine
 10
158.7770886479057
 20
233.3680932269709
 30
0.0
 11
158.7770886479057
 21
248.1680932269711
 31
0.0
  0
LINE
  5
A1
330
4A
100
AcDbEntity
  8
1
  6
Continuous
 62
     7
100
AcDbLine
 10
158.7770886479057
 20
233.3680932269709
 30
0.0
 11
182.2770886479057
 21
233.3680932269709
 31
0.0
  0
LINE
  5
A2
330
4A
100
AcDbEntity
  8
1
  6
Continuous
 62
     7
100
AcDbLine
 10
182.2770886479057
 20
248.1680932269711
 30
0.0
 11
182.0770886479054
 21
248.368093226971
 31
0.0
  0
LINE
  5
A3
330
4A
100
AcDbEntity
  8
1
  6
Continuous
 62
     7
100
AcDbLine
 10
373.1950248645549
 20
248.1680932269711
 30
0.0
 11
372.9950248645548
 21
248.368093226971
 31
0.0
  0
LINE
  5
A4
330
4A
100
AcDbEntity
  8
1
  6
Continuous
 62
     7
100
AcDbLine
 10
349.6950248645549
 20
233.3680932269709
 30
0.0
 11
373.1950248645549
 21
233.3680932269709
 31
0.0
  0
LINE
  5
A5
330
4A
100
AcDbEntity
  8
1
  6
Continuous
 62
     7
100
AcDbLine
 10
349.6950248645549
 20
233.3680932269709
 30
0.0
 11
349.6950248645549
 21
248.1680932269711
 31
0.0
  0
LINE
  5
A6
330
4A
100
AcDbEntity
  8
1
  6
Continuous
 62
     7
100
AcDbLine
 10
372.0950248645549
 20
231.368093226971
 30
0.0
 11
350.7950248645548
 21
231.3680932269709
 31
0.0
  0
LINE
  5
A7
330
4A
100
AcDbEntity
  8
1
  6
Continuous
 62
     7
100
AcDbLine
 10
373.1950248645549
 20
248.1680932269711
 30
0.0
 11
373.1950248645549
 21
233.3680932269709
 31
0.0
  0
LINE
  5
A8
330
4A
100
AcDbEntity
  8
1
  6
Continuous
 62
     7
100
AcDbLine
 10
349.8950248645549
 20
248.368093226971
 30
0.0
 11
372.9950248645548
 21
248.368093226971
 31
0.0
  0
LINE
  5
A9
330
4A
100
AcDbEntity
  8
1
  6
PHANTOM
 62
     4
100
AcDbLine
 10
361.4450248645549
 20
251.368093226971
 30
0.0
 11
361.4450248645549
 21
229.8680932269709
 31
0.0
  0
LINE
  5
AA
330
4A
100
AcDbEntity
  8
1
  6
Continuous
 62
     7
100
AcDbLine
 10
349.6950248645549
 20
248.1680932269711
 30
0.0
 11
349.8950248645549
 21
248.368093226971
 31
0.0
  0
LINE
  5
AB
330
4A
100
AcDbEntity
  8
1
  6
Continuous
 62
     7
100
AcDbLine
 10
349.6950248645549
 20
248.1680932269711
 30
0.0
 11
373.1950248645549
 21
248.1680932269711
 31
0.0
  0
ARC
  5
AC
330
4A
100
AcDbEntity
  8
1
  6
Continuous
 62
     7
100
AcDbCircle
 10
173.3108329807451
 20
240.0591526100328
 30
0.0
 40
16.00000000000005
100
AcDbArc
 50
204.7204436720417
 51
212.9011438139057
  0
ARC
  5
AD
330
4A
100
AcDbEntity
  8
1
  6
Continuous
 62
     7
100
AcDbCircle
 10
167.743344315066
 20
240.0591526100328
 30
0.0
 40
16.00000000000012
100
AcDbArc
 50
327.0988561860946
 51
335.2795563279588
  0
ARC
  5
AE
330
4A
100
AcDbEntity
  8
1
  6
Continuous
 62
     7
100
AcDbCircle
 10
358.6612805317154
 20
240.0591526100328
 30
0.0
 40
16.00000000000009
100
AcDbArc
 50
327.0988561860946
 51
335.2795563279584
  0
ARC
  5
AF
330
4A
100
AcDbEntity
  8
1
  6
Continuous
 62
     7
100
AcDbCircle
 10
364.2287691973943
 20
240.0591526100328
 30
0.0
 40
16.00000000000005
100
AcDbArc
 50
204.7204436720417
 51
212.9011438139058
  0
ARC
  5
B0
330
4A
100
AcDbEntity
  8
1
  6
Continuous
 62
     7
100
AcDbCircle
 10
170.5270886479057
 20
546.3680932269708
 30
0.0
 40
11.5499999999999
100
AcDbArc
 50
0.0
 51
52.6947990342151
  0
ARC
  5
B1
330
4A
100
AcDbEntity
  8
1
  6
Continuous
 62
     7
100
AcDbCircle
 10
170.5270886479057
 20
546.3680932269708
 30
0.0
 40
11.54999999999992
100
AcDbArc
 50
127.3052009657841
 51
0.0
  0
ARC
  5
B2
330
4A
100
AcDbEntity
  8
1
  6
Continuous
 62
     7
100
AcDbCircle
 10
170.5270886479057
 20
546.3680932269708
 30
0.0
 40
11.74999999999985
100
AcDbArc
 50
126.5657369321828
 51
0.0
  0
ARC
  5
B3
330
4A
100
AcDbEntity
  8
1
  6
Continuous
 62
     7
100
AcDbCircle
 10
170.5270886479057
 20
546.3680932269708
 30
0.0
 40
11.75
100
AcDbArc
 50
0.0
 51
53.43426306781646
  0
ENDBLK
  5
4C
330
4A
100
AcDbEntity
  8
0
100
AcDbBlockEnd
  0
BLOCK
  5
4E
330
4D
100
AcDbEntity
  8
0
100
AcDbBlockBegin
  2
76-120-H1
 70
     0
 10
542.3457720980216
 20
385.5297528732306
 30
0.0
  3
76-120-H1
  1

  0
POINT
  5
B4
330
4D
100
AcDbEntity
  8
0
 62
     7
100
AcDbPoint
 10
508.9450248645553
 20
349.3680932269708
 30
0.0
  0
POINT
  5
B5
330
4D
100
AcDbEntity
  8
0
 62
     7
100
AcDbPoint
 10
508.9450248645553
 20
349.3680932269708
 30
0.0
  0
POINT
  5
B6
330
4D
100
AcDbEntity
  8
0
 62
     7
100
AcDbPoint
 10
178.5270886479059
 20
693.8680932269708
 30
0.0
  0
LINE
  5
B7
330
4D
100
AcDbEntity
  8
1
  6
Continuous
 62
     7
100
AcDbLine
 10
163.5270886479057
 20
338.4565998516492
 30
0.0
 11
162.7173902745412
 21
340.411384646058
 31
0.0
  0
LINE
  5
B8
330
4D
100
AcDbEntity
  8
1
  6
Continuous
 62
     7
100
AcDbLine
 10
178.3367870212701
 20
340.411384646058
 30
0.0
 11
177.5270886479057
 21
338.4565998516499
 31
0.0
  0
LINE
  5
B9
330
4D
100
AcDbEntity
  8
1
  6
Continuous
 62
     7
100
AcDbLine
 10
528.9450248645553
 20
333.3680932269705
 30
0.0
 11
528.9450248645553
 21
349.3680932269705
 31
0.0
  0
LINE
  5
BA
330
4D
100
AcDbEntity
  8
1
  6
Continuous
 62
     7
100
AcDbLine
 10
528.9450248645553
 20
333.5583948536062
 30
0.0
 11
508.9450248645553
 21
333.5583948536062
 31
0.0
  0
LINE
  5
BB
330
4D
100
AcDbEntity
  8
1
  6
Continuous
 62
     7
100
AcDbLine
 10
508.9450248645553
 20
335.1693074229601
 30
0.0
 11
528.9450248645553
 21
335.1693074229601
 31
0.0
  0
LINE
  5
BC
330
4D
100
AcDbEntity
  8
1
  6
Continuous
 62
     7
100
AcDbLine
 10
528.9450248645553
 20
336.5222976733256
 30
0.0
 11
508.9450248645553
 21
336.5222976733256
 31
0.0
  0
LINE
  5
BD
330
4D
100
AcDbEntity
  8
1
  6
Continuous
 62
     7
100
AcDbLine
 10
528.9450248645553
 20
340.4113846460588
 30
0.0
 11
508.9450248645553
 21
340.4113846460588
 31
0.0
  0
LINE
  5
BE
330
4D
100
AcDbEntity
  8
1
  6
Continuous
 62
     7
100
AcDbLine
 10
528.9450248645553
 20
342.3248018078842
 30
0.0
 11
508.9450248645553
 21
342.3248018078842
 31
0.0
  0
LINE
  5
BF
330
4D
100
AcDbEntity
  8
1
  6
Continuous
 62
     7
100
AcDbLine
 10
508.9450248645553
 20
346.2138887806161
 30
0.0
 11
528.9450248645553
 21
346.2138887806161
 31
0.0
  0
LINE
  5
C0
330
4D
100
AcDbEntity
  8
1
  6
Continuous
 62
     7
100
AcDbLine
 10
528.9450248645553
 20
347.5668790309817
 30
0.0
 11
508.9450248645553
 21
347.5668790309817
 31
0.0
  0
LINE
  5
C1
330
4D
100
AcDbEntity
  8
1
  6
Continuous
 62
     7
100
AcDbLine
 10
508.9450248645553
 20
349.1777916003351
 30
0.0
 11
528.9450248645553
 21
349.1777916003356
 31
0.0
  0
LINE
  5
C2
330
4D
100
AcDbEntity
  8
1
  6
Continuous
 62
     7
100
AcDbLine
 10
508.9450248645553
 20
333.3680932269708
 30
0.0
 11
508.9450248645553
 21
349.3680932269708
 31
0.0
  0
LINE
  5
C3
330
4D
100
AcDbEntity
  8
0
  6
Continuous
 62
     7
100
AcDbLine
 10
564.9450248645553
 20
316.3680932269709
 30
0.0
 11
564.9450248645553
 21
311.8680932269709
 31
0.0
  0
LINE
  5
C4
330
4D
100
AcDbEntity
  8
0
  6
Continuous
 62
     7
100
AcDbLine
 10
580.9450248645553
 20
316.3680932269709
 30
0.0
 11
580.9450248645553
 21
311.8680932269709
 31
0.0
  0
LINE
  5
C5
330
4D
100
AcDbEntity
  8
0
  6
Continuous
 62
     7
100
AcDbLine
 10
162.5270886479052
 20
757.8680932269705
 30
0.0
 11
162.5270886479059
 21
693.8680932269708
 31
0.0
  0
LINE
  5
C6
330
4D
100
AcDbEntity
  8
0
  6
Continuous
 62
     7
100
AcDbLine
 10
178.5270886479054
 20
757.8680932269706
 30
0.0
 11
178.5270886479059
 21
693.8680932269708
 31
0.0
  0
LINE
  5
C7
330
4D
100
AcDbEntity
  8
0
  6
Continuous
 62
     7
100
AcDbLine
 10
508.9450248645553
 20
349.3680932269708
 30
0.0
 11
547.9450248645553
 21
349.3680932269708
 31
0.0
  0
LINE
  5
C8
330
4D
100
AcDbEntity
  8
0
  6
Continuous
 62
     7
100
AcDbLine
 10
508.9450248645553
 20
333.3680932269708
 30
0.0
 11
547.9450248645553
 21
333.3680932269708
 31
0.0
  0
LINE
  5
C9
330
4D
100
AcDbEntity
  8
1
  6
Continuous
 62
     7
100
AcDbLine
 10
508.9450248645553
 20
333.3680932269708
 30
0.0
 11
508.9450248645553
 21
349.3680932269708
 31
0.0
  0
LINE
  5
CA
330
4D
100
AcDbEntity
  8
1
  6
Continuous
 62
     7
100
AcDbLine
 10
178.5270886479059
 20
693.8680932269708
 30
0.0
 11
162.5270886479059
 21
693.8680932269708
 31
0.0
  0
LINE
  5
CB
330
4D
100
AcDbEntity
  8
1
  6
Continuous
 62
     7
100
AcDbLine
 10
178.3367870212701
 20
713.8680932269708
 30
0.0
 11
178.3367870212701
 21
693.8680932269708
 31
0.0
  0
LINE
  5
CC
330
4D
100
AcDbEntity
  8
1
  6
Continuous
 62
     7
100
AcDbLine
 10
176.7258744519163
 20
693.8680932269708
 30
0.0
 11
176.7258744519163
 21
713.8680932269708
 31
0.0
  0
LINE
  5
CD
330
4D
100
AcDbEntity
  8
1
  6
Continuous
 62
     7
100
AcDbLine
 10
175.3728842015505
 20
713.8680932269708
 30
0.0
 11
175.3728842015505
 21
693.8680932269708
 31
0.0
  0
LINE
  5
CE
330
4D
100
AcDbEntity
  8
1
  6
Continuous
 62
     7
100
AcDbLine
 10
171.4837972288185
 20
693.8680932269708
 30
0.0
 11
171.4837972288185
 21
713.8680932269708
 31
0.0
  0
LINE
  5
CF
330
4D
100
AcDbEntity
  8
1
  6
Continuous
 62
     7
100
AcDbLine
 10
169.570380066993
 20
693.8680932269708
 30
0.0
 11
169.570380066993
 21
713.8680932269708
 31
0.0
  0
LINE
  5
D0
330
4D
100
AcDbEntity
  8
1
  6
Continuous
 62
     7
100
AcDbLine
 10
165.6812930942606
 20
693.8680932269708
 30
0.0
 11
165.6812930942606
 21
713.8680932269708
 31
0.0
  0
LINE
  5
D1
330
4D
100
AcDbEntity
  8
1
  6
Continuous
 62
     7
100
AcDbLine
 10
164.3283028438952
 20
713.8680932269708
 30
0.0
 11
164.3283028438952
 21
693.8680932269708
 31
0.0
  0
LINE
  5
D2
330
4D
100
AcDbEntity
  8
1
  6
Continuous
 62
     7
100
AcDbLine
 10
162.717390274541
 20
693.8680932269708
 30
0.0
 11
162.717390274541
 21
713.8680932269708
 31
0.0
  0
LINE
  5
D3
330
4D
100
AcDbEntity
  8
1
  6
Continuous
 62
     7
100
AcDbLine
 10
178.5270886479059
 20
713.8680932269708
 30
0.0
 11
162.5270886479059
 21
713.8680932269708
 31
0.0
  0
LINE
  5
D4
330
4D
100
AcDbEntity
  8
1
  6
Continuous
 62
     7
100
AcDbLine
 10
162.5270886479057
 20
341.3680932269713
 30
0.0
 11
162.5270886479057
 21
311.8680932269713
 31
0.0
  0
LINE
  5
D5
330
4D
100
AcDbEntity
  8
1
  6
Continuous
 62
     7
100
AcDbLine
 10
178.5270886479057
 20
311.8680932269713
 30
0.0
 11
178.5270886479057
 21
341.3680932269713
 31
0.0
  0
LINE
  5
D6
330
4D
100
AcDbEntity
  8
1
  6
Continuous
 62
     7
100
AcDbLine
 10
165.6812930942608
 20
347.5668790309827
 30
0.0
 11
169.5703800669928
 21
349.1777916003367
 31
0.0
  0
LINE
  5
D7
330
4D
100
AcDbEntity
  8
1
  6
Continuous
 62
     7
100
AcDbLine
 10
171.4837972288183
 20
349.1777916003367
 30
0.0
 11
175.3728842015503
 21
347.5668790309825
 31
0.0
  0
LINE
  5
D8
330
4D
100
AcDbEntity
  8
1
  6
Continuous
 62
     7
100
AcDbLine
 10
162.7173902745412
 20
342.3248018078839
 30
0.0
 11
164.3283028438952
 21
346.213888780617
 31
0.0
  0
LINE
  5
D9
330
4D
100
AcDbEntity
  8
1
  6
Continuous
 62
     7
100
AcDbLine
 10
176.7258744519158
 20
346.2138887806169
 30
0.0
 11
178.3367870212701
 21
342.3248018078839
 31
0.0
  0
ARC
  5
DA
330
4D
100
AcDbEntity
  8
1
  6
Continuous
 62
     7
100
AcDbCircle
 10
170.5270886479054
 20
757.8680932269706
 30
0.0
 40
8.0
100
AcDbArc
 50
0.0
 51
180.0000000000008
  0
ARC
  5
DB
330
4D
100
AcDbEntity
  8
1
  6
Continuous
 62
     7
100
AcDbCircle
 10
165.0270891058194
 20
341.3680932269712
 30
0.0
 40
2.5
100
AcDbArc
 50
179.9999999999974
 51
202.5000000000098
  0
ARC
  5
DC
330
4D
100
AcDbEntity
  8
1
  6
Continuous
 62
     7
100
AcDbCircle
 10
176.0270881899921
 20
341.3680932269712
 30
0.0
 40
2.499999999999988
100
AcDbArc
 50
337.4999999999884
 51
0.00000000000261
  0
ARC
  5
DD
330
4D
100
AcDbEntity
  8
1
  6
Continuous
 62
     7
100
AcDbCircle
 10
176.0270881899921
 20
341.3680932269712
 30
0.0
 40
2.499999999999801
100
AcDbArc
 50
0.00000000000261
 51
22.50000000000075
  0
ARC
  5
DE
330
4D
100
AcDbEntity
  8
1
  6
Continuous
 62
     7
100
AcDbCircle
 10
547.9450248645553
 20
316.3680932269709
 30
0.0
 40
33.0
100
AcDbArc
 50
0.0
 51
90.0
  0
ARC
  5
DF
330
4D
100
AcDbEntity
  8
1
  6
Continuous
 62
     7
100
AcDbCircle
 10
547.9450248645553
 20
316.3680932269709
 30
0.0
 40
17.0
100
AcDbArc
 50
0.0
 51
90.0
  0
ARC
  5
E0
330
4D
100
AcDbEntity
  8
1
  6
Continuous
 62
     7
100
AcDbCircle
 10
170.5270886479057
 20
346.8680927690584
 30
0.0
 40
2.500000000000022
100
AcDbArc
 50
67.50000000000355
 51
112.5000000000031
  0
ARC
  5
E1
330
4D
100
AcDbEntity
  8
1
  6
Continuous
 62
     7
100
AcDbCircle
 10
166.6380016751734
 20
345.2571801997042
 30
0.0
 40
2.500000000000233
100
AcDbArc
 50
112.4999999999945
 51
157.4999999999974
  0
ARC
  5
E2
330
4D
100
AcDbEntity
  8
1
  6
Continuous
 62
     7
100
AcDbCircle
 10
165.0270891058194
 20
341.3680932269712
 30
0.0
 40
2.499999999999976
100
AcDbArc
 50
157.500000000001
 51
179.9999999999974
  0
ARC
  5
E3
330
4D
100
AcDbEntity
  8
1
  6
Continuous
 62
     7
100
AcDbCircle
 10
174.4161756206377
 20
345.2571801997042
 30
0.0
 40
2.499999999999893
100
AcDbArc
 50
22.5000000000012
 51
67.50000000000294
  0
ENDBLK
  5
4F
330
4D
100
AcDbEntity
  8
0
100
AcDbBlockEnd
  0
BLOCK
  5
51
330
50
100
AcDbEntity
  8
0
100
AcDbBlockBegin
  2
76-120-_長さ_-H2
 70
     0
 10
1221.445024864555
 20
369.4047528732349
 30
0.0
  3
76-120-_長さ_-H2
  1

  0
LINE
  5
E4
330
50
100
AcDbEntity
  8
1
  6
PHANTOM
 62
     5
100
AcDbLine
 10
163.5270886479057
 20
283.3896726813853
 30
0.0
 11
163.5270886479057
 21
341.3680932269709
 31
0.0
  0
LINE
  5
E5
330
50
100
AcDbEntity
  8
1
  6
PHANTOM
 62
     5
100
AcDbLine
 10
177.5270886479057
 20
284.3065368710912
 30
0.0
 11
177.5270886479057
 21
341.3680932269709
 31
0.0
  0
LINE
  5
E6
330
50
100
AcDbEntity
  8
1
  6
Continuous
 62
     7
100
AcDbLine
 10
163.5270886479057
 20
283.3896726813853
 30
0.0
 11
163.5270886479057
 21
281.0680932269693
 31
0.0
  0
LINE
  5
E7
330
50
100
AcDbEntity
  8
1
  6
Continuous
 62
     7
100
AcDbLine
 10
177.5270886479057
 20
267.7680932269707
 30
0.0
 11
177.5270886479057
 21
269.468093226969
 31
0.0
  0
LINE
  5
E8
330
50
100
AcDbEntity
  8
0
  6
Continuous
 62
     7
100
AcDbLine
 10
164.6661080116035
 20
267.7680932269707
 30
0.0
 11
172.4858849354835
 21
269.1598524844848
 31
0.0
  0
LINE
  5
E9
330
50
100
AcDbEntity
  8
1
  6
Continuous
 62
     7
100
AcDbLine
 10
177.0270886479057
 20
269.968093226969
 30
0.0
 11
176.5270886479057
 21
269.968093226969
 31
0.0
  0
LINE
  5
EA
330
50
100
AcDbEntity
  8
1
  6
Continuous
 62
     7
100
AcDbLine
 10
172.4858849354835
 20
269.1598524844848
 30
0.0
 11
176.5270886479057
 21
269.968093226969
 31
0.0
  0
LINE
  5
EB
330
50
100
AcDbEntity
  8
0
  6
Continuous
 62
     7
100
AcDbLine
 10
172.4858849354835
 20
269.1598524844848
 30
0.0
 11
177.0270886479057
 21
269.968093226969
 31
0.0
  0
LINE
  5
EC
330
50
100
AcDbEntity
  8
1
  6
Continuous
 62
     7
100
AcDbLine
 10
164.5270886479057
 20
269.5680932269693
 30
0.0
 11
164.5270886479057
 21
267.7680932269707
 31
0.0
  0
LINE
  5
ED
330
50
100
AcDbEntity
  8
1
  6
Continuous
 62
     7
100
AcDbLine
 10
176.5270886479057
 20
269.968093226969
 30
0.0
 11
176.5270886479057
 21
271.7928358108396
 31
0.0
  0
LINE
  5
EE
330
50
100
AcDbEntity
  8
0
  6
Continuous
 62
     7
100
AcDbLine
 10
176.5270886479057
 20
271.7928358108396
 30
0.0
 11
168.5682923603288
 21
270.3763339694539
 31
0.0
  0
LINE
  5
EF
330
50
100
AcDbEntity
  8
0
  6
Continuous
 62
     7
100
AcDbLine
 10
172.4858849354835
 20
274.6598524844848
 30
0.0
 11
177.0270886479057
 21
275.468093226969
 31
0.0
  0
LINE
  5
F0
330
50
100
AcDbEntity
  8
1
  6
Continuous
 62
     7
100
AcDbLine
 10
172.4858849354835
 20
274.6598524844848
 30
0.0
 11
176.5270886479057
 21
275.468093226969
 31
0.0
  0
LINE
  5
F1
330
50
100
AcDbEntity
  8
1
  6
Continuous
 62
     7
100
AcDbLine
 10
177.0270886479057
 20
275.468093226969
 30
0.0
 11
176.5270886479057
 21
275.468093226969
 31
0.0
  0
LINE
  5
F2
330
50
100
AcDbEntity
  8
1
  6
Continuous
 62
     7
100
AcDbLine
 10
177.5270886479057
 20
272.3896726813853
 30
0.0
 11
177.5270886479057
 21
274.968093226969
 31
0.0
  0
LINE
  5
F3
330
50
100
AcDbEntity
  8
0
  6
Continuous
 62
     7
100
AcDbLine
 10
177.1115705554612
 20
271.8968615539786
 30
0.0
 11
176.5270886479057
 21
271.7928358108396
 31
0.0
  0
LINE
  5
F4
330
50
100
AcDbEntity
  8
0
  6
Continuous
 62
     7
100
AcDbLine
 10
164.5270886479057
 20
273.2433506430987
 30
0.0
 11
172.4858849354835
 21
274.6598524844848
 31
0.0
  0
LINE
  5
F5
330
50
100
AcDbEntity
  8
0
  6
Continuous
 62
     7
100
AcDbLine
 10
168.5682923603288
 20
270.3763339694539
 30
0.0
 11
164.0270886479057
 21
269.5680932269693
 31
0.0
  0
LINE
  5
F6
330
50
100
AcDbEntity
  8
1
  6
Continuous
 62
     7
100
AcDbLine
 10
168.5682923603288
 20
270.3763339694539
 30
0.0
 11
164.5270886479057
 21
269.5680932269693
 31
0.0
  0
LINE
  5
F7
330
50
100
AcDbEntity
  8
1
  6
Continuous
 62
     7
100
AcDbLine
 10
164.0270886479057
 20
269.5680932269693
 30
0.0
 11
164.5270886479057
 21
269.5680932269693
 31
0.0
  0
LINE
  5
F8
330
50
100
AcDbEntity
  8
1
  6
Continuous
 62
     7
100
AcDbLine
 10
163.5270886479057
 20
272.646513772553
 30
0.0
 11
163.5270886479057
 21
270.0680932269693
 31
0.0
  0
LINE
  5
F9
330
50
100
AcDbEntity
  8
0
  6
Continuous
 62
     7
100
AcDbLine
 10
163.9426067403504
 20
273.1393248999597
 30
0.0
 11
164.5270886479057
 21
273.2433506430987
 31
0.0
  0
LINE
  5
FA
330
50
100
AcDbEntity
  8
1
  6
Continuous
 62
     7
100
AcDbLine
 10
176.5270886479057
 20
275.468093226969
 30
0.0
 11
176.5270886479057
 21
277.2928358108396
 31
0.0
  0
LINE
  5
FB
330
50
100
AcDbEntity
  8
0
  6
Continuous
 62
     7
100
AcDbLine
 10
176.5270886479057
 20
277.2928358108396
 30
0.0
 11
168.5682923603288
 21
275.8763339694539
 31
0.0
  0
LINE
  5
FC
330
50
100
AcDbEntity
  8
0
  6
Continuous
 62
     7
100
AcDbLine
 10
177.1115705554612
 20
277.3968615539786
 30
0.0
 11
176.5270886479057
 21
277.2928358108396
 31
0.0
  0
LINE
  5
FD
330
50
100
AcDbEntity
  8
1
  6
Continuous
 62
     7
100
AcDbLine
 10
177.5270886479057
 20
277.8896726813853
 30
0.0
 11
177.5270886479057
 21
280.468093226969
 31
0.0
  0
LINE
  5
FE
330
50
100
AcDbEntity
  8
1
  6
Continuous
 62
     7
100
AcDbLine
 10
177.0270886479057
 20
280.968093226969
 30
0.0
 11
176.5270886479057
 21
280.968093226969
 31
0.0
  0
LINE
  5
FF
330
50
100
AcDbEntity
  8
1
  6
Continuous
 62
     7
100
AcDbLine
 10
172.4858849354835
 20
280.1598524844848
 30
0.0
 11
176.5270886479057
 21
280.968093226969
 31
0.0
  0
LINE
  5
100
330
50
100
AcDbEntity
  8
0
  6
Continuous
 62
     7
100
AcDbLine
 10
172.4858849354835
 20
280.1598524844848
 30
0.0
 11
177.0270886479057
 21
280.968093226969
 31
0.0
  0
LINE
  5
101
330
50
100
AcDbEntity
  8
0
  6
Continuous
 62
     7
100
AcDbLine
 10
164.5270886479057
 20
278.7433506430987
 30
0.0
 11
172.4858849354835
 21
280.1598524844848
 31
0.0
  0
LINE
  5
102
330
50
100
AcDbEntity
  8
0
  6
Continuous
 62
     7
100
AcDbLine
 10
163.9426067403504
 20
278.6393248999597
 30
0.0
 11
164.5270886479057
 21
278.7433506430987
 31
0.0
  0
LINE
  5
103
330
50
100
AcDbEntity
  8
1
  6
Continuous
 62
     7
100
AcDbLine
 10
163.5270886479057
 20
278.146513772553
 30
0.0
 11
163.5270886479057
 21
275.5680932269693
 31
0.0
  0
LINE
  5
104
330
50
100
AcDbEntity
  8
1
  6
Continuous
 62
     7
100
AcDbLine
 10
164.0270886479057
 20
275.0680932269693
 30
0.0
 11
164.5270886479057
 21
275.0680932269693
 31
0.0
  0
LINE
  5
105
330
50
100
AcDbEntity
  8
1
  6
Continuous
 62
     7
100
AcDbLine
 10
168.5682923603288
 20
275.8763339694539
 30
0.0
 11
164.5270886479057
 21
275.0680932269693
 31
0.0
  0
LINE
  5
106
330
50
100
AcDbEntity
  8
0
  6
Continuous
 62
     7
100
AcDbLine
 10
168.5682923603288
 20
275.8763339694539
 30
0.0
 11
164.0270886479057
 21
275.0680932269693
 31
0.0
  0
LINE
  5
107
330
50
100
AcDbEntity
  8
1
  6
Continuous
 62
     7
100
AcDbLine
 10
164.5270886479057
 20
275.0680932269693
 30
0.0
 11
164.5270886479057
 21
273.2433506430987
 31
0.0
  0
LINE
  5
108
330
50
100
AcDbEntity
  8
1
  6
Continuous
 62
     7
100
AcDbLine
 10
164.5270886479057
 20
280.5680932269693
 30
0.0
 11
164.5270886479057
 21
278.7433506430987
 31
0.0
  0
LINE
  5
109
330
50
100
AcDbEntity
  8
1
  6
Continuous
 62
     7
100
AcDbLine
 10
176.5270886479057
 20
280.968093226969
 30
0.0
 11
176.5270886479057
 21
282.7928358108396
 31
0.0
  0
LINE
  5
10A
330
50
100
AcDbEntity
  8
0
  6
Continuous
 62
     7
100
AcDbLine
 10
176.5270886479057
 20
282.7928358108396
 30
0.0
 11
168.5682923603288
 21
281.3763339694539
 31
0.0
  0
LINE
  5
10B
330
50
100
AcDbEntity
  8
1
  6
Continuous
 62
     7
100
AcDbLine
 10
177.5270886479057
 20
283.3896726813853
 30
0.0
 11
177.5270886479057
 21
284.3065368710912
 31
0.0
  0
LINE
  5
10C
330
50
100
AcDbEntity
  8
0
  6
Continuous
 62
     7
100
AcDbLine
 10
177.1115705554612
 20
282.8968615539786
 30
0.0
 11
176.5270886479057
 21
282.7928358108396
 31
0.0
  0
LINE
  5
10D
330
50
100
AcDbEntity
  8
0
  6
Continuous
 62
     7
100
AcDbLine
 10
168.5682923603288
 20
281.3763339694539
 30
0.0
 11
164.0270886479057
 21
280.5680932269693
 31
0.0
  0
LINE
  5
10E
330
50
100
AcDbEntity
  8
1
  6
Continuous
 62
     7
100
AcDbLine
 10
168.5682923603288
 20
281.3763339694539
 30
0.0
 11
164.5270886479057
 21
280.5680932269693
 31
0.0
  0
LINE
  5
10F
330
50
100
AcDbEntity
  8
1
  6
Continuous
 62
     7
100
AcDbLine
 10
164.0270886479057
 20
280.5680932269693
 30
0.0
 11
164.5270886479057
 21
280.5680932269693
 31
0.0
  0
LINE
  5
110
330
50
100
AcDbEntity
  8
0
  6
Continuous
 62
     7
100
AcDbLine
 10
499.8697674484258
 20
335.3680932269714
 30
0.0
 11
498.4532656070398
 21
343.3268895145484
 31
0.0
  0
LINE
  5
111
330
50
100
AcDbEntity
  8
0
  6
Continuous
 62
     7
100
AcDbLine
 10
488.9737931915649
 20
334.7836113194161
 30
0.0
 11
488.8697674484258
 21
335.3680932269714
 31
0.0
  0
LINE
  5
112
330
50
100
AcDbEntity
  8
1
  6
Continuous
 62
     7
100
AcDbLine
 10
489.4666043189716
 20
334.3680932269714
 30
0.0
 11
492.0450248645554
 21
334.3680932269714
 31
0.0
  0
LINE
  5
113
330
50
100
AcDbEntity
  8
0
  6
Continuous
 62
     7
100
AcDbLine
 10
490.2162565375459
 20
347.9525751345267
 30
0.0
 11
490.320282280685
 21
347.3680932269714
 31
0.0
  0
LINE
  5
114
330
50
100
AcDbEntity
  8
0
  6
Continuous
 62
     7
100
AcDbLine
 10
491.736784122071
 20
339.4092969393934
 30
0.0
 11
492.5450248645554
 21
334.8680932269714
 31
0.0
  0
LINE
  5
115
330
50
100
AcDbEntity
  8
1
  6
Continuous
 62
     7
100
AcDbLine
 10
491.736784122071
 20
339.4092969393934
 30
0.0
 11
492.5450248645554
 21
335.3680932269714
 31
0.0
  0
LINE
  5
116
330
50
100
AcDbEntity
  8
0
  6
Continuous
 62
     7
100
AcDbLine
 10
484.7162565375459
 20
347.9525751345267
 30
0.0
 11
484.820282280685
 21
347.3680932269714
 31
0.0
  0
LINE
  5
117
330
50
100
AcDbEntity
  8
1
  6
Continuous
 62
     7
100
AcDbLine
 10
486.236784122071
 20
339.4092969393934
 30
0.0
 11
487.0450248645554
 21
335.3680932269714
 31
0.0
  0
LINE
  5
118
330
50
100
AcDbEntity
  8
0
  6
Continuous
 62
     7
100
AcDbLine
 10
486.236784122071
 20
339.4092969393934
 30
0.0
 11
487.0450248645554
 21
334.8680932269714
 31
0.0
  0
LINE
  5
119
330
50
100
AcDbEntity
  8
1
  6
Continuous
 62
     7
100
AcDbLine
 10
487.4532656070398
 20
343.3268895145484
 30
0.0
 11
486.6450248645554
 21
347.3680932269714
 31
0.0
  0
LINE
  5
11A
330
50
100
AcDbEntity
  8
1
  6
Continuous
 62
     7
100
AcDbLine
 10
503.5411960198544
 20
335.3680932269714
 30
0.0
 11
505.3697674484258
 21
335.3680932269714
 31
0.0
  0
LINE
  5
11B
330
50
100
AcDbEntity
  8
1
  6
Continuous
 62
     7
100
AcDbLine
 10
503.5411960198544
 20
334.8680932269714
 30
0.0
 11
503.5411960198544
 21
335.3680932269714
 31
0.0
  0
LINE
  5
11C
330
50
100
AcDbEntity
  8
1
  6
Continuous
 62
     7
100
AcDbLine
 10
503.5411960198544
 20
334.8680932269714
 30
0.0
 11
503.5411960198544
 21
335.3680932269714
 31
0.0
  0
LINE
  5
11D
330
50
100
AcDbEntity
  8
1
  6
Continuous
 62
     7
100
AcDbLine
 10
503.1450248645554
 20
347.3680932269714
 30
0.0
 11
501.3164534359839
 21
347.3680932269714
 31
0.0
  0
LINE
  5
11E
330
50
100
AcDbEntity
  8
1
  6
Continuous
 62
     7
100
AcDbLine
 10
503.5411960198544
 20
334.8680932269714
 30
0.0
 11
503.5411960198544
 21
335.3680932269714
 31
0.0
  0
LINE
  5
11F
330
50
100
AcDbEntity
  8
1
  6
Continuous
 62
     7
100
AcDbLine
 10
492.5450248645554
 20
334.8680932269714
 30
0.0
 11
492.5450248645554
 21
335.3680932269714
 31
0.0
  0
LINE
  5
120
330
50
100
AcDbEntity
  8
1
  6
Continuous
 62
     7
100
AcDbLine
 10
503.5411960198544
 20
334.8680932269714
 30
0.0
 11
503.5411960198544
 21
335.3680932269714
 31
0.0
  0
LINE
  5
121
330
50
100
AcDbEntity
  8
1
  6
Continuous
 62
     7
100
AcDbLine
 10
492.5450248645554
 20
334.8680932269714
 30
0.0
 11
492.5450248645554
 21
335.3680932269714
 31
0.0
  0
LINE
  5
122
330
50
100
AcDbEntity
  8
1
  6
Continuous
 62
     7
100
AcDbLine
 10
487.0450248645554
 20
334.8680932269714
 30
0.0
 11
487.0450248645554
 21
335.3680932269714
 31
0.0
  0
LINE
  5
123
330
50
100
AcDbEntity
  8
1
  6
Continuous
 62
     7
100
AcDbLine
 10
486.6450248645554
 20
347.3680932269714
 30
0.0
 11
484.820282280685
 21
347.3680932269714
 31
0.0
  0
LINE
  5
124
330
50
100
AcDbEntity
  8
1
  6
Continuous
 62
     7
100
AcDbLine
 10
487.0450248645554
 20
335.3680932269714
 30
0.0
 11
488.8697674484258
 21
335.3680932269714
 31
0.0
  0
LINE
  5
125
330
50
100
AcDbEntity
  8
0
  6
Continuous
 62
     7
100
AcDbLine
 10
487.4532656070398
 20
343.3268895145484
 30
0.0
 11
486.6450248645554
 21
347.8680932269714
 31
0.0
  0
LINE
  5
126
330
50
100
AcDbEntity
  8
1
  6
Continuous
 62
     7
100
AcDbLine
 10
489.7234454101392
 20
348.3680932269714
 30
0.0
 11
487.1450248645554
 21
348.3680932269714
 31
0.0
  0
LINE
  5
127
330
50
100
AcDbEntity
  8
1
  6
Continuous
 62
     7
100
AcDbLine
 10
492.5450248645554
 20
334.8680932269714
 30
0.0
 11
492.5450248645554
 21
335.3680932269714
 31
0.0
  0
LINE
  5
128
330
50
100
AcDbEntity
  8
1
  6
Continuous
 62
     7
100
AcDbLine
 10
486.6450248645554
 20
347.8680932269714
 30
0.0
 11
486.6450248645554
 21
347.3680932269714
 31
0.0
  0
LINE
  5
129
330
50
100
AcDbEntity
  8
1
  6
Continuous
 62
     7
100
AcDbLine
 10
483.9666043189716
 20
334.3680932269714
 30
0.0
 11
486.5450248645554
 21
334.3680932269714
 31
0.0
  0
LINE
  5
12A
330
50
100
AcDbEntity
  8
1
  6
Continuous
 62
     7
100
AcDbLine
 10
487.0450248645554
 20
334.8680932269714
 30
0.0
 11
487.0450248645554
 21
335.3680932269714
 31
0.0
  0
LINE
  5
12B
330
50
100
AcDbEntity
  8
1
  6
Continuous
 62
     7
100
AcDbLine
 10
484.2234454101392
 20
348.3680932269714
 30
0.0
 11
481.6450248645554
 21
348.3680932269714
 31
0.0
  0
LINE
  5
12C
330
50
100
AcDbEntity
  8
0
  6
Continuous
 62
     7
100
AcDbLine
 10
501.3828098311303
 20
346.9952613562908
 30
0.0
 11
502.7329552773699
 21
339.4092969393934
 31
0.0
  0
LINE
  5
12D
330
50
100
AcDbEntity
  8
1
  6
Continuous
 62
     7
100
AcDbLine
 10
498.4532656070398
 20
343.3268895145484
 30
0.0
 11
497.6450248645554
 21
347.3680932269714
 31
0.0
  0
LINE
  5
12E
330
50
100
AcDbEntity
  8
0
  6
Continuous
 62
     7
100
AcDbLine
 10
498.4532656070398
 20
343.3268895145484
 30
0.0
 11
497.6450248645554
 21
347.8680932269714
 31
0.0
  0
LINE
  5
12F
330
50
100
AcDbEntity
  8
0
  6
Continuous
 62
     7
100
AcDbLine
 10
498.4532656070398
 20
343.3268895145484
 30
0.0
 11
497.6450248645554
 21
347.8680932269714
 31
0.0
  0
LINE
  5
130
330
50
100
AcDbEntity
  8
1
  6
Continuous
 62
     7
100
AcDbLine
 10
497.6450248645554
 20
347.8680932269714
 30
0.0
 11
497.6450248645554
 21
347.3680932269714
 31
0.0
  0
LINE
  5
131
330
50
100
AcDbEntity
  8
1
  6
Continuous
 62
     7
100
AcDbLine
 10
500.7196165654382
 20
348.3680932269714
 30
0.0
 11
498.1450248645554
 21
348.3680932269714
 31
0.0
  0
LINE
  5
132
330
50
100
AcDbEntity
  8
0
  6
Continuous
 62
     7
100
AcDbLine
 10
499.8825889531524
 20
335.2960539671282
 30
0.0
 11
499.8697674484258
 21
335.3680932269714
 31
0.0
  0
LINE
  5
133
330
50
100
AcDbEntity
  8
1
  6
Continuous
 62
     7
100
AcDbLine
 10
497.6450248645554
 20
347.3680932269714
 30
0.0
 11
495.8164534359839
 21
347.3680932269714
 31
0.0
  0
LINE
  5
134
330
50
100
AcDbEntity
  8
0
  6
Continuous
 62
     7
100
AcDbLine
 10
495.7124276928448
 20
347.9525751345267
 30
0.0
 11
497.2329552773699
 21
339.4092969393934
 31
0.0
  0
LINE
  5
135
330
50
100
AcDbEntity
  8
1
  6
Continuous
 62
     7
100
AcDbLine
 10
497.2329552773699
 20
339.4092969393934
 30
0.0
 11
498.0411960198544
 21
335.3680932269714
 31
0.0
  0
LINE
  5
136
330
50
100
AcDbEntity
  8
1
  6
Continuous
 62
     7
100
AcDbLine
 10
498.0411960198544
 20
334.8680932269714
 30
0.0
 11
498.0411960198544
 21
335.3680932269714
 31
0.0
  0
LINE
  5
137
330
50
100
AcDbEntity
  8
1
  6
Continuous
 62
     7
100
AcDbLine
 10
498.0411960198544
 20
334.8680932269714
 30
0.0
 11
498.0411960198544
 21
335.3680932269714
 31
0.0
  0
LINE
  5
138
330
50
100
AcDbEntity
  8
1
  6
Continuous
 62
     7
100
AcDbLine
 10
498.0411960198544
 20
334.8680932269714
 30
0.0
 11
498.0411960198544
 21
335.3680932269714
 31
0.0
  0
LINE
  5
139
330
50
100
AcDbEntity
  8
1
  6
Continuous
 62
     7
100
AcDbLine
 10
498.0411960198544
 20
334.8680932269714
 30
0.0
 11
498.0411960198544
 21
335.3680932269714
 31
0.0
  0
LINE
  5
13A
330
50
100
AcDbEntity
  8
1
  6
Continuous
 62
     7
100
AcDbLine
 10
494.9666043189716
 20
334.3680932269714
 30
0.0
 11
497.5450248645554
 21
334.3680932269714
 31
0.0
  0
LINE
  5
13B
330
50
100
AcDbEntity
  8
1
  6
Continuous
 62
     7
100
AcDbLine
 10
494.9666043189716
 20
334.3680932269714
 30
0.0
 11
497.5450248645554
 21
334.3680932269714
 31
0.0
  0
LINE
  5
13C
330
50
100
AcDbEntity
  8
0
  6
Continuous
 62
     7
100
AcDbLine
 10
494.4737931915649
 20
334.7836113194161
 30
0.0
 11
494.3697674484258
 21
335.3680932269714
 31
0.0
  0
LINE
  5
13D
330
50
100
AcDbEntity
  8
0
  6
Continuous
 62
     7
100
AcDbLine
 10
492.9532656070398
 20
343.3268895145484
 30
0.0
 11
492.1450248645554
 21
347.8680932269714
 31
0.0
  0
LINE
  5
13E
330
50
100
AcDbEntity
  8
1
  6
Continuous
 62
     7
100
AcDbLine
 10
492.9532656070398
 20
343.3268895145484
 30
0.0
 11
492.1450248645554
 21
347.3680932269714
 31
0.0
  0
LINE
  5
13F
330
50
100
AcDbEntity
  8
1
  6
Continuous
 62
     7
100
AcDbLine
 10
492.1450248645554
 20
347.8680932269714
 30
0.0
 11
492.1450248645554
 21
347.3680932269714
 31
0.0
  0
LINE
  5
140
330
50
100
AcDbEntity
  8
1
  6
Continuous
 62
     7
100
AcDbLine
 10
495.2234454101392
 20
348.3680932269714
 30
0.0
 11
492.6450248645554
 21
348.3680932269714
 31
0.0
  0
LINE
  5
141
330
50
100
AcDbEntity
  8
0
  6
Continuous
 62
     7
100
AcDbLine
 10
495.7124276928448
 20
347.9525751345267
 30
0.0
 11
495.8164534359839
 21
347.3680932269714
 31
0.0
  0
LINE
  5
142
330
50
100
AcDbEntity
  8
1
  6
Continuous
 62
     7
100
AcDbLine
 10
492.1450248645554
 20
347.3680932269714
 30
0.0
 11
490.320282280685
 21
347.3680932269714
 31
0.0
  0
LINE
  5
143
330
50
100
AcDbEntity
  8
1
  6
Continuous
 62
     7
100
AcDbLine
 10
492.5411960198544
 20
335.3680932269714
 30
0.0
 11
494.3697674484258
 21
335.3680932269714
 31
0.0
  0
LINE
  5
144
330
50
100
AcDbEntity
  8
1
  6
Continuous
 62
     7
100
AcDbLine
 10
500.4666043189716
 20
334.3680932269714
 30
0.0
 11
503.0450248645554
 21
334.3680932269714
 31
0.0
  0
LINE
  5
145
330
50
100
AcDbEntity
  8
0
  6
Continuous
 62
     7
100
AcDbLine
 10
501.3164534359839
 20
347.3680932269714
 30
0.0
 11
501.3828098311303
 21
346.9952613562908
 31
0.0
  0
LINE
  5
146
330
50
100
AcDbEntity
  8
0
  6
Continuous
 62
     7
100
AcDbLine
 10
501.2124276928448
 20
347.9525751345267
 30
0.0
 11
501.3164534359839
 21
347.3680932269714
 31
0.0
  0
LINE
  5
147
330
50
100
AcDbEntity
  8
1
  6
Continuous
 62
     7
100
AcDbLine
 10
502.7329552773699
 20
339.4092969393934
 30
0.0
 11
503.5411960198544
 21
335.3680932269714
 31
0.0
  0
LINE
  5
148
330
50
100
AcDbEntity
  8
0
  6
Continuous
 62
     7
100
AcDbLine
 10
499.9737931915649
 20
334.7836113194161
 30
0.0
 11
499.8825889531524
 21
335.2960539671282
 31
0.0
  0
LINE
  5
149
330
50
100
AcDbEntity
  8
1
  6
Continuous
 62
     7
100
AcDbLine
 10
498.0411960198544
 20
335.3680932269714
 30
0.0
 11
499.8697674484258
 21
335.3680932269714
 31
0.0
  0
LINE
  5
14A
330
50
100
AcDbEntity
  8
1
  6
Continuous
 62
     7
100
AcDbLine
 10
176.5270886479061
 20
681.5892643822697
 30
0.0
 11
176.5270886479061
 21
683.4178358108411
 31
0.0
  0
LINE
  5
14B
330
50
100
AcDbEntity
  8
0
  6
Continuous
 62
     7
100
AcDbLine
 10
177.1115705554614
 20
683.5218615539802
 30
0.0
 11
176.5991279077491
 21
683.4306573155677
 31
0.0
  0
LINE
  5
14C
330
50
100
AcDbEntity
  8
1
  6
Continuous
 62
     7
100
AcDbLine
 10
172.4858849354841
 20
686.2810236397852
 30
0.0
 11
176.5270886479061
 21
687.0892643822697
 31
0.0
  0
LINE
  5
14D
330
50
100
AcDbEntity
  8
0
  6
Continuous
 62
     7
100
AcDbLine
 10
177.1115705554614
 20
689.0218615539802
 30
0.0
 11
176.5270886479061
 21
688.9178358108411
 31
0.0
  0
LINE
  5
14E
330
50
100
AcDbEntity
  8
0
  6
Continuous
 62
     7
100
AcDbLine
 10
163.9426067403506
 20
684.7604960552601
 30
0.0
 11
164.5270886479061
 21
684.8645217983992
 31
0.0
  0
LINE
  5
14F
330
50
100
AcDbEntity
  8
0
  6
Continuous
 62
     7
100
AcDbLine
 10
164.5270886479061
 20
684.8645217983992
 30
0.0
 11
164.8999205185867
 21
684.9308781935456
 31
0.0
  0
LINE
  5
150
330
50
100
AcDbEntity
  8
1
  6
Continuous
 62
     7
100
AcDbLine
 10
177.5270886479061
 20
684.0146726813869
 30
0.0
 11
177.5270886479061
 21
684.0532654737319
 31
0.0
  0
LINE
  5
151
330
50
100
AcDbEntity
  8
1
  6
Continuous
 62
     7
100
AcDbLine
 10
176.5270886479061
 20
676.0930932269707
 30
0.0
 11
176.5270886479061
 21
677.9178358108411
 31
0.0
  0
LINE
  5
152
330
50
100
AcDbEntity
  8
1
  6
Continuous
 62
     7
100
AcDbLine
 10
164.5270886479061
 20
675.6930932269706
 30
0.0
 11
164.5270886479061
 21
673.8683506431003
 31
0.0
  0
LINE
  5
153
330
50
100
AcDbEntity
  8
0
  6
Continuous
 62
     7
100
AcDbLine
 10
163.9426067403506
 20
679.2604960552601
 30
0.0
 11
172.4858849354841
 21
680.7810236397852
 31
0.0
  0
LINE
  5
154
330
50
100
AcDbEntity
  8
1
  6
Continuous
 62
     7
100
AcDbLine
 10
164.0270886479061
 20
675.6930932269706
 30
0.0
 11
164.5270886479061
 21
675.6930932269706
 31
0.0
  0
LINE
  5
155
330
50
100
AcDbEntity
  8
1
  6
Continuous
 62
     7
100
AcDbLine
 10
168.568292360329
 20
676.5013339694551
 30
0.0
 11
164.5270886479061
 21
675.6930932269706
 31
0.0
  0
LINE
  5
156
330
50
100
AcDbEntity
  8
0
  6
Continuous
 62
     7
100
AcDbLine
 10
168.568292360329
 20
676.5013339694551
 30
0.0
 11
164.0270886479061
 21
675.6930932269706
 31
0.0
  0
LINE
  5
157
330
50
100
AcDbEntity
  8
0
  6
Continuous
 62
     7
100
AcDbLine
 10
177.1115705554614
 20
678.0218615539802
 30
0.0
 11
176.5270886479061
 21
677.9178358108411
 31
0.0
  0
LINE
  5
158
330
50
100
AcDbEntity
  8
1
  6
Continuous
 62
     7
100
AcDbLine
 10
177.5270886479061
 20
678.5146726813869
 30
0.0
 11
177.5270886479061
 21
681.0930932269707
 31
0.0
  0
LINE
  5
159
330
50
100
AcDbEntity
  8
1
  6
Continuous
 62
     7
100
AcDbLine
 10
177.5270886479061
 20
678.5146726813869
 30
0.0
 11
177.5270886479061
 21
681.0930932269707
 31
0.0
  0
LINE
  5
15A
330
50
100
AcDbEntity
  8
1
  6
Continuous
 62
     7
100
AcDbLine
 10
177.0270886479061
 20
681.5892643822697
 30
0.0
 11
176.5270886479061
 21
681.5892643822697
 31
0.0
  0
LINE
  5
15B
330
50
100
AcDbEntity
  8
1
  6
Continuous
 62
     7
100
AcDbLine
 10
177.0270886479061
 20
681.5892643822697
 30
0.0
 11
176.5270886479061
 21
681.5892643822697
 31
0.0
  0
LINE
  5
15C
330
50
100
AcDbEntity
  8
1
  6
Continuous
 62
     7
100
AcDbLine
 10
177.0270886479061
 20
681.5892643822697
 30
0.0
 11
176.5270886479061
 21
681.5892643822697
 31
0.0
  0
LINE
  5
15D
330
50
100
AcDbEntity
  8
1
  6
Continuous
 62
     7
100
AcDbLine
 10
177.0270886479061
 20
681.5892643822697
 30
0.0
 11
176.5270886479061
 21
681.5892643822697
 31
0.0
  0
LINE
  5
15E
330
50
100
AcDbEntity
  8
1
  6
Continuous
 62
     7
100
AcDbLine
 10
172.4858849354841
 20
680.7810236397852
 30
0.0
 11
176.5270886479061
 21
681.5892643822697
 31
0.0
  0
LINE
  5
15F
330
50
100
AcDbEntity
  8
0
  6
Continuous
 62
     7
100
AcDbLine
 10
163.9426067403506
 20
679.2604960552601
 30
0.0
 11
164.5270886479061
 21
679.3645217983992
 31
0.0
  0
LINE
  5
160
330
50
100
AcDbEntity
  8
1
  6
Continuous
 62
     7
100
AcDbLine
 10
164.5270886479061
 20
681.1930932269706
 30
0.0
 11
164.5270886479061
 21
679.3645217983992
 31
0.0
  0
LINE
  5
161
330
50
100
AcDbEntity
  8
1
  6
Continuous
 62
     7
100
AcDbLine
 10
177.5270886479061
 20
684.0532654737319
 30
0.0
 11
177.5270886479061
 21
686.5930932269707
 31
0.0
  0
LINE
  5
162
330
50
100
AcDbEntity
  8
0
  6
Continuous
 62
     7
100
AcDbLine
 10
176.5991279077491
 20
683.4306573155677
 30
0.0
 11
176.5270886479061
 21
683.4178358108411
 31
0.0
  0
LINE
  5
163
330
50
100
AcDbEntity
  8
1
  6
Continuous
 62
     7
100
AcDbLine
 10
163.5270886479061
 20
684.2676849278535
 30
0.0
 11
163.5270886479061
 21
681.6930932269706
 31
0.0
  0
LINE
  5
164
330
50
100
AcDbEntity
  8
1
  6
Continuous
 62
     7
100
AcDbLine
 10
164.0270886479061
 20
681.1930932269706
 30
0.0
 11
164.5270886479061
 21
681.1930932269706
 31
0.0
  0
LINE
  5
165
330
50
100
AcDbEntity
  8
0
  6
Continuous
 62
     7
100
AcDbLine
 10
168.568292360329
 20
682.0013339694551
 30
0.0
 11
164.0270886479061
 21
681.1930932269706
 31
0.0
  0
LINE
  5
166
330
50
100
AcDbEntity
  8
0
  6
Continuous
 62
     7
100
AcDbLine
 10
168.568292360329
 20
682.0013339694551
 30
0.0
 11
164.0270886479061
 21
681.1930932269706
 31
0.0
  0
LINE
  5
167
330
50
100
AcDbEntity
  8
1
  6
Continuous
 62
     7
100
AcDbLine
 10
164.5270886479061
 20
692.1930932269706
 30
0.0
 11
164.5270886479061
 21
690.3645217983992
 31
0.0
  0
LINE
  5
168
330
50
100
AcDbEntity
  8
0
  6
Continuous
 62
     7
100
AcDbLine
 10
164.8999205185867
 20
684.9308781935456
 30
0.0
 11
172.4858849354841
 21
686.2810236397852
 31
0.0
  0
LINE
  5
169
330
50
100
AcDbEntity
  8
0
  6
Continuous
 62
     7
100
AcDbLine
 10
168.568292360329
 20
687.5013339694551
 30
0.0
 11
164.0270886479061
 21
686.6930932269706
 31
0.0
  0
LINE
  5
16A
330
50
100
AcDbEntity
  8
1
  6
Continuous
 62
     7
100
AcDbLine
 10
164.0270886479061
 20
686.6930932269706
 30
0.0
 11
164.5270886479061
 21
686.6930932269706
 31
0.0
  0
LINE
  5
16B
330
50
100
AcDbEntity
  8
1
  6
Continuous
 62
     7
100
AcDbLine
 10
168.568292360329
 20
687.5013339694551
 30
0.0
 11
164.5270886479061
 21
686.6930932269706
 31
0.0
  0
LINE
  5
16C
330
50
100
AcDbEntity
  8
0
  6
Continuous
 62
     7
100
AcDbLine
 10
172.4858849354839
 20
647.7848524844862
 30
0.0
 11
177.0270886479061
 21
648.5930932269707
 31
0.0
  0
LINE
  5
16D
330
50
100
AcDbEntity
  8
1
  6
Continuous
 62
     7
100
AcDbLine
 10
176.5270886479061
 20
654.0930932269707
 30
0.0
 11
176.5270886479061
 21
655.9178358108411
 31
0.0
  0
LINE
  5
16E
330
50
100
AcDbEntity
  8
1
  6
Continuous
 62
     7
100
AcDbLine
 10
164.5270886479061
 20
653.6930932269706
 30
0.0
 11
164.5270886479061
 21
651.8683506431003
 31
0.0
  0
LINE
  5
16F
330
50
100
AcDbEntity
  8
1
  6
Continuous
 62
     7
100
AcDbLine
 10
163.5270886479061
 20
656.7715137725545
 30
0.0
 11
163.5270886479061
 21
654.1930932269706
 31
0.0
  0
LINE
  5
170
330
50
100
AcDbEntity
  8
1
  6
Continuous
 62
     7
100
AcDbLine
 10
164.0270886479061
 20
653.6930932269706
 30
0.0
 11
164.5270886479061
 21
653.6930932269706
 31
0.0
  0
LINE
  5
171
330
50
100
AcDbEntity
  8
1
  6
Continuous
 62
     7
100
AcDbLine
 10
177.5270886479061
 20
656.5146726813869
 30
0.0
 11
177.5270886479061
 21
659.0930932269707
 31
0.0
  0
LINE
  5
172
330
50
100
AcDbEntity
  8
1
  6
Continuous
 62
     7
100
AcDbLine
 10
177.0270886479061
 20
659.5930932269707
 30
0.0
 11
176.5270886479061
 21
659.5930932269707
 31
0.0
  0
LINE
  5
173
330
50
100
AcDbEntity
  8
1
  6
Continuous
 62
     7
100
AcDbLine
 10
176.5270886479061
 20
648.5930932269707
 30
0.0
 11
176.5270886479061
 21
650.4178358108411
 31
0.0
  0
LINE
  5
174
330
50
100
AcDbEntity
  8
1
  6
Continuous
 62
     7
100
AcDbLine
 10
164.5270886479061
 20
648.1930932269706
 30
0.0
 11
164.5270886479061
 21
646.3683506431003
 31
0.0
  0
LINE
  5
175
330
50
100
AcDbEntity
  8
1
  6
Continuous
 62
     7
100
AcDbLine
 10
177.5270886479061
 20
651.0146726813869
 30
0.0
 11
177.5270886479061
 21
653.5930932269707
 31
0.0
  0
LINE
  5
176
330
50
100
AcDbEntity
  8
1
  6
Continuous
 62
     7
100
AcDbLine
 10
177.0270886479061
 20
654.0930932269707
 30
0.0
 11
176.5270886479061
 21
654.0930932269707
 31
0.0
  0
LINE
  5
177
330
50
100
AcDbEntity
  8
1
  6
Continuous
 62
     7
100
AcDbLine
 10
163.5270886479061
 20
651.2715137725545
 30
0.0
 11
163.5270886479061
 21
648.6930932269706
 31
0.0
  0
LINE
  5
178
330
50
100
AcDbEntity
  8
1
  6
Continuous
 62
     7
100
AcDbLine
 10
164.0270886479061
 20
648.1930932269706
 30
0.0
 11
164.5270886479061
 21
648.1930932269706
 31
0.0
  0
LINE
  5
179
330
50
100
AcDbEntity
  8
1
  6
Continuous
 62
     7
100
AcDbLine
 10
172.4858849354839
 20
647.7848524844862
 30
0.0
 11
176.5270886479061
 21
648.5930932269707
 31
0.0
  0
LINE
  5
17A
330
50
100
AcDbEntity
  8
1
  6
Continuous
 62
     7
100
AcDbLine
 10
177.0270886479061
 20
648.5930932269707
 30
0.0
 11
176.5270886479061
 21
648.5930932269707
 31
0.0
  0
LINE
  5
17B
330
50
100
AcDbEntity
  8
1
  6
Continuous
 62
     7
100
AcDbLine
 10
176.5270886479061
 20
659.5930932269707
 30
0.0
 11
176.5270886479061
 21
661.4178358108411
 31
0.0
  0
LINE
  5
17C
330
50
100
AcDbEntity
  8
1
  6
Continuous
 62
     7
100
AcDbLine
 10
164.0270886479061
 20
659.1930932269706
 30
0.0
 11
164.5270886479061
 21
659.1930932269706
 31
0.0
  0
LINE
  5
17D
330
50
100
AcDbEntity
  8
1
  6
Continuous
 62
     7
100
AcDbLine
 10
177.5270886479061
 20
662.0146726813869
 30
0.0
 11
177.5270886479061
 21
664.5930932269707
 31
0.0
  0
LINE
  5
17E
330
50
100
AcDbEntity
  8
1
  6
Continuous
 62
     7
100
AcDbLine
 10
177.0270886479061
 20
665.0930932269707
 30
0.0
 11
176.5270886479061
 21
665.0930932269707
 31
0.0
  0
LINE
  5
17F
330
50
100
AcDbEntity
  8
1
  6
Continuous
 62
     7
100
AcDbLine
 10
177.0270886479061
 20
659.5930932269707
 30
0.0
 11
176.5270886479061
 21
659.5930932269707
 31
0.0
  0
LINE
  5
180
330
50
100
AcDbEntity
  8
1
  6
Continuous
 62
     7
100
AcDbLine
 10
176.5270886479061
 20
665.0930932269707
 30
0.0
 11
176.5270886479061
 21
666.9178358108411
 31
0.0
  0
LINE
  5
181
330
50
100
AcDbEntity
  8
1
  6
Continuous
 62
     7
100
AcDbLine
 10
163.5270886479061
 20
667.7715137725545
 30
0.0
 11
163.5270886479061
 21
665.1930932269706
 31
0.0
  0
LINE
  5
182
330
50
100
AcDbEntity
  8
1
  6
Continuous
 62
     7
100
AcDbLine
 10
177.0270886479061
 20
670.5930932269707
 30
0.0
 11
176.5270886479061
 21
670.5930932269707
 31
0.0
  0
LINE
  5
183
330
50
100
AcDbEntity
  8
1
  6
Continuous
 62
     7
100
AcDbLine
 10
177.5270886479061
 20
667.5146726813869
 30
0.0
 11
177.5270886479061
 21
670.0930932269707
 31
0.0
  0
LINE
  5
184
330
50
100
AcDbEntity
  8
1
  6
Continuous
 62
     7
100
AcDbLine
 10
164.0270886479061
 20
664.6930932269706
 30
0.0
 11
164.5270886479061
 21
664.6930932269706
 31
0.0
  0
LINE
  5
185
330
50
100
AcDbEntity
  8
1
  6
Continuous
 62
     7
100
AcDbLine
 10
164.0270886479061
 20
670.1930932269706
 30
0.0
 11
164.5270886479061
 21
670.1930932269706
 31
0.0
  0
LINE
  5
186
330
50
100
AcDbEntity
  8
1
  6
Continuous
 62
     7
100
AcDbLine
 10
177.0270886479061
 20
676.0930932269707
 30
0.0
 11
176.5270886479061
 21
676.0930932269707
 31
0.0
  0
LINE
  5
187
330
50
100
AcDbEntity
  8
1
  6
Continuous
 62
     7
100
AcDbLine
 10
163.5270886479061
 20
673.2715137725545
 30
0.0
 11
163.5270886479061
 21
670.6930932269706
 31
0.0
  0
LINE
  5
188
330
50
100
AcDbEntity
  8
0
  6
Continuous
 62
     7
100
AcDbLine
 10
168.568292360329
 20
671.0013339694551
 30
0.0
 11
164.0270886479061
 21
670.1930932269706
 31
0.0
  0
LINE
  5
189
330
50
100
AcDbEntity
  8
1
  6
Continuous
 62
     7
100
AcDbLine
 10
176.5270886479061
 20
670.5930932269707
 30
0.0
 11
176.5270886479061
 21
672.4178358108411
 31
0.0
  0
LINE
  5
18A
330
50
100
AcDbEntity
  8
1
  6
Continuous
 62
     7
100
AcDbLine
 10
164.5270886479061
 20
670.1930932269706
 30
0.0
 11
164.5270886479061
 21
668.3683506431003
 31
0.0
  0
LINE
  5
18B
330
50
100
AcDbEntity
  8
1
  6
Continuous
 62
     7
100
AcDbLine
 10
177.0270886479061
 20
670.5930932269707
 30
0.0
 11
176.5270886479061
 21
670.5930932269707
 31
0.0
  0
LINE
  5
18C
330
50
100
AcDbEntity
  8
1
  6
Continuous
 62
     7
100
AcDbLine
 10
177.0270886479061
 20
676.0930932269707
 30
0.0
 11
176.5270886479061
 21
676.0930932269707
 31
0.0
  0
LINE
  5
18D
330
50
100
AcDbEntity
  8
1
  6
Continuous
 62
     7
100
AcDbLine
 10
177.0270886479061
 20
687.0892643822697
 30
0.0
 11
176.5270886479061
 21
687.0892643822697
 31
0.0
  0
LINE
  5
18E
330
50
100
AcDbEntity
  8
1
  6
Continuous
 62
     7
100
AcDbLine
 10
177.0270886479061
 20
676.0930932269707
 30
0.0
 11
176.5270886479061
 21
676.0930932269707
 31
0.0
  0
LINE
  5
18F
330
50
100
AcDbEntity
  8
1
  6
Continuous
 62
     7
100
AcDbLine
 10
177.0270886479061
 20
687.0892643822697
 30
0.0
 11
176.5270886479061
 21
687.0892643822697
 31
0.0
  0
LINE
  5
190
330
50
100
AcDbEntity
  8
1
  6
Continuous
 62
     7
100
AcDbLine
 10
164.5270886479061
 20
686.6930932269706
 30
0.0
 11
164.5270886479061
 21
684.8645217983992
 31
0.0
  0
LINE
  5
191
330
50
100
AcDbEntity
  8
1
  6
Continuous
 62
     7
100
AcDbLine
 10
177.0270886479061
 20
687.0892643822697
 30
0.0
 11
176.5270886479061
 21
687.0892643822697
 31
0.0
  0
LINE
  5
192
330
50
100
AcDbEntity
  8
1
  6
Continuous
 62
     7
100
AcDbLine
 10
177.0270886479061
 20
687.0892643822697
 30
0.0
 11
176.5270886479061
 21
687.0892643822697
 31
0.0
  0
LINE
  5
193
330
50
100
AcDbEntity
  8
1
  6
Continuous
 62
     7
100
AcDbLine
 10
176.5270886479061
 20
687.0892643822697
 30
0.0
 11
176.5270886479061
 21
688.9178358108411
 31
0.0
  0
LINE
  5
194
330
50
100
AcDbEntity
  8
1
  6
Continuous
 62
     7
100
AcDbLine
 10
168.568292360329
 20
671.0013339694551
 30
0.0
 11
164.5270886479061
 21
670.1930932269706
 31
0.0
  0
LINE
  5
195
330
50
100
AcDbEntity
  8
1
  6
Continuous
 62
     7
100
AcDbLine
 10
163.5270886479061
 20
689.7676849278535
 30
0.0
 11
163.5270886479061
 21
687.1930932269706
 31
0.0
  0
LINE
  5
196
330
50
100
AcDbEntity
  8
1
  6
Continuous
 62
     7
100
AcDbLine
 10
177.5270886479061
 20
689.5146726813869
 30
0.0
 11
177.5270886479061
 21
692.0930932269707
 31
0.0
  0
LINE
  5
197
330
50
100
AcDbEntity
  8
0
  6
Continuous
 62
     7
100
AcDbLine
 10
172.4858849354839
 20
653.2848524844862
 30
0.0
 11
177.0270886479061
 21
654.0930932269707
 31
0.0
  0
LINE
  5
198
330
50
100
AcDbEntity
  8
1
  6
Continuous
 62
     7
100
AcDbLine
 10
172.4858849354839
 20
653.2848524844862
 30
0.0
 11
176.5270886479061
 21
654.0930932269707
 31
0.0
  0
LINE
  5
199
330
50
100
AcDbEntity
  8
0
  6
Continuous
 62
     7
100
AcDbLine
 10
172.4858849354839
 20
658.7848524844862
 30
0.0
 11
177.0270886479061
 21
659.5930932269707
 31
0.0
  0
LINE
  5
19A
330
50
100
AcDbEntity
  8
1
  6
Continuous
 62
     7
100
AcDbLine
 10
172.4858849354839
 20
658.7848524844862
 30
0.0
 11
176.5270886479061
 21
659.5930932269707
 31
0.0
  0
LINE
  5
19B
330
50
100
AcDbEntity
  8
1
  6
Continuous
 62
     7
100
AcDbLine
 10
164.5270886479061
 20
659.1930932269706
 30
0.0
 11
164.5270886479061
 21
657.3683506431003
 31
0.0
  0
LINE
  5
19C
330
50
100
AcDbEntity
  8
1
  6
Continuous
 62
     7
100
AcDbLine
 10
163.5270886479061
 20
662.2715137725545
 30
0.0
 11
163.5270886479061
 21
659.6930932269706
 31
0.0
  0
LINE
  5
19D
330
50
100
AcDbEntity
  8
1
  6
Continuous
 62
     7
100
AcDbLine
 10
164.5270886479061
 20
664.6930932269706
 30
0.0
 11
164.5270886479061
 21
662.8683506431003
 31
0.0
  0
LINE
  5
19E
330
50
100
AcDbEntity
  8
0
  6
Continuous
 62
     7
100
AcDbLine
 10
168.568292360329
 20
660.0013339694551
 30
0.0
 11
164.0270886479061
 21
659.1930932269706
 31
0.0
  0
LINE
  5
19F
330
50
100
AcDbEntity
  8
1
  6
Continuous
 62
     7
100
AcDbLine
 10
168.568292360329
 20
660.0013339694551
 30
0.0
 11
164.5270886479061
 21
659.1930932269706
 31
0.0
  0
LINE
  5
1A0
330
50
100
AcDbEntity
  8
0
  6
Continuous
 62
     7
100
AcDbLine
 10
177.1115705554614
 20
661.5218615539802
 30
0.0
 11
176.5270886479061
 21
661.4178358108411
 31
0.0
  0
LINE
  5
1A1
330
50
100
AcDbEntity
  8
0
  6
Continuous
 62
     7
100
AcDbLine
 10
163.9426067403506
 20
662.7643248999611
 30
0.0
 11
164.5270886479061
 21
662.8683506431003
 31
0.0
  0
LINE
  5
1A2
330
50
100
AcDbEntity
  8
1
  6
Continuous
 62
     7
100
AcDbLine
 10
172.4858849354841
 20
664.2848524844862
 30
0.0
 11
176.5270886479061
 21
665.0930932269707
 31
0.0
  0
LINE
  5
1A3
330
50
100
AcDbEntity
  8
1
  6
Continuous
 62
     7
100
AcDbLine
 10
168.568292360329
 20
665.5013339694551
 30
0.0
 11
164.5270886479061
 21
664.6930932269706
 31
0.0
  0
LINE
  5
1A4
330
50
100
AcDbEntity
  8
0
  6
Continuous
 62
     7
100
AcDbLine
 10
168.568292360329
 20
665.5013339694551
 30
0.0
 11
164.0270886479061
 21
664.6930932269706
 31
0.0
  0
LINE
  5
1A5
330
50
100
AcDbEntity
  8
0
  6
Continuous
 62
     7
100
AcDbLine
 10
177.1115705554614
 20
667.0218615539802
 30
0.0
 11
176.5270886479061
 21
666.9178358108411
 31
0.0
  0
LINE
  5
1A6
330
50
100
AcDbEntity
  8
0
  6
Continuous
 62
     7
100
AcDbLine
 10
172.4858849354841
 20
669.7848524844862
 30
0.0
 11
177.0270886479061
 21
670.5930932269707
 31
0.0
  0
LINE
  5
1A7
330
50
100
AcDbEntity
  8
1
  6
Continuous
 62
     7
100
AcDbLine
 10
172.4858849354841
 20
669.7848524844862
 30
0.0
 11
176.5270886479061
 21
670.5930932269707
 31
0.0
  0
LINE
  5
1A8
330
50
100
AcDbEntity
  8
0
  6
Continuous
 62
     7
100
AcDbLine
 10
163.9426067403506
 20
668.2643248999611
 30
0.0
 11
164.5270886479061
 21
668.3683506431003
 31
0.0
  0
LINE
  5
1A9
330
50
100
AcDbEntity
  8
1
  6
Continuous
 62
     7
100
AcDbLine
 10
172.4858849354841
 20
675.2848524844862
 30
0.0
 11
176.5270886479061
 21
676.0930932269707
 31
0.0
  0
LINE
  5
1AA
330
50
100
AcDbEntity
  8
0
  6
Continuous
 62
     7
100
AcDbLine
 10
172.4858849354841
 20
675.2848524844862
 30
0.0
 11
177.0270886479061
 21
676.0930932269707
 31
0.0
  0
LINE
  5
1AB
330
50
100
AcDbEntity
  8
0
  6
Continuous
 62
     7
100
AcDbLine
 10
163.9426067403506
 20
673.7643248999611
 30
0.0
 11
164.5270886479061
 21
673.8683506431003
 31
0.0
  0
LINE
  5
1AC
330
50
100
AcDbEntity
  8
1
  6
Continuous
 62
     7
100
AcDbLine
 10
177.5270886479061
 20
673.0146726813869
 30
0.0
 11
177.5270886479061
 21
675.5930932269707
 31
0.0
  0
LINE
  5
1AD
330
50
100
AcDbEntity
  8
0
  6
Continuous
 62
     7
100
AcDbLine
 10
177.1115705554614
 20
672.5218615539802
 30
0.0
 11
176.5270886479061
 21
672.4178358108411
 31
0.0
  0
LINE
  5
1AE
330
50
100
AcDbEntity
  8
0
  6
Continuous
 62
     7
100
AcDbLine
 10
176.5270886479061
 20
688.9178358108411
 30
0.0
 11
168.568292360329
 21
687.5013339694551
 31
0.0
  0
LINE
  5
1AF
330
50
100
AcDbEntity
  8
0
  6
Continuous
 62
     7
100
AcDbLine
 10
177.1115705554614
 20
650.5218615539802
 30
0.0
 11
176.5270886479061
 21
650.4178358108411
 31
0.0
  0
LINE
  5
1B0
330
50
100
AcDbEntity
  8
1
  6
Continuous
 62
     7
100
AcDbLine
 10
168.568292360329
 20
649.0013339694553
 30
0.0
 11
164.5270886479061
 21
648.1930932269706
 31
0.0
  0
LINE
  5
1B1
330
50
100
AcDbEntity
  8
0
  6
Continuous
 62
     7
100
AcDbLine
 10
168.568292360329
 20
649.0013339694553
 30
0.0
 11
164.0270886479061
 21
648.1930932269706
 31
0.0
  0
LINE
  5
1B2
330
50
100
AcDbEntity
  8
0
  6
Continuous
 62
     7
100
AcDbLine
 10
163.9426067403506
 20
646.2643248999611
 30
0.0
 11
164.5270886479061
 21
646.3683506431003
 31
0.0
  0
LINE
  5
1B3
330
50
100
AcDbEntity
  8
1
  6
Continuous
 62
     7
100
AcDbLine
 10
168.568292360329
 20
654.5013339694553
 30
0.0
 11
164.5270886479061
 21
653.6930932269706
 31
0.0
  0
LINE
  5
1B4
330
50
100
AcDbEntity
  8
0
  6
Continuous
 62
     7
100
AcDbLine
 10
168.568292360329
 20
654.5013339694553
 30
0.0
 11
164.0270886479061
 21
653.6930932269706
 31
0.0
  0
LINE
  5
1B5
330
50
100
AcDbEntity
  8
0
  6
Continuous
 62
     7
100
AcDbLine
 10
177.1115705554614
 20
656.0218615539802
 30
0.0
 11
176.5270886479061
 21
655.9178358108411
 31
0.0
  0
LINE
  5
1B6
330
50
100
AcDbEntity
  8
0
  6
Continuous
 62
     7
100
AcDbLine
 10
163.9426067403506
 20
657.2643248999611
 30
0.0
 11
164.5270886479061
 21
657.3683506431003
 31
0.0
  0
LINE
  5
1B7
330
50
100
AcDbEntity
  8
0
  6
Continuous
 62
     7
100
AcDbLine
 10
163.9426067403506
 20
651.7643248999611
 30
0.0
 11
164.5270886479061
 21
651.8683506431003
 31
0.0
  0
LINE
  5
1B8
330
50
100
AcDbEntity
  8
1
  6
Continuous
 62
     7
100
AcDbLine
 10
164.5270886479061
 20
642.6930932269706
 30
0.0
 11
164.5270886479061
 21
640.8683506431003
 31
0.0
  0
LINE
  5
1B9
330
50
100
AcDbEntity
  8
1
  6
Continuous
 62
     7
100
AcDbLine
 10
176.5270886479061
 20
643.0930932269707
 30
0.0
 11
176.5270886479061
 21
644.9178358108411
 31
0.0
  0
LINE
  5
1BA
330
50
100
AcDbEntity
  8
1
  6
Continuous
 62
     7
100
AcDbLine
 10
168.568292360329
 20
643.5013339694553
 30
0.0
 11
164.5270886479061
 21
642.6930932269706
 31
0.0
  0
LINE
  5
1BB
330
50
100
AcDbEntity
  8
0
  6
Continuous
 62
     7
100
AcDbLine
 10
168.568292360329
 20
643.5013339694553
 30
0.0
 11
164.0270886479061
 21
642.6930932269706
 31
0.0
  0
LINE
  5
1BC
330
50
100
AcDbEntity
  8
0
  6
Continuous
 62
     7
100
AcDbLine
 10
177.1115705554614
 20
645.0218615539802
 30
0.0
 11
176.5270886479061
 21
644.9178358108411
 31
0.0
  0
LINE
  5
1BD
330
50
100
AcDbEntity
  8
1
  6
Continuous
 62
     7
100
AcDbLine
 10
177.5270886479061
 20
645.5146726813869
 30
0.0
 11
177.5270886479061
 21
648.0930932269707
 31
0.0
  0
LINE
  5
1BE
330
50
100
AcDbEntity
  8
1
  6
Continuous
 62
     7
100
AcDbLine
 10
163.5270886479061
 20
645.7715137725545
 30
0.0
 11
163.5270886479061
 21
643.1930932269706
 31
0.0
  0
LINE
  5
1BF
330
50
100
AcDbEntity
  8
1
  6
Continuous
 62
     7
100
AcDbLine
 10
164.0270886479061
 20
642.6930932269706
 30
0.0
 11
164.5270886479061
 21
642.6930932269706
 31
0.0
  0
LINE
  5
1C0
330
50
100
AcDbEntity
  8
1
  6
Continuous
 62
     7
100
AcDbLine
 10
177.5270886479061
 20
640.0146726813869
 30
0.0
 11
177.5270886479061
 21
642.5930932269707
 31
0.0
  0
LINE
  5
1C1
330
50
100
AcDbEntity
  8
0
  6
Continuous
 62
     7
100
AcDbLine
 10
172.4858849354839
 20
642.2848524844862
 30
0.0
 11
177.0270886479061
 21
643.0930932269707
 31
0.0
  0
LINE
  5
1C2
330
50
100
AcDbEntity
  8
1
  6
Continuous
 62
     7
100
AcDbLine
 10
177.0270886479061
 20
643.0930932269707
 30
0.0
 11
176.5270886479061
 21
643.0930932269707
 31
0.0
  0
LINE
  5
1C3
330
50
100
AcDbEntity
  8
1
  6
Continuous
 62
     7
100
AcDbLine
 10
172.4858849354839
 20
642.2848524844862
 30
0.0
 11
176.5270886479061
 21
643.0930932269707
 31
0.0
  0
LINE
  5
1C4
330
50
100
AcDbEntity
  8
0
  6
Continuous
 62
     7
100
AcDbLine
 10
163.9426067403506
 20
640.7643248999611
 30
0.0
 11
164.5270886479061
 21
640.8683506431003
 31
0.0
  0
LINE
  5
1C5
330
50
100
AcDbEntity
  8
1
  6
Continuous
 62
     7
100
AcDbLine
 10
163.5270886479061
 20
640.2715137725545
 30
0.0
 11
163.5270886479061
 21
637.6930932269706
 31
0.0
  0
LINE
  5
1C6
330
50
100
AcDbEntity
  8
1
  6
Continuous
 62
     7
100
AcDbLine
 10
176.5270886479061
 20
692.5892643822697
 30
0.0
 11
176.5270886479061
 21
693.8680932269706
 31
0.0
  0
LINE
  5
1C7
330
50
100
AcDbEntity
  8
1
  6
Continuous
 62
     7
100
AcDbLine
 10
177.0270886479061
 20
692.5892643822697
 30
0.0
 11
176.5270886479061
 21
692.5892643822697
 31
0.0
  0
LINE
  5
1C8
330
50
100
AcDbEntity
  8
1
  6
Continuous
 62
     7
100
AcDbLine
 10
177.0270886479061
 20
692.5892643822697
 30
0.0
 11
176.5270886479061
 21
692.5892643822697
 31
0.0
  0
LINE
  5
1C9
330
50
100
AcDbEntity
  8
1
  6
Continuous
 62
     7
100
AcDbLine
 10
177.0270886479061
 20
692.5892643822697
 30
0.0
 11
176.5270886479061
 21
692.5892643822697
 31
0.0
  0
LINE
  5
1CA
330
50
100
AcDbEntity
  8
1
  6
Continuous
 62
     7
100
AcDbLine
 10
177.0270886479061
 20
692.5892643822697
 30
0.0
 11
176.5270886479061
 21
692.5892643822697
 31
0.0
  0
LINE
  5
1CB
330
50
100
AcDbEntity
  8
1
  6
Continuous
 62
     7
100
AcDbLine
 10
172.4858849354841
 20
691.7810236397852
 30
0.0
 11
176.5270886479061
 21
692.5892643822697
 31
0.0
  0
LINE
  5
1CC
330
50
100
AcDbEntity
  8
0
  6
Continuous
 62
     7
100
AcDbLine
 10
164.5270886479061
 20
690.3645217983992
 30
0.0
 11
172.4858849354841
 21
691.7810236397852
 31
0.0
  0
LINE
  5
1CD
330
50
100
AcDbEntity
  8
0
  6
Continuous
 62
     7
100
AcDbLine
 10
163.9426067403506
 20
690.2604960552601
 30
0.0
 11
164.5270886479061
 21
690.3645217983992
 31
0.0
  0
LINE
  5
1CE
330
50
100
AcDbEntity
  8
0
  6
Continuous
 62
     7
100
AcDbLine
 10
168.568292360329
 20
693.0013339694551
 30
0.0
 11
164.0270886479061
 21
692.1930932269706
 31
0.0
  0
LINE
  5
1CF
330
50
100
AcDbEntity
  8
1
  6
Continuous
 62
     7
100
AcDbLine
 10
168.568292360329
 20
693.0013339694551
 30
0.0
 11
164.5270886479061
 21
692.1930932269706
 31
0.0
  0
LINE
  5
1D0
330
50
100
AcDbEntity
  8
1
  6
Continuous
 62
     7
100
AcDbLine
 10
164.0270886479061
 20
692.1930932269706
 30
0.0
 11
164.5270886479061
 21
692.1930932269706
 31
0.0
  0
LINE
  5
1D1
330
50
100
AcDbEntity
  8
1
  6
Continuous
 62
     7
100
AcDbLine
 10
163.5270886479061
 20
693.8680932269706
 30
0.0
 11
163.5270886479061
 21
692.6930932269706
 31
0.0
  0
LINE
  5
1D2
330
50
100
AcDbEntity
  8
0
  6
Continuous
 62
     7
100
AcDbLine
 10
173.4382898141894
 20
693.8680932269706
 30
0.0
 11
168.568292360329
 21
693.0013339694551
 31
0.0
  0
LINE
  5
1D3
330
50
100
AcDbEntity
  8
1
  6
Continuous
 62
     7
100
AcDbLine
 10
168.568292360329
 20
682.0013339694551
 30
0.0
 11
164.5270886479061
 21
681.1930932269706
 31
0.0
  0
LINE
  5
1D4
330
50
100
AcDbEntity
  8
0
  6
Continuous
 62
     7
100
AcDbLine
 10
488.8697674484258
 20
335.3680932269714
 30
0.0
 11
487.4532656070398
 21
343.3268895145484
 31
0.0
  0
LINE
  5
1D5
330
50
100
AcDbEntity
  8
0
  6
Continuous
 62
     7
100
AcDbLine
 10
494.3697674484258
 20
335.3680932269714
 30
0.0
 11
492.9532656070398
 21
343.3268895145484
 31
0.0
  0
LINE
  5
1D6
330
50
100
AcDbEntity
  8
0
  6
Continuous
 62
     7
100
AcDbLine
 10
484.820282280685
 20
347.3680932269714
 30
0.0
 11
486.236784122071
 21
339.4092969393934
 31
0.0
  0
LINE
  5
1D7
330
50
100
AcDbEntity
  8
0
  6
Continuous
 62
     7
100
AcDbLine
 10
490.320282280685
 20
347.3680932269714
 30
0.0
 11
491.736784122071
 21
339.4092969393934
 31
0.0
  0
LINE
  5
1D8
330
50
100
AcDbEntity
  8
0
  6
Continuous
 62
     7
100
AcDbLine
 10
495.8164534359839
 20
347.3680932269714
 30
0.0
 11
497.2329552773699
 21
339.4092969393934
 31
0.0
  0
LINE
  5
1D9
330
50
100
AcDbEntity
  8
1
  6
Continuous
 62
     7
100
AcDbLine
 10
163.5270886479061
 20
678.7676849278535
 30
0.0
 11
163.5270886479061
 21
676.1930932269706
 31
0.0
  0
LINE
  5
1DA
330
50
100
AcDbEntity
  8
0
  6
Continuous
 62
     7
100
AcDbLine
 10
164.5270886479061
 20
679.3645217983992
 30
0.0
 11
172.4858849354841
 21
680.7810236397852
 31
0.0
  0
LINE
  5
1DB
330
50
100
AcDbEntity
  8
0
  6
Continuous
 62
     7
100
AcDbLine
 10
176.5270886479061
 20
683.4178358108411
 30
0.0
 11
168.568292360329
 21
682.0013339694551
 31
0.0
  0
LINE
  5
1DC
330
50
100
AcDbEntity
  8
0
  6
Continuous
 62
     7
100
AcDbLine
 10
176.5270886479061
 20
677.9178358108411
 30
0.0
 11
168.568292360329
 21
676.5013339694551
 31
0.0
  0
LINE
  5
1DD
330
50
100
AcDbEntity
  8
0
  6
Continuous
 62
     7
100
AcDbLine
 10
176.5270886479061
 20
672.4178358108411
 30
0.0
 11
168.568292360329
 21
671.0013339694551
 31
0.0
  0
LINE
  5
1DE
330
50
100
AcDbEntity
  8
0
  6
Continuous
 62
     7
100
AcDbLine
 10
164.5270886479061
 20
673.8683506431003
 30
0.0
 11
172.4858849354841
 21
675.2848524844862
 31
0.0
  0
LINE
  5
1DF
330
50
100
AcDbEntity
  8
0
  6
Continuous
 62
     7
100
AcDbLine
 10
164.5270886479061
 20
668.3683506431003
 30
0.0
 11
172.4858849354841
 21
669.7848524844862
 31
0.0
  0
LINE
  5
1E0
330
50
100
AcDbEntity
  8
0
  6
Continuous
 62
     7
100
AcDbLine
 10
164.5270886479061
 20
662.8683506431003
 30
0.0
 11
172.4858849354841
 21
664.2848524844862
 31
0.0
  0
LINE
  5
1E1
330
50
100
AcDbEntity
  8
0
  6
Continuous
 62
     7
100
AcDbLine
 10
176.5270886479061
 20
666.9178358108411
 30
0.0
 11
168.568292360329
 21
665.5013339694551
 31
0.0
  0
LINE
  5
1E2
330
50
100
AcDbEntity
  8
0
  6
Continuous
 62
     7
100
AcDbLine
 10
176.5270886479061
 20
661.4178358108411
 30
0.0
 11
168.568292360329
 21
660.0013339694551
 31
0.0
  0
LINE
  5
1E3
330
50
100
AcDbEntity
  8
0
  6
Continuous
 62
     7
100
AcDbLine
 10
176.5270886479061
 20
655.9178358108411
 30
0.0
 11
168.568292360329
 21
654.5013339694553
 31
0.0
  0
LINE
  5
1E4
330
50
100
AcDbEntity
  8
0
  6
Continuous
 62
     7
100
AcDbLine
 10
176.5270886479061
 20
650.4178358108411
 30
0.0
 11
168.568292360329
 21
649.0013339694553
 31
0.0
  0
LINE
  5
1E5
330
50
100
AcDbEntity
  8
0
  6
Continuous
 62
     7
100
AcDbLine
 10
164.5270886479061
 20
651.8683506431003
 30
0.0
 11
172.4858849354839
 21
653.2848524844862
 31
0.0
  0
LINE
  5
1E6
330
50
100
AcDbEntity
  8
0
  6
Continuous
 62
     7
100
AcDbLine
 10
164.5270886479061
 20
657.3683506431003
 30
0.0
 11
172.4858849354839
 21
658.7848524844862
 31
0.0
  0
LINE
  5
1E7
330
50
100
AcDbEntity
  8
0
  6
Continuous
 62
     7
100
AcDbLine
 10
164.5270886479061
 20
646.3683506431003
 30
0.0
 11
172.4858849354839
 21
647.7848524844862
 31
0.0
  0
LINE
  5
1E8
330
50
100
AcDbEntity
  8
0
  6
Continuous
 62
     7
100
AcDbLine
 10
164.5270886479061
 20
640.8683506431003
 30
0.0
 11
172.4858849354839
 21
642.2848524844862
 31
0.0
  0
LINE
  5
1E9
330
50
100
AcDbEntity
  8
0
  6
Continuous
 62
     7
100
AcDbLine
 10
176.5270886479061
 20
644.9178358108411
 30
0.0
 11
168.568292360329
 21
643.5013339694553
 31
0.0
  0
LINE
  5
1EA
330
50
100
AcDbEntity
  8
1
  6
Continuous
 62
     7
100
AcDbLine
 10
354.9450248645551
 20
280.5680932269697
 30
0.0
 11
355.4450248645551
 21
280.5680932269697
 31
0.0
  0
LINE
  5
1EB
330
50
100
AcDbEntity
  8
1
  6
Continuous
 62
     7
100
AcDbLine
 10
359.486228576978
 20
281.3763339694546
 30
0.0
 11
355.4450248645551
 21
280.5680932269697
 31
0.0
  0
LINE
  5
1EC
330
50
100
AcDbEntity
  8
0
  6
Continuous
 62
     7
100
AcDbLine
 10
359.486228576978
 20
281.3763339694546
 30
0.0
 11
354.9450248645551
 21
280.5680932269697
 31
0.0
  0
LINE
  5
1ED
330
50
100
AcDbEntity
  8
0
  6
Continuous
 62
     7
100
AcDbLine
 10
368.0295067721104
 20
282.8968615539793
 30
0.0
 11
367.4450248645551
 21
282.7928358108402
 31
0.0
  0
LINE
  5
1EE
330
50
100
AcDbEntity
  8
1
  6
Continuous
 62
     7
100
AcDbLine
 10
368.4450248645551
 20
283.389672681386
 30
0.0
 11
368.4450248645551
 21
284.3065368710917
 31
0.0
  0
LINE
  5
1EF
330
50
100
AcDbEntity
  8
0
  6
Continuous
 62
     7
100
AcDbLine
 10
367.4450248645551
 20
282.7928358108402
 30
0.0
 11
359.486228576978
 21
281.3763339694546
 31
0.0
  0
LINE
  5
1F0
330
50
100
AcDbEntity
  8
1
  6
Continuous
 62
     7
100
AcDbLine
 10
367.4450248645551
 20
280.9680932269698
 30
0.0
 11
367.4450248645551
 21
282.7928358108402
 31
0.0
  0
LINE
  5
1F1
330
50
100
AcDbEntity
  8
1
  6
Continuous
 62
     7
100
AcDbLine
 10
355.4450248645551
 20
280.5680932269697
 30
0.0
 11
355.4450248645551
 21
278.7433506430994
 31
0.0
  0
LINE
  5
1F2
330
50
100
AcDbEntity
  8
1
  6
Continuous
 62
     7
100
AcDbLine
 10
355.4450248645551
 20
275.0680932269697
 30
0.0
 11
355.4450248645551
 21
273.2433506430994
 31
0.0
  0
LINE
  5
1F3
330
50
100
AcDbEntity
  8
0
  6
Continuous
 62
     7
100
AcDbLine
 10
359.486228576978
 20
275.8763339694546
 30
0.0
 11
354.9450248645551
 21
275.0680932269697
 31
0.0
  0
LINE
  5
1F4
330
50
100
AcDbEntity
  8
1
  6
Continuous
 62
     7
100
AcDbLine
 10
359.486228576978
 20
275.8763339694546
 30
0.0
 11
355.4450248645551
 21
275.0680932269697
 31
0.0
  0
LINE
  5
1F5
330
50
100
AcDbEntity
  8
1
  6
Continuous
 62
     7
100
AcDbLine
 10
354.9450248645551
 20
275.0680932269697
 30
0.0
 11
355.4450248645551
 21
275.0680932269697
 31
0.0
  0
LINE
  5
1F6
330
50
100
AcDbEntity
  8
1
  6
Continuous
 62
     7
100
AcDbLine
 10
354.4450248645551
 20
278.1465137725537
 30
0.0
 11
354.4450248645551
 21
275.5680932269697
 31
0.0
  0
LINE
  5
1F7
330
50
100
AcDbEntity
  8
0
  6
Continuous
 62
     7
100
AcDbLine
 10
354.8605429569998
 20
278.6393248999605
 30
0.0
 11
355.4450248645551
 21
278.7433506430994
 31
0.0
  0
LINE
  5
1F8
330
50
100
AcDbEntity
  8
0
  6
Continuous
 62
     7
100
AcDbLine
 10
355.4450248645551
 20
278.7433506430994
 30
0.0
 11
363.4038211521329
 21
280.1598524844856
 31
0.0
  0
LINE
  5
1F9
330
50
100
AcDbEntity
  8
0
  6
Continuous
 62
     7
100
AcDbLine
 10
363.4038211521329
 20
280.1598524844856
 30
0.0
 11
367.9450248645551
 21
280.9680932269698
 31
0.0
  0
LINE
  5
1FA
330
50
100
AcDbEntity
  8
1
  6
Continuous
 62
     7
100
AcDbLine
 10
363.4038211521329
 20
280.1598524844856
 30
0.0
 11
367.4450248645551
 21
280.9680932269698
 31
0.0
  0
LINE
  5
1FB
330
50
100
AcDbEntity
  8
1
  6
Continuous
 62
     7
100
AcDbLine
 10
367.9450248645551
 20
280.9680932269698
 30
0.0
 11
367.4450248645551
 21
280.9680932269698
 31
0.0
  0
LINE
  5
1FC
330
50
100
AcDbEntity
  8
1
  6
Continuous
 62
     7
100
AcDbLine
 10
368.4450248645551
 20
277.889672681386
 30
0.0
 11
368.4450248645551
 21
280.4680932269698
 31
0.0
  0
LINE
  5
1FD
330
50
100
AcDbEntity
  8
0
  6
Continuous
 62
     7
100
AcDbLine
 10
368.0295067721104
 20
277.3968615539793
 30
0.0
 11
367.4450248645551
 21
277.2928358108402
 31
0.0
  0
LINE
  5
1FE
330
50
100
AcDbEntity
  8
0
  6
Continuous
 62
     7
100
AcDbLine
 10
367.4450248645551
 20
277.2928358108402
 30
0.0
 11
359.486228576978
 21
275.8763339694546
 31
0.0
  0
LINE
  5
1FF
330
50
100
AcDbEntity
  8
1
  6
Continuous
 62
     7
100
AcDbLine
 10
367.4450248645551
 20
275.4680932269698
 30
0.0
 11
367.4450248645551
 21
277.2928358108402
 31
0.0
  0
LINE
  5
200
330
50
100
AcDbEntity
  8
0
  6
Continuous
 62
     7
100
AcDbLine
 10
354.8605429569998
 20
273.1393248999605
 30
0.0
 11
355.4450248645551
 21
273.2433506430994
 31
0.0
  0
LINE
  5
201
330
50
100
AcDbEntity
  8
1
  6
Continuous
 62
     7
100
AcDbLine
 10
354.4450248645551
 20
272.6465137725537
 30
0.0
 11
354.4450248645551
 21
270.0680932269697
 31
0.0
  0
LINE
  5
202
330
50
100
AcDbEntity
  8
1
  6
Continuous
 62
     7
100
AcDbLine
 10
354.9450248645551
 20
269.5680932269697
 30
0.0
 11
355.4450248645551
 21
269.5680932269697
 31
0.0
  0
LINE
  5
203
330
50
100
AcDbEntity
  8
1
  6
Continuous
 62
     7
100
AcDbLine
 10
359.486228576978
 20
270.3763339694546
 30
0.0
 11
355.4450248645551
 21
269.5680932269697
 31
0.0
  0
LINE
  5
204
330
50
100
AcDbEntity
  8
0
  6
Continuous
 62
     7
100
AcDbLine
 10
359.486228576978
 20
270.3763339694546
 30
0.0
 11
354.9450248645551
 21
269.5680932269697
 31
0.0
  0
LINE
  5
205
330
50
100
AcDbEntity
  8
0
  6
Continuous
 62
     7
100
AcDbLine
 10
355.4450248645551
 20
273.2433506430994
 30
0.0
 11
363.4038211521329
 21
274.6598524844856
 31
0.0
  0
LINE
  5
206
330
50
100
AcDbEntity
  8
0
  6
Continuous
 62
     7
100
AcDbLine
 10
368.0295067721104
 20
271.8968615539793
 30
0.0
 11
367.4450248645551
 21
271.7928358108402
 31
0.0
  0
LINE
  5
207
330
50
100
AcDbEntity
  8
1
  6
Continuous
 62
     7
100
AcDbLine
 10
368.4450248645551
 20
272.389672681386
 30
0.0
 11
368.4450248645551
 21
274.9680932269698
 31
0.0
  0
LINE
  5
208
330
50
100
AcDbEntity
  8
1
  6
Continuous
 62
     7
100
AcDbLine
 10
367.9450248645551
 20
275.4680932269698
 30
0.0
 11
367.4450248645551
 21
275.4680932269698
 31
0.0
  0
LINE
  5
209
330
50
100
AcDbEntity
  8
1
  6
Continuous
 62
     7
100
AcDbLine
 10
363.4038211521329
 20
274.6598524844856
 30
0.0
 11
367.4450248645551
 21
275.4680932269698
 31
0.0
  0
LINE
  5
20A
330
50
100
AcDbEntity
  8
0
  6
Continuous
 62
     7
100
AcDbLine
 10
363.4038211521329
 20
274.6598524844856
 30
0.0
 11
367.9450248645551
 21
275.4680932269698
 31
0.0
  0
LINE
  5
20B
330
50
100
AcDbEntity
  8
0
  6
Continuous
 62
     7
100
AcDbLine
 10
367.4450248645551
 20
271.7928358108402
 30
0.0
 11
359.486228576978
 21
270.3763339694546
 31
0.0
  0
LINE
  5
20C
330
50
100
AcDbEntity
  8
1
  6
Continuous
 62
     7
100
AcDbLine
 10
367.4450248645551
 20
269.9680932269698
 30
0.0
 11
367.4450248645551
 21
271.7928358108402
 31
0.0
  0
LINE
  5
20D
330
50
100
AcDbEntity
  8
1
  6
Continuous
 62
     7
100
AcDbLine
 10
355.4450248645551
 20
269.5680932269697
 30
0.0
 11
355.4450248645551
 21
267.7680932269714
 31
0.0
  0
LINE
  5
20E
330
50
100
AcDbEntity
  8
0
  6
Continuous
 62
     7
100
AcDbLine
 10
363.4038211521329
 20
269.1598524844856
 30
0.0
 11
367.9450248645551
 21
269.9680932269698
 31
0.0
  0
LINE
  5
20F
330
50
100
AcDbEntity
  8
1
  6
Continuous
 62
     7
100
AcDbLine
 10
363.4038211521329
 20
269.1598524844856
 30
0.0
 11
367.4450248645551
 21
269.9680932269698
 31
0.0
  0
LINE
  5
210
330
50
100
AcDbEntity
  8
1
  6
Continuous
 62
     7
100
AcDbLine
 10
367.9450248645551
 20
269.9680932269698
 30
0.0
 11
367.4450248645551
 21
269.9680932269698
 31
0.0
  0
LINE
  5
211
330
50
100
AcDbEntity
  8
0
  6
Continuous
 62
     7
100
AcDbLine
 10
355.5840442282527
 20
267.7680932269714
 30
0.0
 11
363.4038211521329
 21
269.1598524844856
 31
0.0
  0
LINE
  5
212
330
50
100
AcDbEntity
  8
1
  6
Continuous
 62
     7
100
AcDbLine
 10
368.4450248645551
 20
267.7680932269714
 30
0.0
 11
368.4450248645551
 21
269.4680932269698
 31
0.0
  0
LINE
  5
213
330
50
100
AcDbEntity
  8
0
  6
Continuous
 62
     7
100
AcDbLine
 10
506.7124276928448
 20
347.9525751345267
 30
0.0
 11
506.8164534359837
 21
347.3680932269714
 31
0.0
  0
LINE
  5
214
330
50
100
AcDbEntity
  8
0
  6
Continuous
 62
     7
100
AcDbLine
 10
506.8164534359837
 20
347.3680932269714
 30
0.0
 11
506.8828098311303
 21
346.9952613562908
 31
0.0
  0
LINE
  5
215
330
50
100
AcDbEntity
  8
1
  6
Continuous
 62
     7
100
AcDbLine
 10
506.2196165654382
 20
348.3680932269714
 30
0.0
 11
503.6450248645554
 21
348.3680932269714
 31
0.0
  0
LINE
  5
216
330
50
100
AcDbEntity
  8
1
  6
Continuous
 62
     7
100
AcDbLine
 10
503.1450248645554
 20
347.8680932269714
 30
0.0
 11
503.1450248645554
 21
347.3680932269714
 31
0.0
  0
LINE
  5
217
330
50
100
AcDbEntity
  8
0
  6
Continuous
 62
     7
100
AcDbLine
 10
503.9532656070398
 20
343.3268895145484
 30
0.0
 11
503.1450248645554
 21
347.8680932269714
 31
0.0
  0
LINE
  5
218
330
50
100
AcDbEntity
  8
0
  6
Continuous
 62
     7
100
AcDbLine
 10
503.9532656070398
 20
343.3268895145484
 30
0.0
 11
503.1450248645554
 21
347.8680932269714
 31
0.0
  0
LINE
  5
219
330
50
100
AcDbEntity
  8
1
  6
Continuous
 62
     7
100
AcDbLine
 10
503.9532656070398
 20
343.3268895145484
 30
0.0
 11
503.1450248645554
 21
347.3680932269714
 31
0.0
  0
LINE
  5
21A
330
50
100
AcDbEntity
  8
0
  6
Continuous
 62
     7
100
AcDbLine
 10
506.8828098311303
 20
346.9952613562908
 30
0.0
 11
508.2329552773699
 21
339.4092969393934
 31
0.0
  0
LINE
  5
21B
330
50
100
AcDbEntity
  8
0
  6
Continuous
 62
     7
100
AcDbLine
 10
505.4737931915649
 20
334.7836113194161
 30
0.0
 11
505.3825889531524
 21
335.2960539671282
 31
0.0
  0
LINE
  5
21C
330
50
100
AcDbEntity
  8
1
  6
Continuous
 62
     7
100
AcDbLine
 10
508.2329552773699
 20
339.4092969393934
 30
0.0
 11
508.9450248645553
 21
335.8489490034665
 31
0.0
  0
LINE
  5
21D
330
50
100
AcDbEntity
  8
1
  6
Continuous
 62
     7
100
AcDbLine
 10
505.9666043189716
 20
334.3680932269714
 30
0.0
 11
508.5450248645554
 21
334.3680932269714
 31
0.0
  0
LINE
  5
21E
330
50
100
AcDbEntity
  8
0
  6
Continuous
 62
     7
100
AcDbLine
 10
505.3825889531524
 20
335.2960539671282
 30
0.0
 11
505.3697674484258
 21
335.3680932269714
 31
0.0
  0
LINE
  5
21F
330
50
100
AcDbEntity
  8
0
  6
Continuous
 62
     7
100
AcDbLine
 10
505.3697674484258
 20
335.3680932269714
 30
0.0
 11
503.9532656070398
 21
343.3268895145484
 31
0.0
  0
LINE
  5
220
330
50
100
AcDbEntity
  8
1
  6
Continuous
 62
     7
100
AcDbLine
 10
508.6450248645554
 20
347.3680932269714
 30
0.0
 11
506.8164534359837
 21
347.3680932269714
 31
0.0
  0
LINE
  5
221
330
50
100
AcDbEntity
  8
1
  6
Continuous
 62
     7
100
AcDbLine
 10
508.6450248645554
 20
347.8680932269714
 30
0.0
 11
508.6450248645554
 21
347.3680932269714
 31
0.0
  0
LINE
  5
222
330
50
100
AcDbEntity
  8
0
  6
Continuous
 62
     7
100
AcDbLine
 10
508.9450248645553
 20
346.1825049583832
 30
0.0
 11
508.6450248645554
 21
347.8680932269714
 31
0.0
  0
LINE
  5
223
330
50
100
AcDbEntity
  8
1
  6
Continuous
 62
     7
100
AcDbLine
 10
508.9450248645553
 20
345.8680932269712
 30
0.0
 11
508.6450248645554
 21
347.3680932269714
 31
0.0
  0
LINE
  5
224
330
50
100
AcDbEntity
  8
1
  6
PHANTOM
 62
     5
100
AcDbLine
 10
481.6450248645554
 20
348.3680932269714
 30
0.0
 11
411.4450248645549
 21
348.3680932269713
 31
0.0
  0
LINE
  5
225
330
50
100
AcDbEntity
  8
1
  6
PHANTOM
 62
     5
100
AcDbLine
 10
411.4450248645549
 20
334.3680932269715
 30
0.0
 11
483.9666043189716
 21
334.3680932269714
 31
0.0
  0
LINE
  5
226
330
50
100
AcDbEntity
  8
1
  6
Continuous
 62
     7
100
AcDbLine
 10
354.4450248645551
 20
283.389672681386
 30
0.0
 11
354.4450248645551
 21
281.0680932269697
 31
0.0
  0
LINE
  5
227
330
50
100
AcDbEntity
  8
1
  6
PHANTOM
 62
     5
100
AcDbLine
 10
368.4450248645551
 20
284.3065368710917
 30
0.0
 11
368.4450248645551
 21
291.3680932269713
 31
0.0
  0
LINE
  5
228
330
50
100
AcDbEntity
  8
1
  6
PHANTOM
 62
     5
100
AcDbLine
 10
354.4450248645551
 20
283.389672681386
 30
0.0
 11
354.4450248645551
 21
291.3680932269713
 31
0.0
  0
LINE
  5
229
330
50
100
AcDbEntity
  8
1
  6
PHANTOM
 62
     5
100
AcDbLine
 10
177.5270886479061
 20
640.0146726813869
 30
0.0
 11
177.5270886479057
 21
546.3680932269706
 31
0.0
  0
LINE
  5
22A
330
50
100
AcDbEntity
  8
1
  6
PHANTOM
 62
     5
100
AcDbLine
 10
163.5270886479057
 20
546.3680932269706
 30
0.0
 11
163.5270886479061
 21
637.6930932269706
 31
0.0
  0
LINE
  5
22B
330
50
100
AcDbEntity
  8
1
  6
PHANTOM
 62
     5
100
AcDbLine
 10
163.5270886479061
 20
637.6930932269706
 30
0.0
 11
163.5270886479052
 21
640.0146726813869
 31
0.0
  0
ARC
  5
22C
330
50
100
AcDbEntity
  8
1
  6
PHANTOM
 62
     5
100
AcDbCircle
 10
170.5270886479057
 20
341.3680932269709
 30
0.0
 40
7.0
100
AcDbArc
 50
0.0
 51
180.0
  0
ARC
  5
22D
330
50
100
AcDbEntity
  8
1
  6
PHANTOM
 62
     5
100
AcDbCircle
 10
170.5270886479057
 20
546.3680932269706
 30
0.0
 40
7.0
100
AcDbArc
 50
180.0
 51
0.0
  0
SPLINE
  5
22E
330
50
100
AcDbEntity
  8
1
  6
Continuous
 62
     2
100
AcDbSpline
210
0.0
220
0.0
230
1.0
 70
     8
 71
     3
 72
     9
 73
     5
 74
     3
 42
0.000000001
 43
0.0000000001
 44
0.00000001
 40
0.0
 40
0.0
 40
0.0
 40
0.0
 40
6.990527764589713
 40
14.04907306511523
 40
14.04907306511523
 40
14.04907306511523
 40
14.04907306511523
 10
163.5270886479057
 20
283.3896726813853
 30
0.0
 10
165.8371589029376
 20
283.723758987068
 30
0.0
 10
170.4797762995385
 20
284.3951822240193
 30
0.0
 10
175.1704147398497
 20
284.3361805461478
 30
0.0
 10
177.5270886479057
 20
284.3065368710912
 30
0.0
 11
163.5270886479057
 21
283.3896726813853
 31
0.0
 11
170.4691887113483
 21
284.211089228537
 31
0.0
 11
177.5270886479057
 21
284.3065368710912
 31
0.0
  0
SPLINE
  5
22F
330
50
100
AcDbEntity
  8
1
  6
Continuous
 62
     2
100
AcDbSpline
210
0.0
220
0.0
230
1.0
 70
     8
 71
     3
 72
    13
 73
     9
 74
     7
 42
0.000000001
 43
0.0000000001
 44
0.00000001
 40
0.0
 40
0.0
 40
0.0
 40
0.0
 40
2.910331871439217
 40
5.827967244083153
 40
7.44917081891067
 40
9.098349475153436
 40
12.14675603405244
 40
15.19964918266105
 40
15.19964918266105
 40
15.19964918266105
 40
15.19964918266105
 10
481.6450248645554
 20
348.3680932269714
 30
0.0
 10
481.8032827477222
 20
347.3734274381876
 30
0.0
 10
482.1201956511102
 20
345.3815997351161
 30
0.0
 10
484.2613572780072
 20
343.8078499162982
 30
0.0
 10
485.0556327929946
 20
341.861136805657
 30
0.0
 10
485.4144182367228
 20
339.7863967445209
 30
0.0
 10
485.3327711777432
 20
337.1300878570438
 30
0.0
 10
484.422216467889
 20
335.2892093320118
 30
0.0
 10
483.9666043189716
 20
334.3680932269714
 30
0.0
 11
481.6450248645554
 21
348.3680932269714
 31
0.0
 11
482.4585119879823
 21
345.5737649946261
 31
0.0
 11
484.3356455669669
 21
343.3401657216937
 31
0.0
 11
484.9945184394962
 21
341.8588866896352
 31
0.0
 11
485.2959951704938
 21
340.2374977718357
 31
0.0
 11
485.1215592811722
 21
337.1940860872977
 31
0.0
 11
483.9666043189716
 21
334.3680932269714
 31
0.0
  0
SPLINE
  5
230
330
50
100
AcDbEntity
  8
1
  6
Continuous
 62
     2
100
AcDbSpline
210
0.0
220
0.0
230
1.0
 70
     8
 71
     3
 72
     9
 73
     5
 74
     3
 42
0.000000001
 43
0.0000000001
 44
0.00000001
 40
0.0
 40
0.0
 40
0.0
 40
0.0
 40
6.99052776458958
 40
14.04907306511521
 40
14.04907306511521
 40
14.04907306511521
 40
14.04907306511521
 10
354.4450248645551
 20
283.389672681386
 30
0.0
 10
356.7550951195869
 20
283.7237589870686
 30
0.0
 10
361.3977125161879
 20
284.3951822240198
 30
0.0
 10
366.0883509564989
 20
284.3361805461482
 30
0.0
 10
368.4450248645551
 20
284.3065368710917
 30
0.0
 11
354.4450248645551
 21
283.389672681386
 31
0.0
 11
361.3871249279975
 21
284.2110892285376
 31
0.0
 11
368.4450248645551
 21
284.3065368710917
 31
0.0
  0
SPLINE
  5
231
330
50
100
AcDbEntity
  8
1
  6
Continuous
 62
     2
100
AcDbSpline
210
0.0
220
0.0
230
1.0
 70
     8
 71
     3
 72
     9
 73
     5
 74
     3
 42
0.000000001
 43
0.0000000001
 44
0.00000001
 40
0.0
 40
0.0
 40
0.0
 40
0.0
 40
7.284887666915161
 40
14.23310587328967
 40
14.23310587328967
 40
14.23310587328967
 40
14.23310587328967
 10
163.5270886479061
 20
637.6930932269706
 30
0.0
 10
165.9614648203941
 20
637.8157654789053
 30
0.0
 10
170.7177130103372
 20
638.0554407317206
 30
0.0
 10
175.2933742883741
 20
639.3719757854146
 30
0.0
 10
177.5270886479061
 20
640.0146726813869
 30
0.0
 11
163.5270886479061
 21
637.6930932269706
 31
0.0
 11
170.78290937765
 21
638.3432115766336
 31
0.0
 11
177.5270886479061
 21
640.0146726813869
 31
0.0
  0
ARC
  5
232
330
50
100
AcDbEntity
  8
0
  6
Continuous
 62
     7
100
AcDbCircle
 10
177.0270886479057
 20
269.468093226969
 30
0.0
 40
0.5
100
AcDbArc
 50
0.0
 51
90.0
  0
ARC
  5
233
330
50
100
AcDbEntity
  8
0
  6
Continuous
 62
     7
100
AcDbCircle
 10
177.0270886479057
 20
274.968093226969
 30
0.0
 40
0.5
100
AcDbArc
 50
0.0
 51
90.0
  0
ARC
  5
234
330
50
100
AcDbEntity
  8
0
  6
Continuous
 62
     7
100
AcDbCircle
 10
177.0270886479057
 20
272.3896726813853
 30
0.0
 40
0.500000000000075
100
AcDbArc
 50
279.727578551409
 51
0.0
  0
ARC
  5
235
330
50
100
AcDbEntity
  8
0
  6
Continuous
 62
     7
100
AcDbCircle
 10
164.0270886479057
 20
270.0680932269693
 30
0.0
 40
0.5
100
AcDbArc
 50
180.0
 51
270.0
  0
ARC
  5
236
330
50
100
AcDbEntity
  8
0
  6
Continuous
 62
     7
100
AcDbCircle
 10
164.0270886479057
 20
272.646513772553
 30
0.0
 40
0.5000000000000415
100
AcDbArc
 50
99.72757855138657
 51
180.0
  0
ARC
  5
237
330
50
100
AcDbEntity
  8
0
  6
Continuous
 62
     7
100
AcDbCircle
 10
177.0270886479057
 20
277.8896726813853
 30
0.0
 40
0.500000000000075
100
AcDbArc
 50
279.727578551409
 51
0.0
  0
ARC
  5
238
330
50
100
AcDbEntity
  8
0
  6
Continuous
 62
     7
100
AcDbCircle
 10
177.0270886479057
 20
280.468093226969
 30
0.0
 40
0.5
100
AcDbArc
 50
0.0
 51
90.0
  0
ARC
  5
239
330
50
100
AcDbEntity
  8
0
  6
Continuous
 62
     7
100
AcDbCircle
 10
164.0270886479057
 20
278.146513772553
 30
0.0
 40
0.5000000000000415
100
AcDbArc
 50
99.72757855138657
 51
180.0
  0
ARC
  5
23A
330
50
100
AcDbEntity
  8
0
  6
Continuous
 62
     7
100
AcDbCircle
 10
164.0270886479057
 20
275.5680932269693
 30
0.0
 40
0.5
100
AcDbArc
 50
180.0
 51
270.0
  0
ARC
  5
23B
330
50
100
AcDbEntity
  8
0
  6
Continuous
 62
     7
100
AcDbCircle
 10
177.0270886479057
 20
283.3896726813853
 30
0.0
 40
0.500000000000075
100
AcDbArc
 50
279.727578551409
 51
0.0
  0
ARC
  5
23C
330
50
100
AcDbEntity
  8
0
  6
Continuous
 62
     7
100
AcDbCircle
 10
164.0270886479057
 20
281.0680932269693
 30
0.0
 40
0.5
100
AcDbArc
 50
180.0
 51
270.0
  0
ARC
  5
23D
330
50
100
AcDbEntity
  8
0
  6
Continuous
 62
     7
100
AcDbCircle
 10
489.7234454101392
 20
347.8680932269714
 30
0.0
 40
0.5000000000000415
100
AcDbArc
 50
9.72757855138656
 51
90.0
  0
ARC
  5
23E
330
50
100
AcDbEntity
  8
0
  6
Continuous
 62
     7
100
AcDbCircle
 10
492.0450248645554
 20
334.8680932269714
 30
0.0
 40
0.5
100
AcDbArc
 50
270.0
 51
0.0
  0
ARC
  5
23F
330
50
100
AcDbEntity
  8
0
  6
Continuous
 62
     7
100
AcDbCircle
 10
492.0450248645554
 20
334.8680932269714
 30
0.0
 40
0.5
100
AcDbArc
 50
270.0
 51
0.0
  0
ARC
  5
240
330
50
100
AcDbEntity
  8
0
  6
Continuous
 62
     7
100
AcDbCircle
 10
484.2234454101392
 20
347.8680932269714
 30
0.0
 40
0.5000000000000415
100
AcDbArc
 50
9.72757855138656
 51
90.0
  0
ARC
  5
241
330
50
100
AcDbEntity
  8
0
  6
Continuous
 62
     7
100
AcDbCircle
 10
486.5450248645554
 20
334.8680932269714
 30
0.0
 40
0.5
100
AcDbArc
 50
270.0
 51
0.0
  0
ARC
  5
242
330
50
100
AcDbEntity
  8
0
  6
Continuous
 62
     7
100
AcDbCircle
 10
487.1450248645554
 20
347.8680932269714
 30
0.0
 40
0.5
100
AcDbArc
 50
90.0
 51
180.0
  0
ARC
  5
243
330
50
100
AcDbEntity
  8
0
  6
Continuous
 62
     7
100
AcDbCircle
 10
492.0450248645554
 20
334.8680932269714
 30
0.0
 40
0.5
100
AcDbArc
 50
270.0
 51
0.0
  0
ARC
  5
244
330
50
100
AcDbEntity
  8
0
  6
Continuous
 62
     7
100
AcDbCircle
 10
489.4666043189716
 20
334.8680932269714
 30
0.0
 40
0.5000000000000415
100
AcDbArc
 50
189.7275785513866
 51
270.0
  0
ARC
  5
245
330
50
100
AcDbEntity
  8
0
  6
Continuous
 62
     7
100
AcDbCircle
 10
486.5450248645554
 20
334.8680932269714
 30
0.0
 40
0.5
100
AcDbArc
 50
270.0
 51
0.0
  0
ARC
  5
246
330
50
100
AcDbEntity
  8
0
  6
Continuous
 62
     7
100
AcDbCircle
 10
484.2234454101392
 20
347.8680932269714
 30
0.0
 40
0.5000000000000415
100
AcDbArc
 50
9.72757855138656
 51
90.0
  0
ARC
  5
247
330
50
100
AcDbEntity
  8
0
  6
Continuous
 62
     7
100
AcDbCircle
 10
503.0411960198544
 20
334.8680932269714
 30
0.0
 40
0.5
100
AcDbArc
 50
270.0
 51
0.0
  0
ARC
  5
248
330
50
100
AcDbEntity
  8
0
  6
Continuous
 62
     7
100
AcDbCircle
 10
503.0411960198544
 20
334.8680932269714
 30
0.0
 40
0.5
100
AcDbArc
 50
270.0
 51
0.0
  0
ARC
  5
249
330
50
100
AcDbEntity
  8
0
  6
Continuous
 62
     7
100
AcDbCircle
 10
503.0411960198544
 20
334.8680932269714
 30
0.0
 40
0.5
100
AcDbArc
 50
270.0
 51
0.0
  0
ARC
  5
24A
330
50
100
AcDbEntity
  8
0
  6
Continuous
 62
     7
100
AcDbCircle
 10
503.0411960198544
 20
334.8680932269714
 30
0.0
 40
0.5
100
AcDbArc
 50
270.0
 51
0.0
  0
ARC
  5
24B
330
50
100
AcDbEntity
  8
0
  6
Continuous
 62
     7
100
AcDbCircle
 10
498.1450248645554
 20
347.8680932269714
 30
0.0
 40
0.5
100
AcDbArc
 50
90.0
 51
180.0
  0
ARC
  5
24C
330
50
100
AcDbEntity
  8
0
  6
Continuous
 62
     7
100
AcDbCircle
 10
500.4666043189716
 20
334.8680932269714
 30
0.0
 40
0.5000000000000415
100
AcDbArc
 50
189.7275785513866
 51
270.0
  0
ARC
  5
24D
330
50
100
AcDbEntity
  8
0
  6
Continuous
 62
     7
100
AcDbCircle
 10
497.5411960198544
 20
334.8680932269714
 30
0.0
 40
0.5
100
AcDbArc
 50
270.0
 51
0.0
  0
ARC
  5
24E
330
50
100
AcDbEntity
  8
0
  6
Continuous
 62
     7
100
AcDbCircle
 10
497.5411960198544
 20
334.8680932269714
 30
0.0
 40
0.5
100
AcDbArc
 50
270.0
 51
0.0
  0
ARC
  5
24F
330
50
100
AcDbEntity
  8
0
  6
Continuous
 62
     7
100
AcDbCircle
 10
497.5411960198544
 20
334.8680932269714
 30
0.0
 40
0.5
100
AcDbArc
 50
270.0
 51
0.0
  0
ARC
  5
250
330
50
100
AcDbEntity
  8
0
  6
Continuous
 62
     7
100
AcDbCircle
 10
497.5411960198544
 20
334.8680932269714
 30
0.0
 40
0.5
100
AcDbArc
 50
270.0
 51
0.0
  0
ARC
  5
251
330
50
100
AcDbEntity
  8
0
  6
Continuous
 62
     7
100
AcDbCircle
 10
494.9666043189716
 20
334.8680932269714
 30
0.0
 40
0.5000000000000415
100
AcDbArc
 50
189.7275785513866
 51
270.0
  0
ARC
  5
252
330
50
100
AcDbEntity
  8
0
  6
Continuous
 62
     7
100
AcDbCircle
 10
492.6450248645554
 20
347.8680932269714
 30
0.0
 40
0.5
100
AcDbArc
 50
90.0
 51
180.0
  0
ARC
  5
253
330
50
100
AcDbEntity
  8
0
  6
Continuous
 62
     7
100
AcDbCircle
 10
495.2196165654382
 20
347.8680932269714
 30
0.0
 40
0.4999999999999855
100
AcDbArc
 50
9.72757855138766
 51
90.0
  0
ARC
  5
254
330
50
100
AcDbEntity
  8
0
  6
Continuous
 62
     7
100
AcDbCircle
 10
495.2196165654382
 20
347.8680932269714
 30
0.0
 40
0.4999999999999855
100
AcDbArc
 50
9.72757855138766
 51
90.0
  0
ARC
  5
255
330
50
100
AcDbEntity
  8
0
  6
Continuous
 62
     7
100
AcDbCircle
 10
500.7196165654382
 20
347.8680932269714
 30
0.0
 40
0.4999999999999855
100
AcDbArc
 50
9.72757855138766
 51
86.84092014205692
  0
ARC
  5
256
330
50
100
AcDbEntity
  8
0
  6
Continuous
 62
     7
100
AcDbCircle
 10
164.0270886479061
 20
684.2676849278535
 30
0.0
 40
0.5000000000000191
100
AcDbArc
 50
99.72757855141013
 51
180.0
  0
ARC
  5
257
330
50
100
AcDbEntity
  8
0
  6
Continuous
 62
     7
100
AcDbCircle
 10
164.0270886479061
 20
678.7676849278535
 30
0.0
 40
0.5000000000000191
100
AcDbArc
 50
99.72757855141013
 51
180.0
  0
ARC
  5
258
330
50
100
AcDbEntity
  8
0
  6
Continuous
 62
     7
100
AcDbCircle
 10
164.0270886479061
 20
678.7676849278535
 30
0.0
 40
0.5000000000000191
100
AcDbArc
 50
99.72757855141013
 51
180.0
  0
ARC
  5
259
330
50
100
AcDbEntity
  8
0
  6
Continuous
 62
     7
100
AcDbCircle
 10
164.0270886479061
 20
676.1930932269706
 30
0.0
 40
0.5
100
AcDbArc
 50
180.0
 51
270.0
  0
ARC
  5
25A
330
50
100
AcDbEntity
  8
0
  6
Continuous
 62
     7
100
AcDbCircle
 10
177.0270886479061
 20
678.5146726813869
 30
0.0
 40
0.4999999999999855
100
AcDbArc
 50
279.7275785513877
 51
0.0
  0
ARC
  5
25B
330
50
100
AcDbEntity
  8
0
  6
Continuous
 62
     7
100
AcDbCircle
 10
177.0270886479061
 20
681.0892643822697
 30
0.0
 40
0.5
100
AcDbArc
 50
0.0
 51
90.0
  0
ARC
  5
25C
330
50
100
AcDbEntity
  8
0
  6
Continuous
 62
     7
100
AcDbCircle
 10
177.0270886479061
 20
681.0892643822697
 30
0.0
 40
0.5
100
AcDbArc
 50
0.0
 51
90.0
  0
ARC
  5
25D
330
50
100
AcDbEntity
  8
0
  6
Continuous
 62
     7
100
AcDbCircle
 10
177.0270886479061
 20
681.0892643822697
 30
0.0
 40
0.5
100
AcDbArc
 50
0.0
 51
90.0
  0
ARC
  5
25E
330
50
100
AcDbEntity
  8
0
  6
Continuous
 62
     7
100
AcDbCircle
 10
177.0270886479061
 20
681.0892643822697
 30
0.0
 40
0.5
100
AcDbArc
 50
0.0
 51
90.0
  0
ARC
  5
25F
330
50
100
AcDbEntity
  8
0
  6
Continuous
 62
     7
100
AcDbCircle
 10
177.0270886479061
 20
684.0146726813869
 30
0.0
 40
0.4999999999999855
100
AcDbArc
 50
279.7275785513877
 51
0.0
  0
ARC
  5
260
330
50
100
AcDbEntity
  8
0
  6
Continuous
 62
     7
100
AcDbCircle
 10
164.0270886479061
 20
681.6930932269706
 30
0.0
 40
0.5
100
AcDbArc
 50
180.0
 51
270.0
  0
ARC
  5
261
330
50
100
AcDbEntity
  8
0
  6
Continuous
 62
     7
100
AcDbCircle
 10
177.0270886479061
 20
686.5892643822697
 30
0.0
 40
0.5
100
AcDbArc
 50
0.0
 51
90.0
  0
ARC
  5
262
330
50
100
AcDbEntity
  8
0
  6
Continuous
 62
     7
100
AcDbCircle
 10
177.0270886479061
 20
686.5892643822697
 30
0.0
 40
0.5
100
AcDbArc
 50
0.0
 51
90.0
  0
ARC
  5
263
330
50
100
AcDbEntity
  8
0
  6
Continuous
 62
     7
100
AcDbCircle
 10
177.0270886479061
 20
686.5892643822697
 30
0.0
 40
0.5
100
AcDbArc
 50
0.0
 51
90.0
  0
ARC
  5
264
330
50
100
AcDbEntity
  8
0
  6
Continuous
 62
     7
100
AcDbCircle
 10
177.0270886479061
 20
686.5892643822697
 30
0.0
 40
0.5
100
AcDbArc
 50
0.0
 51
90.0
  0
ARC
  5
265
330
50
100
AcDbEntity
  8
0
  6
Continuous
 62
     7
100
AcDbCircle
 10
164.0270886479061
 20
687.1930932269706
 30
0.0
 40
0.5
100
AcDbArc
 50
180.0
 51
270.0
  0
ARC
  5
266
330
50
100
AcDbEntity
  8
0
  6
Continuous
 62
     7
100
AcDbCircle
 10
177.0270886479061
 20
651.0146726813869
 30
0.0
 40
0.4999999999999855
100
AcDbArc
 50
279.7275785513877
 51
0.0
  0
ARC
  5
267
330
50
100
AcDbEntity
  8
0
  6
Continuous
 62
     7
100
AcDbCircle
 10
164.0270886479061
 20
648.6930932269706
 30
0.0
 40
0.5
100
AcDbArc
 50
180.0
 51
270.0
  0
ARC
  5
268
330
50
100
AcDbEntity
  8
0
  6
Continuous
 62
     7
100
AcDbCircle
 10
164.0270886479061
 20
651.2715137725545
 30
0.0
 40
0.5000000000000191
100
AcDbArc
 50
99.72757855141013
 51
180.0
  0
ARC
  5
269
330
50
100
AcDbEntity
  8
0
  6
Continuous
 62
     7
100
AcDbCircle
 10
177.0270886479061
 20
653.5930932269707
 30
0.0
 40
0.5
100
AcDbArc
 50
0.0
 51
90.0
  0
ARC
  5
26A
330
50
100
AcDbEntity
  8
0
  6
Continuous
 62
     7
100
AcDbCircle
 10
177.0270886479061
 20
656.5146726813869
 30
0.0
 40
0.4999999999999855
100
AcDbArc
 50
279.7275785513877
 51
0.0
  0
ARC
  5
26B
330
50
100
AcDbEntity
  8
0
  6
Continuous
 62
     7
100
AcDbCircle
 10
164.0270886479061
 20
654.1930932269706
 30
0.0
 40
0.5
100
AcDbArc
 50
180.0
 51
270.0
  0
ARC
  5
26C
330
50
100
AcDbEntity
  8
0
  6
Continuous
 62
     7
100
AcDbCircle
 10
164.0270886479061
 20
656.7715137725545
 30
0.0
 40
0.5000000000000191
100
AcDbArc
 50
99.72757855141013
 51
180.0
  0
ARC
  5
26D
330
50
100
AcDbEntity
  8
0
  6
Continuous
 62
     7
100
AcDbCircle
 10
177.0270886479061
 20
659.0930932269707
 30
0.0
 40
0.5
100
AcDbArc
 50
0.0
 51
90.0
  0
ARC
  5
26E
330
50
100
AcDbEntity
  8
0
  6
Continuous
 62
     7
100
AcDbCircle
 10
177.0270886479061
 20
659.0930932269707
 30
0.0
 40
0.5
100
AcDbArc
 50
0.0
 51
90.0
  0
ARC
  5
26F
330
50
100
AcDbEntity
  8
0
  6
Continuous
 62
     7
100
AcDbCircle
 10
177.0270886479061
 20
662.0146726813869
 30
0.0
 40
0.4999999999999855
100
AcDbArc
 50
279.7275785513877
 51
0.0
  0
ARC
  5
270
330
50
100
AcDbEntity
  8
0
  6
Continuous
 62
     7
100
AcDbCircle
 10
164.0270886479061
 20
659.6930932269706
 30
0.0
 40
0.5
100
AcDbArc
 50
180.0
 51
270.0
  0
ARC
  5
271
330
50
100
AcDbEntity
  8
0
  6
Continuous
 62
     7
100
AcDbCircle
 10
177.0270886479061
 20
664.5930932269707
 30
0.0
 40
0.5
100
AcDbArc
 50
0.0
 51
90.0
  0
ARC
  5
272
330
50
100
AcDbEntity
  8
0
  6
Continuous
 62
     7
100
AcDbCircle
 10
164.0270886479061
 20
665.1930932269706
 30
0.0
 40
0.5
100
AcDbArc
 50
180.0
 51
270.0
  0
ARC
  5
273
330
50
100
AcDbEntity
  8
0
  6
Continuous
 62
     7
100
AcDbCircle
 10
164.0270886479061
 20
667.7715137725545
 30
0.0
 40
0.5000000000000191
100
AcDbArc
 50
99.72757855141013
 51
180.0
  0
ARC
  5
274
330
50
100
AcDbEntity
  8
0
  6
Continuous
 62
     7
100
AcDbCircle
 10
177.0270886479061
 20
670.0930932269707
 30
0.0
 40
0.5
100
AcDbArc
 50
0.0
 51
90.0
  0
ARC
  5
275
330
50
100
AcDbEntity
  8
0
  6
Continuous
 62
     7
100
AcDbCircle
 10
177.0270886479061
 20
667.5146726813869
 30
0.0
 40
0.4999999999999855
100
AcDbArc
 50
279.7275785513877
 51
0.0
  0
ARC
  5
276
330
50
100
AcDbEntity
  8
0
  6
Continuous
 62
     7
100
AcDbCircle
 10
177.0270886479061
 20
673.0146726813869
 30
0.0
 40
0.4999999999999855
100
AcDbArc
 50
279.7275785513877
 51
0.0
  0
ARC
  5
277
330
50
100
AcDbEntity
  8
0
  6
Continuous
 62
     7
100
AcDbCircle
 10
177.0270886479061
 20
675.5930932269707
 30
0.0
 40
0.5
100
AcDbArc
 50
0.0
 51
90.0
  0
ARC
  5
278
330
50
100
AcDbEntity
  8
0
  6
Continuous
 62
     7
100
AcDbCircle
 10
164.0270886479061
 20
670.6930932269706
 30
0.0
 40
0.5
100
AcDbArc
 50
180.0
 51
270.0
  0
ARC
  5
279
330
50
100
AcDbEntity
  8
0
  6
Continuous
 62
     7
100
AcDbCircle
 10
177.0270886479061
 20
670.0930932269707
 30
0.0
 40
0.5
100
AcDbArc
 50
0.0
 51
90.0
  0
ARC
  5
27A
330
50
100
AcDbEntity
  8
0
  6
Continuous
 62
     7
100
AcDbCircle
 10
164.0270886479061
 20
667.7715137725545
 30
0.0
 40
0.5000000000000191
100
AcDbArc
 50
99.72757855141013
 51
180.0
  0
ARC
  5
27B
330
50
100
AcDbEntity
  8
0
  6
Continuous
 62
     7
100
AcDbCircle
 10
177.0270886479061
 20
675.5930932269707
 30
0.0
 40
0.5
100
AcDbArc
 50
0.0
 51
90.0
  0
ARC
  5
27C
330
50
100
AcDbEntity
  8
0
  6
Continuous
 62
     7
100
AcDbCircle
 10
177.0270886479061
 20
675.5930932269707
 30
0.0
 40
0.5
100
AcDbArc
 50
0.0
 51
90.0
  0
ARC
  5
27D
330
50
100
AcDbEntity
  8
0
  6
Continuous
 62
     7
100
AcDbCircle
 10
177.0270886479061
 20
689.5146726813869
 30
0.0
 40
0.4999999999999855
100
AcDbArc
 50
279.7275785513877
 51
0.0
  0
ARC
  5
27E
330
50
100
AcDbEntity
  8
0
  6
Continuous
 62
     7
100
AcDbCircle
 10
164.0270886479061
 20
662.2715137725545
 30
0.0
 40
0.5000000000000191
100
AcDbArc
 50
99.72757855141013
 51
180.0
  0
ARC
  5
27F
330
50
100
AcDbEntity
  8
0
  6
Continuous
 62
     7
100
AcDbCircle
 10
164.0270886479061
 20
673.2715137725545
 30
0.0
 40
0.5000000000000191
100
AcDbArc
 50
99.72757855141013
 51
180.0
  0
ARC
  5
280
330
50
100
AcDbEntity
  8
0
  6
Continuous
 62
     7
100
AcDbCircle
 10
177.0270886479061
 20
645.5146726813869
 30
0.0
 40
0.4999999999999855
100
AcDbArc
 50
279.7275785513877
 51
0.0
  0
ARC
  5
281
330
50
100
AcDbEntity
  8
0
  6
Continuous
 62
     7
100
AcDbCircle
 10
177.0270886479061
 20
648.0930932269707
 30
0.0
 40
0.5
100
AcDbArc
 50
0.0
 51
90.0
  0
ARC
  5
282
330
50
100
AcDbEntity
  8
0
  6
Continuous
 62
     7
100
AcDbCircle
 10
164.0270886479061
 20
645.7715137725545
 30
0.0
 40
0.5000000000000191
100
AcDbArc
 50
99.72757855141013
 51
180.0
  0
ARC
  5
283
330
50
100
AcDbEntity
  8
0
  6
Continuous
 62
     7
100
AcDbCircle
 10
164.0270886479061
 20
643.1930932269706
 30
0.0
 40
0.5
100
AcDbArc
 50
180.0
 51
270.0
  0
ARC
  5
284
330
50
100
AcDbEntity
  8
0
  6
Continuous
 62
     7
100
AcDbCircle
 10
177.0270886479061
 20
642.5930932269707
 30
0.0
 40
0.5
100
AcDbArc
 50
0.0
 51
90.0
  0
ARC
  5
285
330
50
100
AcDbEntity
  8
0
  6
Continuous
 62
     7
100
AcDbCircle
 10
164.0270886479061
 20
640.2715137725545
 30
0.0
 40
0.5000000000000191
100
AcDbArc
 50
99.72757855141013
 51
180.0
  0
ARC
  5
286
330
50
100
AcDbEntity
  8
0
  6
Continuous
 62
     7
100
AcDbCircle
 10
177.0270886479061
 20
692.0892643822697
 30
0.0
 40
0.5
100
AcDbArc
 50
0.0
 51
90.0
  0
ARC
  5
287
330
50
100
AcDbEntity
  8
0
  6
Continuous
 62
     7
100
AcDbCircle
 10
177.0270886479061
 20
692.0892643822697
 30
0.0
 40
0.5
100
AcDbArc
 50
0.0
 51
90.0
  0
ARC
  5
288
330
50
100
AcDbEntity
  8
0
  6
Continuous
 62
     7
100
AcDbCircle
 10
177.0270886479061
 20
692.0892643822697
 30
0.0
 40
0.5
100
AcDbArc
 50
0.0
 51
90.0
  0
ARC
  5
289
330
50
100
AcDbEntity
  8
0
  6
Continuous
 62
     7
100
AcDbCircle
 10
177.0270886479061
 20
692.0892643822697
 30
0.0
 40
0.5
100
AcDbArc
 50
0.0
 51
90.0
  0
ARC
  5
28A
330
50
100
AcDbEntity
  8
0
  6
Continuous
 62
     7
100
AcDbCircle
 10
164.0270886479061
 20
689.7676849278535
 30
0.0
 40
0.5000000000000191
100
AcDbArc
 50
99.72757855141013
 51
180.0
  0
ARC
  5
28B
330
50
100
AcDbEntity
  8
0
  6
Continuous
 62
     7
100
AcDbCircle
 10
164.0270886479061
 20
692.6930932269706
 30
0.0
 40
0.5
100
AcDbArc
 50
180.0
 51
270.0
  0
ARC
  5
28C
330
50
100
AcDbEntity
  8
0
  6
Continuous
 62
     7
100
AcDbCircle
 10
354.9450248645551
 20
281.0680932269697
 30
0.0
 40
0.5
100
AcDbArc
 50
180.0
 51
270.0
  0
ARC
  5
28D
330
50
100
AcDbEntity
  8
0
  6
Continuous
 62
     7
100
AcDbCircle
 10
367.9450248645551
 20
283.389672681386
 30
0.0
 40
0.5000000000000415
100
AcDbArc
 50
279.7275785513866
 51
0.0
  0
ARC
  5
28E
330
50
100
AcDbEntity
  8
0
  6
Continuous
 62
     7
100
AcDbCircle
 10
354.9450248645551
 20
275.5680932269697
 30
0.0
 40
0.5
100
AcDbArc
 50
180.0
 51
270.0
  0
ARC
  5
28F
330
50
100
AcDbEntity
  8
0
  6
Continuous
 62
     7
100
AcDbCircle
 10
354.9450248645551
 20
278.1465137725537
 30
0.0
 40
0.5000000000001535
100
AcDbArc
 50
99.72757855138437
 51
180.0
  0
ARC
  5
290
330
50
100
AcDbEntity
  8
0
  6
Continuous
 62
     7
100
AcDbCircle
 10
367.9450248645551
 20
280.4680932269698
 30
0.0
 40
0.5
100
AcDbArc
 50
0.0
 51
90.0
  0
ARC
  5
291
330
50
100
AcDbEntity
  8
0
  6
Continuous
 62
     7
100
AcDbCircle
 10
367.9450248645551
 20
277.889672681386
 30
0.0
 40
0.5000000000000415
100
AcDbArc
 50
279.7275785513866
 51
0.0
  0
ARC
  5
292
330
50
100
AcDbEntity
  8
0
  6
Continuous
 62
     7
100
AcDbCircle
 10
354.9450248645551
 20
272.6465137725537
 30
0.0
 40
0.5000000000001535
100
AcDbArc
 50
99.72757855138437
 51
180.0
  0
ARC
  5
293
330
50
100
AcDbEntity
  8
0
  6
Continuous
 62
     7
100
AcDbCircle
 10
354.9450248645551
 20
270.0680932269697
 30
0.0
 40
0.5
100
AcDbArc
 50
180.0
 51
270.0
  0
ARC
  5
294
330
50
100
AcDbEntity
  8
0
  6
Continuous
 62
     7
100
AcDbCircle
 10
367.9450248645551
 20
272.389672681386
 30
0.0
 40
0.5000000000000415
100
AcDbArc
 50
279.7275785513866
 51
0.0
  0
ARC
  5
295
330
50
100
AcDbEntity
  8
0
  6
Continuous
 62
     7
100
AcDbCircle
 10
367.9450248645551
 20
274.9680932269698
 30
0.0
 40
0.5
100
AcDbArc
 50
0.0
 51
90.0
  0
ARC
  5
296
330
50
100
AcDbEntity
  8
0
  6
Continuous
 62
     7
100
AcDbCircle
 10
367.9450248645551
 20
269.4680932269698
 30
0.0
 40
0.5
100
AcDbArc
 50
0.0
 51
90.0
  0
ARC
  5
297
330
50
100
AcDbEntity
  8
0
  6
Continuous
 62
     7
100
AcDbCircle
 10
506.2196165654382
 20
347.8680932269714
 30
0.0
 40
0.4999999999999855
100
AcDbArc
 50
9.72757855138766
 51
86.84092014205692
  0
ARC
  5
298
330
50
100
AcDbEntity
  8
0
  6
Continuous
 62
     7
100
AcDbCircle
 10
503.6450248645554
 20
347.8680932269714
 30
0.0
 40
0.5
100
AcDbArc
 50
90.0
 51
180.0
  0
ARC
  5
299
330
50
100
AcDbEntity
  8
0
  6
Continuous
 62
     7
100
AcDbCircle
 10
505.9666043189716
 20
334.8680932269714
 30
0.0
 40
0.5000000000000415
100
AcDbArc
 50
189.7275785513866
 51
270.0
  0
ARC
  5
29A
330
50
100
AcDbEntity
  8
0
  6
Continuous
 62
     7
100
AcDbCircle
 10
509.1450248645554
 20
347.8680932269714
 30
0.0
 40
0.4999999999998217
100
AcDbArc
 50
113.5781784782235
 51
180.0
  0
ARC
  5
29B
330
50
100
AcDbEntity
  8
0
  6
Continuous
 62
     7
100
AcDbCircle
 10
508.5411960198542
 20
334.8680932269714
 30
0.0
 40
0.5
100
AcDbArc
 50
270.0
 51
323.8677085728947
  0
ARC
  5
29C
330
50
100
AcDbEntity
  8
1
  6
Continuous
 62
     5
100
AcDbCircle
 10
411.4450248645551
 20
291.3680932269713
 30
0.0
 40
57.0
100
AcDbArc
 50
90.00000000000018
 51
180.0
  0
ARC
  5
29D
330
50
100
AcDbEntity
  8
1
  6
PHANTOM
 62
     5
100
AcDbCircle
 10
411.4450248645551
 20
291.3680932269713
 30
0.0
 40
43.00000000000017
100
AcDbArc
 50
90.00000000000021
 51
180.0
  0
ENDBLK
  5
52
330
50
100
AcDbEntity
  8
0
100
AcDbBlockEnd
  0
BLOCK
  5
54
330
53
100
AcDbEntity
  8
0
100
AcDbBlockBegin
  2
76-120-H3
 70
     0
 10
1040.506069880822
 20
892.2491930018404
 30
0.0
  3
76-120-H3
  1

  0
LINE
  5
29E
330
53
100
AcDbEntity
  8
1
  6
Continuous
 62
     7
100
AcDbLine
 10
162.5270886479057
 20
267.7680932269707
 30
0.0
 11
178.5270886479057
 21
267.7680932269707
 31
0.0
  0
LINE
  5
29F
330
53
100
AcDbEntity
  8
0
  6
Continuous
 62
     7
100
AcDbLine
 10
178.5270886479057
 20
267.7680932269707
 30
0.0
 11
178.5270886479057
 21
256.7680932269707
 31
0.0
  0
LINE
  5
2A0
330
53
100
AcDbEntity
  8
0
  6
Continuous
 62
     7
100
AcDbLine
 10
162.5270886479057
 20
256.7680932269707
 30
0.0
 11
162.5270886479057
 21
267.7680932269707
 31
0.0
  0
LINE
  5
2A1
330
53
100
AcDbEntity
  8
0
  6
Continuous
 62
     7
100
AcDbLine
 10
162.5270886479057
 20
254.2680932269707
 30
0.0
 11
162.5270886479057
 21
256.7680932269707
 31
0.0
  0
LINE
  5
2A2
330
53
100
AcDbEntity
  8
0
  6
Continuous
 62
     7
100
AcDbLine
 10
178.5270886479057
 20
256.7680932269707
 30
0.0
 11
178.5270886479057
 21
254.2680932269707
 31
0.0
  0
LINE
  5
2A3
330
53
100
AcDbEntity
  8
0
  6
Continuous
 62
     7
100
AcDbLine
 10
160.3370886479058
 20
249.2680932269707
 30
0.0
 11
159.5270886479057
 21
248.4580932269706
 31
0.0
  0
LINE
  5
2A4
330
53
100
AcDbEntity
  8
0
  6
Continuous
 62
     7
100
AcDbLine
 10
181.5270886479057
 20
248.4580932269706
 30
0.0
 11
181.5270886479057
 21
248.3680932269709
 31
0.0
  0
LINE
  5
2A5
330
53
100
AcDbEntity
  8
0
  6
Continuous
 62
     2
100
AcDbLine
 10
180.7170886479055
 20
249.2680932269707
 30
0.0
 11
180.7170886479055
 21
248.3680932269709
 31
0.0
  0
LINE
  5
2A6
330
53
100
AcDbEntity
  8
0
  6
Continuous
 62
     7
100
AcDbLine
 10
181.5270886479057
 20
248.4580932269706
 30
0.0
 11
180.7170886479055
 21
249.2680932269707
 31
0.0
  0
LINE
  5
2A7
330
53
100
AcDbEntity
  8
1
  6
Continuous
 62
     7
100
AcDbLine
 10
181.5270886479057
 20
248.4580932269706
 30
0.0
 11
159.5270886479057
 21
248.4580932269706
 31
0.0
  0
LINE
  5
2A8
330
53
100
AcDbEntity
  8
1
  6
Continuous
 62
     7
100
AcDbLine
 10
162.7173902745412
 20
256.7680932269707
 30
0.0
 11
162.7173902745412
 21
267.7680932269707
 31
0.0
  0
LINE
  5
2A9
330
53
100
AcDbEntity
  8
1
  6
Continuous
 62
     7
100
AcDbLine
 10
164.3283028438952
 20
267.7680932269707
 30
0.0
 11
164.3283028438952
 21
256.7680932269707
 31
0.0
  0
LINE
  5
2AA
330
53
100
AcDbEntity
  8
1
  6
Continuous
 62
     7
100
AcDbLine
 10
165.6812930942606
 20
267.7680932269707
 30
0.0
 11
165.6812930942606
 21
256.7680932269707
 31
0.0
  0
LINE
  5
2AB
330
53
100
AcDbEntity
  8
1
  6
Continuous
 62
     7
100
AcDbLine
 10
169.5703800669933
 20
256.7680932269707
 30
0.0
 11
169.5703800669933
 21
267.7680932269707
 31
0.0
  0
LINE
  5
2AC
330
53
100
AcDbEntity
  8
1
  6
Continuous
 62
     7
100
AcDbLine
 10
171.4837972288187
 20
256.7680932269707
 30
0.0
 11
171.4837972288187
 21
267.7680932269707
 31
0.0
  0
LINE
  5
2AD
330
53
100
AcDbEntity
  8
1
  6
Continuous
 62
     7
100
AcDbLine
 10
175.3728842015507
 20
256.7680932269707
 30
0.0
 11
175.3728842015507
 21
267.7680932269707
 31
0.0
  0
LINE
  5
2AE
330
53
100
AcDbEntity
  8
1
  6
Continuous
 62
     7
100
AcDbLine
 10
178.3367870212701
 20
267.7680932269707
 30
0.0
 11
178.3367870212701
 21
256.7680932269707
 31
0.0
  0
LINE
  5
2AF
330
53
100
AcDbEntity
  8
1
  6
Continuous
 62
     7
100
AcDbLine
 10
178.5270886479057
 20
256.7680932269707
 30
0.0
 11
162.5270886479057
 21
256.7680932269707
 31
0.0
  0
LINE
  5
2B0
330
53
100
AcDbEntity
  8
0
  6
Continuous
 62
     7
100
AcDbLine
 10
159.5270886479057
 20
248.3680932269709
 30
0.0
 11
159.5270886479057
 21
248.4580932269706
 31
0.0
  0
LINE
  5
2B1
330
53
100
AcDbEntity
  8
0
  6
Continuous
 62
     2
100
AcDbLine
 10
160.3370886479058
 20
248.3680932269709
 30
0.0
 11
160.3370886479058
 21
249.2680932269707
 31
0.0
  0
LINE
  5
2B2
330
53
100
AcDbEntity
  8
0
  6
Continuous
 62
     2
100
AcDbLine
 10
351.255024864555
 20
248.3680932269709
 30
0.0
 11
351.255024864555
 21
249.2680932269707
 31
0.0
  0
LINE
  5
2B3
330
53
100
AcDbEntity
  8
0
  6
Continuous
 62
     7
100
AcDbLine
 10
350.4450248645551
 20
248.3680932269709
 30
0.0
 11
350.4450248645551
 21
248.4580932269706
 31
0.0
  0
LINE
  5
2B4
330
53
100
AcDbEntity
  8
1
  6
Continuous
 62
     7
100
AcDbLine
 10
369.4450248645551
 20
256.7680932269707
 30
0.0
 11
353.4450248645551
 21
256.7680932269707
 31
0.0
  0
LINE
  5
2B5
330
53
100
AcDbEntity
  8
1
  6
Continuous
 62
     7
100
AcDbLine
 10
369.2547232379195
 20
267.7680932269707
 30
0.0
 11
369.2547232379195
 21
256.7680932269707
 31
0.0
  0
LINE
  5
2B6
330
53
100
AcDbEntity
  8
1
  6
Continuous
 62
     7
100
AcDbLine
 10
367.6438106685655
 20
256.7680932269707
 30
0.0
 11
367.6438106685655
 21
267.7680932269707
 31
0.0
  0
LINE
  5
2B7
330
53
100
AcDbEntity
  8
1
  6
Continuous
 62
     7
100
AcDbLine
 10
366.2908204181999
 20
256.7680932269707
 30
0.0
 11
366.2908204181999
 21
267.7680932269707
 31
0.0
  0
LINE
  5
2B8
330
53
100
AcDbEntity
  8
1
  6
Continuous
 62
     7
100
AcDbLine
 10
362.4017334454679
 20
256.7680932269707
 30
0.0
 11
362.4017334454679
 21
267.7680932269707
 31
0.0
  0
LINE
  5
2B9
330
53
100
AcDbEntity
  8
1
  6
Continuous
 62
     7
100
AcDbLine
 10
360.4883162836425
 20
256.7680932269707
 30
0.0
 11
360.4883162836425
 21
267.7680932269707
 31
0.0
  0
LINE
  5
2BA
330
53
100
AcDbEntity
  8
1
  6
Continuous
 62
     7
100
AcDbLine
 10
356.59922931091
 20
267.7680932269707
 30
0.0
 11
356.59922931091
 21
256.7680932269707
 31
0.0
  0
LINE
  5
2BB
330
53
100
AcDbEntity
  8
1
  6
Continuous
 62
     7
100
AcDbLine
 10
355.2462390605447
 20
267.7680932269707
 30
0.0
 11
355.2462390605447
 21
256.7680932269707
 31
0.0
  0
LINE
  5
2BC
330
53
100
AcDbEntity
  8
1
  6
Continuous
 62
     7
100
AcDbLine
 10
353.6353264911904
 20
256.7680932269707
 30
0.0
 11
353.6353264911904
 21
267.7680932269707
 31
0.0
  0
LINE
  5
2BD
330
53
100
AcDbEntity
  8
1
  6
Continuous
 62
     7
100
AcDbLine
 10
372.4450248645551
 20
248.4580932269706
 30
0.0
 11
350.4450248645551
 21
248.4580932269706
 31
0.0
  0
LINE
  5
2BE
330
53
100
AcDbEntity
  8
0
  6
Continuous
 62
     7
100
AcDbLine
 10
372.4450248645551
 20
248.4580932269706
 30
0.0
 11
371.6350248645549
 21
249.2680932269707
 31
0.0
  0
LINE
  5
2BF
330
53
100
AcDbEntity
  8
0
  6
Continuous
 62
     2
100
AcDbLine
 10
371.6350248645549
 20
249.2680932269707
 30
0.0
 11
371.6350248645549
 21
248.3680932269709
 31
0.0
  0
LINE
  5
2C0
330
53
100
AcDbEntity
  8
0
  6
Continuous
 62
     7
100
AcDbLine
 10
372.4450248645551
 20
248.4580932269706
 30
0.0
 11
372.4450248645551
 21
248.3680932269709
 31
0.0
  0
LINE
  5
2C1
330
53
100
AcDbEntity
  8
0
  6
Continuous
 62
     7
100
AcDbLine
 10
351.255024864555
 20
249.2680932269707
 30
0.0
 11
350.4450248645551
 21
248.4580932269706
 31
0.0
  0
LINE
  5
2C2
330
53
100
AcDbEntity
  8
0
  6
Continuous
 62
     7
100
AcDbLine
 10
369.4450248645551
 20
256.7680932269707
 30
0.0
 11
369.4450248645551
 21
254.2680932269707
 31
0.0
  0
LINE
  5
2C3
330
53
100
AcDbEntity
  8
0
  6
Continuous
 62
     7
100
AcDbLine
 10
353.4450248645551
 20
254.2680932269707
 30
0.0
 11
353.4450248645551
 21
256.7680932269707
 31
0.0
  0
LINE
  5
2C4
330
53
100
AcDbEntity
  8
0
  6
Continuous
 62
     7
100
AcDbLine
 10
353.4450248645551
 20
256.7680932269707
 30
0.0
 11
353.4450248645551
 21
267.7680932269707
 31
0.0
  0
LINE
  5
2C5
330
53
100
AcDbEntity
  8
0
  6
Continuous
 62
     7
100
AcDbLine
 10
369.4450248645551
 20
267.7680932269707
 30
0.0
 11
369.4450248645551
 21
256.7680932269707
 31
0.0
  0
LINE
  5
2C6
330
53
100
AcDbEntity
  8
1
  6
Continuous
 62
     7
100
AcDbLine
 10
353.4450248645551
 20
267.7680932269707
 30
0.0
 11
369.4450248645551
 21
267.7680932269707
 31
0.0
  0
LINE
  5
2C7
330
53
100
AcDbEntity
  8
1
  6
Continuous
 62
     7
100
AcDbLine
 10
176.7258744519161
 20
256.7680932269707
 30
0.0
 11
176.7258744519161
 21
267.7680932269707
 31
0.0
  0
LINE
  5
2C8
330
53
100
AcDbEntity
  8
1
  6
Continuous
 62
     7
100
AcDbLine
 10
162.7173902745415
 20
547.3248018078839
 30
0.0
 11
163.5270886479057
 21
549.2795866022909
 31
0.0
  0
LINE
  5
2C9
330
53
100
AcDbEntity
  8
1
  6
Continuous
 62
     7
100
AcDbLine
 10
164.3283028438952
 20
541.5222976733255
 30
0.0
 11
162.7173902745415
 21
545.4113846460584
 31
0.0
  0
LINE
  5
2CA
330
53
100
AcDbEntity
  8
1
  6
Continuous
 62
     7
100
AcDbLine
 10
169.5703800669933
 20
538.5583948536059
 30
0.0
 11
165.6812930942608
 21
540.1693074229602
 31
0.0
  0
LINE
  5
2CB
330
53
100
AcDbEntity
  8
1
  6
Continuous
 62
     7
100
AcDbLine
 10
175.3728842015505
 20
540.1693074229602
 30
0.0
 11
171.4837972288183
 21
538.5583948536059
 31
0.0
  0
LINE
  5
2CC
330
53
100
AcDbEntity
  8
1
  6
Continuous
 62
     7
100
AcDbLine
 10
177.5270886479057
 20
549.2795866022914
 30
0.0
 11
178.3367870212701
 21
547.3248018078839
 31
0.0
  0
LINE
  5
2CD
330
53
100
AcDbEntity
  8
1
  6
Continuous
 62
     7
100
AcDbLine
 10
178.3367870212701
 20
545.4113846460584
 30
0.0
 11
176.7258744519161
 21
541.5222976733257
 31
0.0
  0
ARC
  5
2CE
330
53
100
AcDbEntity
  8
0
  6
Continuous
 62
     7
100
AcDbCircle
 10
154.5438158021175
 20
254.7851567334257
 30
0.0
 40
8.000000000000348
100
AcDbArc
 50
316.3989402251086
 51
356.2942222607956
  0
ARC
  5
2CF
330
53
100
AcDbEntity
  8
0
  6
Continuous
 62
     7
100
AcDbCircle
 10
186.5103614936938
 20
254.7851567334257
 30
0.0
 40
8.000000000000316
100
AcDbArc
 50
183.7057777392045
 51
223.6010597748914
  0
ARC
  5
2D0
330
53
100
AcDbEntity
  8
0
  6
Continuous
 62
     7
100
AcDbCircle
 10
377.428297710343
 20
254.7851567334257
 30
0.0
 40
8.000000000000117
100
AcDbArc
 50
183.7057777392046
 51
223.6010597748925
  0
ARC
  5
2D1
330
53
100
AcDbEntity
  8
0
  6
Continuous
 62
     7
100
AcDbCircle
 10
345.4617520187669
 20
254.7851567334257
 30
0.0
 40
8.000000000000224
100
AcDbArc
 50
316.3989402251077
 51
356.2942222607955
  0
ARC
  5
2D2
330
53
100
AcDbEntity
  8
1
  6
Continuous
 62
     7
100
AcDbCircle
 10
170.5270886479057
 20
546.3680932269706
 30
0.0
 40
11.0000000000002
100
AcDbArc
 50
0.0
 51
50.47880364135881
  0
ARC
  5
2D3
330
53
100
AcDbEntity
  8
1
  6
Continuous
 62
     7
100
AcDbCircle
 10
170.5270886479057
 20
546.3680932269706
 30
0.0
 40
11.00000000000023
100
AcDbArc
 50
129.5211963586412
 51
0.0
  0
ARC
  5
2D4
330
53
100
AcDbEntity
  8
1
  6
Continuous
 62
     2
100
AcDbCircle
 10
170.5270886479057
 20
546.3680932269706
 30
0.0
 40
10.19
100
AcDbArc
 50
0.0
 51
46.61100138732151
  0
ARC
  5
2D5
330
53
100
AcDbEntity
  8
1
  6
Continuous
 62
     2
100
AcDbCircle
 10
170.5270886479057
 20
546.3680932269706
 30
0.0
 40
10.18999999999991
100
AcDbArc
 50
133.3889986126777
 51
0.0
  0
ARC
  5
2D6
330
53
100
AcDbEntity
  8
1
  6
Continuous
 62
     7
100
AcDbCircle
 10
165.0270891058194
 20
546.368093226971
 30
0.0
 40
2.499999999999779
100
AcDbArc
 50
157.4999999999949
 51
202.5000000000003
  0
ARC
  5
2D7
330
53
100
AcDbEntity
  8
1
  6
Continuous
 62
     7
100
AcDbCircle
 10
166.6380016751737
 20
542.4790062542382
 30
0.0
 40
2.500000000000287
100
AcDbArc
 50
202.4999999999974
 51
247.4999999999949
  0
ARC
  5
2D8
330
53
100
AcDbEntity
  8
1
  6
Continuous
 62
     7
100
AcDbCircle
 10
170.5270886479057
 20
540.8680936848841
 30
0.0
 40
2.499999999999852
100
AcDbArc
 50
247.5000000000062
 51
292.4999999999974
  0
ARC
  5
2D9
330
53
100
AcDbEntity
  8
1
  6
Continuous
 62
     7
100
AcDbCircle
 10
174.4161756206379
 20
542.4790062542382
 30
0.0
 40
2.499999999999823
100
AcDbArc
 50
292.499999999999
 51
337.5000000000046
  0
ARC
  5
2DA
330
53
100
AcDbEntity
  8
1
  6
Continuous
 62
     7
100
AcDbCircle
 10
176.0270881899921
 20
546.368093226971
 30
0.0
 40
2.499999999999771
100
AcDbArc
 50
337.5000000000005
 51
22.50000000000436
  0
ENDBLK
  5
55
330
53
100
AcDbEntity
  8
0
100
AcDbBlockEnd
  0
BLOCK
  5
5A
330
56
100
AcDbEntity
  8
0
100
AcDbBlockBegin
  2
76-120-300
 70
     0
 10
1746.144359264479
 20
141.3481794842854
 30
0.0
  3
76-120-300
  1

  0
INSERT
  5
57
330
56
100
AcDbEntity
  8
1
100
AcDbBlockReference
  2
76-120-H1
 10
542.3457720980216
 20
385.5297528732306
 30
0.0
  0
INSERT
  5
58
330
56
100
AcDbEntity
  8
0
100
AcDbBlockReference
  2
76-120-_長さ_-H2
 10
1221.445024864555
 20
369.4047528732349
 30
0.0
  0
INSERT
  5
59
330
56
100
AcDbEntity
  8
0
100
AcDbBlockReference
  2
76-120-H3
 10
1040.506069880822
 20
892.2491930018404
 30
0.0
  0
LINE
  5
2DB
330
56
100
AcDbEntity
  8
1
  6
PHANTOM
 62
     4
100
AcDbLine
 10
411.4450248645549
 20
341.3680932269709
 30
0.0
 11
547.9450248645553
 21
341.3680932269708
 31
0.0
  0
LINE
  5
2DC
330
56
100
AcDbEntity
  8
0
  6
PHANTOM
 62
     4
100
AcDbLine
 10
572.9450248645553
 20
316.3680932269708
 30
0.0
 11
572.9450248645553
 21
292.3680932269708
 31
0.0
  0
LINE
  5
2DD
330
56
100
AcDbEntity
  8
0
  6
PHANTOM
 62
     4
100
AcDbLine
 10
583.7465193314879
 20
307.8680932269708
 30
0.0
 11
572.9450248645553
 21
307.8680932269708
 31
0.0
  0
LINE
  5
2DE
330
56
100
AcDbEntity
  8
0
  6
PHANTOM
 62
     4
100
AcDbLine
 10
561.8996883403622
 20
307.8680932269708
 30
0.0
 11
572.9450248645553
 21
307.8680932269708
 31
0.0
  0
LINE
  5
2DF
330
56
100
AcDbEntity
  8
1
  6
PHANTOM
 62
     4
100
AcDbLine
 10
361.4450248645549
 20
220.8680932269709
 30
0.0
 11
361.4450248645549
 21
291.3680932269709
 31
0.0
  0
ARC
  5
2E0
330
56
100
AcDbEntity
  8
1
  6
PHANTOM
 62
     4
100
AcDbCircle
 10
547.9450248645553
 20
316.3680932269708
 30
0.0
 40
25.0
100
AcDbArc
 50
0.0
 51
90.0
  0
ARC
  5
2E1
330
56
100
AcDbEntity
  8
1
  6
PHANTOM
 62
     4
100
AcDbCircle
 10
411.4450248645549
 20
291.3680932269709
 30
0.0
 40
50.0
100
AcDbArc
 50
90.0
 51
180.0
  0
ENDBLK
  5
5B
330
56
100
AcDbEntity
  8
0
100
AcDbBlockEnd
  0
BLOCK
  5
5D
330
5C
100
AcDbEntity
  8
0
100
AcDbBlockBegin
  2
A20-0-13
 70
     0
 10
508.8047027852473
 20
154.8340216843292
 30
0.0
  3
A20-0-13
  1

  0
LINE
  5
2E2
330
5C
100
AcDbEntity
  8
1
  6
Continuous
 62
     7
100
AcDbLine
 10
178.5270886479057
 20
263.3650099760297
 30
0.0
 11
189.6960837396254
 21
264.1578757947774
 31
0.0
  0
LINE
  5
2E3
330
5C
100
AcDbEntity
  8
1
  6
Continuous
 62
     7
100
AcDbLine
 10
163.5270886479057
 20
300.368093226971
 30
0.0
 11
157.5270886479058
 21
300.3680932269711
 31
0.0
  0
LINE
  5
2E4
330
5C
100
AcDbEntity
  8
1
  6
Continuous
 62
     7
100
AcDbLine
 10
599.5758320810526
 20
285.6180932269708
 30
0.0
 11
597.9450248645558
 21
285.6180932269708
 31
0.0
  0
LINE
  5
2E5
330
5C
100
AcDbEntity
  8
1
  6
Continuous
 62
     7
100
AcDbLine
 10
192.5270886479058
 20
288.8680932269707
 30
0.0
 11
195.9567799360908
 21
288.8680932269707
 31
0.0
  0
LINE
  5
2E6
330
5C
100
AcDbEntity
  8
1
  6
Continuous
 62
     2
100
AcDbLine
 10
619.6770756721247
 20
267.3680932269708
 30
0.0
 11
617.9450248645558
 21
266.3680932269708
 31
0.0
  0
LINE
  5
2E7
330
5C
100
AcDbEntity
  8
1
  6
Continuous
 62
     7
100
AcDbLine
 10
617.9450248645558
 20
266.3680932269708
 30
0.0
 11
617.9450248645558
 21
253.8680932269708
 31
0.0
  0
LINE
  5
2E8
330
5C
100
AcDbEntity
  8
1
  6
Continuous
 62
     7
100
AcDbLine
 10
615.9450248645558
 20
253.8680932269708
 30
0.0
 11
617.9450248645558
 21
253.8680932269708
 31
0.0
  0
LINE
  5
2E9
330
5C
100
AcDbEntity
  8
1
  6
Continuous
 62
     7
100
AcDbLine
 10
615.4450248645558
 20
254.3680932269708
 30
0.0
 11
615.4450248645558
 21
264.1180932269708
 31
0.0
  0
LINE
  5
2EA
330
5C
100
AcDbEntity
  8
1
  6
Continuous
 62
     2
100
AcDbLine
 10
631.9450248645558
 20
267.3680932269708
 30
0.0
 11
630.9450248645558
 21
267.3680932269708
 31
0.0
  0
LINE
  5
2EB
330
5C
100
AcDbEntity
  8
1
  6
Continuous
 62
     7
100
AcDbLine
 10
611.4450248645558
 20
268.1180932269708
 30
0.0
 11
601.2049059160452
 21
268.1180932269708
 31
0.0
  0
LINE
  5
2EC
330
5C
100
AcDbEntity
  8
1
  6
Continuous
 62
     7
100
AcDbLine
 10
617.9450248645558
 20
299.8680932269708
 30
0.0
 11
615.9450248645558
 21
299.8680932269708
 31
0.0
  0
LINE
  5
2ED
330
5C
100
AcDbEntity
  8
1
  6
Continuous
 62
     7
100
AcDbLine
 10
617.9450248645558
 20
299.8680932269708
 30
0.0
 11
617.9450248645558
 21
266.3680932269708
 31
0.0
  0
LINE
  5
2EE
330
5C
100
AcDbEntity
  8
1
  6
Continuous
 62
     2
100
AcDbLine
 10
617.9450248645558
 20
287.3680932269708
 30
0.0
 11
619.6770756721247
 21
286.3680932269708
 31
0.0
  0
LINE
  5
2EF
330
5C
100
AcDbEntity
  8
1
  6
Continuous
 62
     2
100
AcDbLine
 10
619.6770756721247
 20
286.3680932269708
 30
0.0
 11
630.9450248645558
 21
286.3680932269708
 31
0.0
  0
LINE
  5
2F0
330
5C
100
AcDbEntity
  8
1
  6
Continuous
 62
     7
100
AcDbLine
 10
611.4450248645558
 20
285.6180932269708
 30
0.0
 11
599.5758320810526
 21
285.6180932269708
 31
0.0
  0
LINE
  5
2F1
330
5C
100
AcDbEntity
  8
1
  6
Continuous
 62
     7
100
AcDbLine
 10
615.4450248645558
 20
264.1180932269708
 30
0.0
 11
615.4450248645558
 21
299.3680932269708
 31
0.0
  0
LINE
  5
2F2
330
5C
100
AcDbEntity
  8
1
  6
Continuous
 62
     7
100
AcDbLine
 10
631.9450248645558
 20
282.8680932269708
 30
0.0
 11
631.9450248645558
 21
286.3680932269708
 31
0.0
  0
LINE
  5
2F3
330
5C
100
AcDbEntity
  8
1
  6
Continuous
 62
     7
100
AcDbLine
 10
631.9450248645558
 20
270.8680932269708
 30
0.0
 11
631.9450248645558
 21
267.3680932269708
 31
0.0
  0
LINE
  5
2F4
330
5C
100
AcDbEntity
  8
1
  6
Continuous
 62
     7
100
AcDbLine
 10
585.9450248645558
 20
298.6360424194019
 30
0.0
 11
585.9450248645558
 21
297.6180932269708
 31
0.0
  0
LINE
  5
2F5
330
5C
100
AcDbEntity
  8
1
  6
Continuous
 62
     7
100
AcDbLine
 10
183.5270886479058
 20
298.6360424194018
 30
0.0
 11
183.5270886479058
 21
297.6180932269707
 31
0.0
  0
LINE
  5
2F6
330
5C
100
AcDbEntity
  8
1
  6
Continuous
 62
     7
100
AcDbLine
 10
157.5270886479058
 20
301.8680932269707
 30
0.0
 11
157.5270886479058
 21
295.841759187981
 31
0.0
  0
LINE
  5
2F7
330
5C
100
AcDbEntity
  8
1
  6
Continuous
 62
     7
100
AcDbLine
 10
192.5270886479058
 20
289.3773429797936
 30
0.0
 11
189.6960837396254
 21
289.578310659164
 31
0.0
  0
LINE
  5
2F8
330
5C
100
AcDbEntity
  8
1
  6
Continuous
 62
     7
100
AcDbLine
 10
192.5270886479058
 20
264.8680932269707
 30
0.0
 11
192.5270886479058
 21
289.3773429797936
 31
0.0
  0
LINE
  5
2F9
330
5C
100
AcDbEntity
  8
1
  6
Continuous
 62
     7
100
AcDbLine
 10
192.5270886479058
 20
264.3588434741478
 30
0.0
 11
192.5270886479058
 21
264.8680932269707
 31
0.0
  0
LINE
  5
2FA
330
5C
100
AcDbEntity
  8
1
  6
Continuous
 62
     7
100
AcDbLine
 10
183.5270886479058
 20
297.6180932269707
 30
0.0
 11
183.5270886479058
 21
295.841759187981
 31
0.0
  0
LINE
  5
2FB
330
5C
100
AcDbEntity
  8
1
  6
Continuous
 62
     7
100
AcDbLine
 10
189.6960837396254
 20
264.1578757947774
 30
0.0
 11
192.5270886479058
 21
264.3588434741478
 31
0.0
  0
LINE
  5
2FC
330
5C
100
AcDbEntity
  8
1
  6
Continuous
 62
     7
100
AcDbLine
 10
189.6960837396254
 20
289.578310659164
 30
0.0
 11
189.1022291602141
 21
289.6204672715947
 31
0.0
  0
LINE
  5
2FD
330
5C
100
AcDbEntity
  8
1
  6
Continuous
 62
     7
100
AcDbLine
 10
157.5270886479058
 20
295.841759187981
 30
0.0
 11
157.5270886479058
 21
276.8680932269707
 31
0.0
  0
LINE
  5
2FE
330
5C
100
AcDbEntity
  8
1
  6
Continuous
 62
     7
100
AcDbLine
 10
183.5270886479058
 20
295.841759187981
 30
0.0
 11
183.5270886479058
 21
295.6054062366735
 31
0.0
  0
LINE
  5
2FF
330
5C
100
AcDbEntity
  8
1
  6
Continuous
 62
     7
100
AcDbLine
 10
192.5270886479058
 20
264.8680932269707
 30
0.0
 11
195.9567799360908
 21
264.8680932269706
 31
0.0
  0
LINE
  5
300
330
5C
100
AcDbEntity
  8
1
  6
Continuous
 62
     7
100
AcDbLine
 10
559.9450248645558
 20
301.8680932269709
 30
0.0
 11
559.9450248645558
 21
286.1954722800596
 31
0.0
  0
LINE
  5
301
330
5C
100
AcDbEntity
  8
1
  6
Continuous
 62
     7
100
AcDbLine
 10
585.9450248645558
 20
298.6360424194019
 30
0.0
 11
585.9450248645558
 21
301.8680932269709
 31
0.0
  0
LINE
  5
302
330
5C
100
AcDbEntity
  8
1
  6
Continuous
 62
     7
100
AcDbLine
 10
631.9450248645558
 20
276.8680932269708
 30
0.0
 11
631.9450248645558
 21
282.8680932269708
 31
0.0
  0
LINE
  5
303
330
5C
100
AcDbEntity
  8
1
  6
Continuous
 62
     7
100
AcDbLine
 10
631.9450248645558
 20
276.8680932269708
 30
0.0
 11
631.9450248645558
 21
270.8680932269708
 31
0.0
  0
LINE
  5
304
330
5C
100
AcDbEntity
  8
1
  6
Continuous
 62
     7
100
AcDbLine
 10
630.9450248645558
 20
266.3680932269708
 30
0.0
 11
631.9450248645558
 21
267.3680932269708
 31
0.0
  0
LINE
  5
305
330
5C
100
AcDbEntity
  8
1
  6
Continuous
 62
     7
100
AcDbLine
 10
630.9450248645558
 20
266.3680932269708
 30
0.0
 11
619.6770756721247
 21
266.3680932269708
 31
0.0
  0
LINE
  5
306
330
5C
100
AcDbEntity
  8
1
  6
Continuous
 62
     7
100
AcDbLine
 10
619.6770756721247
 20
287.3680932269708
 30
0.0
 11
630.9450248645558
 21
287.3680932269708
 31
0.0
  0
LINE
  5
307
330
5C
100
AcDbEntity
  8
1
  6
Continuous
 62
     7
100
AcDbLine
 10
619.6770756721247
 20
267.3680932269708
 30
0.0
 11
619.6770756721247
 21
287.3680932269708
 31
0.0
  0
LINE
  5
308
330
5C
100
AcDbEntity
  8
1
  6
Continuous
 62
     7
100
AcDbLine
 10
631.9450248645558
 20
286.3680932269708
 30
0.0
 11
630.9450248645558
 21
287.3680932269708
 31
0.0
  0
LINE
  5
309
330
5C
100
AcDbEntity
  8
1
  6
Continuous
 62
     7
100
AcDbLine
 10
617.9450248645558
 20
287.3680932269708
 30
0.0
 11
619.6770756721247
 21
287.3680932269708
 31
0.0
  0
LINE
  5
30A
330
5C
100
AcDbEntity
  8
1
  6
Continuous
 62
     7
100
AcDbLine
 10
619.6770756721247
 20
266.3680932269708
 30
0.0
 11
617.9450248645558
 21
266.3680932269708
 31
0.0
  0
LINE
  5
30B
330
5C
100
AcDbEntity
  8
1
  6
Continuous
 62
     7
100
AcDbLine
 10
619.6770756721247
 20
266.3680932269708
 30
0.0
 11
619.6770756721247
 21
267.3680932269708
 31
0.0
  0
LINE
  5
30C
330
5C
100
AcDbEntity
  8
1
  6
Continuous
 62
     7
100
AcDbLine
 10
601.2049059160452
 20
268.1180932269708
 30
0.0
 11
599.2570699213832
 21
268.1180932269708
 31
0.0
  0
LINE
  5
30D
330
5C
100
AcDbEntity
  8
1
  6
Continuous
 62
     7
100
AcDbLine
 10
630.9450248645558
 20
287.3680932269708
 30
0.0
 11
630.9450248645558
 21
267.3680932269708
 31
0.0
  0
LINE
  5
30E
330
5C
100
AcDbEntity
  8
1
  6
Continuous
 62
     2
100
AcDbLine
 10
630.9450248645558
 20
286.3680932269708
 30
0.0
 11
631.9450248645558
 21
286.3680932269708
 31
0.0
  0
LINE
  5
30F
330
5C
100
AcDbEntity
  8
1
  6
Continuous
 62
     7
100
AcDbLine
 10
630.9450248645558
 20
266.3680932269708
 30
0.0
 11
630.9450248645558
 21
267.3680932269708
 31
0.0
  0
LINE
  5
310
330
5C
100
AcDbEntity
  8
1
  6
Continuous
 62
     2
100
AcDbLine
 10
630.9450248645558
 20
267.3680932269708
 30
0.0
 11
619.6770756721247
 21
267.3680932269708
 31
0.0
  0
LINE
  5
311
330
5C
100
AcDbEntity
  8
1
  6
Continuous
 62
     2
100
AcDbLine
 10
180.0270886479057
 20
804.6001440345395
 30
0.0
 11
181.0270886479057
 21
802.8680932269706
 31
0.0
  0
LINE
  5
312
330
5C
100
AcDbEntity
  8
1
  6
Continuous
 62
     7
100
AcDbLine
 10
181.0270886479057
 20
802.8680932269706
 30
0.0
 11
193.5270886479057
 21
802.8680932269706
 31
0.0
  0
LINE
  5
313
330
5C
100
AcDbEntity
  8
1
  6
Continuous
 62
     7
100
AcDbLine
 10
193.5270886479057
 20
800.8680932269706
 30
0.0
 11
193.5270886479057
 21
802.8680932269706
 31
0.0
  0
LINE
  5
314
330
5C
100
AcDbEntity
  8
1
  6
Continuous
 62
     7
100
AcDbLine
 10
193.0270886479057
 20
800.3680932269706
 30
0.0
 11
183.2770886479057
 21
800.3680932269706
 31
0.0
  0
LINE
  5
315
330
5C
100
AcDbEntity
  8
1
  6
Continuous
 62
     2
100
AcDbLine
 10
180.0270886479057
 20
816.8680932269706
 30
0.0
 11
180.0270886479057
 21
815.8680932269706
 31
0.0
  0
LINE
  5
316
330
5C
100
AcDbEntity
  8
1
  6
Continuous
 62
     7
100
AcDbLine
 10
147.5270886479057
 20
802.8680932269706
 30
0.0
 11
147.5270886479057
 21
800.8680932269706
 31
0.0
  0
LINE
  5
317
330
5C
100
AcDbEntity
  8
1
  6
Continuous
 62
     7
100
AcDbLine
 10
147.5270886479057
 20
802.8680932269706
 30
0.0
 11
181.0270886479057
 21
802.8680932269706
 31
0.0
  0
LINE
  5
318
330
5C
100
AcDbEntity
  8
1
  6
Continuous
 62
     2
100
AcDbLine
 10
160.0270886479057
 20
802.8680932269706
 30
0.0
 11
161.0270886479057
 21
804.6001440345395
 31
0.0
  0
LINE
  5
319
330
5C
100
AcDbEntity
  8
1
  6
Continuous
 62
     2
100
AcDbLine
 10
161.0270886479057
 20
804.6001440345395
 30
0.0
 11
161.0270886479057
 21
815.8680932269706
 31
0.0
  0
LINE
  5
31A
330
5C
100
AcDbEntity
  8
1
  6
Continuous
 62
     7
100
AcDbLine
 10
183.2770886479057
 20
800.3680932269706
 30
0.0
 11
148.0270886479057
 21
800.3680932269706
 31
0.0
  0
LINE
  5
31B
330
5C
100
AcDbEntity
  8
1
  6
Continuous
 62
     7
100
AcDbLine
 10
164.5270886479057
 20
816.8680932269706
 30
0.0
 11
161.0270886479057
 21
816.8680932269706
 31
0.0
  0
LINE
  5
31C
330
5C
100
AcDbEntity
  8
1
  6
Continuous
 62
     7
100
AcDbLine
 10
176.5270886479057
 20
816.8680932269706
 30
0.0
 11
180.0270886479057
 21
816.8680932269706
 31
0.0
  0
LINE
  5
31D
330
5C
100
AcDbEntity
  8
1
  6
Continuous
 62
     7
100
AcDbLine
 10
170.5270886479057
 20
816.8680932269706
 30
0.0
 11
164.5270886479057
 21
816.8680932269706
 31
0.0
  0
LINE
  5
31E
330
5C
100
AcDbEntity
  8
1
  6
Continuous
 62
     7
100
AcDbLine
 10
170.5270886479057
 20
816.8680932269706
 30
0.0
 11
176.5270886479057
 21
816.8680932269706
 31
0.0
  0
LINE
  5
31F
330
5C
100
AcDbEntity
  8
1
  6
Continuous
 62
     7
100
AcDbLine
 10
181.0270886479057
 20
815.8680932269706
 30
0.0
 11
180.0270886479057
 21
816.8680932269706
 31
0.0
  0
LINE
  5
320
330
5C
100
AcDbEntity
  8
1
  6
Continuous
 62
     7
100
AcDbLine
 10
181.0270886479057
 20
815.8680932269706
 30
0.0
 11
181.0270886479057
 21
804.6001440345395
 31
0.0
  0
LINE
  5
321
330
5C
100
AcDbEntity
  8
1
  6
Continuous
 62
     7
100
AcDbLine
 10
160.0270886479057
 20
804.6001440345395
 30
0.0
 11
160.0270886479057
 21
815.8680932269706
 31
0.0
  0
LINE
  5
322
330
5C
100
AcDbEntity
  8
1
  6
Continuous
 62
     7
100
AcDbLine
 10
180.0270886479057
 20
804.6001440345395
 30
0.0
 11
160.0270886479057
 21
804.6001440345395
 31
0.0
  0
LINE
  5
323
330
5C
100
AcDbEntity
  8
1
  6
Continuous
 62
     7
100
AcDbLine
 10
161.0270886479057
 20
816.8680932269706
 30
0.0
 11
160.0270886479057
 21
815.8680932269706
 31
0.0
  0
LINE
  5
324
330
5C
100
AcDbEntity
  8
1
  6
Continuous
 62
     7
100
AcDbLine
 10
160.0270886479057
 20
802.8680932269706
 30
0.0
 11
160.0270886479057
 21
804.6001440345395
 31
0.0
  0
LINE
  5
325
330
5C
100
AcDbEntity
  8
1
  6
Continuous
 62
     7
100
AcDbLine
 10
181.0270886479057
 20
804.6001440345395
 30
0.0
 11
181.0270886479057
 21
802.8680932269706
 31
0.0
  0
LINE
  5
326
330
5C
100
AcDbEntity
  8
1
  6
Continuous
 62
     7
100
AcDbLine
 10
181.0270886479057
 20
804.6001440345395
 30
0.0
 11
180.0270886479057
 21
804.6001440345395
 31
0.0
  0
LINE
  5
327
330
5C
100
AcDbEntity
  8
1
  6
Continuous
 62
     7
100
AcDbLine
 10
160.0270886479057
 20
815.8680932269706
 30
0.0
 11
180.0270886479057
 21
815.8680932269706
 31
0.0
  0
LINE
  5
328
330
5C
100
AcDbEntity
  8
1
  6
Continuous
 62
     2
100
AcDbLine
 10
161.0270886479057
 20
815.8680932269706
 30
0.0
 11
161.0270886479057
 21
816.8680932269706
 31
0.0
  0
LINE
  5
329
330
5C
100
AcDbEntity
  8
1
  6
Continuous
 62
     7
100
AcDbLine
 10
181.0270886479057
 20
815.8680932269706
 30
0.0
 11
180.0270886479057
 21
815.8680932269706
 31
0.0
  0
LINE
  5
32A
330
5C
100
AcDbEntity
  8
1
  6
Continuous
 62
     2
100
AcDbLine
 10
180.0270886479057
 20
815.8680932269706
 30
0.0
 11
180.0270886479057
 21
804.6001440345395
 31
0.0
  0
LINE
  5
32B
330
5C
100
AcDbEntity
  8
1
  6
Continuous
 62
     7
100
AcDbLine
 10
161.7770886479065
 20
776.7343991716966
 30
0.0
 11
161.7770886479057
 21
796.3680932269706
 31
0.0
  0
LINE
  5
32C
330
5C
100
AcDbEntity
  8
1
  6
Continuous
 62
     7
100
AcDbLine
 10
179.2770886479065
 20
776.3669513397922
 30
0.0
 11
179.2770886479057
 21
796.3680932269706
 31
0.0
  0
LINE
  5
32D
330
5C
100
AcDbEntity
  8
1
  6
Continuous
 62
     7
100
AcDbLine
 10
185.0686941173685
 20
770.3705714552584
 30
0.0
 11
192.3638492390656
 21
770.1170400819865
 31
0.0
  0
LINE
  5
32E
330
5C
100
AcDbEntity
  8
1
  6
Continuous
 62
     7
100
AcDbLine
 10
192.5270886479065
 20
745.3588434741478
 30
0.0
 11
192.5270886479065
 21
769.8680932269706
 31
0.0
  0
LINE
  5
32F
330
5C
100
AcDbEntity
  8
1
  6
Continuous
 62
     7
100
AcDbLine
 10
192.3638492390656
 20
770.1170400819865
 30
0.0
 11
192.5270886479065
 21
770.1077603740368
 31
0.0
  0
LINE
  5
330
330
5C
100
AcDbEntity
  8
1
  6
Continuous
 62
     7
100
AcDbLine
 10
192.5270886479065
 20
770.1077603740368
 30
0.0
 11
192.5270886479065
 21
769.8680932269706
 31
0.0
  0
LINE
  5
331
330
5C
100
AcDbEntity
  8
1
  6
Continuous
 62
     7
100
AcDbLine
 10
192.5270886479065
 20
745.8680932269706
 30
0.0
 11
195.957088647906
 21
745.8680932269704
 31
0.0
  0
LINE
  5
332
330
5C
100
AcDbEntity
  8
1
  6
Continuous
 62
     7
100
AcDbLine
 10
192.5270886479065
 20
769.8680932269706
 30
0.0
 11
195.957088647906
 21
769.8680932269706
 31
0.0
  0
LINE
  5
333
330
5C
100
AcDbEntity
  8
1
  6
Continuous
 62
     7
100
AcDbLine
 10
178.5270886479059
 20
744.3650099760296
 30
0.0
 11
192.5270886479065
 21
745.3588434741478
 31
0.0
  0
LINE
  5
334
330
5C
100
AcDbEntity
  8
1
  6
Continuous
 62
     7
100
AcDbLine
 10
183.5270886479058
 20
301.8680932269707
 30
0.0
 11
183.5270886479058
 21
298.6360424194018
 31
0.0
  0
LINE
  5
335
330
5C
100
AcDbEntity
  8
1
  6
Continuous
 62
     7
100
AcDbLine
 10
183.5270886479052
 20
300.368093226971
 30
0.0
 11
177.5270886479057
 21
300.3680932269709
 31
0.0
  0
LINE
  5
336
330
5C
100
AcDbEntity
  8
1
  6
Continuous
 62
     2
100
AcDbLine
 10
182.5270886479052
 20
301.868093226971
 30
0.0
 11
182.5270886479052
 21
300.368093226971
 31
0.0
  0
LINE
  5
337
330
5C
100
AcDbEntity
  8
1
  6
Continuous
 62
     2
100
AcDbLine
 10
183.5270886479058
 20
298.6360424194018
 30
0.0
 11
182.5270886479052
 21
300.368093226971
 31
0.0
  0
LINE
  5
338
330
5C
100
AcDbEntity
  8
1
  6
Continuous
 62
     2
100
AcDbLine
 10
158.5270886479052
 20
300.368093226971
 30
0.0
 11
158.5270886479052
 21
301.868093226971
 31
0.0
  0
LINE
  5
339
330
5C
100
AcDbEntity
  8
1
  6
Continuous
 62
     2
100
AcDbLine
 10
158.5270886479052
 20
300.368093226971
 30
0.0
 11
157.5270886479052
 21
298.6360424194021
 31
0.0
  0
LINE
  5
33A
330
5C
100
AcDbEntity
  8
1
  6
Continuous
 62
     7
100
AcDbLine
 10
585.9450248645549
 20
300.3680932269709
 30
0.0
 11
579.558605735662
 21
300.3680932269709
 31
0.0
  0
LINE
  5
33B
330
5C
100
AcDbEntity
  8
1
  6
Continuous
 62
     2
100
AcDbLine
 10
584.9450248645549
 20
301.8680932269709
 30
0.0
 11
584.9450248645549
 21
300.3680932269709
 31
0.0
  0
LINE
  5
33C
330
5C
100
AcDbEntity
  8
1
  6
Continuous
 62
     2
100
AcDbLine
 10
585.9450248645558
 20
298.6360424194019
 30
0.0
 11
584.9450248645549
 21
300.3680932269709
 31
0.0
  0
LINE
  5
33D
330
5C
100
AcDbEntity
  8
1
  6
Continuous
 62
     7
100
AcDbLine
 10
566.3314439934477
 20
300.3680932269709
 30
0.0
 11
559.9450248645549
 21
300.3680932269709
 31
0.0
  0
LINE
  5
33E
330
5C
100
AcDbEntity
  8
1
  6
Continuous
 62
     2
100
AcDbLine
 10
560.9450248645549
 20
300.3680932269709
 30
0.0
 11
560.9450248645549
 21
301.8680932269709
 31
0.0
  0
LINE
  5
33F
330
5C
100
AcDbEntity
  8
1
  6
Continuous
 62
     2
100
AcDbLine
 10
560.9450248645549
 20
300.3680932269709
 30
0.0
 11
559.9450248645549
 21
298.636042419402
 31
0.0
  0
ARC
  5
340
330
5C
100
AcDbEntity
  8
1
  6
Continuous
 62
     7
100
AcDbCircle
 10
170.5270886479058
 20
276.8680932269707
 30
0.0
 40
23.0
100
AcDbArc
 50
124.4173887104416
 51
249.6455936017626
  0
ARC
  5
341
330
5C
100
AcDbEntity
  8
1
  6
Continuous
 62
     7
100
AcDbCircle
 10
171.5270886479058
 20
276.8680932269707
 30
0.0
 40
14.0
100
AcDbArc
 50
180.0
 51
229.9947991151395
  0
ARC
  5
342
330
5C
100
AcDbEntity
  8
1
  6
Continuous
 62
     7
100
AcDbCircle
 10
529.9450248645559
 20
286.1954722800596
 30
0.0
 40
29.99999999999985
100
AcDbArc
 50
351.1668016303225
 51
0.0
  0
ARC
  5
343
330
5C
100
AcDbEntity
  8
1
  6
Continuous
 62
     7
100
AcDbCircle
 10
597.9450248645558
 20
297.6180932269708
 30
0.0
 40
12.0
100
AcDbArc
 50
180.0
 51
270.0
  0
ARC
  5
344
330
5C
100
AcDbEntity
  8
1
  6
Continuous
 62
     7
100
AcDbCircle
 10
170.5270886479058
 20
276.8680932269707
 30
0.0
 40
23.00000000000004
100
AcDbArc
 50
290.354406398237
 51
326.4531849841857
  0
ARC
  5
345
330
5C
100
AcDbEntity
  8
1
  6
Continuous
 62
     7
100
AcDbCircle
 10
170.5270886479058
 20
276.8680932269707
 30
0.0
 40
23.00000000000002
100
AcDbArc
 50
33.5468150158143
 51
55.58261128955844
  0
ARC
  5
346
330
5C
100
AcDbEntity
  8
1
  6
Continuous
 62
     7
100
AcDbCircle
 10
572.9450248645558
 20
276.8680932269708
 30
0.0
 40
13.99999999999992
100
AcDbArc
 50
262.866123356669
 51
277.1288259215207
  0
ARC
  5
347
330
5C
100
AcDbEntity
  8
1
  6
Continuous
 62
     7
100
AcDbCircle
 10
185.2770886479065
 20
776.3669513397922
 30
0.0
 40
6.0
100
AcDbArc
 50
180.0
 51
268.0095784963412
  0
ARC
  5
348
330
5C
100
AcDbEntity
  8
1
  6
Continuous
 62
     7
100
AcDbCircle
 10
131.7770886479065
 20
776.7343991716966
 30
0.0
 40
29.99999999999967
100
AcDbArc
 50
344.8973630808176
 51
0.0
  0
ARC
  5
349
330
5C
100
AcDbEntity
  8
1
  6
Continuous
 62
     7
100
AcDbCircle
 10
611.4450248645558
 20
264.1180932269708
 30
0.0
 40
4.0
100
AcDbArc
 50
0.0
 51
90.0
  0
ARC
  5
34A
330
5C
100
AcDbEntity
  8
1
  6
Continuous
 62
     7
100
AcDbCircle
 10
615.9450248645558
 20
254.3680932269708
 30
0.0
 40
0.5
100
AcDbArc
 50
180.0
 51
270.0
  0
ARC
  5
34B
330
5C
100
AcDbEntity
  8
1
  6
Continuous
 62
     7
100
AcDbCircle
 10
611.4450248645558
 20
289.6180932269708
 30
0.0
 40
4.0
100
AcDbArc
 50
270.0
 51
0.0
  0
ARC
  5
34C
330
5C
100
AcDbEntity
  8
1
  6
Continuous
 62
     7
100
AcDbCircle
 10
615.9450248645558
 20
299.3680932269708
 30
0.0
 40
0.5
100
AcDbArc
 50
90.0
 51
180.0
  0
ARC
  5
34D
330
5C
100
AcDbEntity
  8
1
  6
Continuous
 62
     7
100
AcDbCircle
 10
189.5270886479058
 20
295.6054062366735
 30
0.0
 40
6.0
100
AcDbArc
 50
180.0
 51
265.9394926513546
  0
ARC
  5
34E
330
5C
100
AcDbEntity
  8
1
  6
Continuous
 62
     7
100
AcDbCircle
 10
183.2770886479057
 20
796.3680932269706
 30
0.0
 40
4.0
100
AcDbArc
 50
90.0
 51
180.0
  0
ARC
  5
34F
330
5C
100
AcDbEntity
  8
1
  6
Continuous
 62
     7
100
AcDbCircle
 10
193.0270886479057
 20
800.8680932269706
 30
0.0
 40
0.5
100
AcDbArc
 50
270.0
 51
0.0
  0
ARC
  5
350
330
5C
100
AcDbEntity
  8
1
  6
Continuous
 62
     7
100
AcDbCircle
 10
157.7770886479057
 20
796.3680932269706
 30
0.0
 40
4.0
100
AcDbArc
 50
0.0
 51
90.0
  0
ARC
  5
351
330
5C
100
AcDbEntity
  8
1
  6
Continuous
 62
     7
100
AcDbCircle
 10
148.0270886479057
 20
800.8680932269706
 30
0.0
 40
0.5
100
AcDbArc
 50
180.0
 51
270.0
  0
ENDBLK
  5
5E
330
5C
100
AcDbEntity
  8
0
100
AcDbBlockEnd
  0
BLOCK
  5
60
330
5F
100
AcDbEntity
  8
0
100
AcDbBlockBegin
  2
37-1-13
 70
     0
 10
499.8907436783971
 20
-15.53449106111397
 30
0.0
  3
37-1-13
  1

  0
LINE
  5
352
330
5F
100
AcDbEntity
  8
1
  6
Continuous
 62
     7
100
AcDbLine
 10
209.9567799360908
 20
270.8680932269704
 30
0.0
 11
209.9567799360908
 21
282.8680932269704
 31
0.0
  0
LINE
  5
353
330
5F
100
AcDbEntity
  8
1
  6
Continuous
 62
     7
100
AcDbLine
 10
195.9567799360908
 20
263.7973790126993
 30
0.0
 11
195.9567799360908
 21
289.938807441242
 31
0.0
  0
LINE
  5
354
330
5F
100
AcDbEntity
  8
1
  6
Continuous
 62
     7
100
AcDbLine
 10
209.957088647906
 20
757.8680932269706
 30
0.0
 11
209.957088647906
 21
762.8680932269706
 31
0.0
  0
LINE
  5
355
330
5F
100
AcDbEntity
  8
1
  6
Continuous
 62
     7
100
AcDbLine
 10
209.957088647906
 20
757.8680932269706
 30
0.0
 11
209.957088647906
 21
751.8680932269706
 31
0.0
  0
LINE
  5
356
330
5F
100
AcDbEntity
  8
1
  6
Continuous
 62
     7
100
AcDbLine
 10
209.957088647906
 20
762.8680932269706
 30
0.0
 11
209.957088647906
 21
763.8680932269706
 31
0.0
  0
LINE
  5
357
330
5F
100
AcDbEntity
  8
1
  6
Continuous
 62
     7
100
AcDbLine
 10
195.957088647906
 20
757.8680932269706
 30
0.0
 11
195.957088647906
 21
744.8680932269706
 31
0.0
  0
LINE
  5
358
330
5F
100
AcDbEntity
  8
1
  6
Continuous
 62
     7
100
AcDbLine
 10
195.957088647906
 20
757.8680932269706
 30
0.0
 11
195.957088647906
 21
770.8680932269706
 31
0.0
  0
LINE
  5
359
330
5F
100
AcDbEntity
  8
1
  6
Continuous
 62
     7
100
AcDbLine
 10
203.0278028621773
 20
744.8680932269706
 30
0.0
 11
195.957088647906
 21
744.8680932269706
 31
0.0
  0
LINE
  5
35A
330
5F
100
AcDbEntity
  8
1
  6
Continuous
 62
     7
100
AcDbLine
 10
195.957088647906
 20
770.8680932269706
 30
0.0
 11
203.0278028621773
 21
770.8680932269706
 31
0.0
  0
LINE
  5
35B
330
5F
100
AcDbEntity
  8
1
  6
Continuous
 62
     7
100
AcDbLine
 10
583.9693940288344
 20
285.5142777212586
 30
0.0
 11
585.0071737298775
 21
284.9151153315018
 31
0.0
  0
LINE
  5
35C
330
5F
100
AcDbEntity
  8
1
  6
Continuous
 62
     7
100
AcDbLine
 10
559.9450248645558
 20
282.0923847367894
 30
0.0
 11
559.9450248645558
 21
283.290709516303
 31
0.0
  0
LINE
  5
35D
330
5F
100
AcDbEntity
  8
1
  6
Continuous
 62
     7
100
AcDbLine
 10
574.9206557002772
 20
262.9976172228633
 30
0.0
 11
573.8828759992341
 21
262.3984548331064
 31
0.0
  0
LINE
  5
35E
330
5F
100
AcDbEntity
  8
1
  6
Continuous
 62
     7
100
AcDbLine
 10
560.8828759992341
 20
284.9151153315018
 30
0.0
 11
561.9206557002772
 21
285.5142777212586
 31
0.0
  0
LINE
  5
35F
330
5F
100
AcDbEntity
  8
1
  6
Continuous
 62
     7
100
AcDbLine
 10
572.0071737298775
 20
262.3984548331064
 30
0.0
 11
570.9693940288344
 21
262.9976172228633
 31
0.0
  0
LINE
  5
360
330
5F
100
AcDbEntity
  8
1
  6
Continuous
 62
     7
100
AcDbLine
 10
585.9450248645558
 20
283.290709516303
 30
0.0
 11
585.9450248645558
 21
282.0923847367893
 31
0.0
  0
ARC
  5
361
330
5F
100
AcDbEntity
  8
1
  6
Continuous
 62
     7
100
AcDbCircle
 10
199.4567799360908
 20
286.3680932269704
 30
0.0
 40
5.0
100
AcDbArc
 50
36.86989764584402
 51
134.4270040008046
  0
ARC
  5
362
330
5F
100
AcDbEntity
  8
1
  6
Continuous
 62
     7
100
AcDbCircle
 10
223.3632351412057
 20
302.7745484320856
 30
0.0
 40
24.00000000000014
100
AcDbArc
 50
213.9591925000981
 51
236.0408074999029
  0
ARC
  5
363
330
5F
100
AcDbEntity
  8
1
  6
Continuous
 62
     7
100
AcDbCircle
 10
199.4567799360908
 20
267.3680932269704
 30
0.0
 40
4.999999999999773
100
AcDbArc
 50
225.5729959991918
 51
323.1301023541596
  0
ARC
  5
364
330
5F
100
AcDbEntity
  8
1
  6
Continuous
 62
     7
100
AcDbCircle
 10
223.3632351412056
 20
250.9616380218558
 30
0.0
 40
23.99999999999966
100
AcDbArc
 50
123.9591925000976
 51
146.0408074999021
  0
ARC
  5
365
330
5F
100
AcDbEntity
  8
1
  6
Continuous
 62
     7
100
AcDbCircle
 10
223.3635438530207
 20
731.9616380218556
 30
0.0
 40
23.99999999999992
100
AcDbArc
 50
123.959192500097
 51
146.0408074999021
  0
ARC
  5
366
330
5F
100
AcDbEntity
  8
1
  6
Continuous
 62
     7
100
AcDbCircle
 10
199.457088647906
 20
748.3680932269706
 30
0.0
 40
4.999999999999915
100
AcDbArc
 50
315.5729959991933
 51
323.130102354156
  0
ARC
  5
367
330
5F
100
AcDbEntity
  8
1
  6
Continuous
 62
     7
100
AcDbCircle
 10
223.3635438530207
 20
783.7745484320855
 30
0.0
 40
23.99999999999984
100
AcDbArc
 50
213.9591925000979
 51
236.0408074999029
  0
ARC
  5
368
330
5F
100
AcDbEntity
  8
1
  6
Continuous
 62
     7
100
AcDbCircle
 10
199.457088647906
 20
767.3680932269706
 30
0.0
 40
4.999999999999932
100
AcDbArc
 50
36.86989764584298
 51
44.42700400080667
  0
ARC
  5
369
330
5F
100
AcDbEntity
  8
1
  6
Continuous
 62
     7
100
AcDbCircle
 10
572.9450248645558
 20
276.8680932269704
 30
0.0
 40
14.5
100
AcDbArc
 50
266.2915552747295
 51
270.0
  0
ARC
  5
36A
330
5F
100
AcDbEntity
  8
1
  6
Continuous
 62
     7
100
AcDbCircle
 10
572.9450248645558
 20
276.8680932269704
 30
0.0
 40
14.4999999999999
100
AcDbArc
 50
146.2915552747293
 51
153.7084447252705
  0
ARC
  5
36B
330
5F
100
AcDbEntity
  8
1
  6
Continuous
 62
     7
100
AcDbCircle
 10
572.9450248645558
 20
276.8680932269704
 30
0.0
 40
14.5
100
AcDbArc
 50
270.0
 51
273.708444725271
  0
ARC
  5
36C
330
5F
100
AcDbEntity
  8
1
  6
Continuous
 62
     7
100
AcDbCircle
 10
572.9450248645558
 20
276.8680932269704
 30
0.0
 40
14.50000000000002
100
AcDbArc
 50
26.29155527472953
 51
33.70844472527044
  0
SPLINE
  5
36D
330
5F
100
AcDbEntity
  8
1
  6
Continuous
 62
     7
100
AcDbSpline
210
0.0
220
0.0
230
1.0
 70
    11
 71
     3
 72
    79
 73
    75
 74
    73
 42
0.000000001
 43
0.0000000001
 44
0.00000001
 40
0.0
 40
0.0
 40
0.0
 40
0.0
 40
0.3102615582252665
 40
0.6205595420822039
 40
0.9422162975288515
 40
1.263944872753727
 40
1.606039020845064
 40
1.948193468907209
 40
2.31605188519068
 40
2.683951048240214
 40
3.079084664080537
 40
3.474244780173851
 40
3.894897959207667
 40
4.315568207494331
 40
4.757452126736837
 40
5.199346674241918
 40
5.656354161987256
 40
6.113367478658285
 40
6.578223037733371
 40
7.043080455842878
 40
7.507937873950333
 40
7.972793433018609
 40
8.429806749677631
 40
8.88681423740359
 40
9.328708784880396
 40
9.770592704081771
 40
10.19126295231274
 40
10.6119161312693
 40
11.00707624726311
 40
11.40220986296882
 40
11.77010902584999
 40
12.13796744190994
 40
12.48012188969647
 40
12.82221603741961
 40
13.14394461216179
 40
13.465601366825
 40
13.77589934864169
 40
14.08616091447285
 40
14.39642248030389
 40
14.70672046212052
 40
15.02837721678376
 40
15.35010579152591
 40
15.69219993924888
 40
16.03435438703532
 40
16.4022128030954
 40
16.77011196597666
 40
17.16524558168222
 40
17.56040569767612
 40
17.98105887663262
 40
18.4017291248637
 40
18.84361304406492
 40
19.28550759154179
 40
19.74251507926766
 40
20.19952839592683
 40
20.66438395499487
 40
21.12924137310209
 40
21.59409879121194
 40
22.05895435028713
 40
22.51596766695819
 40
22.97297515470355
 40
23.41486970220872
 40
23.85675362145105
 40
24.27742386973773
 40
24.69807704877158
 40
25.09323716486486
 40
25.48837078070515
 40
25.85626994375481
 40
26.22412836003837
 40
26.56628280810042
 40
26.90837695619159
 40
27.23010553141639
 40
27.5517622868631
 40
27.86206027071993
 40
28.17232182894509
 40
28.17232182894509
 40
28.17232182894509
 40
28.17232182894509
 10
199.4924457550415
 20
758.8059443616489
 30
0.0
 10
199.5959359369637
 20
758.8099775533648
 30
0.0
 10
199.8029284513085
 20
758.8180444020356
 30
0.0
 10
200.111777319331
 20
758.8820283798451
 30
0.0
 10
200.4137442330651
 20
758.9834491761424
 30
0.0
 10
200.7106538891798
 20
759.1258716762402
 30
0.0
 10
200.9949719975402
 20
759.304974249
 30
0.0
 10
201.2704730438368
 20
759.5229445168607
 30
0.0
 10
201.5290790645053
 20
759.7732266708958
 30
0.0
 10
201.7748369541179
 20
760.0596888326675
 30
0.0
 10
202.0004822143127
 20
760.3735195849546
 30
0.0
 10
202.2092538822005
 20
760.7194337499857
 30
0.0
 10
202.3954746504718
 20
761.0875525421361
 30
0.0
 10
202.5611591808183
 20
761.4822464770532
 30
0.0
 10
202.702466953668
 20
761.8937996770253
 30
0.0
 10
202.8202464422424
 20
762.3252253766196
 30
0.0
 10
202.9123647438813
 20
762.7679994053302
 30
0.0
 10
202.9788506712742
 20
763.223057403924
 30
0.0
 10
203.0189082281844
 20
763.6838245060051
 30
0.0
 10
203.0322501854794
 20
764.1487466814357
 30
0.0
 10
203.0189082282629
 20
764.6136688568631
 30
0.0
 10
202.9788506714354
 20
765.0744359589555
 30
0.0
 10
202.9123647441338
 20
765.5294939575078
 30
0.0
 10
202.8202464425988
 20
765.9722679863728
 30
0.0
 10
202.7024669541458
 20
766.4036936854146
 30
0.0
 10
202.561159181438
 20
766.8152468874133
 30
0.0
 10
202.3954746512607
 20
767.2099408151357
 30
0.0
 10
202.209253883187
 20
767.5780596333575
 30
0.0
 10
202.0004822155344
 20
767.9239737067805
 30
0.0
 10
201.7748369556117
 20
768.237804788719
 30
0.0
 10
201.5290790663205
 20
768.5242658011917
 30
0.0
 10
201.2704730460217
 20
768.7745520802652
 30
0.0
 10
200.994972000165
 20
768.992507978272
 30
0.0
 10
200.7106538923256
 20
769.1716622920112
 30
0.0
 10
200.4137442369133
 20
769.3139026433992
 30
0.0
 10
200.111777324404
 20
769.4159862954386
 30
0.0
 10
199.8029284552576
 20
769.477579535367
 30
0.0
 10
199.4924457550415
 20
769.4985333388279
 30
0.0
 10
199.1819630548255
 20
769.4775795353669
 30
0.0
 10
198.8731141856792
 20
769.4159862954391
 30
0.0
 10
198.5711472731699
 20
769.3139026433988
 30
0.0
 10
198.2742376177576
 20
769.1716622920114
 30
0.0
 10
197.9899195099184
 20
768.9925079782719
 30
0.0
 10
197.7144184640617
 20
768.774552080265
 30
0.0
 10
197.4558124437628
 20
768.5242658011919
 30
0.0
 10
197.2100545544716
 20
768.2378047887189
 30
0.0
 10
196.9844092945488
 20
767.9239737067805
 30
0.0
 10
196.7756376268963
 20
767.5780596333575
 30
0.0
 10
196.5894168588225
 20
767.209940815136
 30
0.0
 10
196.4237323286452
 20
766.8152468874132
 30
0.0
 10
196.2824245559375
 20
766.4036936854147
 30
0.0
 10
196.1646450674849
 20
765.972267986373
 30
0.0
 10
196.0725267659496
 20
765.5294939575078
 30
0.0
 10
196.0060408386477
 20
765.0744359589556
 30
0.0
 10
195.9659832818204
 20
764.6136688568632
 30
0.0
 10
195.9526413246039
 20
764.1487466814365
 30
0.0
 10
195.9659832818988
 20
763.6838245060051
 30
0.0
 10
196.0060408388089
 20
763.223057403924
 30
0.0
 10
196.0725267662022
 20
762.7679994053302
 30
0.0
 10
196.1646450678411
 20
762.3252253766198
 30
0.0
 10
196.2824245564155
 20
761.8937996770253
 30
0.0
 10
196.4237323292649
 20
761.4822464770531
 30
0.0
 10
196.5894168596114
 20
761.0875525421363
 30
0.0
 10
196.7756376278828
 20
760.7194337499857
 30
0.0
 10
196.9844092957705
 20
760.3735195849546
 30
0.0
 10
197.2100545559653
 20
760.0596888326675
 30
0.0
 10
197.4558124455781
 20
759.7732266708958
 30
0.0
 10
197.7144184662467
 20
759.5229445168605
 30
0.0
 10
197.9899195125431
 20
759.3049742490001
 30
0.0
 10
198.2742376209033
 20
759.12587167624
 30
0.0
 10
198.5711472770182
 20
758.9834491761424
 30
0.0
 10
198.8731141907521
 20
758.8820283798449
 30
0.0
 10
199.1819630587747
 20
758.8180444020359
 30
0.0
 10
199.3889555731193
 20
758.809977553365
 30
0.0
 10
199.4924457550415
 20
758.8059443616489
 30
0.0
 11
199.4924457550415
 21
758.8059443616489
 31
0.0
 11
199.8020215531782
 21
758.8265614548496
 31
0.0
 11
200.1063540740975
 21
758.8871135342476
 31
0.0
 11
200.4112534093608
 21
758.9895804228795
 31
0.0
 11
200.7016090995314
 21
759.1281547678084
 31
0.0
 11
200.9914022302231
 21
759.3099468121657
 31
0.0
 11
201.2601243086097
 21
759.5217441464218
 31
0.0
 11
201.5249126523785
 21
759.7771006566958
 31
0.0
 11
201.7649294993257
 21
760.0559226559851
 31
0.0
 11
201.996047431651
 21
760.37641458361
 31
0.0
 11
202.2006864214042
 21
760.7144595527918
 31
0.0
 11
202.3909527539954
 21
761.089623276636
 31
0.0
 11
202.5541548212709
 21
761.4773455264689
 31
0.0
 11
202.697940091853
 21
761.8951818509304
 31
0.0
 11
202.8145947404601
 21
762.3214006727449
 31
0.0
 11
202.9078581421596
 21
762.7687906388347
 31
0.0
 11
202.9740928438158
 21
763.2209788031123
 31
0.0
 11
203.0144178325825
 21
763.6840820163246
 31
0.0
 11
203.0278028621773
 21
764.1487466912888
 31
0.0
 11
203.0144178325825
 21
764.6134113662531
 31
0.0
 11
202.9740928438158
 21
765.0765145794654
 31
0.0
 11
202.9078581421596
 21
765.5287027437432
 31
0.0
 11
202.8145947404601
 21
765.9760927098332
 31
0.0
 11
202.697940091853
 21
766.4023115316477
 31
0.0
 11
202.5541548212709
 21
766.8201478561091
 31
0.0
 11
202.3909527539953
 21
767.2078701059417
 31
0.0
 11
202.2006864214042
 21
767.5830338297858
 31
0.0
 11
201.996047431651
 21
767.9210787989676
 31
0.0
 11
201.7649294993257
 21
768.2415707265928
 31
0.0
 11
201.5249126523785
 21
768.5203927258822
 31
0.0
 11
201.2601243086097
 21
768.7757492361561
 31
0.0
 11
200.9914022302231
 21
768.9875465704122
 31
0.0
 11
200.7016090995314
 21
769.1693386147695
 31
0.0
 11
200.4112534093608
 21
769.3079129596983
 31
0.0
 11
200.1063540740975
 21
769.4103798483302
 31
0.0
 11
199.8020215531782
 21
769.4709319277282
 31
0.0
 11
199.4924457550415
 21
769.491549020929
 31
0.0
 11
199.1828699569049
 21
769.4709319277283
 31
0.0
 11
198.8785374359857
 21
769.4103798483302
 31
0.0
 11
198.5736381007223
 21
769.3079129596983
 31
0.0
 11
198.2832824105518
 21
769.1693386147695
 31
0.0
 11
197.9934892798603
 21
768.9875465704122
 31
0.0
 11
197.7247672014738
 21
768.7757492361561
 31
0.0
 11
197.4599788577048
 21
768.5203927258822
 31
0.0
 11
197.2199620107575
 21
768.2415707265928
 31
0.0
 11
196.9888440784323
 21
767.9210787989678
 31
0.0
 11
196.7842050886791
 21
767.5830338297858
 31
0.0
 11
196.5939387560879
 21
767.2078701059418
 31
0.0
 11
196.4307366888123
 21
766.8201478561091
 31
0.0
 11
196.2869514182304
 21
766.4023115316478
 31
0.0
 11
196.1702967696234
 21
765.9760927098332
 31
0.0
 11
196.0770333679238
 21
765.5287027437433
 31
0.0
 11
196.0107986662674
 21
765.0765145794654
 31
0.0
 11
195.9704736775008
 21
764.6134113662533
 31
0.0
 11
195.957088647906
 21
764.1487466912893
 31
0.0
 11
195.9704736775008
 21
763.6840820163247
 31
0.0
 11
196.0107986662674
 21
763.2209788031123
 31
0.0
 11
196.0770333679238
 21
762.7687906388347
 31
0.0
 11
196.1702967696234
 21
762.3214006727449
 31
0.0
 11
196.2869514182305
 21
761.8951818509303
 31
0.0
 11
196.4307366888123
 21
761.4773455264689
 31
0.0
 11
196.5939387560879
 21
761.089623276636
 31
0.0
 11
196.7842050886791
 21
760.7144595527918
 31
0.0
 11
196.9888440784322
 21
760.37641458361
 31
0.0
 11
197.2199620107575
 21
760.0559226559851
 31
0.0
 11
197.4599788577049
 21
759.7771006566958
 31
0.0
 11
197.7247672014738
 21
759.5217441464218
 31
0.0
 11
197.9934892798603
 21
759.3099468121657
 31
0.0
 11
198.2832824105518
 21
759.1281547678084
 31
0.0
 11
198.5736381007224
 21
758.9895804228796
 31
0.0
 11
198.8785374359857
 21
758.8871135342476
 31
0.0
 11
199.1828699569049
 21
758.8265614548498
 31
0.0
 11
199.4924457550415
 21
758.8059443616489
 31
0.0
  0
SPLINE
  5
36E
330
5F
100
AcDbEntity
  8
1
  6
Continuous
 62
     7
100
AcDbSpline
210
0.0
220
0.0
230
1.0
 70
    11
 71
     3
 72
    79
 73
    75
 74
    73
 42
0.000000001
 43
0.0000000001
 44
0.00000001
 40
0.0
 40
0.0
 40
0.0
 40
0.0
 40
0.3102615582252382
 40
0.6205595420822034
 40
0.9422162975288872
 40
1.263944872753714
 40
1.606039020845123
 40
1.948193468907383
 40
2.316051885190656
 40
2.683951048239968
 40
3.079084664080509
 40
3.474244780173891
 40
3.894897959207656
 40
4.315568207494364
 40
4.757452126736546
 40
5.199346674241736
 40
5.656354161987075
 40
6.113367478658216
 40
6.578223037733416
 40
7.043080455843149
 40
7.50793787395049
 40
7.972793433018879
 40
8.42980674967779
 40
8.886814237403636
 40
9.328708784880341
 40
9.770592704081492
 40
10.19126295231288
 40
10.61191613126954
 40
11.00707624726345
 40
11.40220986296906
 40
11.77010902585015
 40
12.13796744190995
 40
12.48012188969648
 40
12.82221603741955
 40
13.14394461216178
 40
13.465601366825
 40
13.77589934864166
 40
14.08616091447282
 40
14.39642248030387
 40
14.70672046212045
 40
15.02837721678372
 40
15.35010579152588
 40
15.69219993924879
 40
16.03435438703523
 40
16.4022128030951
 40
16.77011196597633
 40
17.1652455816819
 40
17.56040569767578
 40
17.9810588766326
 40
18.40172912486388
 40
18.84361304406486
 40
19.28550759154165
 40
19.74251507926752
 40
20.19952839592646
 40
20.66438395499473
 40
21.12924137310218
 40
21.59409879121192
 40
22.05895435028711
 40
22.51596766695828
 40
22.97297515470364
 40
23.41486970220868
 40
23.85675362145092
 40
24.27742386973752
 40
24.69807704877143
 40
25.09323716486491
 40
25.4883707807053
 40
25.8562699437547
 40
26.22412836003809
 40
26.56628280810015
 40
26.9083769561915
 40
27.2301055314164
 40
27.55176228686304
 40
27.86206027071989
 40
28.17232182894504
 40
28.17232182894504
 40
28.17232182894504
 40
28.17232182894504
 10
199.4924457550415
 20
756.9302420922922
 30
0.0
 10
199.5959359369637
 20
756.9262089005763
 30
0.0
 10
199.8029284513084
 20
756.9181420519053
 30
0.0
 10
200.1117773193311
 20
756.8541580740963
 30
0.0
 10
200.413744233065
 20
756.7527372777984
 30
0.0
 10
200.71065388918
 20
756.6103147777013
 30
0.0
 10
200.9949719975401
 20
756.4312122049407
 30
0.0
 10
201.2704730438367
 20
756.2132419370803
 30
0.0
 10
201.5290790645052
 20
755.9629597830453
 30
0.0
 10
201.7748369541181
 20
755.6764976212738
 30
0.0
 10
202.0004822143128
 20
755.3626668689868
 30
0.0
 10
202.2092538822005
 20
755.0167527039554
 30
0.0
 10
202.3954746504717
 20
754.6486339118046
 30
0.0
 10
202.5611591808183
 20
754.2539399768881
 30
0.0
 10
202.702466953668
 20
753.8423867769158
 30
0.0
 10
202.8202464422425
 20
753.4109610773219
 30
0.0
 10
202.9123647438812
 20
752.9681870486108
 30
0.0
 10
202.9788506712742
 20
752.5131290500174
 30
0.0
 10
203.0189082281844
 20
752.0523619479358
 30
0.0
 10
203.0322501854794
 20
751.587439772505
 30
0.0
 10
203.0189082282629
 20
751.1225175970781
 30
0.0
 10
202.9788506714354
 20
750.6617504949852
 30
0.0
 10
202.9123647441338
 20
750.2066924964331
 30
0.0
 10
202.8202464425987
 20
749.7639184675681
 30
0.0
 10
202.7024669541458
 20
749.3324927685267
 30
0.0
 10
202.5611591814379
 20
748.9209395665277
 30
0.0
 10
202.3954746512608
 20
748.5262456388054
 30
0.0
 10
202.209253883187
 20
748.1581268205831
 30
0.0
 10
202.0004822155345
 20
747.8122127471602
 30
0.0
 10
201.7748369556117
 20
747.498381665222
 30
0.0
 10
201.5290790663206
 20
747.2119206527491
 30
0.0
 10
201.2704730460217
 20
746.9616343736761
 30
0.0
 10
200.994972000165
 20
746.7436784756693
 30
0.0
 10
200.7106538923256
 20
746.5645241619301
 30
0.0
 10
200.4137442369133
 20
746.4222838105425
 30
0.0
 10
200.111777324404
 20
746.3202001585023
 30
0.0
 10
199.8029284552575
 20
746.2586069185747
 30
0.0
 10
199.4924457550415
 20
746.2376531151131
 30
0.0
 10
199.1819630548256
 20
746.2586069185745
 30
0.0
 10
198.8731141856792
 20
746.3202001585023
 30
0.0
 10
198.57114727317
 20
746.4222838105426
 30
0.0
 10
198.2742376177576
 20
746.5645241619301
 30
0.0
 10
197.9899195099183
 20
746.7436784756693
 30
0.0
 10
197.7144184640619
 20
746.9616343736762
 30
0.0
 10
197.4558124437627
 20
747.2119206527491
 30
0.0
 10
197.2100545544716
 20
747.498381665222
 30
0.0
 10
196.9844092945488
 20
747.81221274716
 30
0.0
 10
196.7756376268963
 20
748.1581268205834
 30
0.0
 10
196.5894168588224
 20
748.5262456388053
 30
0.0
 10
196.4237323286453
 20
748.9209395665277
 30
0.0
 10
196.2824245559376
 20
749.3324927685267
 30
0.0
 10
196.1646450674848
 20
749.7639184675681
 30
0.0
 10
196.0725267659496
 20
750.206692496433
 30
0.0
 10
196.0060408386478
 20
750.6617504949853
 30
0.0
 10
195.9659832818204
 20
751.122517597078
 30
0.0
 10
195.9526413246039
 20
751.5874397725047
 30
0.0
 10
195.9659832818989
 20
752.0523619479359
 30
0.0
 10
196.0060408388089
 20
752.5131290500171
 30
0.0
 10
196.0725267662022
 20
752.9681870486111
 30
0.0
 10
196.164645067841
 20
753.4109610773214
 30
0.0
 10
196.2824245564154
 20
753.842386776916
 30
0.0
 10
196.4237323292649
 20
754.2539399768879
 30
0.0
 10
196.5894168596116
 20
754.6486339118048
 30
0.0
 10
196.7756376278828
 20
755.0167527039554
 30
0.0
 10
196.9844092957705
 20
755.3626668689865
 30
0.0
 10
197.2100545559652
 20
755.676497621274
 30
0.0
 10
197.4558124455782
 20
755.9629597830454
 30
0.0
 10
197.7144184662467
 20
756.21324193708
 30
0.0
 10
197.9899195125432
 20
756.4312122049407
 30
0.0
 10
198.2742376209034
 20
756.610314777701
 30
0.0
 10
198.571147277018
 20
756.752737277799
 30
0.0
 10
198.8731141907522
 20
756.854158074096
 30
0.0
 10
199.1819630587746
 20
756.9181420519056
 30
0.0
 10
199.3889555731193
 20
756.9262089005762
 30
0.0
 10
199.4924457550415
 20
756.9302420922922
 30
0.0
 11
199.4924457550415
 21
756.9302420922922
 31
0.0
 11
199.8020215531782
 21
756.9096249990915
 31
0.0
 11
200.1063540740975
 21
756.8490729196935
 31
0.0
 11
200.4112534093608
 21
756.7466060310616
 31
0.0
 11
200.7016090995314
 21
756.6080316861328
 31
0.0
 11
200.991402230223
 21
756.4262396417753
 31
0.0
 11
201.2601243086097
 21
756.214442307519
 31
0.0
 11
201.5249126523785
 21
755.9590857972453
 31
0.0
 11
201.7649294993257
 21
755.6802637979563
 31
0.0
 11
201.9960474316511
 21
755.3597718703312
 31
0.0
 11
202.2006864214042
 21
755.0217269011492
 31
0.0
 11
202.3909527539952
 21
754.6465631773051
 31
0.0
 11
202.5541548212709
 21
754.2588409274722
 31
0.0
 11
202.697940091853
 21
753.841004603011
 31
0.0
 11
202.8145947404601
 21
753.4147857811964
 31
0.0
 11
202.9078581421596
 21
752.9673958151066
 31
0.0
 11
202.9740928438158
 21
752.5152076508289
 31
0.0
 11
203.0144178325825
 21
752.0521044376164
 31
0.0
 11
203.0278028621773
 21
751.587439762652
 31
0.0
 11
203.0144178325825
 21
751.1227750876878
 31
0.0
 11
202.9740928438158
 21
750.6596718744754
 31
0.0
 11
202.9078581421596
 21
750.2074837101977
 31
0.0
 11
202.8145947404601
 21
749.7600937441078
 31
0.0
 11
202.697940091853
 21
749.3338749222935
 31
0.0
 11
202.5541548212709
 21
748.9160385978323
 31
0.0
 11
202.3909527539953
 21
748.5283163479993
 31
0.0
 11
202.2006864214042
 21
748.153152624155
 31
0.0
 11
201.996047431651
 21
747.8151076549731
 31
0.0
 11
201.7649294993257
 21
747.494615727348
 31
0.0
 11
201.5249126523785
 21
747.2157937280588
 31
0.0
 11
201.2601243086097
 21
746.960437217785
 31
0.0
 11
200.9914022302231
 21
746.748639883529
 31
0.0
 11
200.7016090995314
 21
746.5668478391718
 31
0.0
 11
200.4112534093608
 21
746.4282734942428
 31
0.0
 11
200.1063540740975
 21
746.325806605611
 31
0.0
 11
199.8020215531782
 21
746.2652545262131
 31
0.0
 11
199.4924457550415
 21
746.2446374330123
 31
0.0
 11
199.1828699569049
 21
746.2652545262131
 31
0.0
 11
198.8785374359857
 21
746.325806605611
 31
0.0
 11
198.5736381007223
 21
746.428273494243
 31
0.0
 11
198.2832824105518
 21
746.5668478391718
 31
0.0
 11
197.9934892798603
 21
746.748639883529
 31
0.0
 11
197.7247672014738
 21
746.960437217785
 31
0.0
 11
197.4599788577049
 21
747.2157937280588
 31
0.0
 11
197.2199620107575
 21
747.494615727348
 31
0.0
 11
196.9888440784323
 21
747.8151076549731
 31
0.0
 11
196.7842050886791
 21
748.153152624155
 31
0.0
 11
196.5939387560879
 21
748.5283163479994
 31
0.0
 11
196.4307366888123
 21
748.9160385978323
 31
0.0
 11
196.2869514182304
 21
749.3338749222934
 31
0.0
 11
196.1702967696234
 21
749.7600937441078
 31
0.0
 11
196.0770333679238
 21
750.2074837101977
 31
0.0
 11
196.0107986662674
 21
750.6596718744754
 31
0.0
 11
195.9704736775008
 21
751.1227750876877
 31
0.0
 11
195.957088647906
 21
751.587439762652
 31
0.0
 11
195.9704736775008
 21
752.0521044376164
 31
0.0
 11
196.0107986662674
 21
752.5152076508289
 31
0.0
 11
196.0770333679238
 21
752.9673958151066
 31
0.0
 11
196.1702967696234
 21
753.4147857811964
 31
0.0
 11
196.2869514182304
 21
753.8410046030109
 31
0.0
 11
196.4307366888123
 21
754.2588409274722
 31
0.0
 11
196.593938756088
 21
754.646563177305
 31
0.0
 11
196.7842050886791
 21
755.0217269011492
 31
0.0
 11
196.9888440784322
 21
755.3597718703313
 31
0.0
 11
197.2199620107575
 21
755.6802637979563
 31
0.0
 11
197.4599788577049
 21
755.9590857972453
 31
0.0
 11
197.7247672014738
 21
756.214442307519
 31
0.0
 11
197.9934892798603
 21
756.4262396417752
 31
0.0
 11
198.2832824105518
 21
756.6080316861328
 31
0.0
 11
198.5736381007224
 21
756.7466060310618
 31
0.0
 11
198.8785374359857
 21
756.8490729196935
 31
0.0
 11
199.1828699569049
 21
756.9096249990915
 31
0.0
 11
199.4924457550415
 21
756.9302420922922
 31
0.0
  0
SPLINE
  5
36F
330
5F
100
AcDbEntity
  8
1
  6
Continuous
 62
     7
100
AcDbSpline
210
0.0
220
0.0
230
1.0
 70
    11
 71
     3
 72
    79
 73
    75
 74
    73
 42
0.000000001
 43
0.0000000001
 44
0.00000001
 40
0.0
 40
0.0
 40
0.0
 40
0.0
 40
0.2803981055170131
 40
0.5607977780793318
 40
0.8427454767815057
 40
1.124697465942957
 40
1.409536444711899
 40
1.69438149409205
 40
1.983071303433739
 40
2.27176783680914
 40
2.564776135645475
 40
2.857790848031677
 40
3.155055692063379
 40
3.452325972452523
 40
3.753284820909435
 40
4.054247736388193
 40
4.357919800455266
 40
4.661594361771547
 40
4.966700742338138
 40
5.27180796317559
 40
5.57691518400286
 40
5.882021564538422
 40
6.185696125802563
 40
6.48936818979599
 40
6.79033110517979
 40
7.091289953518675
 40
7.388560233767547
 40
7.685825077633885
 40
7.978839789830542
 40
8.271848088449063
 40
8.56054462157973
 40
8.849234430642532
 40
9.134079479707303
 40
9.4189184581062
 40
9.700870446812809
 40
9.982818144856173
 40
10.26321781600889
 40
10.54361593035234
 40
10.82401404469585
 40
11.10441371584857
 40
11.38636141389205
 40
11.66831340259871
 40
11.95315238099764
 40
12.23799743006238
 40
12.5266872391251
 40
12.81538377225566
 40
13.10839207087431
 40
13.40140678307099
 40
13.69867162693727
 40
13.99594190718611
 40
14.29690075552499
 40
14.59786367090877
 40
14.9015357349022
 40
15.20521029616634
 40
15.51031667670189
 40
15.81542389752919
 40
16.12053111836665
 40
16.42563749893326
 40
16.72931206024958
 40
17.03298412431661
 40
17.33394703979532
 40
17.63490588825226
 40
17.9321761686414
 40
18.22944101267301
 40
18.52245572505932
 40
18.8154640238957
 40
19.10416055727099
 40
19.39285036661261
 40
19.67769541599277
 40
19.9625343947617
 40
20.24448638392322
 40
20.5264340826255
 40
20.80683375518781
 40
21.08723186070488
 40
21.08723186070488
 40
21.08723186070488
 40
21.08723186070488
 10
202.9567799360908
 20
265.6097629777728
 30
0.0
 10
202.9541985502848
 20
265.5162624377308
 30
0.0
 10
202.9490357695801
 20
265.3292608349285
 30
0.0
 10
202.9075634210166
 20
265.0507764237356
 30
0.0
 10
202.8416632611749
 20
264.7768342265829
 30
0.0
 10
202.7494311522177
 20
264.5089060608141
 30
0.0
 10
202.6323489630886
 20
264.2498602729436
 30
0.0
 10
202.4908726816897
 20
264.0007009785268
 30
0.0
 10
202.3265903358536
 20
263.7643909581125
 30
0.0
 10
202.1401301877748
 20
263.5416159639746
 30
0.0
 10
201.9337057129617
 20
263.3351599314686
 30
0.0
 10
201.7079880186382
 20
263.1455471876289
 30
0.0
 10
201.4656972203933
 20
262.9751480115103
 30
0.0
 10
201.2076397276495
 20
262.8244352037145
 30
0.0
 10
200.9368125242569
 20
262.6952120670053
 30
0.0
 10
200.6542956708436
 20
262.5879323936402
 30
0.0
 10
200.3631077003285
 20
262.5037778899066
 30
0.0
 10
200.0647289274872
 20
262.4431346158992
 30
0.0
 10
199.7619679556762
 20
262.4066008534527
 30
0.0
 10
199.4567799454937
 20
262.3943818225409
 30
0.0
 10
199.151591935309
 20
262.4066008531025
 30
0.0
 10
198.8488309634825
 20
262.4431346151981
 30
0.0
 10
198.5504521906396
 20
262.5037778888525
 30
0.0
 10
198.2592642200356
 20
262.5879323922294
 30
0.0
 10
197.9767473668196
 20
262.695212065234
 30
0.0
 10
197.7059201625234
 20
262.8244352015777
 30
0.0
 10
197.4478626728968
 20
262.975148009001
 30
0.0
 10
197.2055718628403
 20
263.1455471847402
 30
0.0
 10
196.9798542116786
 20
263.3351599281913
 30
0.0
 10
196.7734295766846
 20
263.5416159602979
 30
0.0
 10
196.5869700175366
 20
263.7643909540218
 30
0.0
 10
196.4226854898509
 20
264.0007009740036
 30
0.0
 10
196.2812172468028
 20
264.249860267958
 30
0.0
 10
196.1641052432189
 20
264.5089060553184
 30
0.0
 10
196.0719833247599
 20
264.7768342204522
 30
0.0
 10
196.0056735592021
 20
265.050776416652
 30
0.0
 10
195.9657218941124
 20
265.3292608296886
 30
0.0
 10
195.9523089844917
 20
265.6097629777728
 30
0.0
 10
195.9657218941124
 20
265.890265125857
 30
0.0
 10
196.0056735592022
 20
266.1687495388937
 30
0.0
 10
196.0719833247598
 20
266.4426917350934
 30
0.0
 10
196.1641052432189
 20
266.7106199002274
 30
0.0
 10
196.2812172468027
 20
266.9696656875878
 30
0.0
 10
196.4226854898509
 20
267.2188249815422
 30
0.0
 10
196.5869700175367
 20
267.4551350015238
 30
0.0
 10
196.7734295766847
 20
267.6779099952477
 30
0.0
 10
196.9798542116786
 20
267.8843660273543
 30
0.0
 10
197.2055718628403
 20
268.0739787708057
 30
0.0
 10
197.4478626728968
 20
268.2443779465446
 30
0.0
 10
197.7059201625235
 20
268.395090753968
 30
0.0
 10
197.9767473668196
 20
268.5243138903116
 30
0.0
 10
198.2592642200356
 20
268.631593563316
 30
0.0
 10
198.5504521906396
 20
268.7157480666932
 30
0.0
 10
198.8488309634824
 20
268.7763913403475
 30
0.0
 10
199.151591935309
 20
268.8129251024433
 30
0.0
 10
199.4567799454937
 20
268.825144133005
 30
0.0
 10
199.7619679556762
 20
268.8129251020931
 30
0.0
 10
200.0647289274872
 20
268.7763913396464
 30
0.0
 10
200.3631077003286
 20
268.7157480656388
 30
0.0
 10
200.6542956708437
 20
268.6315935619054
 30
0.0
 10
200.9368125242569
 20
268.5243138885404
 30
0.0
 10
201.2076397276494
 20
268.395090751831
 30
0.0
 10
201.4656972203933
 20
268.2443779440354
 30
0.0
 10
201.7079880186382
 20
268.073978767917
 30
0.0
 10
201.9337057129617
 20
267.8843660240769
 30
0.0
 10
202.1401301877747
 20
267.6779099915709
 30
0.0
 10
202.3265903358536
 20
267.4551349974333
 30
0.0
 10
202.4908726816897
 20
267.218824977019
 30
0.0
 10
202.6323489630888
 20
266.9696656826022
 30
0.0
 10
202.7494311522176
 20
266.7106198947317
 30
0.0
 10
202.841663261175
 20
266.4426917289628
 30
0.0
 10
202.9075634210166
 20
266.1687495318101
 30
0.0
 10
202.9490357695801
 20
265.890265120617
 30
0.0
 10
202.9541985502847
 20
265.7032635178149
 30
0.0
 10
202.9567799360908
 20
265.6097629777728
 30
0.0
 11
202.9567799360908
 21
265.6097629777728
 31
0.0
 11
202.9434271507927
 21
265.3296829789032
 31
0.0
 11
202.9036070716335
 21
265.0521251705246
 31
0.0
 11
202.8373474889094
 21
264.7780737661457
 31
0.0
 11
202.7457041088413
 21
264.5114309058712
 31
0.0
 11
202.6284561085562
 21
264.2518424813352
 31
0.0
 11
202.4878688493363
 21
264.0041089054398
 31
0.0
 11
202.3231716539843
 21
263.7670084208307
 31
0.0
 11
202.1379354870072
 21
263.5455738914958
 31
0.0
 11
201.9308426100919
 21
263.3382905021861
 31
0.0
 11
201.7065365699936
 21
263.1497582184086
 31
0.0
 11
201.4634417392929
 21
262.978669671835
 31
0.0
 11
201.2067799360908
 21
262.828688545112
 31
0.0
 11
200.9351917161197
 21
262.6990117652376
 31
0.0
 11
200.6538504377307
 21
262.5921204111602
 31
0.0
 11
200.3621329541852
 21
262.5077543498299
 31
0.0
 11
200.0645485579249
 21
262.4472418195942
 31
0.0
 11
199.7616428233907
 21
262.4106628710313
 31
0.0
 11
199.4567799360908
 21
262.3984548331066
 31
0.0
 11
199.1519170487908
 21
262.4106628710313
 31
0.0
 11
198.8490113142565
 21
262.4472418195942
 31
0.0
 11
198.5514269179964
 21
262.50775434983
 31
0.0
 11
198.2597094344509
 21
262.5921204111602
 31
0.0
 11
197.9783681560619
 21
262.6990117652376
 31
0.0
 11
197.7067799360908
 21
262.828688545112
 31
0.0
 11
197.4501181328886
 21
262.978669671835
 31
0.0
 11
197.2070233021877
 21
263.1497582184086
 31
0.0
 11
196.9827172620895
 21
263.3382905021861
 31
0.0
 11
196.7756243851744
 21
263.5455738914958
 31
0.0
 11
196.5903882181974
 21
263.7670084208307
 31
0.0
 11
196.4256910228453
 21
264.0041089054398
 31
0.0
 11
196.2851037636254
 21
264.2518424813352
 31
0.0
 11
196.1678557633401
 21
264.5114309058712
 31
0.0
 11
196.0762123832719
 21
264.7780737661457
 31
0.0
 11
196.0099528005479
 21
265.0521251705246
 31
0.0
 11
195.9701327213888
 21
265.3296829789032
 31
0.0
 11
195.9567799360908
 21
265.6097629777728
 31
0.0
 11
195.9701327213888
 21
265.8898429766424
 31
0.0
 11
196.0099528005479
 21
266.167400785021
 31
0.0
 11
196.0762123832719
 21
266.4414521894001
 31
0.0
 11
196.1678557633401
 21
266.7080950496746
 31
0.0
 11
196.2851037636253
 21
266.9676834742106
 31
0.0
 11
196.4256910228453
 21
267.215417050106
 31
0.0
 11
196.5903882181974
 21
267.452517534715
 31
0.0
 11
196.7756243851744
 21
267.6739520640498
 31
0.0
 11
196.9827172620896
 21
267.8812354533596
 31
0.0
 11
197.2070233021877
 21
268.0697677371372
 31
0.0
 11
197.4501181328886
 21
268.2408562837107
 31
0.0
 11
197.7067799360908
 21
268.3908374104336
 31
0.0
 11
197.9783681560619
 21
268.520514190308
 31
0.0
 11
198.2597094344509
 21
268.6274055443854
 31
0.0
 11
198.5514269179964
 21
268.7117716057156
 31
0.0
 11
198.8490113142565
 21
268.7722841359514
 31
0.0
 11
199.1519170487908
 21
268.8088630845144
 31
0.0
 11
199.4567799360908
 21
268.8210711224392
 31
0.0
 11
199.7616428233907
 21
268.8088630845144
 31
0.0
 11
200.0645485579249
 21
268.7722841359514
 31
0.0
 11
200.3621329541852
 21
268.7117716057156
 31
0.0
 11
200.6538504377307
 21
268.6274055443854
 31
0.0
 11
200.9351917161197
 21
268.5205141903081
 31
0.0
 11
201.2067799360908
 21
268.3908374104336
 31
0.0
 11
201.4634417392929
 21
268.2408562837107
 31
0.0
 11
201.7065365699936
 21
268.0697677371372
 31
0.0
 11
201.9308426100919
 21
267.8812354533596
 31
0.0
 11
202.1379354870072
 21
267.6739520640498
 31
0.0
 11
202.3231716539843
 21
267.452517534715
 31
0.0
 11
202.4878688493363
 21
267.215417050106
 31
0.0
 11
202.6284561085562
 21
266.9676834742106
 31
0.0
 11
202.7457041088413
 21
266.7080950496746
 31
0.0
 11
202.8373474889095
 21
266.4414521894001
 31
0.0
 11
202.9036070716335
 21
266.167400785021
 31
0.0
 11
202.9434271507927
 21
265.8898429766424
 31
0.0
 11
202.9567799360908
 21
265.6097629777728
 31
0.0
  0
SPLINE
  5
370
330
5F
100
AcDbEntity
  8
1
  6
Continuous
 62
     7
100
AcDbSpline
210
0.0
220
0.0
230
1.0
 70
     8
 71
     3
 72
    29
 73
    25
 74
    23
 42
0.000000001
 43
0.0000000001
 44
0.00000001
 40
0.0
 40
0.0
 40
0.0
 40
0.0
 40
0.6069077071333305
 40
1.212222618921865
 40
1.842666699980748
 40
2.474631891987482
 40
3.102420163134746
 40
3.729333881624317
 40
4.271042929452934
 40
4.812985317241089
 40
5.340107969103932
 40
5.866248914948698
 40
6.263874824440315
 40
6.661485222726681
 40
7.280966483140979
 40
7.90259672321006
 40
8.5491688990226
 40
9.195896755584721
 40
9.7224159567118
 40
10.24911839923891
 40
11.07897535377071
 40
11.90732205839649
 40
12.67331707894431
 40
13.44191268485635
 40
13.44191268485635
 40
13.44191268485635
 40
13.44191268485635
 10
202.9567799360908
 20
276.8680932269704
 30
0.0
 10
202.9469045627267
 20
276.6660333994247
 30
0.0
 10
202.9271797215141
 20
276.2624440397477
 30
0.0
 10
202.8633893732925
 20
275.6507384916639
 30
0.0
 10
202.7292060755522
 20
275.0413214305219
 30
0.0
 10
202.5287504560257
 20
274.4429152555436
 30
0.0
 10
202.2701893397956
 20
273.8683527240698
 30
0.0
 10
201.9612599506912
 20
273.3534549267012
 30
0.0
 10
201.6074430267467
 20
272.9044360529452
 30
0.0
 10
201.2194183592297
 20
272.5304944506473
 30
0.0
 10
200.7824879561546
 20
272.2235285493404
 30
0.0
 10
200.3422739897183
 20
272.0162198919012
 30
0.0
 10
199.9155648696656
 20
271.9003173036807
 30
0.0
 10
199.4446494278636
 20
271.8496140988032
 30
0.0
 10
198.8956748356229
 20
271.9100704220442
 30
0.0
 10
198.297928770301
 20
272.1230176536736
 30
0.0
 10
197.7563265251606
 20
272.470254590826
 30
0.0
 10
197.3157185577706
 20
272.8916123164062
 30
0.0
 10
196.9658446348009
 20
273.3390258063864
 30
0.0
 10
196.6369342524593
 20
273.8748621919315
 30
0.0
 10
196.3331956320573
 20
274.5397532413173
 30
0.0
 10
196.1084257663411
 20
275.3194143019541
 30
0.0
 10
196.0040389669503
 20
276.1018199180583
 30
0.0
 10
195.9726164764444
 20
276.612380384232
 30
0.0
 10
195.9568786121777
 20
276.8680932269704
 30
0.0
 11
202.9567799360908
 21
276.8680932269704
 31
0.0
 11
202.9215790703283
 21
276.2622072052123
 31
0.0
 11
202.8532220782441
 21
275.660764385731
 31
0.0
 11
202.7185455924198
 21
275.0448731739899
 31
0.0
 11
202.5184807004748
 21
274.4454117124412
 31
0.0
 11
202.2590994622245
 21
273.8737129391211
 31
0.0
 11
201.9348795074465
 21
273.337147722108
 31
0.0
 11
201.5982703674655
 21
272.9127151833289
 31
0.0
 11
201.2067799360908
 21
272.5379662080485
 31
0.0
 11
200.7744347748722
 21
272.2364103220884
 31
0.0
 11
200.2974323892559
 21
272.0143900082546
 31
0.0
 11
199.9135833591262
 21
271.9106292911115
 31
0.0
 11
199.5181718133119
 21
271.8688711932908
 31
0.0
 11
198.9020673591021
 21
271.9334648049122
 31
0.0
 11
198.3161331888254
 21
272.1410829750636
 31
0.0
 11
197.7695315549114
 21
272.4864555759186
 31
0.0
 11
197.299555574831
 21
272.9307297025215
 31
0.0
 11
196.9740809272598
 21
273.3446001212961
 31
0.0
 11
196.6971754290801
 21
273.7926389685202
 31
0.0
 11
196.3522133409026
 21
274.5473996751578
 31
0.0
 11
196.1235358511563
 21
275.343555985546
 31
0.0
 11
196.0132157221418
 21
276.1015651161455
 31
0.0
 11
195.9568786121777
 21
276.8680932269704
 31
0.0
  0
SPLINE
  5
371
330
5F
100
AcDbEntity
  8
1
  6
Continuous
 62
     7
100
AcDbSpline
210
0.0
220
0.0
230
1.0
 70
    11
 71
     3
 72
    79
 73
    75
 74
    73
 42
0.000000001
 43
0.0000000001
 44
0.00000001
 40
0.0
 40
0.0
 40
0.0
 40
0.0
 40
0.2803981055171834
 40
0.5607977780795584
 40
0.8427454767816285
 40
1.124697465942963
 40
1.409536444712037
 40
1.694381494092266
 40
1.983071303433814
 40
2.271767836809171
 40
2.564776135645466
 40
2.857790848031705
 40
3.155055692063472
 40
3.452325972452673
 40
3.753284820909561
 40
4.054247736388259
 40
4.357919800455332
 40
4.661594361771613
 40
4.966700742338217
 40
5.271807963175672
 40
5.576915184002944
 40
5.88202156453852
 40
6.185696125802661
 40
6.489368189796088
 40
6.790331105179828
 40
7.091289953518688
 40
7.388560233767616
 40
7.68582507763402
 40
7.978839789830634
 40
8.271848088449195
 40
8.560544621579792
 40
8.849234430642484
 40
9.134079479707355
 40
9.418918458106354
 40
9.700870446812857
 40
9.982818144856111
 40
10.26321781600894
 40
10.54361593035251
 40
10.82401404469601
 40
11.10441371584873
 40
11.38636141389204
 40
11.66831340259865
 40
11.95315238099754
 40
12.23799743006237
 40
12.52668723912516
 40
12.8153837722558
 40
13.10839207087428
 40
13.40140678307097
 40
13.69867162693735
 40
13.99594190718622
 40
14.2969007555251
 40
14.59786367090888
 40
14.90153573490231
 40
15.20521029616645
 40
15.51031667670198
 40
15.81542389752928
 40
16.12053111836673
 40
16.42563749893333
 40
16.72931206024962
 40
17.03298412431668
 40
17.33394703979544
 40
17.63490588825233
 40
17.9321761686415
 40
18.2294410126732
 40
18.52245572505944
 40
18.81546402389574
 40
19.10416055727112
 40
19.39285036661278
 40
19.67769541599294
 40
19.96253439476192
 40
20.24448638392338
 40
20.5264340826255
 40
20.80683375518781
 40
21.08723186070488
 40
21.08723186070488
 40
21.08723186070488
 40
21.08723186070488
 10
202.9567799360908
 20
288.1264234761682
 30
0.0
 10
202.9541985502847
 20
288.2199240162104
 30
0.0
 10
202.9490357695801
 20
288.4069256190124
 30
0.0
 10
202.9075634210168
 20
288.6854100302058
 30
0.0
 10
202.8416632611749
 20
288.9593522273582
 30
0.0
 10
202.7494311522175
 20
289.227280393127
 30
0.0
 10
202.6323489630888
 20
289.4863261809976
 30
0.0
 10
202.4908726816898
 20
289.7354854754145
 30
0.0
 10
202.3265903358535
 20
289.9717954958286
 30
0.0
 10
202.1401301877749
 20
290.1945704899663
 30
0.0
 10
201.9337057129617
 20
290.4010265224723
 30
0.0
 10
201.7079880186381
 20
290.5906392663122
 30
0.0
 10
201.4656972203933
 20
290.7610384424308
 30
0.0
 10
201.2076397276495
 20
290.9117512502268
 30
0.0
 10
200.9368125242568
 20
291.0409743869359
 30
0.0
 10
200.6542956708436
 20
291.1482540603008
 30
0.0
 10
200.3631077003285
 20
291.2324085640341
 30
0.0
 10
200.0647289274872
 20
291.2930518380419
 30
0.0
 10
199.7619679556762
 20
291.3295856004885
 30
0.0
 10
199.4567799454937
 20
291.3418046314002
 30
0.0
 10
199.1515919353091
 20
291.3295856008387
 30
0.0
 10
198.8488309634824
 20
291.2930518387429
 30
0.0
 10
198.5504521906397
 20
291.2324085650886
 30
0.0
 10
198.2592642200356
 20
291.1482540617114
 30
0.0
 10
197.9767473668196
 20
291.0409743887071
 30
0.0
 10
197.7059201625235
 20
290.9117512523636
 30
0.0
 10
197.4478626728968
 20
290.7610384449402
 30
0.0
 10
197.2055718628403
 20
290.5906392692008
 30
0.0
 10
196.9798542116787
 20
290.4010265257497
 30
0.0
 10
196.7734295766846
 20
290.194570493643
 30
0.0
 10
196.5869700175366
 20
289.9717954999194
 30
0.0
 10
196.4226854898509
 20
289.7354854799376
 30
0.0
 10
196.2812172468028
 20
289.4863261859831
 30
0.0
 10
196.1641052432189
 20
289.2272803986227
 30
0.0
 10
196.0719833247599
 20
288.9593522334889
 30
0.0
 10
196.0056735592021
 20
288.6854100372891
 30
0.0
 10
195.9657218941125
 20
288.4069256242525
 30
0.0
 10
195.9523089844917
 20
288.1264234761683
 30
0.0
 10
195.9657218941124
 20
287.845921328084
 30
0.0
 10
196.0056735592021
 20
287.5674369150474
 30
0.0
 10
196.0719833247599
 20
287.2934947188476
 30
0.0
 10
196.1641052432189
 20
287.0255665537138
 30
0.0
 10
196.2812172468028
 20
286.7665207663535
 30
0.0
 10
196.4226854898509
 20
286.517361472399
 30
0.0
 10
196.5869700175366
 20
286.2810514524172
 30
0.0
 10
196.7734295766846
 20
286.0582764586934
 30
0.0
 10
196.9798542116786
 20
285.8518204265868
 30
0.0
 10
197.2055718628403
 20
285.6622076831356
 30
0.0
 10
197.4478626728967
 20
285.4918085073964
 30
0.0
 10
197.7059201625235
 20
285.3410956999732
 30
0.0
 10
197.9767473668196
 20
285.2118725636295
 30
0.0
 10
198.2592642200356
 20
285.1045928906249
 30
0.0
 10
198.5504521906396
 20
285.020438387248
 30
0.0
 10
198.8488309634824
 20
284.9597951135934
 30
0.0
 10
199.1515919353089
 20
284.9232613514978
 30
0.0
 10
199.4567799454937
 20
284.9110423209363
 30
0.0
 10
199.7619679556761
 20
284.9232613518481
 30
0.0
 10
200.0647289274872
 20
284.9597951142945
 30
0.0
 10
200.3631077003286
 20
285.0204383883023
 30
0.0
 10
200.6542956708437
 20
285.1045928920356
 30
0.0
 10
200.9368125242569
 20
285.2118725654005
 30
0.0
 10
201.2076397276495
 20
285.34109570211
 30
0.0
 10
201.4656972203933
 20
285.4918085099058
 30
0.0
 10
201.7079880186382
 20
285.6622076860241
 30
0.0
 10
201.9337057129617
 20
285.8518204298642
 30
0.0
 10
202.1401301877749
 20
286.0582764623701
 30
0.0
 10
202.3265903358535
 20
286.2810514565079
 30
0.0
 10
202.4908726816897
 20
286.5173614769221
 30
0.0
 10
202.6323489630887
 20
286.766520771339
 30
0.0
 10
202.7494311522176
 20
287.0255665592095
 30
0.0
 10
202.8416632611749
 20
287.2934947249784
 30
0.0
 10
202.9075634210166
 20
287.5674369221308
 30
0.0
 10
202.9490357695801
 20
287.8459213333239
 30
0.0
 10
202.9541985502848
 20
288.0329229361262
 30
0.0
 10
202.9567799360908
 20
288.1264234761682
 30
0.0
 11
202.9567799360908
 21
288.1264234761682
 31
0.0
 11
202.9434271507927
 21
288.4065034750379
 31
0.0
 11
202.9036070716335
 21
288.6840612834166
 31
0.0
 11
202.8373474889094
 21
288.9581126877954
 31
0.0
 11
202.7457041088413
 21
289.2247555480698
 31
0.0
 11
202.6284561085562
 21
289.4843439726059
 31
0.0
 11
202.4878688493363
 21
289.7320775485014
 31
0.0
 11
202.3231716539843
 21
289.9691780331104
 31
0.0
 11
202.1379354870072
 21
290.1906125624452
 31
0.0
 11
201.9308426100919
 21
290.3978959517549
 31
0.0
 11
201.7065365699936
 21
290.5864282355324
 31
0.0
 11
201.4634417392929
 21
290.7575167821061
 31
0.0
 11
201.2067799360908
 21
290.9074979088292
 31
0.0
 11
200.9351917161197
 21
291.0371746887036
 31
0.0
 11
200.6538504377307
 21
291.1440660427808
 31
0.0
 11
200.3621329541852
 21
291.2284321041111
 31
0.0
 11
200.0645485579249
 21
291.2889446343468
 31
0.0
 11
199.7616428233907
 21
291.3255235829098
 31
0.0
 11
199.4567799360908
 21
291.3377316208346
 31
0.0
 11
199.1519170487908
 21
291.3255235829099
 31
0.0
 11
198.8490113142565
 21
291.2889446343468
 31
0.0
 11
198.5514269179964
 21
291.2284321041111
 31
0.0
 11
198.2597094344509
 21
291.1440660427808
 31
0.0
 11
197.9783681560619
 21
291.0371746887035
 31
0.0
 11
197.7067799360908
 21
290.9074979088292
 31
0.0
 11
197.4501181328886
 21
290.7575167821062
 31
0.0
 11
197.2070233021877
 21
290.5864282355324
 31
0.0
 11
196.9827172620896
 21
290.3978959517549
 31
0.0
 11
196.7756243851744
 21
290.1906125624452
 31
0.0
 11
196.5903882181973
 21
289.9691780331104
 31
0.0
 11
196.4256910228453
 21
289.7320775485014
 31
0.0
 11
196.2851037636254
 21
289.4843439726059
 31
0.0
 11
196.1678557633401
 21
289.2247555480698
 31
0.0
 11
196.0762123832719
 21
288.9581126877954
 31
0.0
 11
196.0099528005479
 21
288.6840612834166
 31
0.0
 11
195.9701327213888
 21
288.4065034750379
 31
0.0
 11
195.9567799360908
 21
288.1264234761682
 31
0.0
 11
195.9701327213888
 21
287.8463434772986
 31
0.0
 11
196.0099528005479
 21
287.56878566892
 31
0.0
 11
196.0762123832719
 21
287.2947342645411
 31
0.0
 11
196.1678557633401
 21
287.0280914042666
 31
0.0
 11
196.2851037636253
 21
286.7685029797307
 31
0.0
 11
196.4256910228453
 21
286.5207694038352
 31
0.0
 11
196.5903882181973
 21
286.2836689192261
 31
0.0
 11
196.7756243851744
 21
286.0622343898912
 31
0.0
 11
196.9827172620895
 21
285.8549510005816
 31
0.0
 11
197.2070233021877
 21
285.666418716804
 31
0.0
 11
197.4501181328886
 21
285.4953301702303
 31
0.0
 11
197.7067799360908
 21
285.3453490435074
 31
0.0
 11
197.9783681560619
 21
285.215672263633
 31
0.0
 11
198.2597094344509
 21
285.1087809095556
 31
0.0
 11
198.5514269179964
 21
285.0244148482254
 31
0.0
 11
198.8490113142565
 21
284.9639023179896
 31
0.0
 11
199.1519170487908
 21
284.9273233694267
 31
0.0
 11
199.4567799360908
 21
284.915115331502
 31
0.0
 11
199.7616428233907
 21
284.9273233694267
 31
0.0
 11
200.0645485579249
 21
284.9639023179896
 31
0.0
 11
200.3621329541852
 21
285.0244148482254
 31
0.0
 11
200.6538504377307
 21
285.1087809095556
 31
0.0
 11
200.9351917161197
 21
285.2156722636329
 31
0.0
 11
201.2067799360908
 21
285.3453490435074
 31
0.0
 11
201.4634417392929
 21
285.4953301702304
 31
0.0
 11
201.7065365699936
 21
285.666418716804
 31
0.0
 11
201.9308426100919
 21
285.8549510005815
 31
0.0
 11
202.1379354870072
 21
286.0622343898912
 31
0.0
 11
202.3231716539843
 21
286.2836689192261
 31
0.0
 11
202.4878688493363
 21
286.5207694038352
 31
0.0
 11
202.6284561085562
 21
286.7685029797306
 31
0.0
 11
202.7457041088413
 21
287.0280914042666
 31
0.0
 11
202.8373474889095
 21
287.2947342645411
 31
0.0
 11
202.9036070716335
 21
287.56878566892
 31
0.0
 11
202.9434271507927
 21
287.8463434772986
 31
0.0
 11
202.9567799360908
 21
288.1264234761682
 31
0.0
  0
SPLINE
  5
372
330
5F
100
AcDbEntity
  8
1
  6
Continuous
 62
     7
100
AcDbSpline
210
0.0
220
0.0
230
1.0
 70
     8
 71
     3
 72
    29
 73
    25
 74
    23
 42
0.000000001
 43
0.0000000001
 44
0.00000001
 40
0.0
 40
0.0
 40
0.0
 40
0.0
 40
0.6069077071335576
 40
1.212222618922206
 40
1.842666699981144
 40
2.474631891987878
 40
3.10242016313509
 40
3.729333881624661
 40
4.271042929453277
 40
4.812985317241512
 40
5.340107969104355
 40
5.866248914949097
 40
6.263874824440713
 40
6.661485222727073
 40
7.280966483141372
 40
7.902596723210434
 40
8.549168899022943
 40
9.195896755585064
 40
9.722415956712231
 40
10.24911839923949
 40
11.07897535377116
 40
11.90732205839685
 40
12.67331707894484
 40
13.44191268485711
 40
13.44191268485711
 40
13.44191268485711
 40
13.44191268485711
 10
202.9567799360908
 20
276.8680932269704
 30
0.0
 10
202.9469045627267
 20
277.0701530545161
 30
0.0
 10
202.9271797215139
 20
277.4737424141935
 30
0.0
 10
202.8633893732926
 20
278.0854479622772
 30
0.0
 10
202.7292060755521
 20
278.6948650234193
 30
0.0
 10
202.5287504560258
 20
279.2932711983976
 30
0.0
 10
202.2701893397954
 20
279.8678337298713
 30
0.0
 10
201.9612599506912
 20
280.3827315272401
 30
0.0
 10
201.6074430267466
 20
280.8317504009959
 30
0.0
 10
201.2194183592298
 20
281.2056920032939
 30
0.0
 10
200.7824879561546
 20
281.5126579046009
 30
0.0
 10
200.3422739897182
 20
281.71996656204
 30
0.0
 10
199.9155648696657
 20
281.8358691502605
 30
0.0
 10
199.4446494278636
 20
281.886572355138
 30
0.0
 10
198.8956748356228
 20
281.8261160318969
 30
0.0
 10
198.2979287703011
 20
281.6131688002677
 30
0.0
 10
197.7563265251606
 20
281.2659318631153
 30
0.0
 10
197.3157185577705
 20
280.8445741375352
 30
0.0
 10
196.9658446348008
 20
280.3971606475547
 30
0.0
 10
196.6369342524594
 20
279.8613242620097
 30
0.0
 10
196.3331956320574
 20
279.1964332126238
 30
0.0
 10
196.108425766341
 20
278.4167721519871
 30
0.0
 10
196.0040389669503
 20
277.6343665358828
 30
0.0
 10
195.9726164764443
 20
277.1238060697089
 30
0.0
 10
195.9568786121777
 20
276.8680932269704
 30
0.0
 11
202.9567799360908
 21
276.8680932269704
 31
0.0
 11
202.9215790703283
 21
277.4739792487287
 31
0.0
 11
202.8532220782441
 21
278.0754220682102
 31
0.0
 11
202.7185455924198
 21
278.6913132799513
 31
0.0
 11
202.5184807004748
 21
279.2907747415
 31
0.0
 11
202.2590994622245
 21
279.8624735148201
 31
0.0
 11
201.9348795074465
 21
280.3990387318332
 31
0.0
 11
201.5982703674655
 21
280.8234712706122
 31
0.0
 11
201.2067799360908
 21
281.1982202458928
 31
0.0
 11
200.7744347748722
 21
281.4997761318529
 31
0.0
 11
200.2974323892559
 21
281.7217964456866
 31
0.0
 11
199.9135833591262
 21
281.8255571628297
 31
0.0
 11
199.5181718133119
 21
281.8673152606504
 31
0.0
 11
198.9020673591021
 21
281.802721649029
 31
0.0
 11
198.3161331888254
 21
281.5951034788776
 31
0.0
 11
197.7695315549114
 21
281.2497308780227
 31
0.0
 11
197.299555574831
 21
280.8054567514198
 31
0.0
 11
196.9740809272598
 21
280.3915863326451
 31
0.0
 11
196.6971754290801
 21
279.9435474854208
 31
0.0
 11
196.3522133409026
 21
279.1887867787833
 31
0.0
 11
196.1235358511563
 21
278.3926304683952
 31
0.0
 11
196.0132157221417
 21
277.6346213377956
 31
0.0
 11
195.9568786121777
 21
276.8680932269704
 31
0.0
  0
ENDBLK
  5
61
330
5F
100
AcDbEntity
  8
0
100
AcDbBlockEnd
  0
BLOCK
  5
63
330
62
100
AcDbEntity
  8
0
100
AcDbBlockBegin
  2
36-1A-13-M4
 70
     0
 10
451.3850624974775
 20
240.7124389505172
 30
0.0
  3
36-1A-13-M4
  1

  0
LINE
  5
373
330
62
100
AcDbEntity
  8
1
  6
Continuous
 62
     7
100
AcDbLine
 10
213.0270886479059
 20
753.1180932269707
 30
0.0
 11
209.9567799360908
 21
753.1180932269707
 31
0.0
  0
LINE
  5
374
330
62
100
AcDbEntity
  8
1
  6
Continuous
 62
     7
100
AcDbLine
 10
209.9567799360908
 20
762.6180932269707
 30
0.0
 11
213.0270886479059
 21
762.6180932269707
 31
0.0
  0
LINE
  5
375
330
62
100
AcDbEntity
  8
1
  6
Continuous
 62
     7
100
AcDbLine
 10
209.9567799360908
 20
281.6180932269706
 30
0.0
 11
213.0270886479059
 21
281.6180932269706
 31
0.0
  0
LINE
  5
376
330
62
100
AcDbEntity
  8
1
  6
Continuous
 62
     7
100
AcDbLine
 10
213.0270886479059
 20
272.1180932269706
 30
0.0
 11
209.9567799360908
 21
272.1180932269706
 31
0.0
  0
ENDBLK
  5
64
330
62
100
AcDbEntity
  8
0
100
AcDbBlockEnd
  0
BLOCK
  5
66
330
65
100
AcDbEntity
  8
0
100
AcDbBlockBegin
  2
32-1-16
 70
     0
 10
565.5919808917558
 20
435.8689329269329
 30
0.0
  3
32-1-16
  1

  0
LINE
  5
377
330
65
100
AcDbEntity
  8
1
  6
Continuous
 62
     7
100
AcDbLine
 10
163.5270886479057
 20
301.8680932269707
 30
0.0
 11
157.2270886479059
 21
301.8680932269707
 31
0.0
  0
LINE
  5
378
330
65
100
AcDbEntity
  8
1
  6
Continuous
 62
     7
100
AcDbLine
 10
177.5270886479057
 20
311.8680932269709
 30
0.0
 11
178.5270886479061
 21
311.8680932269709
 31
0.0
  0
LINE
  5
379
330
65
100
AcDbEntity
  8
1
  6
Continuous
 62
     7
100
AcDbLine
 10
161.827088647906
 20
311.8680932269709
 30
0.0
 11
160.7591394554747
 21
311.8680932269709
 31
0.0
  0
LINE
  5
37A
330
65
100
AcDbEntity
  8
1
  6
Continuous
 62
     7
100
AcDbLine
 10
157.3400886479058
 20
301.8680932269707
 30
0.0
 11
157.2270886479059
 21
301.8680932269707
 31
0.0
  0
LINE
  5
37B
330
65
100
AcDbEntity
  8
1
  6
Continuous
 62
     7
100
AcDbLine
 10
158.9690675861754
 20
310.8680932269707
 30
0.0
 11
159.0270886479061
 21
310.8680932269709
 31
0.0
  0
LINE
  5
37C
330
65
100
AcDbEntity
  8
1
  6
Continuous
 62
     7
100
AcDbLine
 10
183.827088647906
 20
301.8680932269707
 30
0.0
 11
183.714088647906
 21
301.8680932269707
 31
0.0
  0
LINE
  5
37D
330
65
100
AcDbEntity
  8
1
  6
Continuous
 62
     7
100
AcDbLine
 10
180.2950378403371
 20
311.8680932269709
 30
0.0
 11
179.2270886479058
 21
311.8680932269709
 31
0.0
  0
LINE
  5
37E
330
65
100
AcDbEntity
  8
1
  6
Continuous
 62
     7
100
AcDbLine
 10
182.0270886479061
 20
310.8680932269709
 30
0.0
 11
182.0851097096365
 21
310.8680932269707
 31
0.0
  0
LINE
  5
37F
330
65
100
AcDbEntity
  8
1
  6
Continuous
 62
     7
100
AcDbLine
 10
178.5270886479061
 20
311.8680932269709
 30
0.0
 11
179.2270886479058
 21
311.8680932269709
 31
0.0
  0
LINE
  5
380
330
65
100
AcDbEntity
  8
1
  6
Continuous
 62
     7
100
AcDbLine
 10
161.827088647906
 20
311.8680932269709
 30
0.0
 11
163.5270886479057
 21
311.8680932269709
 31
0.0
  0
LINE
  5
381
330
65
100
AcDbEntity
  8
1
  6
Continuous
 62
     7
100
AcDbLine
 10
183.714088647906
 20
301.8680932269707
 30
0.0
 11
177.5270886479057
 21
301.8680932269707
 31
0.0
  0
LINE
  5
382
330
65
100
AcDbEntity
  8
1
  6
Continuous
 62
     7
100
AcDbLine
 10
162.5270886479059
 20
744.6463225065534
 30
0.0
 11
161.7287666688362
 21
745.1072339160692
 31
0.0
  0
LINE
  5
383
330
65
100
AcDbEntity
  8
1
  6
Continuous
 62
     7
100
AcDbLine
 10
161.703896564773
 20
745.1503101998962
 30
0.0
 11
155.0766993210114
 21
756.628952537872
 31
0.0
  0
LINE
  5
384
330
65
100
AcDbEntity
  8
1
  6
Continuous
 62
     7
100
AcDbLine
 10
179.3254106269753
 20
745.1072339160692
 30
0.0
 11
185.9774779748004
 21
756.628952537872
 31
0.0
  0
LINE
  5
385
330
65
100
AcDbEntity
  8
1
  6
Continuous
 62
     7
100
AcDbLine
 10
161.7287666688362
 20
745.1072339160692
 30
0.0
 11
161.703896564773
 21
745.1503101998962
 31
0.0
  0
LINE
  5
386
330
65
100
AcDbEntity
  8
1
  6
Continuous
 62
     7
100
AcDbLine
 10
155.0766993210114
 20
759.1072339160692
 30
0.0
 11
161.7287666688366
 21
770.6289525378721
 31
0.0
  0
LINE
  5
387
330
65
100
AcDbEntity
  8
1
  6
Continuous
 62
     7
100
AcDbLine
 10
177.1791559957312
 20
771.8680932269706
 30
0.0
 11
163.8750213000809
 21
771.8680932269706
 31
0.0
  0
LINE
  5
388
330
65
100
AcDbEntity
  8
1
  6
Continuous
 62
     7
100
AcDbLine
 10
185.9774779748007
 20
759.107233916069
 30
0.0
 11
179.3254106269756
 21
770.628952537872
 31
0.0
  0
LINE
  5
389
330
65
100
AcDbEntity
  8
1
  6
Continuous
 62
     7
100
AcDbLine
 10
562.3110502683403
 20
310.8680932269709
 30
0.0
 11
583.5789994607713
 21
310.8680932269709
 31
0.0
  0
LINE
  5
38A
330
65
100
AcDbEntity
  8
1
  6
Continuous
 62
     7
100
AcDbLine
 10
586.9450248645558
 20
309.5812704766839
 30
0.0
 11
586.9450248645558
 21
302.439842048141
 31
0.0
  0
LINE
  5
38B
330
65
100
AcDbEntity
  8
1
  6
Continuous
 62
     7
100
AcDbLine
 10
558.9450248645558
 20
302.439842048141
 30
0.0
 11
558.9450248645558
 21
309.581270476684
 31
0.0
  0
LINE
  5
38C
330
65
100
AcDbEntity
  8
1
  6
Continuous
 62
     7
100
AcDbLine
 10
582.7129740569869
 20
311.8680932269709
 30
0.0
 11
563.1770756721247
 21
311.8680932269709
 31
0.0
  0
LINE
  5
38D
330
65
100
AcDbEntity
  8
1
  6
Continuous
 62
     7
100
AcDbLine
 10
586.2450248645558
 20
301.8680932269708
 30
0.0
 11
579.1605968718468
 21
301.8680932269708
 31
0.0
  0
LINE
  5
38E
330
65
100
AcDbEntity
  8
1
  6
Continuous
 62
     7
100
AcDbLine
 10
561.3870038028252
 20
310.8680932269709
 30
0.0
 11
561.4450248645558
 21
310.8680932269709
 31
0.0
  0
LINE
  5
38F
330
65
100
AcDbEntity
  8
1
  6
Continuous
 62
     7
100
AcDbLine
 10
559.7580248645559
 20
301.8680932269708
 30
0.0
 11
559.6450248645558
 21
301.8680932269708
 31
0.0
  0
LINE
  5
390
330
65
100
AcDbEntity
  8
1
  6
Continuous
 62
     7
100
AcDbLine
 10
584.4450248645558
 20
310.8680932269709
 30
0.0
 11
584.5030459262864
 21
310.8680932269709
 31
0.0
  0
LINE
  5
391
330
65
100
AcDbEntity
  8
1
  6
Continuous
 62
     7
100
AcDbLine
 10
566.7401778844823
 20
301.8680932269708
 30
0.0
 11
559.6450248645558
 21
301.8680932269708
 31
0.0
  0
ARC
  5
392
330
65
100
AcDbEntity
  8
1
  6
Continuous
 62
     7
100
AcDbCircle
 10
160.0270886479061
 20
306.0105562624124
 30
0.0
 40
5.000000000000014
100
AcDbArc
 50
105.3375576695554
 51
235.9442022574309
  0
ARC
  5
393
330
65
100
AcDbEntity
  8
1
  6
Continuous
 62
     7
100
AcDbCircle
 10
181.0270886479061
 20
306.0105562624124
 30
0.0
 40
5.000000000000047
100
AcDbArc
 50
304.0557977425661
 51
74.6624423304481
  0
ARC
  5
394
330
65
100
AcDbEntity
  8
1
  6
Continuous
 62
     7
100
AcDbCircle
 10
170.5270886479058
 20
757.8680932269708
 30
0.0
 40
10.49999999999977
100
AcDbArc
 50
89.99999999999939
 51
220.3675935441869
  0
ARC
  5
395
330
65
100
AcDbEntity
  8
1
  6
Continuous
 62
     7
100
AcDbCircle
 10
170.5270886479058
 20
757.8680932269708
 30
0.0
 40
15.49999999999996
100
AcDbArc
 50
355.41462091516
 51
4.58537908483781
  0
ARC
  5
396
330
65
100
AcDbEntity
  8
1
  6
Continuous
 62
     7
100
AcDbCircle
 10
170.5270886479058
 20
757.8680932269708
 30
0.0
 40
15.50000000000006
100
AcDbArc
 50
301.0729509721537
 51
304.5853790848382
  0
ARC
  5
397
330
65
100
AcDbEntity
  8
1
  6
Continuous
 62
     7
100
AcDbCircle
 10
170.5270886479058
 20
757.8680932269708
 30
0.0
 40
15.49999999999972
100
AcDbArc
 50
175.4146209151616
 51
184.5853790848401
  0
ARC
  5
398
330
65
100
AcDbEntity
  8
1
  6
Continuous
 62
     7
100
AcDbCircle
 10
170.5270886479058
 20
757.8680932269708
 30
0.0
 40
15.49999999999984
100
AcDbArc
 50
119.9999999999999
 51
124.585379084838
  0
ARC
  5
399
330
65
100
AcDbEntity
  8
1
  6
Continuous
 62
     7
100
AcDbCircle
 10
170.5270886479058
 20
757.8680932269708
 30
0.0
 40
15.49999999999974
100
AcDbArc
 50
115.4146209151609
 51
119.9999999999999
  0
ARC
  5
39A
330
65
100
AcDbEntity
  8
1
  6
Continuous
 62
     7
100
AcDbCircle
 10
170.5270886479058
 20
757.8680932269708
 30
0.0
 40
15.49999999999989
100
AcDbArc
 50
55.41462091515986
 51
64.58537908483741
  0
ARC
  5
39B
330
65
100
AcDbEntity
  8
1
  6
Continuous
 62
     7
100
AcDbCircle
 10
170.5270886479058
 20
757.8680932269708
 30
0.0
 40
10.50000000000024
100
AcDbArc
 50
319.6324064558138
 51
89.99999999999939
  0
ARC
  5
39C
330
65
100
AcDbEntity
  8
1
  6
Continuous
 62
     7
100
AcDbCircle
 10
583.4450248645558
 20
306.0105562624125
 30
0.0
 40
5.000000000000095
100
AcDbArc
 50
304.0557977425681
 51
314.427004000805
  0
ARC
  5
39D
330
65
100
AcDbEntity
  8
1
  6
Continuous
 62
     7
100
AcDbCircle
 10
562.4450248645558
 20
306.0105562624125
 30
0.0
 40
4.99999999999997
100
AcDbArc
 50
105.3375576695535
 51
134.4270040008051
  0
ARC
  5
39E
330
65
100
AcDbEntity
  8
1
  6
Continuous
 62
     7
100
AcDbCircle
 10
562.4450248645558
 20
306.0105562624125
 30
0.0
 40
5.000000000000057
100
AcDbArc
 50
225.5729959991949
 51
235.9442022574329
  0
ARC
  5
39F
330
65
100
AcDbEntity
  8
1
  6
Continuous
 62
     7
100
AcDbCircle
 10
583.4450248645558
 20
306.0105562624125
 30
0.0
 40
5.000000000000016
100
AcDbArc
 50
45.57299599919448
 51
74.66244233044527
  0
SPLINE
  5
3A0
330
65
100
AcDbEntity
  8
1
  6
Continuous
 62
     7
100
AcDbSpline
210
0.0
220
0.0
230
1.0
 70
    11
 71
     3
 72
    79
 73
    75
 74
    73
 42
0.000000001
 43
0.0000000001
 44
0.00000001
 40
0.0
 40
0.0
 40
0.0
 40
0.0
 40
0.290367247183158
 40
0.5807357518971572
 40
0.8724070977359295
 40
1.164081911024035
 40
1.458189924522181
 40
1.752302920472695
 40
2.049663201046328
 40
2.347029106415353
 40
2.648045786115829
 40
2.949067936325125
 40
3.253697746552252
 40
3.558332275330013
 40
3.866104857780098
 40
4.173881019540048
 40
4.483966061108322
 40
4.794053321447481
 40
5.105362217358471
 40
5.416671863434622
 40
5.727981509499917
 40
6.039290405378576
 40
6.349377665663523
 40
6.659462707155261
 40
6.967238868816594
 40
7.275011451144456
 40
7.579645979777144
 40
7.884275789834177
 40
8.185297939849507
 40
8.486314619328336
 40
8.783680524448753
 40
9.081040804740848
 40
9.375153800374067
 40
9.669261813502095
 40
9.960936626337102
 40
10.25260797152392
 40
10.54297647485862
 40
10.83334373090407
 40
11.12371098694956
 40
11.41407949028424
 40
11.70575083547095
 40
11.99742564830594
 40
12.29153366143413
 40
12.58564665706747
 40
12.88300693735956
 40
13.18037284247998
 40
13.48138952195883
 40
13.78241167197414
 40
14.08704148203109
 40
14.39167601066369
 40
14.6994485929916
 40
15.007224754653
 40
15.31730979614471
 40
15.6273970564297
 40
15.93870595230833
 40
16.25001559837362
 40
16.56132524444971
 40
16.87263414036074
 40
17.18272140069994
 40
17.49280644226818
 40
17.80058260402819
 40
18.10835518647834
 40
18.41298971525606
 40
18.71761952548305
 40
19.01864167569233
 40
19.31965835539282
 40
19.61702426076189
 40
19.91438454133549
 40
20.20849753728612
 40
20.50260555078443
 40
20.79428036407254
 40
21.08595170991119
 40
21.37632021462519
 40
21.66668746180835
 40
21.66668746180835
 40
21.66668746180835
 40
21.66668746180835
 10
182.6514443008881
 20
309.5812704766837
 30
0.0
 10
182.7482681075978
 20
309.5786388793631
 30
0.0
 10
182.9419161405134
 20
309.5733756785445
 30
0.0
 10
183.2302770168204
 20
309.5310806063628
 30
0.0
 10
183.5139891607995
 20
309.4638697138693
 30
0.0
 10
183.7914142235852
 20
309.3698145486
 30
0.0
 10
184.0597351349664
 20
309.2503830909167
 30
0.0
 10
184.3177348983372
 20
309.1061075954303
 30
0.0
 10
184.5625369015935
 20
308.9385035202274
 30
0.0
 10
184.7932331266557
 20
308.7483409660673
 30
0.0
 10
185.0071288339323
 20
308.5377182457557
 30
0.0
 10
185.2035023765119
 20
308.3074966299241
 30
0.0
 10
185.3800517216754
 20
308.0602602065261
 30
0.0
 10
185.5361545183457
 20
307.7970260322792
 30
0.0
 10
185.670043532955
 20
307.5206624776974
 30
0.0
 10
185.781171549958
 20
307.232449033836
 30
0.0
 10
185.8683623099401
 20
306.9353105906831
 30
0.0
 10
185.9311879165804
 20
306.6308874366514
 30
0.0
 10
185.9690364665357
 20
306.3219508243591
 30
0.0
 10
185.9816987286741
 20
306.0105562717847
 30
0.0
 10
185.9690364668972
 20
305.6991617192077
 30
0.0
 10
185.9311879173043
 20
305.3902251068993
 30
0.0
 10
185.8683623110284
 20
305.0858019528649
 30
0.0
 10
185.7811715514128
 20
304.7886635096215
 30
0.0
 10
185.6700435347804
 20
304.5004500659555
 30
0.0
 10
185.5361545205454
 20
304.2240865104673
 30
0.0
 10
185.3800517242554
 20
303.9608523393455
 30
0.0
 10
185.203502379478
 20
303.7136159040815
 30
0.0
 10
185.0071288372932
 20
303.4833943317049
 30
0.0
 10
184.7932331304204
 20
303.272771449888
 30
0.0
 10
184.562536905775
 20
303.0826094910111
 30
0.0
 10
184.3177349029529
 20
302.9150032074178
 30
0.0
 10
184.0597351400448
 20
302.7707358669562
 30
0.0
 10
183.7914142291723
 20
302.6512741276177
 30
0.0
 10
183.5139891670172
 20
302.5573310805635
 30
0.0
 10
183.2302770239766
 20
302.4897031081264
 30
0.0
 10
182.941916145795
 20
302.448957983284
 30
0.0
 10
182.651444300888
 20
302.435284105359
 30
0.0
 10
182.3609724559813
 20
302.448957983284
 30
0.0
 10
182.0726115777996
 20
302.4897031081264
 30
0.0
 10
181.7888994347591
 20
302.5573310805636
 30
0.0
 10
181.5114743726039
 20
302.6512741276177
 30
0.0
 10
181.2431534617313
 20
302.7707358669561
 30
0.0
 10
180.9851536988232
 20
302.9150032074177
 30
0.0
 10
180.7403516960009
 20
303.0826094910111
 30
0.0
 10
180.5096554713556
 20
303.272771449888
 30
0.0
 10
180.2957597644828
 20
303.4833943317049
 30
0.0
 10
180.0993862222979
 20
303.7136159040814
 30
0.0
 10
179.9228368775209
 20
303.9608523393456
 30
0.0
 10
179.7667340812309
 20
304.2240865104673
 30
0.0
 10
179.6328450669959
 20
304.5004500659553
 30
0.0
 10
179.5217170503631
 20
304.7886635096216
 30
0.0
 10
179.4345262907476
 20
305.0858019528648
 30
0.0
 10
179.3717006844717
 20
305.3902251068993
 30
0.0
 10
179.3338521348789
 20
305.6991617192077
 30
0.0
 10
179.3211898731024
 20
306.0105562717847
 30
0.0
 10
179.3338521352405
 20
306.3219508243591
 30
0.0
 10
179.3717006851956
 20
306.6308874366514
 30
0.0
 10
179.4345262918358
 20
306.9353105906831
 30
0.0
 10
179.5217170518179
 20
307.232449033836
 30
0.0
 10
179.6328450688212
 20
307.5206624776975
 30
0.0
 10
179.7667340834306
 20
307.7970260322791
 30
0.0
 10
179.9228368801008
 20
308.0602602065261
 30
0.0
 10
180.0993862252641
 20
308.3074966299241
 30
0.0
 10
180.2957597678437
 20
308.5377182457558
 30
0.0
 10
180.5096554751203
 20
308.7483409660674
 30
0.0
 10
180.7403517001825
 20
308.9385035202275
 30
0.0
 10
180.9851537034388
 20
309.1061075954303
 30
0.0
 10
181.2431534668098
 20
309.2503830909167
 30
0.0
 10
181.5114743781911
 20
309.3698145485998
 30
0.0
 10
181.7888994409768
 20
309.4638697138692
 30
0.0
 10
182.0726115849559
 20
309.5310806063627
 30
0.0
 10
182.3609724612627
 20
309.5733756785446
 30
0.0
 10
182.5546204941785
 20
309.578638879363
 30
0.0
 10
182.6514443008881
 20
309.5812704766837
 30
0.0
 11
182.6514443008881
 21
309.5812704766837
 31
0.0
 11
182.9414920626861
 21
309.5676528638312
 31
0.0
 11
183.2290039872218
 21
309.5270233044177
 31
0.0
 11
183.5127412970905
 21
309.4594562065792
 31
0.0
 11
183.7890148147457
 21
309.3659300604985
 31
0.0
 11
184.0577318768444
 21
309.2463864950609
 31
0.0
 11
184.3144611378443
 21
309.1028854816257
 31
0.0
 11
184.5598784276264
 21
308.9349763089189
 31
0.0
 11
184.7893775358792
 21
308.7458820442209
 31
0.0
 11
185.003932094916
 21
308.5347484783913
 31
0.0
 11
185.1993339144153
 21
308.3057671170777
 31
0.0
 11
185.3764373195556
 21
308.0579088810802
 31
0.0
 11
185.5318739563388
 21
307.795913369548
 31
0.0
 11
185.6661271849619
 21
307.518965661281
 31
0.0
 11
185.776893600749
 21
307.2318124497524
 31
0.0
 11
185.864251356222
 21
306.9342870633051
 31
0.0
 11
185.9269480497367
 21
306.63060427869
 31
0.0
 11
185.964830469706
 21
306.3216088888176
 31
0.0
 11
185.9774779748007
 21
306.0105562624124
 31
0.0
 11
185.964830469706
 21
305.6995036360073
 31
0.0
 11
185.9269480497367
 21
305.3905082461347
 31
0.0
 11
185.864251356222
 21
305.0868254615195
 31
0.0
 11
185.776893600749
 21
304.7893000750723
 31
0.0
 11
185.6661271849619
 21
304.5021468635436
 31
0.0
 11
185.5318739563388
 21
304.2251991552767
 31
0.0
 11
185.3764373195556
 21
303.9632036437446
 31
0.0
 11
185.1993339144153
 21
303.7153454077471
 31
0.0
 11
185.003932094916
 21
303.4863640464333
 31
0.0
 11
184.7893775358792
 21
303.2752304806037
 31
0.0
 11
184.5598784276265
 21
303.0861362159059
 31
0.0
 11
184.3144611378443
 21
302.9182270431992
 31
0.0
 11
184.0577318768444
 21
302.7747260297639
 31
0.0
 11
183.7890148147457
 21
302.6551824643262
 31
0.0
 11
183.5127412970905
 21
302.5616563182454
 31
0.0
 11
183.2290039872218
 21
302.4940892204069
 31
0.0
 11
182.9414920626861
 21
302.4534596609935
 31
0.0
 11
182.6514443008881
 21
302.439842048141
 31
0.0
 11
182.3613965390901
 21
302.4534596609934
 31
0.0
 11
182.0738846145544
 21
302.4940892204069
 31
0.0
 11
181.7901473046859
 21
302.5616563182454
 31
0.0
 11
181.5138737870306
 21
302.6551824643262
 31
0.0
 11
181.2451567249318
 21
302.7747260297639
 31
0.0
 11
180.9884274639317
 21
302.9182270431992
 31
0.0
 11
180.7430101741495
 21
303.0861362159059
 31
0.0
 11
180.5135110658968
 21
303.2752304806037
 31
0.0
 11
180.29895650686
 21
303.4863640464333
 31
0.0
 11
180.1035546873607
 21
303.7153454077471
 31
0.0
 11
179.9264512822206
 21
303.9632036437446
 31
0.0
 11
179.7710146454375
 21
304.2251991552767
 31
0.0
 11
179.6367614168143
 21
304.5021468635436
 31
0.0
 11
179.525995001027
 21
304.7893000750723
 31
0.0
 11
179.438637245554
 21
305.0868254615195
 31
0.0
 11
179.3759405520393
 21
305.3905082461347
 31
0.0
 11
179.3380581320702
 21
305.6995036360073
 31
0.0
 11
179.3254106269756
 21
306.0105562624124
 31
0.0
 11
179.3380581320702
 21
306.3216088888175
 31
0.0
 11
179.3759405520393
 21
306.63060427869
 31
0.0
 11
179.438637245554
 21
306.9342870633052
 31
0.0
 11
179.525995001027
 21
307.2318124497524
 31
0.0
 11
179.6367614168143
 21
307.518965661281
 31
0.0
 11
179.7710146454375
 21
307.795913369548
 31
0.0
 11
179.9264512822206
 21
308.0579088810802
 31
0.0
 11
180.1035546873607
 21
308.3057671170777
 31
0.0
 11
180.29895650686
 21
308.5347484783913
 31
0.0
 11
180.5135110658968
 21
308.7458820442209
 31
0.0
 11
180.7430101741496
 21
308.9349763089189
 31
0.0
 11
180.9884274639317
 21
309.1028854816257
 31
0.0
 11
181.2451567249317
 21
309.2463864950609
 31
0.0
 11
181.5138737870306
 21
309.3659300604985
 31
0.0
 11
181.7901473046859
 21
309.4594562065791
 31
0.0
 11
182.0738846145544
 21
309.5270233044177
 31
0.0
 11
182.3613965390901
 21
309.5676528638312
 31
0.0
 11
182.6514443008881
 21
309.5812704766837
 31
0.0
  0
SPLINE
  5
3A1
330
65
100
AcDbEntity
  8
1
  6
Continuous
 62
     7
100
AcDbSpline
210
0.0
220
0.0
230
1.0
 70
    11
 71
     3
 72
    79
 73
    75
 74
    73
 42
0.000000001
 43
0.0000000001
 44
0.00000001
 40
0.0
 40
0.0
 40
0.0
 40
0.0
 40
0.290367247183158
 40
0.5807357518971572
 40
0.8724070977358189
 40
1.164081911023925
 40
1.458189924522096
 40
1.75230292047261
 40
2.049663201046196
 40
2.347029106415178
 40
2.648045786115675
 40
2.949067936325033
 40
3.253697746552126
 40
3.558332275329902
 40
3.866104857779987
 40
4.173881019539948
 40
4.483966061108221
 40
4.794053321447381
 40
5.105362217358364
 40
5.416671863434517
 40
5.727981509499814
 40
6.039290405378466
 40
6.349377665663413
 40
6.659462707155151
 40
6.967238868816441
 40
7.275011451144354
 40
7.579645979777057
 40
7.884275789834057
 40
8.185297939849423
 40
8.486314619328294
 40
8.78368052444863
 40
9.08104080474071
 40
9.375153800373928
 40
9.669261813501981
 40
9.960936626336933
 40
10.25260797152369
 40
10.54297647485839
 40
10.83334373090385
 40
11.12371098694936
 40
11.4140794902841
 40
11.70575083547087
 40
11.9974256483058
 40
12.29153366143401
 40
12.58564665706736
 40
12.8830069373594
 40
13.18037284247978
 40
13.48138952195873
 40
13.78241167197401
 40
14.08704148203091
 40
14.39167601066355
 40
14.69944859299152
 40
15.00722475465287
 40
15.31730979614456
 40
15.62739705642954
 40
15.93870595230818
 40
16.25001559837347
 40
16.56132524444956
 40
16.87263414036059
 40
17.18272140069973
 40
17.49280644226799
 40
17.800582604028
 40
18.10835518647816
 40
18.41298971525587
 40
18.71761952548286
 40
19.01864167569218
 40
19.31965835539271
 40
19.6170242607617
 40
19.91438454133528
 40
20.20849753728592
 40
20.50260555078425
 40
20.79428036407233
 40
21.08595170991101
 40
21.37632021462501
 40
21.66668746180825
 40
21.66668746180825
 40
21.66668746180825
 40
21.66668746180825
 10
158.4027329949236
 20
309.5812704766837
 30
0.0
 10
158.3059091882139
 20
309.5786388793631
 30
0.0
 10
158.1122611552982
 20
309.5733756785445
 30
0.0
 10
157.8239002789915
 20
309.5310806063627
 30
0.0
 10
157.5401881350123
 20
309.4638697138694
 30
0.0
 10
157.2627630722266
 20
309.3698145485999
 30
0.0
 10
156.9944421608455
 20
309.2503830909166
 30
0.0
 10
156.7364423974746
 20
309.1061075954303
 30
0.0
 10
156.4916403942184
 20
308.9385035202274
 30
0.0
 10
156.2609441691563
 20
308.7483409660674
 30
0.0
 10
156.0470484618794
 20
308.5377182457559
 30
0.0
 10
155.8506749193
 20
308.3074966299241
 30
0.0
 10
155.6741255741364
 20
308.0602602065261
 30
0.0
 10
155.5180227774662
 20
307.7970260322792
 30
0.0
 10
155.3841337628568
 20
307.5206624776976
 30
0.0
 10
155.2730057458537
 20
307.232449033836
 30
0.0
 10
155.1858149858717
 20
306.9353105906831
 30
0.0
 10
155.1229893792315
 20
306.6308874366515
 30
0.0
 10
155.0851408292762
 20
306.3219508243591
 30
0.0
 10
155.0724785671378
 20
306.0105562717847
 30
0.0
 10
155.0851408289146
 20
305.6991617192077
 30
0.0
 10
155.1229893785075
 20
305.3902251068993
 30
0.0
 10
155.1858149847835
 20
305.0858019528648
 30
0.0
 10
155.2730057443989
 20
304.7886635096217
 30
0.0
 10
155.3841337610315
 20
304.5004500659554
 30
0.0
 10
155.5180227752664
 20
304.2240865104673
 30
0.0
 10
155.6741255715565
 20
303.9608523393455
 30
0.0
 10
155.8506749163338
 20
303.7136159040813
 30
0.0
 10
156.0470484585186
 20
303.483394331705
 30
0.0
 10
156.2609441653914
 20
303.272771449888
 30
0.0
 10
156.4916403900368
 20
303.0826094910111
 30
0.0
 10
156.7364423928589
 20
302.9150032074177
 30
0.0
 10
156.994442155767
 20
302.7707358669562
 30
0.0
 10
157.2627630666395
 20
302.6512741276177
 30
0.0
 10
157.5401881287946
 20
302.5573310805635
 30
0.0
 10
157.8239002718351
 20
302.4897031081264
 30
0.0
 10
158.1122611500168
 20
302.4489579832841
 30
0.0
 10
158.4027329949236
 20
302.435284105359
 30
0.0
 10
158.6932048398305
 20
302.4489579832839
 30
0.0
 10
158.9815657180122
 20
302.4897031081264
 30
0.0
 10
159.2652778610527
 20
302.5573310805636
 30
0.0
 10
159.5427029232079
 20
302.6512741276177
 30
0.0
 10
159.8110238340805
 20
302.7707358669562
 30
0.0
 10
160.0690235969887
 20
302.9150032074177
 30
0.0
 10
160.3138255998108
 20
303.0826094910111
 30
0.0
 10
160.5445218244562
 20
303.2727714498881
 30
0.0
 10
160.758417531329
 20
303.4833943317049
 30
0.0
 10
160.9547910735139
 20
303.7136159040813
 30
0.0
 10
161.1313404182909
 20
303.9608523393455
 30
0.0
 10
161.2874432145808
 20
304.2240865104673
 30
0.0
 10
161.421332228816
 20
304.5004500659555
 30
0.0
 10
161.5324602454487
 20
304.7886635096215
 30
0.0
 10
161.6196510050642
 20
305.0858019528648
 30
0.0
 10
161.68247661134
 20
305.3902251068992
 30
0.0
 10
161.7203251609329
 20
305.6991617192078
 30
0.0
 10
161.7329874227094
 20
306.0105562717846
 30
0.0
 10
161.7203251605713
 20
306.3219508243591
 30
0.0
 10
161.682476610616
 20
306.6308874366514
 30
0.0
 10
161.6196510039759
 20
306.9353105906831
 30
0.0
 10
161.5324602439939
 20
307.232449033836
 30
0.0
 10
161.4213322269907
 20
307.5206624776976
 30
0.0
 10
161.2874432123811
 20
307.7970260322791
 30
0.0
 10
161.131340415711
 20
308.0602602065261
 30
0.0
 10
160.9547910705477
 20
308.3074966299242
 30
0.0
 10
160.7584175279681
 20
308.5377182457557
 30
0.0
 10
160.5445218206914
 20
308.7483409660674
 30
0.0
 10
160.3138255956292
 20
308.9385035202274
 30
0.0
 10
160.069023592373
 20
309.1061075954303
 30
0.0
 10
159.811023829002
 20
309.2503830909167
 30
0.0
 10
159.5427029176207
 20
309.3698145485998
 30
0.0
 10
159.265277854835
 20
309.4638697138692
 30
0.0
 10
158.9815657108559
 20
309.5310806063628
 30
0.0
 10
158.693204834549
 20
309.5733756785444
 30
0.0
 10
158.4995568016333
 20
309.5786388793631
 30
0.0
 10
158.4027329949236
 20
309.5812704766837
 30
0.0
 11
158.4027329949236
 21
309.5812704766837
 31
0.0
 11
158.1126852331256
 21
309.5676528638312
 31
0.0
 11
157.8251733085899
 21
309.5270233044177
 31
0.0
 11
157.5414359987213
 21
309.4594562065792
 31
0.0
 11
157.2651624810661
 21
309.3659300604985
 31
0.0
 11
156.9964454189674
 21
309.2463864950609
 31
0.0
 11
156.7397161579675
 21
309.1028854816257
 31
0.0
 11
156.4942988681854
 21
308.9349763089189
 31
0.0
 11
156.2647997599327
 21
308.7458820442209
 31
0.0
 11
156.0502452008958
 21
308.5347484783914
 31
0.0
 11
155.8548433813965
 21
308.3057671170777
 31
0.0
 11
155.6777399762562
 21
308.0579088810802
 31
0.0
 11
155.522303339473
 21
307.795913369548
 31
0.0
 11
155.3880501108499
 21
307.518965661281
 31
0.0
 11
155.2772836950628
 21
307.2318124497524
 31
0.0
 11
155.1899259395898
 21
306.9342870633051
 31
0.0
 11
155.1272292460751
 21
306.63060427869
 31
0.0
 11
155.0893468261059
 21
306.3216088888176
 31
0.0
 11
155.0766993210111
 21
306.0105562624124
 31
0.0
 11
155.0893468261059
 21
305.6995036360073
 31
0.0
 11
155.1272292460751
 21
305.3905082461347
 31
0.0
 11
155.1899259395898
 21
305.0868254615195
 31
0.0
 11
155.2772836950628
 21
304.7893000750723
 31
0.0
 11
155.3880501108499
 21
304.5021468635437
 31
0.0
 11
155.522303339473
 21
304.2251991552767
 31
0.0
 11
155.6777399762562
 21
303.9632036437446
 31
0.0
 11
155.8548433813965
 21
303.7153454077471
 31
0.0
 11
156.0502452008958
 21
303.4863640464333
 31
0.0
 11
156.2647997599327
 21
303.2752304806037
 31
0.0
 11
156.4942988681854
 21
303.0861362159059
 31
0.0
 11
156.7397161579675
 21
302.9182270431992
 31
0.0
 11
156.9964454189674
 21
302.7747260297639
 31
0.0
 11
157.2651624810661
 21
302.6551824643262
 31
0.0
 11
157.5414359987213
 21
302.5616563182454
 31
0.0
 11
157.8251733085899
 21
302.4940892204069
 31
0.0
 11
158.1126852331256
 21
302.4534596609935
 31
0.0
 11
158.4027329949236
 21
302.439842048141
 31
0.0
 11
158.6927807567217
 21
302.4534596609934
 31
0.0
 11
158.9802926812574
 21
302.4940892204069
 31
0.0
 11
159.264029991126
 21
302.5616563182454
 31
0.0
 11
159.5403035087812
 21
302.6551824643262
 31
0.0
 11
159.8090205708801
 21
302.7747260297639
 31
0.0
 11
160.0657498318801
 21
302.9182270431992
 31
0.0
 11
160.3111671216622
 21
303.0861362159059
 31
0.0
 11
160.5406662299149
 21
303.2752304806037
 31
0.0
 11
160.7552207889518
 21
303.4863640464334
 31
0.0
 11
160.9506226084511
 21
303.7153454077471
 31
0.0
 11
161.1277260135912
 21
303.9632036437446
 31
0.0
 11
161.2831626503743
 21
304.2251991552767
 31
0.0
 11
161.4174158789975
 21
304.5021468635437
 31
0.0
 11
161.5281822947848
 21
304.7893000750723
 31
0.0
 11
161.6155400502578
 21
305.0868254615195
 31
0.0
 11
161.6782367437724
 21
305.3905082461347
 31
0.0
 11
161.7161191637416
 21
305.6995036360073
 31
0.0
 11
161.7287666688362
 21
306.0105562624124
 31
0.0
 11
161.7161191637416
 21
306.3216088888175
 31
0.0
 11
161.6782367437724
 21
306.63060427869
 31
0.0
 11
161.6155400502577
 21
306.9342870633051
 31
0.0
 11
161.5281822947848
 21
307.2318124497524
 31
0.0
 11
161.4174158789975
 21
307.518965661281
 31
0.0
 11
161.2831626503743
 21
307.795913369548
 31
0.0
 11
161.1277260135912
 21
308.0579088810802
 31
0.0
 11
160.9506226084511
 21
308.3057671170777
 31
0.0
 11
160.7552207889518
 21
308.5347484783913
 31
0.0
 11
160.5406662299149
 21
308.7458820442209
 31
0.0
 11
160.3111671216622
 21
308.9349763089189
 31
0.0
 11
160.0657498318801
 21
309.1028854816257
 31
0.0
 11
159.8090205708801
 21
309.2463864950609
 31
0.0
 11
159.5403035087812
 21
309.3659300604985
 31
0.0
 11
159.264029991126
 21
309.4594562065791
 31
0.0
 11
158.9802926812574
 21
309.5270233044177
 31
0.0
 11
158.6927807567217
 21
309.5676528638312
 31
0.0
 11
158.4027329949236
 21
309.5812704766837
 31
0.0
  0
SPLINE
  5
3A2
330
65
100
AcDbEntity
  8
0
  6
Continuous
 62
     7
100
AcDbSpline
210
0.0
220
0.0
230
1.0
 70
     8
 71
     3
 72
    37
 73
    33
 74
    31
 42
0.000000001
 43
0.0000000001
 44
0.00000001
 40
0.0
 40
0.0
 40
0.0
 40
0.0
 40
0.3210813059560709
 40
0.6418951350010111
 40
0.982898885750815
 40
1.323531048884055
 40
1.692967052918167
 40
2.062075176613205
 40
2.463733852986278
 40
2.865152861442243
 40
3.298564778592754
 40
3.731815223363959
 40
4.193131260544885
 40
4.654344167927596
 40
5.137240967161569
 40
5.620077100473909
 40
6.116559526704138
 40
6.613013905409757
 40
7.114121232619503
 40
7.615228559873656
 40
8.111682938715967
 40
8.6081653651713
 40
9.091001498790838
 40
9.573898298405522
 40
10.03511120620618
 40
10.49642724379885
 40
10.92967768885336
 40
11.3630896058704
 40
11.76450861288001
 40
12.16616728858398
 40
12.49906321627368
 40
12.83192840998592
 40
12.83192840998592
 40
12.83192840998592
 40
12.83192840998592
 10
585.6833931936565
 20
306.3235111139781
 30
0.0
 10
585.6641133428897
 20
306.4289721971376
 30
0.0
 10
585.6255696882785
 20
306.6398065054626
 30
0.0
 10
585.5105164000801
 20
306.9481461346259
 30
0.0
 10
585.3581279315388
 20
307.2462342280216
 30
0.0
 10
585.1610512887247
 20
307.5369063138779
 30
0.0
 10
584.9278647785984
 20
307.811671893009
 30
0.0
 10
584.6536963121783
 20
308.0757008389319
 30
0.0
 10
584.3481531120311
 20
308.3200848155761
 30
0.0
 10
584.0055355210776
 20
308.5499563905216
 30
0.0
 10
583.6368393042117
 20
308.7575236432826
 30
0.0
 10
583.2362845619459
 20
308.9467406034556
 30
0.0
 10
582.8151800646417
 20
309.1117052191829
 30
0.0
 10
582.3688217584936
 20
309.2548892413773
 30
0.0
 10
581.9076259004373
 20
309.3724164688753
 30
0.0
 10
581.4289308038244
 20
309.465500275932
 30
0.0
 10
580.941263494488
 20
309.5320030750863
 30
0.0
 10
580.4446456884748
 20
309.5723886380298
 30
0.0
 10
579.9450248720639
 20
309.5857321191614
 30
0.0
 10
579.4454040574717
 20
309.5723886382793
 30
0.0
 10
578.9487862455915
 20
309.5320030811083
 30
0.0
 10
578.4611189563129
 20
309.4655002657952
 30
0.0
 10
577.982423785005
 20
309.3724165227844
 30
0.0
 10
577.521228197369
 20
309.2548890662612
 30
0.0
 10
577.0748689222563
 20
309.1117058668261
 30
0.0
 10
576.6537679306275
 20
308.9467382758949
 30
0.0
 10
576.2532008595747
 20
308.7575317801338
 30
0.0
 10
575.8845489342801
 20
308.5499269356839
 30
0.0
 10
575.5417776262041
 20
308.3201858294679
 30
0.0
 10
575.2462058817123
 20
308.0828997472217
 30
0.0
 10
574.986859993116
 20
307.838295357988
 30
0.0
 10
574.8443087123998
 20
307.6679916921459
 30
0.0
 10
574.7730363680741
 20
307.5828437852061
 30
0.0
 11
585.6833931936565
 21
306.3235111139781
 31
0.0
 11
585.6163976519535
 21
306.6375251375912
 31
0.0
 11
585.5074428198093
 21
306.9392706584612
 31
0.0
 11
585.3520179532321
 21
307.2427944098568
 31
0.0
 11
585.1617822291264
 21
307.5253552690397
 31
0.0
 11
584.9232889325712
 21
307.8074969143854
 31
0.0
 11
584.657951803466
 21
308.0640841597657
 31
0.0
 11
584.3447904462444
 21
308.3155988835124
 31
0.0
 11
584.0117633270634
 21
308.5397197391057
 31
0.0
 11
583.6344349643451
 21
308.7529548119209
 31
0.0
 11
583.2428672951517
 21
308.9383751668718
 31
0.0
 11
582.8135339434124
 21
309.1071512283188
 31
0.0
 11
582.3744448549121
 21
309.2482827909889
 31
0.0
 11
581.9065989645112
 21
309.36790528554
 31
0.0
 11
581.4326669370124
 21
309.4602046062062
 31
0.0
 11
580.9407702303188
 21
309.5275279239794
 31
0.0
 11
580.4459506783364
 21
309.5677841123866
 31
0.0
 11
579.9450248645567
 21
309.5812704766838
 31
0.0
 11
579.4440990507771
 21
309.5677841123865
 31
0.0
 11
578.9492794987949
 21
309.5275279239794
 31
0.0
 11
578.4573827921013
 21
309.4602046062063
 31
0.0
 11
577.9834507646026
 21
309.3679052855402
 31
0.0
 11
577.5156048742017
 21
309.248282790989
 31
0.0
 11
577.0765157857013
 21
309.1071512283188
 31
0.0
 11
576.647182433962
 21
308.9383751668718
 31
0.0
 11
576.2556147647686
 21
308.7529548119209
 31
0.0
 11
575.8782864020503
 21
308.5397197391057
 31
0.0
 11
575.5452592828694
 21
308.3155988835124
 31
0.0
 11
575.2320979256477
 21
308.0640841597657
 31
0.0
 11
574.9916543403453
 21
307.8338525867767
 31
0.0
 11
574.7730363680741
 21
307.5828437852061
 31
0.0
  0
SPLINE
  5
3A3
330
65
100
AcDbEntity
  8
0
  6
Continuous
 62
     7
100
AcDbSpline
210
0.0
220
0.0
230
1.0
 70
     8
 71
     3
 72
    29
 73
    25
 74
    23
 42
0.000000001
 43
0.0000000001
 44
0.00000001
 40
0.0
 40
0.0
 40
0.0
 40
0.0
 40
0.2275667810615555
 40
0.4552975788503585
 40
0.9564049061500222
 40
1.457512232987501
 40
1.95396661128331
 40
2.450449037103648
 40
2.933285170027728
 40
3.416181968878169
 40
3.877394875896305
 40
4.338710912705053
 40
4.771961357114479
 40
5.205373273878523
 40
5.606792281942954
 40
6.008450957869043
 40
6.377559081070436
 40
6.746995084458427
 40
7.087627246674112
 40
7.428630995756142
 40
7.749444827814968
 40
8.070526140501165
 40
8.384288122126142
 40
8.69805010005667
 40
8.69805010005667
 40
8.69805010005667
 40
8.69805010005667
 10
578.990253762166
 20
302.4892116685647
 30
0.0
 10
579.0657588231555
 20
302.4818821720526
 30
0.0
 10
579.2168233657051
 20
302.4672179070974
 30
0.0
 10
579.53499488841
 20
302.4465209293584
 30
0.0
 10
579.945023221488
 20
302.4353143560188
 30
0.0
 10
580.4446461278515
 20
302.4487414141506
 30
0.0
 10
580.9412633783056
 20
302.4891047775153
 30
0.0
 10
581.4289308349121
 20
302.5556134724158
 30
0.0
 10
581.9076258921405
 20
302.6486957407792
 30
0.0
 10
582.3688217621308
 20
302.7662233722435
 30
0.0
 10
582.8151800577747
 20
302.9094072916874
 30
0.0
 10
583.2362845829884
 20
303.0743719296476
 30
0.0
 10
583.6368392279502
 20
303.2635888988736
 30
0.0
 10
584.005535792371
 20
303.4711560954438
 30
0.0
 10
584.3481521757441
 20
303.7010278702378
 30
0.0
 10
584.6536996894774
 20
303.945411130363
 30
0.0
 10
584.9278532901337
 20
304.2094425446306
 30
0.0
 10
585.1610928985317
 20
304.484199305241
 30
0.0
 10
585.3579859543236
 20
304.7749018781354
 30
0.0
 10
585.5110350346846
 20
305.0728802642178
 30
0.0
 10
585.6237603273282
 20
305.3816065020499
 30
0.0
 10
585.6896612721227
 20
305.6940834175456
 30
0.0
 10
585.715512767446
 20
306.0108247835643
 30
0.0
 10
585.6940997222567
 20
306.2192823377836
 30
0.0
 10
585.6833931936565
 20
306.3235111139781
 30
0.0
 11
578.990253762166
 21
302.4892116685647
 31
0.0
 11
579.2168692039165
 21
302.4684251785673
 31
0.0
 11
579.4440990507771
 21
302.4533284124383
 31
0.0
 11
579.9450248645568
 21
302.439842048141
 31
0.0
 11
580.4459506783364
 21
302.4533284124383
 31
0.0
 11
580.9407702303188
 21
302.4935846008454
 31
0.0
 11
581.4326669370124
 21
302.5609079186186
 31
0.0
 11
581.9065989645112
 21
302.6532072392847
 31
0.0
 11
582.3744448549121
 21
302.7728297338358
 31
0.0
 11
582.8135339434124
 21
302.913961296506
 31
0.0
 11
583.2428672951515
 21
303.082737357953
 31
0.0
 11
583.6344349643451
 21
303.268157712904
 31
0.0
 11
584.0117633270635
 21
303.4813927857192
 31
0.0
 11
584.3447904462444
 21
303.7055136413125
 31
0.0
 11
584.6579518034661
 21
303.9570283650592
 31
0.0
 11
584.9232889325709
 21
304.2136156104394
 31
0.0
 11
585.1617822291263
 21
304.4957572557852
 31
0.0
 11
585.3520179532319
 21
304.7783181149681
 31
0.0
 11
585.5074428198092
 21
305.0818418663638
 31
0.0
 11
585.6163976519535
 21
305.3835873872337
 31
0.0
 11
585.6833931936565
 21
305.6976014108468
 31
0.0
 11
585.7058841754586
 21
306.0105562624125
 31
0.0
 11
585.6833931936565
 21
306.3235111139781
 31
0.0
  0
SPLINE
  5
3A4
330
65
100
AcDbEntity
  8
0
  6
Continuous
 62
     7
100
AcDbSpline
210
0.0
220
0.0
230
1.0
 70
     8
 71
     3
 72
    29
 73
    25
 74
    23
 42
0.000000001
 43
0.0000000001
 44
0.00000001
 40
0.0
 40
0.0
 40
0.0
 40
0.0
 40
0.2275667810614423
 40
0.4552975788504722
 40
0.9564049061501358
 40
1.457512232987501
 40
1.95396661128331
 40
2.45044903710376
 40
2.933285170027841
 40
3.416181968878171
 40
3.8773948758962
 40
4.338710912705158
 40
4.771961357114585
 40
5.205373273878432
 40
5.606792281942957
 40
6.008450957869046
 40
6.377559081070521
 40
6.746995084458364
 40
7.087627246674113
 40
7.428630995756142
 40
7.749444827814969
 40
8.070526140501165
 40
8.384288122126133
 40
8.698050100056655
 40
8.698050100056655
 40
8.698050100056655
 40
8.698050100056655
 10
566.8997959669452
 20
302.4892116685647
 30
0.0
 10
566.8242909059558
 20
302.4818821720526
 30
0.0
 10
566.6732263634063
 20
302.4672179070974
 30
0.0
 10
566.3550548407014
 20
302.4465209293584
 30
0.0
 10
565.9450265076232
 20
302.4353143560187
 30
0.0
 10
565.44540360126
 20
302.4487414141505
 30
0.0
 10
564.9487863508056
 20
302.4891047775154
 30
0.0
 10
564.4611188941992
 20
302.5556134724158
 30
0.0
 10
563.9824238369708
 20
302.6486957407791
 30
0.0
 10
563.5212279669803
 20
302.7662233722435
 30
0.0
 10
563.0748696713366
 20
302.9094072916875
 30
0.0
 10
562.6537651461229
 20
303.0743719296476
 30
0.0
 10
562.253210501161
 20
303.2635888988735
 30
0.0
 10
561.8845139367403
 20
303.4711560954439
 30
0.0
 10
561.5418975533672
 20
303.7010278702378
 30
0.0
 10
561.2363500396342
 20
303.945411130363
 30
0.0
 10
560.9621964389776
 20
304.2094425446306
 30
0.0
 10
560.7289568305797
 20
304.484199305241
 30
0.0
 10
560.5320637747875
 20
304.7749018781354
 30
0.0
 10
560.3790146944266
 20
305.0728802642179
 30
0.0
 10
560.266289401783
 20
305.3816065020499
 30
0.0
 10
560.2003884569887
 20
305.6940834175456
 30
0.0
 10
560.1745369616654
 20
306.0108247835643
 30
0.0
 10
560.1959500068548
 20
306.2192823377837
 30
0.0
 10
560.2066565354548
 20
306.3235111139781
 30
0.0
 11
566.8997959669452
 21
302.4892116685647
 31
0.0
 11
566.6731805251949
 21
302.4684251785673
 31
0.0
 11
566.445950678334
 21
302.4533284124383
 31
0.0
 11
565.9450248645544
 21
302.439842048141
 31
0.0
 11
565.4440990507749
 21
302.4533284124383
 31
0.0
 11
564.9492794987925
 21
302.4935846008454
 31
0.0
 11
564.4573827920988
 21
302.5609079186186
 31
0.0
 11
563.9834507646
 21
302.6532072392847
 31
0.0
 11
563.5156048741992
 21
302.7728297338358
 31
0.0
 11
563.076515785699
 21
302.913961296506
 31
0.0
 11
562.6471824339596
 21
303.082737357953
 31
0.0
 11
562.255614764766
 21
303.268157712904
 31
0.0
 11
561.8782864020479
 21
303.4813927857192
 31
0.0
 11
561.5452592828669
 21
303.7055136413125
 31
0.0
 11
561.2320979256452
 21
303.9570283650592
 31
0.0
 11
560.9667607965403
 21
304.2136156104394
 31
0.0
 11
560.7282674999851
 21
304.4957572557852
 31
0.0
 11
560.5380317758794
 21
304.7783181149681
 31
0.0
 11
560.3826069093021
 21
305.0818418663638
 31
0.0
 11
560.2736520771577
 21
305.3835873872337
 31
0.0
 11
560.2066565354548
 21
305.6976014108468
 31
0.0
 11
560.1841655536529
 21
306.0105562624125
 31
0.0
 11
560.2066565354548
 21
306.3235111139781
 31
0.0
  0
SPLINE
  5
3A5
330
65
100
AcDbEntity
  8
0
  6
Continuous
 62
     7
100
AcDbSpline
210
0.0
220
0.0
230
1.0
 70
     8
 71
     3
 72
    37
 73
    33
 74
    31
 42
0.000000001
 43
0.0000000001
 44
0.00000001
 40
0.0
 40
0.0
 40
0.0
 40
0.0
 40
0.3210813059560709
 40
0.6418951350010111
 40
0.9828988857508668
 40
1.323531048884043
 40
1.692967052918228
 40
2.062075176613103
 40
2.463733852986354
 40
2.865152861442224
 40
3.298564778592735
 40
3.731815223363941
 40
4.19313126054476
 40
4.654344167927579
 40
5.137240967161552
 40
5.620077100473893
 40
6.116559526704122
 40
6.613013905409741
 40
7.114121232619487
 40
7.61522855987364
 40
8.111682938716065
 40
8.608165365171285
 40
9.091001498790822
 40
9.573898298405506
 40
10.03511120620627
 40
10.49642724379872
 40
10.92967768885324
 40
11.36308960587038
 40
11.76450861287999
 40
12.16616728858395
 40
12.49906321627374
 40
12.8319284099859
 40
12.8319284099859
 40
12.8319284099859
 40
12.8319284099859
 10
560.2066565354548
 20
306.3235111139781
 30
0.0
 10
560.2259363862216
 20
306.4289721971376
 30
0.0
 10
560.2644800408327
 20
306.6398065054626
 30
0.0
 10
560.3795333290312
 20
306.9481461346259
 30
0.0
 10
560.5319217975725
 20
307.2462342280216
 30
0.0
 10
560.7289984403866
 20
307.536906313878
 30
0.0
 10
560.9621849505129
 20
307.8116718930087
 30
0.0
 10
561.236353416933
 20
308.0757008389321
 30
0.0
 10
561.5418966170803
 20
308.320084815576
 30
0.0
 10
561.8845142080336
 20
308.5499563905217
 30
0.0
 10
562.2532104248999
 20
308.7575236432826
 30
0.0
 10
562.6537651671651
 20
308.9467406034555
 30
0.0
 10
563.0748696644697
 20
309.111705219183
 30
0.0
 10
563.5212279706177
 20
309.2548892413773
 30
0.0
 10
563.982423828674
 20
309.3724164688754
 30
0.0
 10
564.4611189252868
 20
309.465500275932
 30
0.0
 10
564.9487862346235
 20
309.5320030750863
 30
0.0
 10
565.4454040406363
 20
309.5723886380298
 30
0.0
 10
565.9450248570477
 20
309.5857321191614
 30
0.0
 10
566.4446456716394
 20
309.5723886382792
 30
0.0
 10
566.94126348352
 20
309.5320030811083
 30
0.0
 10
567.4289307727985
 20
309.4655002657952
 30
0.0
 10
567.907625944106
 20
309.3724165227843
 30
0.0
 10
568.3688215317425
 20
309.2548890662613
 30
0.0
 10
568.8151808068549
 20
309.1117058668261
 30
0.0
 10
569.2362817984838
 20
308.946738275895
 30
0.0
 10
569.6368488695365
 20
308.7575317801337
 30
0.0
 10
570.005500794831
 20
308.5499269356839
 30
0.0
 10
570.3482721029072
 20
308.3201858294679
 30
0.0
 10
570.6438438473989
 20
308.0828997472217
 30
0.0
 10
570.9031897359953
 20
307.8382953579881
 30
0.0
 10
571.0457410167116
 20
307.6679916921459
 30
0.0
 10
571.1170133610372
 20
307.5828437852061
 30
0.0
 11
560.2066565354548
 21
306.3235111139781
 31
0.0
 11
560.2736520771577
 21
306.6375251375912
 31
0.0
 11
560.382606909302
 21
306.9392706584612
 31
0.0
 11
560.5380317758793
 21
307.2427944098568
 31
0.0
 11
560.7282674999849
 21
307.5253552690397
 31
0.0
 11
560.9667607965403
 21
307.8074969143854
 31
0.0
 11
561.2320979256452
 21
308.0640841597657
 31
0.0
 11
561.545259282867
 21
308.3155988835124
 31
0.0
 11
561.8782864020479
 21
308.5397197391057
 31
0.0
 11
562.2556147647662
 21
308.7529548119209
 31
0.0
 11
562.6471824339596
 21
308.9383751668718
 31
0.0
 11
563.0765157856988
 21
309.1071512283188
 31
0.0
 11
563.5156048741992
 21
309.2482827909889
 31
0.0
 11
563.9834507646001
 21
309.36790528554
 31
0.0
 11
564.4573827920989
 21
309.4602046062062
 31
0.0
 11
564.9492794987925
 21
309.5275279239794
 31
0.0
 11
565.4440990507749
 21
309.5677841123866
 31
0.0
 11
565.9450248645546
 21
309.5812704766838
 31
0.0
 11
566.4459506783342
 21
309.5677841123865
 31
0.0
 11
566.9407702303165
 21
309.5275279239794
 31
0.0
 11
567.43266693701
 21
309.4602046062063
 31
0.0
 11
567.9065989645087
 21
309.3679052855402
 31
0.0
 11
568.3744448549096
 21
309.248282790989
 31
0.0
 11
568.8135339434101
 21
309.1071512283188
 31
0.0
 11
569.2428672951492
 21
308.9383751668718
 31
0.0
 11
569.6344349643426
 21
308.7529548119209
 31
0.0
 11
570.011763327061
 21
308.5397197391057
 31
0.0
 11
570.3447904462419
 21
308.3155988835124
 31
0.0
 11
570.6579518034636
 21
308.0640841597657
 31
0.0
 11
570.8983953887661
 21
307.8338525867767
 31
0.0
 11
571.1170133610372
 21
307.5828437852061
 31
0.0
  0
ARC
  5
3A6
330
65
100
AcDbEntity
  8
1
  6
Continuous
 62
     7
100
AcDbCircle
 10
158.9690675861754
 20
309.8680932269707
 30
0.0
 40
1.0
100
AcDbArc
 50
90.0
 51
105.3375576695503
  0
ARC
  5
3A7
330
65
100
AcDbEntity
  8
1
  6
Continuous
 62
     7
100
AcDbCircle
 10
160.7591394554747
 20
310.8680932269709
 30
0.0
 40
1.0
100
AcDbArc
 50
90.0
 51
137.0585971351136
  0
ARC
  5
3A8
330
65
100
AcDbEntity
  8
1
  6
Continuous
 62
     7
100
AcDbCircle
 10
159.0270886479061
 20
311.8680932269709
 30
0.0
 40
1.0
100
AcDbArc
 50
270.0
 51
329.9999999999817
  0
ARC
  5
3A9
330
65
100
AcDbEntity
  8
1
  6
Continuous
 62
     7
100
AcDbCircle
 10
160.7591394554747
 20
310.8680932269709
 30
0.0
 40
0.9999999999997047
100
AcDbArc
 50
137.0585971351136
 51
150.0000000000099
  0
ARC
  5
3AA
330
65
100
AcDbEntity
  8
1
  6
Continuous
 62
     7
100
AcDbCircle
 10
180.2950378403371
 20
310.8680932269709
 30
0.0
 40
1.000000000000017
100
AcDbArc
 50
42.94140286486979
 51
90.0
  0
ARC
  5
3AB
330
65
100
AcDbEntity
  8
1
  6
Continuous
 62
     7
100
AcDbCircle
 10
180.2950378403371
 20
310.8680932269709
 30
0.0
 40
0.9999999999997714
100
AcDbArc
 50
29.99999999999252
 51
42.94140286486979
  0
ARC
  5
3AC
330
65
100
AcDbEntity
  8
1
  6
Continuous
 62
     7
100
AcDbCircle
 10
182.0270886479061
 20
311.8680932269709
 30
0.0
 40
1.000000000000344
100
AcDbArc
 50
210.0000000000037
 51
270.0
  0
ARC
  5
3AD
330
65
100
AcDbEntity
  8
1
  6
Continuous
 62
     7
100
AcDbCircle
 10
182.0851097096365
 20
309.8680932269707
 30
0.0
 40
1.000000000000109
100
AcDbArc
 50
74.66244233044966
 51
90.0
  0
ARC
  5
3AE
330
65
100
AcDbEntity
  8
1
  6
Continuous
 62
     7
100
AcDbCircle
 10
563.1770756721247
 20
310.8680932269709
 30
0.0
 40
1.000000000000014
100
AcDbArc
 50
137.0585971351256
 51
149.9999999999995
  0
ARC
  5
3AF
330
65
100
AcDbEntity
  8
1
  6
Continuous
 62
     7
100
AcDbCircle
 10
561.4450248645558
 20
311.8680932269709
 30
0.0
 40
1.0
100
AcDbArc
 50
270.0
 51
330.0000000000027
  0
ARC
  5
3B0
330
65
100
AcDbEntity
  8
1
  6
Continuous
 62
     7
100
AcDbCircle
 10
563.1770756721247
 20
310.8680932269709
 30
0.0
 40
1.0
100
AcDbArc
 50
90.0
 51
137.0585971351256
  0
ARC
  5
3B1
330
65
100
AcDbEntity
  8
1
  6
Continuous
 62
     7
100
AcDbCircle
 10
561.3870038028252
 20
309.8680932269709
 30
0.0
 40
1.0
100
AcDbArc
 50
90.0
 51
105.3375576695529
  0
ARC
  5
3B2
330
65
100
AcDbEntity
  8
1
  6
Continuous
 62
     7
100
AcDbCircle
 10
582.7129740569869
 20
310.8680932269709
 30
0.0
 40
0.9999999999999836
100
AcDbArc
 50
30.00000000000054
 51
42.94140286487882
  0
ARC
  5
3B3
330
65
100
AcDbEntity
  8
1
  6
Continuous
 62
     7
100
AcDbCircle
 10
584.4450248645558
 20
311.8680932269709
 30
0.0
 40
0.9999999999999836
100
AcDbArc
 50
210.0000000000005
 51
270.0
  0
ARC
  5
3B4
330
65
100
AcDbEntity
  8
1
  6
Continuous
 62
     7
100
AcDbCircle
 10
582.7129740569869
 20
310.8680932269709
 30
0.0
 40
0.9999999999999306
100
AcDbArc
 50
42.94140286487882
 51
90.0
  0
ARC
  5
3B5
330
65
100
AcDbEntity
  8
1
  6
Continuous
 62
     7
100
AcDbCircle
 10
584.5030459262864
 20
309.8680932269709
 30
0.0
 40
0.999999999999944
100
AcDbArc
 50
74.66244233044709
 51
90.0
  0
ENDBLK
  5
67
330
65
100
AcDbEntity
  8
0
100
AcDbBlockEnd
  0
BLOCK
  5
69
330
68
100
AcDbEntity
  8
0
100
AcDbBlockBegin
  2
42-1
 70
     0
 10
1471.77873965382
 20
309.8164475696454
 30
0.0
  3
42-1
  1

  0
LINE
  5
3B6
330
68
100
AcDbEntity
  8
1
  6
Continuous
 62
     7
100
AcDbLine
 10
224.0270886479061
 20
764.8680932269706
 30
0.0
 11
227.0270886479061
 21
764.8680932269706
 31
0.0
  0
LINE
  5
3B7
330
68
100
AcDbEntity
  8
1
  6
Continuous
 62
     2
100
AcDbLine
 10
227.0270886479061
 20
763.8680932269706
 30
0.0
 11
224.0270886479061
 21
763.8680932269706
 31
0.0
  0
LINE
  5
3B8
330
68
100
AcDbEntity
  8
1
  6
Continuous
 62
     2
100
AcDbLine
 10
227.0270886479061
 20
762.8680932269706
 30
0.0
 11
224.0270886479061
 21
762.8680932269706
 31
0.0
  0
LINE
  5
3B9
330
68
100
AcDbEntity
  8
1
  6
Continuous
 62
     2
100
AcDbLine
 10
226.8371622394536
 20
761.8680932269706
 30
0.0
 11
224.1931369603576
 21
761.8680932269706
 31
0.0
  0
LINE
  5
3BA
330
68
100
AcDbEntity
  8
1
  6
Continuous
 62
     2
100
AcDbLine
 10
226.7236151415784
 20
760.8680932269706
 30
0.0
 11
224.3877891281438
 21
760.8680932269706
 31
0.0
  0
LINE
  5
3BB
330
68
100
AcDbEntity
  8
1
  6
Continuous
 62
     7
100
AcDbLine
 10
224.0270886479061
 20
760.1680932269705
 30
0.0
 11
224.0270886479061
 21
764.8680932269706
 31
0.0
  0
LINE
  5
3BC
330
68
100
AcDbEntity
  8
1
  6
Continuous
 62
     7
100
AcDbLine
 10
224.0270886479061
 20
760.1680932269705
 30
0.0
 11
224.0270886479061
 21
755.5680932269706
 31
0.0
  0
LINE
  5
3BD
330
68
100
AcDbEntity
  8
1
  6
Continuous
 62
     7
100
AcDbLine
 10
224.0270886479061
 20
750.8680932269706
 30
0.0
 11
224.0270886479061
 21
755.5680932269706
 31
0.0
  0
LINE
  5
3BE
330
68
100
AcDbEntity
  8
1
  6
Continuous
 62
     2
100
AcDbLine
 10
224.0270886479061
 20
752.8680932269706
 30
0.0
 11
227.0270886479061
 21
752.8680932269706
 31
0.0
  0
LINE
  5
3BF
330
68
100
AcDbEntity
  8
1
  6
Continuous
 62
     2
100
AcDbLine
 10
224.1931369603576
 20
753.8680932269706
 30
0.0
 11
226.8371622394536
 21
753.8680932269706
 31
0.0
  0
LINE
  5
3C0
330
68
100
AcDbEntity
  8
1
  6
Continuous
 62
     2
100
AcDbLine
 10
224.3877891281438
 20
754.8680932269706
 30
0.0
 11
226.7236151415784
 21
754.8680932269706
 31
0.0
  0
LINE
  5
3C1
330
68
100
AcDbEntity
  8
1
  6
Continuous
 62
     2
100
AcDbLine
 10
224.7446514357519
 20
755.8680932269706
 30
0.0
 11
226.5127419598101
 21
755.8680932269706
 31
0.0
  0
LINE
  5
3C2
330
68
100
AcDbEntity
  8
1
  6
Continuous
 62
     2
100
AcDbLine
 10
225.0041876594667
 20
756.8680932269706
 30
0.0
 11
226.2694267500772
 21
756.8680932269706
 31
0.0
  0
LINE
  5
3C3
330
68
100
AcDbEntity
  8
1
  6
Continuous
 62
     7
100
AcDbLine
 10
227.0270886479061
 20
762.8680932269706
 30
0.0
 11
227.0270886479061
 21
752.8680932269706
 31
0.0
  0
LINE
  5
3C4
330
68
100
AcDbEntity
  8
1
  6
Continuous
 62
     7
100
AcDbLine
 10
227.0270886479061
 20
763.3680932269706
 30
0.0
 11
227.0270886479061
 21
762.8680932269706
 31
0.0
  0
LINE
  5
3C5
330
68
100
AcDbEntity
  8
1
  6
Continuous
 62
     7
100
AcDbLine
 10
227.0270886479061
 20
764.3680932269706
 30
0.0
 11
227.0270886479061
 21
763.8680932269706
 31
0.0
  0
LINE
  5
3C6
330
68
100
AcDbEntity
  8
1
  6
Continuous
 62
     7
100
AcDbLine
 10
227.0270886479061
 20
764.8680932269706
 30
0.0
 11
227.2964108469291
 21
763.8680932269706
 31
0.0
  0
LINE
  5
3C7
330
68
100
AcDbEntity
  8
1
  6
Continuous
 62
     7
100
AcDbLine
 10
227.0270886479061
 20
764.8680932269706
 30
0.0
 11
227.0270886479061
 21
764.3680932269706
 31
0.0
  0
LINE
  5
3C8
330
68
100
AcDbEntity
  8
1
  6
Continuous
 62
     7
100
AcDbLine
 10
227.0270886479061
 20
763.8680932269706
 30
0.0
 11
227.0270886479061
 21
763.3680932269706
 31
0.0
  0
LINE
  5
3C9
330
68
100
AcDbEntity
  8
1
  6
Continuous
 62
     2
100
AcDbLine
 10
226.5127419598101
 20
759.8680932269706
 30
0.0
 11
224.7446514357519
 21
759.8680932269706
 31
0.0
  0
LINE
  5
3CA
330
68
100
AcDbEntity
  8
1
  6
Continuous
 62
     2
100
AcDbLine
 10
226.2694267500772
 20
758.8680932269706
 30
0.0
 11
225.0041876594667
 21
758.8680932269706
 31
0.0
  0
LINE
  5
3CB
330
68
100
AcDbEntity
  8
1
  6
Continuous
 62
     7
100
AcDbLine
 10
227.3568543681099
 20
763.6180932269706
 30
0.0
 11
227.3568543681099
 21
757.8680932269706
 31
0.0
  0
LINE
  5
3CC
330
68
100
AcDbEntity
  8
1
  6
Continuous
 62
     7
100
AcDbLine
 10
227.0270886479061
 20
752.8680932269706
 30
0.0
 11
227.0270886479061
 21
752.3680932269706
 31
0.0
  0
LINE
  5
3CD
330
68
100
AcDbEntity
  8
1
  6
Continuous
 62
     7
100
AcDbLine
 10
227.0270886479061
 20
751.8680932269706
 30
0.0
 11
227.0270886479061
 21
751.3680932269706
 31
0.0
  0
LINE
  5
3CE
330
68
100
AcDbEntity
  8
1
  6
Continuous
 62
     7
100
AcDbLine
 10
227.0270886479061
 20
750.8680932269706
 30
0.0
 11
224.0270886479061
 21
750.8680932269706
 31
0.0
  0
LINE
  5
3CF
330
68
100
AcDbEntity
  8
1
  6
Continuous
 62
     7
100
AcDbLine
 10
227.2964108469291
 20
751.8680932269706
 30
0.0
 11
227.0270886479061
 21
750.8680932269706
 31
0.0
  0
LINE
  5
3D0
330
68
100
AcDbEntity
  8
1
  6
Continuous
 62
     7
100
AcDbLine
 10
227.0270886479061
 20
751.3680932269706
 30
0.0
 11
227.0270886479061
 21
750.8680932269706
 31
0.0
  0
LINE
  5
3D1
330
68
100
AcDbEntity
  8
1
  6
Continuous
 62
     2
100
AcDbLine
 10
224.0270886479061
 20
751.8680932269706
 30
0.0
 11
227.0270886479061
 21
751.8680932269706
 31
0.0
  0
LINE
  5
3D2
330
68
100
AcDbEntity
  8
1
  6
Continuous
 62
     7
100
AcDbLine
 10
227.0270886479061
 20
752.3680932269706
 30
0.0
 11
227.0270886479061
 21
751.8680932269706
 31
0.0
  0
LINE
  5
3D3
330
68
100
AcDbEntity
  8
1
  6
Continuous
 62
     7
100
AcDbLine
 10
227.3568543681099
 20
757.8680932269706
 30
0.0
 11
227.3568543681099
 21
752.1180932269706
 31
0.0
  0
LINE
  5
3D4
330
68
100
AcDbEntity
  8
1
  6
Continuous
 62
     7
100
AcDbLine
 10
224.0270886479061
 20
283.8680932269706
 30
0.0
 11
227.0270886479061
 21
283.8680932269706
 31
0.0
  0
LINE
  5
3D5
330
68
100
AcDbEntity
  8
1
  6
Continuous
 62
     2
100
AcDbLine
 10
227.0270886479061
 20
283.3680932269706
 30
0.0
 11
224.0270886479061
 21
283.3680932269706
 31
0.0
  0
LINE
  5
3D6
330
68
100
AcDbEntity
  8
1
  6
Continuous
 62
     2
100
AcDbLine
 10
227.0270886479061
 20
282.3680932269706
 30
0.0
 11
224.0270886479061
 21
282.3680932269706
 31
0.0
  0
LINE
  5
3D7
330
68
100
AcDbEntity
  8
1
  6
Continuous
 62
     2
100
AcDbLine
 10
226.8826764128838
 20
281.3680932269706
 30
0.0
 11
224.1326759740933
 21
281.3680932269706
 31
0.0
  0
LINE
  5
3D8
330
68
100
AcDbEntity
  8
1
  6
Continuous
 62
     2
100
AcDbLine
 10
226.7513069651707
 20
280.3680932269706
 30
0.0
 11
224.2815613481683
 21
280.3680932269706
 31
0.0
  0
LINE
  5
3D9
330
68
100
AcDbEntity
  8
1
  6
Continuous
 62
     7
100
AcDbLine
 10
224.0270886479061
 20
279.1680932269707
 30
0.0
 11
224.0270886479061
 21
283.8680932269706
 31
0.0
  0
LINE
  5
3DA
330
68
100
AcDbEntity
  8
1
  6
Continuous
 62
     7
100
AcDbLine
 10
224.0270886479061
 20
279.1680932269707
 30
0.0
 11
224.0270886479061
 21
274.5680932269706
 31
0.0
  0
LINE
  5
3DB
330
68
100
AcDbEntity
  8
1
  6
Continuous
 62
     7
100
AcDbLine
 10
224.0270886479061
 20
269.8680932269706
 30
0.0
 11
224.0270886479061
 21
274.5680932269706
 31
0.0
  0
LINE
  5
3DC
330
68
100
AcDbEntity
  8
1
  6
Continuous
 62
     2
100
AcDbLine
 10
224.0270886479061
 20
271.8680932269706
 30
0.0
 11
227.0270886479061
 21
271.8680932269706
 31
0.0
  0
LINE
  5
3DD
330
68
100
AcDbEntity
  8
1
  6
Continuous
 62
     2
100
AcDbLine
 10
224.1931369603576
 20
272.8680932269706
 30
0.0
 11
226.8371622394537
 21
272.8680932269706
 31
0.0
  0
LINE
  5
3DE
330
68
100
AcDbEntity
  8
1
  6
Continuous
 62
     2
100
AcDbLine
 10
224.3877891281439
 20
273.8680932269706
 30
0.0
 11
226.7236151415785
 21
273.8680932269706
 31
0.0
  0
LINE
  5
3DF
330
68
100
AcDbEntity
  8
1
  6
Continuous
 62
     2
100
AcDbLine
 10
224.7446514357517
 20
274.8680932269706
 30
0.0
 11
226.5127419598099
 21
274.8680932269706
 31
0.0
  0
LINE
  5
3E0
330
68
100
AcDbEntity
  8
1
  6
Continuous
 62
     2
100
AcDbLine
 10
225.0041876594668
 20
275.8680932269706
 30
0.0
 11
226.2694267500773
 21
275.8680932269706
 31
0.0
  0
LINE
  5
3E1
330
68
100
AcDbEntity
  8
1
  6
Continuous
 62
     7
100
AcDbLine
 10
227.0270886479061
 20
281.8680932269706
 30
0.0
 11
227.0270886479061
 21
271.8680932269706
 31
0.0
  0
LINE
  5
3E2
330
68
100
AcDbEntity
  8
1
  6
Continuous
 62
     2
100
AcDbLine
 10
226.3134088061278
 20
278.3680932269706
 30
0.0
 11
224.9646824762752
 21
278.3680932269706
 31
0.0
  0
LINE
  5
3E3
330
68
100
AcDbEntity
  8
1
  6
Continuous
 62
     2
100
AcDbLine
 10
226.5586317751918
 20
279.3680932269706
 30
0.0
 11
224.6406378385835
 21
279.3680932269706
 31
0.0
  0
LINE
  5
3E4
330
68
100
AcDbEntity
  8
1
  6
Continuous
 62
     7
100
AcDbLine
 10
227.0270886479061
 20
282.3680932269706
 30
0.0
 11
227.0270886479061
 21
281.8680932269706
 31
0.0
  0
LINE
  5
3E5
330
68
100
AcDbEntity
  8
1
  6
Continuous
 62
     7
100
AcDbLine
 10
227.0270886479061
 20
283.3680932269706
 30
0.0
 11
227.0270886479061
 21
282.8680932269706
 31
0.0
  0
LINE
  5
3E6
330
68
100
AcDbEntity
  8
1
  6
Continuous
 62
     7
100
AcDbLine
 10
227.0270886479061
 20
283.8680932269706
 30
0.0
 11
227.2964108469292
 21
282.8680932269707
 31
0.0
  0
LINE
  5
3E7
330
68
100
AcDbEntity
  8
1
  6
Continuous
 62
     7
100
AcDbLine
 10
227.0270886479061
 20
283.8680932269706
 30
0.0
 11
227.0270886479061
 21
283.3680932269706
 31
0.0
  0
LINE
  5
3E8
330
68
100
AcDbEntity
  8
1
  6
Continuous
 62
     7
100
AcDbLine
 10
227.0270886479061
 20
282.8680932269706
 30
0.0
 11
227.0270886479061
 21
282.3680932269706
 31
0.0
  0
LINE
  5
3E9
330
68
100
AcDbEntity
  8
1
  6
Continuous
 62
     7
100
AcDbLine
 10
227.3568543681096
 20
282.6180932269706
 30
0.0
 11
227.3568543681096
 21
276.8680932269706
 31
0.0
  0
LINE
  5
3EA
330
68
100
AcDbEntity
  8
1
  6
Continuous
 62
     7
100
AcDbLine
 10
227.0270886479061
 20
271.8680932269706
 30
0.0
 11
227.0270886479061
 21
271.3680932269706
 31
0.0
  0
LINE
  5
3EB
330
68
100
AcDbEntity
  8
1
  6
Continuous
 62
     7
100
AcDbLine
 10
227.0270886479061
 20
270.8680932269706
 30
0.0
 11
227.0270886479061
 21
270.3680932269706
 31
0.0
  0
LINE
  5
3EC
330
68
100
AcDbEntity
  8
1
  6
Continuous
 62
     7
100
AcDbLine
 10
227.0270886479061
 20
269.8680932269706
 30
0.0
 11
224.0270886479061
 21
269.8680932269706
 31
0.0
  0
LINE
  5
3ED
330
68
100
AcDbEntity
  8
1
  6
Continuous
 62
     7
100
AcDbLine
 10
227.2964108469292
 20
270.8680932269706
 30
0.0
 11
227.0270886479061
 21
269.8680932269706
 31
0.0
  0
LINE
  5
3EE
330
68
100
AcDbEntity
  8
1
  6
Continuous
 62
     7
100
AcDbLine
 10
227.0270886479061
 20
270.3680932269706
 30
0.0
 11
227.0270886479061
 21
269.8680932269706
 31
0.0
  0
LINE
  5
3EF
330
68
100
AcDbEntity
  8
1
  6
Continuous
 62
     2
100
AcDbLine
 10
224.0270886479061
 20
270.8680932269706
 30
0.0
 11
227.0270886479061
 21
270.8680932269706
 31
0.0
  0
LINE
  5
3F0
330
68
100
AcDbEntity
  8
1
  6
Continuous
 62
     7
100
AcDbLine
 10
227.0270886479061
 20
271.3680932269706
 30
0.0
 11
227.0270886479061
 21
270.8680932269706
 31
0.0
  0
LINE
  5
3F1
330
68
100
AcDbEntity
  8
1
  6
Continuous
 62
     7
100
AcDbLine
 10
227.3568543681096
 20
276.8680932269706
 30
0.0
 11
227.3568543681096
 21
271.1180932269706
 31
0.0
  0
ARC
  5
3F2
330
68
100
AcDbEntity
  8
1
  6
Continuous
 62
     7
100
AcDbCircle
 10
203.0270886479061
 20
757.8680932269706
 30
0.0
 40
25.00000000000007
100
AcDbArc
 50
13.29707174720902
 51
13.88654036262911
  0
ARC
  5
3F3
330
68
100
AcDbEntity
  8
1
  6
Continuous
 62
     7
100
AcDbCircle
 10
203.0270886479061
 20
757.8680932269706
 30
0.0
 40
24.99999999999979
100
AcDbArc
 50
346.1134596373709
 51
346.702928252791
  0
ARC
  5
3F4
330
68
100
AcDbEntity
  8
1
  6
Continuous
 62
     7
100
AcDbCircle
 10
203.0270886479061
 20
757.8680932269706
 30
0.0
 40
25.0
100
AcDbArc
 50
0.0
 51
13.29707174720902
  0
ARC
  5
3F5
330
68
100
AcDbEntity
  8
1
  6
Continuous
 62
     7
100
AcDbCircle
 10
203.0270886479061
 20
757.8680932269706
 30
0.0
 40
25.00000000000007
100
AcDbArc
 50
346.702928252791
 51
0.0
  0
ARC
  5
3F6
330
68
100
AcDbEntity
  8
1
  6
Continuous
 62
     7
100
AcDbCircle
 10
203.0270886479061
 20
276.8680932269706
 30
0.0
 40
24.99999999999977
100
AcDbArc
 50
13.29707174720918
 51
13.8865403626293
  0
ARC
  5
3F7
330
68
100
AcDbEntity
  8
1
  6
Continuous
 62
     7
100
AcDbCircle
 10
203.0270886479061
 20
276.8680932269706
 30
0.0
 40
24.9999999999999
100
AcDbArc
 50
346.113459637371
 51
346.7029282527909
  0
ARC
  5
3F8
330
68
100
AcDbEntity
  8
1
  6
Continuous
 62
     7
100
AcDbCircle
 10
203.0270886479061
 20
276.8680932269706
 30
0.0
 40
25.0
100
AcDbArc
 50
0.0
 51
13.29707174720918
  0
ARC
  5
3F9
330
68
100
AcDbEntity
  8
1
  6
Continuous
 62
     7
100
AcDbCircle
 10
203.0270886479061
 20
276.8680932269706
 30
0.0
 40
24.99999999999977
100
AcDbArc
 50
346.7029282527909
 51
0.0
  0
CIRCLE
  5
3FA
330
68
100
AcDbEntity
  8
1
  6
Continuous
 62
     7
100
AcDbCircle
 10
572.9450248645558
 20
276.8680932269704
 30
0.0
 40
7.0
  0
CIRCLE
  5
3FB
330
68
100
AcDbEntity
  8
1
  6
Continuous
 62
     7
100
AcDbCircle
 10
572.9450248645558
 20
276.8680932269704
 30
0.0
 40
5.75
  0
ENDBLK
  5
6A
330
68
100
AcDbEntity
  8
0
100
AcDbBlockEnd
  0
BLOCK
  5
6C
330
6B
100
AcDbEntity
  8
0
100
AcDbBlockBegin
  2
開示A4
 70
     0
 10
0.0
 20
0.0
 30
0.0
  3
開示A4
  1

  0
POINT
  5
3FC
330
6B
100
AcDbEntity
  8
1
 62
     4
100
AcDbPoint
 10
34.0
 20
34.00000000000001
 30
0.0
  0
POINT
  5
3FD
330
6B
100
AcDbEntity
  8
1
 62
     4
100
AcDbPoint
 10
57.0
 20
12.25
 30
0.0
  0
POINT
  5
3FE
330
6B
100
AcDbEntity
  8
1
 62
     4
100
AcDbPoint
 10
57.0
 20
20.75000000000001
 30
0.0
  0
POINT
  5
3FF
330
6B
100
AcDbEntity
  8
1
 62
     4
100
AcDbPoint
 10
57.0
 20
24.75000000000001
 30
0.0
  0
POINT
  5
400
330
6B
100
AcDbEntity
  8
1
 62
     4
100
AcDbPoint
 10
57.0
 20
16.25
 30
0.0
  0
POINT
  5
401
330
6B
100
AcDbEntity
  8
1
 62
     4
100
AcDbPoint
 10
157.5
 20
19.00000000000001
 30
0.0
  0
POINT
  5
402
330
6B
100
AcDbEntity
  8
1
 62
     4
100
AcDbPoint
 10
47.5
 20
282.0000000000003
 30
0.0
  0
POINT
  5
403
330
6B
100
AcDbEntity
  8
1
 62
     4
100
AcDbPoint
 10
57.0
 20
22.75000000000001
 30
0.0
  0
POINT
  5
404
330
6B
100
AcDbEntity
  8
1
 62
     4
100
AcDbPoint
 10
57.0
 20
14.25
 30
0.0
  0
POINT
  5
405
330
6B
100
AcDbEntity
  8
1
 62
     4
100
AcDbPoint
 10
157.5
 20
12.5
 30
0.0
  0
POINT
  5
406
330
6B
100
AcDbEntity
  8
1
 62
     4
100
AcDbPoint
 10
163.25
 20
12.5
 30
0.0
  0
POINT
  5
407
330
6B
100
AcDbEntity
  8
1
 62
     4
100
AcDbPoint
 10
151.75
 20
12.5
 30
0.0
  0
POINT
  5
408
330
6B
100
AcDbEntity
  8
1
 62
     4
100
AcDbPoint
 10
134.75
 20
12.5
 30
0.0
  0
POINT
  5
409
330
6B
100
AcDbEntity
  8
1
 62
     4
100
AcDbPoint
 10
146.25
 20
12.5
 30
0.0
  0
POINT
  5
40A
330
6B
100
AcDbEntity
  8
1
 62
     4
100
AcDbPoint
 10
140.5
 20
12.5
 30
0.0
  0
POINT
  5
40B
330
6B
100
AcDbEntity
  8
1
 62
     4
100
AcDbPoint
 10
140.5
 20
19.00000000000001
 30
0.0
  0
POINT
  5
40C
330
6B
100
AcDbEntity
  8
1
 62
     4
100
AcDbPoint
 10
117.75
 20
12.5
 30
0.0
  0
POINT
  5
40D
330
6B
100
AcDbEntity
  8
1
 62
     4
100
AcDbPoint
 10
129.25
 20
12.5
 30
0.0
  0
POINT
  5
40E
330
6B
100
AcDbEntity
  8
1
 62
     4
100
AcDbPoint
 10
123.5
 20
12.5
 30
0.0
  0
POINT
  5
40F
330
6B
100
AcDbEntity
  8
1
 62
     4
100
AcDbPoint
 10
123.5
 20
19.00000000000001
 30
0.0
  0
POINT
  5
410
330
6B
100
AcDbEntity
  8
1
 62
     4
100
AcDbPoint
 10
100.75
 20
12.5
 30
0.0
  0
POINT
  5
411
330
6B
100
AcDbEntity
  8
1
 62
     4
100
AcDbPoint
 10
112.25
 20
12.5
 30
0.0
  0
POINT
  5
412
330
6B
100
AcDbEntity
  8
1
 62
     4
100
AcDbPoint
 10
106.5
 20
12.5
 30
0.0
  0
POINT
  5
413
330
6B
100
AcDbEntity
  8
1
 62
     4
100
AcDbPoint
 10
106.5
 20
19.00000000000001
 30
0.0
  0
POINT
  5
414
330
6B
100
AcDbEntity
  8
1
 62
     4
100
AcDbPoint
 10
85.25
 20
17.0
 30
0.0
  0
POINT
  5
415
330
6B
100
AcDbEntity
  8
1
 62
     4
100
AcDbPoint
 10
93.75
 20
17.0
 30
0.0
  0
LINE
  5
416
330
6B
100
AcDbEntity
  8
1
  6
Continuous
 62
     2
100
AcDbLine
 10
81.0
 20
27.00000000000001
 30
0.0
 11
81.0
 21
10.0
 31
0.0
  0
LINE
  5
417
330
6B
100
AcDbEntity
  8
1
  6
DOT_CENTER
 62
     2
100
AcDbLine
 10
187.0
 20
26.50000000000001
 30
0.0
 11
187.0
 21
20.50000000000001
 31
0.0
  0
LINE
  5
418
330
6B
100
AcDbEntity
  8
1
  6
DOT_CENTER
 62
     2
100
AcDbLine
 10
184.0
 20
23.50000000000001
 30
0.0
 11
197.0
 21
23.50000000000001
 31
0.0
  0
LINE
  5
419
330
6B
100
AcDbEntity
  8
1
  6
Continuous
 62
     7
100
AcDbLine
 10
196.0
 20
21.50000000000001
 30
0.0
 11
191.0
 21
22.30000000000001
 31
0.0
  0
LINE
  5
41A
330
6B
100
AcDbEntity
  8
1
  6
Continuous
 62
     7
100
AcDbLine
 10
196.0
 20
25.50000000000001
 30
0.0
 11
196.0
 21
21.50000000000001
 31
0.0
  0
LINE
  5
41B
330
6B
100
AcDbEntity
  8
1
  6
Continuous
 62
     7
100
AcDbLine
 10
191.0
 20
24.70000000000001
 30
0.0
 11
196.0
 21
25.50000000000001
 31
0.0
  0
LINE
  5
41C
330
6B
100
AcDbEntity
  8
1
  6
Continuous
 62
     7
100
AcDbLine
 10
191.0
 20
24.70000000000001
 30
0.0
 11
191.0
 21
22.30000000000001
 31
0.0
  0
LINE
  5
41D
330
6B
100
AcDbEntity
  8
1
  6
Continuous
 62
     2
100
AcDbLine
 10
33.0
 20
27.0
 30
0.0
 11
33.0
 21
10.0
 31
0.0
  0
LINE
  5
41E
330
6B
100
AcDbEntity
  8
1
  6
Continuous
 62
     2
100
AcDbLine
 10
25.0
 20
18.50000000000001
 30
0.0
 11
81.0
 21
18.50000000000001
 31
0.0
  0
LINE
  5
41F
330
6B
100
AcDbEntity
  8
1
  6
Continuous
 62
     7
100
AcDbLine
 10
200.0
 20
287.0000000000003
 30
0.0
 11
105.0
 21
287.0000000000003
 31
0.0
  0
LINE
  5
420
330
6B
100
AcDbEntity
  8
1
  6
Continuous
 62
     7
100
AcDbLine
 10
200.0
 20
10.0
 30
0.0
 11
200.0
 21
148.5
 31
0.0
  0
LINE
  5
421
330
6B
100
AcDbEntity
  8
1
  6
Continuous
 62
     7
100
AcDbLine
 10
25.0
 20
10.0
 30
0.0
 11
105.0
 21
10.0
 31
0.0
  0
LINE
  5
422
330
6B
100
AcDbEntity
  8
1
  6
PHANTOM
 62
     4
100
AcDbLine
 10
0.0
 20
297.0
 30
0.0
 11
0.0
 21
0.0
 31
0.0
  0
LINE
  5
423
330
6B
100
AcDbEntity
  8
1
  6
PHANTOM
 62
     4
100
AcDbLine
 10
210.0
 20
297.0
 30
0.0
 11
0.0
 21
297.0
 31
0.0
  0
LINE
  5
424
330
6B
100
AcDbEntity
  8
1
  6
PHANTOM
 62
     4
100
AcDbLine
 10
210.0
 20
0.0
 30
0.0
 11
210.0
 21
297.0
 31
0.0
  0
LINE
  5
425
330
6B
100
AcDbEntity
  8
1
  6
PHANTOM
 62
     4
100
AcDbLine
 10
0.0
 20
0.0
 30
0.0
 11
210.0
 21
0.0
 31
0.0
  0
LINE
  5
426
330
6B
100
AcDbEntity
  8
1
  6
Continuous
 62
     7
100
AcDbLine
 10
25.0
 20
41.0
 30
0.0
 11
200.0
 21
41.0
 31
0.0
  0
LINE
  5
427
330
6B
100
AcDbEntity
  8
1
  6
Continuous
 62
     7
100
AcDbLine
 10
200.0
 20
27.00000000000001
 30
0.0
 11
25.0
 21
27.00000000000001
 31
0.0
  0
LINE
  5
428
330
6B
100
AcDbEntity
  8
1
  6
Continuous
 62
     2
100
AcDbLine
 10
33.0
 20
41.00000000000001
 30
0.0
 11
33.0
 21
27.0
 31
0.0
  0
LINE
  5
429
330
6B
100
AcDbEntity
  8
1
  6
Continuous
 62
     2
100
AcDbLine
 10
55.0
 20
287.0000000000003
 30
0.0
 11
55.0
 21
277.0000000000003
 31
0.0
  0
LINE
  5
42A
330
6B
100
AcDbEntity
  8
1
  6
Continuous
 62
     2
100
AcDbLine
 10
40.0
 20
287.0000000000003
 30
0.0
 11
40.0
 21
277.0000000000003
 31
0.0
  0
LINE
  5
42B
330
6B
100
AcDbEntity
  8
1
  6
Continuous
 62
     7
100
AcDbLine
 10
25.0
 20
10.0
 30
0.0
 11
25.0
 21
148.5
 31
0.0
  0
LINE
  5
42C
330
6B
100
AcDbEntity
  8
1
  6
Continuous
 62
     2
100
AcDbLine
 10
55.0
 20
277.0000000000003
 30
0.0
 11
25.0
 21
277.0000000000003
 31
0.0
  0
LINE
  5
42D
330
6B
100
AcDbEntity
  8
1
  6
Continuous
 62
     2
100
AcDbLine
 10
166.0
 20
27.00000000000001
 30
0.0
 11
166.0
 21
10.0
 31
0.0
  0
LINE
  5
42E
330
6B
100
AcDbEntity
  8
1
  6
Continuous
 62
     2
100
AcDbLine
 10
132.0
 20
27.00000000000001
 30
0.0
 11
132.0
 21
9.99999999999999
 31
0.0
  0
LINE
  5
42F
330
6B
100
AcDbEntity
  8
1
  6
Continuous
 62
     2
100
AcDbLine
 10
149.0
 20
27.00000000000001
 30
0.0
 11
149.0
 21
10.0
 31
0.0
  0
LINE
  5
430
330
6B
100
AcDbEntity
  8
1
  6
Continuous
 62
     2
100
AcDbLine
 10
115.0
 20
27.00000000000001
 30
0.0
 11
115.0
 21
9.99999999999999
 31
0.0
  0
LINE
  5
431
330
6B
100
AcDbEntity
  8
1
  6
Continuous
 62
     2
100
AcDbLine
 10
98.0
 20
27.00000000000001
 30
0.0
 11
98.0
 21
9.99999999999999
 31
0.0
  0
LINE
  5
432
330
6B
100
AcDbEntity
  8
1
  6
Continuous
 62
     2
100
AcDbLine
 10
166.0
 20
20.00000000000001
 30
0.0
 11
200.0
 21
20.00000000000001
 31
0.0
  0
LINE
  5
433
330
6B
100
AcDbEntity
  8
1
  6
Continuous
 62
     2
100
AcDbLine
 10
105.0
 20
287.0000000000003
 30
0.0
 11
105.0
 21
292.0000000000003
 31
0.0
  0
LINE
  5
434
330
6B
100
AcDbEntity
  8
1
  6
Continuous
 62
     7
100
AcDbLine
 10
105.0
 20
287.0000000000003
 30
0.0
 11
25.0
 21
287.0000000000003
 31
0.0
  0
LINE
  5
435
330
6B
100
AcDbEntity
  8
1
  6
Continuous
 62
     2
100
AcDbLine
 10
25.0
 20
148.5
 30
0.0
 11
20.0
 21
148.5
 31
0.0
  0
LINE
  5
436
330
6B
100
AcDbEntity
  8
1
  6
Continuous
 62
     7
100
AcDbLine
 10
25.0
 20
148.5
 30
0.0
 11
25.0
 21
287.0000000000003
 31
0.0
  0
LINE
  5
437
330
6B
100
AcDbEntity
  8
1
  6
Continuous
 62
     2
100
AcDbLine
 10
200.0
 20
148.5
 30
0.0
 11
205.0
 21
148.5
 31
0.0
  0
LINE
  5
438
330
6B
100
AcDbEntity
  8
1
  6
Continuous
 62
     7
100
AcDbLine
 10
200.0
 20
148.5
 30
0.0
 11
200.0
 21
287.0000000000003
 31
0.0
  0
LINE
  5
439
330
6B
100
AcDbEntity
  8
1
  6
Continuous
 62
     2
100
AcDbLine
 10
105.0
 20
10.0
 30
0.0
 11
105.0
 21
5.0
 31
0.0
  0
LINE
  5
43A
330
6B
100
AcDbEntity
  8
1
  6
Continuous
 62
     7
100
AcDbLine
 10
105.0
 20
10.0
 30
0.0
 11
200.0
 21
10.0
 31
0.0
  0
CIRCLE
  5
43B
330
6B
100
AcDbEntity
  8
1
  6
DOT_CENTER
 62
     7
100
AcDbCircle
 10
89.5
 20
18.0
 30
0.0
 40
0.1000000000000227
  0
CIRCLE
  5
43C
330
6B
100
AcDbEntity
  8
1
  6
DOT_CENTER
 62
     7
100
AcDbCircle
 10
89.5
 20
16.0
 30
0.0
 40
0.1000000000000227
  0
CIRCLE
  5
43D
330
6B
100
AcDbEntity
  8
1
  6
Continuous
 62
     7
100
AcDbCircle
 10
187.0
 20
23.50000000000001
 30
0.0
 40
2.0
  0
CIRCLE
  5
43E
330
6B
100
AcDbEntity
  8
1
  6
Continuous
 62
     7
100
AcDbCircle
 10
187.0
 20
23.50000000000001
 30
0.0
 40
1.200000000000102
  0
CIRCLE
  5
43F
330
6B
100
AcDbEntity
  8
1
  6
Continuous
 62
     7
100
AcDbCircle
 10
154.5
 20
12.5
 30
0.0
 40
0.3000000000000114
  0
CIRCLE
  5
440
330
6B
100
AcDbEntity
  8
1
  6
Continuous
 62
     7
100
AcDbCircle
 10
160.5
 20
12.5
 30
0.0
 40
0.3000000000000114
  0
CIRCLE
  5
441
330
6B
100
AcDbEntity
  8
1
  6
Continuous
 62
     7
100
AcDbCircle
 10
143.5
 20
12.5
 30
0.0
 40
0.3000000000000114
  0
CIRCLE
  5
442
330
6B
100
AcDbEntity
  8
1
  6
Continuous
 62
     7
100
AcDbCircle
 10
137.5
 20
12.5
 30
0.0
 40
0.3000000000000114
  0
CIRCLE
  5
443
330
6B
100
AcDbEntity
  8
1
  6
Continuous
 62
     7
100
AcDbCircle
 10
126.5
 20
12.5
 30
0.0
 40
0.2999999999999972
  0
CIRCLE
  5
444
330
6B
100
AcDbEntity
  8
1
  6
Continuous
 62
     7
100
AcDbCircle
 10
120.5
 20
12.5
 30
0.0
 40
0.2999999999999972
  0
CIRCLE
  5
445
330
6B
100
AcDbEntity
  8
1
  6
Continuous
 62
     7
100
AcDbCircle
 10
109.5
 20
12.5
 30
0.0
 40
0.2999999999999972
  0
CIRCLE
  5
446
330
6B
100
AcDbEntity
  8
1
  6
Continuous
 62
     7
100
AcDbCircle
 10
103.5
 20
12.5
 30
0.0
 40
0.2999999999999972
  0
MTEXT
  5
448
330
6B
100
AcDbEntity
  8
1
 62
   250
100
AcDbMText
 10
25.0
 20
5.0
 30
0.0
 40
3.5
 41
0.0
 71
     4
 72
     1
  1
備考欄の文字列 原点位置=4
  7
CONVERTER_11
 73
     1
 44
0.54545454545455
  0
MTEXT
  5
449
330
6B
100
AcDbEntity
  8
1
 62
     2
100
AcDbMText
 10
89.5
 20
24.00000000000001
 30
0.0
 40
3.5
 41
0.0
 71
     5
 72
     1
  1
尺度
  7
CONVERTER_11
 73
     1
 44
0.54545454545455
  0
MTEXT
  5
44A
330
6B
100
AcDbEntity
  8
1
 62
     2
100
AcDbMText
 10
135.5
 20
25.00000000000001
 30
0.0
 40
3.0
 41
0.0
 71
     5
 72
     1
  1
製図
  7
CONVERTER_11
 73
     1
 44
0.59090909090909
  0
MTEXT
  5
44B
330
6B
100
AcDbEntity
  8
1
 62
     2
100
AcDbMText
 10
152.5
 20
25.00000000000001
 30
0.0
 40
3.0
 41
0.0
 71
     5
 72
     1
  1
設計
  7
CONVERTER_11
 73
     1
 44
0.59090909090909
  0
MTEXT
  5
44C
330
6B
100
AcDbEntity
  8
1
 62
     2
100
AcDbMText
 10
118.5
 20
25.00000000000001
 30
0.0
 40
3.0
 41
0.0
 71
     5
 72
     1
  1
検図
  7
CONVERTER_11
 73
     1
 44
0.59090909090909
  0
MTEXT
  5
44D
330
6B
100
AcDbEntity
  8
1
 62
     2
100
AcDbMText
 10
175.0
 20
23.50000000000001
 30
0.0
 40
3.5
 41
0.0
 71
     5
 72
     1
  1
第三角法
  7
CONVERTER_11
 73
     1
 44
0.54545454545455
  0
MTEXT
  5
44E
330
6B
100
AcDbEntity
  8
1
 62
     2
100
AcDbMText
 10
101.5
 20
25.00000000000001
 30
0.0
 40
3.0
 41
0.0
 71
     5
 72
     1
  1
承認
  7
CONVERTER_11
 73
     1
 44
0.59090909090909
  0
MTEXT
  5
44F
330
6B
100
AcDbEntity
  8
1
 62
     2
100
AcDbMText
 10
29.0
 20
14.25
 30
0.0
 40
3.5
 41
0.0
 71
     5
 72
     1
  1
品番
  7
CONVERTER_11
 73
     1
 44
0.72727272727273
  0
MTEXT
  5
450
330
6B
100
AcDbEntity
  8
1
 62
     2
100
AcDbMText
 10
29.0
 20
22.75
 30
0.0
 40
3.5
 41
0.0
 71
     5
 72
     1
  1
品名
  7
CONVERTER_11
 73
     1
 44
0.72727272727273
  0
MTEXT
  5
451
330
6B
100
AcDbEntity
  8
1
 62
     2
100
AcDbMText
 10
29.0
 20
34.00000000000001
 30
0.0
 40
3.5
 41
0.0
 71
     5
 72
     1
  1
備考
  7
CONVERTER_11
 73
     1
 44
0.45454545454545
  0
MTEXT
  5
452
330
6B
100
AcDbEntity
  8
1
 62
     2
100
AcDbMText
 10
32.5
 20
282.0000000000003
 30
0.0
 40
5.0
 41
0.0
 71
     5
 72
     1
  1
図番
  7
CONVERTER_11
 73
     1
 44
0.45454545454545
  0
MTEXT
  5
453
330
6B
100
AcDbEntity
  8
1
 62
     7
100
AcDbMText
 10
171.5
 20
15.0
 30
0.0
 40
2.5
 41
0.0
 71
     5
 72
     1
  1
株式会社
  7
CONVERTER_11
 73
     1
 44
1.0
  0
MTEXT
  5
454
330
6B
100
AcDbEntity
  8
1
 62
     7
100
AcDbMText
 10
188.5
 20
15.0
 30
0.0
 40
3.0
 41
0.0
 71
     5
 72
     1
  1
三栄水栓製作所
  7
CONVERTER_11
 73
     1
 44
1.0
  0
ENDBLK
  5
6D
330
6B
100
AcDbEntity
  8
0
100
AcDbBlockEnd
  0
BLOCK
  5
473
330
46C
100
AcDbEntity
  8
0
100
AcDbBlockBegin
  2
*D13
 70
     1
 10
0.0
 20
0.0
 30
0.0
  3
*D13
  1

  0
LINE
  5
46D
330
46C
100
AcDbEntity
  8
1
  6
Continuous
 62
     2
100
AcDbLine
 10
610.0707771366058
 20
341.3680932269708
 30
0.0
 11
610.0707771366058
 21
276.8680932269705
 31
0.0
  0
LINE
  5
46E
330
46C
100
AcDbEntity
  8
1
  6
Continuous
 62
     2
100
AcDbLine
 10
572.9450248645559
 20
276.8680932269705
 30
0.0
 11
613.5707771366058
 21
276.8680932269705
 31
0.0
  0
LINE
  5
46F
330
46C
100
AcDbEntity
  8
1
  6
Continuous
 62
     2
100
AcDbLine
 10
547.9450248645553
 20
341.3680932269708
 30
0.0
 11
613.5707771366058
 21
341.3680932269708
 31
0.0
  0
SOLID
  5
470
330
46C
100
AcDbEntity
  8
1
 62
     2
100
AcDbTrace
 10
611.6835202320514
 20
329.1180932269708
 30
0.0
 11
608.4580340411602
 21
329.1180932269708
 31
0.0
 12
610.0707771366058
 22
341.3680932269708
 32
0.0
 13
610.0707771366058
 23
341.3680932269708
 33
0.0
  0
SOLID
  5
471
330
46C
100
AcDbEntity
  8
1
 62
     2
100
AcDbTrace
 10
608.4580340411602
 20
289.1180932269705
 30
0.0
 11
611.6835202320514
 21
289.1180932269705
 31
0.0
 12
610.0707771366058
 22
276.8680932269705
 32
0.0
 13
610.0707771366058
 23
276.8680932269705
 33
0.0
  0
MTEXT
  5
472
330
46C
100
AcDbEntity
  8
1
 62
     7
100
AcDbMText
 10
606.5707771366058
 20
299.9305932269707
 30
0.0
 40
12.25
 41
0.0
 71
     7
 72
     1
  1
65
  7
CONVERTER_12
 11
0.0
 21
1.0
 31
0.0
 73
     1
 44
0.60024009603842
  0
ENDBLK
  5
474
330
46C
100
AcDbEntity
  8
0
100
AcDbBlockEnd
  0
BLOCK
  5
47F
330
477
100
AcDbEntity
  8
0
100
AcDbBlockBegin
  2
*D14
 70
     1
 10
0.0
 20
0.0
 30
0.0
  3
*D14
  1

  0
LINE
  5
478
330
477
100
AcDbEntity
  8
0
  6
Continuous
 62
     2
100
AcDbLine
 10
228.0270886479061
 20
185.8680932269715
 30
0.0
 11
309.209406157474
 21
185.8680932269715
 31
0.0
  0
LINE
  5
479
330
477
100
AcDbEntity
  8
0
  6
Continuous
 62
     2
100
AcDbLine
 10
170.5270886479057
 20
185.8680932269715
 30
0.0
 11
228.0270886479061
 21
185.8680932269715
 31
0.0
  0
LINE
  5
47A
330
477
100
AcDbEntity
  8
0
  6
Continuous
 62
     2
100
AcDbLine
 10
228.0270886479061
 20
276.8680932269706
 30
0.0
 11
228.0270886479061
 21
182.3680932269715
 31
0.0
  0
LINE
  5
47B
330
477
100
AcDbEntity
  8
0
  6
Continuous
 62
     2
100
AcDbLine
 10
170.5270886479057
 20
220.868093226971
 30
0.0
 11
170.5270886479057
 21
182.3680932269715
 31
0.0
  0
SOLID
  5
47C
330
477
100
AcDbEntity
  8
0
 62
     2
100
AcDbTrace
 10
182.7770886479057
 20
187.4808363224171
 30
0.0
 11
182.7770886479057
 21
184.2553501315259
 31
0.0
 12
170.5270886479057
 22
185.8680932269715
 32
0.0
 13
170.5270886479057
 23
185.8680932269715
 33
0.0
  0
SOLID
  5
47D
330
477
100
AcDbEntity
  8
0
 62
     2
100
AcDbTrace
 10
215.7770886479061
 20
184.2553501315259
 30
0.0
 11
215.7770886479061
 21
187.4808363224171
 31
0.0
 12
228.0270886479061
 22
185.8680932269715
 32
0.0
 13
228.0270886479061
 23
185.8680932269715
 33
0.0
  0
MTEXT
  5
47E
330
477
100
AcDbEntity
  8
0
 62
     7
100
AcDbMText
 10
243.059406157474
 20
189.3680932269715
 30
0.0
 40
12.25
 41
0.0
 71
     7
 72
     1
  1
58リフト5
  7
CONVERTER_11
 11
0.9999999999970619
 21
2.424068405545306E-6
 31
0.0
 73
     1
 44
0.45454545454545
  0
ENDBLK
  5
480
330
477
100
AcDbEntity
  8
0
100
AcDbBlockEnd
  0
BLOCK
  5
48A
330
483
100
AcDbEntity
  8
0
100
AcDbBlockBegin
  2
*D15
 70
     1
 10
0.0
 20
0.0
 30
0.0
  3
*D15
  1

  0
LINE
  5
484
330
483
100
AcDbEntity
  8
1
  6
Continuous
 62
     2
100
AcDbLine
 10
666.9450248645558
 20
253.8680932269708
 30
0.0
 11
666.9450248645558
 21
299.8680932269708
 31
0.0
  0
LINE
  5
485
330
483
100
AcDbEntity
  8
1
  6
Continuous
 62
     2
100
AcDbLine
 10
617.9450248645558
 20
299.8680932269708
 30
0.0
 11
670.4450248645558
 21
299.8680932269708
 31
0.0
  0
LINE
  5
486
330
483
100
AcDbEntity
  8
1
  6
Continuous
 62
     2
100
AcDbLine
 10
617.9450248645558
 20
253.8680932269708
 30
0.0
 11
670.4450248645558
 21
253.8680932269708
 31
0.0
  0
SOLID
  5
487
330
483
100
AcDbEntity
  8
1
 62
     2
100
AcDbTrace
 10
665.3322817691102
 20
266.1180932269708
 30
0.0
 11
668.5577679600013
 21
266.1180932269708
 31
0.0
 12
666.9450248645558
 22
253.8680932269708
 32
0.0
 13
666.9450248645558
 23
253.8680932269708
 33
0.0
  0
SOLID
  5
488
330
483
100
AcDbEntity
  8
1
 62
     2
100
AcDbTrace
 10
668.5577679600013
 20
287.6180932269708
 30
0.0
 11
665.3322817691102
 21
287.6180932269708
 31
0.0
 12
666.9450248645558
 22
299.8680932269708
 32
0.0
 13
666.9450248645558
 23
299.8680932269708
 33
0.0
  0
MTEXT
  5
489
330
483
100
AcDbEntity
  8
1
 62
     7
100
AcDbMText
 10
663.4450248645558
 20
264.9855932269708
 30
0.0
 40
12.25
 41
0.0
 71
     7
 72
     1
  1
\C7;{\Fgdt;n}\C7;46
  7
CONVERTER_12
 11
0.0
 21
1.0
 31
0.0
 73
     1
 44
0.60024009603842
  0
ENDBLK
  5
48B
330
483
100
AcDbEntity
  8
0
100
AcDbBlockEnd
  0
BLOCK
  5
497
330
48E
100
AcDbEntity
  8
0
100
AcDbBlockBegin
  2
*D16
 70
     1
 10
0.0
 20
0.0
 30
0.0
  3
*D16
  1

  0
LINE
  5
48F
330
48E
100
AcDbEntity
  8
1
  6
Continuous
 62
     2
100
AcDbLine
 10
593.4450248645559
 20
218.8680932269708
 30
0.0
 11
617.9450248645559
 21
218.8680932269708
 31
0.0
  0
LINE
  5
490
330
48E
100
AcDbEntity
  8
1
  6
Continuous
 62
     2
100
AcDbLine
 10
617.9450248645559
 20
218.8680932269708
 30
0.0
 11
631.9450248645559
 21
218.8680932269708
 31
0.0
  0
LINE
  5
491
330
48E
100
AcDbEntity
  8
1
  6
Continuous
 62
     2
100
AcDbLine
 10
631.9450248645559
 20
218.8680932269708
 30
0.0
 11
664.144020671176
 21
218.8680932269708
 31
0.0
  0
LINE
  5
492
330
48E
100
AcDbEntity
  8
1
  6
Continuous
 62
     2
100
AcDbLine
 10
631.9450248645558
 20
270.8680932269708
 30
0.0
 11
631.9450248645558
 21
215.3680932269708
 31
0.0
  0
LINE
  5
493
330
48E
100
AcDbEntity
  8
1
  6
Continuous
 62
     2
100
AcDbLine
 10
617.9450248645558
 20
253.8680932269708
 30
0.0
 11
617.9450248645558
 21
215.3680932269708
 31
0.0
  0
SOLID
  5
494
330
48E
100
AcDbEntity
  8
1
 62
     2
100
AcDbTrace
 10
605.6950248645559
 20
217.2553501315252
 30
0.0
 11
605.6950248645559
 21
220.4808363224164
 31
0.0
 12
617.9450248645559
 22
218.8680932269708
 32
0.0
 13
617.9450248645559
 23
218.8680932269708
 33
0.0
  0
SOLID
  5
495
330
48E
100
AcDbEntity
  8
1
 62
     2
100
AcDbTrace
 10
644.1950248645559
 20
220.4808363224164
 30
0.0
 11
644.1950248645559
 21
217.2553501315252
 31
0.0
 12
631.9450248645559
 22
218.8680932269708
 32
0.0
 13
631.9450248645559
 23
218.8680932269708
 33
0.0
  0
MTEXT
  5
496
330
48E
100
AcDbEntity
  8
1
 62
     7
100
AcDbMText
 10
649.444020671176
 20
222.3680932269708
 30
0.0
 40
12.25
 41
0.0
 71
     7
 72
     1
  1
14
  7
CONVERTER_12
 11
0.9999999999970619
 21
2.424068405545306E-6
 31
0.0
 73
     1
 44
0.60024009603842
  0
ENDBLK
  5
498
330
48E
100
AcDbEntity
  8
0
100
AcDbBlockEnd
  0
BLOCK
  5
4A2
330
49B
100
AcDbEntity
  8
0
100
AcDbBlockBegin
  2
*D17
 70
     1
 10
0.0
 20
0.0
 30
0.0
  3
*D17
  1

  0
LINE
  5
49C
330
49B
100
AcDbEntity
  8
1
  6
Continuous
 62
     2
100
AcDbLine
 10
572.9450248645558
 20
218.8680932269708
 30
0.0
 11
617.9450248645558
 21
218.8680932269708
 31
0.0
  0
LINE
  5
49D
330
49B
100
AcDbEntity
  8
1
  6
Continuous
 62
     2
100
AcDbLine
 10
572.9450248645558
 20
259.8680932269708
 30
0.0
 11
572.9450248645558
 21
215.3680932269708
 31
0.0
  0
LINE
  5
49E
330
49B
100
AcDbEntity
  8
1
  6
Continuous
 62
     2
100
AcDbLine
 10
617.9450248645558
 20
253.8680932269708
 30
0.0
 11
617.9450248645558
 21
215.3680932269708
 31
0.0
  0
SOLID
  5
49F
330
49B
100
AcDbEntity
  8
1
 62
     2
100
AcDbTrace
 10
585.1950248645558
 20
220.4808363224164
 30
0.0
 11
585.1950248645558
 21
217.2553501315252
 31
0.0
 12
572.9450248645558
 22
218.8680932269708
 32
0.0
 13
572.9450248645558
 23
218.8680932269708
 33
0.0
  0
SOLID
  5
4A0
330
49B
100
AcDbEntity
  8
1
 62
     2
100
AcDbTrace
 10
605.6950248645558
 20
217.2553501315252
 30
0.0
 11
605.6950248645558
 21
220.4808363224164
 31
0.0
 12
617.9450248645558
 22
218.8680932269708
 32
0.0
 13
617.9450248645558
 23
218.8680932269708
 33
0.0
  0
MTEXT
  5
4A1
330
49B
100
AcDbEntity
  8
1
 62
     7
100
AcDbMText
 10
586.2575248645556
 20
222.3680932269708
 30
0.0
 40
12.25
 41
0.0
 71
     7
 72
     1
  1
45
  7
CONVERTER_12
 11
0.9999999999970619
 21
2.424068405545306E-6
 31
0.0
 73
     1
 44
0.60024009603842
  0
ENDBLK
  5
4A3
330
49B
100
AcDbEntity
  8
0
100
AcDbBlockEnd
  0
BLOCK
  5
4AB
330
4A6
100
AcDbEntity
  8
0
100
AcDbBlockBegin
  2
*D18
 70
     1
 10
0.0
 20
0.0
 30
0.0
  3
*D18
  1

  0
LINE
  5
4A7
330
4A6
100
AcDbEntity
  8
1
  6
Continuous
 62
     2
100
AcDbLine
 10
408.1950248645549
 20
231.368093226971
 30
0.0
 11
408.1950248645549
 21
273.3680932269708
 31
0.0
  0
LINE
  5
4A8
330
4A6
100
AcDbEntity
  8
1
  6
Continuous
 62
     2
100
AcDbLine
 10
372.095024864555
 20
231.368093226971
 30
0.0
 11
411.6950248645549
 21
231.368093226971
 31
0.0
  0
SOLID
  5
4A9
330
4A6
100
AcDbEntity
  8
1
 62
     2
100
AcDbTrace
 10
406.5822817691093
 20
243.618093226971
 30
0.0
 11
409.8077679600005
 21
243.618093226971
 31
0.0
 12
408.1950248645549
 22
231.368093226971
 32
0.0
 13
408.1950248645549
 23
231.368093226971
 33
0.0
  0
MTEXT
  5
4AA
330
4A6
100
AcDbEntity
  8
1
 62
     7
100
AcDbMText
 10
410.8200248645549
 20
264.1805932269708
 30
0.0
 40
12.25
 41
0.0
 71
     7
 72
     1
  1

  7
CONVERTER_12
 11
0.0
 21
1.0
 31
0.0
 73
     1
 44
0.60024009603842
  0
ENDBLK
  5
4AC
330
4A6
100
AcDbEntity
  8
0
100
AcDbBlockEnd
  0
BLOCK
  5
4B3
330
4AE
100
AcDbEntity
  8
0
100
AcDbBlockBegin
  2
*D19
 70
     1
 10
0.0
 20
0.0
 30
0.0
  3
*D19
  1

  0
LINE
  5
4AF
330
4AE
100
AcDbEntity
  8
1
  6
Continuous
 62
     2
100
AcDbLine
 10
572.9450248645559
 20
298.44132468404
 30
0.0
 11
433.113510077144
 21
298.44132468404
 31
0.0
  0
LINE
  5
4B0
330
4AE
100
AcDbEntity
  8
1
  6
Continuous
 62
     2
100
AcDbLine
 10
572.9450248645559
 20
276.8680932269705
 30
0.0
 11
572.9450248645559
 21
301.94132468404
 31
0.0
  0
SOLID
  5
4B1
330
4AE
100
AcDbEntity
  8
1
 62
     2
100
AcDbTrace
 10
560.6950248645559
 20
296.8285815885944
 30
0.0
 11
560.6950248645559
 21
300.0540677794856
 31
0.0
 12
572.9450248645559
 22
298.44132468404
 32
0.0
 13
572.9450248645559
 23
298.44132468404
 33
0.0
  0
MTEXT
  5
4B2
330
4AE
100
AcDbEntity
  8
1
 62
     7
100
AcDbMText
 10
433.113510077144
 20
301.94132468404
 30
0.0
 40
12.25
 41
0.0
 71
     7
 72
     1
  1
300
  7
CONVERTER_12
 11
0.9999999999970619
 21
2.424068405545306E-6
 31
0.0
 73
     1
 44
0.60024009603842
  0
ENDBLK
  5
4B4
330
4AE
100
AcDbEntity
  8
0
100
AcDbBlockEnd
  0
ENDSEC
  0
SECTION
  2
ENTITIES
  0
INSERT
  5
6E
330
1F
100
AcDbEntity
  8
1
100
AcDbBlockReference
  2
21-1C-M1K
 10
1567.478123933683
 20
969.0876952220939
 30
0.0
  0
INSERT
  5
6F
330
1F
100
AcDbEntity
  8
1
100
AcDbBlockReference
  2
30-111
 10
2771.97460432544
 20
1185.256446672795
 30
0.0
  0
INSERT
  5
70
330
1F
100
AcDbEntity
  8
1
100
AcDbBlockReference
  2
76-120-300
 10
1746.144359264479
 20
141.3481794842854
 30
0.0
  0
INSERT
  5
71
330
1F
100
AcDbEntity
  8
1
100
AcDbBlockReference
  2
A20-0-13
 10
508.8047027852473
 20
154.8340216843292
 30
0.0
  0
INSERT
  5
72
330
1F
100
AcDbEntity
  8
1
100
AcDbBlockReference
  2
37-1-13
 10
499.8907436783971
 20
-15.53449106111397
 30
0.0
  0
INSERT
  5
73
330
1F
100
AcDbEntity
  8
1
100
AcDbBlockReference
  2
36-1A-13-M4
 10
451.3850624974775
 20
240.7124389505172
 30
0.0
  0
INSERT
  5
74
330
1F
100
AcDbEntity
  8
0
100
AcDbBlockReference
  2
32-1-16
 10
565.5919808917558
 20
435.8689329269329
 30
0.0
  0
INSERT
  5
75
330
1F
100
AcDbEntity
  8
1
100
AcDbBlockReference
  2
42-1
 10
1471.77873965382
 20
309.8164475696454
 30
0.0
  0
INSERT
  5
76
330
1F
100
AcDbEntity
  8
1
100
AcDbBlockReference
  2
開示A4
 10
0.0
 20
0.0
 30
0.0
 41
3.5
 42
3.5
 43
3.5
  0
LINE
  5
455
330
1F
100
AcDbEntity
  8
1
  6
DASH_CENTER
 62
     2
100
AcDbLine
 10
572.9450248645559
 20
276.8680932269705
 30
0.0
 11
546.0045533663209
 21
276.8680932269703
 31
0.0
  0
LINE
  5
456
330
1F
100
AcDbEntity
  8
1
  6
DASH_CENTER
 62
     2
100
AcDbLine
 10
361.4450248645549
 20
220.8680932269709
 30
0.0
 11
361.4450248645549
 21
291.3680932269709
 31
0.0
  0
LINE
  5
457
330
1F
100
AcDbEntity
  8
1
  6
DASH_CENTER
 62
     2
100
AcDbLine
 10
411.4450248645549
 20
341.3680932269709
 30
0.0
 11
547.9450248645553
 21
341.3680932269708
 31
0.0
  0
LINE
  5
458
330
1F
100
AcDbEntity
  8
1
  6
DASH_CENTER
 62
     2
100
AcDbLine
 10
142.0582789254829
 20
276.8680932269706
 30
0.0
 11
231.0582789254829
 21
276.8680932269706
 31
0.0
  0
LINE
  5
459
330
1F
100
AcDbEntity
  8
1
  6
DASH_CENTER
 62
     2
100
AcDbLine
 10
557.7895802983282
 20
285.6180932269704
 30
0.0
 11
602.3898885932267
 21
259.8680932269704
 31
0.0
  0
LINE
  5
45A
330
1F
100
AcDbEntity
  8
1
  6
DASH_CENTER
 62
     2
100
AcDbLine
 10
543.5001611358849
 20
259.8680932269704
 30
0.0
 11
588.1004694307834
 21
285.6180932269704
 31
0.0
  0
LINE
  5
45B
330
1F
100
AcDbEntity
  8
1
  6
DASH_CENTER
 62
     2
100
AcDbLine
 10
572.9450248645558
 20
259.8680932269708
 30
0.0
 11
572.9450248645552
 21
316.3680932269708
 31
0.0
  0
LINE
  5
45C
330
1F
100
AcDbEntity
  8
1
  6
DASH_CENTER
 62
     2
100
AcDbLine
 10
634.9450248645558
 20
276.8680932269708
 30
0.0
 11
572.9450248645559
 21
276.8680932269705
 31
0.0
  0
LINE
  5
45D
330
1F
100
AcDbEntity
  8
1
  6
DASH_CENTER
 62
     2
100
AcDbLine
 10
170.5270886479061
 20
359.8680927690585
 30
0.0
 11
170.5270886479057
 21
220.868093226971
 31
0.0
  0
LINE
  5
45E
330
1F
100
AcDbEntity
  8
1
  6
DASH_CENTER
 62
     2
100
AcDbLine
 10
170.5270886479059
 20
734.655039801097
 30
0.0
 11
170.5270886479057
 21
827.3680932269706
 31
0.0
  0
LINE
  5
45F
330
1F
100
AcDbEntity
  8
1
  6
DASH_CENTER
 62
     2
100
AcDbLine
 10
170.5270886479059
 20
524.8680932269701
 30
0.0
 11
170.5270886479059
 21
734.655039801097
 31
0.0
  0
LINE
  5
460
330
1F
100
AcDbEntity
  8
1
  6
DASH_CENTER
 62
     2
100
AcDbLine
 10
144.5270886479061
 20
757.8680932269706
 30
0.0
 11
239.5270886479062
 21
757.8680932269706
 31
0.0
  0
ARC
  5
461
330
1F
100
AcDbEntity
  8
1
  6
Continuous
 62
     2
100
AcDbCircle
 10
433.1950248645549
 20
273.3680932269708
 30
0.0
 40
25.0
100
AcDbArc
 50
90.0
 51
180.0
  0
ARC
  5
462
330
1F
100
AcDbEntity
  8
1
  6
DASH_CENTER
 62
     2
100
AcDbCircle
 10
411.4450248645549
 20
291.3680932269709
 30
0.0
 40
50.0
100
AcDbArc
 50
90.0
 51
180.0
  0
ARC
  5
463
330
1F
100
AcDbEntity
  8
1
  6
DASH_CENTER
 62
     2
100
AcDbCircle
 10
547.9450248645553
 20
316.3680932269708
 30
0.0
 40
24.99999999999989
100
AcDbArc
 50
0.0
 51
90.0
  0
SOLID
  5
464
330
1F
100
AcDbEntity
  8
0
 62
     2
100
AcDbTrace
 10
185.755412157472
 20
821.5216748876039
 30
0.0
 11
188.5487651383397
 21
819.9089317921583
 31
0.0
 12
181.0270886479057
 22
810.1064921435218
 32
0.0
 13
181.0270886479057
 23
810.1064921435218
 33
0.0
  0
LEADER
  5
465
330
1F
100
AcDbEntity
  8
0
  6
Continuous
 62
     2
100
AcDbLeader
  3
Standard
 71
     0
 76
     3
 10
181.0270886479057
 20
810.1064921435218
 30
0.0
 10
194.486693320051
 20
833.419211285469
 30
0.0
 10
241.7630576071769
 20
833.419211285469
 30
0.0
  0
MTEXT
  5
467
330
1F
100
AcDbEntity
  8
1
 62
     7
100
AcDbMText
 10
219.3686013186946
 20
843.919211285469
 30
0.0
 40
12.25
 41
0.0
 71
     5
 72
     1
  1
PJ1/2
  7
CONVERTER_12
 73
     1
 44
1.32052821128451
  0
MTEXT
  5
468
330
1F
100
AcDbEntity
  8
0
 62
     7
100
AcDbMText
 10
328.1250000000001
 20
59.50000000000001
 30
0.0
 40
12.25
 41
0.0
 71
     5
 72
     1
  1
3,5
  7
CONVERTER_12
 73
     1
 44
1.32052821128451
  0
MTEXT
  5
469
330
1F
100
AcDbEntity
  8
0
 62
     7
100
AcDbMText
 10
298.375
 20
59.5
 30
0.0
 40
12.25
 41
0.0
 71
     5
 72
     1
  1
1
  7
CONVERTER_12
 73
     1
 44
1.32052821128451
  0
MTEXT
  5
46A
330
1F
100
AcDbEntity
  8
0
 62
     7
100
AcDbMText
 10
199.5
 20
49.87500000000001
 30
0.0
 40
12.25
 41
0.0
 71
     5
 72
     1
  1
A28AK3-13
  7
CONVERTER_12
 73
     1
 44
0.90036014405762
  0
MTEXT
  5
46B
330
1F
100
AcDbEntity
  8
0
 62
     7
100
AcDbMText
 10
199.5
 20
79.62500000000003
 30
0.0
 40
12.25
 41
0.0
 71
     5
 72
     1
  1
ベンリー横形自在水栓
  7
CONVERTER_11
 73
     1
 44
1.0
  0
DIMENSION
  5
476
330
1F
100
AcDbEntity
  8
1
100
AcDbDimension
  2
*D13
 10
610.0707771366058
 20
341.3680932269708
 30
0.0
 11
600.4457771366058
 21
309.1180932269707
 31
0.0
 70
    32
  1
65
 71
     5
 42
-1.0
 53
90.0
  3
ME10_DIM_10
100
AcDbAlignedDimension
 13
572.9450248645559
 23
276.8680932269705
 33
0.0
 14
547.9450248645553
 24
341.3680932269708
 34
0.0
 50
90.0
100
AcDbRotatedDimension
  0
DIMENSION
  5
482
330
1F
100
AcDbEntity
  8
0
100
AcDbDimension
  2
*D14
 10
170.5270886479057
 20
185.8680932269715
 30
0.0
 11
276.134406157474
 21
195.4930932269715
 31
0.0
 70
    32
  1
58リフト5
 71
     5
 42
-1.0
 53
0.00013888888889
  3
ME10_DIM_11
100
AcDbAlignedDimension
 13
228.0270886479061
 23
276.8680932269706
 33
0.0
 14
170.5270886479057
 24
220.868093226971
 34
0.0
100
AcDbRotatedDimension
  0
DIMENSION
  5
48D
330
1F
100
AcDbEntity
  8
1
100
AcDbDimension
  2
*D15
 10
666.9450248645558
 20
253.8680932269708
 30
0.0
 11
657.3200248645558
 21
276.8680932269708
 31
0.0
 70
    32
  1
<>
 71
     5
 42
-1.0
 53
90.0
  3
ME10_DIM_12
100
AcDbAlignedDimension
 13
617.9450248645558
 23
299.8680932269708
 33
0.0
 14
617.9450248645558
 24
253.8680932269708
 34
0.0
 50
90.0
100
AcDbRotatedDimension
  0
DIMENSION
  5
49A
330
1F
100
AcDbEntity
  8
1
100
AcDbDimension
  2
*D16
 10
617.9450248645559
 20
218.8680932269708
 30
0.0
 11
656.794020671176
 21
228.4930932269708
 31
0.0
 70
    32
  1
<>
 71
     5
 42
-1.0
 53
0.00013888888889
  3
ME10_DIM_13
100
AcDbAlignedDimension
 13
631.9450248645558
 23
270.8680932269708
 33
0.0
 14
617.9450248645558
 24
253.8680932269708
 34
0.0
100
AcDbRotatedDimension
  0
DIMENSION
  5
4A5
330
1F
100
AcDbEntity
  8
1
100
AcDbDimension
  2
*D17
 10
572.9450248645558
 20
218.8680932269708
 30
0.0
 11
595.4450248645556
 21
228.4930932269708
 31
0.0
 70
    32
  1
<>
 71
     5
 42
-1.0
 53
0.00013888888889
  3
ME10_DIM_14
100
AcDbAlignedDimension
 13
617.9450248645558
 23
253.8680932269708
 33
0.0
 14
572.9450248645558
 24
259.8680932269708
 34
0.0
100
AcDbRotatedDimension
  0
INSERT
  5
4AD
330
1F
100
AcDbEntity
  8
1
100
AcDbBlockReference
  2
*D18
 10
0.0
 20
0.0
 30
0.0
  0
INSERT
  5
4B5
330
1F
100
AcDbEntity
  8
1
100
AcDbBlockReference
  2
*D19
 10
0.0
 20
0.0
 30
0.0
  0
ENDSEC
  0
SECTION
  2
OBJECTS
  0
DICTIONARY
  5
C
330
0
100
AcDbDictionary
281
     1
  3
ACAD_GROUP
350
D
  3
ACAD_LAYOUT
350
1A
  3
ACAD_MATERIAL
350
3B
  3
ACAD_MLEADERSTYLE
350
4B8
  3
ACAD_MLINESTYLE
350
17
  3
ACAD_PLOTSETTINGS
350
19
  3
ACAD_PLOTSTYLENAME
350
E
  3
ACAD_VISUALSTYLE
350
2A
  3
AcDbVariableDictionary
350
4B6
  0
DICTIONARY
  5
D
102
{ACAD_REACTORS
330
C
102
}
330
C
100
AcDbDictionary
281
     1
  0
DICTIONARY
  5
1A
102
{ACAD_REACTORS
330
C
102
}
330
C
100
AcDbDictionary
281
     1
  3
Layout1
350
1E
  3
Layout2
350
26
  3
Model
350
22
  0
DICTIONARY
  5
3B
102
{ACAD_REACTORS
330
C
102
}
330
C
100
AcDbDictionary
281
     1
  3
ByBlock
350
3D
  3
ByLayer
350
3C
  3
Global
350
3E
  0
DICTIONARY
  5
4B8
102
{ACAD_REACTORS
330
C
102
}
330
C
100
AcDbDictionary
281
     1
  0
DICTIONARY
  5
17
102
{ACAD_REACTORS
330
C
102
}
330
C
100
AcDbDictionary
281
     1
  3
Standard
350
18
  0
DICTIONARY
  5
19
102
{ACAD_REACTORS
330
C
102
}
330
C
100
AcDbDictionary
281
     1
  0
ACDBDICTIONARYWDFLT
  5
E
102
{ACAD_REACTORS
330
C
102
}
330
C
100
AcDbDictionary
281
     1
  3
Normal
350
F
100
AcDbDictionaryWithDefault
340
F
  0
DICTIONARY
  5
2A
102
{ACAD_REACTORS
330
C
102
}
330
C
100
AcDbDictionary
281
     1
  3
2dWireframe
350
2F
  3
3D Hidden
350
31
  3
3dWireframe
350
30
  3
Basic
350
32
  3
Brighten
350
36
  3
ColorChange
350
3A
  3
Conceptual
350
34
  3
Dim
350
35
  3
Facepattern
350
39
  3
Flat
350
2B
  3
FlatWithEdges
350
2C
  3
Gouraud
350
2D
  3
GouraudWithEdges
350
2E
  3
Linepattern
350
38
  3
Realistic
350
33
  3
Thicken
350
37
  0
DICTIONARY
  5
4B6
102
{ACAD_REACTORS
330
C
102
}
330
C
100
AcDbDictionary
281
     1
  3
DIMASSOC
350
4B9
  3
HIDETEXT
350
4BA
  0
LAYOUT
  5
1E
102
{ACAD_REACTORS
330
1A
102
}
330
1A
100
AcDbPlotSettings
  1

  2
none_device
  4

  6

 40
0.0
 41
0.0
 42
0.0
 43
0.0
 44
0.0
 45
0.0
 46
0.0
 47
0.0
 48
0.0
 49
0.0
140
0.0
141
0.0
142
1.0
143
1.0
 70
   688
 72
     0
 73
     0
 74
     5
  7

 75
    16
147
1.0
148
0.0
149
0.0
100
AcDbLayout
  1
Layout1
 70
     1
 71
     1
 10
0.0
 20
0.0
 11
12.0
 21
9.0
 12
0.0
 22
0.0
 32
0.0
 14
1.00000000000000E+20
 24
1.00000000000000E+20
 34
1.00000000000000E+20
 15
-1.00000000000000E+20
 25
-1.00000000000000E+20
 35
-1.00000000000000E+20
146
0.0
 13
0.0
 23
0.0
 33
0.0
 16
1.0
 26
0.0
 36
0.0
 17
0.0
 27
1.0
 37
0.0
 76
     0
330
1B
  0
LAYOUT
  5
26
102
{ACAD_REACTORS
330
1A
102
}
330
1A
100
AcDbPlotSettings
  1

  2
none_device
  4

  6

 40
0.0
 41
0.0
 42
0.0
 43
0.0
 44
0.0
 45
0.0
 46
0.0
 47
0.0
 48
0.0
 49
0.0
140
0.0
141
0.0
142
1.0
143
1.0
 70
   688
 72
     0
 73
     0
 74
     5
  7

 75
    16
147
1.0
148
0.0
149
0.0
100
AcDbLayout
  1
Layout2
 70
     1
 71
     2
 10
0.0
 20
0.0
 11
0.0
 21
0.0
 12
0.0
 22
0.0
 32
0.0
 14
0.0
 24
0.0
 34
0.0
 15
0.0
 25
0.0
 35
0.0
146
0.0
 13
0.0
 23
0.0
 33
0.0
 16
1.0
 26
0.0
 36
0.0
 17
0.0
 27
1.0
 37
0.0
 76
     0
330
23
  0
LAYOUT
  5
22
102
{ACAD_REACTORS
330
1A
102
}
330
1A
100
AcDbPlotSettings
  1

  2
none_device
  4

  6

 40
0.0
 41
0.0
 42
0.0
 43
0.0
 44
0.0
 45
0.0
 46
0.0
 47
0.0
 48
0.0
 49
0.0
140
0.0
141
0.0
142
1.0
143
1.0
 70
  1712
 72
     0
 73
     0
 74
     0
  7

 75
     0
147
1.0
148
0.0
149
0.0
100
AcDbLayout
  1
Model
 70
     1
 71
     0
 10
0.0
 20
0.0
 11
12.0
 21
9.0
 12
0.0
 22
0.0
 32
0.0
 14
0.0
 24
0.0
 34
0.0
 15
735.0
 25
1039.5
 35
0.0
146
0.0
 13
0.0
 23
0.0
 33
0.0
 16
1.0
 26
0.0
 36
0.0
 17
0.0
 27
1.0
 37
0.0
 76
     0
330
1F
331
29
  0
MATERIAL
  5
3D
102
{ACAD_REACTORS
330
3B
102
}
102
{ACAD_XDICTIONARY
360
4DD
102
}
330
3B
100
AcDbMaterial
  1
ByBlock
  0
MATERIAL
  5
3C
102
{ACAD_REACTORS
330
3B
102
}
102
{ACAD_XDICTIONARY
360
4DB
102
}
330
3B
100
AcDbMaterial
  1
ByLayer
  0
MATERIAL
  5
3E
102
{ACAD_REACTORS
330
3B
102
}
102
{ACAD_XDICTIONARY
360
4DF
102
}
330
3B
100
AcDbMaterial
  1
Global
  0
MLINESTYLE
  5
18
102
{ACAD_REACTORS
330
17
102
}
330
17
100
AcDbMlineStyle
  2
Standard
 70
     0
  3

 62
   256
 51
90.0
 52
90.0
 71
     2
 49
0.5
 62
   256
  6
BYLAYER
 49
-0.5
 62
   256
  6
BYLAYER
  0
ACDBPLACEHOLDER
  5
F
102
{ACAD_REACTORS
330
E
102
}
330
E
  0
VISUALSTYLE
  5
2F
102
{ACAD_REACTORS
330
2A
102
}
102
{ACAD_XDICTIONARY
360
4C3
102
}
330
2A
100
AcDbVisualStyle
  2
2dWireframe
 70
     4
 71
     0
 72
     2
 73
     0
 90
        0
 40
-0.6
 41
-30.0
 62
     5
 63
     7
 74
     1
 91
        4
 64
     7
 65
   257
 75
     1
175
     1
 42
1.0
 92
        0
 66
   257
 43
1.0
 76
     1
 77
     6
 78
     2
 67
     7
 79
     5
170
     0
171
     0
290
     0
174
     0
 93
        1
 44
0.0
173
     0
291
     0
 45
0.0
1001
ACAD
1000
AcDbSavedByObjectVersion
1070
     0
  0
VISUALSTYLE
  5
31
102
{ACAD_REACTORS
330
2A
102
}
102
{ACAD_XDICTIONARY
360
4C7
102
}
330
2A
100
AcDbVisualStyle
  2
3D Hidden
 70
     6
 71
     1
 72
     2
 73
     2
 90
        0
 40
-0.6
 41
-30.0
 62
     5
 63
     7
 74
     2
 91
        2
 64
     7
 65
   257
 75
     2
175
     1
 42
40.0
 92
        0
 66
   257
 43
1.0
 76
     1
 77
     6
 78
     2
 67
     7
 79
     3
170
     0
171
     0
290
     0
174
     0
 93
        1
 44
0.0
173
     0
291
     0
 45
0.0
1001
ACAD
1000
AcDbSavedByObjectVersion
1070
     0
  0
VISUALSTYLE
  5
30
102
{ACAD_REACTORS
330
2A
102
}
102
{ACAD_XDICTIONARY
360
4C5
102
}
330
2A
100
AcDbVisualStyle
  2
3dWireframe
 70
     5
 71
     0
 72
     2
 73
     0
 90
        0
 40
-0.6
 41
-30.0
 62
     5
 63
     7
 74
     1
 91
        4
 64
     7
 65
   257
 75
     1
175
     1
 42
1.0
 92
        0
 66
   257
 43
1.0
 76
     1
 77
     6
 78
     2
 67
     7
 79
     5
170
     0
171
     0
290
     0
174
     0
 93
        1
 44
0.0
173
     0
291
     0
 45
0.0
1001
ACAD
1000
AcDbSavedByObjectVersion
1070
     0
  0
VISUALSTYLE
  5
32
102
{ACAD_REACTORS
330
2A
102
}
102
{ACAD_XDICTIONARY
360
4C9
102
}
330
2A
100
AcDbVisualStyle
  2
Basic
 70
     7
 71
     1
 72
     0
 73
     1
 90
        0
 40
-0.6
 41
-30.0
 62
     5
 63
     7
 74
     0
 91
        4
 64
     7
 65
   257
 75
     1
175
     1
 42
1.0
 92
        8
 66
     7
 43
1.0
 76
     1
 77
     6
 78
     2
 67
     7
 79
     5
170
     0
171
     0
290
     0
174
     0
 93
        1
 44
0.0
173
     0
291
     1
 45
0.0
1001
ACAD
1000
AcDbSavedByObjectVersion
1070
     0
  0
VISUALSTYLE
  5
36
102
{ACAD_REACTORS
330
2A
102
}
102
{ACAD_XDICTIONARY
360
4D1
102
}
330
2A
100
AcDbVisualStyle
  2
Brighten
 70
    12
 71
     2
 72
     2
 73
     0
 90
        0
 40
-0.6
 41
-30.0
 62
     5
 63
     7
 74
     1
 91
        4
 64
     7
 65
   257
 75
     1
175
     1
 42
1.0
 92
        8
 66
     7
 43
1.0
 76
     1
 77
     6
 78
     2
 67
     7
 79
     5
170
     0
171
     0
290
     0
174
     0
 93
        1
 44
50.0
173
     0
291
     1
 45
0.0
1001
ACAD
1000
AcDbSavedByObjectVersion
1070
     0
  0
VISUALSTYLE
  5
3A
102
{ACAD_REACTORS
330
2A
102
}
102
{ACAD_XDICTIONARY
360
4D9
102
}
330
2A
100
AcDbVisualStyle
  2
ColorChange
 70
    16
 71
     2
 72
     2
 73
     3
 90
        0
 40
-0.6
 41
-30.0
 62
     5
 63
     8
 74
     1
 91
        4
 64
     7
 65
   257
 75
     1
175
     1
 42
1.0
 92
        8
 66
     8
 43
1.0
 76
     1
 77
     6
 78
     2
 67
     7
 79
     5
170
     0
171
     0
290
     0
174
     0
 93
        1
 44
0.0
173
     0
291
     1
 45
0.0
1001
ACAD
1000
AcDbSavedByObjectVersion
1070
     0
  0
VISUALSTYLE
  5
34
102
{ACAD_REACTORS
330
2A
102
}
102
{ACAD_XDICTIONARY
360
4CD
102
}
330
2A
100
AcDbVisualStyle
  2
Conceptual
 70
     9
 71
     3
 72
     2
 73
     0
 90
        0
 40
-0.6
 41
-30.0
 62
     5
 63
     7
 74
     2
 91
        2
 64
     7
 65
   257
 75
     1
175
     1
 42
40.0
 92
        8
 66
     7
 43
1.0
 76
     1
 77
     6
 78
     2
 67
     7
 79
     3
170
     0
171
     0
290
     0
174
     0
 93
        1
 44
0.0
173
     0
291
     0
 45
0.0
1001
ACAD
1000
AcDbSavedByObjectVersion
1070
     0
  0
VISUALSTYLE
  5
35
102
{ACAD_REACTORS
330
2A
102
}
102
{ACAD_XDICTIONARY
360
4CF
102
}
330
2A
100
AcDbVisualStyle
  2
Dim
 70
    11
 71
     2
 72
     2
 73
     0
 90
        0
 40
-0.6
 41
-30.0
 62
     5
 63
     7
 74
     1
 91
        4
 64
     7
 65
   257
 75
     1
175
     1
 42
1.0
 92
        8
 66
     7
 43
1.0
 76
     1
 77
     6
 78
     2
 67
     7
 79
     5
170
     0
171
     0
290
     0
174
     0
 93
        1
 44
-50.0
173
     0
291
     1
 45
0.0
1001
ACAD
1000
AcDbSavedByObjectVersion
1070
     0
  0
VISUALSTYLE
  5
39
102
{ACAD_REACTORS
330
2A
102
}
102
{ACAD_XDICTIONARY
360
4D7
102
}
330
2A
100
AcDbVisualStyle
  2
Facepattern
 70
    15
 71
     2
 72
     2
 73
     0
 90
        0
 40
-0.6
 41
-30.0
 62
     5
 63
     7
 74
     1
 91
        4
 64
     7
 65
   257
 75
     1
175
     1
 42
1.0
 92
        8
 66
     7
 43
1.0
 76
     1
 77
     6
 78
     2
 67
     7
 79
     5
170
     0
171
     0
290
     0
174
     0
 93
        1
 44
0.0
173
     0
291
     1
 45
0.0
1001
ACAD
1000
AcDbSavedByObjectVersion
1070
     0
  0
VISUALSTYLE
  5
2B
102
{ACAD_REACTORS
330
2A
102
}
102
{ACAD_XDICTIONARY
360
4BB
102
}
330
2A
100
AcDbVisualStyle
  2
Flat
 70
     0
 71
     2
 72
     1
 73
     1
 90
        2
 40
-0.6
 41
30.0
 62
     5
 63
     7
 74
     0
 91
        4
 64
     7
 65
   257
 75
     1
175
     1
 42
1.0
 92
        8
 66
     7
 43
1.0
 76
     1
 77
     6
 78
     2
 67
     7
 79
     5
170
     0
171
     0
290
     0
174
     0
 93
       13
 44
0.0
173
     0
291
     1
 45
0.0
1001
ACAD
1000
AcDbSavedByObjectVersion
1070
     0
  0
VISUALSTYLE
  5
2C
102
{ACAD_REACTORS
330
2A
102
}
102
{ACAD_XDICTIONARY
360
4BD
102
}
330
2A
100
AcDbVisualStyle
  2
FlatWithEdges
 70
     1
 71
     2
 72
     1
 73
     1
 90
        2
 40
-0.6
 41
30.0
 62
     5
 63
     7
 74
     1
 91
        4
 64
     7
 65
   257
 75
     1
175
     1
 42
1.0
 92
        0
 66
   257
 43
1.0
 76
     1
 77
     6
 78
     2
 67
     7
 79
     5
170
     0
171
     0
290
     0
174
     0
 93
       13
 44
0.0
173
     0
291
     1
 45
0.0
1001
ACAD
1000
AcDbSavedByObjectVersion
1070
     0
  0
VISUALSTYLE
  5
2D
102
{ACAD_REACTORS
330
2A
102
}
102
{ACAD_XDICTIONARY
360
4BF
102
}
330
2A
100
AcDbVisualStyle
  2
Gouraud
 70
     2
 71
     2
 72
     2
 73
     1
 90
        2
 40
-0.6
 41
30.0
 62
     5
 63
     7
 74
     0
 91
        4
 64
     7
 65
   257
 75
     1
175
     1
 42
1.0
 92
        0
 66
     7
 43
1.0
 76
     1
 77
     6
 78
     2
 67
     7
 79
     5
170
     0
171
     0
290
     0
174
     0
 93
       13
 44
0.0
173
     0
291
     1
 45
0.0
1001
ACAD
1000
AcDbSavedByObjectVersion
1070
     0
  0
VISUALSTYLE
  5
2E
102
{ACAD_REACTORS
330
2A
102
}
102
{ACAD_XDICTIONARY
360
4C1
102
}
330
2A
100
AcDbVisualStyle
  2
GouraudWithEdges
 70
     3
 71
     2
 72
     2
 73
     1
 90
        2
 40
-0.6
 41
30.0
 62
     5
 63
     7
 74
     1
 91
        4
 64
     7
 65
   257
 75
     1
175
     1
 42
1.0
 92
        0
 66
   257
 43
1.0
 76
     1
 77
     6
 78
     2
 67
     7
 79
     5
170
     0
171
     0
290
     0
174
     0
 93
       13
 44
0.0
173
     0
291
     1
 45
0.0
1001
ACAD
1000
AcDbSavedByObjectVersion
1070
     0
  0
VISUALSTYLE
  5
38
102
{ACAD_REACTORS
330
2A
102
}
102
{ACAD_XDICTIONARY
360
4D5
102
}
330
2A
100
AcDbVisualStyle
  2
Linepattern
 70
    14
 71
     2
 72
     2
 73
     0
 90
        0
 40
-0.6
 41
-30.0
 62
     5
 63
     7
 74
     1
 91
        4
 64
     7
 65
   257
 75
     7
175
     7
 42
1.0
 92
        8
 66
     7
 43
1.0
 76
     1
 77
     6
 78
     2
 67
     7
 79
     5
170
     0
171
     0
290
     0
174
     0
 93
        1
 44
0.0
173
     0
291
     1
 45
0.0
1001
ACAD
1000
AcDbSavedByObjectVersion
1070
     0
  0
VISUALSTYLE
  5
33
102
{ACAD_REACTORS
330
2A
102
}
102
{ACAD_XDICTIONARY
360
4CB
102
}
330
2A
100
AcDbVisualStyle
  2
Realistic
 70
     8
 71
     2
 72
     2
 73
     0
 90
        0
 40
-0.6
 41
-30.0
 62
     5
 63
     7
 74
     1
 91
        0
 64
     7
 65
   257
 75
     1
175
     1
 42
1.0
 92
        8
 66
     8
 43
1.0
 76
     1
 77
     6
 78
     2
 67
     7
 79
     5
170
     0
171
     0
290
     0
174
     0
 93
       13
 44
0.0
173
     0
291
     0
 45
0.0
1001
ACAD
1000
AcDbSavedByObjectVersion
1070
     0
  0
VISUALSTYLE
  5
37
102
{ACAD_REACTORS
330
2A
102
}
102
{ACAD_XDICTIONARY
360
4D3
102
}
330
2A
100
AcDbVisualStyle
  2
Thicken
 70
    13
 71
     2
 72
     2
 73
     0
 90
        0
 40
-0.6
 41
-30.0
 62
     5
 63
     7
 74
     1
 91
        4
 64
     7
 65
   257
 75
     1
175
     1
 42
1.0
 92
       12
 66
     7
 43
1.0
 76
     1
 77
     6
 78
     2
 67
     7
 79
     5
170
     0
171
     0
290
     0
174
     0
 93
        1
 44
0.0
173
     0
291
     1
 45
0.0
1001
ACAD
1000
AcDbSavedByObjectVersion
1070
     0
  0
DICTIONARYVAR
  5
4B9
102
{ACAD_REACTORS
330
4B6
102
}
330
4B6
100
DictionaryVariables
280
     0
  1
2
  0
DICTIONARYVAR
  5
4BA
102
{ACAD_REACTORS
330
4B6
102
}
330
4B6
100
DictionaryVariables
280
     0
  1
1
  0
DICTIONARY
  5
4DD
330
3D
100
AcDbDictionary
280
     1
281
     1
  3
ACAD_XREC_ROUNDTRIP
360
4DE
  0
DICTIONARY
  5
4DB
330
3C
100
AcDbDictionary
280
     1
281
     1
  3
ACAD_XREC_ROUNDTRIP
360
4DC
  0
DICTIONARY
  5
4DF
330
3E
100
AcDbDictionary
280
     1
281
     1
  3
ACAD_XREC_ROUNDTRIP
360
4E0
  0
DICTIONARY
  5
4C3
330
2F
100
AcDbDictionary
280
     1
281
     1
  3
ACAD_XREC_ROUNDTRIP
360
4C4
  0
DICTIONARY
  5
4C7
330
31
100
AcDbDictionary
280
     1
281
     1
  3
ACAD_XREC_ROUNDTRIP
360
4C8
  0
DICTIONARY
  5
4C5
330
30
100
AcDbDictionary
280
     1
281
     1
  3
ACAD_XREC_ROUNDTRIP
360
4C6
  0
DICTIONARY
  5
4C9
330
32
100
AcDbDictionary
280
     1
281
     1
  3
ACAD_XREC_ROUNDTRIP
360
4CA
  0
DICTIONARY
  5
4D1
330
36
100
AcDbDictionary
280
     1
281
     1
  3
ACAD_XREC_ROUNDTRIP
360
4D2
  0
DICTIONARY
  5
4D9
330
3A
100
AcDbDictionary
280
     1
281
     1
  3
ACAD_XREC_ROUNDTRIP
360
4DA
  0
DICTIONARY
  5
4CD
330
34
100
AcDbDictionary
280
     1
281
     1
  3
ACAD_XREC_ROUNDTRIP
360
4CE
  0
DICTIONARY
  5
4CF
330
35
100
AcDbDictionary
280
     1
281
     1
  3
ACAD_XREC_ROUNDTRIP
360
4D0
  0
DICTIONARY
  5
4D7
330
39
100
AcDbDictionary
280
     1
281
     1
  3
ACAD_XREC_ROUNDTRIP
360
4D8
  0
DICTIONARY
  5
4BB
330
2B
100
AcDbDictionary
280
     1
281
     1
  3
ACAD_XREC_ROUNDTRIP
360
4BC
  0
DICTIONARY
  5
4BD
330
2C
100
AcDbDictionary
280
     1
281
     1
  3
ACAD_XREC_ROUNDTRIP
360
4BE
  0
DICTIONARY
  5
4BF
330
2D
100
AcDbDictionary
280
     1
281
     1
  3
ACAD_XREC_ROUNDTRIP
360
4C0
  0
DICTIONARY
  5
4C1
330
2E
100
AcDbDictionary
280
     1
281
     1
  3
ACAD_XREC_ROUNDTRIP
360
4C2
  0
DICTIONARY
  5
4D5
330
38
100
AcDbDictionary
280
     1
281
     1
  3
ACAD_XREC_ROUNDTRIP
360
4D6
  0
DICTIONARY
  5
4CB
330
33
100
AcDbDictionary
280
     1
281
     1
  3
ACAD_XREC_ROUNDTRIP
360
4CC
  0
DICTIONARY
  5
4D3
330
37
100
AcDbDictionary
280
     1
281
     1
  3
ACAD_XREC_ROUNDTRIP
360
4D4
  0
XRECORD
  5
4DE
102
{ACAD_REACTORS
330
4DD
102
}
330
4DD
100
AcDbXrecord
280
     1
102
MATERIAL
148
0.0
149
0.0
149
0.0
 93
        0
 94
      127
282
     0
 72
     1
 77
     1
171
     1
175
     1
179
     1
273
     0
  0
XRECORD
  5
4DC
102
{ACAD_REACTORS
330
4DB
102
}
330
4DB
100
AcDbXrecord
280
     1
102
MATERIAL
148
0.0
149
0.0
149
0.0
 93
        0
 94
      127
282
     0
 72
     1
 77
     1
171
     1
175
     1
179
     1
273
     0
  0
XRECORD
  5
4E0
102
{ACAD_REACTORS
330
4DF
102
}
330
4DF
100
AcDbXrecord
280
     1
102
MATERIAL
148
0.0
149
0.0
149
0.0
 93
        0
 94
      127
282
     0
 72
     1
 77
     1
171
     1
175
     1
179
     1
273
     0
  0
XRECORD
  5
4C4
102
{ACAD_REACTORS
330
4C3
102
}
330
4C3
100
AcDbXrecord
280
     1
102
RTVSPropertyOp0
 70
     1
102
RTVSPropertyOp1
 70
     1
102
RTVSPropertyOp2
 70
     1
102
RTVSPropertyOp3
 70
     1
102
RTVSPropertyOp4
 70
     1
102
RTVSPropertyOp5
 70
     1
102
RTVSPropertyOp6
 70
     1
102
RTVSPropertyOp7
 70
     1
102
RTVSPropertyOp8
 70
     1
102
RTVSPropertyOp9
 70
     1
102
RTVSPropertyOp10
 70
     1
102
RTVSPropertyOp11
 70
     1
102
RTVSPropertyOp12
 70
     1
102
RTVSPropertyOp13
 70
     1
102
RTVSPropertyOp14
 70
     1
102
RTVSPropertyOp15
 70
     1
102
RTVSPropertyOp16
 70
     1
102
RTVSPropertyOp17
 70
     1
102
RTVSPropertyOp18
 70
     1
102
RTVSPropertyOp19
 70
     1
102
RTVSPropertyOp20
 70
     1
102
RTVSPropertyOp21
 70
     1
102
RTVSPropertyOp22
 70
     1
102
RTVSPropertyOp23
 70
     1
102
RTVSPropertyOp24
 70
     1
102
RTVSPropertyOp25
 70
     1
102
RTVSPropertyOp26
 70
     1
102
RTVSPropertyOp27
 70
     1
102
RTVSPropertyOp28
 70
     1
102
RTVSPropertyOp29
 70
     1
102
RTVSPropertyOp30
 70
     1
102
RTVSPropertyOp31
 70
     1
102
RTVSPropertyOp32
 70
     1
  0
XRECORD
  5
4C8
102
{ACAD_REACTORS
330
4C7
102
}
330
4C7
100
AcDbXrecord
280
     1
102
RTVSPropertyOp0
 70
     1
102
RTVSPropertyOp1
 70
     1
102
RTVSPropertyOp2
 70
     1
102
RTVSPropertyOp3
 70
     1
102
RTVSPropertyOp4
 70
     1
102
RTVSPropertyOp5
 70
     1
102
RTVSPropertyOp6
 70
     1
102
RTVSPropertyOp7
 70
     1
102
RTVSPropertyOp8
 70
     1
102
RTVSPropertyOp9
 70
     1
102
RTVSPropertyOp10
 70
     1
102
RTVSPropertyOp11
 70
     1
102
RTVSPropertyOp12
 70
     1
102
RTVSPropertyOp13
 70
     1
102
RTVSPropertyOp14
 70
     1
102
RTVSPropertyOp15
 70
     1
102
RTVSPropertyOp16
 70
     1
102
RTVSPropertyOp17
 70
     1
102
RTVSPropertyOp18
 70
     1
102
RTVSPropertyOp19
 70
     1
102
RTVSPropertyOp20
 70
     1
102
RTVSPropertyOp21
 70
     1
102
RTVSPropertyOp22
 70
     1
102
RTVSPropertyOp23
 70
     1
102
RTVSPropertyOp24
 70
     1
102
RTVSPropertyOp25
 70
     1
102
RTVSPropertyOp26
 70
     1
102
RTVSPropertyOp27
 70
     1
102
RTVSPropertyOp28
 70
     1
102
RTVSPropertyOp29
 70
     1
102
RTVSPropertyOp30
 70
     1
102
RTVSPropertyOp31
 70
     1
102
RTVSPropertyOp32
 70
     1
  0
XRECORD
  5
4C6
102
{ACAD_REACTORS
330
4C5
102
}
330
4C5
100
AcDbXrecord
280
     1
102
RTVSPropertyOp0
 70
     1
102
RTVSPropertyOp1
 70
     1
102
RTVSPropertyOp2
 70
     1
102
RTVSPropertyOp3
 70
     1
102
RTVSPropertyOp4
 70
     1
102
RTVSPropertyOp5
 70
     1
102
RTVSPropertyOp6
 70
     1
102
RTVSPropertyOp7
 70
     1
102
RTVSPropertyOp8
 70
     1
102
RTVSPropertyOp9
 70
     1
102
RTVSPropertyOp10
 70
     1
102
RTVSPropertyOp11
 70
     1
102
RTVSPropertyOp12
 70
     1
102
RTVSPropertyOp13
 70
     1
102
RTVSPropertyOp14
 70
     1
102
RTVSPropertyOp15
 70
     1
102
RTVSPropertyOp16
 70
     1
102
RTVSPropertyOp17
 70
     1
102
RTVSPropertyOp18
 70
     1
102
RTVSPropertyOp19
 70
     1
102
RTVSPropertyOp20
 70
     1
102
RTVSPropertyOp21
 70
     1
102
RTVSPropertyOp22
 70
     1
102
RTVSPropertyOp23
 70
     1
102
RTVSPropertyOp24
 70
     1
102
RTVSPropertyOp25
 70
     1
102
RTVSPropertyOp26
 70
     1
102
RTVSPropertyOp27
 70
     1
102
RTVSPropertyOp28
 70
     1
102
RTVSPropertyOp29
 70
     1
102
RTVSPropertyOp30
 70
     1
102
RTVSPropertyOp31
 70
     1
102
RTVSPropertyOp32
 70
     1
  0
XRECORD
  5
4CA
102
{ACAD_REACTORS
330
4C9
102
}
330
4C9
100
AcDbXrecord
280
     1
102
RTVSPropertyOp0
 70
     1
102
RTVSPropertyOp1
 70
     1
102
RTVSPropertyOp2
 70
     1
102
RTVSPropertyOp3
 70
     1
102
RTVSPropertyOp4
 70
     1
102
RTVSPropertyOp5
 70
     1
102
RTVSPropertyOp6
 70
     1
102
RTVSPropertyOp7
 70
     1
102
RTVSPropertyOp8
 70
     1
102
RTVSPropertyOp9
 70
     1
102
RTVSPropertyOp10
 70
     1
102
RTVSPropertyOp11
 70
     1
102
RTVSPropertyOp12
 70
     1
102
RTVSPropertyOp13
 70
     1
102
RTVSPropertyOp14
 70
     1
102
RTVSPropertyOp15
 70
     1
102
RTVSPropertyOp16
 70
     1
102
RTVSPropertyOp17
 70
     1
102
RTVSPropertyOp18
 70
     1
102
RTVSPropertyOp19
 70
     1
102
RTVSPropertyOp20
 70
     1
102
RTVSPropertyOp21
 70
     1
102
RTVSPropertyOp22
 70
     1
102
RTVSPropertyOp23
 70
     1
102
RTVSPropertyOp24
 70
     1
102
RTVSPropertyOp25
 70
     1
102
RTVSPropertyOp26
 70
     1
102
RTVSPropertyOp27
 70
     1
102
RTVSPropertyOp28
 70
     1
102
RTVSPropertyOp29
 70
     1
102
RTVSPropertyOp30
 70
     1
102
RTVSPropertyOp31
 70
     1
102
RTVSPropertyOp32
 70
     1
  0
XRECORD
  5
4D2
102
{ACAD_REACTORS
330
4D1
102
}
330
4D1
100
AcDbXrecord
280
     1
102
RTVSPropertyOp0
 70
     1
102
RTVSPropertyOp1
 70
     1
102
RTVSPropertyOp2
 70
     1
102
RTVSPropertyOp3
 70
     1
102
RTVSPropertyOp4
 70
     1
102
RTVSPropertyOp5
 70
     1
102
RTVSPropertyOp6
 70
     1
102
RTVSPropertyOp7
 70
     1
102
RTVSPropertyOp8
 70
     1
102
RTVSPropertyOp9
 70
     1
102
RTVSPropertyOp10
 70
     1
102
RTVSPropertyOp11
 70
     1
102
RTVSPropertyOp12
 70
     1
102
RTVSPropertyOp13
 70
     1
102
RTVSPropertyOp14
 70
     1
102
RTVSPropertyOp15
 70
     1
102
RTVSPropertyOp16
 70
     1
102
RTVSPropertyOp17
 70
     1
102
RTVSPropertyOp18
 70
     1
102
RTVSPropertyOp19
 70
     1
102
RTVSPropertyOp20
 70
     1
102
RTVSPropertyOp21
 70
     1
102
RTVSPropertyOp22
 70
     1
102
RTVSPropertyOp23
 70
     1
102
RTVSPropertyOp24
 70
     1
102
RTVSPropertyOp25
 70
     1
102
RTVSPropertyOp26
 70
     1
102
RTVSPropertyOp27
 70
     1
102
RTVSPropertyOp28
 70
     1
102
RTVSPropertyOp29
 70
     1
102
RTVSPropertyOp30
 70
     1
102
RTVSPropertyOp31
 70
     1
102
RTVSPropertyOp32
 70
     1
  0
XRECORD
  5
4DA
102
{ACAD_REACTORS
330
4D9
102
}
330
4D9
100
AcDbXrecord
280
     1
102
RTVSPropertyOp0
 70
     1
102
RTVSPropertyOp1
 70
     1
102
RTVSPropertyOp2
 70
     1
102
RTVSPropertyOp3
 70
     1
102
RTVSPropertyOp4
 70
     1
102
RTVSPropertyOp5
 70
     1
102
RTVSPropertyOp6
 70
     1
102
RTVSPropertyOp7
 70
     1
102
RTVSPropertyOp8
 70
     1
102
RTVSPropertyOp9
 70
     1
102
RTVSPropertyOp10
 70
     1
102
RTVSPropertyOp11
 70
     1
102
RTVSPropertyOp12
 70
     1
102
RTVSPropertyOp13
 70
     1
102
RTVSPropertyOp14
 70
     1
102
RTVSPropertyOp15
 70
     1
102
RTVSPropertyOp16
 70
     1
102
RTVSPropertyOp17
 70
     1
102
RTVSPropertyOp18
 70
     1
102
RTVSPropertyOp19
 70
     1
102
RTVSPropertyOp20
 70
     1
102
RTVSPropertyOp21
 70
     1
102
RTVSPropertyOp22
 70
     1
102
RTVSPropertyOp23
 70
     1
102
RTVSPropertyOp24
 70
     1
102
RTVSPropertyOp25
 70
     1
102
RTVSPropertyOp26
 70
     1
102
RTVSPropertyOp27
 70
     1
102
RTVSPropertyOp28
 70
     1
102
RTVSPropertyOp29
 70
     1
102
RTVSPropertyOp30
 70
     1
102
RTVSPropertyOp31
 70
     1
102
RTVSPropertyOp32
 70
     1
  0
XRECORD
  5
4CE
102
{ACAD_REACTORS
330
4CD
102
}
330
4CD
100
AcDbXrecord
280
     1
102
RTVSPropertyOp0
 70
     1
102
RTVSPropertyOp1
 70
     1
102
RTVSPropertyOp2
 70
     1
102
RTVSPropertyOp3
 70
     1
102
RTVSPropertyOp4
 70
     1
102
RTVSPropertyOp5
 70
     1
102
RTVSPropertyOp6
 70
     1
102
RTVSPropertyOp7
 70
     1
102
RTVSPropertyOp8
 70
     1
102
RTVSPropertyOp9
 70
     1
102
RTVSPropertyOp10
 70
     1
102
RTVSPropertyOp11
 70
     1
102
RTVSPropertyOp12
 70
     1
102
RTVSPropertyOp13
 70
     1
102
RTVSPropertyOp14
 70
     1
102
RTVSPropertyOp15
 70
     1
102
RTVSPropertyOp16
 70
     1
102
RTVSPropertyOp17
 70
     1
102
RTVSPropertyOp18
 70
     1
102
RTVSPropertyOp19
 70
     1
102
RTVSPropertyOp20
 70
     1
102
RTVSPropertyOp21
 70
     1
102
RTVSPropertyOp22
 70
     1
102
RTVSPropertyOp23
 70
     1
102
RTVSPropertyOp24
 70
     1
102
RTVSPropertyOp25
 70
     1
102
RTVSPropertyOp26
 70
     1
102
RTVSPropertyOp27
 70
     1
102
RTVSPropertyOp28
 70
     1
102
RTVSPropertyOp29
 70
     1
102
RTVSPropertyOp30
 70
     1
102
RTVSPropertyOp31
 70
     1
102
RTVSPropertyOp32
 70
     1
  0
XRECORD
  5
4D0
102
{ACAD_REACTORS
330
4CF
102
}
330
4CF
100
AcDbXrecord
280
     1
102
RTVSPropertyOp0
 70
     1
102
RTVSPropertyOp1
 70
     1
102
RTVSPropertyOp2
 70
     1
102
RTVSPropertyOp3
 70
     1
102
RTVSPropertyOp4
 70
     1
102
RTVSPropertyOp5
 70
     1
102
RTVSPropertyOp6
 70
     1
102
RTVSPropertyOp7
 70
     1
102
RTVSPropertyOp8
 70
     1
102
RTVSPropertyOp9
 70
     1
102
RTVSPropertyOp10
 70
     1
102
RTVSPropertyOp11
 70
     1
102
RTVSPropertyOp12
 70
     1
102
RTVSPropertyOp13
 70
     1
102
RTVSPropertyOp14
 70
     1
102
RTVSPropertyOp15
 70
     1
102
RTVSPropertyOp16
 70
     1
102
RTVSPropertyOp17
 70
     1
102
RTVSPropertyOp18
 70
     1
102
RTVSPropertyOp19
 70
     1
102
RTVSPropertyOp20
 70
     1
102
RTVSPropertyOp21
 70
     1
102
RTVSPropertyOp22
 70
     1
102
RTVSPropertyOp23
 70
     1
102
RTVSPropertyOp24
 70
     1
102
RTVSPropertyOp25
 70
     1
102
RTVSPropertyOp26
 70
     1
102
RTVSPropertyOp27
 70
     1
102
RTVSPropertyOp28
 70
     1
102
RTVSPropertyOp29
 70
     1
102
RTVSPropertyOp30
 70
     1
102
RTVSPropertyOp31
 70
     1
102
RTVSPropertyOp32
 70
     1
  0
XRECORD
  5
4D8
102
{ACAD_REACTORS
330
4D7
102
}
330
4D7
100
AcDbXrecord
280
     1
102
RTVSPropertyOp0
 70
     1
102
RTVSPropertyOp1
 70
     1
102
RTVSPropertyOp2
 70
     1
102
RTVSPropertyOp3
 70
     1
102
RTVSPropertyOp4
 70
     1
102
RTVSPropertyOp5
 70
     1
102
RTVSPropertyOp6
 70
     1
102
RTVSPropertyOp7
 70
     1
102
RTVSPropertyOp8
 70
     1
102
RTVSPropertyOp9
 70
     1
102
RTVSPropertyOp10
 70
     1
102
RTVSPropertyOp11
 70
     1
102
RTVSPropertyOp12
 70
     1
102
RTVSPropertyOp13
 70
     1
102
RTVSPropertyOp14
 70
     1
102
RTVSPropertyOp15
 70
     1
102
RTVSPropertyOp16
 70
     1
102
RTVSPropertyOp17
 70
     1
102
RTVSPropertyOp18
 70
     1
102
RTVSPropertyOp19
 70
     1
102
RTVSPropertyOp20
 70
     1
102
RTVSPropertyOp21
 70
     1
102
RTVSPropertyOp22
 70
     1
102
RTVSPropertyOp23
 70
     1
102
RTVSPropertyOp24
 70
     1
102
RTVSPropertyOp25
 70
     1
102
RTVSPropertyOp26
 70
     1
102
RTVSPropertyOp27
 70
     1
102
RTVSPropertyOp28
 70
     1
102
RTVSPropertyOp29
 70
     1
102
RTVSPropertyOp30
 70
     1
102
RTVSPropertyOp31
 70
     1
102
RTVSPropertyOp32
 70
     1
  0
XRECORD
  5
4BC
102
{ACAD_REACTORS
330
4BB
102
}
330
4BB
100
AcDbXrecord
280
     1
102
RTVSPropertyOp0
 70
     1
102
RTVSPropertyOp1
 70
     1
102
RTVSPropertyOp2
 70
     1
102
RTVSPropertyOp3
 70
     1
102
RTVSPropertyOp4
 70
     1
102
RTVSPropertyOp5
 70
     1
102
RTVSPropertyOp6
 70
     1
102
RTVSPropertyOp7
 70
     1
102
RTVSPropertyOp8
 70
     1
102
RTVSPropertyOp9
 70
     1
102
RTVSPropertyOp10
 70
     1
102
RTVSPropertyOp11
 70
     1
102
RTVSPropertyOp12
 70
     1
102
RTVSPropertyOp13
 70
     1
102
RTVSPropertyOp14
 70
     1
102
RTVSPropertyOp15
 70
     1
102
RTVSPropertyOp16
 70
     1
102
RTVSPropertyOp17
 70
     1
102
RTVSPropertyOp18
 70
     1
102
RTVSPropertyOp19
 70
     1
102
RTVSPropertyOp20
 70
     1
102
RTVSPropertyOp21
 70
     1
102
RTVSPropertyOp22
 70
     1
102
RTVSPropertyOp23
 70
     1
102
RTVSPropertyOp24
 70
     1
102
RTVSPropertyOp25
 70
     1
102
RTVSPropertyOp26
 70
     1
102
RTVSPropertyOp27
 70
     1
102
RTVSPropertyOp28
 70
     1
102
RTVSPropertyOp29
 70
     1
102
RTVSPropertyOp30
 70
     1
102
RTVSPropertyOp31
 70
     1
102
RTVSPropertyOp32
 70
     1
  0
XRECORD
  5
4BE
102
{ACAD_REACTORS
330
4BD
102
}
330
4BD
100
AcDbXrecord
280
     1
102
RTVSPropertyOp0
 70
     1
102
RTVSPropertyOp1
 70
     1
102
RTVSPropertyOp2
 70
     1
102
RTVSPropertyOp3
 70
     1
102
RTVSPropertyOp4
 70
     1
102
RTVSPropertyOp5
 70
     1
102
RTVSPropertyOp6
 70
     1
102
RTVSPropertyOp7
 70
     1
102
RTVSPropertyOp8
 70
     1
102
RTVSPropertyOp9
 70
     1
102
RTVSPropertyOp10
 70
     1
102
RTVSPropertyOp11
 70
     1
102
RTVSPropertyOp12
 70
     1
102
RTVSPropertyOp13
 70
     1
102
RTVSPropertyOp14
 70
     1
102
RTVSPropertyOp15
 70
     1
102
RTVSPropertyOp16
 70
     1
102
RTVSPropertyOp17
 70
     1
102
RTVSPropertyOp18
 70
     1
102
RTVSPropertyOp19
 70
     1
102
RTVSPropertyOp20
 70
     1
102
RTVSPropertyOp21
 70
     1
102
RTVSPropertyOp22
 70
     1
102
RTVSPropertyOp23
 70
     1
102
RTVSPropertyOp24
 70
     1
102
RTVSPropertyOp25
 70
     1
102
RTVSPropertyOp26
 70
     1
102
RTVSPropertyOp27
 70
     1
102
RTVSPropertyOp28
 70
     1
102
RTVSPropertyOp29
 70
     1
102
RTVSPropertyOp30
 70
     1
102
RTVSPropertyOp31
 70
     1
102
RTVSPropertyOp32
 70
     1
  0
XRECORD
  5
4C0
102
{ACAD_REACTORS
330
4BF
102
}
330
4BF
100
AcDbXrecord
280
     1
102
RTVSPropertyOp0
 70
     1
102
RTVSPropertyOp1
 70
     1
102
RTVSPropertyOp2
 70
     1
102
RTVSPropertyOp3
 70
     1
102
RTVSPropertyOp4
 70
     1
102
RTVSPropertyOp5
 70
     1
102
RTVSPropertyOp6
 70
     1
102
RTVSPropertyOp7
 70
     1
102
RTVSPropertyOp8
 70
     1
102
RTVSPropertyOp9
 70
     1
102
RTVSPropertyOp10
 70
     1
102
RTVSPropertyOp11
 70
     1
102
RTVSPropertyOp12
 70
     1
102
RTVSPropertyOp13
 70
     1
102
RTVSPropertyOp14
 70
     1
102
RTVSPropertyOp15
 70
     1
102
RTVSPropertyOp16
 70
     1
102
RTVSPropertyOp17
 70
     1
102
RTVSPropertyOp18
 70
     1
102
RTVSPropertyOp19
 70
     1
102
RTVSPropertyOp20
 70
     1
102
RTVSPropertyOp21
 70
     1
102
RTVSPropertyOp22
 70
     1
102
RTVSPropertyOp23
 70
     1
102
RTVSPropertyOp24
 70
     1
102
RTVSPropertyOp25
 70
     1
102
RTVSPropertyOp26
 70
     1
102
RTVSPropertyOp27
 70
     1
102
RTVSPropertyOp28
 70
     1
102
RTVSPropertyOp29
 70
     1
102
RTVSPropertyOp30
 70
     1
102
RTVSPropertyOp31
 70
     1
102
RTVSPropertyOp32
 70
     1
  0
XRECORD
  5
4C2
102
{ACAD_REACTORS
330
4C1
102
}
330
4C1
100
AcDbXrecord
280
     1
102
RTVSPropertyOp0
 70
     1
102
RTVSPropertyOp1
 70
     1
102
RTVSPropertyOp2
 70
     1
102
RTVSPropertyOp3
 70
     1
102
RTVSPropertyOp4
 70
     1
102
RTVSPropertyOp5
 70
     1
102
RTVSPropertyOp6
 70
     1
102
RTVSPropertyOp7
 70
     1
102
RTVSPropertyOp8
 70
     1
102
RTVSPropertyOp9
 70
     1
102
RTVSPropertyOp10
 70
     1
102
RTVSPropertyOp11
 70
     1
102
RTVSPropertyOp12
 70
     1
102
RTVSPropertyOp13
 70
     1
102
RTVSPropertyOp14
 70
     1
102
RTVSPropertyOp15
 70
     1
102
RTVSPropertyOp16
 70
     1
102
RTVSPropertyOp17
 70
     1
102
RTVSPropertyOp18
 70
     1
102
RTVSPropertyOp19
 70
     1
102
RTVSPropertyOp20
 70
     1
102
RTVSPropertyOp21
 70
     1
102
RTVSPropertyOp22
 70
     1
102
RTVSPropertyOp23
 70
     1
102
RTVSPropertyOp24
 70
     1
102
RTVSPropertyOp25
 70
     1
102
RTVSPropertyOp26
 70
     1
102
RTVSPropertyOp27
 70
     1
102
RTVSPropertyOp28
 70
     1
102
RTVSPropertyOp29
 70
     1
102
RTVSPropertyOp30
 70
     1
102
RTVSPropertyOp31
 70
     1
102
RTVSPropertyOp32
 70
     1
  0
XRECORD
  5
4D6
102
{ACAD_REACTORS
330
4D5
102
}
330
4D5
100
AcDbXrecord
280
     1
102
RTVSPropertyOp0
 70
     1
102
RTVSPropertyOp1
 70
     1
102
RTVSPropertyOp2
 70
     1
102
RTVSPropertyOp3
 70
     1
102
RTVSPropertyOp4
 70
     1
102
RTVSPropertyOp5
 70
     1
102
RTVSPropertyOp6
 70
     1
102
RTVSPropertyOp7
 70
     1
102
RTVSPropertyOp8
 70
     1
102
RTVSPropertyOp9
 70
     1
102
RTVSPropertyOp10
 70
     1
102
RTVSPropertyOp11
 70
     1
102
RTVSPropertyOp12
 70
     1
102
RTVSPropertyOp13
 70
     1
102
RTVSPropertyOp14
 70
     1
102
RTVSPropertyOp15
 70
     1
102
RTVSPropertyOp16
 70
     1
102
RTVSPropertyOp17
 70
     1
102
RTVSPropertyOp18
 70
     1
102
RTVSPropertyOp19
 70
     1
102
RTVSPropertyOp20
 70
     1
102
RTVSPropertyOp21
 70
     1
102
RTVSPropertyOp22
 70
     1
102
RTVSPropertyOp23
 70
     1
102
RTVSPropertyOp24
 70
     1
102
RTVSPropertyOp25
 70
     1
102
RTVSPropertyOp26
 70
     1
102
RTVSPropertyOp27
 70
     1
102
RTVSPropertyOp28
 70
     1
102
RTVSPropertyOp29
 70
     1
102
RTVSPropertyOp30
 70
     1
102
RTVSPropertyOp31
 70
     1
102
RTVSPropertyOp32
 70
     1
  0
XRECORD
  5
4CC
102
{ACAD_REACTORS
330
4CB
102
}
330
4CB
100
AcDbXrecord
280
     1
102
RTVSPropertyOp0
 70
     1
102
RTVSPropertyOp1
 70
     1
102
RTVSPropertyOp2
 70
     1
102
RTVSPropertyOp3
 70
     1
102
RTVSPropertyOp4
 70
     1
102
RTVSPropertyOp5
 70
     1
102
RTVSPropertyOp6
 70
     1
102
RTVSPropertyOp7
 70
     1
102
RTVSPropertyOp8
 70
     1
102
RTVSPropertyOp9
 70
     1
102
RTVSPropertyOp10
 70
     1
102
RTVSPropertyOp11
 70
     1
102
RTVSPropertyOp12
 70
     1
102
RTVSPropertyOp13
 70
     1
102
RTVSPropertyOp14
 70
     1
102
RTVSPropertyOp15
 70
     1
102
RTVSPropertyOp16
 70
     1
102
RTVSPropertyOp17
 70
     1
102
RTVSPropertyOp18
 70
     1
102
RTVSPropertyOp19
 70
     1
102
RTVSPropertyOp20
 70
     1
102
RTVSPropertyOp21
 70
     1
102
RTVSPropertyOp22
 70
     1
102
RTVSPropertyOp23
 70
     1
102
RTVSPropertyOp24
 70
     1
102
RTVSPropertyOp25
 70
     1
102
RTVSPropertyOp26
 70
     1
102
RTVSPropertyOp27
 70
     1
102
RTVSPropertyOp28
 70
     1
102
RTVSPropertyOp29
 70
     1
102
RTVSPropertyOp30
 70
     1
102
RTVSPropertyOp31
 70
     1
102
RTVSPropertyOp32
 70
     1
  0
XRECORD
  5
4D4
102
{ACAD_REACTORS
330
4D3
102
}
330
4D3
100
AcDbXrecord
280
     1
102
RTVSPropertyOp0
 70
     1
102
RTVSPropertyOp1
 70
     1
102
RTVSPropertyOp2
 70
     1
102
RTVSPropertyOp3
 70
     1
102
RTVSPropertyOp4
 70
     1
102
RTVSPropertyOp5
 70
     1
102
RTVSPropertyOp6
 70
     1
102
RTVSPropertyOp7
 70
     1
102
RTVSPropertyOp8
 70
     1
102
RTVSPropertyOp9
 70
     1
102
RTVSPropertyOp10
 70
     1
102
RTVSPropertyOp11
 70
     1
102
RTVSPropertyOp12
 70
     1
102
RTVSPropertyOp13
 70
     1
102
RTVSPropertyOp14
 70
     1
102
RTVSPropertyOp15
 70
     1
102
RTVSPropertyOp16
 70
     1
102
RTVSPropertyOp17
 70
     1
102
RTVSPropertyOp18
 70
     1
102
RTVSPropertyOp19
 70
     1
102
RTVSPropertyOp20
 70
     1
102
RTVSPropertyOp21
 70
     1
102
RTVSPropertyOp22
 70
     1
102
RTVSPropertyOp23
 70
     1
102
RTVSPropertyOp24
 70
     1
102
RTVSPropertyOp25
 70
     1
102
RTVSPropertyOp26
 70
     1
102
RTVSPropertyOp27
 70
     1
102
RTVSPropertyOp28
 70
     1
102
RTVSPropertyOp29
 70
     1
102
RTVSPropertyOp30
 70
     1
102
RTVSPropertyOp31
 70
     1
102
RTVSPropertyOp32
 70
     1
  0
ENDSEC
  0
EOF
