  0
SECTION
  2
HEADER
  9
$ACADVER
  1
AC1015
  9
$ACADMAINTVER
 70
     6
  9
$DWGCODEPAGE
  3
ANSI_932
  9
$INSBASE
 10
0.0
 20
0.0
 30
0.0
  9
$EXTMIN
 10
0.0
 20
0.0
 30
0.0
  9
$EXTMAX
 10
525.0
 20
742.5
 30
0.0
  9
$LIMMIN
 10
0.0
 20
0.0
  9
$LIMMAX
 10
12.0
 20
9.0
  9
$ORTHOMODE
 70
     0
  9
$REGENMODE
 70
     1
  9
$FILLMODE
 70
     1
  9
$QTEXTMODE
 70
     0
  9
$MIRRTEXT
 70
     1
  9
$LTSCALE
 40
1.0
  9
$ATTMODE
 70
     1
  9
$TEXTSIZE
 40
0.2
  9
$TRACEWID
 40
0.05
  9
$TEXTSTYLE
  7
Standard
  9
$CLAYER
  8
0
  9
$CELTYPE
  6
ByLayer
  9
$CECOLOR
 62
   256
  9
$CELTSCALE
 40
1.0
  9
$DISPSILH
 70
     0
  9
$DIMSCALE
 40
1.0
  9
$DIMASZ
 40
0.18
  9
$DIMEXO
 40
0.0625
  9
$DIMDLI
 40
0.38
  9
$DIMRND
 40
0.0
  9
$DIMDLE
 40
0.0
  9
$DIMEXE
 40
0.18
  9
$DIMTP
 40
0.0
  9
$DIMTM
 40
0.0
  9
$DIMTXT
 40
0.18
  9
$DIMCEN
 40
0.09
  9
$DIMTSZ
 40
0.0
  9
$DIMTOL
 70
     0
  9
$DIMLIM
 70
     0
  9
$DIMTIH
 70
     1
  9
$DIMTOH
 70
     1
  9
$DIMSE1
 70
     0
  9
$DIMSE2
 70
     0
  9
$DIMTAD
 70
     0
  9
$DIMZIN
 70
     0
  9
$DIMBLK
  1

  9
$DIMASO
 70
     1
  9
$DIMSHO
 70
     1
  9
$DIMPOST
  1

  9
$DIMAPOST
  1

  9
$DIMALT
 70
     0
  9
$DIMALTD
 70
     2
  9
$DIMALTF
 40
25.4
  9
$DIMLFAC
 40
1.0
  9
$DIMTOFL
 70
     0
  9
$DIMTVP
 40
0.0
  9
$DIMTIX
 70
     0
  9
$DIMSOXD
 70
     0
  9
$DIMSAH
 70
     0
  9
$DIMBLK1
  1

  9
$DIMBLK2
  1

  9
$DIMSTYLE
  2
Standard
  9
$DIMCLRD
 70
     0
  9
$DIMCLRE
 70
     0
  9
$DIMCLRT
 70
     0
  9
$DIMTFAC
 40
1.0
  9
$DIMGAP
 40
0.09
  9
$DIMJUST
 70
     0
  9
$DIMSD1
 70
     0
  9
$DIMSD2
 70
     0
  9
$DIMTOLJ
 70
     1
  9
$DIMTZIN
 70
     0
  9
$DIMALTZ
 70
     0
  9
$DIMALTTZ
 70
     0
  9
$DIMUPT
 70
     0
  9
$DIMDEC
 70
     4
  9
$DIMTDEC
 70
     4
  9
$DIMALTU
 70
     2
  9
$DIMALTTD
 70
     2
  9
$DIMTXSTY
  7
Standard
  9
$DIMAUNIT
 70
     0
  9
$DIMADEC
 70
     0
  9
$DIMALTRND
 40
0.0
  9
$DIMAZIN
 70
     0
  9
$DIMDSEP
 70
    46
  9
$DIMATFIT
 70
     3
  9
$DIMFRAC
 70
     0
  9
$DIMLDRBLK
  1

  9
$DIMLUNIT
 70
     2
  9
$DIMLWD
 70
    -2
  9
$DIMLWE
 70
    -2
  9
$DIMTMOVE
 70
     0
  9
$LUNITS
 70
     2
  9
$LUPREC
 70
     4
  9
$SKETCHINC
 40
0.1
  9
$FILLETRAD
 40
0.5
  9
$AUNITS
 70
     0
  9
$AUPREC
 70
     0
  9
$MENU
  1
.
  9
$ELEVATION
 40
0.0
  9
$PELEVATION
 40
0.0
  9
$THICKNESS
 40
0.0
  9
$LIMCHECK
 70
     0
  9
$CHAMFERA
 40
0.5
  9
$CHAMFERB
 40
0.5
  9
$CHAMFERC
 40
1.0
  9
$CHAMFERD
 40
0.0
  9
$SKPOLY
 70
     0
  9
$TDCREATE
 40
2457186.570740498
  9
$TDUCREATE
 40
2457186.195740498
  9
$TDUPDATE
 40
2457186.570741771
  9
$TDUUPDATE
 40
2457186.195741771
  9
$TDINDWG
 40
0.0000000116
  9
$TDUSRTIMER
 40
0.0000000116
  9
$USRTIMER
 70
     1
  9
$ANGBASE
 50
0.0
  9
$ANGDIR
 70
     0
  9
$PDMODE
 70
     0
  9
$PDSIZE
 40
0.0
  9
$PLINEWID
 40
0.0
  9
$SPLFRAME
 70
     0
  9
$SPLINETYPE
 70
     6
  9
$SPLINESEGS
 70
     8
  9
$HANDSEED
  5
30B
  9
$SURFTAB1
 70
     6
  9
$SURFTAB2
 70
     6
  9
$SURFTYPE
 70
     6
  9
$SURFU
 70
     6
  9
$SURFV
 70
     6
  9
$UCSBASE
  2

  9
$UCSNAME
  2

  9
$UCSORG
 10
0.0
 20
0.0
 30
0.0
  9
$UCSXDIR
 10
1.0
 20
0.0
 30
0.0
  9
$UCSYDIR
 10
0.0
 20
1.0
 30
0.0
  9
$UCSORTHOREF
  2

  9
$UCSORTHOVIEW
 70
     0
  9
$UCSORGTOP
 10
0.0
 20
0.0
 30
0.0
  9
$UCSORGBOTTOM
 10
0.0
 20
0.0
 30
0.0
  9
$UCSORGLEFT
 10
0.0
 20
0.0
 30
0.0
  9
$UCSORGRIGHT
 10
0.0
 20
0.0
 30
0.0
  9
$UCSORGFRONT
 10
0.0
 20
0.0
 30
0.0
  9
$UCSORGBACK
 10
0.0
 20
0.0
 30
0.0
  9
$PUCSBASE
  2

  9
$PUCSNAME
  2

  9
$PUCSORG
 10
0.0
 20
0.0
 30
0.0
  9
$PUCSXDIR
 10
1.0
 20
0.0
 30
0.0
  9
$PUCSYDIR
 10
0.0
 20
1.0
 30
0.0
  9
$PUCSORTHOREF
  2

  9
$PUCSORTHOVIEW
 70
     0
  9
$PUCSORGTOP
 10
0.0
 20
0.0
 30
0.0
  9
$PUCSORGBOTTOM
 10
0.0
 20
0.0
 30
0.0
  9
$PUCSORGLEFT
 10
0.0
 20
0.0
 30
0.0
  9
$PUCSORGRIGHT
 10
0.0
 20
0.0
 30
0.0
  9
$PUCSORGFRONT
 10
0.0
 20
0.0
 30
0.0
  9
$PUCSORGBACK
 10
0.0
 20
0.0
 30
0.0
  9
$USERI1
 70
     0
  9
$USERI2
 70
     0
  9
$USERI3
 70
     0
  9
$USERI4
 70
     0
  9
$USERI5
 70
     0
  9
$USERR1
 40
18.1
  9
$USERR2
 40
0.0
  9
$USERR3
 40
0.0
  9
$USERR4
 40
0.0
  9
$USERR5
 40
0.0
  9
$WORLDVIEW
 70
     1
  9
$SHADEDGE
 70
     3
  9
$SHADEDIF
 70
    70
  9
$TILEMODE
 70
     1
  9
$MAXACTVP
 70
    64
  9
$PINSBASE
 10
0.0
 20
0.0
 30
0.0
  9
$PLIMCHECK
 70
     0
  9
$PEXTMIN
 10
1.00000000000000E+20
 20
1.00000000000000E+20
 30
1.00000000000000E+20
  9
$PEXTMAX
 10
-1.00000000000000E+20
 20
-1.00000000000000E+20
 30
-1.00000000000000E+20
  9
$PLIMMIN
 10
0.0
 20
0.0
  9
$PLIMMAX
 10
12.0
 20
9.0
  9
$UNITMODE
 70
     0
  9
$VISRETAIN
 70
     1
  9
$PLINEGEN
 70
     0
  9
$PSLTSCALE
 70
     1
  9
$TREEDEPTH
 70
  3020
  9
$CMLSTYLE
  2
Standard
  9
$CMLJUST
 70
     0
  9
$CMLSCALE
 40
1.0
  9
$PROXYGRAPHICS
 70
     1
  9
$MEASUREMENT
 70
     1
  9
$CELWEIGHT
370
    -1
  9
$ENDCAPS
280
     0
  9
$JOINSTYLE
280
     0
  9
$LWDISPLAY
290
     0
  9
$INSUNITS
 70
     4
  9
$HYPERLINKBASE
  1

  9
$STYLESHEET
  1

  9
$XEDIT
290
     1
  9
$CEPSNTYPE
380
     0
  9
$PSTYLEMODE
290
     1
  9
$FINGERPRINTGUID
  2
{B3BC07C3-8E77-40D4-956D-A0E76DBD78EC}
  9
$VERSIONGUID
  2
{FAEB1C32-E019-11D5-929B-00C0DF256EC4}
  9
$EXTNAMES
290
     1
  9
$PSVPSCALE
 40
0.0
  9
$OLESTARTUP
290
     0
  0
ENDSEC
  0
SECTION
  2
CLASSES
  0
CLASS
  1
ACDBDICTIONARYWDFLT
  2
AcDbDictionaryWithDefault
  3
ObjectDBX Classes
 90
        0
280
     0
281
     0
  0
CLASS
  1
VISUALSTYLE
  2
AcDbVisualStyle
  3
ObjectDBX Classes
 90
     4095
280
     0
281
     0
  0
CLASS
  1
MATERIAL
  2
AcDbMaterial
  3
ObjectDBX Classes
 90
     1153
280
     0
281
     0
  0
CLASS
  1
DICTIONARYVAR
  2
AcDbDictionaryVar
  3
ObjectDBX Classes
 90
        0
280
     0
281
     0
  0
CLASS
  1
ACDBPLACEHOLDER
  2
AcDbPlaceHolder
  3
ObjectDBX Classes
 90
        0
280
     0
281
     0
  0
CLASS
  1
LAYOUT
  2
AcDbLayout
  3
ObjectDBX Classes
 90
        0
280
     0
281
     0
  0
ENDSEC
  0
SECTION
  2
TABLES
  0
TABLE
  2
VPORT
  5
8
330
0
100
AcDbSymbolTable
 70
     1
  0
VPORT
  5
29
330
8
100
AcDbSymbolTableRecord
100
AcDbViewportTableRecord
  2
*Active
 70
     0
 10
0.0
 20
0.0
 11
1.0
 21
1.0
 12
262.5
 22
371.25
 13
0.0
 23
0.0
 14
0.5
 24
0.5
 15
0.5
 25
0.5
 16
0.0
 26
0.0
 36
1.0
 17
0.0
 27
0.0
 37
0.0
 40
816.7500000000001
 41
1.60267857142857
 42
50.0
 43
0.0
 44
0.0
 50
0.0
 51
0.0
 71
     0
 72
   100
 73
     1
 74
     3
 75
     0
 76
     0
 77
     0
 78
     0
281
     0
 65
     1
110
0.0
120
0.0
130
0.0
111
1.0
121
0.0
131
0.0
112
0.0
122
1.0
132
0.0
 79
     0
146
0.0
  0
ENDTAB
  0
TABLE
  2
LTYPE
  5
5
330
0
100
AcDbSymbolTable
 70
     8
  0
LTYPE
  5
14
330
5
100
AcDbSymbolTableRecord
100
AcDbLinetypeTableRecord
  2
ByBlock
 70
     0
  3

 72
    65
 73
     0
 40
0.0
  0
LTYPE
  5
15
330
5
100
AcDbSymbolTableRecord
100
AcDbLinetypeTableRecord
  2
ByLayer
 70
     0
  3

 72
    65
 73
     0
 40
0.0
  0
LTYPE
  5
16
330
5
100
AcDbSymbolTableRecord
100
AcDbLinetypeTableRecord
  2
Continuous
 70
     0
  3
Solid line
 72
    65
 73
     0
 40
0.0
  0
LTYPE
  5
3F
330
5
100
AcDbSymbolTableRecord
100
AcDbLinetypeTableRecord
  2
DASHED
 70
     0
  3
Dashed
 72
    65
 73
     2
 40
15.0
 49
7.0
 74
     0
 49
-8.0
 74
     0
  0
LTYPE
  5
40
330
5
100
AcDbSymbolTableRecord
100
AcDbLinetypeTableRecord
  2
DOTTED
 70
     0
  3
Dotted
 72
    65
 73
     2
 40
1.0
 49
0.0
 74
     0
 49
-1.0
 74
     0
  0
LTYPE
  5
41
330
5
100
AcDbSymbolTableRecord
100
AcDbLinetypeTableRecord
  2
DOT_CENTER
 70
     0
  3
Dot_Center
 72
    65
 73
     4
 40
14.0
 49
12.0
 74
     0
 49
-1.0
 74
     0
 49
0.0
 74
     0
 49
-1.0
 74
     0
  0
LTYPE
  5
42
330
5
100
AcDbSymbolTableRecord
100
AcDbLinetypeTableRecord
  2
LONG_DASHED
 70
     0
  3
Long_Dashed
 72
    65
 73
     2
 40
15.0
 49
10.0
 74
     0
 49
-5.0
 74
     0
  0
LTYPE
  5
43
330
5
100
AcDbSymbolTableRecord
100
AcDbLinetypeTableRecord
  2
DASH_CENTER
 70
     0
  3
Dash_Center
 72
    65
 73
     4
 40
14.0
 49
11.0
 74
     0
 49
-1.0
 74
     0
 49
1.0
 74
     0
 49
-1.0
 74
     0
  0
LTYPE
  5
44
330
5
100
AcDbSymbolTableRecord
100
AcDbLinetypeTableRecord
  2
PHANTOM
 70
     0
  3
Phantom
 72
    65
 73
     6
 40
13.0
 49
10.0
 74
     0
 49
-1.0
 74
     0
 49
0.0
 74
     0
 49
-1.0
 74
     0
 49
0.0
 74
     0
 49
-1.0
 74
     0
  0
LTYPE
  5
45
330
5
100
AcDbSymbolTableRecord
100
AcDbLinetypeTableRecord
  2
CENTER_DASH_DASH
 70
     0
  3
Center_Dash_Dash
 72
    65
 73
     6
 40
14.0
 49
9.0
 74
     0
 49
-1.0
 74
     0
 49
1.0
 74
     0
 49
-1.0
 74
     0
 49
1.0
 74
     0
 49
-1.0
 74
     0
  0
ENDTAB
  0
TABLE
  2
LAYER
  5
2
330
0
100
AcDbSymbolTable
 70
     2
  0
LAYER
  5
10
330
2
100
AcDbSymbolTableRecord
100
AcDbLayerTableRecord
  2
0
 70
     0
 62
     7
  6
Continuous
370
    -3
390
F
  0
LAYER
  5
46
330
2
100
AcDbSymbolTableRecord
100
AcDbLayerTableRecord
  2
1
 70
     0
 62
     7
  6
Continuous
370
    -3
390
F
  0
ENDTAB
  0
TABLE
  2
STYLE
  5
3
330
0
100
AcDbSymbolTable
 70
     3
  0
STYLE
  5
11
330
3
100
AcDbSymbolTableRecord
100
AcDbTextStyleTableRecord
  2
Standard
 70
     0
 40
0.0
 41
1.0
 50
0.0
 71
     0
 42
0.2
  3
txt
  4

  0
STYLE
  5
FA
330
3
100
AcDbSymbolTableRecord
100
AcDbTextStyleTableRecord
  2
CONVERTER_11
 70
     0
 40
0.0
 41
0.89
 50
0.0
 71
     0
 42
0.2
  3
MS Mincho.ttf
  4

1001
ACAD
1000
MS Mincho
1071
    32785
  0
STYLE
  5
293
330
3
100
AcDbSymbolTableRecord
100
AcDbTextStyleTableRecord
  2
CONVERTER_12
 70
     0
 40
0.0
 41
0.9
 50
0.0
 71
     0
 42
0.2
  3
txt.shx
  4

  0
ENDTAB
  0
TABLE
  2
VIEW
  5
6
330
0
100
AcDbSymbolTable
 70
     0
  0
ENDTAB
  0
TABLE
  2
UCS
  5
7
330
0
100
AcDbSymbolTable
 70
     0
  0
ENDTAB
  0
TABLE
  2
APPID
  5
9
330
0
100
AcDbSymbolTable
 70
     1
  0
APPID
  5
12
330
9
100
AcDbSymbolTableRecord
100
AcDbRegAppTableRecord
  2
ACAD
 70
     0
  0
ENDTAB
  0
TABLE
  2
DIMSTYLE
  5
A
330
0
100
AcDbSymbolTable
 70
     7
100
AcDbDimStyleTable
  0
DIMSTYLE
105
27
330
A
100
AcDbSymbolTableRecord
100
AcDbDimStyleTableRecord
  2
Standard
 70
     0
178
     0
340
11
  0
DIMSTYLE
105
2A3
102
{ACAD_REACTORS
330
2A4
102
}
330
A
100
AcDbSymbolTableRecord
100
AcDbDimStyleTableRecord
  2
ME10_DIM_10
 70
     0
 41
8.75
 42
0.0
 44
2.5
 73
     0
 74
     0
 77
     1
 78
     8
140
8.75
147
2.5
172
     1
173
     1
174
     1
175
     1
176
     2
177
     2
271
     2
178
     7
271
     2
340
FA
  0
DIMSTYLE
105
2AE
102
{ACAD_REACTORS
330
2AF
102
}
330
A
100
AcDbSymbolTableRecord
100
AcDbDimStyleTableRecord
  2
ME10_DIM_11
 70
     0
 41
8.75
 42
0.0
 44
2.5
 73
     0
 74
     0
 77
     1
 78
     8
140
8.75
147
2.5
172
     1
173
     1
174
     1
175
     1
176
     2
177
     2
271
     2
178
     7
271
     2
340
293
  0
DIMSTYLE
105
2B9
102
{ACAD_REACTORS
330
2BA
102
}
330
A
100
AcDbSymbolTableRecord
100
AcDbDimStyleTableRecord
  2
ME10_DIM_12
 70
     0
 41
8.75
 42
0.0
 44
2.5
 73
     0
 74
     0
 77
     1
 78
     8
140
8.75
147
2.5
172
     1
173
     1
174
     1
175
     1
176
     2
177
     2
271
     2
178
     7
271
     2
340
293
  0
DIMSTYLE
105
2C4
102
{ACAD_REACTORS
330
2C5
102
}
330
A
100
AcDbSymbolTableRecord
100
AcDbDimStyleTableRecord
  2
ME10_DIM_13
 70
     0
 41
8.75
 42
0.0
 44
2.5
 73
     0
 74
     0
 77
     1
 78
     8
140
8.75
147
2.5
172
     1
173
     1
174
     1
175
     1
176
     2
177
     2
271
     2
178
     7
271
     2
340
293
  0
DIMSTYLE
105
2D2
102
{ACAD_REACTORS
330
2D3
102
}
330
A
100
AcDbSymbolTableRecord
100
AcDbDimStyleTableRecord
  2
ME10_DIM_14
 70
     0
 41
7.5
 42
0.0
 44
2.5
 73
     0
 74
     0
 77
     1
 78
     8
140
8.75
147
2.5
172
     1
173
     1
174
     1
175
     1
176
     2
177
     2
271
     2
178
     7
271
     2
340
293
343
2CF
  0
DIMSTYLE
105
2DE
102
{ACAD_REACTORS
330
2DF
102
}
330
A
100
AcDbSymbolTableRecord
100
AcDbDimStyleTableRecord
  2
ME10_DIM_15
 70
     0
  3
{\Fgdt;n}<>
 41
8.75
 42
0.0
 44
2.5
 73
     0
 74
     0
 77
     1
 78
     8
140
8.75
147
2.5
172
     1
173
     1
174
     1
175
     1
176
     2
177
     2
271
     2
178
     7
271
     2
340
293
  0
ENDTAB
  0
TABLE
  2
BLOCK_RECORD
  5
1
330
0
100
AcDbSymbolTable
 70
    18
  0
BLOCK_RECORD
  5
1F
330
1
100
AcDbSymbolTableRecord
100
AcDbBlockTableRecord
  2
*Model_Space
340
22
  0
BLOCK_RECORD
  5
1B
330
1
100
AcDbSymbolTableRecord
100
AcDbBlockTableRecord
  2
*Paper_Space
340
1E
  0
BLOCK_RECORD
  5
23
330
1
100
AcDbSymbolTableRecord
100
AcDbBlockTableRecord
  2
*Paper_Space0
340
26
  0
BLOCK_RECORD
  5
47
330
1
100
AcDbSymbolTableRecord
100
AcDbBlockTableRecord
  2
A501-0-13
340
0
102
{BLKREFS
331
6B
102
}
  0
BLOCK_RECORD
  5
4A
330
1
100
AcDbSymbolTableRecord
100
AcDbBlockTableRecord
  2
開示A4
340
0
102
{BLKREFS
331
6C
102
}
  0
BLOCK_RECORD
  5
4D
330
1
100
AcDbSymbolTableRecord
100
AcDbBlockTableRecord
  2
36-1A-13
340
0
102
{BLKREFS
331
5A
102
}
  0
BLOCK_RECORD
  5
50
330
1
100
AcDbSymbolTableRecord
100
AcDbBlockTableRecord
  2
37-1-13
340
0
102
{BLKREFS
331
5B
102
}
  0
BLOCK_RECORD
  5
53
330
1
100
AcDbSymbolTableRecord
100
AcDbBlockTableRecord
  2
21-1C
340
0
102
{BLKREFS
331
5C
102
}
  0
BLOCK_RECORD
  5
56
330
1
100
AcDbSymbolTableRecord
100
AcDbBlockTableRecord
  2
42-1
340
0
102
{BLKREFS
331
5D
102
}
  0
BLOCK_RECORD
  5
59
330
1
100
AcDbSymbolTableRecord
100
AcDbBlockTableRecord
  2
R10A-13-B
340
0
102
{BLKREFS
331
6D
102
}
  0
BLOCK_RECORD
  5
60
330
1
100
AcDbSymbolTableRecord
100
AcDbBlockTableRecord
  2
61-1-16-170-M2K
340
0
102
{BLKREFS
331
67
102
}
  0
BLOCK_RECORD
  5
63
330
1
100
AcDbSymbolTableRecord
100
AcDbBlockTableRecord
  2
32-1-16
340
0
102
{BLKREFS
331
68
102
}
  0
BLOCK_RECORD
  5
66
330
1
100
AcDbSymbolTableRecord
100
AcDbBlockTableRecord
  2
61-1X-16-170
340
0
102
{BLKREFS
331
6E
102
}
  0
BLOCK_RECORD
  5
29A
330
1
100
AcDbSymbolTableRecord
100
AcDbBlockTableRecord
  2
*D11
340
0
  0
BLOCK_RECORD
  5
2A5
330
1
100
AcDbSymbolTableRecord
100
AcDbBlockTableRecord
  2
*D12
340
0
  0
BLOCK_RECORD
  5
2B0
330
1
100
AcDbSymbolTableRecord
100
AcDbBlockTableRecord
  2
*D13
340
0
  0
BLOCK_RECORD
  5
2BB
330
1
100
AcDbSymbolTableRecord
100
AcDbBlockTableRecord
  2
*D14
340
0
  0
BLOCK_RECORD
  5
2C6
330
1
100
AcDbSymbolTableRecord
100
AcDbBlockTableRecord
  2
*D15
340
0
  0
BLOCK_RECORD
  5
2CF
330
1
100
AcDbSymbolTableRecord
100
AcDbBlockTableRecord
  2
_NONE
340
0
  0
BLOCK_RECORD
  5
2D4
330
1
100
AcDbSymbolTableRecord
100
AcDbBlockTableRecord
  2
*D17
340
0
  0
ENDTAB
  0
ENDSEC
  0
SECTION
  2
BLOCKS
  0
BLOCK
  5
20
330
1F
100
AcDbEntity
  8
0
100
AcDbBlockBegin
  2
*Model_Space
 70
     0
 10
0.0
 20
0.0
 30
0.0
  3
*Model_Space
  1

  0
ENDBLK
  5
21
330
1F
100
AcDbEntity
  8
0
100
AcDbBlockEnd
  0
BLOCK
  5
1C
330
1B
100
AcDbEntity
 67
     1
  8
0
100
AcDbBlockBegin
  2
*Paper_Space
 70
     0
 10
0.0
 20
0.0
 30
0.0
  3
*Paper_Space
  1

  0
ENDBLK
  5
1D
330
1B
100
AcDbEntity
 67
     1
  8
0
100
AcDbBlockEnd
  0
BLOCK
  5
24
330
23
100
AcDbEntity
  8
0
100
AcDbBlockBegin
  2
*Paper_Space0
 70
     0
 10
0.0
 20
0.0
 30
0.0
  3
*Paper_Space0
  1

  0
ENDBLK
  5
25
330
23
100
AcDbEntity
  8
0
100
AcDbBlockEnd
  0
BLOCK
  5
48
330
47
100
AcDbEntity
  8
0
100
AcDbBlockBegin
  2
A501-0-13
 70
     0
 10
-169.5474130955639
 20
152.5843575197764
 30
0.0
  3
A501-0-13
  1

  0
LINE
  5
6F
330
47
100
AcDbEntity
  8
0
  6
Continuous
 62
     2
100
AcDbLine
 10
157.6395869044362
 20
246.0843575197763
 30
0.0
 11
157.6395869044362
 21
248.7463575197761
 31
0.0
  0
LINE
  5
70
330
47
100
AcDbEntity
  8
0
  6
Continuous
 62
     2
100
AcDbLine
 10
133.2655869044362
 20
248.7463575197761
 30
0.0
 11
133.2655869044361
 21
246.0843575197763
 31
0.0
  0
LINE
  5
71
330
47
100
AcDbEntity
  8
1
  6
Continuous
 62
     7
100
AcDbLine
 10
158.4525869044361
 20
246.0843575197763
 30
0.0
 11
132.4525869044361
 21
246.0843575197763
 31
0.0
  0
LINE
  5
72
330
47
100
AcDbEntity
  8
0
  6
Continuous
 62
     2
100
AcDbLine
 10
133.2655869044361
 20
246.0843575197763
 30
0.0
 11
132.4525869044361
 21
244.6762002132229
 31
0.0
  0
LINE
  5
73
330
47
100
AcDbEntity
  8
0
  6
Continuous
 62
     2
100
AcDbLine
 10
158.4525869044361
 20
244.6762002132229
 30
0.0
 11
157.6395869044362
 21
246.0843575197763
 31
0.0
  0
LINE
  5
74
330
47
100
AcDbEntity
  8
0
  6
Continuous
 62
     2
100
AcDbLine
 10
443.8634607983294
 20
185.5717144813814
 30
0.0
 11
442.7014607983293
 21
187.5843575197763
 31
0.0
  0
LINE
  5
75
330
47
100
AcDbEntity
  8
0
  6
Continuous
 62
     2
100
AcDbLine
 10
463.6564607983293
 20
187.5843575197763
 30
0.0
 11
462.4944607983292
 21
185.5717144813814
 31
0.0
  0
LINE
  5
76
330
47
100
AcDbEntity
  8
1
  6
Continuous
 62
     7
100
AcDbLine
 10
462.4944607983292
 20
172.5843575197764
 30
0.0
 11
459.9289607983293
 21
172.5843575197764
 31
0.0
  0
LINE
  5
77
330
47
100
AcDbEntity
  8
0
  6
Continuous
 62
     2
100
AcDbLine
 10
462.4944607983292
 20
172.5843575197764
 30
0.0
 11
462.4944607983292
 21
185.5717144813814
 31
0.0
  0
LINE
  5
78
330
47
100
AcDbEntity
  8
0
  6
Continuous
 62
     2
100
AcDbLine
 10
443.8634607983294
 20
185.5717144813814
 30
0.0
 11
443.8634607983294
 21
172.5843575197764
 31
0.0
  0
LINE
  5
79
330
47
100
AcDbEntity
  8
1
  6
Continuous
 62
     7
100
AcDbLine
 10
442.7014607983293
 20
173.7463575197764
 30
0.0
 11
453.1789607983293
 21
173.7463575197764
 31
0.0
  0
LINE
  5
7A
330
47
100
AcDbEntity
  8
0
  6
Continuous
 62
     7
100
AcDbLine
 10
443.8634607983294
 20
172.5843575197764
 30
0.0
 11
442.7014607983293
 21
173.7463575197764
 31
0.0
  0
LINE
  5
7B
330
47
100
AcDbEntity
  8
0
  6
Continuous
 62
     7
100
AcDbLine
 10
442.7014607983293
 20
173.7463575197764
 30
0.0
 11
442.7014607983293
 21
187.5843575197763
 31
0.0
  0
LINE
  5
7C
330
47
100
AcDbEntity
  8
0
  6
Continuous
 62
     7
100
AcDbLine
 10
463.6564607983293
 20
187.5843575197763
 30
0.0
 11
463.6564607983293
 21
173.7463575197764
 31
0.0
  0
LINE
  5
7D
330
47
100
AcDbEntity
  8
1
  6
Continuous
 62
     7
100
AcDbLine
 10
453.1789607983293
 20
173.7463575197764
 30
0.0
 11
463.6564607983293
 21
173.7463575197764
 31
0.0
  0
LINE
  5
7E
330
47
100
AcDbEntity
  8
0
  6
Continuous
 62
     7
100
AcDbLine
 10
463.6564607983293
 20
173.7463575197764
 30
0.0
 11
462.4944607983292
 21
172.5843575197764
 31
0.0
  0
LINE
  5
7F
330
47
100
AcDbEntity
  8
1
  6
Continuous
 62
     7
100
AcDbLine
 10
463.6564607983293
 20
185.5717144813814
 30
0.0
 11
453.1789607983293
 21
185.5717144813814
 31
0.0
  0
LINE
  5
80
330
47
100
AcDbEntity
  8
1
  6
Continuous
 62
     7
100
AcDbLine
 10
442.7014607983293
 20
185.5717144813814
 30
0.0
 11
453.1789607983293
 21
185.5717144813814
 31
0.0
  0
LINE
  5
81
330
47
100
AcDbEntity
  8
1
  6
Continuous
 62
     7
100
AcDbLine
 10
443.8634607983294
 20
172.5843575197764
 30
0.0
 11
459.9289607983293
 21
172.5843575197764
 31
0.0
  0
LINE
  5
82
330
47
100
AcDbEntity
  8
0
  6
Continuous
 62
     2
100
AcDbLine
 10
136.1370869044361
 20
185.5717144813814
 30
0.0
 11
134.9750869044361
 21
187.5843575197763
 31
0.0
  0
LINE
  5
83
330
47
100
AcDbEntity
  8
0
  6
Continuous
 62
     2
100
AcDbLine
 10
155.9300869044361
 20
187.5843575197763
 30
0.0
 11
154.7680869044361
 21
185.5717144813814
 31
0.0
  0
LINE
  5
84
330
47
100
AcDbEntity
  8
0
  6
Continuous
 62
     2
100
AcDbLine
 10
154.7680869044361
 20
172.5843575197764
 30
0.0
 11
154.7680869044361
 21
185.5717144813814
 31
0.0
  0
LINE
  5
85
330
47
100
AcDbEntity
  8
0
  6
Continuous
 62
     2
100
AcDbLine
 10
136.1370869044361
 20
185.5717144813814
 30
0.0
 11
136.1370869044361
 21
172.5843575197764
 31
0.0
  0
LINE
  5
86
330
47
100
AcDbEntity
  8
0
  6
Continuous
 62
     7
100
AcDbLine
 10
136.1370869044361
 20
172.5843575197764
 30
0.0
 11
134.9750869044361
 21
173.7463575197764
 31
0.0
  0
LINE
  5
87
330
47
100
AcDbEntity
  8
0
  6
Continuous
 62
     7
100
AcDbLine
 10
134.9750869044361
 20
173.7463575197764
 30
0.0
 11
134.9750869044361
 21
187.5843575197763
 31
0.0
  0
LINE
  5
88
330
47
100
AcDbEntity
  8
0
  6
Continuous
 62
     7
100
AcDbLine
 10
155.9300869044361
 20
187.5843575197763
 30
0.0
 11
155.9300869044361
 21
173.7463575197764
 31
0.0
  0
LINE
  5
89
330
47
100
AcDbEntity
  8
1
  6
Continuous
 62
     7
100
AcDbLine
 10
134.9750869044361
 20
173.7463575197764
 30
0.0
 11
155.9300869044361
 21
173.7463575197764
 31
0.0
  0
LINE
  5
8A
330
47
100
AcDbEntity
  8
0
  6
Continuous
 62
     7
100
AcDbLine
 10
155.9300869044361
 20
173.7463575197764
 30
0.0
 11
154.7680869044361
 21
172.5843575197764
 31
0.0
  0
LINE
  5
8B
330
47
100
AcDbEntity
  8
1
  6
Continuous
 62
     7
100
AcDbLine
 10
155.9300869044361
 20
185.5717144813814
 30
0.0
 11
134.9750869044361
 21
185.5717144813814
 31
0.0
  0
LINE
  5
8C
330
47
100
AcDbEntity
  8
1
  6
Continuous
 62
     7
100
AcDbLine
 10
136.1370869044361
 20
172.5843575197764
 30
0.0
 11
154.7680869044361
 21
172.5843575197764
 31
0.0
  0
LINE
  5
8D
330
47
100
AcDbEntity
  8
1
  6
Continuous
 62
     7
100
AcDbLine
 10
435.0830229032171
 20
194.5843575197763
 30
0.0
 11
471.0830229032171
 21
194.5843575197763
 31
0.0
  0
LINE
  5
8E
330
47
100
AcDbEntity
  8
1
  6
Continuous
 62
     2
100
AcDbLine
 10
433.1789607983293
 20
194.5843575197763
 30
0.0
 11
433.1789607983293
 21
194.1289249901571
 31
0.0
  0
LINE
  5
8F
330
47
100
AcDbEntity
  8
0
  6
Continuous
 62
     7
100
AcDbLine
 10
433.1789607983293
 20
187.5843575197763
 30
0.0
 11
463.6564607983293
 21
187.5843575197763
 31
0.0
  0
LINE
  5
90
330
47
100
AcDbEntity
  8
0
  6
Continuous
 62
     7
100
AcDbLine
 10
433.1789607983293
 20
194.1289249901571
 30
0.0
 11
433.1789607983293
 21
187.5843575197763
 31
0.0
  0
LINE
  5
91
330
47
100
AcDbEntity
  8
0
  6
Continuous
 62
     7
100
AcDbLine
 10
473.1789607983293
 20
194.1289249901571
 30
0.0
 11
473.1789607983293
 21
187.5843575197763
 31
0.0
  0
LINE
  5
92
330
47
100
AcDbEntity
  8
0
  6
Continuous
 62
     7
100
AcDbLine
 10
463.6564607983293
 20
187.5843575197763
 30
0.0
 11
473.1789607983293
 21
187.5843575197763
 31
0.0
  0
LINE
  5
93
330
47
100
AcDbEntity
  8
0
  6
Continuous
 62
     7
100
AcDbLine
 10
175.0534626680603
 20
218.0925741109732
 30
0.0
 11
161.1253468486538
 21
214.3605467250754
 31
0.0
  0
LINE
  5
94
330
47
100
AcDbEntity
  8
0
  6
Continuous
 62
     7
100
AcDbLine
 10
132.4525869044361
 20
248.7463575197761
 30
0.0
 11
132.4525869044361
 21
225.0966501245611
 31
0.0
  0
LINE
  5
95
330
47
100
AcDbEntity
  8
0
  6
Continuous
 62
     7
100
AcDbLine
 10
125.4525869044361
 20
187.5843575197763
 30
0.0
 11
155.9300869044361
 21
187.5843575197763
 31
0.0
  0
LINE
  5
96
330
47
100
AcDbEntity
  8
0
  6
Continuous
 62
     7
100
AcDbLine
 10
125.4525869044361
 20
194.1289249901571
 30
0.0
 11
125.4525869044361
 21
187.5843575197763
 31
0.0
  0
LINE
  5
97
330
47
100
AcDbEntity
  8
0
  6
Continuous
 62
     7
100
AcDbLine
 10
158.4525869044361
 20
241.0974619319843
 30
0.0
 11
158.4525869044361
 21
248.7463575197761
 31
0.0
  0
LINE
  5
98
330
47
100
AcDbEntity
  8
0
  6
Continuous
 62
     7
100
AcDbLine
 10
165.4525869044361
 20
194.1289249901571
 30
0.0
 11
165.4525869044361
 21
187.5843575197763
 31
0.0
  0
LINE
  5
99
330
47
100
AcDbEntity
  8
0
  6
Continuous
 62
     7
100
AcDbLine
 10
155.9300869044361
 20
187.5843575197763
 30
0.0
 11
165.4525869044361
 21
187.5843575197763
 31
0.0
  0
LINE
  5
9A
330
47
100
AcDbEntity
  8
0
  6
Continuous
 62
     7
100
AcDbLine
 10
160.9702249946412
 20
239.1656102794063
 30
0.0
 11
168.8418055855996
 21
241.27479394191
 31
0.0
  0
LINE
  5
9B
330
47
100
AcDbEntity
  8
1
  6
Continuous
 62
     7
100
AcDbLine
 10
154.690191211471
 20
582.822814223792
 30
0.0
 11
170.6045207059981
 21
582.8228142237917
 31
0.0
  0
LINE
  5
9C
330
47
100
AcDbEntity
  8
1
  6
Continuous
 62
     7
100
AcDbLine
 10
170.6045207059983
 20
606.8228142237917
 30
0.0
 11
154.6901912114703
 21
606.822814223792
 31
0.0
  0
LINE
  5
9D
330
47
100
AcDbEntity
  8
1
  6
Continuous
 62
     7
100
AcDbLine
 10
127.3566490093238
 20
194.5843575197763
 30
0.0
 11
163.3566490093239
 21
194.5843575197763
 31
0.0
  0
ARC
  5
9E
330
47
100
AcDbEntity
  8
1
  6
Continuous
 62
     7
100
AcDbCircle
 10
160.5371550715568
 20
226.6263619030433
 30
0.0
 40
13.54561384457508
100
AcDbArc
 50
110.6447039634561
 51
253.8455779757775
  0
ARC
  5
9F
330
47
100
AcDbEntity
  8
0
  6
Continuous
 62
     7
100
AcDbCircle
 10
370.1789607983293
 20
225.0966501245611
 30
0.0
 40
69.99999999999987
100
AcDbArc
 50
334.5256305487856
 51
0.54308154875071
  0
ARC
  5
A0
330
47
100
AcDbEntity
  8
1
  6
Continuous
 62
     7
100
AcDbCircle
 10
145.4525869044363
 20
594.8228142237917
 30
0.0
 40
20.0
100
AcDbArc
 50
90.0
 51
246.4218215217981
  0
ARC
  5
A1
330
47
100
AcDbEntity
  8
1
  6
Continuous
 62
     7
100
AcDbCircle
 10
145.4525869044363
 20
594.8228142237917
 30
0.0
 40
19.99999999999721
100
AcDbArc
 50
36.84643440720103
 51
90.0
  0
ARC
  5
A2
330
47
100
AcDbEntity
  8
0
  6
Continuous
 62
     7
100
AcDbCircle
 10
536.1789607983293
 20
225.0966501245611
 30
0.0
 40
69.99999999999994
100
AcDbArc
 50
179.4569184512493
 51
205.4743694512144
  0
ARC
  5
A3
330
47
100
AcDbEntity
  8
1
  6
Continuous
 62
     2
100
AcDbCircle
 10
370.1789607983293
 20
225.0966501245611
 30
0.0
 40
70.00000000000004
100
AcDbArc
 50
334.1580672368328
 51
334.5256305487856
  0
ARC
  5
A4
330
47
100
AcDbEntity
  8
0
  6
Continuous
 62
     7
100
AcDbCircle
 10
62.45258690443614
 20
225.0966501245611
 30
0.0
 40
69.99999999999986
100
AcDbArc
 50
334.5256305487856
 51
0.0
  0
ARC
  5
A5
330
47
100
AcDbEntity
  8
0
  6
Continuous
 62
     7
100
AcDbCircle
 10
228.4525869044362
 20
225.0966501245611
 30
0.0
 40
70.00000000000014
100
AcDbArc
 50
190.7365530819271
 51
205.4743694512143
  0
ARC
  5
A6
330
47
100
AcDbEntity
  8
1
  6
Continuous
 62
     7
100
AcDbCircle
 10
145.4525869044363
 20
594.8228142237917
 30
0.0
 40
19.99999999999998
100
AcDbArc
 50
293.5781784782019
 51
323.1535655928026
  0
SPLINE
  5
A7
330
47
100
AcDbEntity
  8
1
  6
Continuous
 62
     7
100
AcDbSpline
210
0.0
220
0.0
230
1.0
 70
     8
 71
     3
 72
    15
 73
    11
 74
     9
 42
0.000000001
 43
0.0000000001
 44
0.00000001
 40
0.0
 40
0.0
 40
0.0
 40
0.0
 40
0.7228210798070526
 40
1.446820781446557
 40
2.46723147657037
 40
3.487598911078121
 40
4.513754846780502
 40
5.53986300132032
 40
6.165110202460831
 40
6.789215499383494
 40
6.789215499383494
 40
6.789215499383494
 40
6.789215499383494
 10
441.7590650478904
 20
221.9174584803829
 30
0.0
 10
441.8396187520885
 20
221.6902915902697
 30
0.0
 10
442.0008575238899
 20
221.2355873999833
 30
0.0
 10
442.3379614422217
 20
220.4845758534883
 30
0.0
 10
442.7747395474326
 20
219.6717964452275
 30
0.0
 10
443.3391751356594
 20
218.8177741474346
 30
0.0
 10
443.9768609322707
 20
218.0145865535963
 30
0.0
 10
444.5928724492388
 20
217.3672411169228
 30
0.0
 10
445.1511644608788
 20
216.8531094710817
 30
0.0
 10
445.4755928335925
 20
216.5918411946515
 30
0.0
 10
445.6376587613218
 20
216.4613264612371
 30
0.0
 11
441.7590650478904
 21
221.9174584803829
 31
0.0
 11
442.0098223063052
 21
221.2395269858406
 31
0.0
 11
442.3038765983995
 21
220.5779322139363
 31
0.0
 11
442.788042390606
 21
219.6796997973412
 31
0.0
 11
443.3500643646154
 21
218.8280654838873
 31
0.0
 11
443.9884314459633
 21
218.0246456213356
 31
0.0
 11
444.6948434710955
 21
217.2804144762116
 31
0.0
 11
445.1559266781728
 21
216.8581156017936
 31
0.0
 11
445.6376587613218
 21
216.4613264612371
 31
0.0
  0
SPLINE
  5
A8
330
47
100
AcDbEntity
  8
1
  6
Continuous
 62
     7
100
AcDbSpline
210
0.0
220
0.0
230
1.0
 70
     8
 71
     3
 72
    15
 73
    11
 74
     9
 42
0.000000001
 43
0.0000000001
 44
0.00000001
 40
0.0
 40
0.0
 40
0.0
 40
0.0
 40
0.6241052969700736
 40
1.249352498160188
 40
2.275460652700105
 40
3.301616588402416
 40
4.321984022910136
 40
5.342394718034001
 40
6.066394419666954
 40
6.789215499467491
 40
6.789215499467491
 40
6.789215499467491
 40
6.789215499467491
 10
460.7202628352605
 20
216.4613264611773
 30
0.0
 10
460.882328763003
 20
216.5918411946006
 30
0.0
 10
461.2067571357437
 20
216.8531094710487
 30
0.0
 10
461.7650491474084
 20
217.3672411169107
 30
0.0
 10
462.3810606643881
 20
218.0145865535963
 30
0.0
 10
463.0187464609994
 20
218.8177741474346
 30
0.0
 10
463.5831820492263
 20
219.6717964452274
 30
0.0
 10
464.0199601544357
 20
220.4845758534864
 30
0.0
 10
464.3570640727664
 20
221.2355873999773
 30
0.0
 10
464.5183028445666
 20
221.6902915902595
 30
0.0
 10
464.5988565487643
 20
221.9174584803705
 30
0.0
 11
460.7202628352605
 21
216.4613264611773
 31
0.0
 11
461.2019949184485
 21
216.858115601761
 31
0.0
 11
461.6630781255633
 21
217.2804144762115
 31
0.0
 11
462.3694901506956
 21
218.0246456213356
 31
0.0
 11
463.0078572320433
 21
218.8280654838873
 31
0.0
 11
463.5698792060527
 21
219.6796997973412
 31
0.0
 11
464.0540449982593
 21
220.5779322139363
 31
0.0
 11
464.3480992903511
 21
221.2395269858346
 31
0.0
 11
464.5988565487643
 21
221.9174584803705
 31
0.0
  0
ARC
  5
A9
330
47
100
AcDbEntity
  8
1
  6
Continuous
 62
     7
100
AcDbCircle
 10
471.1789607983293
 20
194.1289249901571
 30
0.0
 40
2.0
100
AcDbArc
 50
0.0
 51
25.47436945121195
  0
ARC
  5
AA
330
47
100
AcDbEntity
  8
1
  6
Continuous
 62
     7
100
AcDbCircle
 10
435.1789607983293
 20
194.1289249901571
 30
0.0
 40
2.000000000000111
100
AcDbArc
 50
154.5256305487895
 51
180.0
  0
ARC
  5
AB
330
47
100
AcDbEntity
  8
1
  6
Continuous
 62
     7
100
AcDbCircle
 10
163.4525869044361
 20
194.1289249901571
 30
0.0
 40
2.0
100
AcDbArc
 50
0.0
 51
25.474369451213
  0
ARC
  5
AC
330
47
100
AcDbEntity
  8
1
  6
Continuous
 62
     7
100
AcDbCircle
 10
127.4525869044361
 20
194.1289249901571
 30
0.0
 40
2.000000000000099
100
AcDbArc
 50
154.5256305487893
 51
180.0
  0
ARC
  5
AD
330
47
100
AcDbEntity
  8
1
  6
Continuous
 62
     7
100
AcDbCircle
 10
161.6429849388587
 20
212.4286950724972
 30
0.0
 40
2.000000000000037
100
AcDbArc
 50
104.999999999995
 51
190.736553081927
  0
ARC
  5
AE
330
47
100
AcDbEntity
  8
1
  6
Continuous
 62
     7
100
AcDbCircle
 10
160.4525869044361
 20
241.0974619319843
 30
0.0
 40
2.0
100
AcDbArc
 50
180.0
 51
285.000000000003
  0
ENDBLK
  5
49
330
47
100
AcDbEntity
  8
0
100
AcDbBlockEnd
  0
BLOCK
  5
4B
330
4A
100
AcDbEntity
  8
0
100
AcDbBlockBegin
  2
開示A4
 70
     0
 10
0.0
 20
0.0
 30
0.0
  3
開示A4
  1

  0
POINT
  5
AF
330
4A
100
AcDbEntity
  8
1
 62
     4
100
AcDbPoint
 10
93.75
 20
17.0
 30
0.0
  0
POINT
  5
B0
330
4A
100
AcDbEntity
  8
1
 62
     4
100
AcDbPoint
 10
85.25
 20
17.0
 30
0.0
  0
POINT
  5
B1
330
4A
100
AcDbEntity
  8
1
 62
     4
100
AcDbPoint
 10
106.5
 20
19.00000000000001
 30
0.0
  0
POINT
  5
B2
330
4A
100
AcDbEntity
  8
1
 62
     4
100
AcDbPoint
 10
106.5
 20
12.5
 30
0.0
  0
POINT
  5
B3
330
4A
100
AcDbEntity
  8
1
 62
     4
100
AcDbPoint
 10
112.25
 20
12.5
 30
0.0
  0
POINT
  5
B4
330
4A
100
AcDbEntity
  8
1
 62
     4
100
AcDbPoint
 10
100.75
 20
12.5
 30
0.0
  0
POINT
  5
B5
330
4A
100
AcDbEntity
  8
1
 62
     4
100
AcDbPoint
 10
123.5
 20
19.00000000000001
 30
0.0
  0
POINT
  5
B6
330
4A
100
AcDbEntity
  8
1
 62
     4
100
AcDbPoint
 10
123.5
 20
12.5
 30
0.0
  0
POINT
  5
B7
330
4A
100
AcDbEntity
  8
1
 62
     4
100
AcDbPoint
 10
129.25
 20
12.5
 30
0.0
  0
POINT
  5
B8
330
4A
100
AcDbEntity
  8
1
 62
     4
100
AcDbPoint
 10
117.75
 20
12.5
 30
0.0
  0
POINT
  5
B9
330
4A
100
AcDbEntity
  8
1
 62
     4
100
AcDbPoint
 10
140.5
 20
19.00000000000001
 30
0.0
  0
POINT
  5
BA
330
4A
100
AcDbEntity
  8
1
 62
     4
100
AcDbPoint
 10
140.5
 20
12.5
 30
0.0
  0
POINT
  5
BB
330
4A
100
AcDbEntity
  8
1
 62
     4
100
AcDbPoint
 10
146.25
 20
12.5
 30
0.0
  0
POINT
  5
BC
330
4A
100
AcDbEntity
  8
1
 62
     4
100
AcDbPoint
 10
134.75
 20
12.5
 30
0.0
  0
POINT
  5
BD
330
4A
100
AcDbEntity
  8
1
 62
     4
100
AcDbPoint
 10
151.75
 20
12.5
 30
0.0
  0
POINT
  5
BE
330
4A
100
AcDbEntity
  8
1
 62
     4
100
AcDbPoint
 10
163.25
 20
12.5
 30
0.0
  0
POINT
  5
BF
330
4A
100
AcDbEntity
  8
1
 62
     4
100
AcDbPoint
 10
157.5
 20
12.5
 30
0.0
  0
POINT
  5
C0
330
4A
100
AcDbEntity
  8
1
 62
     4
100
AcDbPoint
 10
57.0
 20
14.25
 30
0.0
  0
POINT
  5
C1
330
4A
100
AcDbEntity
  8
1
 62
     4
100
AcDbPoint
 10
57.0
 20
22.75000000000001
 30
0.0
  0
POINT
  5
C2
330
4A
100
AcDbEntity
  8
1
 62
     4
100
AcDbPoint
 10
47.5
 20
282.0000000000003
 30
0.0
  0
POINT
  5
C3
330
4A
100
AcDbEntity
  8
1
 62
     4
100
AcDbPoint
 10
157.5
 20
19.00000000000001
 30
0.0
  0
POINT
  5
C4
330
4A
100
AcDbEntity
  8
1
 62
     4
100
AcDbPoint
 10
57.0
 20
16.25
 30
0.0
  0
POINT
  5
C5
330
4A
100
AcDbEntity
  8
1
 62
     4
100
AcDbPoint
 10
57.0
 20
24.75000000000001
 30
0.0
  0
POINT
  5
C6
330
4A
100
AcDbEntity
  8
1
 62
     4
100
AcDbPoint
 10
57.0
 20
20.75000000000001
 30
0.0
  0
POINT
  5
C7
330
4A
100
AcDbEntity
  8
1
 62
     4
100
AcDbPoint
 10
57.0
 20
12.25
 30
0.0
  0
POINT
  5
C8
330
4A
100
AcDbEntity
  8
1
 62
     4
100
AcDbPoint
 10
34.0
 20
34.00000000000001
 30
0.0
  0
LINE
  5
C9
330
4A
100
AcDbEntity
  8
1
  6
Continuous
 62
     7
100
AcDbLine
 10
105.0
 20
10.0
 30
0.0
 11
200.0
 21
10.0
 31
0.0
  0
LINE
  5
CA
330
4A
100
AcDbEntity
  8
1
  6
Continuous
 62
     2
100
AcDbLine
 10
105.0
 20
10.0
 30
0.0
 11
105.0
 21
5.0
 31
0.0
  0
LINE
  5
CB
330
4A
100
AcDbEntity
  8
1
  6
Continuous
 62
     7
100
AcDbLine
 10
200.0
 20
148.5
 30
0.0
 11
200.0
 21
287.0000000000003
 31
0.0
  0
LINE
  5
CC
330
4A
100
AcDbEntity
  8
1
  6
Continuous
 62
     2
100
AcDbLine
 10
200.0
 20
148.5
 30
0.0
 11
205.0
 21
148.5
 31
0.0
  0
LINE
  5
CD
330
4A
100
AcDbEntity
  8
1
  6
Continuous
 62
     7
100
AcDbLine
 10
25.0
 20
148.5
 30
0.0
 11
25.0
 21
287.0000000000003
 31
0.0
  0
LINE
  5
CE
330
4A
100
AcDbEntity
  8
1
  6
Continuous
 62
     2
100
AcDbLine
 10
25.0
 20
148.5
 30
0.0
 11
20.0
 21
148.5
 31
0.0
  0
LINE
  5
CF
330
4A
100
AcDbEntity
  8
1
  6
Continuous
 62
     7
100
AcDbLine
 10
105.0
 20
287.0000000000003
 30
0.0
 11
25.0
 21
287.0000000000003
 31
0.0
  0
LINE
  5
D0
330
4A
100
AcDbEntity
  8
1
  6
Continuous
 62
     2
100
AcDbLine
 10
105.0
 20
287.0000000000003
 30
0.0
 11
105.0
 21
292.0000000000003
 31
0.0
  0
LINE
  5
D1
330
4A
100
AcDbEntity
  8
1
  6
Continuous
 62
     2
100
AcDbLine
 10
166.0
 20
20.00000000000001
 30
0.0
 11
200.0
 21
20.00000000000001
 31
0.0
  0
LINE
  5
D2
330
4A
100
AcDbEntity
  8
1
  6
Continuous
 62
     2
100
AcDbLine
 10
98.0
 20
27.00000000000001
 30
0.0
 11
98.0
 21
9.99999999999999
 31
0.0
  0
LINE
  5
D3
330
4A
100
AcDbEntity
  8
1
  6
Continuous
 62
     2
100
AcDbLine
 10
115.0
 20
27.00000000000001
 30
0.0
 11
115.0
 21
9.99999999999999
 31
0.0
  0
LINE
  5
D4
330
4A
100
AcDbEntity
  8
1
  6
Continuous
 62
     2
100
AcDbLine
 10
149.0
 20
27.00000000000001
 30
0.0
 11
149.0
 21
10.0
 31
0.0
  0
LINE
  5
D5
330
4A
100
AcDbEntity
  8
1
  6
Continuous
 62
     2
100
AcDbLine
 10
132.0
 20
27.00000000000001
 30
0.0
 11
132.0
 21
9.99999999999999
 31
0.0
  0
LINE
  5
D6
330
4A
100
AcDbEntity
  8
1
  6
Continuous
 62
     2
100
AcDbLine
 10
166.0
 20
27.00000000000001
 30
0.0
 11
166.0
 21
10.0
 31
0.0
  0
LINE
  5
D7
330
4A
100
AcDbEntity
  8
1
  6
Continuous
 62
     2
100
AcDbLine
 10
55.0
 20
277.0000000000003
 30
0.0
 11
25.0
 21
277.0000000000003
 31
0.0
  0
LINE
  5
D8
330
4A
100
AcDbEntity
  8
1
  6
Continuous
 62
     7
100
AcDbLine
 10
25.0
 20
10.0
 30
0.0
 11
25.0
 21
148.5
 31
0.0
  0
LINE
  5
D9
330
4A
100
AcDbEntity
  8
1
  6
Continuous
 62
     2
100
AcDbLine
 10
40.0
 20
287.0000000000003
 30
0.0
 11
40.0
 21
277.0000000000003
 31
0.0
  0
LINE
  5
DA
330
4A
100
AcDbEntity
  8
1
  6
Continuous
 62
     2
100
AcDbLine
 10
55.0
 20
287.0000000000003
 30
0.0
 11
55.0
 21
277.0000000000003
 31
0.0
  0
LINE
  5
DB
330
4A
100
AcDbEntity
  8
1
  6
Continuous
 62
     2
100
AcDbLine
 10
33.0
 20
41.00000000000001
 30
0.0
 11
33.0
 21
27.0
 31
0.0
  0
LINE
  5
DC
330
4A
100
AcDbEntity
  8
1
  6
Continuous
 62
     7
100
AcDbLine
 10
200.0
 20
27.00000000000001
 30
0.0
 11
25.0
 21
27.00000000000001
 31
0.0
  0
LINE
  5
DD
330
4A
100
AcDbEntity
  8
1
  6
Continuous
 62
     7
100
AcDbLine
 10
25.0
 20
41.0
 30
0.0
 11
200.0
 21
41.0
 31
0.0
  0
LINE
  5
DE
330
4A
100
AcDbEntity
  8
1
  6
PHANTOM
 62
     4
100
AcDbLine
 10
0.0
 20
0.0
 30
0.0
 11
210.0
 21
0.0
 31
0.0
  0
LINE
  5
DF
330
4A
100
AcDbEntity
  8
1
  6
PHANTOM
 62
     4
100
AcDbLine
 10
210.0
 20
0.0
 30
0.0
 11
210.0
 21
297.0
 31
0.0
  0
LINE
  5
E0
330
4A
100
AcDbEntity
  8
1
  6
PHANTOM
 62
     4
100
AcDbLine
 10
210.0
 20
297.0
 30
0.0
 11
0.0
 21
297.0
 31
0.0
  0
LINE
  5
E1
330
4A
100
AcDbEntity
  8
1
  6
PHANTOM
 62
     4
100
AcDbLine
 10
0.0
 20
297.0
 30
0.0
 11
0.0
 21
0.0
 31
0.0
  0
LINE
  5
E2
330
4A
100
AcDbEntity
  8
1
  6
Continuous
 62
     7
100
AcDbLine
 10
25.0
 20
10.0
 30
0.0
 11
105.0
 21
10.0
 31
0.0
  0
LINE
  5
E3
330
4A
100
AcDbEntity
  8
1
  6
Continuous
 62
     7
100
AcDbLine
 10
200.0
 20
10.0
 30
0.0
 11
200.0
 21
148.5
 31
0.0
  0
LINE
  5
E4
330
4A
100
AcDbEntity
  8
1
  6
Continuous
 62
     7
100
AcDbLine
 10
200.0
 20
287.0000000000003
 30
0.0
 11
105.0
 21
287.0000000000003
 31
0.0
  0
LINE
  5
E5
330
4A
100
AcDbEntity
  8
1
  6
Continuous
 62
     2
100
AcDbLine
 10
25.0
 20
18.50000000000001
 30
0.0
 11
81.0
 21
18.50000000000001
 31
0.0
  0
LINE
  5
E6
330
4A
100
AcDbEntity
  8
1
  6
Continuous
 62
     2
100
AcDbLine
 10
33.0
 20
27.0
 30
0.0
 11
33.0
 21
10.0
 31
0.0
  0
LINE
  5
E7
330
4A
100
AcDbEntity
  8
1
  6
Continuous
 62
     7
100
AcDbLine
 10
191.0
 20
24.70000000000001
 30
0.0
 11
191.0
 21
22.30000000000001
 31
0.0
  0
LINE
  5
E8
330
4A
100
AcDbEntity
  8
1
  6
Continuous
 62
     7
100
AcDbLine
 10
191.0
 20
24.70000000000001
 30
0.0
 11
196.0
 21
25.50000000000001
 31
0.0
  0
LINE
  5
E9
330
4A
100
AcDbEntity
  8
1
  6
Continuous
 62
     7
100
AcDbLine
 10
196.0
 20
25.50000000000001
 30
0.0
 11
196.0
 21
21.50000000000001
 31
0.0
  0
LINE
  5
EA
330
4A
100
AcDbEntity
  8
1
  6
Continuous
 62
     7
100
AcDbLine
 10
196.0
 20
21.50000000000001
 30
0.0
 11
191.0
 21
22.30000000000001
 31
0.0
  0
LINE
  5
EB
330
4A
100
AcDbEntity
  8
1
  6
DOT_CENTER
 62
     2
100
AcDbLine
 10
184.0
 20
23.50000000000001
 30
0.0
 11
197.0
 21
23.50000000000001
 31
0.0
  0
LINE
  5
EC
330
4A
100
AcDbEntity
  8
1
  6
DOT_CENTER
 62
     2
100
AcDbLine
 10
187.0
 20
26.50000000000001
 30
0.0
 11
187.0
 21
20.50000000000001
 31
0.0
  0
LINE
  5
ED
330
4A
100
AcDbEntity
  8
1
  6
Continuous
 62
     2
100
AcDbLine
 10
81.0
 20
27.00000000000001
 30
0.0
 11
81.0
 21
10.0
 31
0.0
  0
CIRCLE
  5
EE
330
4A
100
AcDbEntity
  8
1
  6
Continuous
 62
     7
100
AcDbCircle
 10
103.5
 20
12.5
 30
0.0
 40
0.2999999999999972
  0
CIRCLE
  5
EF
330
4A
100
AcDbEntity
  8
1
  6
Continuous
 62
     7
100
AcDbCircle
 10
109.5
 20
12.5
 30
0.0
 40
0.2999999999999972
  0
CIRCLE
  5
F0
330
4A
100
AcDbEntity
  8
1
  6
Continuous
 62
     7
100
AcDbCircle
 10
120.5
 20
12.5
 30
0.0
 40
0.2999999999999972
  0
CIRCLE
  5
F1
330
4A
100
AcDbEntity
  8
1
  6
Continuous
 62
     7
100
AcDbCircle
 10
126.5
 20
12.5
 30
0.0
 40
0.2999999999999972
  0
CIRCLE
  5
F2
330
4A
100
AcDbEntity
  8
1
  6
Continuous
 62
     7
100
AcDbCircle
 10
137.5
 20
12.5
 30
0.0
 40
0.3000000000000114
  0
CIRCLE
  5
F3
330
4A
100
AcDbEntity
  8
1
  6
Continuous
 62
     7
100
AcDbCircle
 10
143.5
 20
12.5
 30
0.0
 40
0.3000000000000114
  0
CIRCLE
  5
F4
330
4A
100
AcDbEntity
  8
1
  6
Continuous
 62
     7
100
AcDbCircle
 10
160.5
 20
12.5
 30
0.0
 40
0.3000000000000114
  0
CIRCLE
  5
F5
330
4A
100
AcDbEntity
  8
1
  6
Continuous
 62
     7
100
AcDbCircle
 10
154.5
 20
12.5
 30
0.0
 40
0.3000000000000114
  0
CIRCLE
  5
F6
330
4A
100
AcDbEntity
  8
1
  6
Continuous
 62
     7
100
AcDbCircle
 10
187.0
 20
23.50000000000001
 30
0.0
 40
1.200000000000102
  0
CIRCLE
  5
F7
330
4A
100
AcDbEntity
  8
1
  6
Continuous
 62
     7
100
AcDbCircle
 10
187.0
 20
23.50000000000001
 30
0.0
 40
2.0
  0
CIRCLE
  5
F8
330
4A
100
AcDbEntity
  8
1
  6
DOT_CENTER
 62
     7
100
AcDbCircle
 10
89.5
 20
16.0
 30
0.0
 40
0.1000000000000227
  0
CIRCLE
  5
F9
330
4A
100
AcDbEntity
  8
1
  6
DOT_CENTER
 62
     7
100
AcDbCircle
 10
89.5
 20
18.0
 30
0.0
 40
0.1000000000000227
  0
MTEXT
  5
FB
330
4A
100
AcDbEntity
  8
1
 62
     7
100
AcDbMText
 10
188.5
 20
15.0
 30
0.0
 40
3.0
 41
0.0
 71
     5
 72
     1
  1
三栄水栓製作所
  7
CONVERTER_11
 73
     1
 44
1.0
  0
MTEXT
  5
FC
330
4A
100
AcDbEntity
  8
1
 62
     7
100
AcDbMText
 10
171.5
 20
15.0
 30
0.0
 40
2.5
 41
0.0
 71
     5
 72
     1
  1
株式会社
  7
CONVERTER_11
 73
     1
 44
1.0
  0
MTEXT
  5
FD
330
4A
100
AcDbEntity
  8
1
 62
     2
100
AcDbMText
 10
32.5
 20
282.0000000000003
 30
0.0
 40
5.0
 41
0.0
 71
     5
 72
     1
  1
図番
  7
CONVERTER_11
 73
     1
 44
0.45454545454545
  0
MTEXT
  5
FE
330
4A
100
AcDbEntity
  8
1
 62
     2
100
AcDbMText
 10
29.0
 20
34.00000000000001
 30
0.0
 40
3.5
 41
0.0
 71
     5
 72
     1
  1
備考
  7
CONVERTER_11
 73
     1
 44
0.45454545454545
  0
MTEXT
  5
FF
330
4A
100
AcDbEntity
  8
1
 62
     2
100
AcDbMText
 10
29.0
 20
22.75
 30
0.0
 40
3.5
 41
0.0
 71
     5
 72
     1
  1
品名
  7
CONVERTER_11
 73
     1
 44
0.72727272727273
  0
MTEXT
  5
100
330
4A
100
AcDbEntity
  8
1
 62
     2
100
AcDbMText
 10
29.0
 20
14.25
 30
0.0
 40
3.5
 41
0.0
 71
     5
 72
     1
  1
品番
  7
CONVERTER_11
 73
     1
 44
0.72727272727273
  0
MTEXT
  5
101
330
4A
100
AcDbEntity
  8
1
 62
     2
100
AcDbMText
 10
101.5
 20
25.00000000000001
 30
0.0
 40
3.0
 41
0.0
 71
     5
 72
     1
  1
承認
  7
CONVERTER_11
 73
     1
 44
0.59090909090909
  0
MTEXT
  5
102
330
4A
100
AcDbEntity
  8
1
 62
     2
100
AcDbMText
 10
175.0
 20
23.50000000000001
 30
0.0
 40
3.5
 41
0.0
 71
     5
 72
     1
  1
第三角法
  7
CONVERTER_11
 73
     1
 44
0.54545454545455
  0
MTEXT
  5
103
330
4A
100
AcDbEntity
  8
1
 62
     2
100
AcDbMText
 10
118.5
 20
25.00000000000001
 30
0.0
 40
3.0
 41
0.0
 71
     5
 72
     1
  1
検図
  7
CONVERTER_11
 73
     1
 44
0.59090909090909
  0
MTEXT
  5
104
330
4A
100
AcDbEntity
  8
1
 62
     2
100
AcDbMText
 10
152.5
 20
25.00000000000001
 30
0.0
 40
3.0
 41
0.0
 71
     5
 72
     1
  1
設計
  7
CONVERTER_11
 73
     1
 44
0.59090909090909
  0
MTEXT
  5
105
330
4A
100
AcDbEntity
  8
1
 62
     2
100
AcDbMText
 10
135.5
 20
25.00000000000001
 30
0.0
 40
3.0
 41
0.0
 71
     5
 72
     1
  1
製図
  7
CONVERTER_11
 73
     1
 44
0.59090909090909
  0
MTEXT
  5
106
330
4A
100
AcDbEntity
  8
1
 62
     2
100
AcDbMText
 10
89.5
 20
24.00000000000001
 30
0.0
 40
3.5
 41
0.0
 71
     5
 72
     1
  1
尺度
  7
CONVERTER_11
 73
     1
 44
0.54545454545455
  0
MTEXT
  5
107
330
4A
100
AcDbEntity
  8
1
 62
   250
100
AcDbMText
 10
25.0
 20
5.0
 30
0.0
 40
3.5
 41
0.0
 71
     4
 72
     1
  1
備考欄の文字列 原点位置=4
  7
CONVERTER_11
 73
     1
 44
0.54545454545455
  0
ENDBLK
  5
4C
330
4A
100
AcDbEntity
  8
0
100
AcDbBlockEnd
  0
BLOCK
  5
4E
330
4D
100
AcDbEntity
  8
0
100
AcDbBlockBegin
  2
36-1A-13
 70
     0
 10
57.40867393645863
 20
270.7883196098778
 30
0.0
  3
36-1A-13
  1

  0
LINE
  5
108
330
4D
100
AcDbEntity
  8
1
  6
Continuous
 62
     7
100
AcDbLine
 10
185.4705956948771
 20
599.5728142237917
 30
0.0
 11
186.2796539128576
 21
599.5728142237917
 31
0.0
  0
LINE
  5
109
330
4D
100
AcDbEntity
  8
1
  6
Continuous
 62
     7
100
AcDbLine
 10
184.2412052306397
 20
237.8952983327507
 30
0.0
 11
187.2068957100626
 21
238.6899527017129
 31
0.0
  0
LINE
  5
10A
330
4D
100
AcDbEntity
  8
1
  6
Continuous
 62
     7
100
AcDbLine
 10
186.2796539128576
 20
590.0728142237915
 30
0.0
 11
185.4705956948771
 21
590.0728142237915
 31
0.0
  0
LINE
  5
10B
330
4D
100
AcDbEntity
  8
1
  6
Continuous
 62
     7
100
AcDbLine
 10
189.6656766385366
 20
229.5136573519667
 30
0.0
 11
186.6999861591139
 21
228.7190029830046
 31
0.0
  0
SPLINE
  5
10C
330
4D
100
AcDbEntity
  8
1
  6
Continuous
 62
     7
100
AcDbSpline
210
0.0
220
0.0
230
1.0
 70
     8
 71
     3
 72
     9
 73
     5
 74
     3
 42
0.000000001
 43
0.0000000001
 44
0.00000001
 40
0.0
 40
0.0
 40
0.0
 40
0.0
 40
0.0554857948037719
 40
0.1129050025410056
 40
0.1129050025410056
 40
0.1129050025410056
 40
0.1129050025410056
 10
185.4705956949079
 20
590.0728142237915
 30
0.0
 10
185.4520302279734
 20
590.0737429598179
 30
0.0
 10
185.4142523796608
 20
590.0756328135259
 30
0.0
 10
185.3783669436854
 20
590.0876150796515
 30
0.0
 10
185.3601169724945
 20
590.0937088161804
 30
0.0
 11
185.4705956949079
 21
590.0728142237915
 31
0.0
 11
185.4153563337013
 21
590.078037871886
 31
0.0
 11
185.3601169724945
 21
590.0937088161804
 31
0.0
  0
SPLINE
  5
10D
330
4D
100
AcDbEntity
  8
1
  6
Continuous
 62
     7
100
AcDbSpline
210
0.0
220
0.0
230
1.0
 70
     8
 71
     3
 72
    43
 73
    39
 74
    37
 42
0.000000001
 43
0.0000000001
 44
0.00000001
 40
0.0
 40
0.0
 40
0.0
 40
0.0
 40
0.133145672814057
 40
0.2641258719631614
 40
0.4399900368385808
 40
0.6147473197865758
 40
0.841606161663914
 40
1.068297575879501
 40
1.346265273412364
 40
1.624090610110732
 40
1.947687432179459
 40
2.27123592019983
 40
2.632580216502514
 40
2.993895228023201
 40
3.383320575523852
 40
3.772731812469332
 40
4.179446377575663
 40
4.586154720657872
 40
4.998702864972569
 40
5.411251009232256
 40
5.817959352156344
 40
6.22467391701202
 40
6.614085153644209
 40
7.003510500777384
 40
7.364825511923629
 40
7.72616980783454
 40
8.049718295499668
 40
8.37331511721669
 40
8.651140453621636
 40
8.929108150874598
 40
9.155799564878068
 40
9.382658406570938
 40
9.557415689424431
 40
9.733279854347613
 40
9.864260054770549
 40
9.997405726222103
 40
10.05482493560879
 40
10.11031073069503
 40
10.11031073069503
 40
10.11031073069503
 40
10.11031073069503
 10
185.3601169724945
 20
590.0937088161804
 30
0.0
 10
185.3193673827484
 20
590.1120326500711
 30
0.0
 10
185.2385309457044
 20
590.1483822874274
 30
0.0
 10
185.130442061934
 20
590.2504163436723
 30
0.0
 10
185.0329284131055
 20
590.3781038049318
 30
0.0
 10
184.9330925999969
 20
590.5431276882198
 30
0.0
 10
184.8427784071611
 20
590.7323765099227
 30
0.0
 10
184.7524701329676
 20
590.9590137098816
 30
0.0
 10
184.6711112606958
 20
591.2069888043574
 30
0.0
 10
184.5924110530827
 20
591.4894330420474
 30
0.0
 10
184.5225252263408
 20
591.7898250743153
 30
0.0
 10
184.4576938964654
 20
592.1197325897995
 30
0.0
 10
184.4017727949673
 20
592.4640170127452
 30
0.0
 10
184.352686837764
 20
592.8314911320774
 30
0.0
 10
184.3126832798751
 20
593.2094762153397
 30
0.0
 10
184.2807630553592
 20
593.6034058946753
 30
0.0
 10
184.2580806715943
 20
594.0037465573962
 30
0.0
 10
184.2442205025258
 20
594.4122029800121
 30
0.0
 10
184.239686833529
 20
594.8228142267484
 30
0.0
 10
184.2442205030284
 20
595.2334254734565
 30
0.0
 10
184.258080672611
 20
595.6418818958114
 30
0.0
 10
184.2807630566837
 20
596.0422225585895
 30
0.0
 10
184.312683281994
 20
596.4361522364297
 30
0.0
 10
184.3526868386097
 20
596.814137323472
 30
0.0
 10
184.401772801442
 20
597.1816114279229
 30
0.0
 10
184.4576938838965
 20
597.5258959017553
 30
0.0
 10
184.5225252783752
 20
597.8558032444513
 30
0.0
 10
184.592410881267
 20
598.1561958747741
 30
0.0
 10
184.6711118128584
 20
598.4386381773656
 30
0.0
 10
184.7524682336888
 20
598.6866198232466
 30
0.0
 10
184.8427840708711
 20
598.9132368105757
 30
0.0
 10
184.9330733770668
 20
599.1025521430823
 30
0.0
 10
185.0329822569286
 20
599.2673807518962
 30
0.0
 10
185.1302599231873
 20
599.3956988901709
 30
0.0
 10
185.2390243087854
 20
599.4959276336215
 30
0.0
 10
185.3355018322223
 20
599.5453433920596
 30
0.0
 10
185.4143369799115
 20
599.5697695561646
 30
0.0
 10
185.4520581057283
 20
599.5718109824693
 30
0.0
 10
185.4705956948442
 20
599.5728142237917
 30
0.0
 11
185.3601169724945
 21
590.0937088161804
 31
0.0
 11
185.2419215373432
 21
590.1550081530322
 31
0.0
 11
185.1438828127456
 21
590.2418656291802
 31
0.0
 11
185.0353149585087
 21
590.3802174461493
 31
0.0
 11
184.9443158917513
 21
590.5294128803226
 31
0.0
 11
184.8450565402038
 21
590.7334043383566
 31
0.0
 11
184.7607838124576
 21
590.9438493533935
 31
0.0
 11
184.6731096025041
 21
591.2076281876136
 31
0.0
 11
184.5982963397404
 21
591.4751910644206
 31
0.0
 11
184.5243450377884
 21
591.7902245669013
 31
0.0
 11
184.4617796234409
 21
592.1076662033068
 31
0.0
 11
184.4034538259669
 21
592.4642721499634
 31
0.0
 11
184.3555017701763
 21
592.8223910370216
 31
0.0
 11
184.3142720292444
 21
593.2096276688304
 31
0.0
 11
184.2827654848504
 21
593.5977622439568
 31
0.0
 11
184.2596163275372
 21
594.0038174781712
 31
0.0
 11
184.2458260470754
 21
594.4102919592615
 31
0.0
 11
184.2412052306399
 21
594.8228142237917
 31
0.0
 11
184.2458260470754
 21
595.2353364883218
 31
0.0
 11
184.2596163275372
 21
595.6418109694121
 31
0.0
 11
184.2827654848504
 21
596.0478662036268
 31
0.0
 11
184.3142720292444
 21
596.436000778753
 31
0.0
 11
184.3555017701763
 21
596.8232374105619
 31
0.0
 11
184.4034538259669
 21
597.1813562976198
 31
0.0
 11
184.4617796234409
 21
597.5379622442764
 31
0.0
 11
184.5243450377884
 21
597.8554038806822
 31
0.0
 11
184.5982963397404
 21
598.1704373831626
 31
0.0
 11
184.6731096025041
 21
598.4380002599695
 31
0.0
 11
184.7607838124576
 21
598.7017790941896
 31
0.0
 11
184.8450565402038
 21
598.9122241092266
 31
0.0
 11
184.9443158917513
 21
599.1162155672608
 31
0.0
 11
185.0353149585087
 21
599.2654110014344
 31
0.0
 11
185.1438828127456
 21
599.4037628184035
 31
0.0
 11
185.2419215373432
 21
599.4906202945513
 31
0.0
 11
185.3601169724947
 21
599.551919631403
 31
0.0
 11
185.4153563336695
 21
599.5675905756915
 31
0.0
 11
185.4705956948442
 21
599.5728142237917
 31
0.0
  0
ENDBLK
  5
4F
330
4D
100
AcDbEntity
  8
0
100
AcDbBlockEnd
  0
BLOCK
  5
51
330
50
100
AcDbEntity
  8
0
100
AcDbBlockBegin
  2
37-1-13
 70
     0
 10
260.5831498469215
 20
35.82698608965194
 30
0.0
  3
37-1-13
  1

  0
LINE
  5
10E
330
50
100
AcDbEntity
  8
1
  6
Continuous
 62
     7
100
AcDbLine
 10
444.5345205261405
 20
221.0634018921816
 30
0.0
 11
441.1168119330076
 21
223.0366168684386
 31
0.0
  0
LINE
  5
10F
330
50
100
AcDbEntity
  8
1
  6
Continuous
 62
     7
100
AcDbLine
 10
466.1789607983293
 20
231.624826864711
 30
0.0
 11
466.1789607983293
 21
225.7601394687418
 31
0.0
  0
LINE
  5
110
330
50
100
AcDbEntity
  8
1
  6
Continuous
 62
     7
100
AcDbLine
 10
465.2411096636512
 20
223.0366168684386
 30
0.0
 11
461.8234010705206
 21
221.0634018921831
 31
0.0
  0
LINE
  5
111
330
50
100
AcDbEntity
  8
1
  6
Continuous
 62
     7
100
AcDbLine
 10
440.1789607983293
 20
225.7601394687418
 30
0.0
 11
440.1789607983293
 21
231.624826864711
 31
0.0
  0
LINE
  5
112
330
50
100
AcDbEntity
  8
1
  6
Continuous
 62
     7
100
AcDbLine
 10
171.9477294406109
 20
607.8228142237917
 30
0.0
 11
179.1920778239979
 21
607.8228142237917
 31
0.0
  0
LINE
  5
113
330
50
100
AcDbEntity
  8
1
  6
Continuous
 62
     7
100
AcDbLine
 10
171.9477294406109
 20
581.8228142237917
 30
0.0
 11
179.1920778239979
 21
581.8228142237917
 31
0.0
  0
LINE
  5
114
330
50
100
AcDbEntity
  8
1
  6
Continuous
 62
     7
100
AcDbLine
 10
175.3305838985758
 20
217.0583435988339
 30
0.0
 11
168.5646843550841
 21
242.3090244540506
 31
0.0
  0
LINE
  5
115
330
50
100
AcDbEntity
  8
1
  6
Continuous
 62
     7
100
AcDbLine
 10
187.0235099654921
 20
227.5115957001432
 30
0.0
 11
183.9176814242618
 21
239.1027056156118
 31
0.0
  0
ARC
  5
116
330
50
100
AcDbEntity
  8
1
  6
Continuous
 62
     7
100
AcDbCircle
 10
444.700097871677
 20
231.6331973655224
 30
0.0
 40
22.26733845076381
100
AcDbArc
 50
337.2902933370658
 51
344.7071827876072
  0
ARC
  5
117
330
50
100
AcDbEntity
  8
1
  6
Continuous
 62
     7
100
AcDbCircle
 10
461.6578237249818
 20
231.6331973655224
 30
0.0
 40
22.26733845076384
100
AcDbArc
 50
195.2928172123926
 51
202.7097066629342
  0
ARC
  5
118
330
50
100
AcDbEntity
  8
1
  6
Continuous
 62
     7
100
AcDbCircle
 10
204.9581524467245
 20
622.2991996702178
 30
0.0
 40
28.99999999999897
100
AcDbArc
 50
212.49099159919
 51
227.7795684756032
  0
ARC
  5
119
330
50
100
AcDbEntity
  8
1
  6
Continuous
 62
     7
100
AcDbCircle
 10
204.9581524467245
 20
567.3464287773656
 30
0.0
 40
28.9999999999991
100
AcDbArc
 50
132.2204315243968
 51
147.50900840081
  0
ARC
  5
11A
330
50
100
AcDbEntity
  8
1
  6
Continuous
 62
     7
100
AcDbCircle
 10
205.1253210146649
 20
211.7532824420544
 30
0.0
 40
24.00000000000025
100
AcDbArc
 50
138.9591925000999
 51
161.040807499904
  0
ARC
  5
11B
330
50
100
AcDbEntity
  8
1
  6
Continuous
 62
     7
100
AcDbCircle
 10
177.7871554473158
 20
221.4132553345549
 30
0.0
 40
4.999999999999931
100
AcDbArc
 50
240.5729959991942
 51
338.1301023541591
  0
ARC
  5
11C
330
50
100
AcDbEntity
  8
1
  6
Continuous
 62
     7
100
AcDbCircle
 10
191.7151530183048
 20
261.8007107424968
 30
0.0
 40
24.00000000000001
100
AcDbArc
 50
228.9591925001001
 51
251.0408074999053
  0
ARC
  5
11D
330
50
100
AcDbEntity
  8
1
  6
Continuous
 62
     7
100
AcDbCircle
 10
172.8695935903676
 20
239.765846034047
 30
0.0
 40
4.999999999999797
100
AcDbArc
 50
51.86989764584363
 51
149.4270040008043
  0
SPLINE
  5
11E
330
50
100
AcDbEntity
  8
1
  6
Continuous
 62
     7
100
AcDbSpline
210
0.0
220
0.0
230
1.0
 70
     8
 71
     3
 72
    29
 73
    25
 74
    23
 42
0.000000001
 43
0.0000000001
 44
0.00000001
 40
0.0
 40
0.0
 40
0.0
 40
0.0
 40
0.6069077071335686
 40
1.2122226189222
 40
1.842666699981176
 40
2.474631891988099
 40
3.102420163135297
 40
3.729333881624732
 40
4.271042929453412
 40
4.812985317241673
 40
5.340107969104525
 40
5.866248914949269
 40
6.263874824440816
 40
6.661485222727126
 40
7.280966483141491
 40
7.902596723210588
 40
8.549168899023218
 40
9.195896755585249
 40
9.722415956712357
 40
10.24911839923959
 40
11.07897535377125
 40
11.90732205839701
 40
12.67331707894498
 40
13.44191268485728
 40
13.44191268485728
 40
13.44191268485728
 40
13.44191268485728
 10
178.7091149108535
 20
231.4954173421598
 30
0.0
 10
178.6472791010579
 20
231.6880362133377
 30
0.0
 10
178.5237697548261
 20
232.0727684344979
 30
0.0
 10
178.3038319641719
 20
232.6471204644629
 30
0.0
 10
178.0164921095937
 20
233.2010429498114
 30
0.0
 10
177.6679879348769
 20
233.7271771968025
 30
0.0
 10
177.2695293492882
 20
234.2152414435677
 30
0.0
 10
176.8378611176124
 20
234.6326377144534
 30
0.0
 10
176.3798855768578
 20
234.9747820827091
 30
0.0
 10
175.908299320835
 20
235.2355537599695
 30
0.0
 10
175.4068083387585
 20
235.4189741421318
 30
0.0
 10
174.9279388707245
 20
235.5052831699319
 30
0.0
 10
174.4857717141446
 20
235.5067960262392
 30
0.0
 10
174.0177793718397
 20
235.4338896763348
 30
0.0
 10
173.5031578830694
 20
235.2334082726044
 30
0.0
 10
172.98089432016
 20
234.8730089760963
 30
0.0
 10
172.5476182565008
 20
234.3974268747467
 30
0.0
 10
172.2310790457111
 20
233.876388832118
 30
0.0
 10
172.0089259198124
 20
233.3536665524667
 30
0.0
 10
171.8299075486124
 20
232.7509600779212
 30
0.0
 10
171.7086050372238
 20
232.0301113019578
 30
0.0
 10
171.6932851501743
 20
231.2188418257244
 30
0.0
 10
171.7949567191622
 20
230.4360787427559
 30
0.0
 10
171.8967476963785
 20
229.9347824636091
 30
0.0
 10
171.9477294406107
 20
229.6837095656926
 30
0.0
 11
178.7091149108535
 21
231.4954173421598
 31
0.0
 11
178.5182986439135
 21
232.0715476439003
 31
0.0
 11
178.2966060036299
 21
232.6348047048562
 31
0.0
 11
178.0071141324683
 21
233.1948530930026
 31
0.0
 11
177.6587142433509
 21
233.7221077962858
 31
0.0
 11
177.2602046758732
 21
234.207193601892
 31
0.0
 11
176.8081589510524
 21
234.6415615033945
 31
0.0
 11
176.3731682649825
 21
234.964410997936
 31
0.0
 11
175.8980253746373
 21
235.2250655319196
 31
0.0
 11
175.4023636110959
 21
235.4044469884566
 31
0.0
 11
174.8841516020078
 21
235.4954448415926
 31
0.0
 11
174.4865266606794
 21
235.4963225585937
 31
0.0
 11
174.0937806455613
 21
235.4343177450253
 31
0.0
 11
173.5153874984279
 21
235.2124655408248
 31
0.0
 11
173.0031540873969
 21
234.8602708658247
 31
0.0
 11
172.5645664592654
 21
234.3851956380251
 31
0.0
 11
172.2255911275813
 21
233.8344210508019
 31
0.0
 11
172.0183243062735
 21
233.3504138870809
 31
0.0
 11
171.8668151207478
 21
232.8459731767437
 31
0.0
 11
171.7289537760594
 21
232.0276475592757
 31
0.0
 11
171.7141286988293
 21
231.1994335277762
 31
0.0
 11
171.8037548364154
 21
230.4386999815199
 31
0.0
 11
171.9477294406107
 21
229.6837095656926
 31
0.0
  0
SPLINE
  5
11F
330
50
100
AcDbEntity
  8
1
  6
Continuous
 62
     7
100
AcDbSpline
210
0.0
220
0.0
230
1.0
 70
    11
 71
     3
 72
    79
 73
    75
 74
    73
 42
0.000000001
 43
0.0000000001
 44
0.00000001
 40
0.0
 40
0.0
 40
0.0
 40
0.0
 40
0.2803981055171984
 40
0.5607977780796469
 40
0.8427454767815789
 40
1.124697465942806
 40
1.409536444711914
 40
1.694381494092236
 40
1.983071303433854
 40
2.271767836809206
 40
2.564776135645488
 40
2.857790848031776
 40
3.155055692063502
 40
3.452325972452681
 40
3.753284820909485
 40
4.05424773638822
 40
4.357919800455213
 40
4.66159436177149
 40
4.966700742338213
 40
5.271807963175795
 40
5.576915184002997
 40
5.882021564538579
 40
6.18569612580264
 40
6.489368189795909
 40
6.790331105179837
 40
7.091289953518752
 40
7.388560233767663
 40
7.685825077634015
 40
7.978839789830676
 40
8.271848088449241
 40
8.560544621579792
 40
8.849234430642454
 40
9.134079479707335
 40
9.418918458106278
 40
9.700870446812768
 40
9.98281814485597
 40
10.2632178160088
 40
10.54361593035247
 40
10.82401404469591
 40
11.10441371584859
 40
11.38636141389196
 40
11.66831340259859
 40
11.95315238099752
 40
12.23799743006229
 40
12.52668723912496
 40
12.81538377225549
 40
13.1083920708742
 40
13.40140678307106
 40
13.69867162693733
 40
13.99594190718619
 40
14.29690075552502
 40
14.59786367090878
 40
14.90153573490219
 40
15.20521029616643
 40
15.51031667670193
 40
15.8154238975292
 40
16.12053111836678
 40
16.4256374989334
 40
16.72931206024969
 40
17.03298412431669
 40
17.33394703979542
 40
17.63490588825226
 40
17.93217616864144
 40
18.22944101267313
 40
18.52245572505949
 40
18.81546402389588
 40
19.10416055727123
 40
19.39285036661279
 40
19.67769541599302
 40
19.96253439476197
 40
20.24448638392337
 40
20.5264340826255
 40
20.80683375518787
 40
21.08723186070488
 40
21.08723186070488
 40
21.08723186070488
 40
21.08723186070488
 10
175.7952446263072
 20
242.3701292907514
 30
0.0
 10
175.7685514785992
 20
242.4597757653408
 30
0.0
 10
175.7151650391113
 20
242.6390692170727
 30
0.0
 10
175.603028757176
 20
242.8973306684098
 30
0.0
 10
175.4684726329479
 20
243.1448822951073
 30
0.0
 10
175.3100383448728
 20
243.3798096036456
 30
0.0
 10
175.1298996511401
 20
243.5997255199522
 30
0.0
 10
174.92875688647
 20
243.8037781612331
 30
0.0
 10
174.7089107919917
 20
243.9895167130856
 30
0.0
 10
174.4711457081333
 20
244.1564413958992
 30
0.0
 10
174.2183202235443
 20
244.3024360242329
 30
0.0
 10
173.9512182838467
 20
244.4271678323937
 30
0.0
 10
173.6730807923007
 20
244.5290513243465
 30
0.0
 10
173.3848090503937
 20
244.6078385238958
 30
0.0
 10
173.0897646513269
 20
244.6625632508272
 30
0.0
 10
172.7891083036339
 20
244.6930667157403
 30
0.0
 10
172.4860615343113
 20
244.6989887318207
 30
0.0
 10
172.1821541373369
 20
244.6803395273098
 30
0.0
 10
171.8802538619617
 20
244.6372681263703
 30
0.0
 10
171.5823023631399
 20
244.570082334528
 30
0.0
 10
171.2906759000508
 20
244.4792911879636
 30
0.0
 10
171.0076868915908
 20
244.3656419780013
 30
0.0
 10
170.7351707630647
 20
244.2298389647218
 30
0.0
 10
170.4756855701588
 20
244.0731869640143
 30
0.0
 10
170.2305612678012
 20
243.8964420150488
 30
0.0
 10
170.0024076854635
 20
243.7015268118967
 30
0.0
 10
169.7921506364681
 20
243.489159225807
 30
0.0
 10
169.6022182375132
 20
243.2618567850862
 30
0.0
 10
169.4332671180059
 20
243.0202849122568
 30
0.0
 10
169.2873109849683
 20
242.7674370719371
 30
0.0
 10
169.1648632923771
 20
242.503993666999
 30
0.0
 10
169.0673381579458
 20
242.233215751107
 30
0.0
 10
168.9951774989255
 20
241.9559316786384
 30
0.0
 10
168.949101973418
 20
241.675401845498
 30
0.0
 10
168.929463945067
 20
241.3927602042365
 30
0.0
 10
168.9363150876135
 20
241.1109901318142
 30
0.0
 10
168.9698018123578
 20
240.8316545932343
 30
0.0
 10
169.0294452346657
 20
240.55723880761
 30
0.0
 10
169.1150004085908
 20
240.2897660549062
 30
0.0
 10
169.2256678235623
 20
240.031111019944
 30
0.0
 10
169.3606195962834
 20
239.7836654079269
 30
0.0
 10
169.5189474483462
 20
239.5487095806023
 30
0.0
 10
169.6991149404986
 20
239.328801381337
 30
0.0
 10
169.9002499405983
 20
239.1247466600247
 30
0.0
 10
170.1200981424694
 20
238.9390086732941
 30
0.0
 10
170.3578626573573
 20
238.7720838384539
 30
0.0
 10
170.6106882965659
 20
238.6260892519636
 30
0.0
 10
170.8777901944717
 20
238.5013574330072
 30
0.0
 10
171.1559276973287
 20
238.3994739444782
 30
0.0
 10
171.4441994361285
 20
238.3206867444823
 30
0.0
 10
171.7392438359733
 20
238.2659620181374
 30
0.0
 10
172.0399001833826
 20
238.2354585535214
 30
0.0
 10
172.3429469526988
 20
238.2295365378079
 30
0.0
 10
172.6468543495832
 20
238.2481857426606
 30
0.0
 10
172.9487546248826
 20
238.2912571439435
 30
0.0
 10
173.2467061236157
 20
238.3584429361244
 30
0.0
 10
173.5383325866122
 20
238.4492340830264
 30
0.0
 10
173.8213215949663
 20
238.5628832933236
 30
0.0
 10
174.0938377233998
 20
238.698686306944
 30
0.0
 10
174.3533229161276
 20
238.8553383079725
 30
0.0
 10
174.5984472185819
 20
239.0320832573377
 30
0.0
 10
174.8266007999523
 20
239.2269984606091
 30
0.0
 10
175.0368578518625
 20
239.439366047865
 30
0.0
 10
175.2267902393104
 20
239.6666684858949
 30
0.0
 10
175.395741400408
 20
239.9082403702712
 30
0.0
 10
175.5416973786192
 20
240.1610881695189
 30
0.0
 10
175.6641456399665
 20
240.4245317272834
 30
0.0
 10
175.7616686667814
 20
240.6953090788889
 30
0.0
 10
175.8338370901326
 20
240.9725952322824
 30
0.0
 10
175.8798838169562
 20
241.2531173493668
 30
0.0
 10
175.8996282809908
 20
241.5357875106412
 30
0.0
 10
175.8923814894581
 20
241.8174515702237
 30
0.0
 10
175.8603636326316
 20
242.0971806888673
 30
0.0
 10
175.8169509195797
 20
242.2791465925434
 30
0.0
 10
175.7952446263072
 20
242.3701292907514
 30
0.0
 11
175.7952446263072
 21
242.3701292907514
 31
0.0
 11
175.7098567882751
 21
242.6372098399464
 31
0.0
 11
175.5995562984849
 21
242.8950039004837
 31
0.0
 11
175.4646247335024
 21
243.1425679877744
 31
0.0
 11
175.3070917754066
 21
243.3764061607897
 31
0.0
 11
175.1266524756923
 21
243.5968033087808
 31
0.0
 11
174.9267374436114
 21
243.7997089075924
 31
0.0
 11
174.7062860480837
 21
243.9861036182698
 31
0.0
 11
174.4700501770025
 21
244.152050301131
 31
0.0
 11
174.2163649298627
 21
244.2986710995751
 31
0.0
 11
173.9509061870808
 21
244.4227246264561
 31
0.0
 11
173.6718136376175
 21
244.5250659002228
 31
0.0
 11
173.3850794012809
 21
244.6035075811616
 31
0.0
 11
173.0891825051559
 21
244.6584735281581
 31
0.0
 11
172.7897621801668
 21
244.6889061666476
 31
0.0
 11
172.4861491853976
 21
244.6948954836178
 31
0.0
 11
172.1830429362568
 21
244.6763255901091
 31
0.0
 11
171.8809911358011
 21
244.6332603682565
 31
0.0
 11
171.5833565267627
 21
244.5661481059982
 31
0.0
 11
171.2920412631609
 21
244.4754517255002
 31
0.0
 11
171.0089241197811
 21
244.3617214014164
 31
0.0
 11
170.7371414612252
 21
244.2262502763701
 31
0.0
 11
170.4771995533213
 21
244.0692568783381
 31
0.0
 11
170.2331102647161
 21
243.8931912778072
 31
0.0
 11
170.0043390092691
 21
243.6976409233025
 31
0.0
 11
169.7952407169361
 21
243.4863413167256
 31
0.0
 11
169.604710115977
 21
243.2581648990564
 31
0.0
 11
169.4368428645118
 21
243.0180020219575
 31
0.0
 11
169.2904553951456
 21
242.7641820622119
 31
0.0
 11
169.1688424709349
 21
242.5023500836398
 31
0.0
 11
169.0711233174469
 21
242.2307018312983
 31
0.0
 11
168.9994446204722
 21
241.9550229121169
 31
0.0
 11
168.9533781770741
 21
241.6739337331779
 31
0.0
 11
168.9338697199375
 21
241.3926574559241
 31
0.0
 11
168.9407976005355
 21
241.1107948847743
 31
0.0
 11
168.974171604596
 21
240.8323884345092
 31
0.0
 11
169.0337638422835
 21
240.5583959750336
 31
0.0
 11
169.1191516803157
 21
240.2913154258389
 31
0.0
 11
169.2294521701057
 21
240.0335213653017
 31
0.0
 11
169.3643837350884
 21
239.7859572780108
 31
0.0
 11
169.5219166931842
 21
239.5521191049952
 31
0.0
 11
169.7023559928984
 21
239.3317219570042
 31
0.0
 11
169.9022710249793
 21
239.1288163581927
 31
0.0
 11
170.122722420507
 21
238.9424216475153
 31
0.0
 11
170.358958291588
 21
238.7764749646541
 31
0.0
 11
170.6126435387278
 21
238.6298541662098
 31
0.0
 11
170.8781022815097
 21
238.5058006393287
 31
0.0
 11
171.1571948309732
 21
238.4034593655624
 31
0.0
 11
171.4439290673099
 21
238.3250176846238
 31
0.0
 11
171.7398259634349
 21
238.2700517376271
 31
0.0
 11
172.039246288424
 21
238.2396190991373
 31
0.0
 11
172.3428592831931
 21
238.2336297821671
 31
0.0
 11
172.6459655323339
 21
238.2521996756758
 31
0.0
 11
172.9480173327895
 21
238.2952648975286
 31
0.0
 11
173.2456519418279
 21
238.3623771597869
 31
0.0
 11
173.5369672054298
 21
238.4530735402849
 31
0.0
 11
173.8200843488095
 21
238.5668038643686
 31
0.0
 11
174.0918670073656
 21
238.7022749894149
 31
0.0
 11
174.3518089152697
 21
238.859268387447
 31
0.0
 11
174.5958982038747
 21
239.035333987978
 31
0.0
 11
174.8246694593215
 21
239.2308843424827
 31
0.0
 11
175.0337677516546
 21
239.4421839490594
 31
0.0
 11
175.2242983526137
 21
239.6703603667283
 31
0.0
 11
175.392165604079
 21
239.9105232438274
 31
0.0
 11
175.5385530734452
 21
240.1643432035732
 31
0.0
 11
175.6601659976559
 21
240.4261751821454
 31
0.0
 11
175.7578851511439
 21
240.6978234344869
 31
0.0
 11
175.8295638481186
 21
240.9735023536682
 31
0.0
 11
175.8756302915167
 21
241.2545915326071
 31
0.0
 11
175.8951387486532
 21
241.535867809861
 31
0.0
 11
175.888210868055
 21
241.8177303810109
 31
0.0
 11
175.8548368639945
 21
242.0961368312759
 31
0.0
 11
175.7952446263072
 21
242.3701292907514
 31
0.0
  0
SPLINE
  5
120
330
50
100
AcDbEntity
  8
1
  6
Continuous
 62
     7
100
AcDbSpline
210
0.0
220
0.0
230
1.0
 70
     8
 71
     3
 72
    29
 73
    25
 74
    23
 42
0.000000001
 43
0.0000000001
 44
0.00000001
 40
0.0
 40
0.0
 40
0.0
 40
0.0
 40
0.6069077071333708
 40
1.212222618921857
 40
1.842666699980772
 40
2.474631891987469
 40
3.102420163134722
 40
3.729333881624278
 40
4.27104292945294
 40
4.812985317241116
 40
5.340107969103886
 40
5.866248914948636
 40
6.26387482444022
 40
6.661485222726519
 40
7.280966483140907
 40
7.902596723210038
 40
8.549168899022662
 40
9.195896755584823
 40
9.722415956711803
 40
10.24911839923887
 40
11.07897535377077
 40
11.90732205839669
 40
12.67331707894444
 40
13.44191268485637
 40
13.44191268485637
 40
13.44191268485637
 40
13.44191268485637
 10
178.7091149108535
 20
231.4954173421598
 30
0.0
 10
178.7518729642959
 20
231.2976866015737
 30
0.0
 10
178.8372768434343
 20
230.9027440512788
 30
0.0
 10
178.9339811444582
 20
230.295371707287
 30
0.0
 10
178.962098773548
 20
229.6719908359589
 30
0.0
 10
178.9233524284139
 20
229.0420931249051
 30
0.0
 10
178.8223092943208
 20
228.4201877957334
 30
0.0
 10
178.6571717751254
 20
227.8428779058635
 30
0.0
 10
178.4316255066479
 20
227.3175844208149
 30
0.0
 10
178.153605667487
 20
226.8559563957085
 30
0.0
 10
177.8110119283211
 20
226.4463641941459
 30
0.0
 10
177.439453317807
 20
226.1321836494781
 30
0.0
 10
177.0572817556433
 20
225.9097898991938
 30
0.0
 10
176.6155353234785
 20
225.7389324791557
 30
0.0
 10
176.0696193390048
 20
225.6552437233872
 30
0.0
 10
175.4371261778003
 20
225.7062268882145
 30
0.0
 10
174.8241070491447
 20
225.9014550377388
 30
0.0
 10
174.2894570299928
 20
226.1944176135987
 30
0.0
 10
173.8357056396087
 20
226.5360318239514
 30
0.0
 10
173.3793179451325
 20
226.9684817563329
 30
0.0
 10
172.9138425007454
 20
227.53210385291
 30
0.0
 10
172.4949403512608
 20
228.2270238851184
 30
0.0
 10
172.1916089713628
 20
228.9557523846075
 30
0.0
 10
172.0291144039345
 20
229.4407831857792
 30
0.0
 10
171.9477294406107
 20
229.6837095656926
 30
0.0
 11
178.7091149108535
 21
231.4954173421598
 31
0.0
 11
178.8319283270983
 21
230.9010657314927
 31
0.0
 11
178.9215653992586
 21
230.3024244877023
 31
0.0
 11
178.9508822787169
 21
229.6726624206383
 31
0.0
 11
178.9127864757072
 21
229.0418465087717
 31
0.0
 11
178.8102099694234
 21
228.4224950943626
 31
0.0
 11
178.6359108388076
 21
227.8202985946624
 31
0.0
 11
178.4206226015323
 21
227.3232073877555
 31
0.0
 11
178.1394640550577
 21
226.8599024945416
 31
0.0
 11
177.7998991044147
 21
226.456722714442
 31
0.0
 11
177.3966132665663
 21
226.1188102573924
 31
0.0
 11
177.0526988246982
 21
225.9192376615079
 31
0.0
 11
176.6815683915866
 21
225.7765623976559
 31
0.0
 11
176.069739130694
 21
225.6794954688122
 31
0.0
 11
175.4500346465739
 21
225.7283882989244
 31
0.0
 11
174.8326690049266
 21
225.9205217008417
 31
0.0
 11
174.2637204628203
 21
226.228018819294
 31
0.0
 11
173.8422185483456
 21
226.543547908036
 31
0.0
 11
173.4587873896051
 21
226.904651785128
 31
0.0
 11
172.9302331541709
 21
227.5444118860789
 31
0.0
 11
172.5032872449268
 21
228.2542537385133
 31
0.0
 11
172.2005389837914
 21
228.957881383875
 31
0.0
 11
171.9477294406107
 21
229.6837095656926
 31
0.0
  0
SPLINE
  5
121
330
50
100
AcDbEntity
  8
1
  6
Continuous
 62
     7
100
AcDbSpline
210
0.0
220
0.0
230
1.0
 70
    11
 71
     3
 72
    79
 73
    75
 74
    73
 42
0.000000001
 43
0.0000000001
 44
0.00000001
 40
0.0
 40
0.0
 40
0.0
 40
0.0
 40
0.2803981055170137
 40
0.5607977780793103
 40
0.8427454767814315
 40
1.124697465942847
 40
1.409536444711839
 40
1.694381494092036
 40
1.983071303433635
 40
2.271767836808987
 40
2.564776135645324
 40
2.857790848031569
 40
3.155055692063337
 40
3.452325972452593
 40
3.753284820909331
 40
4.054247736387987
 40
4.357919800455051
 40
4.661594361771365
 40
4.966700742337983
 40
5.271807963175483
 40
5.576915184002702
 40
5.882021564538274
 40
6.185696125802459
 40
6.489368189795835
 40
6.790331105179797
 40
7.091289953518713
 40
7.388560233767472
 40
7.685825077633638
 40
7.978839789830346
 40
8.271848088448941
 40
8.56054462157955
 40
8.849234430642355
 40
9.134079479707106
 40
9.418918458106038
 40
9.70087044681264
 40
9.982818144855962
 40
10.26321781600874
 40
10.54361593035229
 40
10.82401404469581
 40
11.1044137158485
 40
11.38636141389187
 40
11.6683134025985
 40
11.95315238099745
 40
12.23799743006225
 40
12.52668723912493
 40
12.81538377225551
 40
13.10839207087417
 40
13.40140678307099
 40
13.69867162693719
 40
13.99594190718604
 40
14.29690075552496
 40
14.59786367090877
 40
14.90153573490215
 40
15.20521029616629
 40
15.5103166767018
 40
15.81542389752906
 40
16.12053111836655
 40
16.42563749893313
 40
16.72931206024943
 40
17.03298412431649
 40
17.33394703979522
 40
17.63490588825207
 40
17.93217616864106
 40
18.22944101267266
 40
18.52245572505906
 40
18.81546402389559
 40
19.10416055727089
 40
19.39285036661251
 40
19.67769541599268
 40
19.96253439476173
 40
20.24448638392323
 40
20.52643408262545
 40
20.80683375518779
 40
21.08723186070486
 40
21.08723186070486
 40
21.08723186070486
 40
21.08723186070486
 10
181.6229851953998
 20
220.6207053935684
 30
0.0
 10
181.6446914886724
 20
220.5297226953604
 30
0.0
 10
181.6881042017242
 20
220.3477567916844
 30
0.0
 10
181.7201220585508
 20
220.0680276730407
 30
0.0
 10
181.7273688500835
 20
219.7863636134584
 30
0.0
 10
181.7076243860489
 20
219.5036934521839
 30
0.0
 10
181.6615776592251
 20
219.2231713350996
 30
0.0
 10
181.5894092358739
 20
218.9458851817059
 30
0.0
 10
181.4918862090591
 20
218.6751078301005
 30
0.0
 10
181.3694379477118
 20
218.4116642723358
 30
0.0
 10
181.2234819695006
 20
218.1588164730883
 30
0.0
 10
181.054530808403
 20
217.9172445887122
 30
0.0
 10
180.864598420955
 20
217.6899421506822
 30
0.0
 10
180.6543413690448
 20
217.4775745634263
 30
0.0
 10
180.4261877876746
 20
217.2826593601548
 30
0.0
 10
180.1810634852202
 20
217.1059144107895
 30
0.0
 10
179.9215782924925
 20
216.949262409761
 30
0.0
 10
179.649062164059
 20
216.8134593961406
 30
0.0
 10
179.3660731557049
 20
216.6998101858435
 30
0.0
 10
179.0744466927084
 20
216.6090190389416
 30
0.0
 10
178.7764951939752
 20
216.5418332467606
 30
0.0
 10
178.474594918676
 20
216.4987618454777
 30
0.0
 10
178.1706875217916
 20
216.480112640625
 30
0.0
 10
177.8676407524752
 20
216.4860346563384
 30
0.0
 10
177.566984405066
 20
216.5165381209546
 30
0.0
 10
177.271940005221
 20
216.5712628472994
 30
0.0
 10
176.9836682664213
 20
216.6500500472954
 30
0.0
 10
176.7055307635644
 20
216.7519335358243
 30
0.0
 10
176.4384288656586
 20
216.8766653547806
 30
0.0
 10
176.1856032264502
 20
217.0226599412708
 30
0.0
 10
175.9478387115622
 20
217.189584776111
 30
0.0
 10
175.7279905096911
 20
217.3753227628417
 30
0.0
 10
175.5268555095917
 20
217.5793774841544
 30
0.0
 10
175.3466880174389
 20
217.7992856834194
 30
0.0
 10
175.1883601653762
 20
218.0342415107439
 30
0.0
 10
175.0534083926549
 20
218.2816871227609
 30
0.0
 10
174.9427409776835
 20
218.5403421577232
 30
0.0
 10
174.8571858037587
 20
218.8078149104272
 30
0.0
 10
174.7975423814509
 20
219.0822306960515
 30
0.0
 10
174.7640556567061
 20
219.3615662346311
 30
0.0
 10
174.7572045141596
 20
219.6433363070536
 30
0.0
 10
174.7768425425105
 20
219.9259779483151
 30
0.0
 10
174.8229180680181
 20
220.2065077814557
 30
0.0
 10
174.8950787270384
 20
220.4837918539241
 30
0.0
 10
174.9926038614697
 20
220.7545697698162
 30
0.0
 10
175.1150515540609
 20
221.0180131747543
 30
0.0
 10
175.2610076870982
 20
221.2708610150742
 30
0.0
 10
175.4299588066056
 20
221.5124328879037
 30
0.0
 10
175.6198912055606
 20
221.7397353286241
 30
0.0
 10
175.8301482545565
 20
221.9521029147136
 30
0.0
 10
176.058301836894
 20
222.1470181178657
 30
0.0
 10
176.3034261392516
 20
222.3237630668312
 30
0.0
 10
176.5629113321574
 20
222.4804150675389
 30
0.0
 10
176.8354274606835
 20
222.6162180808183
 30
0.0
 10
177.1184164691435
 20
222.7298672907807
 30
0.0
 10
177.4100429322327
 20
222.820658437345
 30
0.0
 10
177.7079944310543
 20
222.8878442291874
 30
0.0
 10
178.0098947064294
 20
222.9309156301272
 30
0.0
 10
178.3138021034039
 20
222.949564834638
 30
0.0
 10
178.6168488727265
 20
222.9436428185574
 30
0.0
 10
178.9175052204194
 20
222.913139353644
 30
0.0
 10
179.2125496194862
 20
222.8584146267124
 30
0.0
 10
179.5008213613932
 20
222.7796274271637
 30
0.0
 10
179.7789588529394
 20
222.6777439352113
 30
0.0
 10
180.0460607926369
 20
222.5530121270502
 30
0.0
 10
180.2988862772258
 20
222.4070174987163
 30
0.0
 10
180.5366513610844
 20
222.2400928159028
 30
0.0
 10
180.7564974555627
 20
222.0543542640504
 30
0.0
 10
180.9576402202328
 20
221.8503016227695
 30
0.0
 10
181.1377789139652
 20
221.6303857064627
 30
0.0
 10
181.2962132020406
 20
221.3954583979244
 30
0.0
 10
181.4307693262688
 20
221.1479067712267
 30
0.0
 10
181.5429056082039
 20
220.8896453198896
 30
0.0
 10
181.5962920476918
 20
220.7103518681577
 30
0.0
 10
181.6229851953998
 20
220.6207053935684
 30
0.0
 11
181.6229851953998
 21
220.6207053935684
 31
0.0
 11
181.6825774330872
 21
220.3467129340929
 31
0.0
 11
181.7159514371478
 21
220.068306483828
 31
0.0
 11
181.7228793177459
 21
219.7864439126781
 31
0.0
 11
181.7033708606093
 21
219.5051676354242
 31
0.0
 11
181.6573044172111
 21
219.2240784564852
 31
0.0
 11
181.5856257202364
 21
218.948399537304
 31
0.0
 11
181.4879065667484
 21
218.6767512849624
 31
0.0
 11
181.3662936425378
 21
218.4149193063902
 31
0.0
 11
181.2199061731716
 21
218.1610993466444
 31
0.0
 11
181.0520389217063
 21
217.9209364695455
 31
0.0
 11
180.8615083207471
 21
217.6927600518765
 31
0.0
 11
180.652410028414
 21
217.4814604452998
 31
0.0
 11
180.4236387729673
 21
217.2859100907951
 31
0.0
 11
180.1795494843624
 21
217.1098444902641
 31
0.0
 11
179.9196075764583
 21
216.9528510922318
 31
0.0
 11
179.6478249179022
 21
216.8173799671856
 31
0.0
 11
179.3647077745224
 21
216.703649643102
 31
0.0
 11
179.0733925109206
 21
216.6129532626041
 31
0.0
 11
178.7757579018823
 21
216.5458410003457
 31
0.0
 11
178.4737061014266
 21
216.5027757784929
 31
0.0
 11
178.1705998522859
 21
216.4842058849842
 31
0.0
 11
177.8669868575168
 21
216.4901952019544
 31
0.0
 11
177.5675665325275
 21
216.5206278404443
 31
0.0
 11
177.2716696364024
 21
216.5755937874409
 31
0.0
 11
176.9849354000658
 21
216.6540354683795
 31
0.0
 11
176.7058428506024
 21
216.7563767421458
 31
0.0
 11
176.4403841078206
 21
216.8804302690268
 31
0.0
 11
176.1866988606809
 21
217.027051067471
 31
0.0
 11
175.9504629895998
 21
217.1929977503323
 31
0.0
 11
175.7300115940721
 21
217.3793924610098
 31
0.0
 11
175.5300965619913
 21
217.5822980598213
 31
0.0
 11
175.349657262277
 21
217.8026952078123
 31
0.0
 11
175.192124304181
 21
218.0365333808277
 31
0.0
 11
175.0571927391983
 21
218.2840974681186
 31
0.0
 11
174.9468922494084
 21
218.5418915286559
 31
0.0
 11
174.8615044113764
 21
218.8089720778508
 31
0.0
 11
174.8019121736889
 21
219.0829645373263
 31
0.0
 11
174.7685381696282
 21
219.3613709875912
 31
0.0
 11
174.76161028903
 21
219.6432335587412
 31
0.0
 11
174.7811187461666
 21
219.9245098359951
 31
0.0
 11
174.8271851895648
 21
220.2055990149341
 31
0.0
 11
174.8988638865395
 21
220.4812779341154
 31
0.0
 11
174.9965830400275
 21
220.7529261864569
 31
0.0
 11
175.1181959642381
 21
221.0147581650291
 31
0.0
 11
175.2645834336042
 21
221.2685781247749
 31
0.0
 11
175.4324506850695
 21
221.5087410018739
 31
0.0
 11
175.6229812860287
 21
221.7369174195428
 31
0.0
 11
175.8320795783619
 21
221.9482170261194
 31
0.0
 11
176.0608508338089
 21
222.1437673806241
 31
0.0
 11
176.304940122414
 21
222.319832981155
 31
0.0
 11
176.564882030318
 21
222.4768263791872
 31
0.0
 11
176.8366646888739
 21
222.6122975042335
 31
0.0
 11
177.1197818322536
 21
222.7260278283173
 31
0.0
 11
177.4110970958555
 21
222.8167242088153
 31
0.0
 11
177.7087317048938
 21
222.8838364710736
 31
0.0
 11
178.0107835053493
 21
222.9269016929264
 31
0.0
 11
178.3138897544901
 21
222.945471586435
 31
0.0
 11
178.6175027492594
 21
222.9394822694647
 31
0.0
 11
178.9169230742485
 21
222.9090496309749
 31
0.0
 11
179.2128199703735
 21
222.8540836839783
 31
0.0
 11
179.49955420671
 21
222.7756420030399
 31
0.0
 11
179.7786467561733
 21
222.6733007292736
 31
0.0
 11
180.0441054989553
 21
222.5492472023925
 31
0.0
 11
180.2977907460952
 21
222.4026264039481
 31
0.0
 11
180.5340266171763
 21
222.2366797210869
 31
0.0
 11
180.7544780127041
 21
222.0502850104096
 31
0.0
 11
180.9543930447849
 21
221.8473794115981
 31
0.0
 11
181.1348323444991
 21
221.626982263607
 31
0.0
 11
181.292365302595
 21
221.3931440905914
 31
0.0
 11
181.4272968675777
 21
221.1455800033005
 31
0.0
 11
181.5375973573677
 21
220.8877859427633
 31
0.0
 11
181.6229851953998
 21
220.6207053935684
 31
0.0
  0
SPLINE
  5
122
330
50
100
AcDbEntity
  8
1
  6
Continuous
 62
     7
100
AcDbSpline
210
0.0
220
0.0
230
1.0
 70
     8
 71
     3
 72
    19
 73
    15
 74
    13
 42
0.000000001
 43
0.0000000001
 44
0.00000001
 40
0.0
 40
0.0
 40
0.0
 40
0.0
 40
0.0529597675065814
 40
0.1059375849846776
 40
1.193415046284383
 40
2.281002076529596
 40
3.355401391723123
 40
4.42990331167269
 40
5.493534749395807
 40
6.557246440773017
 40
7.613803200033539
 40
8.670404172358486
 40
9.19818785563056
 40
9.724801028774511
 40
9.724801028774511
 40
9.724801028774511
 40
9.724801028774511
 10
462.2907650530163
 20
223.0131523698554
 30
0.0
 10
462.3037938193042
 20
223.0250641658966
 30
0.0
 10
462.3298557827293
 20
223.0488918283663
 30
0.0
 10
462.6220774189405
 20
223.3188051319323
 30
0.0
 10
463.1448365438646
 20
223.8479181127864
 30
0.0
 10
463.8359838242631
 20
224.6836706717488
 30
0.0
 10
464.4479003699038
 20
225.5739484990427
 30
0.0
 10
464.9724530803202
 20
226.5092122358088
 30
0.0
 10
465.4086740479268
 20
227.4849229610055
 30
0.0
 10
465.7503208936105
 20
228.4913277906273
 30
0.0
 10
465.997578241093
 20
229.522618078519
 30
0.0
 10
466.1202567723882
 20
230.3956556519943
 30
0.0
 10
466.171751237491
 20
231.0977668351007
 30
0.0
 10
466.1765593954328
 20
231.449270258753
 30
0.0
 10
466.1789607983293
 20
231.6248268647449
 30
0.0
 11
462.2907650530163
 21
223.0131523698554
 31
0.0
 11
462.3298208829476
 21
223.0489207797923
 31
0.0
 11
462.3687428980817
 21
223.0848613683326
 31
0.0
 11
463.1328865392688
 21
223.8586130914345
 31
0.0
 11
463.8258618204095
 21
224.6968438526168
 31
0.0
 11
464.4340300408213
 21
225.5825443127743
 31
0.0
 11
464.9596254583414
 21
226.5197229692577
 31
0.0
 11
465.3932750948239
 21
227.4909386143766
 31
0.0
 11
465.7353598333771
 21
228.4981429608001
 31
0.0
 11
465.9809988756114
 21
229.5257487452199
 31
0.0
 11
466.129278158264
 21
230.5718935111444
 31
0.0
 11
466.1665401383137
 21
231.0983601879446
 31
0.0
 11
466.1789607983293
 21
231.6248268647449
 31
0.0
  0
SPLINE
  5
123
330
50
100
AcDbEntity
  8
1
  6
Continuous
 62
     7
100
AcDbSpline
210
0.0
220
0.0
230
1.0
 70
     8
 71
     3
 72
     9
 73
     5
 74
     3
 42
0.000000001
 43
0.0000000001
 44
0.00000001
 40
0.0
 40
0.0
 40
0.0
 40
0.0
 40
0.5266131733484848
 40
1.054396856978074
 40
1.054396856978074
 40
1.054396856978074
 40
1.054396856978074
 10
440.1789607983293
 20
231.6248268647748
 30
0.0
 10
440.1810400853478
 20
231.4492407814752
 30
0.0
 10
440.185203301023
 20
231.0976783380006
 30
0.0
 10
440.2141526734892
 20
230.7472847796955
 30
0.0
 10
440.2286434383946
 20
230.5718935111445
 30
0.0
 11
440.1789607983293
 21
231.6248268647748
 31
0.0
 11
440.1913814583442
 21
231.0983601879596
 31
0.0
 11
440.2286434383946
 21
230.5718935111445
 31
0.0
  0
SPLINE
  5
124
330
50
100
AcDbEntity
  8
1
  6
Continuous
 62
     7
100
AcDbSpline
210
0.0
220
0.0
230
1.0
 70
     8
 71
     3
 72
    17
 73
    13
 74
    11
 42
0.000000001
 43
0.0000000001
 44
0.00000001
 40
0.0
 40
0.0
 40
0.0
 40
0.0
 40
1.056600973270375
 40
2.113157732805651
 40
3.176869424351967
 40
4.240500862191752
 40
5.315002782207784
 40
6.389402097434363
 40
7.476989127618288
 40
8.56446658816419
 40
8.617444405426419
 40
8.67040417259946
 40
8.67040417259946
 40
8.67040417259946
 40
8.67040417259946
 10
440.2286434383946
 20
230.5718935111445
 30
0.0
 10
440.2711560857333
 20
230.2220031426848
 30
0.0
 10
440.356179615943
 20
229.5222370490719
 30
0.0
 10
440.6087247436714
 20
228.4914306519473
 30
0.0
 10
440.9489456325508
 20
227.4848953311105
 30
0.0
 10
441.3855503331408
 20
226.509219721694
 30
0.0
 10
441.9099992149825
 20
225.5739464834045
 30
0.0
 10
442.5219437773171
 20
224.6836712199762
 30
0.0
 10
443.213083338985
 20
223.8479179548804
 30
0.0
 10
443.7358441959295
 20
223.3188051329325
 30
0.0
 10
444.0280658136382
 20
223.0488918281254
 30
0.0
 10
444.0541277772618
 20
223.0250641658184
 30
0.0
 10
444.06715654363
 20
223.013152369867
 30
0.0
 11
440.2286434383946
 21
230.5718935111445
 31
0.0
 11
440.3769227210472
 21
229.52574874522
 31
0.0
 11
440.6225617632817
 21
228.4981429608001
 31
0.0
 11
440.964646501835
 21
227.4909386143766
 31
0.0
 11
441.3982961383173
 21
226.5197229692577
 31
0.0
 11
441.9238915558371
 21
225.5825443127742
 31
0.0
 11
442.5320597762489
 21
224.6968438526168
 31
0.0
 11
443.2250350573898
 21
223.8586130914345
 31
0.0
 11
443.989178698577
 21
223.0848613683326
 31
0.0
 11
444.0281007137049
 21
223.0489207797981
 31
0.0
 11
444.06715654363
 21
223.013152369867
 31
0.0
  0
SPLINE
  5
125
330
50
100
AcDbEntity
  8
1
  6
Continuous
 62
     7
100
AcDbSpline
210
0.0
220
0.0
230
1.0
 70
     8
 71
     3
 72
    35
 73
    31
 74
    29
 42
0.000000001
 43
0.0000000001
 44
0.00000001
 40
0.0
 40
0.0
 40
0.0
 40
0.0
 40
0.1601419154943136
 40
0.3205543447150009
 40
0.5413003852074044
 40
0.7634445922593972
 40
0.8103334054243385
 40
0.8568620105371482
 40
0.9757827049056739
 40
1.097580513601404
 40
1.239606495323365
 40
1.381632476550113
 40
1.54981647970475
 40
1.715265151178808
 40
1.937409356615232
 40
2.158155396071868
 40
2.444713931061806
 40
2.731060979007237
 40
3.082178069080538
 40
3.433115335202533
 40
3.841869214385064
 40
4.250562040140299
 40
4.706996939443206
 40
5.163394847492775
 40
5.6553005483073
 40
6.147188425313308
 40
6.660933137901805
 40
7.17466999121307
 40
7.435247142808018
 40
7.695791615623655
 40
7.695791615623655
 40
7.695791615623655
 40
7.695791615623655
 10
186.2743669914196
 20
589.6883497174779
 30
0.0
 10
186.2525412323947
 20
589.6396312407539
 30
0.0
 10
186.2088528411794
 20
589.5421119936586
 30
0.0
 10
186.1279060889171
 20
589.3807574927183
 30
0.0
 10
186.0237620461921
 20
589.2083228534759
 30
0.0
 10
185.9232809395626
 20
589.0789769892466
 30
0.0
 10
185.8515903047845
 20
589.0019352198502
 30
0.0
 10
185.7994466200661
 20
588.9539820796234
 30
0.0
 10
185.720864618138
 20
588.8983188548136
 30
0.0
 10
185.6059598141397
 20
588.8420938368398
 30
0.0
 10
185.4705145420338
 20
588.812370860646
 30
0.0
 10
185.3201055460628
 20
588.8457578179779
 30
0.0
 10
185.1782788857076
 20
588.9202341650418
 30
0.0
 10
185.0406261204695
 20
589.0464281045167
 30
0.0
 10
184.9178420560138
 20
589.2086576776462
 30
0.0
 10
184.7916125748272
 20
589.4168178003393
 30
0.0
 10
184.6775727311945
 20
589.6559680893708
 30
0.0
 10
184.5634865882348
 20
589.9422165251619
 30
0.0
 10
184.4607215483767
 20
590.2554579884243
 30
0.0
 10
184.3613095614738
 20
590.6122267714838
 30
0.0
 10
184.2730330918389
 20
590.9916702290552
 30
0.0
 10
184.1911408057196
 20
591.4083952543135
 30
0.0
 10
184.120503544259
 20
591.8432809128202
 30
0.0
 10
184.0585006603034
 20
592.3074587387775
 30
0.0
 10
184.0079680899191
 20
592.7849135300291
 30
0.0
 10
183.9676545826897
 20
593.2825091255622
 30
0.0
 10
183.9389767832321
 20
593.7882017605516
 30
0.0
 10
183.9244976539221
 20
594.2173465336616
 30
0.0
 10
183.9185312703509
 20
594.5622574275832
 30
0.0
 10
183.9179646923104
 20
594.7359655893302
 30
0.0
 10
183.9176814242616
 20
594.822814223729
 30
0.0
 11
186.2743669914196
 21
589.6883497174779
 31
0.0
 11
186.2078295713185
 21
589.5426850071337
 31
0.0
 11
186.1353701830357
 21
589.3995704215149
 31
0.0
 11
186.0204239934475
 21
589.2111130309802
 31
0.0
 11
185.8832856512536
 21
589.0363528411244
 31
0.0
 11
185.8510757826114
 21
589.0022781412924
 31
0.0
 11
185.8168574935354
 21
588.9707500618067
 31
0.0
 11
185.7200864070211
 21
588.9016306835123
 31
0.0
 11
185.6101477652548
 21
588.8492073931249
 31
0.0
 11
185.4705956948769
 21
588.8228142237917
 31
0.0
 11
185.331043624499
 21
588.849207393125
 31
0.0
 11
185.1817441274658
 21
588.9266381344114
 31
0.0
 11
185.0579057385004
 21
589.0363528411245
 31
0.0
 11
184.9207673963066
 21
589.2111130309803
 31
0.0
 11
184.8058212067182
 21
589.3995704215149
 31
0.0
 11
184.6804409731845
 21
589.6572438421896
 31
0.0
 11
184.573991211821
 21
589.9230691243413
 31
0.0
 11
184.4632448413533
 21
590.2562634412509
 31
0.0
 11
184.3687438778622
 21
590.5942376014284
 31
0.0
 11
184.2753317069754
 21
590.9921746571935
 31
0.0
 11
184.196301709905
 21
591.3931535663374
 31
0.0
 11
184.122627018359
 21
591.8436031831668
 31
0.0
 11
184.0620560005184
 21
592.2959638826085
 31
0.0
 11
184.0099763277623
 21
592.7851048912089
 31
0.0
 11
183.9701785874749
 21
593.2753801440001
 31
0.0
 11
183.9409375466581
 21
593.7882920187973
 31
0.0
 11
183.9235182450221
 21
594.3017334685957
 31
0.0
 11
183.919140629452
 21
594.5622738461623
 31
0.0
 11
183.9176814242616
 21
594.822814223729
 31
0.0
  0
SPLINE
  5
126
330
50
100
AcDbEntity
  8
1
  6
Continuous
 62
     7
100
AcDbSpline
210
0.0
220
0.0
230
1.0
 70
     8
 71
     3
 72
    35
 73
    31
 74
    29
 42
0.000000001
 43
0.0000000001
 44
0.00000001
 40
0.0
 40
0.0
 40
0.0
 40
0.0
 40
0.1601419154943136
 40
0.3205543447148994
 40
0.5413003852071088
 40
0.7634445922591016
 40
0.8103334054240429
 40
0.8568620105369296
 40
0.9757827049055213
 40
1.097580513601203
 40
1.239606495323184
 40
1.381632476549912
 40
1.549816479704496
 40
1.71526515117863
 40
1.937409356615053
 40
2.158155396071787
 40
2.44471393106152
 40
2.731060979007268
 40
3.082178069080676
 40
3.433115335202452
 40
3.841869214384872
 40
4.250562040140219
 40
4.706996939443013
 40
5.163394847492582
 40
5.655300548307221
 40
6.147188425313115
 40
6.660933137901839
 40
7.174669991213104
 40
7.435247142808052
 40
7.695791615623461
 40
7.695791615623461
 40
7.695791615623461
 40
7.695791615623461
 10
186.2743669914196
 20
599.9572787301056
 30
0.0
 10
186.2525412323947
 20
600.0059972068299
 30
0.0
 10
186.2088528411794
 20
600.1035164539246
 30
0.0
 10
186.1279060889172
 20
600.2648709548652
 30
0.0
 10
186.023762046192
 20
600.4373055941074
 30
0.0
 10
185.9232809395627
 20
600.5666514583363
 30
0.0
 10
185.8515903047845
 20
600.6436932277331
 30
0.0
 10
185.7994466200662
 20
600.6916463679597
 30
0.0
 10
185.720864618138
 20
600.74730959277
 30
0.0
 10
185.6059598141396
 20
600.8035346107434
 30
0.0
 10
185.4705145420338
 20
600.8332575869376
 30
0.0
 10
185.3201055460628
 20
600.7998706296057
 30
0.0
 10
185.1782788857075
 20
600.7253942825419
 30
0.0
 10
185.0406261204696
 20
600.599200343067
 30
0.0
 10
184.9178420560137
 20
600.4369707699373
 30
0.0
 10
184.7916125748274
 20
600.2288106472439
 30
0.0
 10
184.6775727311943
 20
599.9896603582127
 30
0.0
 10
184.5634865882349
 20
599.7034119224213
 30
0.0
 10
184.4607215483767
 20
599.390170459159
 30
0.0
 10
184.3613095614737
 20
599.0334016760995
 30
0.0
 10
184.2730330918389
 20
598.6539582185283
 30
0.0
 10
184.1911408057196
 20
598.2372331932697
 30
0.0
 10
184.120503544259
 20
597.8023475347635
 30
0.0
 10
184.0585006603034
 20
597.3381697088057
 30
0.0
 10
184.007968089919
 20
596.8607149175546
 30
0.0
 10
183.9676545826898
 20
596.3631193220211
 30
0.0
 10
183.9389767832321
 20
595.8574266870319
 30
0.0
 10
183.9244976539221
 20
595.4282819139216
 30
0.0
 10
183.9185312703511
 20
595.08337102
 30
0.0
 10
183.9179646923103
 20
594.9096628582532
 30
0.0
 10
183.9176814242616
 20
594.8228142238545
 30
0.0
 11
186.2743669914196
 21
599.9572787301056
 31
0.0
 11
186.2078295713185
 21
600.1029434404497
 31
0.0
 11
186.1353701830357
 21
600.2460580260685
 31
0.0
 11
186.0204239934475
 21
600.434515416603
 31
0.0
 11
185.8832856512536
 21
600.6092756064587
 31
0.0
 11
185.8510757826114
 21
600.6433503062907
 31
0.0
 11
185.8168574935354
 21
600.6748783857765
 31
0.0
 11
185.7200864070211
 21
600.7439977640711
 31
0.0
 11
185.6101477652548
 21
600.7964210544584
 31
0.0
 11
185.4705956948769
 21
600.8228142237916
 31
0.0
 11
185.331043624499
 21
600.7964210544585
 31
0.0
 11
185.1817441274658
 21
600.7189903131722
 31
0.0
 11
185.0579057385004
 21
600.6092756064589
 31
0.0
 11
184.9207673963066
 21
600.4345154166032
 31
0.0
 11
184.8058212067182
 21
600.2460580260685
 31
0.0
 11
184.6804409731845
 21
599.988384605394
 31
0.0
 11
184.573991211821
 21
599.722559323242
 31
0.0
 11
184.4632448413533
 21
599.3893650063322
 31
0.0
 11
184.3687438778622
 21
599.051390846155
 31
0.0
 11
184.2753317069754
 21
598.65345379039
 31
0.0
 11
184.196301709905
 21
598.2524748812459
 31
0.0
 11
184.122627018359
 21
597.8020252644167
 31
0.0
 11
184.0620560005184
 21
597.349664564975
 31
0.0
 11
184.0099763277623
 21
596.8605235563745
 31
0.0
 11
183.9701785874749
 21
596.3702483035834
 31
0.0
 11
183.9409375466581
 21
595.857336428786
 31
0.0
 11
183.9235182450221
 21
595.3438949789876
 31
0.0
 11
183.919140629452
 21
595.083354601421
 31
0.0
 11
183.9176814242616
 21
594.8228142238545
 31
0.0
  0
SPLINE
  5
127
330
50
100
AcDbEntity
  8
1
  6
Continuous
 62
     7
100
AcDbSpline
210
0.0
220
0.0
230
1.0
 70
    11
 71
     3
 72
    79
 73
    75
 74
    73
 42
0.000000001
 43
0.0000000001
 44
0.00000001
 40
0.0
 40
0.0
 40
0.0
 40
0.0
 40
0.3127048141650917
 40
0.625123994974143
 40
0.9583682291796506
 40
1.291221970997803
 40
1.653672449480391
 40
2.015785799739962
 40
2.411222231448026
 40
2.80641683472234
 40
3.234264143215378
 40
3.6619507329735
 40
4.118216756226281
 40
4.574381098483524
 40
5.052591795507605
 40
5.530743043257133
 40
6.02275523435036
 40
6.514740034293709
 40
7.011448785898076
 40
7.508157537502461
 40
8.000142337445899
 40
8.492154528538297
 40
8.970305776284235
 40
9.448516473299273
 40
9.904680815539399
 40
10.36094683876152
 40
10.78863342847244
 40
11.21648073689104
 40
11.611675340062
 40
12.00711177161764
 40
12.36922512167511
 40
12.73167559986391
 40
13.06452934127264
 40
13.39777357477503
 40
13.71019275351504
 40
14.02289757489204
 40
14.32803284877923
 40
14.63316812266522
 40
14.94587294403896
 40
15.25829212277384
 40
15.59153635626918
 40
15.92439009766991
 40
16.28684057584968
 40
16.64895392589772
 40
17.0443903574433
 40
17.43958496060469
 40
17.86743226901318
 40
18.29511885871506
 40
18.75138488192828
 40
19.20754922415998
 40
19.68575992116704
 40
20.16391116890586
 40
20.65592335999168
 40
21.14790815992955
 40
21.64461691152945
 40
22.14132566313013
 40
22.63331046307112
 40
23.12532265416314
 40
23.60347390191275
 40
24.08168459893791
 40
24.53784894119737
 40
24.99411496445321
 40
25.42180155421447
 40
25.84964886270931
 40
26.24484346598337
 40
26.64027989768567
 40
27.00239324792953
 40
27.3648437263719
 40
27.69769746809347
 40
28.03094170201068
 40
28.34336088128811
 40
28.65606570346497
 40
28.96120097951189
 40
29.2663362464522
 40
29.2663362464522
 40
29.2663362464522
 40
29.2663362464522
 10
171.1412418033123
 20
593.7942574591341
 30
0.0
 10
171.0456003209777
 20
593.7523524293398
 30
0.0
 10
170.8544047141594
 20
593.668580655171
 30
0.0
 10
170.5881728558795
 20
593.4893520112118
 30
0.0
 10
170.3402164984199
 20
593.2764762718446
 30
0.0
 10
170.1092449568702
 20
593.021994747029
 30
0.0
 10
169.9016359410232
 20
592.7363567580385
 30
0.0
 10
169.7132642471362
 20
592.4133937923114
 30
0.0
 10
169.5506706981182
 20
592.0646747782749
 30
0.0
 10
169.4100272346392
 20
591.6832070735577
 30
0.0
 10
169.2964314784191
 20
591.2816541859486
 30
0.0
 10
169.2072884437618
 20
590.8532385712602
 30
0.0
 10
169.1457550153561
 20
590.4104640110871
 30
0.0
 10
169.1104736760431
 20
589.9479870417032
 30
0.0
 10
169.1028251371786
 20
589.476932755147
 30
0.0
 10
169.122229459231
 20
588.9942868818212
 30
0.0
 10
169.1688138019669
 20
588.5088895188584
 30
0.0
 10
169.2421237587647
 20
588.0205620374958
 30
0.0
 10
169.3417091485066
 20
587.5353099864329
 30
0.0
 10
169.4665458737259
 20
587.055932687259
 30
0.0
 10
169.6163172133265
 20
586.5853940335797
 30
0.0
 10
169.7887762064732
 20
586.1292815509538
 30
0.0
 10
169.9844094431595
 20
585.687635535616
 30
0.0
 10
170.1992007129891
 20
585.2683321210402
 30
0.0
 10
170.4350009272208
 20
584.868922591791
 30
0.0
 10
170.6856604404196
 20
584.4987800435388
 30
0.0
 10
170.9547560052813
 20
584.1537091545692
 30
0.0
 10
171.2339356862423
 20
583.8435355303959
 30
0.0
 10
171.5285194745728
 20
583.5633252856177
 30
0.0
 10
171.8283440835104
 20
583.3221835833692
 30
0.0
 10
172.1399288509224
 20
583.1155525367229
 30
0.0
 10
172.45230584614
 20
582.9508311365889
 30
0.0
 10
172.7718721971402
 20
582.8246352392808
 30
0.0
 10
173.0883892657148
 20
582.7423581300144
 30
0.0
 10
173.4061868269912
 20
582.7015573744997
 30
0.0
 10
173.7172738946113
 20
582.7061357361529
 30
0.0
 10
174.0224140222656
 20
582.753143621161
 30
0.0
 10
174.316967669714
 20
582.8456551746665
 30
0.0
 10
174.5981287116406
 20
582.9788640089708
 30
0.0
 10
174.865280307928
 20
583.1557538509674
 30
0.0
 10
175.1129748231629
 20
583.3692954266066
 30
0.0
 10
175.3440192724025
 20
583.623591552529
 30
0.0
 10
175.5516071216994
 20
583.9092833648397
 30
0.0
 10
175.7399847528031
 20
584.2322312318618
 30
0.0
 10
175.9025765727704
 20
584.5809546419737
 30
0.0
 10
176.0432205206372
 20
584.9624211143487
 30
0.0
 10
176.1568161367081
 20
585.3639743578866
 30
0.0
 10
176.2459592102548
 20
585.7923898733302
 30
0.0
 10
176.3074926274527
 20
586.2351644617429
 30
0.0
 10
176.3427739697738
 20
586.6976414232912
 30
0.0
 10
176.350422507734
 20
587.1686957120199
 30
0.0
 10
176.3310181858902
 20
587.6513415847329
 30
0.0
 10
176.2844338430732
 20
588.1367389478513
 30
0.0
 10
176.211123886283
 20
588.6250664291617
 30
0.0
 10
176.1115384965277
 20
589.1103184802303
 30
0.0
 10
175.9867017712984
 20
589.5896957793939
 30
0.0
 10
175.836930431677
 20
590.0602344330688
 30
0.0
 10
175.6644714385034
 20
590.5163469156716
 30
0.0
 10
175.4688382017522
 20
590.9579929310358
 30
0.0
 10
175.2540469319147
 20
591.377296345434
 30
0.0
 10
175.0182467173704
 20
591.7767058752062
 30
0.0
 10
174.7675872048363
 20
592.1468484214131
 30
0.0
 10
174.4984916370493
 20
592.4919193173625
 30
0.0
 10
174.2193119658199
 20
592.8020929162224
 30
0.0
 10
173.9247281428865
 20
593.0823032482931
 30
0.0
 10
173.6249036562587
 20
593.3234446386873
 30
0.0
 10
173.3133184674669
 20
593.5300767558604
 30
0.0
 10
173.0009429727994
 20
593.694794339086
 30
0.0
 10
172.6813714512729
 20
593.8210033831607
 30
0.0
 10
172.3648729498702
 20
593.9032332763163
 30
0.0
 10
172.0470101674768
 20
593.944199880743
 30
0.0
 10
171.7361614259945
 20
593.9390154752795
 30
0.0
 10
171.4301519515142
 20
593.8942182576244
 30
0.0
 10
171.2375451860584
 20
593.8275777219739
 30
0.0
 10
171.1412418033123
 20
593.7942574591341
 30
0.0
 11
171.1412418033123
 21
593.7942574591341
 31
0.0
 11
170.8587058591728
 21
593.6602509456179
 31
0.0
 11
170.5976461073093
 21
593.4886305817998
 31
0.0
 11
170.3449256515917
 21
593.2714115897667
 31
0.0
 11
170.120388634012
 21
593.0256988693595
 31
0.0
 11
169.906673055727
 21
592.7329600765765
 31
0.0
 11
169.7235665289139
 21
592.4205531653561
 31
0.0
 11
169.5557043914194
 21
592.062513678366
 31
0.0
 11
169.4184645822421
 21
591.6919141516687
 31
0.0
 11
169.3013100053964
 21
591.280419164486
 31
0.0
 11
169.2137909239061
 21
590.8617830105098
 31
0.0
 11
169.150438069142
 21
590.409936687345
 31
0.0
 11
169.1154771668654
 21
589.9551140378928
 31
0.0
 11
169.1073231717782
 21
589.4769728630177
 31
0.0
 11
169.1263947244282
 21
588.999202110874
 31
0.0
 11
169.1731567898789
 21
588.5094171525305
 31
0.0
 11
169.2461821464345
 21
588.022882117127
 31
0.0
 11
169.3459310900858
 21
587.5362922157108
 31
0.0
 11
169.4712115983522
 21
587.0556422618272
 31
0.0
 11
169.6204471072472
 21
586.586837605003
 31
0.0
 11
169.794683358438
 21
586.1267096608877
 31
0.0
 11
169.988463262471
 21
585.689585005306
 31
0.0
 11
170.206836305942
 21
585.264145603473
 31
0.0
 11
170.4389702956961
 21
584.871462884292
 31
0.0
 11
170.6952667568215
 21
584.493983337854
 31
0.0
 11
170.9585883943543
 21
584.1569706760029
 31
0.0
 11
171.2453499376658
 21
583.8394472333566
 31
0.0
 11
171.5320823926524
 21
583.5674853358993
 31
0.0
 11
171.8407482978708
 21
583.3203106397752
 31
0.0
 11
172.1429503888982
 21
583.120811330206
 31
0.0
 11
172.4639364379021
 21
582.952471478874
 31
0.0
 11
172.7738748320707
 21
582.8311050706149
 31
0.0
 11
173.0965249535049
 21
582.7477466974515
 31
0.0
 11
173.406530268145
 21
582.7089852705562
 31
0.0
 11
173.7192031467314
 21
582.7134547662954
 31
0.0
 11
174.0206640819123
 21
582.76066535847
 31
0.0
 11
174.3120058471017
 21
582.8513709884494
 31
0.0
 11
174.5945417912414
 21
582.9853775019656
 31
0.0
 11
174.8556015431049
 21
583.1569978657838
 31
0.0
 11
175.1083219988225
 21
583.3742168578168
 31
0.0
 11
175.3328590164022
 21
583.619929578224
 31
0.0
 11
175.5465745946873
 21
583.9126683710069
 31
0.0
 11
175.7296811215003
 21
584.2250752822274
 31
0.0
 11
175.8975432589947
 21
584.5831147692174
 31
0.0
 11
176.0347830681719
 21
584.9537142959148
 31
0.0
 11
176.1519376450175
 21
585.3652092830971
 31
0.0
 11
176.2394567265078
 21
585.7838454370735
 31
0.0
 11
176.302809581272
 21
586.2356917602386
 31
0.0
 11
176.3377704835487
 21
586.6905144096906
 31
0.0
 11
176.3459244786361
 21
587.1686555845657
 31
0.0
 11
176.3268529259861
 21
587.6464263367095
 31
0.0
 11
176.2800908605354
 21
588.1362112950529
 31
0.0
 11
176.2070655039796
 21
588.6227463304565
 31
0.0
 11
176.1073165603283
 21
589.1093362318727
 31
0.0
 11
175.9820360520619
 21
589.5899861857563
 31
0.0
 11
175.8328005431669
 21
590.0587908425806
 31
0.0
 11
175.6585642919761
 21
590.5189187866957
 31
0.0
 11
175.4647843879431
 21
590.9560434422775
 31
0.0
 11
175.2464113444721
 21
591.3814828441105
 31
0.0
 11
175.014277354718
 21
591.7741655632915
 31
0.0
 11
174.7579808935926
 21
592.1516451097295
 31
0.0
 11
174.4946592560597
 21
592.4886577715807
 31
0.0
 11
174.2078977127484
 21
592.8061812142269
 31
0.0
 11
173.9211652577618
 21
593.0781431116842
 31
0.0
 11
173.6124993525434
 21
593.3253178078082
 31
0.0
 11
173.3102972615158
 21
593.5248171173773
 31
0.0
 11
172.9893112125118
 21
593.6931569687094
 31
0.0
 11
172.6793728183433
 21
593.8145233769686
 31
0.0
 11
172.3567226969091
 21
593.897881750132
 31
0.0
 11
172.046717382269
 21
593.9366431770272
 31
0.0
 11
171.7340445036826
 21
593.9321736812881
 31
0.0
 11
171.4325835685016
 21
593.8849630891135
 31
0.0
 11
171.1412418033123
 21
593.7942574591341
 31
0.0
  0
SPLINE
  5
128
330
50
100
AcDbEntity
  8
1
  6
Continuous
 62
     7
100
AcDbSpline
210
0.0
220
0.0
230
1.0
 70
     8
 71
     3
 72
     9
 73
     5
 74
     3
 42
0.000000001
 43
0.0000000001
 44
0.00000001
 40
0.0
 40
0.0
 40
0.0
 40
0.0
 40
0.1462765534805597
 40
0.2981162857377399
 40
0.2981162857377399
 40
0.2981162857377399
 40
0.2981162857377399
 10
179.1920778240163
 20
607.8228142237917
 30
0.0
 10
179.2410360432937
 20
607.8202403148362
 30
0.0
 10
179.3408144542746
 20
607.8149945865689
 30
0.0
 10
179.4351581282169
 20
607.7820175111278
 30
0.0
 10
179.4832102413102
 20
607.7652212692826
 30
0.0
 11
179.1920778240163
 21
607.8228142237917
 31
0.0
 11
179.3376440326632
 21
607.8084159851626
 31
0.0
 11
179.4832102413102
 21
607.7652212692826
 31
0.0
  0
SPLINE
  5
129
330
50
100
AcDbEntity
  8
1
  6
Continuous
 62
     7
100
AcDbSpline
210
0.0
220
0.0
230
1.0
 70
     8
 71
     3
 72
    11
 73
     7
 74
     5
 42
0.000000001
 43
0.0000000001
 44
0.00000001
 40
0.0
 40
0.0
 40
0.0
 40
0.0
 40
0.3557878564588533
 40
0.7052044053155679
 40
1.095733172667734
 40
1.483464294015566
 40
1.483464294015566
 40
1.483464294015566
 40
1.483464294015566
 10
179.4832102413102
 20
607.7652212692826
 30
0.0
 10
179.5913441476301
 20
607.7145592393287
 30
0.0
 10
179.8056755341867
 20
607.6141424022043
 30
0.0
 10
180.069746737973
 20
607.3544633736943
 30
0.0
 10
180.295980533746
 20
607.054150816511
 30
0.0
 10
180.4303885494637
 20
606.832021919714
 30
0.0
 10
180.497350969942
 20
606.7213567157685
 30
0.0
 11
179.4832102413102
 21
607.7652212692826
 31
0.0
 11
179.7963162254472
 21
607.5962548734464
 31
0.0
 11
180.0531759469262
 21
607.3593688037581
 31
0.0
 11
180.2910711768309
 21
607.0496615555843
 31
0.0
 11
180.497350969942
 21
606.7213567157685
 31
0.0
  0
SPLINE
  5
12A
330
50
100
AcDbEntity
  8
1
  6
Continuous
 62
     7
100
AcDbSpline
210
0.0
220
0.0
230
1.0
 70
     8
 71
     3
 72
    45
 73
    41
 74
    39
 42
0.000000001
 43
0.0000000001
 44
0.00000001
 40
0.0
 40
0.0
 40
0.0
 40
0.0
 40
0.1462765542129481
 40
0.2981162880700038
 40
0.6539041474419081
 40
1.003320699913056
 40
1.478443774388646
 40
1.950532171728712
 40
2.567302326329788
 40
3.183682470760743
 40
3.94186478159606
 40
4.69966557850331
 40
5.583731924772944
 40
6.467678005002776
 40
7.455763481229601
 40
8.44377339306345
 40
9.509181477304375
 40
10.57455378038298
 40
11.68755077154905
 40
12.80053190064131
 40
13.9295834362963
 40
15.05863497195129
 40
16.17161610104355
 40
17.2846130922095
 40
18.34998539528801
 40
19.41539347952894
 40
20.4034033913628
 40
21.39148886758962
 40
22.27543494781955
 40
23.1595012940892
 40
23.91730209099633
 40
24.67548440183158
 40
25.29186454626238
 40
25.90863470086364
 40
26.38072309820368
 40
26.85584617267933
 40
27.2052627251505
 40
27.56105058452255
 40
27.71289031837766
 40
27.85916687258863
 40
27.85916687258863
 40
27.85916687258863
 40
27.85916687258863
 10
179.1920778240201
 20
607.8228142237917
 30
0.0
 10
179.1431969336632
 20
607.8200439495959
 30
0.0
 10
179.0435761169264
 20
607.8143980568809
 30
0.0
 10
178.8348698110713
 20
607.7465535722374
 30
0.0
 10
178.5798496510203
 20
607.610598384978
 30
0.0
 10
178.2936377602987
 20
607.3356887333533
 30
0.0
 10
178.0392953685916
 20
606.9846700271983
 30
0.0
 10
177.7764918944877
 20
606.5337128664183
 30
0.0
 10
177.5393570478951
 20
606.0162347313931
 30
0.0
 10
177.3017654616612
 20
605.3961361986055
 30
0.0
 10
177.087929854092
 20
604.7178490363531
 30
0.0
 10
176.8808533865071
 20
603.9449092703153
 30
0.0
 10
176.6970394534127
 20
603.1230426108369
 30
0.0
 10
176.5264489946085
 20
602.2201816065358
 30
0.0
 10
176.3793357503815
 20
601.2780978466847
 30
0.0
 10
176.2501723059128
 20
600.2724148399199
 30
0.0
 10
176.1449212366435
 20
599.2380437232398
 30
0.0
 10
176.0609262670117
 20
598.1599578540427
 30
0.0
 10
176.0012451774429
 20
597.0643691733056
 30
0.0
 10
175.9647729108884
 20
595.9465335273061
 30
0.0
 10
175.9528447382883
 20
594.8228142237917
 30
0.0
 10
175.9647729108882
 20
593.6990949202768
 30
0.0
 10
176.0012451774429
 20
592.581259274278
 30
0.0
 10
176.0609262670116
 20
591.4856705935406
 30
0.0
 10
176.1449212366435
 20
590.4075847243436
 30
0.0
 10
176.2501723059128
 20
589.3732136076636
 30
0.0
 10
176.3793357503817
 20
588.3675306008987
 30
0.0
 10
176.5264489946086
 20
587.4254468410476
 30
0.0
 10
176.6970394534127
 20
586.5225858367465
 30
0.0
 10
176.8808533865072
 20
585.700719177268
 30
0.0
 10
177.0879298540922
 20
584.9277794112304
 30
0.0
 10
177.301765461661
 20
584.2494922489778
 30
0.0
 10
177.5393570478947
 20
583.6293937161905
 30
0.0
 10
177.7764918944875
 20
583.1119155811649
 30
0.0
 10
178.0392953685918
 20
582.6609584203857
 30
0.0
 10
178.2936377602987
 20
582.3099397142302
 30
0.0
 10
178.5798496510204
 20
582.0350300626058
 30
0.0
 10
178.8348698110708
 20
581.8990748753461
 30
0.0
 10
179.0435761169247
 20
581.8312303907032
 30
0.0
 10
179.1431969336601
 20
581.8255844979876
 30
0.0
 10
179.1920778240163
 20
581.8228142237917
 30
0.0
 11
179.1920778240201
 21
607.8228142237917
 31
0.0
 11
179.046511615353
 21
607.8084159851667
 31
0.0
 11
178.9009454066859
 21
607.7652212692825
 31
0.0
 11
178.587839422549
 21
607.5962548734465
 31
0.0
 11
178.33097970107
 21
607.3593688037581
 31
0.0
 11
178.0454021867023
 21
606.9796486194122
 31
0.0
 11
177.8067335359031
 21
606.5723345765748
 31
0.0
 11
177.5453952547393
 21
606.0136685531922
 31
0.0
 11
177.3239446202531
 21
605.4384432944196
 31
0.0
 11
177.0932005768625
 21
604.7162261511172
 31
0.0
 11
176.8964714490726
 21
603.9844067080188
 31
0.0
 11
176.7018396994271
 21
603.1220310441731
 31
0.0
 11
176.5372598864096
 21
602.2535414605645
 31
0.0
 11
176.3837638412494
 21
601.2774513668442
 31
0.0
 11
176.2576043315922
 21
600.2975292462008
 31
0.0
 11
176.149103549127
 21
599.237660403217
 31
0.0
 11
176.066203521819
 21
598.1755183563762
 31
0.0
 11
176.0052861001056
 21
597.0641897066098
 31
0.0
 11
175.9689988641764
 21
595.9518002838645
 31
0.0
 11
175.9568397602165
 21
594.8228142237916
 31
0.0
 11
175.9689988641763
 21
593.6938281637188
 31
0.0
 11
176.0052861001054
 21
592.5814387409735
 31
0.0
 11
176.0662035218189
 21
591.4701100912072
 31
0.0
 11
176.149103549127
 21
590.4079680443665
 31
0.0
 11
176.2576043315923
 21
589.3480992013826
 31
0.0
 11
176.3837638412496
 21
588.3681770807393
 31
0.0
 11
176.5372598864097
 21
587.392086987019
 31
0.0
 11
176.7018396994271
 21
586.5235974034102
 31
0.0
 11
176.8964714490727
 21
585.6612217395646
 31
0.0
 11
177.0932005768626
 21
584.9294022964663
 31
0.0
 11
177.323944620253
 21
584.2071851531639
 31
0.0
 11
177.545395254739
 21
583.6319598943913
 31
0.0
 11
177.806733535903
 21
583.0732938710087
 31
0.0
 11
178.0454021867024
 21
582.6659798281714
 31
0.0
 11
178.33097970107
 21
582.2862596438254
 31
0.0
 11
178.587839422549
 21
582.049373574137
 31
0.0
 11
178.9009454066861
 21
581.8804071783009
 31
0.0
 11
179.0465116153512
 21
581.8372124624171
 31
0.0
 11
179.1920778240163
 21
581.8228142237917
 31
0.0
  0
SPLINE
  5
12B
330
50
100
AcDbEntity
  8
1
  6
Continuous
 62
     7
100
AcDbSpline
210
0.0
220
0.0
230
1.0
 70
     8
 71
     3
 72
    45
 73
    41
 74
    39
 42
0.000000001
 43
0.0000000001
 44
0.00000001
 40
0.0
 40
0.0
 40
0.0
 40
0.0
 40
0.1462765541955611
 40
0.298116288034416
 40
0.6539041474063533
 40
1.003320699877403
 40
1.478443774352993
 40
1.950532171693073
 40
2.567302326294161
 40
3.183682470725116
 40
3.941864781560416
 40
4.699665578467658
 40
5.583731924737286
 40
6.467678004967108
 40
7.455763481193924
 40
8.443773393027772
 40
9.509181477268697
 40
10.57455378034731
 40
11.68755077151337
 40
12.80053190060564
 40
13.92958343626063
 40
15.05863497191561
 40
16.17161610100788
 40
17.28461309217383
 40
18.34998539525234
 40
19.41539347949327
 40
20.40340339132712
 40
21.39148886755394
 40
22.27543494778386
 40
23.15950129405349
 40
23.91730209096062
 40
24.67548440179589
 40
25.29186454622671
 40
25.90863470082795
 40
26.38072309816799
 40
26.85584617264363
 40
27.20526272511474
 40
27.56105058448669
 40
27.71289031834831
 40
27.85916687256564
 40
27.85916687256564
 40
27.85916687256564
 40
27.85916687256564
 10
171.9477294405971
 20
607.8228142237917
 30
0.0
 10
171.8988485502462
 20
607.820043949594
 30
0.0
 10
171.7992277335216
 20
607.8143980568758
 30
0.0
 10
171.5905214276788
 20
607.7465535722347
 30
0.0
 10
171.3355012676331
 20
607.6105983849777
 30
0.0
 10
171.0492893769115
 20
607.3356887333534
 30
0.0
 10
170.7949469852045
 20
606.984670027198
 30
0.0
 10
170.5321435111005
 20
606.5337128664185
 30
0.0
 10
170.2950086645078
 20
606.0162347313931
 30
0.0
 10
170.0574170782739
 20
605.3961361986055
 30
0.0
 10
169.8435814707049
 20
604.7178490363531
 30
0.0
 10
169.63650500312
 20
603.9449092703156
 30
0.0
 10
169.4526910700256
 20
603.1230426108368
 30
0.0
 10
169.2821006112214
 20
602.2201816065358
 30
0.0
 10
169.1349873669946
 20
601.2780978466845
 30
0.0
 10
169.0058239225258
 20
600.2724148399199
 30
0.0
 10
168.9005728532566
 20
599.23804372324
 30
0.0
 10
168.8165778836247
 20
598.1599578540425
 30
0.0
 10
168.7568967940559
 20
597.0643691733057
 30
0.0
 10
168.7204245275013
 20
595.9465335273062
 30
0.0
 10
168.7084963549011
 20
594.8228142237916
 30
0.0
 10
168.7204245275012
 20
593.699094920277
 30
0.0
 10
168.7568967940557
 20
592.5812592742777
 30
0.0
 10
168.8165778836247
 20
591.4856705935407
 30
0.0
 10
168.9005728532566
 20
590.4075847243435
 30
0.0
 10
169.0058239225259
 20
589.3732136076637
 30
0.0
 10
169.1349873669947
 20
588.3675306008988
 30
0.0
 10
169.2821006112216
 20
587.4254468410477
 30
0.0
 10
169.4526910700256
 20
586.5225858367465
 30
0.0
 10
169.6365050031201
 20
585.7007191772681
 30
0.0
 10
169.843581470705
 20
584.9277794112303
 30
0.0
 10
170.0574170782739
 20
584.249492248978
 30
0.0
 10
170.2950086645077
 20
583.6293937161905
 30
0.0
 10
170.5321435111004
 20
583.111915581165
 30
0.0
 10
170.7949469852047
 20
582.6609584203856
 30
0.0
 10
171.0492893769115
 20
582.3099397142302
 30
0.0
 10
171.3355012676332
 20
582.0350300626056
 30
0.0
 10
171.5905214276855
 20
581.8990748753453
 30
0.0
 10
171.7992277335437
 20
581.8312303907014
 30
0.0
 10
171.8988485502837
 20
581.8255844979874
 30
0.0
 10
171.947729440642
 20
581.8228142237917
 30
0.0
 11
171.9477294405971
 21
607.8228142237917
 31
0.0
 11
171.8021632319478
 21
607.8084159851632
 31
0.0
 11
171.6565970232987
 21
607.7652212692826
 31
0.0
 11
171.3434910391618
 21
607.5962548734464
 31
0.0
 11
171.0866313176828
 21
607.3593688037581
 31
0.0
 11
170.8010538033152
 21
606.9796486194122
 31
0.0
 11
170.5623851525159
 21
606.5723345765748
 31
0.0
 11
170.3010468713521
 21
606.0136685531922
 31
0.0
 11
170.0795962368659
 21
605.4384432944196
 31
0.0
 11
169.8488521934754
 21
604.7162261511172
 31
0.0
 11
169.6521230656855
 21
603.9844067080188
 31
0.0
 11
169.45749131604
 21
603.1220310441731
 31
0.0
 11
169.2929115030226
 21
602.2535414605645
 31
0.0
 11
169.1394154578624
 21
601.2774513668442
 31
0.0
 11
169.0132559482052
 21
600.2975292462008
 31
0.0
 11
168.90475516574
 21
599.237660403217
 31
0.0
 11
168.821855138432
 21
598.1755183563762
 31
0.0
 11
168.7609377167185
 21
597.0641897066098
 31
0.0
 11
168.7246504807893
 21
595.9518002838645
 31
0.0
 11
168.7124913768294
 21
594.8228142237916
 31
0.0
 11
168.7246504807892
 21
593.6938281637188
 31
0.0
 11
168.7609377167184
 21
592.5814387409735
 31
0.0
 11
168.8218551384319
 21
591.4701100912072
 31
0.0
 11
168.9047551657401
 21
590.4079680443665
 31
0.0
 11
169.0132559482053
 21
589.3480992013826
 31
0.0
 11
169.1394154578626
 21
588.3681770807393
 31
0.0
 11
169.2929115030227
 21
587.392086987019
 31
0.0
 11
169.45749131604
 21
586.5235974034102
 31
0.0
 11
169.6521230656856
 21
585.6612217395646
 31
0.0
 11
169.8488521934754
 21
584.9294022964663
 31
0.0
 11
170.0795962368659
 21
584.2071851531639
 31
0.0
 11
170.301046871352
 21
583.6319598943913
 31
0.0
 11
170.5623851525159
 21
583.0732938710087
 31
0.0
 11
170.8010538033153
 21
582.6659798281714
 31
0.0
 11
171.0866313176829
 21
582.2862596438254
 31
0.0
 11
171.3434910391618
 21
582.049373574137
 31
0.0
 11
171.6565970232988
 21
581.880407178301
 31
0.0
 11
171.8021632319704
 21
581.837212462416
 31
0.0
 11
171.947729440642
 21
581.8228142237917
 31
0.0
  0
SPLINE
  5
12C
330
50
100
AcDbEntity
  8
1
  6
Continuous
 62
     7
100
AcDbSpline
210
0.0
220
0.0
230
1.0
 70
     8
 71
     3
 72
     9
 73
     5
 74
     3
 42
0.000000001
 43
0.0000000001
 44
0.00000001
 40
0.0
 40
0.0
 40
0.0
 40
0.0
 40
0.1462765534805597
 40
0.2981162857377399
 40
0.2981162857377399
 40
0.2981162857377399
 40
0.2981162857377399
 10
179.1920778240163
 20
581.8228142237917
 30
0.0
 10
179.2410360432937
 20
581.8253881327473
 30
0.0
 10
179.3408144542746
 20
581.8306338610146
 30
0.0
 10
179.4351581282169
 20
581.8636109364555
 30
0.0
 10
179.4832102413102
 20
581.8804071783009
 30
0.0
 11
179.1920778240163
 21
581.8228142237917
 31
0.0
 11
179.3376440326632
 21
581.8372124624209
 31
0.0
 11
179.4832102413102
 21
581.8804071783009
 31
0.0
  0
SPLINE
  5
12D
330
50
100
AcDbEntity
  8
1
  6
Continuous
 62
     7
100
AcDbSpline
210
0.0
220
0.0
230
1.0
 70
     8
 71
     3
 72
     9
 73
     5
 74
     3
 42
0.000000001
 43
0.0000000001
 44
0.00000001
 40
0.0
 40
0.0
 40
0.0
 40
0.0
 40
0.1462765534741946
 40
0.298116285724839
 40
0.298116285724839
 40
0.298116285724839
 40
0.298116285724839
 10
171.947729440642
 20
581.8228142237917
 30
0.0
 10
171.9966876599172
 20
581.8253881327478
 30
0.0
 10
172.0964660708936
 20
581.8306338610163
 30
0.0
 10
172.1908097448317
 20
581.863610936456
 30
0.0
 10
172.2388618579229
 20
581.8804071783009
 30
0.0
 11
171.947729440642
 21
581.8228142237917
 31
0.0
 11
172.0932956492824
 21
581.837212462422
 31
0.0
 11
172.2388618579229
 21
581.8804071783009
 31
0.0
  0
SPLINE
  5
12E
330
50
100
AcDbEntity
  8
1
  6
Continuous
 62
     7
100
AcDbSpline
210
0.0
220
0.0
230
1.0
 70
    11
 71
     3
 72
    79
 73
    75
 74
    73
 42
0.000000001
 43
0.0000000001
 44
0.00000001
 40
0.0
 40
0.0
 40
0.0
 40
0.0
 40
0.3127048141650917
 40
0.6251239949740806
 40
0.9583682291795141
 40
1.291221970997835
 40
1.653672449480422
 40
2.015785799739994
 40
2.411222231448161
 40
2.806416834722368
 40
3.234264143215078
 40
3.661950732973422
 40
4.118216756226317
 40
4.57438109848356
 40
5.052591795507641
 40
5.530743043257169
 40
6.022755234350509
 40
6.514740034293745
 40
7.011448785898112
 40
7.508157537502497
 40
8.000142337445935
 40
8.492154528538332
 40
8.97030577628427
 40
9.448516473299309
 40
9.904680815539434
 40
10.36094683876165
 40
10.78863342847248
 40
11.21648073689108
 40
11.61167534006204
 40
12.00711177161768
 40
12.36922512167509
 40
12.73167559986395
 40
13.06452934127267
 40
13.39777357477506
 40
13.71019275351507
 40
14.02289757489208
 40
14.32803284877927
 40
14.63316812266525
 40
14.94587294403899
 40
15.25829212277388
 40
15.59153635626921
 40
15.92439009766994
 40
16.28684057584953
 40
16.64895392589777
 40
17.04439035744335
 40
17.43958496060473
 40
17.86743226901345
 40
18.2951188587151
 40
18.75138488192833
 40
19.20754922416002
 40
19.68575992116709
 40
20.1639111689059
 40
20.65592335999172
 40
21.1479081599296
 40
21.64461691152949
 40
22.14132566313017
 40
22.63331046307106
 40
23.12532265416318
 40
23.60347390191279
 40
24.08168459893795
 40
24.53784894119741
 40
24.99411496445325
 40
25.42180155421451
 40
25.84964886270917
 40
26.2448434659834
 40
26.6402798976857
 40
27.00239324792962
 40
27.36484372637199
 40
27.69769746809356
 40
28.03094170201074
 40
28.34336088128817
 40
28.65606570346503
 40
28.96120097951192
 40
29.26633624645227
 40
29.26633624645227
 40
29.26633624645227
 40
29.26633624645227
 10
171.1412418033123
 20
595.8513709884494
 30
0.0
 10
171.0456003209777
 20
595.8932760182432
 30
0.0
 10
170.8544047141595
 20
595.9770477924126
 30
0.0
 10
170.5881728558795
 20
596.1562764363716
 30
0.0
 10
170.3402164984197
 20
596.3691521757385
 30
0.0
 10
170.1092449568703
 20
596.6236337005546
 30
0.0
 10
169.9016359410232
 20
596.9092716895449
 30
0.0
 10
169.7132642471362
 20
597.2322346552719
 30
0.0
 10
169.5506706981182
 20
597.5809536693088
 30
0.0
 10
169.4100272346393
 20
597.9624213740257
 30
0.0
 10
169.296431478419
 20
598.3639742616347
 30
0.0
 10
169.2072884437618
 20
598.792389876323
 30
0.0
 10
169.1457550153561
 20
599.2351644364965
 30
0.0
 10
169.1104736760431
 20
599.6976414058803
 30
0.0
 10
169.1028251371785
 20
600.1686956924366
 30
0.0
 10
169.1222294592311
 20
600.6513415657622
 30
0.0
 10
169.1688138019669
 20
601.136738928725
 30
0.0
 10
169.2421237587647
 20
601.6250664100877
 30
0.0
 10
169.3417091485066
 20
602.1103184611504
 30
0.0
 10
169.4665458737259
 20
602.5896957603244
 30
0.0
 10
169.6163172133265
 20
603.0602344140038
 30
0.0
 10
169.7887762064732
 20
603.5163468966299
 30
0.0
 10
169.9844094431595
 20
603.9579929119674
 30
0.0
 10
170.1992007129891
 20
604.3772963265434
 30
0.0
 10
170.435000927221
 20
604.7767058557922
 30
0.0
 10
170.6856604404195
 20
605.1468484040449
 30
0.0
 10
170.9547560052813
 20
605.4919192930142
 30
0.0
 10
171.2339356862422
 20
605.8020929171877
 30
0.0
 10
171.5285194745729
 20
606.0823031619657
 30
0.0
 10
171.8283440835103
 20
606.3234448642143
 30
0.0
 10
172.1399288509225
 20
606.5300759108602
 30
0.0
 10
172.4523058461399
 20
606.6947973109945
 30
0.0
 10
172.7718721971403
 20
606.8209932083025
 30
0.0
 10
173.0883892657148
 20
606.9032703175687
 30
0.0
 10
173.4061868269912
 20
606.9440710730842
 30
0.0
 10
173.7172738946113
 20
606.9394927114304
 30
0.0
 10
174.0224140222656
 20
606.8924848264226
 30
0.0
 10
174.316967669714
 20
606.7999732729169
 30
0.0
 10
174.5981287116406
 20
606.6667644386126
 30
0.0
 10
174.865280307928
 20
606.489874596616
 30
0.0
 10
175.1129748231629
 20
606.2763330209766
 30
0.0
 10
175.3440192724025
 20
606.0220368950546
 30
0.0
 10
175.5516071216995
 20
605.736345082744
 30
0.0
 10
175.739984752803
 20
605.413397215722
 30
0.0
 10
175.9025765727704
 20
605.0646738056098
 30
0.0
 10
176.0432205206372
 20
604.6832073332347
 30
0.0
 10
176.156816136708
 20
604.2816540896966
 30
0.0
 10
176.2459592102549
 20
603.8532385742533
 30
0.0
 10
176.3074926274526
 20
603.4104639858404
 30
0.0
 10
176.3427739697738
 20
602.9479870242924
 30
0.0
 10
176.350422507734
 20
602.4769327355637
 30
0.0
 10
176.3310181858902
 20
601.9942868628507
 30
0.0
 10
176.2844338430732
 20
601.508889499732
 30
0.0
 10
176.211123886283
 20
601.0205620184219
 30
0.0
 10
176.1115384965277
 20
600.535309967353
 30
0.0
 10
175.9867017712984
 20
600.0559326681898
 30
0.0
 10
175.836930431677
 20
599.5853940145147
 30
0.0
 10
175.6644714385034
 20
599.1292815319119
 30
0.0
 10
175.4688382017522
 20
598.6876355165476
 30
0.0
 10
175.2540469319147
 20
598.2683321021494
 30
0.0
 10
175.0182467173704
 20
597.8689225723773
 30
0.0
 10
174.7675872048362
 20
597.4987800261705
 30
0.0
 10
174.4984916370494
 20
597.1537091302209
 30
0.0
 10
174.2193119658197
 20
596.8435355313612
 30
0.0
 10
173.9247281428866
 20
596.5633251992904
 30
0.0
 10
173.6249036562587
 20
596.3221838088962
 30
0.0
 10
173.3133184674669
 20
596.1155516917231
 30
0.0
 10
173.0009429727994
 20
595.9508341084975
 30
0.0
 10
172.6813714512729
 20
595.8246250644223
 30
0.0
 10
172.3648729498701
 20
595.7423951712672
 30
0.0
 10
172.0470101674768
 20
595.7014285668404
 30
0.0
 10
171.7361614259946
 20
595.7066129723042
 30
0.0
 10
171.4301519515141
 20
595.751410189959
 30
0.0
 10
171.2375451860584
 20
595.8180507256095
 30
0.0
 10
171.1412418033123
 20
595.8513709884494
 30
0.0
 11
171.1412418033123
 21
595.8513709884494
 31
0.0
 11
170.8587058591728
 21
595.9853775019656
 31
0.0
 11
170.5976461073093
 21
596.1569978657835
 31
0.0
 11
170.3449256515917
 21
596.3742168578166
 31
0.0
 11
170.120388634012
 21
596.619929578224
 31
0.0
 11
169.906673055727
 21
596.9126683710069
 31
0.0
 11
169.7235665289139
 21
597.2250752822274
 31
0.0
 11
169.5557043914194
 21
597.5831147692176
 31
0.0
 11
169.4184645822421
 21
597.9537142959148
 31
0.0
 11
169.3013100053964
 21
598.3652092830971
 31
0.0
 11
169.2137909239061
 21
598.7838454370735
 31
0.0
 11
169.150438069142
 21
599.2356917602385
 31
0.0
 11
169.1154771668654
 21
599.6905144096906
 31
0.0
 11
169.1073231717782
 21
600.1686555845657
 31
0.0
 11
169.1263947244282
 21
600.6464263367095
 31
0.0
 11
169.1731567898789
 21
601.136211295053
 31
0.0
 11
169.2461821464345
 21
601.6227463304565
 31
0.0
 11
169.3459310900858
 21
602.1093362318727
 31
0.0
 11
169.4712115983522
 21
602.5899861857563
 31
0.0
 11
169.6204471072472
 21
603.0587908425805
 31
0.0
 11
169.794683358438
 21
603.5189187866957
 31
0.0
 11
169.988463262471
 21
603.9560434422775
 31
0.0
 11
170.206836305942
 21
604.3814828441105
 31
0.0
 11
170.4389702956961
 21
604.7741655632915
 31
0.0
 11
170.6952667568215
 21
605.1516451097295
 31
0.0
 11
170.9585883943543
 21
605.4886577715806
 31
0.0
 11
171.2453499376658
 21
605.8061812142269
 31
0.0
 11
171.5320823926524
 21
606.0781431116842
 31
0.0
 11
171.8407482978708
 21
606.3253178078082
 31
0.0
 11
172.1429503888982
 21
606.5248171173773
 31
0.0
 11
172.4639364379021
 21
606.6931569687094
 31
0.0
 11
172.7738748320707
 21
606.8145233769686
 31
0.0
 11
173.0965249535049
 21
606.897881750132
 31
0.0
 11
173.406530268145
 21
606.9366431770272
 31
0.0
 11
173.7192031467314
 21
606.9321736812881
 31
0.0
 11
174.0206640819123
 21
606.8849630891135
 31
0.0
 11
174.3120058471017
 21
606.7942574591341
 31
0.0
 11
174.5945417912414
 21
606.6602509456179
 31
0.0
 11
174.8556015431049
 21
606.4886305817997
 31
0.0
 11
175.1083219988225
 21
606.2714115897667
 31
0.0
 11
175.3328590164022
 21
606.0256988693595
 31
0.0
 11
175.5465745946873
 21
605.7329600765768
 31
0.0
 11
175.7296811215003
 21
605.4205531653561
 31
0.0
 11
175.8975432589947
 21
605.062513678366
 31
0.0
 11
176.0347830681719
 21
604.6919141516687
 31
0.0
 11
176.1519376450175
 21
604.2804191644861
 31
0.0
 11
176.2394567265078
 21
603.86178301051
 31
0.0
 11
176.302809581272
 21
603.4099366873448
 31
0.0
 11
176.3377704835487
 21
602.9551140378928
 31
0.0
 11
176.3459244786361
 21
602.4769728630177
 31
0.0
 11
176.3268529259861
 21
601.999202110874
 31
0.0
 11
176.2800908605354
 21
601.5094171525305
 31
0.0
 11
176.2070655039796
 21
601.022882117127
 31
0.0
 11
176.1073165603283
 21
600.5362922157108
 31
0.0
 11
175.9820360520619
 21
600.0556422618272
 31
0.0
 11
175.8328005431669
 21
599.586837605003
 31
0.0
 11
175.6585642919761
 21
599.1267096608877
 31
0.0
 11
175.4647843879431
 21
598.689585005306
 31
0.0
 11
175.2464113444721
 21
598.264145603473
 31
0.0
 11
175.014277354718
 21
597.871462884292
 31
0.0
 11
174.7579808935926
 21
597.4939833378539
 31
0.0
 11
174.4946592560597
 21
597.1569706760027
 31
0.0
 11
174.2078977127484
 21
596.8394472333569
 31
0.0
 11
173.9211652577618
 21
596.5674853358993
 31
0.0
 11
173.6124993525434
 21
596.3203106397752
 31
0.0
 11
173.3102972615158
 21
596.120811330206
 31
0.0
 11
172.9893112125118
 21
595.9524714788739
 31
0.0
 11
172.6793728183433
 21
595.8311050706147
 31
0.0
 11
172.3567226969091
 21
595.7477466974515
 31
0.0
 11
172.046717382269
 21
595.7089852705562
 31
0.0
 11
171.7340445036826
 21
595.7134547662955
 31
0.0
 11
171.4325835685016
 21
595.7606653584699
 31
0.0
 11
171.1412418033123
 21
595.8513709884494
 31
0.0
  0
SPLINE
  5
12F
330
50
100
AcDbEntity
  8
1
  6
Continuous
 62
     7
100
AcDbSpline
210
0.0
220
0.0
230
1.0
 70
     8
 71
     3
 72
    11
 73
     7
 74
     5
 42
0.000000001
 43
0.0000000001
 44
0.00000001
 40
0.0
 40
0.0
 40
0.0
 40
0.0
 40
0.3557878564587993
 40
0.705204405315591
 40
1.095733172667847
 40
1.483464294015583
 40
1.483464294015583
 40
1.483464294015583
 40
1.483464294015583
 10
179.4832102413102
 20
581.8804071783009
 30
0.0
 10
179.5913441476301
 20
581.9310692082548
 30
0.0
 10
179.8056755341867
 20
582.0314860453791
 30
0.0
 10
180.0697467379729
 20
582.291165073889
 30
0.0
 10
180.295980533746
 20
582.5914776310728
 30
0.0
 10
180.4303885494636
 20
582.8136065278694
 30
0.0
 10
180.497350969942
 20
582.924271731815
 30
0.0
 11
179.4832102413102
 21
581.8804071783009
 31
0.0
 11
179.7963162254472
 21
582.049373574137
 31
0.0
 11
180.0531759469262
 21
582.2862596438254
 31
0.0
 11
180.2910711768309
 21
582.5959668919993
 31
0.0
 11
180.497350969942
 21
582.924271731815
 31
0.0
  0
ENDBLK
  5
52
330
50
100
AcDbEntity
  8
0
100
AcDbBlockEnd
  0
BLOCK
  5
54
330
53
100
AcDbEntity
  8
0
100
AcDbBlockBegin
  2
21-1C
 70
     0
 10
200.7375815274004
 20
266.5686577929906
 30
0.0
  3
21-1C
  1

  0
LINE
  5
130
330
53
100
AcDbEntity
  8
1
  6
Continuous
 62
     7
100
AcDbLine
 10
183.7970132094201
 20
251.4158074419495
 30
0.0
 11
184.8665784834726
 21
247.4241354971759
 31
0.0
  0
LINE
  5
131
330
53
100
AcDbEntity
  8
1
  6
Continuous
 62
     7
100
AcDbLine
 10
196.9891364235303
 20
204.3828467848445
 30
0.0
 11
199.9781019317165
 21
205.6515873695886
 31
0.0
  0
LINE
  5
132
330
53
100
AcDbEntity
  8
1
  6
Continuous
 62
     7
100
AcDbLine
 10
184.2190769148245
 20
252.0414943934622
 30
0.0
 11
188.61871218925
 21
252.5813825425574
 31
0.0
  0
LINE
  5
133
330
53
100
AcDbEntity
  8
1
  6
Continuous
 62
     7
100
AcDbLine
 10
185.2717225919766
 20
245.9121170998517
 30
0.0
 11
184.8665784834726
 21
247.4241354971759
 31
0.0
  0
LINE
  5
134
330
53
100
AcDbEntity
  8
1
  6
Continuous
 62
     7
100
AcDbLine
 10
189.924495683639
 20
228.5477315256775
 30
0.0
 11
189.6656766385366
 21
229.5136573519667
 31
0.0
  0
LINE
  5
135
330
53
100
AcDbEntity
  8
1
  6
Continuous
 62
     7
100
AcDbLine
 10
184.8665784834726
 20
247.4241354971759
 30
0.0
 11
189.6656766385366
 21
229.5136573519667
 31
0.0
  0
LINE
  5
136
330
53
100
AcDbEntity
  8
1
  6
Continuous
 62
     7
100
AcDbLine
 10
196.0541891006579
 20
205.6714042585431
 30
0.0
 11
196.3108079461412
 21
204.7136896890195
 31
0.0
  0
LINE
  5
137
330
53
100
AcDbEntity
  8
1
  6
Continuous
 62
     7
100
AcDbLine
 10
189.6656766385366
 20
229.5136573519667
 30
0.0
 11
196.0541891006579
 21
205.6714042585431
 31
0.0
  0
LINE
  5
138
330
53
100
AcDbEntity
  8
1
  6
Continuous
 62
     7
100
AcDbLine
 10
198.0261940830691
 20
240.8125178281237
 30
0.0
 11
200.0967464438892
 21
233.0851112178112
 31
0.0
  0
LINE
  5
139
330
53
100
AcDbEntity
  8
1
  6
Continuous
 62
     7
100
AcDbLine
 10
443.7319966291256
 20
224.4113735164397
 30
0.0
 11
447.3834058405961
 21
209.1784135086095
 31
0.0
  0
LINE
  5
13A
330
53
100
AcDbEntity
  8
1
  6
Continuous
 62
     7
100
AcDbLine
 10
437.2615205015626
 20
235.6185669185406
 30
0.0
 11
427.2856850166002
 21
242.7716412755545
 31
0.0
  0
LINE
  5
13B
330
53
100
AcDbEntity
  8
1
  6
Continuous
 62
     7
100
AcDbLine
 10
446.7084846707674
 20
249.1584277089376
 30
0.0
 11
432.3207350717142
 21
253.0136135949053
 31
0.0
  0
LINE
  5
13C
330
53
100
AcDbEntity
  8
1
  6
Continuous
 62
     7
100
AcDbLine
 10
459.6494369258936
 20
249.1584277089376
 30
0.0
 11
473.2766816223265
 21
252.8098369204081
 31
0.0
  0
LINE
  5
13D
330
53
100
AcDbEntity
  8
1
  6
Continuous
 62
     7
100
AcDbLine
 10
469.0964010950983
 20
235.6185669185406
 30
0.0
 11
479.0722365800606
 21
242.7716412755545
 31
0.0
  0
LINE
  5
13E
330
53
100
AcDbEntity
  8
1
  6
Continuous
 62
     7
100
AcDbLine
 10
462.6259249675353
 20
224.4113735164397
 30
0.0
 11
458.974515756065
 21
209.1784135086095
 31
0.0
  0
LINE
  5
13F
330
53
100
AcDbEntity
  8
1
  6
Continuous
 62
     7
100
AcDbLine
 10
191.1971940527654
 20
622.0215412194102
 30
0.0
 11
187.9817008478946
 21
622.4734493184026
 31
0.0
  0
LINE
  5
140
330
53
100
AcDbEntity
  8
1
  6
Continuous
 62
     7
100
AcDbLine
 10
185.2459019488537
 20
622.4734493184028
 30
0.0
 11
187.9817008478946
 21
622.4734493184026
 31
0.0
  0
LINE
  5
141
330
53
100
AcDbEntity
  8
1
  6
Continuous
 62
     7
100
AcDbLine
 10
187.9817008478946
 20
567.1721791291807
 30
0.0
 11
185.2459019488537
 21
567.1721791291809
 31
0.0
  0
LINE
  5
142
330
53
100
AcDbEntity
  8
1
  6
Continuous
 62
     7
100
AcDbLine
 10
187.9817008478946
 20
567.1721791291807
 30
0.0
 11
191.1971940527654
 21
567.624087228173
 31
0.0
  0
ARC
  5
143
330
53
100
AcDbEntity
  8
1
  6
Continuous
 62
     7
100
AcDbCircle
 10
252.0267404972109
 20
628.9629131990055
 30
0.0
 40
57.00000000000025
100
AcDbArc
 50
192.0107469015565
 51
208.4337372933267
  0
ARC
  5
144
330
53
100
AcDbEntity
  8
1
  6
Continuous
 62
     7
100
AcDbCircle
 10
-173.1217257858915
 20
594.822814223792
 30
0.0
 40
359.4327673284174
100
AcDbArc
 50
355.5879607402223
 51
4.41203925977767
  0
ARC
  5
145
330
53
100
AcDbEntity
  8
1
  6
Continuous
 62
     7
100
AcDbCircle
 10
252.0267404972109
 20
560.6827152485782
 30
0.0
 40
56.99999999999992
100
AcDbArc
 50
151.5662627066736
 51
168.4097187956371
  0
ARC
  5
146
330
53
100
AcDbEntity
  8
1
  6
Continuous
 62
     7
100
AcDbCircle
 10
54.17259632011898
 20
198.1259577575893
 30
0.0
 40
150.0533238552216
100
AcDbArc
 50
5.19709820623223
 51
13.4724745577871
  0
ARC
  5
147
330
53
100
AcDbEntity
  8
1
  6
Continuous
 62
     7
100
AcDbCircle
 10
126.607946882523
 20
217.9119945414894
 30
0.0
 40
74.99999999999994
100
AcDbArc
 50
17.77863896596252
 51
21.21229304260725
  0
ARC
  5
148
330
53
100
AcDbEntity
  8
1
  6
Continuous
 62
     7
100
AcDbCircle
 10
126.607946882523
 20
217.9119945414894
 30
0.0
 40
74.99999999999997
100
AcDbArc
 50
21.21229304260725
 51
24.591492482665
  0
ARC
  5
149
330
53
100
AcDbEntity
  8
1
  6
Continuous
 62
     7
100
AcDbCircle
 10
453.1789607983304
 20
210.7313277792245
 30
0.0
 40
5.999999999999898
100
AcDbArc
 50
194.9999999999989
 51
270.0
  0
ARC
  5
14A
330
53
100
AcDbEntity
  8
1
  6
Continuous
 62
     7
100
AcDbCircle
 10
431.5283257037196
 20
247.0142819626737
 30
0.0
 40
6.000000000000167
100
AcDbArc
 50
82.47575892105993
 51
224.9999999999988
  0
ARC
  5
14B
330
53
100
AcDbEntity
  8
1
  6
Continuous
 62
     7
100
AcDbCircle
 10
474.8295958929415
 20
247.0142819626737
 30
0.0
 40
5.999999999999807
100
AcDbArc
 50
314.9999999999993
 51
104.9999999999986
  0
ARC
  5
14C
330
53
100
AcDbEntity
  8
1
  6
Continuous
 62
     7
100
AcDbCircle
 10
453.1789607983304
 20
210.7313277792245
 30
0.0
 40
6.0
100
AcDbArc
 50
270.0
 51
345.0000000000016
  0
ARC
  5
14D
330
53
100
AcDbEntity
  8
1
  6
Continuous
 62
     7
100
AcDbCircle
 10
197.6337151607808
 20
211.1746164903034
 30
0.0
 40
6.000000000000163
100
AcDbArc
 50
292.9999999999999
 51
5.19709820623183
  0
ARC
  5
14E
330
53
100
AcDbEntity
  8
1
  6
Continuous
 62
     7
100
AcDbCircle
 10
189.349502682136
 20
246.6260533950201
 30
0.0
 40
6.000000000000289
100
AcDbArc
 50
24.59149248266464
 51
96.99590562829604
  0
ARC
  5
14F
330
53
100
AcDbEntity
  8
1
  6
Continuous
 62
     7
100
AcDbCircle
 10
196.7937708592858
 20
204.8430992115708
 30
0.0
 40
0.5000000000000501
100
AcDbArc
 50
195.000000000003
 51
292.9999999999847
  0
ARC
  5
150
330
53
100
AcDbEntity
  8
1
  6
Continuous
 62
     7
100
AcDbCircle
 10
184.2799761225649
 20
251.5452169645006
 30
0.0
 40
0.5000000000001199
100
AcDbArc
 50
96.99590562828178
 51
194.9999999999743
  0
ARC
  5
151
330
53
100
AcDbEntity
  8
1
  6
Continuous
 62
     7
100
AcDbCircle
 10
419.5838509718992
 20
217.9408973888767
 30
0.0
 40
24.99999999999969
100
AcDbArc
 50
15.00000000000018
 51
45.00000000000088
  0
ARC
  5
152
330
53
100
AcDbEntity
  8
1
  6
Continuous
 62
     7
100
AcDbCircle
 10
453.1789607983304
 20
273.3065733661642
 30
0.0
 40
24.99999999999986
100
AcDbArc
 50
254.9999999999999
 51
285.0000000000005
  0
ARC
  5
153
330
53
100
AcDbEntity
  8
1
  6
Continuous
 62
     7
100
AcDbCircle
 10
486.7740706247622
 20
217.9408973888767
 30
0.0
 40
25.0000000000003
100
AcDbArc
 50
134.9999999999999
 51
165.0000000000001
  0
ARC
  5
154
330
53
100
AcDbEntity
  8
1
  6
Continuous
 62
     7
100
AcDbCircle
 10
190.3621554470048
 20
573.5656956406224
 30
0.0
 40
5.999999999999951
100
AcDbArc
 50
278.0000000000022
 51
346.2018736878692
  0
ARC
  5
155
330
53
100
AcDbEntity
  8
1
  6
Continuous
 62
     7
100
AcDbCircle
 10
190.3621554470048
 20
616.0799328069609
 30
0.0
 40
5.999999999999858
100
AcDbArc
 50
9.80290179389283
 51
81.99999999999778
  0
ENDBLK
  5
55
330
53
100
AcDbEntity
  8
0
100
AcDbBlockEnd
  0
BLOCK
  5
57
330
56
100
AcDbEntity
  8
0
100
AcDbBlockBegin
  2
42-1
 70
     0
 10
245.7414160782706
 20
117.8433774008402
 30
0.0
  3
42-1
  1

  0
LINE
  5
156
330
56
100
AcDbEntity
  8
1
  6
Continuous
 62
     7
100
AcDbLine
 10
446.1789607983293
 20
237.3370430906212
 30
0.0
 11
446.1789607983293
 21
238.1135002259291
 31
0.0
  0
LINE
  5
157
330
56
100
AcDbEntity
  8
1
  6
Continuous
 62
     7
100
AcDbLine
 10
460.1789607983295
 20
237.3370430906224
 30
0.0
 11
460.1789607983293
 21
238.1135002259291
 31
0.0
  0
LINE
  5
158
330
56
100
AcDbEntity
  8
1
  6
Continuous
 62
     7
100
AcDbLine
 10
200.5103590029125
 20
587.8228142237917
 30
0.0
 11
203.4081364817797
 21
587.8228142237917
 31
0.0
  0
LINE
  5
159
330
56
100
AcDbEntity
  8
1
  6
Continuous
 62
     7
100
AcDbLine
 10
200.5103590029125
 20
601.8228142237917
 30
0.0
 11
203.4081364817797
 21
601.8228142237917
 31
0.0
  0
LINE
  5
15A
330
56
100
AcDbEntity
  8
1
  6
Continuous
 62
     7
100
AcDbLine
 10
197.2497369477611
 20
243.710295306991
 30
0.0
 11
200.1475144266285
 21
244.4867524422987
 31
0.0
  0
LINE
  5
15B
330
56
100
AcDbEntity
  8
1
  6
Continuous
 62
     2
100
AcDbLine
 10
200.4063334717308
 20
243.5208266160096
 30
0.0
 11
197.5085559928636
 21
242.7443694807019
 31
0.0
  0
LINE
  5
15C
330
56
100
AcDbEntity
  8
1
  6
Continuous
 62
     2
100
AcDbLine
 10
200.6651525168338
 20
242.5549007897205
 30
0.0
 11
197.7673750379663
 21
241.7784436544131
 31
0.0
  0
LINE
  5
15D
330
56
100
AcDbEntity
  8
1
  6
Continuous
 62
     2
100
AcDbLine
 10
200.7405167389179
 20
241.5398183917562
 30
0.0
 11
198.1865844364771
 21
240.8554942937935
 31
0.0
  0
LINE
  5
15E
330
56
100
AcDbEntity
  8
1
  6
Continuous
 62
     2
100
AcDbLine
 10
200.8896577096824
 20
240.5445044140208
 30
0.0
 11
198.6334230375877
 21
239.9399481556979
 31
0.0
  0
LINE
  5
15F
330
56
100
AcDbEntity
  8
1
  6
Continuous
 62
     7
100
AcDbLine
 10
198.4661864597432
 20
239.1704439234324
 30
0.0
 11
197.2497369477611
 21
243.710295306991
 31
0.0
  0
LINE
  5
160
330
56
100
AcDbEntity
  8
1
  6
Continuous
 62
     7
100
AcDbLine
 10
198.4661864597432
 20
239.1704439234324
 30
0.0
 11
199.6567540672151
 21
234.7271851225029
 31
0.0
  0
LINE
  5
161
330
56
100
AcDbEntity
  8
1
  6
Continuous
 62
     7
100
AcDbLine
 10
200.8732035791969
 20
230.1873337389443
 30
0.0
 11
199.6567540672151
 21
234.7271851225029
 31
0.0
  0
LINE
  5
162
330
56
100
AcDbEntity
  8
1
  6
Continuous
 62
     2
100
AcDbLine
 10
200.3555654889917
 20
232.1191853915225
 30
0.0
 11
203.2533429678591
 21
232.89564252683
 31
0.0
  0
LINE
  5
163
330
56
100
AcDbEntity
  8
1
  6
Continuous
 62
     2
100
AcDbLine
 10
200.2571367972979
 20
233.128087683481
 30
0.0
 11
202.811069099738
 21
233.8124117814437
 31
0.0
  0
LINE
  5
164
330
56
100
AcDbEntity
  8
1
  6
Continuous
 62
     2
100
AcDbLine
 10
200.1863373082032
 20
234.1443931979637
 30
0.0
 11
202.4425719802977
 21
234.7489494562865
 31
0.0
  0
LINE
  5
165
330
56
100
AcDbEntity
  8
1
  6
Continuous
 62
     2
100
AcDbLine
 10
200.272220782448
 20
235.2026817859411
 30
0.0
 11
201.9800650828531
 21
235.6602972870326
 31
0.0
  0
LINE
  5
166
330
56
100
AcDbEntity
  8
1
  6
Continuous
 62
     2
100
AcDbLine
 10
200.2640944786899
 20
236.2357805298216
 30
0.0
 11
201.486221592741
 21
236.5632485030796
 31
0.0
  0
LINE
  5
167
330
56
100
AcDbEntity
  8
1
  6
Continuous
 62
     7
100
AcDbLine
 10
200.6651525168338
 20
242.5549007897205
 30
0.0
 11
203.2533429678591
 21
232.89564252683
 31
0.0
  0
LINE
  5
168
330
56
100
AcDbEntity
  8
1
  6
Continuous
 62
     7
100
AcDbLine
 10
200.5357429942819
 20
243.0378637028651
 30
0.0
 11
200.6651525168338
 21
242.5549007897205
 31
0.0
  0
LINE
  5
169
330
56
100
AcDbEntity
  8
1
  6
Continuous
 62
     7
100
AcDbLine
 10
200.2769239491796
 20
244.0037895291542
 30
0.0
 11
200.4063334717308
 21
243.5208266160096
 31
0.0
  0
LINE
  5
16A
330
56
100
AcDbEntity
  8
1
  6
Continuous
 62
     7
100
AcDbLine
 10
200.1475144266285
 20
244.4867524422987
 30
0.0
 11
200.6664787393605
 21
243.5905323303859
 31
0.0
  0
LINE
  5
16B
330
56
100
AcDbEntity
  8
1
  6
Continuous
 62
     7
100
AcDbLine
 10
200.1475144266285
 20
244.4867524422987
 30
0.0
 11
200.2769239491796
 21
244.0037895291542
 31
0.0
  0
LINE
  5
16C
330
56
100
AcDbEntity
  8
1
  6
Continuous
 62
     7
100
AcDbLine
 10
200.4063334717308
 20
243.5208266160096
 30
0.0
 11
200.5357429942819
 21
243.0378637028651
 31
0.0
  0
LINE
  5
16D
330
56
100
AcDbEntity
  8
1
  6
Continuous
 62
     2
100
AcDbLine
 10
200.944788902443
 20
239.5240005921888
 30
0.0
 11
199.2369446020383
 21
239.066385091097
 31
0.0
  0
LINE
  5
16E
330
56
100
AcDbEntity
  8
1
  6
Continuous
 62
     2
100
AcDbLine
 10
200.9685835025358
 20
238.4951001556578
 30
0.0
 11
199.7464563884846
 21
238.1676321823995
 31
0.0
  0
LINE
  5
16F
330
56
100
AcDbEntity
  8
1
  6
Continuous
 62
     7
100
AcDbLine
 10
200.7895674587761
 20
243.364694808248
 30
0.0
 11
202.2777769681155
 21
237.810621307086
 31
0.0
  0
LINE
  5
170
330
56
100
AcDbEntity
  8
1
  6
Continuous
 62
     7
100
AcDbLine
 10
203.2533429678591
 20
232.89564252683
 30
0.0
 11
203.3827524904102
 21
232.4126796136855
 31
0.0
  0
LINE
  5
171
330
56
100
AcDbEntity
  8
1
  6
Continuous
 62
     7
100
AcDbLine
 10
203.5121620129613
 20
231.9297167005409
 30
0.0
 11
203.6415715355128
 21
231.4467537873964
 31
0.0
  0
LINE
  5
172
330
56
100
AcDbEntity
  8
1
  6
Continuous
 62
     7
100
AcDbLine
 10
203.7709810580643
 20
230.963790874252
 30
0.0
 11
200.8732035791969
 21
230.1873337389443
 31
0.0
  0
LINE
  5
173
330
56
100
AcDbEntity
  8
1
  6
Continuous
 62
     7
100
AcDbLine
 10
203.772307280591
 20
231.999422414917
 30
0.0
 11
203.7709810580643
 21
230.963790874252
 31
0.0
  0
LINE
  5
174
330
56
100
AcDbEntity
  8
1
  6
Continuous
 62
     7
100
AcDbLine
 10
203.6415715355128
 20
231.4467537873964
 30
0.0
 11
203.7709810580643
 21
230.963790874252
 31
0.0
  0
LINE
  5
175
330
56
100
AcDbEntity
  8
1
  6
Continuous
 62
     2
100
AcDbLine
 10
200.6143845340943
 20
231.1532595652334
 30
0.0
 11
203.5121620129613
 21
231.9297167005409
 31
0.0
  0
LINE
  5
176
330
56
100
AcDbEntity
  8
1
  6
Continuous
 62
     7
100
AcDbLine
 10
203.3827524904102
 20
232.4126796136855
 30
0.0
 11
203.5121620129613
 21
231.9297167005409
 31
0.0
  0
LINE
  5
177
330
56
100
AcDbEntity
  8
1
  6
Continuous
 62
     7
100
AcDbLine
 10
202.2777769681155
 20
237.810621307086
 30
0.0
 11
203.7659864774556
 21
232.2565478059239
 31
0.0
  0
LINE
  5
178
330
56
100
AcDbEntity
  8
1
  6
Continuous
 62
     2
100
AcDbLine
 10
200.0939577629704
 20
588.3228142237917
 30
0.0
 11
202.4959583019235
 21
588.3228142237917
 31
0.0
  0
LINE
  5
179
330
56
100
AcDbEntity
  8
1
  6
Continuous
 62
     2
100
AcDbLine
 10
199.7347966387972
 20
589.322814223792
 30
0.0
 11
202.097291994559
 21
589.3228142237917
 31
0.0
  0
LINE
  5
17A
330
56
100
AcDbEntity
  8
1
  6
Continuous
 62
     2
100
AcDbLine
 10
199.4812228408117
 20
590.3228142237917
 30
0.0
 11
201.7535466058546
 21
590.3228142237917
 31
0.0
  0
LINE
  5
17B
330
56
100
AcDbEntity
  8
1
  6
Continuous
 62
     2
100
AcDbLine
 10
199.2709470907134
 20
591.3228142237917
 30
0.0
 11
201.4623491876509
 21
591.3228142237917
 31
0.0
  0
LINE
  5
17C
330
56
100
AcDbEntity
  8
1
  6
Continuous
 62
     2
100
AcDbLine
 10
199.1110344864649
 20
592.3228142237917
 30
0.0
 11
201.2696739976722
 21
592.3228142237917
 31
0.0
  0
LINE
  5
17D
330
56
100
AcDbEntity
  8
1
  6
Continuous
 62
     2
100
AcDbLine
 10
202.4959583019235
 20
601.3228142237917
 30
0.0
 11
200.0939577629704
 21
601.3228142237917
 31
0.0
  0
LINE
  5
17E
330
56
100
AcDbEntity
  8
1
  6
Continuous
 62
     2
100
AcDbLine
 10
202.097291994559
 20
600.3228142237917
 30
0.0
 11
199.7347966387972
 21
600.3228142237915
 31
0.0
  0
LINE
  5
17F
330
56
100
AcDbEntity
  8
1
  6
Continuous
 62
     2
100
AcDbLine
 10
201.7535466058546
 20
599.3228142237917
 30
0.0
 11
199.4812228408117
 21
599.3228142237915
 31
0.0
  0
LINE
  5
180
330
56
100
AcDbEntity
  8
1
  6
Continuous
 62
     2
100
AcDbLine
 10
201.4623491876509
 20
598.3228142237917
 30
0.0
 11
199.2709470907134
 21
598.3228142237917
 31
0.0
  0
LINE
  5
181
330
56
100
AcDbEntity
  8
1
  6
Continuous
 62
     2
100
AcDbLine
 10
201.2696739976722
 20
597.3228142237915
 30
0.0
 11
199.1110344864649
 21
597.3228142237915
 31
0.0
  0
ARC
  5
182
330
56
100
AcDbEntity
  8
1
  6
Continuous
 62
     7
100
AcDbCircle
 10
178.7770279114087
 20
231.5136145758141
 30
0.0
 40
24.99999999999999
100
AcDbArc
 50
28.29707174721061
 51
28.8865403626308
  0
ARC
  5
183
330
56
100
AcDbEntity
  8
1
  6
Continuous
 62
     7
100
AcDbCircle
 10
178.7770279114087
 20
231.5136145758141
 30
0.0
 40
25.00000000000008
100
AcDbArc
 50
1.11345963737266
 51
1.7029282527927
  0
ARC
  5
184
330
56
100
AcDbEntity
  8
1
  6
Continuous
 62
     7
100
AcDbCircle
 10
178.7770279114087
 20
231.5136145758141
 30
0.0
 40
25.00000000000015
100
AcDbArc
 50
15.00000000000153
 51
28.29707174721061
  0
ARC
  5
185
330
56
100
AcDbEntity
  8
1
  6
Continuous
 62
     7
100
AcDbCircle
 10
178.7770279114087
 20
231.5136145758141
 30
0.0
 40
25.00000000000021
100
AcDbArc
 50
1.7029282527927
 51
15.00000000000153
  0
SPLINE
  5
186
330
56
100
AcDbEntity
  8
1
  6
Continuous
 62
     7
100
AcDbSpline
210
0.0
220
0.0
230
1.0
 70
     8
 71
     3
 72
     9
 73
     5
 74
     3
 42
0.000000001
 43
0.0000000001
 44
0.00000001
 40
0.0
 40
0.0
 40
0.0
 40
0.0
 40
0.2948024633816588
 40
0.5902096180210137
 40
0.5902096180210137
 40
0.5902096180210137
 40
0.5902096180210137
 10
446.1789607983293
 20
238.1135002258993
 30
0.0
 10
446.180078554783
 20
238.01520773928
 30
0.0
 10
446.1823163803832
 20
237.8184211516901
 30
0.0
 10
446.1978852244135
 20
237.6222384795941
 30
0.0
 10
446.2056776318424
 20
237.5240466459639
 30
0.0
 11
446.1789607983293
 21
238.1135002258993
 31
0.0
 11
446.1856400067084
 21
237.8187734359316
 31
0.0
 11
446.2056776318424
 21
237.5240466459639
 31
0.0
  0
SPLINE
  5
187
330
56
100
AcDbEntity
  8
1
  6
Continuous
 62
     7
100
AcDbSpline
210
0.0
220
0.0
230
1.0
 70
     8
 71
     3
 72
     9
 73
     5
 74
     3
 42
0.000000001
 43
0.0000000001
 44
0.00000001
 40
0.0
 40
0.0
 40
0.0
 40
0.0
 40
0.2948024633772856
 40
0.5902096180122091
 40
0.5902096180122091
 40
0.5902096180122091
 40
0.5902096180122091
 10
446.1789607983293
 20
237.337043090583
 30
0.0
 10
446.180078554783
 20
237.2387506039652
 30
0.0
 10
446.1823163803833
 20
237.0419640163782
 30
0.0
 10
446.1978852244136
 20
236.8457813442851
 30
0.0
 10
446.2056776318424
 20
236.7475895106564
 30
0.0
 11
446.1789607983293
 21
237.337043090583
 31
0.0
 11
446.1856400067085
 21
237.0423163006197
 31
0.0
 11
446.2056776318424
 21
236.7475895106564
 31
0.0
  0
SPLINE
  5
188
330
56
100
AcDbEntity
  8
1
  6
Continuous
 62
     7
100
AcDbSpline
210
0.0
220
0.0
230
1.0
 70
     8
 71
     3
 72
    45
 73
    41
 74
    39
 42
0.000000001
 43
0.0000000001
 44
0.00000001
 40
0.0
 40
0.0
 40
0.0
 40
0.0
 40
0.2948024574738917
 40
0.5902096105025388
 40
1.180899208859576
 40
1.771578437045114
 40
2.3640704497803
 40
2.956543277092747
 40
3.551782849560298
 40
4.146997186650393
 40
4.745588149445112
 40
5.344151239929616
 40
5.94628707316727
 40
6.548395875574362
 40
7.153842938586186
 40
7.759266898377113
 40
8.367398812306735
 40
8.975513967914399
 40
9.585390195706614
 40
10.19525763832789
 40
10.80573551842057
 40
11.41621339851324
 40
12.02608084113441
 40
12.63595706892679
 40
13.24407222453455
 40
13.85220413846409
 40
14.45762809825486
 40
15.06307516126663
 40
15.66518396367382
 40
16.26731979691149
 40
16.86588288739597
 40
17.46447385019063
 40
18.05968818728087
 40
18.65492775974847
 40
19.24740058706092
 40
19.8398925997961
 40
20.43057182798153
 40
21.02126142633866
 40
21.31666857937191
 40
21.61147103685054
 40
21.61147103685054
 40
21.61147103685054
 40
21.61147103685054
 10
460.1789607983295
 20
238.1135002259086
 30
0.0
 10
460.1776690593735
 20
238.2117774007861
 30
0.0
 10
460.1750829198302
 20
238.4085333353044
 30
0.0
 10
460.1474214639944
 20
238.8013652295803
 30
0.0
 10
460.081426028138
 20
239.289858609069
 30
0.0
 10
459.9485615831097
 20
239.8668579731394
 30
0.0
 10
459.7647513983757
 20
240.4303062787556
 30
0.0
 10
459.5302645471207
 20
240.9762756455985
 30
0.0
 10
459.2479478052568
 20
241.500141867793
 30
0.0
 10
458.9188945148302
 20
241.9984219456424
 30
0.0
 10
458.5467598036132
 20
242.4668186089318
 30
0.0
 10
458.1332042256587
 20
242.9022533867398
 30
0.0
 10
457.6826127140033
 20
243.301008299713
 30
0.0
 10
457.1971903105492
 20
243.660391448393
 30
0.0
 10
456.6818472311493
 20
243.9774640654897
 30
0.0
 10
456.1393553374995
 20
244.2499303877966
 30
0.0
 10
455.5748943810354
 20
244.4757569335757
 30
0.0
 10
454.9918315678593
 20
244.6530973768159
 30
0.0
 10
454.3953487938282
 20
244.7808639176143
 30
0.0
 10
453.7894113064878
 20
244.8577578096013
 30
0.0
 10
453.1789607983294
 20
244.8835969027945
 30
0.0
 10
452.5685102901708
 20
244.8577578096014
 30
0.0
 10
451.9625728028307
 20
244.7808639176142
 30
0.0
 10
451.3660900287994
 20
244.6530973768159
 30
0.0
 10
450.7830272156231
 20
244.4757569335757
 30
0.0
 10
450.2185662591593
 20
244.2499303877964
 30
0.0
 10
449.6760743655093
 20
243.9774640654898
 30
0.0
 10
449.1607312861099
 20
243.6603914483929
 30
0.0
 10
448.6753088826553
 20
243.3010082997131
 30
0.0
 10
448.2247173710001
 20
242.9022533867397
 30
0.0
 10
447.8111617930457
 20
242.4668186089318
 30
0.0
 10
447.4390270818285
 20
241.9984219456425
 30
0.0
 10
447.109973791402
 20
241.5001418677929
 30
0.0
 10
446.8276570495378
 20
240.9762756455985
 30
0.0
 10
446.5931701982828
 20
240.4303062787556
 30
0.0
 10
446.4093600135486
 20
239.8668579731394
 30
0.0
 10
446.2764955685205
 20
239.2898586090691
 30
0.0
 10
446.2105001326636
 20
238.8013652295788
 30
0.0
 10
446.1828386768281
 20
238.4085333352999
 30
0.0
 10
446.1802525372849
 20
238.2117774007784
 30
0.0
 10
446.1789607983293
 20
238.1135002258993
 30
0.0
 11
460.1789607983295
 21
238.1135002259086
 31
0.0
 11
460.1722815899516
 21
238.4082270159014
 31
0.0
 11
460.1522439648164
 21
238.7029538058944
 31
0.0
 11
460.0725024100902
 21
239.2882362056399
 31
0.0
 11
459.9402588199133
 21
239.8639215225043
 31
0.0
 11
459.7563946722771
 21
240.4271628213654
 31
0.0
 11
459.5227599149551
 21
240.9716248049511
 31
0.0
 11
459.2403298695015
 21
241.4955937146315
 31
0.0
 11
458.9124837179959
 21
241.9923803974795
 31
0.0
 11
458.5401029205429
 21
242.461041983968
 31
0.0
 11
458.1280292392157
 21
242.8951768186237
 31
0.0
 11
457.6770974636359
 21
243.2942107716278
 31
0.0
 11
457.1932770604108
 21
243.6526139350673
 31
0.0
 11
456.677607332337
 21
243.9698691601777
 31
0.0
 11
456.1366523671885
 21
244.241725550518
 31
0.0
 11
455.5720214845812
 21
244.467593634459
 31
0.0
 11
454.990256773043
 21
244.6446638552299
 31
0.0
 11
454.3938991042714
 21
244.7723609355326
 31
0.0
 11
453.788895273404
 21
244.8492287597415
 31
0.0
 11
453.1789607983293
 21
244.8749810099526
 31
0.0
 11
452.5690263232547
 21
244.8492287597415
 31
0.0
 11
451.9640224923874
 21
244.7723609355326
 31
0.0
 11
451.3676648236157
 21
244.6446638552299
 31
0.0
 11
450.7859001120773
 21
244.4675936344591
 31
0.0
 11
450.2212692294701
 21
244.241725550518
 31
0.0
 11
449.6803142643217
 21
243.9698691601778
 31
0.0
 11
449.1646445362481
 21
243.6526139350673
 31
0.0
 11
448.6808241330228
 21
243.2942107716278
 31
0.0
 11
448.229892357443
 21
242.8951768186237
 31
0.0
 11
447.8178186761158
 21
242.461041983968
 31
0.0
 11
447.4454378786629
 21
241.9923803974795
 31
0.0
 11
447.1175917271572
 21
241.4955937146315
 31
0.0
 11
446.8351616817033
 21
240.9716248049511
 31
0.0
 11
446.6015269243813
 21
240.4271628213655
 31
0.0
 11
446.4176627767451
 21
239.8639215225043
 31
0.0
 11
446.2854191865683
 21
239.2882362056401
 31
0.0
 11
446.205677631842
 21
238.7029538058945
 31
0.0
 11
446.1856400067068
 21
238.4082270158969
 31
0.0
 11
446.1789607983293
 21
238.1135002258993
 31
0.0
  0
SPLINE
  5
189
330
56
100
AcDbEntity
  8
1
  6
Continuous
 62
     7
100
AcDbSpline
210
0.0
220
0.0
230
1.0
 70
     8
 71
     3
 72
    43
 73
    39
 74
    37
 42
0.000000001
 43
0.0000000001
 44
0.00000001
 40
0.0
 40
0.0
 40
0.0
 40
0.0
 40
0.5906895938156098
 40
1.181368820439532
 40
1.773860832549946
 40
2.366333659532548
 40
2.961573231796157
 40
3.556787568746357
 40
4.155378531438709
 40
4.753941621844907
 40
5.35607745502051
 40
5.9581862573775
 40
6.563633320347916
 40
7.169057280104063
 40
7.77718919400397
 40
8.38530434958643
 40
8.995180577356647
 40
9.605048019958765
 40
10.21552590003446
 40
10.82600378011201
 40
11.43587122271948
 40
12.04574745049927
 40
12.65386260609552
 40
13.26199452001411
 40
13.86741847979471
 40
14.47286554279649
 40
15.07497434519398
 40
15.6771101784222
 40
16.27567326889713
 40
16.87426423168185
 40
17.46947856876115
 40
18.06471814121683
 40
18.65719096851484
 40
19.24968298123078
 40
19.84036220938543
 40
20.43105180767939
 40
20.72645896065444
 40
21.02126141832996
 40
21.02126141832996
 40
21.02126141832996
 40
21.02126141832996
 10
446.2056776318424
 20
236.7475895106564
 30
0.0
 10
446.2285359577769
 20
236.5518876277918
 30
0.0
 10
446.2742522209114
 20
236.1604872985656
 30
0.0
 10
446.4099631629906
 20
235.5837384166711
 30
0.0
 10
446.5930084085136
 20
235.0202228002597
 30
0.0
 10
446.8277006265262
 20
234.4742715051398
 30
0.0
 10
447.1099620956824
 20
233.9504004193216
 30
0.0
 10
447.4390302360802
 20
233.452121648294
 30
0.0
 10
447.811160946592
 20
232.9837246330132
 30
0.0
 10
448.2247175997222
 20
232.5482899498524
 30
0.0
 10
448.6753088215538
 20
232.149535011401
 30
0.0
 10
449.1607313028348
 20
231.7901518695874
 30
0.0
 10
449.6760743612124
 20
231.4730792506539
 30
0.0
 10
450.2185662604627
 20
231.2006129288495
 30
0.0
 10
450.7830272153793
 20
230.974786382941
 30
0.0
 10
451.366090028937
 20
230.7974459397396
 30
0.0
 10
451.9625728028364
 20
230.6696793989333
 30
0.0
 10
452.5685102901866
 20
230.5927855069496
 30
0.0
 10
453.1789607983202
 20
230.5669464137561
 30
0.0
 10
453.7894113064655
 20
230.592785506949
 30
0.0
 10
454.3953487937913
 20
230.6696793989353
 30
0.0
 10
454.9918315678103
 20
230.7974459397324
 30
0.0
 10
455.5748943809745
 20
230.974786382971
 30
0.0
 10
456.1393553374276
 20
231.2006129287482
 30
0.0
 10
456.681847231067
 20
231.4730792510526
 30
0.0
 10
457.1971903104567
 20
231.7901518681466
 30
0.0
 10
457.6826127139014
 20
232.1495350168231
 30
0.0
 10
458.1332042255473
 20
232.5482899297927
 30
0.0
 10
458.5467598034925
 20
232.9837247075961
 30
0.0
 10
458.9188945147
 20
233.4521213708801
 30
0.0
 10
459.2479478051163
 20
233.9504014487234
 30
0.0
 10
459.5302645469694
 20
234.4742676709097
 30
0.0
 10
459.7647513982118
 20
235.0202370377413
 30
0.0
 10
459.948561582932
 20
235.5836853433398
 30
0.0
 10
460.0814260279357
 20
236.160684707376
 30
0.0
 10
460.1474214637888
 20
236.649178086818
 30
0.0
 10
460.1750829196155
 20
237.0420099811178
 30
0.0
 10
460.1776690593726
 20
237.2387659156814
 30
0.0
 10
460.1789607983295
 20
237.3370430906261
 30
0.0
 11
446.2056776318424
 21
236.7475895106564
 31
0.0
 11
446.2854191865687
 21
236.1623071109107
 31
0.0
 11
446.4176627767455
 21
235.5866217940465
 31
0.0
 11
446.6015269243816
 21
235.0233804951854
 31
0.0
 11
446.8351616817035
 21
234.4789185115997
 31
0.0
 11
447.1175917271573
 21
233.9549496019192
 31
0.0
 11
447.4454378786629
 21
233.4581629190711
 31
0.0
 11
447.8178186761158
 21
232.9895013325826
 31
0.0
 11
448.229892357443
 21
232.5553664979269
 31
0.0
 11
448.6808241330228
 21
232.1563325449229
 31
0.0
 11
449.164644536248
 21
231.7979293814834
 31
0.0
 11
449.6803142643217
 21
231.4806741563729
 31
0.0
 11
450.2212692294702
 21
231.2088177660327
 31
0.0
 11
450.7859001120772
 21
230.9829496820916
 31
0.0
 11
451.3676648236155
 21
230.8058794613208
 31
0.0
 11
451.9640224923871
 21
230.678182381018
 31
0.0
 11
452.5690263232545
 21
230.6013145568091
 31
0.0
 11
453.1789607983293
 21
230.575562306598
 31
0.0
 11
453.788895273404
 21
230.6013145568091
 31
0.0
 11
454.3938991042713
 21
230.678182381018
 31
0.0
 11
454.9902567730431
 21
230.8058794613208
 31
0.0
 11
455.5720214845815
 21
230.9829496820916
 31
0.0
 11
456.1366523671886
 21
231.2088177660327
 31
0.0
 11
456.6776073323371
 21
231.4806741563729
 31
0.0
 11
457.1932770604105
 21
231.7979293814834
 31
0.0
 11
457.6770974636357
 21
232.1563325449228
 31
0.0
 11
458.1280292392156
 21
232.5553664979269
 31
0.0
 11
458.5401029205429
 21
232.9895013325827
 31
0.0
 11
458.9124837179958
 21
233.4581629190712
 31
0.0
 11
459.2403298695013
 21
233.9549496019192
 31
0.0
 11
459.5227599149551
 21
234.4789185115997
 31
0.0
 11
459.7563946722772
 21
235.0233804951854
 31
0.0
 11
459.9402588199134
 21
235.5866217940465
 31
0.0
 11
460.0725024100902
 21
236.1623071109107
 31
0.0
 11
460.1522439648165
 21
236.7475895106562
 31
0.0
 11
460.1722815899513
 21
237.0423163006411
 31
0.0
 11
460.1789607983295
 21
237.3370430906261
 31
0.0
  0
SPLINE
  5
18A
330
56
100
AcDbEntity
  8
1
  6
Continuous
 62
     7
100
AcDbSpline
210
0.0
220
0.0
230
1.0
 70
     8
 71
     3
 72
    43
 73
    39
 74
    37
 42
0.000000001
 43
0.0000000001
 44
0.00000001
 40
0.0
 40
0.0
 40
0.0
 40
0.0
 40
0.5906895938154972
 40
1.181368820439419
 40
1.773860832549888
 40
2.366333659532463
 40
2.961573231795972
 40
3.556787568746195
 40
4.155378531438526
 40
4.753941621844746
 40
5.356077455020348
 40
5.958186257377355
 40
6.5636333203478
 40
7.169057280103923
 40
7.777189194003809
 40
8.385304349586244
 40
8.99518057735646
 40
9.605048019958575
 40
10.21552590003427
 40
10.82600378011182
 40
11.43587122271929
 40
12.04574745049907
 40
12.65386260609531
 40
13.26199452001387
 40
13.86741847979443
 40
14.47286554279625
 40
15.07497434519376
 40
15.67711017842195
 40
16.27567326889686
 40
16.87426423168161
 40
17.46947856876094
 40
18.06471814121657
 40
18.65719096851455
 40
19.24968298123049
 40
19.84036220938523
 40
20.43105180767928
 40
20.72645896064171
 40
21.0212614183046
 40
21.0212614183046
 40
21.0212614183046
 40
21.0212614183046
 10
446.2056776318424
 20
237.5240466459639
 30
0.0
 10
446.2285359577771
 20
237.3283447630994
 30
0.0
 10
446.2742522209114
 20
236.9369444338731
 30
0.0
 10
446.4099631629905
 20
236.3601955519787
 30
0.0
 10
446.5930084085137
 20
235.7966799355673
 30
0.0
 10
446.8277006265261
 20
235.2507286404474
 30
0.0
 10
447.1099620956824
 20
234.7268575546292
 30
0.0
 10
447.4390302360803
 20
234.2285787836017
 30
0.0
 10
447.8111609465921
 20
233.7601817683208
 30
0.0
 10
448.2247175997224
 20
233.3247470851601
 30
0.0
 10
448.6753088215536
 20
232.9259921467086
 30
0.0
 10
449.1607313028348
 20
232.5666090048951
 30
0.0
 10
449.6760743612124
 20
232.2495363859613
 30
0.0
 10
450.2185662604626
 20
231.9770700641571
 30
0.0
 10
450.7830272153795
 20
231.7512435182487
 30
0.0
 10
451.3660900289369
 20
231.5739030750474
 30
0.0
 10
451.9625728028365
 20
231.446136534241
 30
0.0
 10
452.5685102901865
 20
231.3692426422575
 30
0.0
 10
453.1789607983202
 20
231.3434035490638
 30
0.0
 10
453.7894113064655
 20
231.3692426422569
 30
0.0
 10
454.3953487937914
 20
231.446136534243
 30
0.0
 10
454.9918315678101
 20
231.5739030750402
 30
0.0
 10
455.5748943809746
 20
231.7512435182787
 30
0.0
 10
456.1393553374276
 20
231.9770700640558
 30
0.0
 10
456.6818472310671
 20
232.2495363863601
 30
0.0
 10
457.1971903104568
 20
232.5666090034543
 30
0.0
 10
457.6826127139013
 20
232.9259921521307
 30
0.0
 10
458.1332042255475
 20
233.3247470651004
 30
0.0
 10
458.5467598034925
 20
233.7601818429037
 30
0.0
 10
458.9188945146999
 20
234.2285785061877
 30
0.0
 10
459.2479478051163
 20
234.7268585840311
 30
0.0
 10
459.5302645469694
 20
235.2507248062172
 30
0.0
 10
459.7647513982118
 20
235.7966941730489
 30
0.0
 10
459.948561582932
 20
236.3601424786474
 30
0.0
 10
460.0814260279355
 20
236.9371418426835
 30
0.0
 10
460.1474214637885
 20
237.4256352221216
 30
0.0
 10
460.1750829196145
 20
237.8184671164129
 30
0.0
 10
460.1776690593721
 20
238.015223050968
 30
0.0
 10
460.1789607983295
 20
238.1135002259086
 30
0.0
 11
446.2056776318424
 21
237.5240466459639
 31
0.0
 11
446.2854191865687
 21
236.9387642462183
 31
0.0
 11
446.4176627767455
 21
236.3630789293541
 31
0.0
 11
446.6015269243816
 21
235.7998376304929
 31
0.0
 11
446.8351616817035
 21
235.2553756469073
 31
0.0
 11
447.1175917271573
 21
234.7314067372269
 31
0.0
 11
447.4454378786629
 21
234.2346200543788
 31
0.0
 11
447.8178186761158
 21
233.7659584678903
 31
0.0
 11
448.229892357443
 21
233.3318236332345
 31
0.0
 11
448.6808241330228
 21
232.9327896802305
 31
0.0
 11
449.164644536248
 21
232.574386516791
 31
0.0
 11
449.6803142643217
 21
232.2571312916805
 31
0.0
 11
450.2212692294702
 21
231.9852749013403
 31
0.0
 11
450.7859001120772
 21
231.7594068173993
 31
0.0
 11
451.3676648236155
 21
231.5823365966286
 31
0.0
 11
451.9640224923871
 21
231.4546395163258
 31
0.0
 11
452.5690263232545
 21
231.3777716921169
 31
0.0
 11
453.1789607983293
 21
231.3520194419058
 31
0.0
 11
453.788895273404
 21
231.3777716921169
 31
0.0
 11
454.3938991042713
 21
231.4546395163258
 31
0.0
 11
454.9902567730431
 21
231.5823365966286
 31
0.0
 11
455.5720214845815
 21
231.7594068173993
 31
0.0
 11
456.1366523671886
 21
231.9852749013403
 31
0.0
 11
456.6776073323371
 21
232.2571312916805
 31
0.0
 11
457.1932770604105
 21
232.574386516791
 31
0.0
 11
457.6770974636357
 21
232.9327896802305
 31
0.0
 11
458.1280292392156
 21
233.3318236332345
 31
0.0
 11
458.5401029205429
 21
233.7659584678903
 31
0.0
 11
458.9124837179958
 21
234.2346200543788
 31
0.0
 11
459.2403298695013
 21
234.7314067372269
 31
0.0
 11
459.5227599149551
 21
235.2553756469073
 31
0.0
 11
459.7563946722772
 21
235.799837630493
 31
0.0
 11
459.9402588199134
 21
236.3630789293541
 31
0.0
 11
460.0725024100902
 21
236.9387642462183
 31
0.0
 11
460.1522439648165
 21
237.5240466459639
 31
0.0
 11
460.1722815899506
 21
237.8187734359362
 31
0.0
 11
460.1789607983295
 21
238.1135002259086
 31
0.0
  0
SPLINE
  5
18B
330
56
100
AcDbEntity
  8
1
  6
Continuous
 62
     7
100
AcDbSpline
210
0.0
220
0.0
230
1.0
 70
     8
 71
     3
 72
     9
 73
     5
 74
     3
 42
0.000000001
 43
0.0000000001
 44
0.00000001
 40
0.0
 40
0.0
 40
0.0
 40
0.0
 40
0.0817685401106998
 40
0.1663863203327361
 40
0.1663863203327361
 40
0.1663863203327361
 40
0.1663863203327361
 10
203.4081364817619
 20
587.8228142237917
 30
0.0
 10
203.380776846146
 20
587.8241828874196
 30
0.0
 10
203.3251042260172
 20
587.8269679256902
 30
0.0
 10
203.2722204275185
 20
587.8446260113321
 30
0.0
 10
203.2453257330054
 20
587.8536062546805
 30
0.0
 11
203.4081364817619
 21
587.8228142237917
 31
0.0
 11
203.3267311073837
 21
587.8305122315155
 31
0.0
 11
203.2453257330054
 21
587.8536062546805
 31
0.0
  0
SPLINE
  5
18C
330
56
100
AcDbEntity
  8
1
  6
Continuous
 62
     7
100
AcDbSpline
210
0.0
220
0.0
230
1.0
 70
     8
 71
     3
 72
     9
 73
     5
 74
     3
 42
0.000000001
 43
0.0000000001
 44
0.00000001
 40
0.0
 40
0.0
 40
0.0
 40
0.0
 40
0.0817685401082809
 40
0.166386320327869
 40
0.166386320327869
 40
0.166386320327869
 40
0.166386320327869
 10
200.5103590028899
 20
587.8228142237917
 30
0.0
 10
200.4829993672749
 20
587.82418288742
 30
0.0
 10
200.4273267471477
 20
587.8269679256907
 30
0.0
 10
200.3744429486508
 20
587.8446260113325
 30
0.0
 10
200.3475482541383
 20
587.8536062546805
 30
0.0
 11
200.5103590028899
 21
587.8228142237917
 31
0.0
 11
200.4289536285142
 21
587.830512231516
 31
0.0
 11
200.3475482541383
 21
587.8536062546805
 31
0.0
  0
SPLINE
  5
18D
330
56
100
AcDbEntity
  8
1
  6
Continuous
 62
     7
100
AcDbSpline
210
0.0
220
0.0
230
1.0
 70
     8
 71
     3
 72
    45
 73
    41
 74
    39
 42
0.000000001
 43
0.0000000001
 44
0.00000001
 40
0.0
 40
0.0
 40
0.0
 40
0.0
 40
0.0817685405898481
 40
0.1663863224567233
 40
0.362600995782895
 40
0.5556244486825164
 40
0.8147926914179289
 40
1.072329739645241
 40
1.406648032501236
 40
1.74071958986907
 40
2.150356196254103
 40
2.559783007738393
 40
3.036662534438708
 40
3.51347083203476
 40
4.045978215488943
 40
4.578442442468793
 40
5.152332427763526
 40
5.726201618642561
 40
6.325570451107948
 40
6.924930114381617
 40
7.532895800620768
 40
8.140861486860032
 40
8.7402211501337
 40
9.339589982599088
 40
9.913459173478236
 40
10.48734915877285
 40
11.0198133857527
 40
11.55232076920677
 40
12.02912906680294
 40
12.50600859350314
 40
12.91543540498744
 40
13.32507201137243
 40
13.65914356874045
 40
13.99346186159648
 40
14.25099890982381
 40
14.51016715255917
 40
14.70319060545881
 40
14.89940527878493
 40
14.98402306065869
 40
15.06579160125509
 40
15.06579160125509
 40
15.06579160125509
 40
15.06579160125509
 10
203.4081364817754
 20
601.8228142237917
 30
0.0
 10
203.4354550343114
 20
601.8213357628902
 30
0.0
 10
203.4910440612163
 20
601.8183273383382
 30
0.0
 10
203.6072221738009
 20
601.7823308895391
 30
0.0
 10
203.7493995761982
 20
601.7095076646759
 30
0.0
 10
203.9096839335526
 20
601.5618021487561
 30
0.0
 10
204.053040494
 20
601.3727017343278
 30
0.0
 10
204.2002746325008
 20
601.1297964162587
 30
0.0
 10
204.3333325572259
 20
600.850805399989
 30
0.0
 10
204.466429580286
 20
600.5168435240034
 30
0.0
 10
204.5863232529595
 20
600.1513968880166
 30
0.0
 10
204.7023035730874
 20
599.7351661263394
 30
0.0
 10
204.8052928825122
 20
599.2924822500905
 30
0.0
 10
204.9008338848044
 20
598.8063030082205
 30
0.0
 10
204.9832439009522
 20
598.2989364151815
 30
0.0
 10
205.0555811092201
 20
597.7573956296328
 30
0.0
 10
205.1145337188269
 20
597.2003649749863
 30
0.0
 10
205.1615740506793
 20
596.6198370286314
 30
0.0
 10
205.1950007217087
 20
596.0298613150125
 30
0.0
 10
205.215426234482
 20
595.4279255346778
 30
0.0
 10
205.2221074312818
 20
594.8228142237917
 30
0.0
 10
205.2154262344819
 20
594.2177029129055
 30
0.0
 10
205.1950007217087
 20
593.6157671325712
 30
0.0
 10
205.1615740506793
 20
593.0257914189517
 30
0.0
 10
205.1145337188269
 20
592.4452634725967
 30
0.0
 10
205.0555811092201
 20
591.8882328179509
 30
0.0
 10
204.9832439009523
 20
591.3466920324017
 30
0.0
 10
204.9008338848043
 20
590.8393254393628
 30
0.0
 10
204.8052928825122
 20
590.3531461974928
 30
0.0
 10
204.7023035730874
 20
589.910462321244
 30
0.0
 10
204.5863232529595
 20
589.4942315595669
 30
0.0
 10
204.466429580286
 20
589.1287849235802
 30
0.0
 10
204.3333325572262
 20
588.7948230475943
 30
0.0
 10
204.2002746325007
 20
588.5158320313246
 30
0.0
 10
204.0530404940001
 20
588.2729267132552
 30
0.0
 10
203.9096839335525
 20
588.0838262988275
 30
0.0
 10
203.7493995761983
 20
587.9361207829073
 30
0.0
 10
203.6072221737986
 20
587.8632975580435
 30
0.0
 10
203.4910440612097
 20
587.8273011092432
 30
0.0
 10
203.4354550343002
 20
587.8242926846926
 30
0.0
 10
203.4081364817619
 20
587.8228142237917
 30
0.0
 11
203.4081364817754
 21
601.8228142237917
 31
0.0
 11
203.4895418561648
 21
601.81511621607
 31
0.0
 11
203.5709472305541
 21
601.792022192903
 31
0.0
 11
203.7451299770929
 21
601.7016863280688
 31
0.0
 11
203.8896080975525
 21
601.5736858369035
 31
0.0
 11
204.0496028301119
 21
601.3697989487382
 31
0.0
 11
204.1837067179649
 21
601.1499319931145
 31
0.0
 11
204.3299836570874
 21
600.8493130023276
 31
0.0
 11
204.454175045345
 21
600.5391835064838
 31
0.0
 11
204.583379144224
 21
600.1504568034223
 31
0.0
 11
204.6936302682969
 21
599.7561536165488
 31
0.0
 11
204.8026111343315
 21
599.2918937181562
 31
0.0
 11
204.8948127975805
 21
598.8240849908216
 31
0.0
 11
204.9807666043843
 21
598.2985604378541
 31
0.0
 11
205.0514327918651
 21
597.7708062885056
 31
0.0
 11
205.1121924100805
 21
597.2001417784714
 31
0.0
 11
205.1586231070822
 21
596.6281539835486
 31
0.0
 11
205.1927376547016
 21
596.029756796285
 31
0.0
 11
205.2130601732767
 21
595.4307417715203
 31
0.0
 11
205.2198697974973
 21
594.8228142237917
 31
0.0
 11
205.2130601732767
 21
594.2148866760631
 31
0.0
 11
205.1927376547016
 21
593.6158716512983
 31
0.0
 11
205.1586231070822
 21
593.0174744640348
 31
0.0
 11
205.1121924100805
 21
592.4454866691118
 31
0.0
 11
205.0514327918651
 21
591.8748221590778
 31
0.0
 11
204.9807666043843
 21
591.3470680097292
 31
0.0
 11
204.8948127975805
 21
590.8215434567619
 31
0.0
 11
204.8026111343315
 21
590.3537347294272
 31
0.0
 11
204.6936302682969
 21
589.8894748310347
 31
0.0
 11
204.583379144224
 21
589.4951716441611
 31
0.0
 11
204.4541750453451
 21
589.1064449410997
 31
0.0
 11
204.3299836570876
 21
588.7963154452557
 31
0.0
 11
204.183706717965
 21
588.4956964544688
 31
0.0
 11
204.049602830112
 21
588.275829498845
 31
0.0
 11
203.8896080975525
 21
588.0719426106799
 31
0.0
 11
203.7451299770929
 21
587.9439421195145
 31
0.0
 11
203.570947230554
 21
587.8536062546805
 31
0.0
 11
203.489541856158
 21
587.8305122315121
 31
0.0
 11
203.4081364817619
 21
587.8228142237917
 31
0.0
  0
SPLINE
  5
18E
330
56
100
AcDbEntity
  8
1
  6
Continuous
 62
     7
100
AcDbSpline
210
0.0
220
0.0
230
1.0
 70
     8
 71
     3
 72
    43
 73
    39
 74
    37
 42
0.000000001
 43
0.0000000001
 44
0.00000001
 40
0.0
 40
0.0
 40
0.0
 40
0.0
 40
0.1962146746587184
 40
0.3892381262430373
 40
0.6484063688736531
 40
0.9059434171378864
 40
1.240261710099419
 40
1.574333267594808
 40
1.983969874146317
 40
2.393396685798099
 40
2.870276212685757
 40
3.347084510452248
 40
3.879591894065143
 40
4.412056121157539
 40
4.985946106507575
 40
5.55981529736294
 40
6.159184129713234
 40
6.758543792783719
 40
7.366509478740323
 40
7.974475164642143
 40
8.57383482755428
 40
9.17320365965369
 40
9.74707285019599
 40
10.32096283517833
 40
10.85342706189662
 40
11.38593444511763
 40
11.86274274252887
 40
12.33962226906517
 40
12.74904908042364
 40
13.15868568669514
 40
13.49275724397821
 40
13.82707553675511
 40
14.08461258492457
 40
14.34378082760297
 40
14.53680428046127
 40
14.73301895375737
 40
14.81763673566797
 40
14.89940527609896
 40
14.89940527609896
 40
14.89940527609896
 40
14.89940527609896
 10
203.2453257330054
 20
587.8536062546805
 30
0.0
 10
203.1852737063377
 20
587.8806097992144
 30
0.0
 10
203.0661463288044
 20
587.934177691709
 30
0.0
 10
202.9068574464341
 20
588.0845436665321
 30
0.0
 10
202.7631531224487
 20
588.2727146628872
 30
0.0
 10
202.616026661122
 20
588.5159077535423
 30
0.0
 10
202.4829320614165
 20
588.7948007538025
 30
0.0
 10
202.3498461838482
 20
589.1287924166061
 30
0.0
 10
202.2299488985857
 20
589.4942293976719
 30
0.0
 10
202.1139696454366
 20
589.9104630107981
 30
0.0
 10
202.0109800061847
 20
590.3531460053912
 30
0.0
 10
201.9154390991402
 20
590.8393255015303
 30
0.0
 10
201.8330290549397
 20
591.3466920191704
 30
0.0
 10
201.7606918549336
 20
591.8882328261932
 30
0.0
 10
201.7017392433536
 20
592.445263474785
 30
0.0
 10
201.6546989124941
 20
593.0257914228413
 30
0.0
 10
201.6212722416485
 20
593.6157671358924
 30
0.0
 10
201.6008467292638
 20
594.2177029161664
 30
0.0
 10
201.5941655327407
 20
594.8228142267461
 30
0.0
 10
201.6008467297632
 20
595.4279255373114
 30
0.0
 10
201.6212722426773
 20
596.0298613172829
 30
0.0
 10
201.6546989137738
 20
596.6198370305433
 30
0.0
 10
201.7017392456321
 20
597.2003649765575
 30
0.0
 10
201.7606918552008
 20
597.7573956309024
 30
0.0
 10
201.8330290634007
 20
598.2989364161887
 30
0.0
 10
201.915439079467
 20
598.8063030090111
 30
0.0
 10
202.0109800816703
 20
599.292482250701
 30
0.0
 10
202.1139693910096
 20
599.7351661268069
 30
0.0
 10
202.2299497110549
 20
600.1513968883679
 30
0.0
 10
202.3498433836558
 20
600.5168435242645
 30
0.0
 10
202.4829404066487
 20
600.8508054001775
 30
0.0
 10
202.615998331318
 20
601.1297964163921
 30
0.0
 10
202.7632324697676
 20
601.3727017344163
 30
0.0
 10
202.9065890301735
 20
601.5618021488125
 30
0.0
 10
203.0668733874945
 20
601.7095076647006
 30
0.0
 10
203.2090507898804
 20
601.782330889577
 30
0.0
 10
203.3252289024297
 20
601.818327338319
 30
0.0
 10
203.3808179292925
 20
601.8213357628927
 30
0.0
 10
203.4081364817754
 20
601.8228142237917
 30
0.0
 11
203.2453257330054
 21
587.8536062546805
 31
0.0
 11
203.0711429864665
 21
587.9439421195146
 31
0.0
 11
202.926664866007
 21
588.07194261068
 31
0.0
 11
202.7666701334476
 21
588.275829498845
 31
0.0
 11
202.6325662455947
 21
588.4956964544689
 31
0.0
 11
202.4862893064721
 21
588.7963154452559
 31
0.0
 11
202.3620979182145
 21
589.1064449410998
 31
0.0
 11
202.2328938193355
 21
589.4951716441612
 31
0.0
 11
202.1226426952625
 21
589.8894748310347
 31
0.0
 11
202.0136618292279
 21
590.3537347294271
 31
0.0
 11
201.921460165979
 21
590.8215434567617
 31
0.0
 11
201.8355063591753
 21
591.3470680097292
 31
0.0
 11
201.7648401716945
 21
591.8748221590779
 31
0.0
 11
201.704080553479
 21
592.4454866691119
 31
0.0
 11
201.6576498564773
 21
593.0174744640349
 31
0.0
 11
201.6235353088579
 21
593.6158716512983
 31
0.0
 11
201.6032127902827
 21
594.2148866760631
 31
0.0
 11
201.596403166062
 21
594.8228142237917
 31
0.0
 11
201.6032127902827
 21
595.4307417715204
 31
0.0
 11
201.6235353088579
 21
596.0297567962849
 31
0.0
 11
201.6576498564773
 21
596.6281539835485
 31
0.0
 11
201.704080553479
 21
597.2001417784716
 31
0.0
 11
201.7648401716945
 21
597.7708062885054
 31
0.0
 11
201.8355063591753
 21
598.2985604378541
 31
0.0
 11
201.921460165979
 21
598.8240849908216
 31
0.0
 11
202.0136618292279
 21
599.2918937181564
 31
0.0
 11
202.1226426952625
 21
599.7561536165489
 31
0.0
 11
202.2328938193355
 21
600.1504568034223
 31
0.0
 11
202.3620979182145
 21
600.5391835064837
 31
0.0
 11
202.4862893064721
 21
600.8493130023274
 31
0.0
 11
202.6325662455948
 21
601.1499319931145
 31
0.0
 11
202.7666701334478
 21
601.3697989487382
 31
0.0
 11
202.9266648660072
 21
601.5736858369032
 31
0.0
 11
203.0711429864667
 21
601.7016863280686
 31
0.0
 11
203.2453257330055
 21
601.792022192903
 31
0.0
 11
203.3267311073905
 21
601.8151162160692
 31
0.0
 11
203.4081364817754
 21
601.8228142237917
 31
0.0
  0
SPLINE
  5
18F
330
56
100
AcDbEntity
  8
1
  6
Continuous
 62
     7
100
AcDbSpline
210
0.0
220
0.0
230
1.0
 70
     8
 71
     3
 72
    43
 73
    39
 74
    37
 42
0.000000001
 43
0.0000000001
 44
0.00000001
 40
0.0
 40
0.0
 40
0.0
 40
0.0
 40
0.1962146746587689
 40
0.3892381262431303
 40
0.6484063688737987
 40
0.9059434171380616
 40
1.240261710099607
 40
1.574333267594985
 40
1.983969874146468
 40
2.393396685798242
 40
2.8702762126859
 40
3.347084510452397
 40
3.879591894065301
 40
4.412056121157701
 40
4.98594610650773
 40
5.55981529736309
 40
6.159184129713382
 40
6.758543792783867
 40
7.36650947874047
 40
7.974475164642292
 40
8.573834827554428
 40
9.173203659653838
 40
9.747072850196139
 40
10.32096283517847
 40
10.85342706189677
 40
11.38593444511777
 40
11.86274274252902
 40
12.33962226906531
 40
12.74904908042378
 40
13.15868568669525
 40
13.4927572439783
 40
13.82707553675518
 40
14.08461258492467
 40
14.3437808276031
 40
14.5368042804614
 40
14.73301895375754
 40
14.81763673553792
 40
14.89940527584342
 40
14.89940527584342
 40
14.89940527584342
 40
14.89940527584342
 10
200.3475482541383
 20
587.8536062546805
 30
0.0
 10
200.2874962274706
 20
587.8806097992144
 30
0.0
 10
200.1683688499373
 20
587.9341776917091
 30
0.0
 10
200.0090799675669
 20
588.084543666532
 30
0.0
 10
199.8653756435814
 20
588.2727146628872
 30
0.0
 10
199.7182491822547
 20
588.5159077535424
 30
0.0
 10
199.5851545825492
 20
588.7948007538027
 30
0.0
 10
199.4520687049807
 20
589.1287924166058
 30
0.0
 10
199.3321714197185
 20
589.4942293976719
 30
0.0
 10
199.2161921665693
 20
589.9104630107979
 30
0.0
 10
199.1132025273174
 20
590.3531460053914
 30
0.0
 10
199.0176616202729
 20
590.8393255015301
 30
0.0
 10
198.9352515760724
 20
591.3466920191706
 30
0.0
 10
198.8629143760663
 20
591.8882328261932
 30
0.0
 10
198.8039617644863
 20
592.4452634747852
 30
0.0
 10
198.756921433627
 20
593.0257914228414
 30
0.0
 10
198.7234947627811
 20
593.6157671358919
 30
0.0
 10
198.7030692503967
 20
594.2177029161667
 30
0.0
 10
198.6963880538734
 20
594.822814226746
 30
0.0
 10
198.7030692508962
 20
595.4279255373116
 30
0.0
 10
198.7234947638101
 20
596.029861317283
 30
0.0
 10
198.7569214349065
 20
596.6198370305431
 30
0.0
 10
198.803961766765
 20
597.2003649765577
 30
0.0
 10
198.8629143763335
 20
597.757395630902
 30
0.0
 10
198.9352515845337
 20
598.2989364161887
 30
0.0
 10
199.0176616005999
 20
598.8063030090111
 30
0.0
 10
199.113202602803
 20
599.2924822507009
 30
0.0
 10
199.2161919121423
 20
599.7351661268069
 30
0.0
 10
199.3321722321877
 20
600.1513968883678
 30
0.0
 10
199.4520659047885
 20
600.5168435242645
 30
0.0
 10
199.5851629277813
 20
600.8508054001775
 30
0.0
 10
199.7182208524507
 20
601.129796416392
 30
0.0
 10
199.8654549909001
 20
601.372701734416
 30
0.0
 10
200.0088115513064
 20
601.5618021488126
 30
0.0
 10
200.1690959086268
 20
601.7095076647006
 30
0.0
 10
200.3112733109751
 20
601.7823308895565
 30
0.0
 10
200.4274514234364
 20
601.8183273382838
 30
0.0
 10
200.4830404502114
 20
601.8213357628808
 30
0.0
 10
200.5103590026513
 20
601.8228142237917
 30
0.0
 11
200.3475482541383
 21
587.8536062546805
 31
0.0
 11
200.1733655075994
 21
587.9439421195146
 31
0.0
 11
200.0288873871398
 21
588.07194261068
 31
0.0
 11
199.8688926545803
 21
588.275829498845
 31
0.0
 11
199.7347887667274
 21
588.4956964544689
 31
0.0
 11
199.5885118276047
 21
588.7963154452559
 31
0.0
 11
199.4643204393472
 21
589.1064449410998
 31
0.0
 11
199.3351163404682
 21
589.4951716441612
 31
0.0
 11
199.2248652163952
 21
589.8894748310347
 31
0.0
 11
199.1158843503606
 21
590.3537347294271
 31
0.0
 11
199.0236826871117
 21
590.8215434567617
 31
0.0
 11
198.937728880308
 21
591.3470680097292
 31
0.0
 11
198.8670626928272
 21
591.8748221590779
 31
0.0
 11
198.8063030746117
 21
592.4454866691119
 31
0.0
 11
198.7598723776101
 21
593.0174744640349
 31
0.0
 11
198.7257578299907
 21
593.6158716512983
 31
0.0
 11
198.7054353114155
 21
594.2148866760631
 31
0.0
 11
198.6986256871948
 21
594.8228142237917
 31
0.0
 11
198.7054353114155
 21
595.4307417715204
 31
0.0
 11
198.7257578299907
 21
596.0297567962849
 31
0.0
 11
198.7598723776101
 21
596.6281539835485
 31
0.0
 11
198.8063030746119
 21
597.2001417784716
 31
0.0
 11
198.8670626928273
 21
597.7708062885054
 31
0.0
 11
198.9377288803081
 21
598.2985604378541
 31
0.0
 11
199.0236826871118
 21
598.8240849908216
 31
0.0
 11
199.1158843503606
 21
599.2918937181564
 31
0.0
 11
199.2248652163952
 21
599.7561536165489
 31
0.0
 11
199.3351163404682
 21
600.1504568034223
 31
0.0
 11
199.4643204393472
 21
600.5391835064837
 31
0.0
 11
199.5885118276048
 21
600.8493130023274
 31
0.0
 11
199.7347887667274
 21
601.1499319931145
 31
0.0
 11
199.8688926545804
 21
601.3697989487382
 31
0.0
 11
200.0288873871399
 21
601.5736858369032
 31
0.0
 11
200.1733655075994
 21
601.7016863280686
 31
0.0
 11
200.3475482541382
 21
601.792022192903
 31
0.0
 11
200.4289536283947
 21
601.8151162160449
 31
0.0
 11
200.5103590026513
 21
601.8228142237917
 31
0.0
  0
SPLINE
  5
190
330
56
100
AcDbEntity
  8
1
  6
Continuous
 62
     7
100
AcDbSpline
210
0.0
220
0.0
230
1.0
 70
    11
 71
     3
 72
    79
 73
    75
 74
    73
 42
0.000000001
 43
0.0000000001
 44
0.00000001
 40
0.0
 40
0.0
 40
0.0
 40
0.0
 40
0.4852093047548749
 40
0.9704101008378763
 40
1.45709996911812
 40
1.943774077711342
 40
2.432720869721031
 40
2.92164693261488
 40
3.413346652299877
 40
3.905023476845327
 40
4.399635054343906
 40
4.894224427926106
 40
5.391555944130103
 40
5.888868482671782
 40
6.388405412097736
 40
6.887928575744469
 40
7.388898334386017
 40
7.889860876623471
 40
8.391324849628392
 40
8.892788822621021
 40
9.393751364821869
 40
9.89472112340197
 40
10.39424428696277
 40
10.89378121627765
 40
11.39109375468386
 40
11.88842527072677
 40
12.38301464412277
 40
12.87762622140811
 40
13.36930304571313
 40
13.86100276512645
 40
14.34992882771304
 40
14.83887561936613
 40
15.3255497275217
 40
15.81223959518022
 40
16.29744038996028
 40
16.78264970365419
 40
17.26734080814851
 40
17.75203191264193
 40
18.23724122633284
 40
18.72244202110776
 40
19.2091318887593
 40
19.69580599690599
 40
20.18475278854859
 40
20.67367885112271
 40
21.16537857052196
 40
21.65705539481142
 40
22.15166697207973
 40
22.64625634545738
 40
23.14358786148063
 40
23.64090039986604
 40
24.14043732915918
 40
24.63996049269727
 40
25.14093025125379
 40
25.64189279343029
 40
26.14335676639787
 40
26.6448207393771
 40
27.14578328158859
 40
27.64675304020343
 40
28.1462762038231
 40
28.6458131332215
 40
29.14312567173511
 40
29.64045718791033
 40
30.13504656146282
 40
30.62965813892998
 40
31.12133496344129
 40
31.61303468308751
 40
32.10196074593349
 40
32.59090753787633
 40
33.07758164635618
 40
33.56427151438629
 40
34.04947230961771
 40
34.5346816239446
 40
35.01937272975258
 40
35.50406382531416
 40
35.50406382531416
 40
35.50406382531416
 40
35.50406382531416
 10
458.9070148279437
 20
238.6830438868541
 30
0.0
 10
458.8882383460982
 20
238.8437990034468
 30
0.0
 10
458.8506857166146
 20
239.1653064182172
 30
0.0
 10
458.7392088667124
 20
239.6390644277125
 30
0.0
 10
458.5888502729635
 20
240.1019522571023
 30
0.0
 10
458.396067378904
 20
240.5504122502112
 30
0.0
 10
458.164209743379
 20
240.9807349283415
 30
0.0
 10
457.8939037707001
 20
241.3900353477693
 30
0.0
 10
457.5882249726388
 20
241.774790039207
 30
0.0
 10
457.2485177217281
 20
242.1324685292244
 30
0.0
 10
456.8783892179744
 20
242.4600172289218
 30
0.0
 10
456.4796493225411
 20
242.7552248099368
 30
0.0
 10
456.0563318102156
 20
243.0156773185746
 30
0.0
 10
455.6107134643215
 20
243.2394889402765
 30
0.0
 10
455.1470491084193
 20
243.4249893174858
 30
0.0
 10
454.6681046543501
 20
243.5706618246101
 30
0.0
 10
454.1781366614288
 20
243.675612911905
 30
0.0
 10
453.6804022967442
 20
243.7387757519506
 30
0.0
 10
453.1789608078427
 20
243.7600007215582
 30
0.0
 10
452.6775193189281
 20
243.7387757523468
 30
0.0
 10
452.179784954256
 20
243.6756129126957
 30
0.0
 10
451.6898169612178
 20
243.5706618258066
 30
0.0
 10
451.2108725074691
 20
243.4249893190503
 30
0.0
 10
450.747208150215
 20
243.2394889423609
 30
0.0
 10
450.3015898091405
 20
243.0156773206224
 30
0.0
 10
449.8782722786241
 20
242.7552248140363
 30
0.0
 10
449.4795324504171
 20
242.4600172273362
 30
0.0
 10
449.1094036961809
 20
242.1324685507557
 30
0.0
 10
448.7696973743621
 20
241.7747899769488
 30
0.0
 10
448.4640151190375
 20
241.3900355993152
 30
0.0
 10
448.193721979061
 20
240.9807340171866
 30
0.0
 10
447.9618165792153
 20
240.5504156689418
 30
0.0
 10
447.7692111544645
 20
240.1019395905358
 30
0.0
 10
447.6181915327991
 20
239.6391116779775
 30
0.0
 10
447.5091745042778
 20
239.1651307069732
 30
0.0
 10
447.4436942269739
 20
238.6838711428888
 30
0.0
 10
447.4215980349517
 20
238.1988498753668
 30
0.0
 10
447.4436942269469
 20
237.7138286078444
 30
0.0
 10
447.5091745042237
 20
237.2325690437594
 30
0.0
 10
447.6181915327181
 20
236.758588072754
 30
0.0
 10
447.7692111543567
 20
236.2957601601944
 30
0.0
 10
447.9618165790804
 20
235.8472840817863
 30
0.0
 10
448.1937219788996
 20
235.4169657335393
 30
0.0
 10
448.4640151188494
 20
235.0076641514078
 30
0.0
 10
448.7696973741475
 20
234.622909773771
 30
0.0
 10
449.1094036959399
 20
234.2652311999605
 30
0.0
 10
449.47953245015
 20
233.9376825233759
 30
0.0
 10
449.8782722783308
 20
233.6424749366714
 30
0.0
 10
450.3015898088213
 20
233.3820224300803
 30
0.0
 10
450.7472081498699
 20
233.1582108083366
 30
0.0
 10
451.2108725070983
 20
232.9727104316416
 30
0.0
 10
451.6898169608214
 20
232.8270379248789
 30
0.0
 10
452.179784953834
 20
232.7220868379829
 30
0.0
 10
452.6775193184812
 20
232.6589239983246
 30
0.0
 10
453.1789608073686
 20
232.6376990291053
 30
0.0
 10
453.680402296251
 20
232.6589239987037
 30
0.0
 10
454.1781366608873
 20
232.722086838742
 30
0.0
 10
454.6681046538712
 20
232.8270379260176
 30
0.0
 10
455.1470491075889
 20
232.9727104331641
 30
0.0
 10
455.6107134646835
 20
233.158210810233
 30
0.0
 10
456.056331806032
 20
233.3820224323934
 30
0.0
 10
456.4796493351621
 20
233.642474939253
 30
0.0
 10
456.8783891681015
 20
233.9376825267854
 30
0.0
 10
457.2485179042616
 20
234.2652312021338
 30
0.0
 10
457.5882242926355
 20
234.6229097823861
 30
0.0
 10
457.8939062997464
 20
235.0076641379397
 30
0.0
 10
458.1642003604284
 20
235.4169658039509
 30
0.0
 10
458.396102332636
 20
235.8472838419547
 30
0.0
 10
458.588720492053
 20
236.2957610751062
 30
0.0
 10
458.7396926793967
 20
236.7585846886997
 30
0.0
 10
458.8488862197744
 20
237.2325816594589
 30
0.0
 10
458.9137083877442
 20
237.7137815730618
 30
0.0
 10
458.9382582131588
 20
238.1990252373013
 30
0.0
 10
458.9174292879482
 20
238.5217043380406
 30
0.0
 10
458.9070148279437
 20
238.6830438868541
 30
0.0
 11
458.9070148279437
 21
238.6830438868541
 31
0.0
 11
458.8415128365613
 21
239.1638115723593
 31
0.0
 11
458.7328841732018
 21
239.6366959397836
 31
0.0
 11
458.5818529090722
 21
240.0993584352767
 31
0.0
 11
458.3899386441292
 21
240.5465950646506
 31
0.0
 11
458.1579425353636
 21
240.9769980976023
 31
0.0
 11
457.8886403394841
 21
241.385072872799
 31
0.0
 11
457.582756113005
 21
241.7700448902717
 31
0.0
 11
457.244267017629
 21
242.1266556473104
 31
0.0
 11
456.8738587734026
 21
242.454433537278
 31
0.0
 11
456.4764348707533
 21
242.7488361358176
 31
0.0
 11
456.052849022693
 21
243.0094386421582
 31
0.0
 11
455.6084931584638
 21
243.232749248509
 31
0.0
 11
455.1446892191793
 21
243.418283746032
 31
0.0
 11
454.6668110632728
 21
243.5637342845223
 31
0.0
 11
454.1769458353531
 21
243.668628314771
 31
0.0
 11
453.679978402855
 21
243.7317697417998
 31
0.0
 11
453.1789607983293
 21
243.7529233759018
 31
0.0
 11
452.6779431938035
 21
243.7317697417998
 31
0.0
 11
452.1809757613053
 21
243.668628314771
 31
0.0
 11
451.6911105333857
 21
243.5637342845225
 31
0.0
 11
451.2132323774792
 21
243.4182837460323
 31
0.0
 11
450.7494284381949
 21
243.2327492485092
 31
0.0
 11
450.3050725739659
 21
243.0094386421582
 31
0.0
 11
449.8814867259055
 21
242.7488361358176
 31
0.0
 11
449.4840628232562
 21
242.454433537278
 31
0.0
 11
449.1136545790299
 21
242.1266556473104
 31
0.0
 11
448.7751654836539
 21
241.7700448902717
 31
0.0
 11
448.4692812571747
 21
241.385072872799
 31
0.0
 11
448.199979061295
 21
240.9769980976023
 31
0.0
 11
447.9679829525295
 21
240.5465950646506
 31
0.0
 11
447.7760686875864
 21
240.0993584352767
 31
0.0
 11
447.6250374234567
 21
239.6366959397836
 31
0.0
 11
447.5164087600971
 21
239.1638115723593
 31
0.0
 11
447.4509067687148
 21
238.6830438868541
 31
0.0
 11
447.4289607983293
 21
238.1988498747398
 31
0.0
 11
447.450906768715
 21
237.7146558626254
 31
0.0
 11
447.5164087600973
 21
237.2338881771201
 31
0.0
 11
447.6250374234568
 21
236.761003809696
 31
0.0
 11
447.7760686875865
 21
236.298341314203
 31
0.0
 11
447.9679829525296
 21
235.8511046848291
 31
0.0
 11
448.1999790612952
 21
235.4207016518772
 31
0.0
 11
448.4692812571748
 21
235.0126268766807
 31
0.0
 11
448.775165483654
 21
234.627654859208
 31
0.0
 11
449.11365457903
 21
234.2710441021693
 31
0.0
 11
449.4840628232563
 21
233.9432662122016
 31
0.0
 11
449.8814867259056
 21
233.6488636136621
 31
0.0
 11
450.3050725739659
 21
233.3882611073213
 31
0.0
 11
450.7494284381949
 21
233.1649505009704
 31
0.0
 11
451.2132323774792
 21
232.9794160034473
 31
0.0
 11
451.6911105333857
 21
232.8339654649571
 31
0.0
 11
452.1809757613053
 21
232.7290714347084
 31
0.0
 11
452.6779431938036
 21
232.6659300076796
 31
0.0
 11
453.1789607983293
 21
232.6447763735777
 31
0.0
 11
453.6799784028549
 21
232.6659300076796
 31
0.0
 11
454.1769458353532
 21
232.7290714347084
 31
0.0
 11
454.6668110632728
 21
232.8339654649571
 31
0.0
 11
455.1446892191793
 21
232.9794160034474
 31
0.0
 11
455.6084931584638
 21
233.1649505009704
 31
0.0
 11
456.0528490226929
 21
233.3882611073213
 31
0.0
 11
456.4764348707533
 21
233.6488636136621
 31
0.0
 11
456.8738587734026
 21
233.9432662122016
 31
0.0
 11
457.2442670176288
 21
234.2710441021693
 31
0.0
 11
457.5827561130046
 21
234.627654859208
 31
0.0
 11
457.8886403394838
 21
235.0126268766806
 31
0.0
 11
458.1579425353634
 21
235.4207016518772
 31
0.0
 11
458.3899386441291
 21
235.851104684829
 31
0.0
 11
458.5818529090722
 21
236.298341314203
 31
0.0
 11
458.7328841732017
 21
236.761003809696
 31
0.0
 11
458.841512836561
 21
237.2338881771201
 31
0.0
 11
458.9070148279436
 21
237.7146558626254
 31
0.0
 11
458.9289607983293
 21
238.1988498747398
 31
0.0
 11
458.9070148279437
 21
238.6830438868541
 31
0.0
  0
SPLINE
  5
191
330
56
100
AcDbEntity
  8
1
  6
Continuous
 62
     7
100
AcDbSpline
210
0.0
220
0.0
230
1.0
 70
    11
 71
     3
 72
    79
 73
    75
 74
    73
 42
0.000000001
 43
0.0000000001
 44
0.00000001
 40
0.0
 40
0.0
 40
0.0
 40
0.0
 40
0.1612965085507887
 40
0.3199775363476276
 40
0.5329523053841009
 40
0.7445873640238632
 40
1.019263683427787
 40
1.293736394367759
 40
1.630259834010919
 40
1.966610827927981
 40
2.35835538952047
 40
2.750041275498598
 40
3.187470142027351
 40
3.624863494181294
 40
4.096278593703055
 40
4.567676572397419
 40
5.060016900277365
 40
5.552349679922354
 40
6.051750453550281
 40
6.551151227196255
 40
7.043484006893886
 40
7.535824334860428
 40
8.007222313668914
 40
8.478637413332946
 40
8.916030765641844
 40
9.353459632342837
 40
9.74514551848449
 40
10.13689008023886
 40
10.47324107428306
 40
10.80976451401914
 40
11.08423722498749
 40
11.35891354432391
 40
11.57054860278998
 40
11.78352337129812
 40
11.94220439766794
 40
12.10350090872741
 40
12.23976066413584
 40
12.37602041954441
 40
12.53731693060454
 40
12.69599795697504
 40
12.9089727254841
 40
13.1206077839508
 40
13.39528410328792
 40
13.66975681425652
 40
14.00628025399235
 40
14.34263124803578
 40
14.73437580978883
 40
15.12606169592842
 40
15.56349056262714
 40
16.00088391493443
 40
16.47229901459786
 40
16.94369699340781
 40
17.43603732137987
 40
17.92837010108913
 40
18.42777087475534
 40
18.92717164841428
 40
19.41950442810315
 40
19.91184475604238
 40
20.38324273481129
 40
20.85465783442685
 40
21.29205118668709
 40
21.72948005334195
 40
22.12116593945037
 40
22.51291050118928
 40
22.84926149524565
 40
23.18578493503706
 40
23.46025764610525
 40
23.73493396563363
 40
23.94656902436083
 40
24.15954379334234
 40
24.31822482029609
 40
24.47952133218867
 40
24.61578108869852
 40
24.7520408435495
 40
24.7520408435495
 40
24.7520408435495
 40
24.7520408435495
 10
203.5886942582895
 20
600.5475262766888
 30
0.0
 10
203.539319011141
 20
600.525351552306
 30
0.0
 10
203.4413691479559
 20
600.4813616868305
 30
0.0
 10
203.31036542606
 20
600.3578545752496
 30
0.0
 10
203.1921588827077
 20
600.203283620767
 30
0.0
 10
203.0711576928641
 20
600.0035160114886
 30
0.0
 10
202.9616916767713
 20
599.7744165204398
 30
0.0
 10
202.8522384087422
 20
599.5000646583485
 30
0.0
 10
202.7536291576295
 20
599.1998787315836
 30
0.0
 10
202.6582454041501
 20
598.857971720775
 30
0.0
 10
202.5735435861235
 20
598.4943356196284
 30
0.0
 10
202.4949688652353
 20
598.0949732884176
 30
0.0
 10
202.4271927645599
 20
597.6782055684605
 30
0.0
 10
202.3677012841921
 20
597.2333679780719
 30
0.0
 10
202.3192173485457
 20
596.7758054781748
 30
0.0
 10
202.2805305057495
 20
596.2989427081675
 30
0.0
 10
202.2530397108993
 20
595.8143186664624
 30
0.0
 10
202.236241398208
 20
595.3198707828656
 30
0.0
 10
202.2307466324559
 20
594.8228142336709
 30
0.0
 10
202.236241398771
 20
594.3257576844221
 30
0.0
 10
202.253039712081
 20
593.8313098009194
 30
0.0
 10
202.2805305072875
 20
593.3466857587018
 30
0.0
 10
202.319217351303
 20
592.8698229902644
 30
0.0
 10
202.3677012849522
 20
592.4122604843578
 30
0.0
 10
202.4271927744334
 20
591.9674229144598
 30
0.0
 10
202.4949688448437
 20
591.5506551214374
 30
0.0
 10
202.5735436691844
 20
591.1512930353874
 30
0.0
 10
202.6582451296365
 20
590.7876560828026
 30
0.0
 10
202.753630040425
 20
590.445751824619
 30
0.0
 10
202.8522353732842
 20
590.1455565759993
 30
0.0
 10
202.9617007309353
 20
589.8712334749097
 30
0.0
 10
203.0711269615561
 20
589.6420393347603
 30
0.0
 10
203.1922449807467
 20
589.44254966231
 30
0.0
 10
203.3100741407137
 20
589.2870809176352
 30
0.0
 10
203.4421584751953
 20
589.1661445751153
 30
0.0
 10
203.5781989688856
 20
589.0948088548954
 30
0.0
 10
203.7225869044249
 20
589.0627422506756
 30
0.0
 10
203.8669748399644
 20
589.0948088548954
 30
0.0
 10
204.0030153336554
 20
589.1661445751151
 30
0.0
 10
204.1350996681381
 20
589.287080917635
 30
0.0
 10
204.2529288281063
 20
589.4425496623095
 30
0.0
 10
204.3740468472986
 20
589.6420393347599
 30
0.0
 10
204.4834730779206
 20
589.8712334749093
 30
0.0
 10
204.5929384355725
 20
590.1455565759987
 30
0.0
 10
204.6915437684311
 20
590.4457518246186
 30
0.0
 10
204.7869286792167
 20
590.7876560828022
 30
0.0
 10
204.8716301396624
 20
591.151293035387
 30
0.0
 10
204.9502049639919
 20
591.5506551214377
 30
0.0
 10
205.017981034384
 20
591.9674229144607
 30
0.0
 10
205.0774725238383
 20
592.4122604843609
 30
0.0
 10
205.1259564574498
 20
592.8698229902717
 30
0.0
 10
205.1646433014145
 20
593.3466857587154
 30
0.0
 10
205.1921340965554
 20
593.8313098009424
 30
0.0
 10
205.2089324097836
 20
594.3257576844625
 30
0.0
 10
205.214427175994
 20
594.8228142337256
 30
0.0
 10
205.2089324101375
 20
595.3198707829821
 30
0.0
 10
205.1921340972514
 20
595.8143186665025
 30
0.0
 10
205.1646433024508
 20
596.2989427086867
 30
0.0
 10
205.125956458746
 20
596.7758054772225
 30
0.0
 10
205.0774725255682
 20
597.2333679827266
 30
0.0
 10
205.017981035779
 20
597.6782055539659
 30
0.0
 10
204.9502049675877
 20
598.0949733421792
 30
0.0
 10
204.8716301366104
 20
598.4943354443573
 30
0.0
 10
204.786928699769
 20
598.8579723409518
 30
0.0
 10
204.6915437128769
 20
599.1998767802058
 30
0.0
 10
204.5929386376512
 20
599.5000714157397
 30
0.0
 10
204.4834724846546
 20
599.7743964085603
 30
0.0
 10
204.3740488704995
 20
600.0035843234734
 30
0.0
 10
204.252923166706
 20
600.2030922765613
 30
0.0
 10
204.1351188273791
 20
600.358501971493
 30
0.0
 10
204.0029634176884
 20
600.4796073995738
 30
0.0
 10
203.8671610512488
 20
600.5503766132913
 30
0.0
 10
203.7220107847774
 20
600.5842567990659
 30
0.0
 10
203.6331331011785
 20
600.5597697793897
 30
0.0
 10
203.5886942582895
 20
600.5475262766888
 30
0.0
 11
203.5886942582895
 21
600.5475262766888
 31
0.0
 11
203.4454719402512
 21
600.4733377862502
 31
0.0
 11
203.3266348608067
 21
600.3681835343675
 31
0.0
 11
203.1950514158457
 21
600.2007199590979
 31
0.0
 11
203.0847507385411
 21
600.0201011379265
 31
0.0
 11
202.9644518888313
 21
599.7731694324647
 31
0.0
 11
202.862310146309
 21
599.5184100685603
 31
0.0
 11
202.7560508948218
 21
599.1991030110812
 31
0.0
 11
202.6653763620043
 21
598.8752046932686
 31
0.0
 11
202.5757489930979
 21
598.4938508727929
 31
0.0
 11
202.4999198241329
 21
598.1095752288581
 31
0.0
 11
202.4292300721008
 21
597.677895981773
 31
0.0
 11
202.3711125676313
 21
597.2443809297797
 31
0.0
 11
202.3211428553245
 21
596.7756216909021
 31
0.0
 11
202.2829572926289
 21
596.3057728671047
 31
0.0
 11
202.2549008932842
 21
595.8142325971312
 31
0.0
 11
202.2381872679286
 21
595.3221835947821
 31
0.0
 11
202.2325869044362
 21
594.8228142237917
 31
0.0
 11
202.2381872679287
 21
594.3234448528012
 31
0.0
 11
202.2549008932843
 21
593.8313958504522
 31
0.0
 11
202.2829572926289
 21
593.3398555804786
 31
0.0
 11
202.3211428553245
 21
592.8700067566812
 31
0.0
 11
202.3711125676313
 21
592.4012475178035
 31
0.0
 11
202.4292300721008
 21
591.9677324658104
 31
0.0
 11
202.4999198241329
 21
591.5360532187253
 31
0.0
 11
202.5757489930979
 21
591.1517775747906
 31
0.0
 11
202.6653763620043
 21
590.7704237543148
 31
0.0
 11
202.7560508948218
 21
590.446525436502
 31
0.0
 11
202.862310146309
 21
590.1272183790229
 31
0.0
 11
202.9644518888313
 21
589.8724590151186
 31
0.0
 11
203.0847507385411
 21
589.6255273096566
 31
0.0
 11
203.1950514158457
 21
589.444908488485
 31
0.0
 11
203.3266348608068
 21
589.2774449132155
 31
0.0
 11
203.4454719402513
 21
589.1722906613328
 31
0.0
 11
203.5886942582896
 21
589.0981021708942
 31
0.0
 11
203.7225869044364
 21
589.0728142237915
 31
0.0
 11
203.8564795505832
 21
589.0981021708943
 31
0.0
 11
203.9997018686215
 21
589.1722906613329
 31
0.0
 11
204.118538948066
 21
589.2774449132156
 31
0.0
 11
204.2501223930271
 21
589.4449084884851
 31
0.0
 11
204.3604230703316
 21
589.6255273096567
 31
0.0
 11
204.4807219200414
 21
589.8724590151187
 31
0.0
 11
204.5828636625636
 21
590.127218379023
 31
0.0
 11
204.6891229140508
 21
590.446525436502
 31
0.0
 11
204.7797974468684
 21
590.7704237543148
 31
0.0
 11
204.8694248157748
 21
591.1517775747906
 31
0.0
 11
204.9452539847399
 21
591.5360532187251
 31
0.0
 11
205.015943736772
 21
591.9677324658102
 31
0.0
 11
205.0740612412414
 21
592.4012475178035
 31
0.0
 11
205.1240309535481
 21
592.8700067566813
 31
0.0
 11
205.1622165162437
 21
593.3398555804786
 31
0.0
 11
205.1902729155884
 21
593.8313958504519
 31
0.0
 11
205.2069865409439
 21
594.323444852801
 31
0.0
 11
205.2125869044364
 21
594.8228142237917
 31
0.0
 11
205.206986540944
 21
595.3221835947822
 31
0.0
 11
205.1902729155884
 21
595.8142325971314
 31
0.0
 11
205.1622165162437
 21
596.3057728671047
 31
0.0
 11
205.1240309535481
 21
596.775621690902
 31
0.0
 11
205.0740612412413
 21
597.2443809297796
 31
0.0
 11
205.0159437367719
 21
597.6778959817728
 31
0.0
 11
204.9452539847398
 21
598.1095752288584
 31
0.0
 11
204.8694248157748
 21
598.493850872793
 31
0.0
 11
204.7797974468684
 21
598.8752046932688
 31
0.0
 11
204.6891229140509
 21
599.1991030110813
 31
0.0
 11
204.5828636625637
 21
599.5184100685603
 31
0.0
 11
204.4807219200415
 21
599.7731694324647
 31
0.0
 11
204.3604230703317
 21
600.0201011379265
 31
0.0
 11
204.2501223930271
 21
600.2007199590983
 31
0.0
 11
204.118538948066
 21
600.3681835343679
 31
0.0
 11
203.9997018686215
 21
600.4733377862506
 31
0.0
 11
203.8564795505832
 21
600.547526276689
 31
0.0
 11
203.7225869044364
 21
600.5728142237916
 31
0.0
 11
203.5886942582895
 21
600.5475262766888
 31
0.0
  0
ENDBLK
  5
58
330
56
100
AcDbEntity
  8
0
100
AcDbBlockEnd
  0
BLOCK
  5
5E
330
59
100
AcDbEntity
  8
0
100
AcDbBlockBegin
  2
R10A-13-B
 70
     0
 10
168.5646843550841
 20
204.3430992115708
 30
0.0
  3
R10A-13-B
  1

  0
INSERT
  5
5A
330
59
100
AcDbEntity
  8
1
100
AcDbBlockReference
  2
36-1A-13
 10
57.40867393645862
 20
270.7883196098778
 30
0.0
 41
1.0
 42
1.0
 43
1.0
  0
INSERT
  5
5B
330
59
100
AcDbEntity
  8
1
100
AcDbBlockReference
  2
37-1-13
 10
260.5831498469215
 20
35.82698608965193
 30
0.0
 41
1.0
 42
1.0
 43
1.0
  0
INSERT
  5
5C
330
59
100
AcDbEntity
  8
0
100
AcDbBlockReference
  2
21-1C
 10
200.7375815274004
 20
266.5686577929906
 30
0.0
 41
1.0
 42
1.0
 43
1.0
  0
INSERT
  5
5D
330
59
100
AcDbEntity
  8
1
100
AcDbBlockReference
  2
42-1
 10
245.7414160782706
 20
117.8433774008402
 30
0.0
 41
1.0
 42
1.0
 43
1.0
  0
ENDBLK
  5
5F
330
59
100
AcDbEntity
  8
0
100
AcDbBlockEnd
  0
BLOCK
  5
61
330
60
100
AcDbEntity
  8
0
100
AcDbBlockBegin
  2
61-1-16-170-M2K
 70
     0
 10
533.7928124846576
 20
345.187818862818
 30
0.0
  3
61-1-16-170-M2K
  1

  0
LINE
  5
192
330
60
100
AcDbEntity
  8
1
  6
Continuous
 62
     7
100
AcDbLine
 10
275.1771613939188
 20
262.0843575197762
 30
0.0
 11
291.1771613939188
 21
262.0843575197761
 31
0.0
  0
LINE
  5
193
330
60
100
AcDbEntity
  8
1
  6
Continuous
 62
     7
100
AcDbLine
 10
152.8389939104225
 20
257.084357519776
 30
0.0
 11
138.0661798984501
 21
257.084357519776
 31
0.0
  0
LINE
  5
194
330
60
100
AcDbEntity
  8
1
  6
Continuous
 62
     7
100
AcDbLine
 10
153.4525869044361
 20
262.084357519776
 30
0.0
 11
153.4525869044361
 21
290.0843575197758
 31
0.0
  0
LINE
  5
195
330
60
100
AcDbEntity
  8
1
  6
Continuous
 62
     7
100
AcDbLine
 10
137.4525869044361
 20
262.084357519776
 30
0.0
 11
137.4525869044361
 21
290.0843575197758
 31
0.0
  0
LINE
  5
196
330
60
100
AcDbEntity
  8
1
  6
Continuous
 62
     7
100
AcDbLine
 10
137.4525869044361
 20
262.084357519776
 30
0.0
 11
153.4525869044361
 21
262.084357519776
 31
0.0
  0
LINE
  5
197
330
60
100
AcDbEntity
  8
1
  6
Continuous
 62
     7
100
AcDbLine
 10
137.4525869044363
 20
424.8210148193808
 30
0.0
 11
137.4525869044363
 21
594.8228142237917
 31
0.0
  0
LINE
  5
198
330
60
100
AcDbEntity
  8
1
  6
Continuous
 62
     7
100
AcDbLine
 10
153.4525869044363
 20
424.8210148193808
 30
0.0
 11
153.4525869044363
 21
594.8228142237917
 31
0.0
  0
LINE
  5
199
330
60
100
AcDbEntity
  8
1
  6
PHANTOM
 62
     4
100
AcDbLine
 10
133.5020116564939
 20
424.8210148193808
 30
0.0
 11
156.4443690128969
 21
424.8210148193808
 31
0.0
  0
LINE
  5
19A
330
60
100
AcDbEntity
  8
1
  6
Continuous
 62
     7
100
AcDbLine
 10
445.1789607983293
 20
258.7463575197762
 30
0.0
 11
445.1789607983293
 21
265.0843575197762
 31
0.0
  0
LINE
  5
19B
330
60
100
AcDbEntity
  8
1
  6
Continuous
 62
     7
100
AcDbLine
 10
461.1789607983293
 20
265.0843575197762
 30
0.0
 11
461.1789607983293
 21
258.7463575197762
 31
0.0
  0
LINE
  5
19C
330
60
100
AcDbEntity
  8
1
  6
PHANTOM
 62
     4
100
AcDbLine
 10
453.1789607983293
 20
238.0843575197762
 30
0.0
 11
453.1789607983293
 21
265.0843575197762
 31
0.0
  0
LINE
  5
19D
330
60
100
AcDbEntity
  8
1
  6
Continuous
 62
     7
100
AcDbLine
 10
283.1771613939188
 20
257.0843575197761
 30
0.0
 11
275.7907543879328
 21
257.0843575197761
 31
0.0
  0
LINE
  5
19E
330
60
100
AcDbEntity
  8
1
  6
Continuous
 62
     7
100
AcDbLine
 10
388.2971613939189
 20
298.0843575197761
 30
0.0
 11
428.1789607983295
 21
298.0843575197761
 31
0.0
  0
LINE
  5
19F
330
60
100
AcDbEntity
  8
1
  6
Continuous
 62
     7
100
AcDbLine
 10
388.2971613939189
 20
298.0843575197761
 30
0.0
 11
308.1771613939187
 21
298.0843575197761
 31
0.0
  0
LINE
  5
1A0
330
60
100
AcDbEntity
  8
1
  6
Continuous
 62
     7
100
AcDbLine
 10
392.0405264198352
 20
282.0843575197761
 30
0.0
 11
308.1771613939188
 21
282.0843575197761
 31
0.0
  0
LINE
  5
1A1
330
60
100
AcDbEntity
  8
1
  6
Continuous
 62
     7
100
AcDbLine
 10
290.563568399905
 20
257.0843575197761
 30
0.0
 11
283.1771613939188
 21
257.0843575197761
 31
0.0
  0
LINE
  5
1A2
330
60
100
AcDbEntity
  8
1
  6
Continuous
 62
     7
100
AcDbLine
 10
291.1771613939188
 20
262.0843575197761
 30
0.0
 11
291.1771613939188
 21
265.0843575197762
 31
0.0
  0
LINE
  5
1A3
330
60
100
AcDbEntity
  8
1
  6
Continuous
 62
     7
100
AcDbLine
 10
275.1771613939188
 20
262.0843575197762
 30
0.0
 11
275.1771613939188
 21
265.0843575197761
 31
0.0
  0
LINE
  5
1A4
330
60
100
AcDbEntity
  8
1
  6
Continuous
 62
     7
100
AcDbLine
 10
428.1789607983295
 20
282.0843575197761
 30
0.0
 11
392.0405264198352
 21
282.0843575197761
 31
0.0
  0
LINE
  5
1A5
330
60
100
AcDbEntity
  8
1
  6
DASH_CENTER
 62
     4
100
AcDbLine
 10
283.1771613939188
 20
254.0843575197761
 30
0.0
 11
283.1771613939188
 21
265.0843575197762
 31
0.0
  0
LINE
  5
1A6
330
60
100
AcDbEntity
  8
1
  6
PHANTOM
 62
     4
100
AcDbLine
 10
428.1789607983295
 20
290.0843575197761
 30
0.0
 11
308.1771613939188
 21
290.0843575197761
 31
0.0
  0
ARC
  5
1A7
330
60
100
AcDbEntity
  8
1
  6
Continuous
 62
     7
100
AcDbCircle
 10
150.2425606097181
 20
259.9406378125535
 30
0.0
 40
3.860026294718097
100
AcDbArc
 50
0.0
 51
33.73579100003253
  0
ARC
  5
1A8
330
60
100
AcDbEntity
  8
1
  6
Continuous
 62
     7
100
AcDbCircle
 10
140.6626131991544
 20
259.9406378125535
 30
0.0
 40
3.86002629471821
100
AcDbArc
 50
180.0
 51
227.7283445035799
  0
ARC
  5
1A9
330
60
100
AcDbEntity
  8
1
  6
Continuous
 62
     7
100
AcDbCircle
 10
140.6626131991544
 20
259.9406378125535
 30
0.0
 40
3.860026294718351
100
AcDbArc
 50
146.2642089999703
 51
180.0
  0
ARC
  5
1AA
330
60
100
AcDbEntity
  8
1
  6
Continuous
 62
     7
100
AcDbCircle
 10
150.2425606097181
 20
259.9406378125535
 30
0.0
 40
3.860026294718187
100
AcDbArc
 50
312.2716554964207
 51
0.0
  0
ARC
  5
1AB
330
60
100
AcDbEntity
  8
1
  6
Continuous
 62
     7
100
AcDbCircle
 10
145.4525869044361
 20
290.0843575197758
 30
0.0
 40
8.0
100
AcDbArc
 50
0.0
 51
180.0
  0
ARC
  5
1AC
330
60
100
AcDbEntity
  8
1
  6
Continuous
 62
     7
100
AcDbCircle
 10
145.4525869044363
 20
594.8228142237917
 30
0.0
 40
8.0
100
AcDbArc
 50
0.0
 51
180.0
  0
ARC
  5
1AD
330
60
100
AcDbEntity
  8
1
  6
Continuous
 62
     7
100
AcDbCircle
 10
145.4525869044363
 20
424.8210148193808
 30
0.0
 40
8.0
100
AcDbArc
 50
180.0
 51
0.0
  0
ARC
  5
1AE
330
60
100
AcDbEntity
  8
1
  6
Continuous
 62
     7
100
AcDbCircle
 10
145.4525869044363
 20
424.8210148193808
 30
0.0
 40
8.64999999999992
100
AcDbArc
 50
157.6465744006701
 51
22.35342559932993
  0
ARC
  5
1AF
330
60
100
AcDbEntity
  8
1
  6
Continuous
 62
     7
100
AcDbCircle
 10
287.9671350992005
 20
259.9406378125538
 30
0.0
 40
3.860026294718182
100
AcDbArc
 50
0.0
 51
33.73579100002762
  0
ARC
  5
1B0
330
60
100
AcDbEntity
  8
1
  6
Continuous
 62
     7
100
AcDbCircle
 10
278.3871876886371
 20
259.9406378125538
 30
0.0
 40
3.860026294718409
100
AcDbArc
 50
180.0
 51
227.7283445035819
  0
ARC
  5
1B1
330
60
100
AcDbEntity
  8
1
  6
Continuous
 62
     7
100
AcDbCircle
 10
278.3871876886371
 20
259.9406378125538
 30
0.0
 40
3.860026294718241
100
AcDbArc
 50
146.2642089999712
 51
180.0
  0
ARC
  5
1B2
330
60
100
AcDbEntity
  8
1
  6
Continuous
 62
     7
100
AcDbCircle
 10
287.9671350992005
 20
259.9406378125538
 30
0.0
 40
3.860026294718408
100
AcDbArc
 50
312.2716554964206
 51
0.0
  0
ARC
  5
1B3
330
60
100
AcDbEntity
  8
1
  6
DASH_CENTER
 62
     4
100
AcDbCircle
 10
428.1789607983295
 20
265.0843575197762
 30
0.0
 40
24.99999999999977
100
AcDbArc
 50
0.0
 51
90.0
  0
ARC
  5
1B4
330
60
100
AcDbEntity
  8
1
  6
Continuous
 62
     7
100
AcDbCircle
 10
428.1789607983295
 20
265.0843575197762
 30
0.0
 40
16.99999999999977
100
AcDbArc
 50
0.0
 51
90.0
  0
ARC
  5
1B5
330
60
100
AcDbEntity
  8
1
  6
Continuous
 62
     7
100
AcDbCircle
 10
428.1789607983295
 20
265.0843575197762
 30
0.0
 40
32.99999999999977
100
AcDbArc
 50
0.0
 51
90.0
  0
ARC
  5
1B6
330
60
100
AcDbEntity
  8
1
  6
PHANTOM
 62
     4
100
AcDbCircle
 10
308.1771613939188
 20
265.0843575197762
 30
0.0
 40
24.99999999999994
100
AcDbArc
 50
90.0
 51
180.0
  0
ARC
  5
1B7
330
60
100
AcDbEntity
  8
1
  6
Continuous
 62
     7
100
AcDbCircle
 10
308.1771613939188
 20
265.0843575197762
 30
0.0
 40
32.99999999999994
100
AcDbArc
 50
90.0000000000002
 51
180.0000000000001
  0
ARC
  5
1B8
330
60
100
AcDbEntity
  8
1
  6
Continuous
 62
     7
100
AcDbCircle
 10
308.1771613939188
 20
265.0843575197762
 30
0.0
 40
16.99999999999994
100
AcDbArc
 50
90.0
 51
180.0
  0
ENDBLK
  5
62
330
60
100
AcDbEntity
  8
0
100
AcDbBlockEnd
  0
BLOCK
  5
64
330
63
100
AcDbEntity
  8
0
100
AcDbBlockBegin
  2
32-1-16
 70
     0
 10
44.23986501094463
 20
481.1338415503764
 30
0.0
  3
32-1-16
  1

  0
LINE
  5
1B9
330
63
100
AcDbEntity
  8
1
  6
Continuous
 62
     7
100
AcDbLine
 10
439.1789607983293
 20
251.1654219817545
 30
0.0
 11
439.1789607983293
 21
256.4595347694893
 31
0.0
  0
LINE
  5
1BA
330
63
100
AcDbEntity
  8
1
  6
Continuous
 62
     7
100
AcDbLine
 10
153.9090016813967
 20
258.7463575197762
 30
0.0
 11
155.2205360968673
 21
258.7463575197762
 31
0.0
  0
LINE
  5
1BB
330
63
100
AcDbEntity
  8
1
  6
Continuous
 62
     7
100
AcDbLine
 10
156.9525869044361
 20
257.7463575197761
 30
0.0
 11
157.0106079661667
 21
257.7463575197761
 31
0.0
  0
LINE
  5
1BC
330
63
100
AcDbEntity
  8
1
  6
Continuous
 62
     7
100
AcDbLine
 10
136.6542649253664
 20
257.7463575197761
 30
0.0
 11
137.4869342177956
 21
257.7463575197761
 31
0.0
  0
LINE
  5
1BD
330
63
100
AcDbEntity
  8
1
  6
Continuous
 62
     7
100
AcDbLine
 10
135.6846377120049
 20
258.7463575197762
 30
0.0
 11
136.9919868795464
 21
258.7463575197762
 31
0.0
  0
LINE
  5
1BE
330
63
100
AcDbEntity
  8
1
  6
Continuous
 62
     7
100
AcDbLine
 10
133.8945658427055
 20
257.7463575197761
 30
0.0
 11
133.9525869044361
 21
257.7463575197761
 31
0.0
  0
LINE
  5
1BF
330
63
100
AcDbEntity
  8
1
  6
Continuous
 62
     7
100
AcDbLine
 10
158.6395869044362
 20
248.7463575197761
 30
0.0
 11
132.1525869044362
 21
248.7463575197761
 31
0.0
  0
LINE
  5
1C0
330
63
100
AcDbEntity
  8
1
  6
Continuous
 62
     7
100
AcDbLine
 10
158.7525869044362
 20
248.7463575197761
 30
0.0
 11
158.6395869044362
 21
248.7463575197761
 31
0.0
  0
LINE
  5
1C1
330
63
100
AcDbEntity
  8
1
  6
Continuous
 62
     7
100
AcDbLine
 10
160.9029762313309
 20
596.0619549128903
 30
0.0
 11
154.250908883506
 21
607.5836735346932
 31
0.0
  0
LINE
  5
1C2
330
63
100
AcDbEntity
  8
1
  6
Continuous
 62
     7
100
AcDbLine
 10
152.104654252261
 20
608.8228142237917
 30
0.0
 11
138.8005195566113
 21
608.8228142237917
 31
0.0
  0
LINE
  5
1C3
330
63
100
AcDbEntity
  8
1
  6
Continuous
 62
     7
100
AcDbLine
 10
130.0021975775414
 20
596.0619549128903
 30
0.0
 11
136.6542649253666
 21
607.5836735346932
 31
0.0
  0
LINE
  5
1C4
330
63
100
AcDbEntity
  8
1
  6
Continuous
 62
     7
100
AcDbLine
 10
136.6542649253664
 20
582.0619549128903
 30
0.0
 11
130.0021975775416
 21
593.5836735346932
 31
0.0
  0
LINE
  5
1C5
330
63
100
AcDbEntity
  8
1
  6
Continuous
 62
     7
100
AcDbLine
 10
160.9029762313309
 20
593.5836735346932
 30
0.0
 11
154.2509088835058
 21
582.0619549128903
 31
0.0
  0
LINE
  5
1C6
330
63
100
AcDbEntity
  8
1
  6
Continuous
 62
     7
100
AcDbLine
 10
456.3872553302894
 20
258.7463575197762
 30
0.0
 11
443.4110116058984
 21
258.7463575197762
 31
0.0
  0
LINE
  5
1C7
330
63
100
AcDbEntity
  8
1
  6
Continuous
 62
     7
100
AcDbLine
 10
467.1789607983293
 20
256.4595347694892
 30
0.0
 11
467.1789607983293
 21
251.1654219817538
 31
0.0
  0
LINE
  5
1C8
330
63
100
AcDbEntity
  8
1
  6
Continuous
 62
     7
100
AcDbLine
 10
462.9469099907605
 20
258.7463575197762
 30
0.0
 11
456.3872553302894
 21
258.7463575197762
 31
0.0
  0
LINE
  5
1C9
330
63
100
AcDbEntity
  8
1
  6
Continuous
 62
     7
100
AcDbLine
 10
441.6209397365986
 20
257.7463575197762
 30
0.0
 11
441.6789607983293
 21
257.7463575197762
 31
0.0
  0
LINE
  5
1CA
330
63
100
AcDbEntity
  8
1
  6
Continuous
 62
     7
100
AcDbLine
 10
464.6789607983293
 20
257.7463575197762
 30
0.0
 11
464.7369818600599
 21
257.7463575197762
 31
0.0
  0
LINE
  5
1CB
330
63
100
AcDbEntity
  8
1
  6
Continuous
 62
     7
100
AcDbLine
 10
153.4182395910769
 20
257.7463575197761
 30
0.0
 11
154.250908883506
 21
257.7463575197761
 31
0.0
  0
ARC
  5
1CC
330
63
100
AcDbEntity
  8
1
  6
Continuous
 62
     7
100
AcDbCircle
 10
155.9525869044361
 20
252.8888205552177
 30
0.0
 40
5.00000000000008
100
AcDbArc
 50
304.055797742569
 51
74.66244233044372
  0
ARC
  5
1CD
330
63
100
AcDbEntity
  8
1
  6
Continuous
 62
     7
100
AcDbCircle
 10
150.2194154842824
 20
252.8889897975447
 30
0.0
 40
1.885238775575704
100
AcDbArc
 50
356.1620820103348
 51
359.9948564228627
  0
ARC
  5
1CE
330
63
100
AcDbEntity
  8
1
  6
Continuous
 62
     7
100
AcDbCircle
 10
150.1455985041025
 20
252.8939417852542
 30
0.0
 40
1.959221670525329
100
AcDbArc
 50
350.6273989135987
 51
356.1620820103289
  0
ARC
  5
1CF
330
63
100
AcDbEntity
  8
1
  6
Continuous
 62
     7
100
AcDbCircle
 10
150.061365066689
 20
252.907845159182
 30
0.0
 40
2.044594826640429
100
AcDbArc
 50
345.3219284287146
 51
350.627398913604
  0
ARC
  5
1D0
330
63
100
AcDbEntity
  8
1
  6
Continuous
 62
     7
100
AcDbCircle
 10
150.0186589588831
 20
252.9190314290442
 30
0.0
 40
2.088741675648965
100
AcDbArc
 50
340.0120569265425
 51
345.3219284287147
  0
ARC
  5
1D1
330
63
100
AcDbEntity
  8
1
  6
Continuous
 62
     7
100
AcDbCircle
 10
149.8843661829702
 20
252.9678780012864
 30
0.0
 40
2.231642121002248
100
AcDbArc
 50
336.5516000346952
 51
340.0120569265433
  0
ARC
  5
1D2
330
63
100
AcDbEntity
  8
1
  6
Continuous
 62
     7
100
AcDbCircle
 10
149.7864295452395
 20
253.0103572281492
 30
0.0
 40
2.338394496736214
100
AcDbArc
 50
333.2486225522217
 51
336.5516000346899
  0
ARC
  5
1D3
330
63
100
AcDbEntity
  8
1
  6
Continuous
 62
     7
100
AcDbCircle
 10
149.6259700720192
 20
253.0912402985291
 30
0.0
 40
2.518086771529233
100
AcDbArc
 50
330.1801685742382
 51
333.2486225522275
  0
ARC
  5
1D4
330
63
100
AcDbEntity
  8
1
  6
Continuous
 62
     7
100
AcDbCircle
 10
149.5239684213609
 20
253.1497040889481
 30
0.0
 40
2.635655268700611
100
AcDbArc
 50
327.2483586702348
 51
330.180168574235
  0
ARC
  5
1D5
330
63
100
AcDbEntity
  8
1
  6
Continuous
 62
     7
100
AcDbCircle
 10
149.35643193609
 20
253.2574739625427
 30
0.0
 40
2.834860739387439
100
AcDbArc
 50
324.3719329968325
 51
327.2483586702375
  0
ARC
  5
1D6
330
63
100
AcDbEntity
  8
1
  6
Continuous
 62
     7
100
AcDbCircle
 10
149.2475249955899
 20
253.3355243960673
 30
0.0
 40
2.968848021852587
100
AcDbArc
 50
321.4818947159484
 51
324.37193299683
  0
ARC
  5
1D7
330
63
100
AcDbEntity
  8
1
  6
Continuous
 62
     7
100
AcDbCircle
 10
149.0440677055107
 20
253.4974666289897
 30
0.0
 40
3.228886779906826
100
AcDbArc
 50
318.8248594653775
 51
321.4818947159464
  0
ARC
  5
1D8
330
63
100
AcDbEntity
  8
1
  6
Continuous
 62
     7
100
AcDbCircle
 10
148.9107785176614
 20
253.6140503784746
 30
0.0
 40
3.405968055713678
100
AcDbArc
 50
316.3054237398449
 51
318.8248594653774
  0
ARC
  5
1D9
330
63
100
AcDbEntity
  8
1
  6
Continuous
 62
     7
100
AcDbCircle
 10
148.6706937162488
 20
253.8434369205919
 30
0.0
 40
3.738020608141841
100
AcDbArc
 50
314.0096025338476
 51
316.3054237398505
  0
ARC
  5
1DA
330
63
100
AcDbEntity
  8
1
  6
Continuous
 62
     7
100
AcDbCircle
 10
148.5228245872448
 20
253.9965085382337
 30
0.0
 40
3.950849646197772
100
AcDbArc
 50
311.7064476568607
 51
314.0096025338449
  0
ARC
  5
1DB
330
63
100
AcDbEntity
  8
1
  6
Continuous
 62
     7
100
AcDbCircle
 10
148.3048176687933
 20
254.2411387087841
 30
0.0
 40
4.278524693823068
100
AcDbArc
 50
309.459023833985
 51
311.7064476568585
  0
ARC
  5
1DC
330
63
100
AcDbEntity
  8
1
  6
Continuous
 62
     7
100
AcDbCircle
 10
148.1842514635758
 20
254.3876105108293
 30
0.0
 40
4.468235522809986
100
AcDbArc
 50
307.3071976712737
 51
309.4590238339893
  0
ARC
  5
1DD
330
63
100
AcDbEntity
  8
1
  6
Continuous
 62
     7
100
AcDbCircle
 10
147.9315710419663
 20
254.7192145509784
 30
0.0
 40
4.885139150652312
100
AcDbArc
 50
305.3387884323704
 51
307.307197671271
  0
ARC
  5
1DE
330
63
100
AcDbEntity
  8
1
  6
Continuous
 62
     7
100
AcDbCircle
 10
147.7943483836922
 20
254.9127431227481
 30
0.0
 40
5.122380306514954
100
AcDbArc
 50
303.4614374476565
 51
305.3387884323724
  0
ARC
  5
1DF
330
63
100
AcDbEntity
  8
1
  6
Continuous
 62
     7
100
AcDbCircle
 10
147.5057753417748
 20
255.349367637765
 30
0.0
 40
5.645749552492511
100
AcDbArc
 50
301.6644939278767
 51
303.4614374476545
  0
ARC
  5
1E0
330
63
100
AcDbEntity
  8
1
  6
Continuous
 62
     7
100
AcDbCircle
 10
147.4222037197675
 20
255.4848693737036
 30
0.0
 40
5.804950483542958
100
AcDbArc
 50
299.8259169526154
 51
301.6644939278771
  0
ARC
  5
1E1
330
63
100
AcDbEntity
  8
1
  6
Continuous
 62
     7
100
AcDbCircle
 10
147.1804106512068
 20
255.9066213898226
 30
0.0
 40
6.291097221786017
100
AcDbArc
 50
298.1295101808797
 51
299.825916952616
  0
ARC
  5
1E2
330
63
100
AcDbEntity
  8
1
  6
Continuous
 62
     7
100
AcDbCircle
 10
147.0883788593974
 20
256.0787681654141
 30
0.0
 40
6.486300610717219
100
AcDbArc
 50
296.4840508782066
 51
298.1295101808786
  0
ARC
  5
1E3
330
63
100
AcDbEntity
  8
1
  6
Continuous
 62
     7
100
AcDbCircle
 10
146.8198810656475
 20
256.6176670416938
 30
0.0
 40
7.088382884251316
100
AcDbArc
 50
294.9783118597849
 51
296.4840508782058
  0
ARC
  5
1E4
330
63
100
AcDbEntity
  8
1
  6
Continuous
 62
     7
100
AcDbCircle
 10
146.7228607234399
 20
256.8259336243356
 30
0.0
 40
7.318139094716518
100
AcDbArc
 50
293.4541068539941
 51
294.9783118597854
  0
ARC
  5
1E5
330
63
100
AcDbEntity
  8
1
  6
Continuous
 62
     7
100
AcDbCircle
 10
146.5033184483044
 20
257.3319543026128
 30
0.0
 40
7.869732910323587
100
AcDbArc
 50
291.9756720140843
 51
293.4541068539946
  0
ARC
  5
1E6
330
63
100
AcDbEntity
  8
1
  6
Continuous
 62
     7
100
AcDbCircle
 10
146.4646046223817
 20
257.4278916457039
 30
0.0
 40
7.973186929660326
100
AcDbArc
 50
290.5164607126083
 51
291.9756720140844
  0
ARC
  5
1E7
330
63
100
AcDbEntity
  8
1
  6
Continuous
 62
     7
100
AcDbCircle
 10
146.239737123926
 20
258.0288007477537
 30
0.0
 40
8.614792058059427
100
AcDbArc
 50
289.1658824634714
 51
290.5164607126096
  0
ARC
  5
1E8
330
63
100
AcDbEntity
  8
1
  6
Continuous
 62
     7
100
AcDbCircle
 10
146.2020795842547
 20
258.1371461592238
 30
0.0
 40
8.729495233607148
100
AcDbArc
 50
287.8330251184233
 51
289.1658824634697
  0
ARC
  5
1E9
330
63
100
AcDbEntity
  8
1
  6
Continuous
 62
     7
100
AcDbCircle
 10
145.9733884183493
 20
258.8480277020152
 30
0.0
 40
9.476256385010107
100
AcDbArc
 50
286.5637890373076
 51
287.833025118424
  0
ARC
  5
1EA
330
63
100
AcDbEntity
  8
1
  6
Continuous
 62
     7
100
AcDbCircle
 10
145.9824028110284
 20
258.817719572535
 30
0.0
 40
9.444636106896809
100
AcDbArc
 50
285.2487790992209
 51
286.5637890373063
  0
ARC
  5
1EB
330
63
100
AcDbEntity
  8
1
  6
Continuous
 62
     7
100
AcDbCircle
 10
145.8099210718094
 20
259.4504283943805
 30
0.0
 40
10.10043363937564
100
AcDbArc
 50
284.019172021335
 51
285.2487790992222
  0
ARC
  5
1EC
330
63
100
AcDbEntity
  8
1
  6
Continuous
 62
     7
100
AcDbCircle
 10
145.8201189069935
 20
259.4095853379314
 30
0.0
 40
10.05833671427934
100
AcDbArc
 50
282.7843930443573
 51
284.0191720213339
  0
ARC
  5
1ED
330
63
100
AcDbEntity
  8
1
  6
Continuous
 62
     7
100
AcDbCircle
 10
145.6568841658578
 20
260.1289727016014
 30
0.0
 40
10.79601127648275
100
AcDbArc
 50
281.633973986047
 51
282.784393044359
  0
ARC
  5
1EE
330
63
100
AcDbEntity
  8
1
  6
Continuous
 62
     7
100
AcDbCircle
 10
145.6505004462077
 20
260.1599784083822
 30
0.0
 40
10.82766733008307
100
AcDbArc
 50
279.8624087469009
 51
281.633973986047
  0
ARC
  5
1EF
330
63
100
AcDbEntity
  8
1
  6
Continuous
 62
     7
100
AcDbCircle
 10
145.5379562125945
 20
260.8073351952562
 30
0.0
 40
11.48473430842791
100
AcDbArc
 50
277.6034658375853
 51
279.8624087469006
  0
ARC
  5
1F0
330
63
100
AcDbEntity
  8
1
  6
Continuous
 62
     7
100
AcDbCircle
 10
145.507336928182
 20
261.036710217864
 30
0.0
 40
11.71614399183442
100
AcDbArc
 50
275.3891089248979
 51
277.6034658375848
  0
ARC
  5
1F1
330
63
100
AcDbEntity
  8
1
  6
Continuous
 62
     7
100
AcDbCircle
 10
145.4554836346391
 20
261.5863759394573
 30
0.0
 40
12.26825011346849
100
AcDbArc
 50
270.5267384420823
 51
275.3891089248984
  0
ARC
  5
1F2
330
63
100
AcDbEntity
  8
1
  6
Continuous
 62
     7
100
AcDbCircle
 10
145.4618592479307
 20
244.3424578680876
 30
0.0
 40
12.11718326374997
100
AcDbArc
 50
83.50322681730735
 51
90.0438440344362
  0
ARC
  5
1F3
330
63
100
AcDbEntity
  8
1
  6
Continuous
 62
     7
100
AcDbCircle
 10
145.5070483614612
 20
244.7392763203983
 30
0.0
 40
11.71780006420859
100
AcDbArc
 50
81.28919856903033
 51
83.5032268173078
  0
ARC
  5
1F4
330
63
100
AcDbEntity
  8
1
  6
Continuous
 62
     7
100
AcDbCircle
 10
145.6073562058656
 20
245.3939655401448
 30
0.0
 40
11.05547111413801
100
AcDbArc
 50
78.94250833563336
 51
81.28919856903046
  0
ARC
  5
1F5
330
63
100
AcDbEntity
  8
1
  6
Continuous
 62
     7
100
AcDbCircle
 10
145.6383943775525
 20
245.5527920612539
 30
0.0
 40
10.89364023973746
100
AcDbArc
 50
77.80241211342661
 51
78.94250833563365
  0
ARC
  5
1F6
330
63
100
AcDbEntity
  8
1
  6
Continuous
 62
     7
100
AcDbCircle
 10
145.7640858986665
 20
246.1342568833559
 30
0.0
 40
10.29874554500392
100
AcDbArc
 50
76.59644657029108
 51
77.80241211342666
  0
ARC
  5
1F7
330
63
100
AcDbEntity
  8
1
  6
Continuous
 62
     7
100
AcDbCircle
 10
145.7890474545637
 20
246.2390057106942
 30
0.0
 40
10.19106362404415
100
AcDbArc
 50
75.37776435552298
 51
76.59644657029114
  0
ARC
  5
1F8
330
63
100
AcDbEntity
  8
1
  6
Continuous
 62
     7
100
AcDbCircle
 10
145.9231715906975
 20
246.7530982108878
 30
0.0
 40
9.659762972201314
100
AcDbArc
 50
74.09206087472027
 51
75.37776435552153
  0
ARC
  5
1F9
330
63
100
AcDbEntity
  8
1
  6
Continuous
 62
     7
100
AcDbCircle
 10
145.9687151237341
 20
246.9128959843453
 30
0.0
 40
9.493601779970648
100
AcDbArc
 50
72.17102362415964
 51
74.09206087472133
  0
ARC
  5
1FA
330
63
100
AcDbEntity
  8
1
  6
Continuous
 62
     7
100
AcDbCircle
 10
146.2188058551917
 20
247.6904860894242
 30
0.0
 40
8.676783718541124
100
AcDbArc
 50
70.83006879394657
 51
72.17102362415959
  0
ARC
  5
1FB
330
63
100
AcDbEntity
  8
1
  6
Continuous
 62
     7
100
AcDbCircle
 10
146.2221000520048
 20
247.6999617428977
 30
0.0
 40
8.666751782467095
100
AcDbArc
 50
69.48758802997571
 51
70.83006879394709
  0
ARC
  5
1FC
330
63
100
AcDbEntity
  8
1
  6
Continuous
 62
     7
100
AcDbCircle
 10
146.4805498068166
 20
248.3907607735742
 30
0.0
 40
7.929188512946614
100
AcDbArc
 50
68.02027924333122
 51
69.4875880299742
  0
ARC
  5
1FD
330
63
100
AcDbEntity
  8
1
  6
Continuous
 62
     7
100
AcDbCircle
 10
146.48658226744
 20
248.4057068659268
 30
0.0
 40
7.913070936894684
100
AcDbArc
 50
66.54994188858758
 51
68.02027924333116
  0
ARC
  5
1FE
330
63
100
AcDbEntity
  8
1
  6
Continuous
 62
     7
100
AcDbCircle
 10
146.738724071782
 20
248.9869783462459
 30
0.0
 40
7.279468519499408
100
AcDbArc
 50
65.01763939762961
 51
66.54994188858788
  0
ARC
  5
1FF
330
63
100
AcDbEntity
  8
1
  6
Continuous
 62
     7
100
AcDbCircle
 10
146.803241536819
 20
249.1254477794875
 30
0.0
 40
7.126706327720782
100
AcDbArc
 50
63.51999786437633
 51
65.01763939763053
  0
ARC
  5
200
330
63
100
AcDbEntity
  8
1
  6
Continuous
 62
     7
100
AcDbCircle
 10
147.1029510126234
 20
249.727097778654
 30
0.0
 40
6.454539316194548
100
AcDbArc
 50
61.86644107653861
 51
63.51999786437699
  0
ARC
  5
201
330
63
100
AcDbEntity
  8
1
  6
Continuous
 62
     7
100
AcDbCircle
 10
147.1657920238732
 20
249.8446228092232
 30
0.0
 40
6.321268443513358
100
AcDbArc
 50
60.17813178996651
 51
61.86644107653743
  0
ARC
  5
202
330
63
100
AcDbEntity
  8
1
  6
Continuous
 62
     7
100
AcDbCircle
 10
147.4352169754847
 20
250.3146492191749
 30
0.0
 40
5.779498537923478
100
AcDbArc
 50
58.33145732953944
 51
60.17813178996641
  0
ARC
  5
203
330
63
100
AcDbEntity
  8
1
  6
Continuous
 62
     7
100
AcDbCircle
 10
147.4920196882259
 20
250.4067336951398
 30
0.0
 40
5.67130381121064
100
AcDbArc
 50
56.54261129492883
 51
58.33145732953999
  0
ARC
  5
204
330
63
100
AcDbEntity
  8
1
  6
Continuous
 62
     7
100
AcDbCircle
 10
147.8511348854111
 20
250.9501752718461
 30
0.0
 40
5.01992644582036
100
AcDbArc
 50
55.58479018327711
 51
56.54261129492942
  0
ARC
  5
205
330
63
100
AcDbEntity
  8
1
  6
Continuous
 62
     7
100
AcDbCircle
 10
147.7642722201348
 20
250.8233877625119
 30
0.0
 40
5.173615076311102
100
AcDbArc
 50
53.72604720347603
 51
55.58479018327564
  0
ARC
  5
206
330
63
100
AcDbEntity
  8
1
  6
Continuous
 62
     7
100
AcDbCircle
 10
148.1462711246836
 20
251.3439120553329
 30
0.0
 40
4.527961374630966
100
AcDbArc
 50
51.60249499566909
 51
53.72604720347906
  0
ARC
  5
207
330
63
100
AcDbEntity
  8
1
  6
Continuous
 62
     7
100
AcDbCircle
 10
148.162516461343
 20
251.3644104027582
 30
0.0
 40
4.501806199037147
100
AcDbArc
 50
49.46672482297235
 51
51.60249499566643
  0
ARC
  5
208
330
63
100
AcDbEntity
  8
1
  6
Continuous
 62
     7
100
AcDbCircle
 10
148.4880646518508
 20
251.7451304108883
 30
0.0
 40
4.000877712191565
100
AcDbArc
 50
47.06283292397089
 51
49.46672482297208
  0
ARC
  5
209
330
63
100
AcDbEntity
  8
1
  6
Continuous
 62
     7
100
AcDbCircle
 10
148.5129779044033
 20
251.7719054118245
 30
0.0
 40
3.964304896769591
100
AcDbArc
 50
44.89834186822047
 51
47.06283292397116
  0
ARC
  5
20A
330
63
100
AcDbEntity
  8
1
  6
Continuous
 62
     7
100
AcDbCircle
 10
148.8648947168952
 20
252.1225756445162
 30
0.0
 40
3.467500050768055
100
AcDbArc
 50
42.42339965240953
 51
44.89834186822135
  0
ARC
  5
20B
330
63
100
AcDbEntity
  8
1
  6
Continuous
 62
     7
100
AcDbCircle
 10
148.9106586503941
 20
252.1643981448125
 30
0.0
 40
3.40550441269307
100
AcDbArc
 50
39.90392927687599
 51
42.42339965240834
  0
ARC
  5
20C
330
63
100
AcDbEntity
  8
1
  6
Continuous
 62
     7
100
AcDbCircle
 10
149.2069228446463
 20
252.4121479847513
 30
0.0
 40
3.019301802673949
100
AcDbArc
 50
37.06249637679237
 51
39.90392927687783
  0
ARC
  5
20D
330
63
100
AcDbEntity
  8
1
  6
Continuous
 62
     7
100
AcDbCircle
 10
149.2487346434236
 20
252.4437269984868
 30
0.0
 40
2.966904659378984
100
AcDbArc
 50
34.16969710193073
 51
37.06249637678869
  0
ARC
  5
20E
330
63
100
AcDbEntity
  8
1
  6
Continuous
 62
     7
100
AcDbCircle
 10
149.4985024110657
 20
252.6132759585645
 30
0.0
 40
2.665025896269563
100
AcDbArc
 50
31.27086980468514
 51
34.1696971019317
  0
ARC
  5
20F
330
63
100
AcDbEntity
  8
1
  6
Continuous
 62
     7
100
AcDbCircle
 10
149.5187312233674
 20
252.6255611868934
 30
0.0
 40
2.641358795005887
100
AcDbArc
 50
28.34531312311125
 51
31.27086980468543
  0
ARC
  5
210
330
63
100
AcDbEntity
  8
1
  6
Continuous
 62
     7
100
AcDbCircle
 10
149.7560674822618
 20
252.7535958180302
 30
0.0
 40
2.371689800576818
100
AcDbArc
 50
25.0880404471935
 51
28.34531312311156
  0
ARC
  5
211
330
63
100
AcDbEntity
  8
1
  6
Continuous
 62
     7
100
AcDbCircle
 10
149.7897567671722
 20
252.7693684579528
 30
0.0
 40
2.334491089740444
100
AcDbArc
 50
21.78003181772424
 51
25.08804044719254
  0
ARC
  5
212
330
63
100
AcDbEntity
  8
1
  6
Continuous
 62
     7
100
AcDbCircle
 10
149.9960930682113
 20
252.8518136876026
 30
0.0
 40
2.112293238673951
100
AcDbArc
 50
18.12326386993992
 51
21.78003181772651
  0
ARC
  5
213
330
63
100
AcDbEntity
  8
1
  6
Continuous
 62
     7
100
AcDbCircle
 10
150.017951669248
 20
252.8589680044259
 30
0.0
 40
2.089293615014058
100
AcDbArc
 50
11.2023782474093
 51
18.12326386994203
  0
ARC
  5
214
330
63
100
AcDbEntity
  8
1
  6
Continuous
 62
     7
100
AcDbCircle
 10
150.1453746715512
 20
252.8842039348184
 30
0.0
 40
1.95939567931553
100
AcDbArc
 50
5.66707811642474
 51
11.20237824740894
  0
ARC
  5
215
330
63
100
AcDbEntity
  8
1
  6
Continuous
 62
     7
100
AcDbCircle
 10
150.1503699010289
 20
252.8846996263398
 30
0.0
 40
1.954375915614118
100
AcDbArc
 50
1.96932947907842
 51
5.66707811642476
  0
ARC
  5
216
330
63
100
AcDbEntity
  8
1
  6
Continuous
 62
     7
100
AcDbCircle
 10
150.3046467630255
 20
252.8900044092576
 30
0.0
 40
1.800007878542504
100
AcDbArc
 50
359.9623169177508
 51
1.96932947907678
  0
ARC
  5
217
330
63
100
AcDbEntity
  8
1
  6
Continuous
 62
     7
100
AcDbCircle
 10
145.4548226298778
 20
261.6582744626331
 30
0.0
 40
12.34015167507991
100
AcDbArc
 50
269.989619444231
 51
270.5267384420825
  0
ARC
  5
218
330
63
100
AcDbEntity
  8
1
  6
Continuous
 62
     7
100
AcDbCircle
 10
140.68575832459
 20
252.8889897975447
 30
0.0
 40
1.885238775575546
100
AcDbArc
 50
180.0051435771373
 51
183.8379179896654
  0
ARC
  5
219
330
63
100
AcDbEntity
  8
1
  6
Continuous
 62
     7
100
AcDbCircle
 10
140.7595753047698
 20
252.8939417852542
 30
0.0
 40
1.959221670525302
100
AcDbArc
 50
183.8379179896714
 51
189.3726010864027
  0
ARC
  5
21A
330
63
100
AcDbEntity
  8
1
  6
Continuous
 62
     7
100
AcDbCircle
 10
140.8438087421835
 20
252.907845159182
 30
0.0
 40
2.044594826640443
100
AcDbArc
 50
189.3726010863964
 51
194.6780715712832
  0
ARC
  5
21B
330
63
100
AcDbEntity
  8
1
  6
Continuous
 62
     7
100
AcDbCircle
 10
140.8865148499895
 20
252.9190314290442
 30
0.0
 40
2.088741675649099
100
AcDbArc
 50
194.6780715712826
 51
199.9879430734567
  0
ARC
  5
21C
330
63
100
AcDbEntity
  8
1
  6
Continuous
 62
     7
100
AcDbCircle
 10
141.0208076259021
 20
252.9678780012864
 30
0.0
 40
2.231642121002182
100
AcDbArc
 50
199.9879430734584
 51
203.4483999653057
  0
ARC
  5
21D
330
63
100
AcDbEntity
  8
1
  6
Continuous
 62
     7
100
AcDbCircle
 10
141.118744263633
 20
253.0103572281492
 30
0.0
 40
2.338394496736354
100
AcDbArc
 50
203.4483999653091
 51
206.7513774477761
  0
ARC
  5
21E
330
63
100
AcDbEntity
  8
1
  6
Continuous
 62
     7
100
AcDbCircle
 10
141.2792037368532
 20
253.0912402985291
 30
0.0
 40
2.518086771529108
100
AcDbArc
 50
206.7513774477719
 51
209.8198314257634
  0
ARC
  5
21F
330
63
100
AcDbEntity
  8
1
  6
Continuous
 62
     7
100
AcDbCircle
 10
141.3812053875116
 20
253.1497040889481
 30
0.0
 40
2.635655268700763
100
AcDbArc
 50
209.8198314257649
 51
212.7516413297639
  0
ARC
  5
220
330
63
100
AcDbEntity
  8
1
  6
Continuous
 62
     7
100
AcDbCircle
 10
141.5487418727826
 20
253.2574739625427
 30
0.0
 40
2.834860739387511
100
AcDbArc
 50
212.7516413297603
 51
215.6280670031665
  0
ARC
  5
221
330
63
100
AcDbEntity
  8
1
  6
Continuous
 62
     7
100
AcDbCircle
 10
141.6576488132826
 20
253.3355243960673
 30
0.0
 40
2.968848021852861
100
AcDbArc
 50
215.6280670031699
 51
218.5181052840478
  0
ARC
  5
222
330
63
100
AcDbEntity
  8
1
  6
Continuous
 62
     7
100
AcDbCircle
 10
141.8611061033618
 20
253.4974666289897
 30
0.0
 40
3.228886779906827
100
AcDbArc
 50
218.5181052840501
 51
221.1751405346225
  0
ARC
  5
223
330
63
100
AcDbEntity
  8
1
  6
Continuous
 62
     7
100
AcDbCircle
 10
141.9943952912111
 20
253.6140503784746
 30
0.0
 40
3.405968055713948
100
AcDbArc
 50
221.1751405346227
 51
223.6945762601514
  0
ARC
  5
224
330
63
100
AcDbEntity
  8
1
  6
Continuous
 62
     7
100
AcDbCircle
 10
142.2344800926235
 20
253.8434369205919
 30
0.0
 40
3.738020608141627
100
AcDbArc
 50
223.6945762601485
 51
225.9903974661549
  0
ARC
  5
225
330
63
100
AcDbEntity
  8
1
  6
Continuous
 62
     7
100
AcDbCircle
 10
142.3823492216276
 20
253.9965085382337
 30
0.0
 40
3.950849646197854
100
AcDbArc
 50
225.9903974661563
 51
228.2935523431372
  0
ARC
  5
226
330
63
100
AcDbEntity
  8
1
  6
Continuous
 62
     7
100
AcDbCircle
 10
142.6003561400792
 20
254.2411387087841
 30
0.0
 40
4.278524693823251
100
AcDbArc
 50
228.2935523431384
 51
230.5409761660126
  0
ARC
  5
227
330
63
100
AcDbEntity
  8
1
  6
Continuous
 62
     7
100
AcDbCircle
 10
142.7209223452965
 20
254.3876105108293
 30
0.0
 40
4.468235522810019
100
AcDbArc
 50
230.5409761660107
 51
232.6928023287275
  0
ARC
  5
228
330
63
100
AcDbEntity
  8
1
  6
Continuous
 62
     7
100
AcDbCircle
 10
142.9736027669061
 20
254.7192145509784
 30
0.0
 40
4.885139150652162
100
AcDbArc
 50
232.692802328729
 51
234.6612115676307
  0
ARC
  5
229
330
63
100
AcDbEntity
  8
1
  6
Continuous
 62
     7
100
AcDbCircle
 10
143.1108254251801
 20
254.9127431227481
 30
0.0
 40
5.122380306514819
100
AcDbArc
 50
234.6612115676295
 51
236.5385625523453
  0
ARC
  5
22A
330
63
100
AcDbEntity
  8
1
  6
Continuous
 62
     7
100
AcDbCircle
 10
143.3993984670975
 20
255.349367637765
 30
0.0
 40
5.645749552492477
100
AcDbArc
 50
236.5385625523471
 51
238.335506072124
  0
ARC
  5
22B
330
63
100
AcDbEntity
  8
1
  6
Continuous
 62
     7
100
AcDbCircle
 10
143.4829700891048
 20
255.4848693737036
 30
0.0
 40
5.804950483542827
100
AcDbArc
 50
238.3355060721237
 51
240.174083047387
  0
ARC
  5
22C
330
63
100
AcDbEntity
  8
1
  6
Continuous
 62
     7
100
AcDbCircle
 10
143.7247631576655
 20
255.9066213898226
 30
0.0
 40
6.291097221785952
100
AcDbArc
 50
240.1740830473862
 51
241.870489819121
  0
ARC
  5
22D
330
63
100
AcDbEntity
  8
1
  6
Continuous
 62
     7
100
AcDbCircle
 10
143.8167949494749
 20
256.0787681654141
 30
0.0
 40
6.486300610717112
100
AcDbArc
 50
241.8704898191221
 51
243.515949121795
  0
ARC
  5
22E
330
63
100
AcDbEntity
  8
1
  6
Continuous
 62
     7
100
AcDbCircle
 10
144.085292743225
 20
256.6176670416938
 30
0.0
 40
7.088382884251391
100
AcDbArc
 50
243.5159491217942
 51
245.0216881402152
  0
ARC
  5
22F
330
63
100
AcDbEntity
  8
1
  6
Continuous
 62
     7
100
AcDbCircle
 10
144.1823130854326
 20
256.8259336243356
 30
0.0
 40
7.318139094716648
100
AcDbArc
 50
245.0216881402146
 51
246.5458931460037
  0
ARC
  5
230
330
63
100
AcDbEntity
  8
1
  6
Continuous
 62
     7
100
AcDbCircle
 10
144.4018553605681
 20
257.3319543026128
 30
0.0
 40
7.869732910323546
100
AcDbArc
 50
246.5458931460033
 51
248.0243279859149
  0
ARC
  5
231
330
63
100
AcDbEntity
  8
1
  6
Continuous
 62
     7
100
AcDbCircle
 10
144.4405691864909
 20
257.4278916457039
 30
0.0
 40
7.9731869296605
100
AcDbArc
 50
248.0243279859142
 51
249.4835392873898
  0
ARC
  5
232
330
63
100
AcDbEntity
  8
1
  6
Continuous
 62
     7
100
AcDbCircle
 10
144.6654366849463
 20
258.0288007477537
 30
0.0
 40
8.614792058059408
100
AcDbArc
 50
249.4835392873906
 51
250.8341175365287
  0
ARC
  5
233
330
63
100
AcDbEntity
  8
1
  6
Continuous
 62
     7
100
AcDbCircle
 10
144.7030942246178
 20
258.1371461592238
 30
0.0
 40
8.72949523360717
100
AcDbArc
 50
250.8341175365292
 51
252.1669748815749
  0
ARC
  5
234
330
63
100
AcDbEntity
  8
1
  6
Continuous
 62
     7
100
AcDbCircle
 10
144.931785390523
 20
258.8480277020152
 30
0.0
 40
9.476256385010137
100
AcDbArc
 50
252.1669748815756
 51
253.4362109626937
  0
ARC
  5
235
330
63
100
AcDbEntity
  8
1
  6
Continuous
 62
     7
100
AcDbCircle
 10
144.9227709978441
 20
258.817719572535
 30
0.0
 40
9.44463610689681
100
AcDbArc
 50
253.4362109626937
 51
254.7512209007784
  0
ARC
  5
236
330
63
100
AcDbEntity
  8
1
  6
Continuous
 62
     7
100
AcDbCircle
 10
145.0952527370629
 20
259.4504283943805
 30
0.0
 40
10.10043363937545
100
AcDbArc
 50
254.7512209007783
 51
255.9808279786662
  0
ARC
  5
237
330
63
100
AcDbEntity
  8
1
  6
Continuous
 62
     7
100
AcDbCircle
 10
145.085054901879
 20
259.4095853379314
 30
0.0
 40
10.05833671427955
100
AcDbArc
 50
255.9808279786661
 51
257.2156069556414
  0
ARC
  5
238
330
63
100
AcDbEntity
  8
1
  6
Continuous
 62
     7
100
AcDbCircle
 10
145.2482896430145
 20
260.1289727016014
 30
0.0
 40
10.79601127648259
100
AcDbArc
 50
257.215606955641
 51
258.3660260139532
  0
ARC
  5
239
330
63
100
AcDbEntity
  8
1
  6
Continuous
 62
     7
100
AcDbCircle
 10
145.2546733626645
 20
260.1599784083822
 30
0.0
 40
10.82766733008305
100
AcDbArc
 50
258.3660260139536
 51
260.1375912531008
  0
ARC
  5
23A
330
63
100
AcDbEntity
  8
1
  6
Continuous
 62
     7
100
AcDbCircle
 10
145.3672175962778
 20
260.8073351952562
 30
0.0
 40
11.48473430842803
100
AcDbArc
 50
260.1375912531004
 51
262.3965341624157
  0
ARC
  5
23B
330
63
100
AcDbEntity
  8
1
  6
Continuous
 62
     7
100
AcDbCircle
 10
145.3978368806903
 20
261.036710217864
 30
0.0
 40
11.71614399183433
100
AcDbArc
 50
262.3965341624161
 51
264.6108910751025
  0
ARC
  5
23C
330
63
100
AcDbEntity
  8
1
  6
Continuous
 62
     7
100
AcDbCircle
 10
145.4496901742332
 20
261.5863759394573
 30
0.0
 40
12.26825011346856
100
AcDbArc
 50
264.610891075102
 51
269.4732615579177
  0
ARC
  5
23D
330
63
100
AcDbEntity
  8
1
  6
Continuous
 62
     7
100
AcDbCircle
 10
145.4433145609415
 20
244.3424578680876
 30
0.0
 40
12.11718326375002
100
AcDbArc
 50
89.95615596556394
 51
96.49677318269227
  0
ARC
  5
23E
330
63
100
AcDbEntity
  8
1
  6
Continuous
 62
     7
100
AcDbCircle
 10
145.3981254474112
 20
244.7392763203983
 30
0.0
 40
11.71780006420858
100
AcDbArc
 50
96.49677318269262
 51
98.71080143096954
  0
ARC
  5
23F
330
63
100
AcDbEntity
  8
1
  6
Continuous
 62
     7
100
AcDbCircle
 10
145.2978176030068
 20
245.3939655401448
 30
0.0
 40
11.0554711141382
100
AcDbArc
 50
98.71080143096955
 51
101.0574916643671
  0
ARC
  5
240
330
63
100
AcDbEntity
  8
1
  6
Continuous
 62
     7
100
AcDbCircle
 10
145.2667794313198
 20
245.5527920612539
 30
0.0
 40
10.89364023973732
100
AcDbArc
 50
101.0574916643662
 51
102.1975878865722
  0
ARC
  5
241
330
63
100
AcDbEntity
  8
1
  6
Continuous
 62
     7
100
AcDbCircle
 10
145.141087910206
 20
246.1342568833559
 30
0.0
 40
10.29874554500397
100
AcDbArc
 50
102.1975878865733
 51
103.4035534297089
  0
ARC
  5
242
330
63
100
AcDbEntity
  8
1
  6
Continuous
 62
     7
100
AcDbCircle
 10
145.1161263543087
 20
246.2390057106942
 30
0.0
 40
10.19106362404428
100
AcDbArc
 50
103.4035534297083
 51
104.6222356444781
  0
ARC
  5
243
330
63
100
AcDbEntity
  8
1
  6
Continuous
 62
     7
100
AcDbCircle
 10
144.9820022181748
 20
246.7530982108878
 30
0.0
 40
9.659762972201024
100
AcDbArc
 50
104.6222356444791
 51
105.9079391252786
  0
ARC
  5
244
330
63
100
AcDbEntity
  8
1
  6
Continuous
 62
     7
100
AcDbCircle
 10
144.9364586851384
 20
246.9128959843453
 30
0.0
 40
9.493601779970891
100
AcDbArc
 50
105.9079391252787
 51
107.8289763758422
  0
ARC
  5
245
330
63
100
AcDbEntity
  8
1
  6
Continuous
 62
     7
100
AcDbCircle
 10
144.6863679536806
 20
247.6904860894242
 30
0.0
 40
8.676783718541076
100
AcDbArc
 50
107.828976375841
 51
109.1699312060533
  0
ARC
  5
246
330
63
100
AcDbEntity
  8
1
  6
Continuous
 62
     7
100
AcDbCircle
 10
144.6830737568677
 20
247.6999617428977
 30
0.0
 40
8.666751782467177
100
AcDbArc
 50
109.1699312060541
 51
110.5124119700255
  0
ARC
  5
247
330
63
100
AcDbEntity
  8
1
  6
Continuous
 62
     7
100
AcDbCircle
 10
144.4246240020557
 20
248.3907607735742
 30
0.0
 40
7.929188512946537
100
AcDbArc
 50
110.5124119700258
 51
111.9797207566682
  0
ARC
  5
248
330
63
100
AcDbEntity
  8
1
  6
Continuous
 62
     7
100
AcDbCircle
 10
144.4185915414323
 20
248.4057068659268
 30
0.0
 40
7.913070936894786
100
AcDbArc
 50
111.9797207566683
 51
113.4500581114132
  0
ARC
  5
249
330
63
100
AcDbEntity
  8
1
  6
Continuous
 62
     7
100
AcDbCircle
 10
144.1664497370902
 20
248.9869783462459
 30
0.0
 40
7.27946851949935
100
AcDbArc
 50
113.4500581114121
 51
114.9823606023682
  0
ARC
  5
24A
330
63
100
AcDbEntity
  8
1
  6
Continuous
 62
     7
100
AcDbCircle
 10
144.1019322720534
 20
249.1254477794875
 30
0.0
 40
7.126706327720604
100
AcDbArc
 50
114.9823606023687
 51
116.4800021356229
  0
ARC
  5
24B
330
63
100
AcDbEntity
  8
1
  6
Continuous
 62
     7
100
AcDbCircle
 10
143.8022227962491
 20
249.727097778654
 30
0.0
 40
6.454539316194618
100
AcDbArc
 50
116.480002135623
 51
118.1335589234623
  0
ARC
  5
24C
330
63
100
AcDbEntity
  8
1
  6
Continuous
 62
     7
100
AcDbCircle
 10
143.739381784999
 20
249.8446228092232
 30
0.0
 40
6.321268443513336
100
AcDbArc
 50
118.133558923461
 51
119.8218682100304
  0
ARC
  5
24D
330
63
100
AcDbEntity
  8
1
  6
Continuous
 62
     7
100
AcDbCircle
 10
143.4699568333875
 20
250.3146492191749
 30
0.0
 40
5.779498537923218
100
AcDbArc
 50
119.8218682100302
 51
121.6685426704589
  0
ARC
  5
24E
330
63
100
AcDbEntity
  8
1
  6
Continuous
 62
     7
100
AcDbCircle
 10
143.4131541206465
 20
250.4067336951398
 30
0.0
 40
5.67130381121054
100
AcDbArc
 50
121.66854267046
 51
123.4573887050702
  0
ARC
  5
24F
330
63
100
AcDbEntity
  8
1
  6
Continuous
 62
     7
100
AcDbCircle
 10
143.0540389234614
 20
250.9501752718461
 30
0.0
 40
5.019926445820648
100
AcDbArc
 50
123.4573887050706
 51
124.415209816725
  0
ARC
  5
250
330
63
100
AcDbEntity
  8
1
  6
Continuous
 62
     7
100
AcDbCircle
 10
143.1409015887375
 20
250.8233877625119
 30
0.0
 40
5.173615076310946
100
AcDbArc
 50
124.4152098167246
 51
126.2739527965222
  0
ARC
  5
251
330
63
100
AcDbEntity
  8
1
  6
Continuous
 62
     7
100
AcDbCircle
 10
142.7589026841889
 20
251.3439120553329
 30
0.0
 40
4.527961374630957
100
AcDbArc
 50
126.2739527965209
 51
128.3975050043321
  0
ARC
  5
252
330
63
100
AcDbEntity
  8
1
  6
Continuous
 62
     7
100
AcDbCircle
 10
142.7426573475294
 20
251.3644104027582
 30
0.0
 40
4.5018061990371
100
AcDbArc
 50
128.3975050043333
 51
130.5332751770263
  0
ARC
  5
253
330
63
100
AcDbEntity
  8
1
  6
Continuous
 62
     7
100
AcDbCircle
 10
142.4171091570215
 20
251.7451304108883
 30
0.0
 40
4.000877712191356
100
AcDbArc
 50
130.5332751770258
 51
132.937167076027
  0
ARC
  5
254
330
63
100
AcDbEntity
  8
1
  6
Continuous
 62
     7
100
AcDbCircle
 10
142.3921959044691
 20
251.7719054118245
 30
0.0
 40
3.964304896769678
100
AcDbArc
 50
132.9371670760276
 51
135.1016581317787
  0
ARC
  5
255
330
63
100
AcDbEntity
  8
1
  6
Continuous
 62
     7
100
AcDbCircle
 10
142.0402790919773
 20
252.1225756445162
 30
0.0
 40
3.467500050768171
100
AcDbArc
 50
135.101658131779
 51
137.576600347594
  0
ARC
  5
256
330
63
100
AcDbEntity
  8
1
  6
Continuous
 62
     7
100
AcDbCircle
 10
141.9945151584784
 20
252.1643981448125
 30
0.0
 40
3.405504412693275
100
AcDbArc
 50
137.5766003475952
 51
140.0960707231262
  0
ARC
  5
257
330
63
100
AcDbEntity
  8
1
  6
Continuous
 62
     7
100
AcDbCircle
 10
141.6982509642261
 20
252.4121479847513
 30
0.0
 40
3.019301802673997
100
AcDbArc
 50
140.0960707231232
 51
142.9375036232086
  0
ARC
  5
258
330
63
100
AcDbEntity
  8
1
  6
Continuous
 62
     7
100
AcDbCircle
 10
141.6564391654487
 20
252.4437269984868
 30
0.0
 40
2.966904659378702
100
AcDbArc
 50
142.937503623211
 51
145.8303028980668
  0
ARC
  5
259
330
63
100
AcDbEntity
  8
1
  6
Continuous
 62
     7
100
AcDbCircle
 10
141.4066713978068
 20
252.6132759585645
 30
0.0
 40
2.665025896269768
100
AcDbArc
 50
145.830302898068
 51
148.7291301953158
  0
ARC
  5
25A
330
63
100
AcDbEntity
  8
1
  6
Continuous
 62
     7
100
AcDbCircle
 10
141.3864425855051
 20
252.6255611868934
 30
0.0
 40
2.641358795005837
100
AcDbArc
 50
148.7291301953159
 51
151.6546868768887
  0
ARC
  5
25B
330
63
100
AcDbEntity
  8
1
  6
Continuous
 62
     7
100
AcDbCircle
 10
141.1491063266107
 20
252.7535958180302
 30
0.0
 40
2.371689800576933
100
AcDbArc
 50
151.6546868768885
 51
154.9119595528097
  0
ARC
  5
25C
330
63
100
AcDbEntity
  8
1
  6
Continuous
 62
     7
100
AcDbCircle
 10
141.1154170417003
 20
252.7693684579528
 30
0.0
 40
2.334491089740544
100
AcDbArc
 50
154.9119595528107
 51
158.2199681822758
  0
ARC
  5
25D
330
63
100
AcDbEntity
  8
1
  6
Continuous
 62
     7
100
AcDbCircle
 10
140.9090807406611
 20
252.8518136876026
 30
0.0
 40
2.112293238673979
100
AcDbArc
 50
158.2199681822723
 51
161.8767361300601
  0
ARC
  5
25E
330
63
100
AcDbEntity
  8
1
  6
Continuous
 62
     7
100
AcDbCircle
 10
140.8872221396246
 20
252.8589680044259
 30
0.0
 40
2.089293615014417
100
AcDbArc
 50
161.8767361300597
 51
168.7976217525928
  0
ARC
  5
25F
330
63
100
AcDbEntity
  8
1
  6
Continuous
 62
     7
100
AcDbCircle
 10
140.7597991373214
 20
252.8842039348184
 30
0.0
 40
1.959395679315924
100
AcDbArc
 50
168.7976217525933
 51
174.3329218835761
  0
ARC
  5
260
330
63
100
AcDbEntity
  8
1
  6
Continuous
 62
     7
100
AcDbCircle
 10
140.7548039078436
 20
252.8846996263398
 30
0.0
 40
1.954375915614177
100
AcDbArc
 50
174.3329218835758
 51
178.0306705209216
  0
ARC
  5
261
330
63
100
AcDbEntity
  8
1
  6
Continuous
 62
     7
100
AcDbCircle
 10
140.6005270458469
 20
252.8900044092576
 30
0.0
 40
1.800007878542449
100
AcDbArc
 50
178.0306705209231
 51
180.0376830822492
  0
ARC
  5
262
330
63
100
AcDbEntity
  8
1
  6
Continuous
 62
     7
100
AcDbCircle
 10
145.4503511789947
 20
261.6582744626331
 30
0.0
 40
12.34015167507985
100
AcDbArc
 50
269.4732615579165
 51
270.0103805557674
  0
ARC
  5
263
330
63
100
AcDbEntity
  8
1
  6
Continuous
 62
     7
100
AcDbCircle
 10
134.9525869044361
 20
252.8888205552177
 30
0.0
 40
5.000000000000094
100
AcDbArc
 50
105.3375576695538
 51
235.9442022574331
  0
ARC
  5
264
330
63
100
AcDbEntity
  8
1
  6
Continuous
 62
     7
100
AcDbCircle
 10
145.4525869044363
 20
594.822814223792
 30
0.0
 40
10.50000000000001
100
AcDbArc
 50
319.6324064558127
 51
120.0000000000013
  0
ARC
  5
265
330
63
100
AcDbEntity
  8
1
  6
Continuous
 62
     7
100
AcDbCircle
 10
145.4525869044363
 20
594.822814223792
 30
0.0
 40
15.49999999999977
100
AcDbArc
 50
115.4146209151612
 51
120.0000000000002
  0
ARC
  5
266
330
63
100
AcDbEntity
  8
1
  6
Continuous
 62
     7
100
AcDbCircle
 10
145.4525869044363
 20
594.822814223792
 30
0.0
 40
15.49999999999999
100
AcDbArc
 50
355.41462091516
 51
4.58537908483831
  0
ARC
  5
267
330
63
100
AcDbEntity
  8
1
  6
Continuous
 62
     7
100
AcDbCircle
 10
145.4525869044363
 20
594.822814223792
 30
0.0
 40
15.49999999999984
100
AcDbArc
 50
55.41462091516011
 51
64.5853790848397
  0
ARC
  5
268
330
63
100
AcDbEntity
  8
1
  6
Continuous
 62
     7
100
AcDbCircle
 10
145.4525869044363
 20
594.822814223792
 30
0.0
 40
15.49999999999989
100
AcDbArc
 50
120.0000000000002
 51
124.5853790848398
  0
ARC
  5
269
330
63
100
AcDbEntity
  8
1
  6
Continuous
 62
     7
100
AcDbCircle
 10
145.4525869044363
 20
594.822814223792
 30
0.0
 40
15.5000000000002
100
AcDbArc
 50
175.4146209151617
 51
184.58537908484
  0
ARC
  5
26A
330
63
100
AcDbEntity
  8
1
  6
Continuous
 62
     7
100
AcDbCircle
 10
145.4525869044363
 20
594.822814223792
 30
0.0
 40
15.50000000000009
100
AcDbArc
 50
301.0729509721523
 51
304.5853790848382
  0
ARC
  5
26B
330
63
100
AcDbEntity
  8
1
  6
Continuous
 62
     7
100
AcDbCircle
 10
145.4525869044363
 20
594.822814223792
 30
0.0
 40
15.50000000000032
100
AcDbArc
 50
235.4146209151606
 51
238.9270490278471
  0
ARC
  5
26C
330
63
100
AcDbEntity
  8
1
  6
Continuous
 62
     7
100
AcDbCircle
 10
145.4525869044363
 20
594.822814223792
 30
0.0
 40
10.49999999999998
100
AcDbArc
 50
120.0000000000013
 51
220.3675935441859
  0
ARC
  5
26D
330
63
100
AcDbEntity
  8
1
  6
Continuous
 62
     7
100
AcDbCircle
 10
442.6789607983293
 20
252.8888205552177
 30
0.0
 40
5.000000000000119
100
AcDbArc
 50
105.3375576695523
 51
134.4270040008042
  0
ARC
  5
26E
330
63
100
AcDbEntity
  8
1
  6
Continuous
 62
     7
100
AcDbCircle
 10
463.6789607983293
 20
252.8888205552177
 30
0.0
 40
5.000000000000057
100
AcDbArc
 50
45.57299599919494
 51
74.66244233044515
  0
SPLINE
  5
26F
330
63
100
AcDbEntity
  8
1
  6
Continuous
 62
     7
100
AcDbSpline
210
0.0
220
0.0
230
1.0
 70
    11
 71
     3
 72
    79
 73
    75
 74
    73
 42
0.000000001
 43
0.0000000001
 44
0.00000001
 40
0.0
 40
0.0
 40
0.0
 40
0.0
 40
0.2903672471832947
 40
0.5807357518973784
 40
0.872407097735998
 40
1.164081911024068
 40
1.458189924522312
 40
1.752302920472862
 40
2.049663201046446
 40
2.3470291064154
 40
2.648045786115956
 40
2.949067936325345
 40
3.253697746552399
 40
3.558332275329974
 40
3.866104857780111
 40
4.173881019540135
 40
4.483966061108353
 40
4.794053321447485
 40
5.105362217358612
 40
5.41667186343485
 40
5.727981509500117
 40
6.039290405378575
 40
6.349377665663551
 40
6.659462707155261
 40
6.967238868816598
 40
7.275011451144601
 40
7.579645979777338
 40
7.884275789834351
 40
8.185297939849534
 40
8.486314619328343
 40
8.783680524448817
 40
9.081040804740889
 40
9.375153800374052
 40
9.669261813502207
 40
9.960936626337105
 40
10.25260797152382
 40
10.54297647485863
 40
10.83334373090419
 40
11.12371098694959
 40
11.41407949028423
 40
11.70575083547107
 40
11.99742564830614
 40
12.29153366143427
 40
12.58564665706746
 40
12.88300693735952
 40
13.18037284247993
 40
13.48138952195872
 40
13.78241167197398
 40
14.08704148203099
 40
14.39167601066369
 40
14.69944859299174
 40
15.00722475465311
 40
15.31730979614486
 40
15.6273970564298
 40
15.93870595230825
 40
16.25001559837348
 40
16.56132524444969
 40
16.87263414036081
 40
17.18272140069993
 40
17.49280644226817
 40
17.80058260402823
 40
18.10835518647841
 40
18.41298971525597
 40
18.71761952548299
 40
19.01864167569237
 40
19.31965835539298
 40
19.61702426076189
 40
19.91438454133545
 40
20.20849753728601
 40
20.50260555078425
 40
20.7942803640725
 40
21.08595170991125
 40
21.37632021462515
 40
21.66668746180828
 40
21.66668746180828
 40
21.66668746180828
 40
21.66668746180828
 10
133.328231251454
 20
256.4595347694891
 30
0.0
 10
133.2314074447442
 20
256.4569031721685
 30
0.0
 10
133.0377594118285
 20
256.45163997135
 30
0.0
 10
132.7493985355217
 20
256.4093448991683
 30
0.0
 10
132.4656863915426
 20
256.3421340066748
 30
0.0
 10
132.1882613287568
 20
256.2480788414053
 30
0.0
 10
131.9199404173758
 20
256.1286473837219
 30
0.0
 10
131.6619406540048
 20
255.9843718882356
 30
0.0
 10
131.4171386507486
 20
255.8167678130328
 30
0.0
 10
131.1864424256863
 20
255.6266052588729
 30
0.0
 10
130.9725467184095
 20
255.4159825385613
 30
0.0
 10
130.7761731758302
 20
255.1857609227294
 30
0.0
 10
130.5996238306667
 20
254.9385244993314
 30
0.0
 10
130.4435210339965
 20
254.6752903250847
 30
0.0
 10
130.309632019387
 20
254.398926770503
 30
0.0
 10
130.198504002384
 20
254.1107133266414
 30
0.0
 10
130.1113132424019
 20
253.8135748834885
 30
0.0
 10
130.0484876357616
 20
253.509151729457
 30
0.0
 10
130.0106390858064
 20
253.2002151171646
 30
0.0
 10
129.9979768236679
 20
252.88882056459
 30
0.0
 10
130.0106390854448
 20
252.5774260120132
 30
0.0
 10
130.0484876350377
 20
252.2684893997047
 30
0.0
 10
130.1113132413137
 20
251.9640662456704
 30
0.0
 10
130.1985040009291
 20
251.666927802427
 30
0.0
 10
130.3096320175618
 20
251.3787143587609
 30
0.0
 10
130.4435210317967
 20
251.1023508032727
 30
0.0
 10
130.5996238280868
 20
250.8391166321509
 30
0.0
 10
130.7761731728639
 20
250.5918801968866
 30
0.0
 10
130.9725467150488
 20
250.3616586245104
 30
0.0
 10
131.1864424219217
 20
250.1510357426936
 30
0.0
 10
131.4171386465669
 20
249.9608737838166
 30
0.0
 10
131.6619406493891
 20
249.7932675002232
 30
0.0
 10
131.9199404122973
 20
249.6490001597618
 30
0.0
 10
132.1882613231697
 20
249.5295384204232
 30
0.0
 10
132.4656863853248
 20
249.4355953733692
 30
0.0
 10
132.7493985283653
 20
249.3679674009318
 30
0.0
 10
133.0377594065471
 20
249.3272222760895
 30
0.0
 10
133.3282312514539
 20
249.3135483981645
 30
0.0
 10
133.6187030963608
 20
249.3272222760896
 30
0.0
 10
133.9070639745425
 20
249.3679674009318
 30
0.0
 10
134.190776117583
 20
249.4355953733692
 30
0.0
 10
134.4682011797382
 20
249.5295384204231
 30
0.0
 10
134.7365220906107
 20
249.6490001597619
 30
0.0
 10
134.9945218535189
 20
249.7932675002231
 30
0.0
 10
135.239323856341
 20
249.9608737838165
 30
0.0
 10
135.4700200809863
 20
250.1510357426936
 30
0.0
 10
135.6839157878591
 20
250.3616586245103
 30
0.0
 10
135.8802893300441
 20
250.5918801968866
 30
0.0
 10
136.0568386748212
 20
250.8391166321509
 30
0.0
 10
136.2129414711112
 20
251.1023508032727
 30
0.0
 10
136.3468304853462
 20
251.3787143587609
 30
0.0
 10
136.457958501979
 20
251.6669278024271
 30
0.0
 10
136.5451492615945
 20
251.9640662456704
 30
0.0
 10
136.6079748678704
 20
252.2684893997046
 30
0.0
 10
136.6458234174631
 20
252.5774260120133
 30
0.0
 10
136.6584856792396
 20
252.8888205645899
 30
0.0
 10
136.6458234171015
 20
253.2002151171646
 30
0.0
 10
136.6079748671465
 20
253.5091517294568
 30
0.0
 10
136.5451492605063
 20
253.8135748834886
 30
0.0
 10
136.4579585005242
 20
254.1107133266415
 30
0.0
 10
136.346830483521
 20
254.3989267705029
 30
0.0
 10
136.2129414689115
 20
254.6752903250846
 30
0.0
 10
136.0568386722412
 20
254.9385244993314
 30
0.0
 10
135.8802893270778
 20
255.1857609227295
 30
0.0
 10
135.6839157844983
 20
255.4159825385611
 30
0.0
 10
135.4700200772216
 20
255.6266052588728
 30
0.0
 10
135.2393238521595
 20
255.8167678130328
 30
0.0
 10
134.9945218489031
 20
255.9843718882356
 30
0.0
 10
134.7365220855323
 20
256.128647383722
 30
0.0
 10
134.468201174151
 20
256.2480788414052
 30
0.0
 10
134.1907761113654
 20
256.3421340066749
 30
0.0
 10
133.9070639673861
 20
256.4093448991682
 30
0.0
 10
133.6187030910793
 20
256.4516399713501
 30
0.0
 10
133.4250550581637
 20
256.4569031721685
 30
0.0
 10
133.328231251454
 20
256.4595347694891
 30
0.0
 11
133.328231251454
 21
256.4595347694891
 31
0.0
 11
133.0381834896559
 21
256.4459171566367
 31
0.0
 11
132.7506715651201
 21
256.4052875972232
 31
0.0
 11
132.4669342552516
 21
256.3377204993847
 31
0.0
 11
132.1906607375964
 21
256.2441943533039
 31
0.0
 11
131.9219436754977
 21
256.1246507878662
 31
0.0
 11
131.6652144144977
 21
255.981149774431
 31
0.0
 11
131.4197971247156
 21
255.8132406017243
 31
0.0
 11
131.1902980164628
 21
255.6241463370264
 31
0.0
 11
130.9757434574259
 21
255.4130127711967
 31
0.0
 11
130.7803416379267
 21
255.184031409883
 31
0.0
 11
130.6032382327865
 21
254.9361731738855
 31
0.0
 11
130.4478015960033
 21
254.6741776623535
 31
0.0
 11
130.3135483673802
 21
254.3972299540865
 31
0.0
 11
130.202781951593
 21
254.1100767425578
 31
0.0
 11
130.11542419612
 21
253.8125513561106
 31
0.0
 11
130.0527275026053
 21
253.5088685714955
 31
0.0
 11
130.014845082636
 21
253.199873181623
 31
0.0
 11
130.0021975775413
 21
252.8888205552177
 31
0.0
 11
130.014845082636
 21
252.5777679288126
 31
0.0
 11
130.0527275026053
 21
252.2687725389402
 31
0.0
 11
130.11542419612
 21
251.965089754325
 31
0.0
 11
130.202781951593
 21
251.6675643678778
 31
0.0
 11
130.3135483673802
 21
251.3804111563491
 31
0.0
 11
130.4478015960033
 21
251.1034634480821
 31
0.0
 11
130.6032382327865
 21
250.8414679365499
 31
0.0
 11
130.7803416379267
 21
250.5936097005524
 31
0.0
 11
130.9757434574259
 21
250.3646283392388
 31
0.0
 11
131.1902980164628
 21
250.1534947734092
 31
0.0
 11
131.4197971247156
 21
249.9644005087113
 31
0.0
 11
131.6652144144977
 21
249.7964913360046
 31
0.0
 11
131.9219436754976
 21
249.6529903225695
 31
0.0
 11
132.1906607375964
 21
249.5334467571317
 31
0.0
 11
132.4669342552516
 21
249.439920611051
 31
0.0
 11
132.7506715651201
 21
249.3723535132124
 31
0.0
 11
133.0381834896559
 21
249.3317239537989
 31
0.0
 11
133.328231251454
 21
249.3181063409465
 31
0.0
 11
133.618279013252
 21
249.331723953799
 31
0.0
 11
133.9057909377876
 21
249.3723535132124
 31
0.0
 11
134.1895282476563
 21
249.4399206110509
 31
0.0
 11
134.4658017653116
 21
249.5334467571317
 31
0.0
 11
134.7345188274103
 21
249.6529903225695
 31
0.0
 11
134.9912480884103
 21
249.7964913360046
 31
0.0
 11
135.2366653781924
 21
249.9644005087113
 31
0.0
 11
135.4661644864451
 21
250.1534947734092
 31
0.0
 11
135.680719045482
 21
250.3646283392388
 31
0.0
 11
135.8761208649813
 21
250.5936097005524
 31
0.0
 11
136.0532242701215
 21
250.8414679365499
 31
0.0
 11
136.2086609069046
 21
251.1034634480821
 31
0.0
 11
136.3429141355278
 21
251.3804111563491
 31
0.0
 11
136.4536805513151
 21
251.6675643678778
 31
0.0
 11
136.5410383067881
 21
251.965089754325
 31
0.0
 11
136.6037350003028
 21
252.2687725389402
 31
0.0
 11
136.6416174202718
 21
252.5777679288126
 31
0.0
 11
136.6542649253664
 21
252.8888205552177
 31
0.0
 11
136.6416174202718
 21
253.1998731816229
 31
0.0
 11
136.6037350003028
 21
253.5088685714955
 31
0.0
 11
136.5410383067881
 21
253.8125513561106
 31
0.0
 11
136.4536805513151
 21
254.1100767425578
 31
0.0
 11
136.3429141355278
 21
254.3972299540865
 31
0.0
 11
136.2086609069046
 21
254.6741776623535
 31
0.0
 11
136.0532242701215
 21
254.9361731738855
 31
0.0
 11
135.8761208649813
 21
255.184031409883
 31
0.0
 11
135.680719045482
 21
255.4130127711967
 31
0.0
 11
135.4661644864451
 21
255.6241463370264
 31
0.0
 11
135.2366653781924
 21
255.8132406017243
 31
0.0
 11
134.9912480884103
 21
255.981149774431
 31
0.0
 11
134.7345188274104
 21
256.1246507878662
 31
0.0
 11
134.4658017653116
 21
256.2441943533039
 31
0.0
 11
134.1895282476563
 21
256.3377204993847
 31
0.0
 11
133.9057909377876
 21
256.4052875972232
 31
0.0
 11
133.618279013252
 21
256.4459171566367
 31
0.0
 11
133.328231251454
 21
256.4595347694891
 31
0.0
  0
SPLINE
  5
270
330
63
100
AcDbEntity
  8
1
  6
Continuous
 62
     7
100
AcDbSpline
210
0.0
220
0.0
230
1.0
 70
    11
 71
     3
 72
    79
 73
    75
 74
    73
 42
0.000000001
 43
0.0000000001
 44
0.00000001
 40
0.0
 40
0.0
 40
0.0
 40
0.0
 40
0.2903672471833231
 40
0.580735751897463
 40
0.8724070977360826
 40
1.164081911024072
 40
1.458189924522235
 40
1.752302920472683
 40
2.049663201046463
 40
2.347029106415468
 40
2.648045786115923
 40
2.949067936325202
 40
3.253697746552239
 40
3.558332275329872
 40
3.866104857780059
 40
4.173881019540123
 40
4.483966061108357
 40
4.794053321447477
 40
5.105362217358584
 40
5.416671863434816
 40
5.727981509500077
 40
6.039290405378516
 40
6.349377665663479
 40
6.659462707155206
 40
6.967238868816584
 40
7.275011451144636
 40
7.579645979777402
 40
7.884275789834431
 40
8.185297939849542
 40
8.48631461932821
 40
8.783680524448773
 40
9.081040804741008
 40
9.375153800374122
 40
9.669261813502146
 40
9.960936626337
 40
10.25260797152368
 40
10.54297647485849
 40
10.83334373090414
 40
11.12371098694965
 40
11.41407949028437
 40
11.70575083547108
 40
11.99742564830601
 40
12.29153366143415
 40
12.58564665706743
 40
12.88300693735942
 40
13.18037284247979
 40
13.48138952195862
 40
13.78241167197394
 40
14.08704148203097
 40
14.39167601066367
 40
14.69944859299174
 40
15.00722475465311
 40
15.31730979614488
 40
15.6273970564298
 40
15.93870595230825
 40
16.25001559837348
 40
16.56132524444968
 40
16.87263414036079
 40
17.1827214006999
 40
17.49280644226815
 40
17.80058260402823
 40
18.1083551864784
 40
18.41298971525599
 40
18.71761952548301
 40
19.01864167569245
 40
19.3196583553931
 40
19.61702426076195
 40
19.91438454133545
 40
20.20849753728611
 40
20.50260555078435
 40
20.79428036407245
 40
21.08595170991107
 40
21.37632021462506
 40
21.6666874618083
 40
21.6666874618083
 40
21.6666874618083
 40
21.6666874618083
 10
157.5769425574184
 20
256.4595347694891
 30
0.0
 10
157.6737663641281
 20
256.4569031721685
 30
0.0
 10
157.8674143970439
 20
256.4516399713502
 30
0.0
 10
158.1557752733508
 20
256.4093448991682
 30
0.0
 10
158.43948741733
 20
256.3421340066748
 30
0.0
 10
158.7169124801155
 20
256.2480788414053
 30
0.0
 10
158.9852333914965
 20
256.1286473837218
 30
0.0
 10
159.2432331548675
 20
255.9843718882356
 30
0.0
 10
159.4880351581238
 20
255.8167678130327
 30
0.0
 10
159.7187313831863
 20
255.626605258873
 30
0.0
 10
159.9326270904628
 20
255.4159825385612
 30
0.0
 10
160.129000633042
 20
255.1857609227293
 30
0.0
 10
160.3055499782055
 20
254.9385244993314
 30
0.0
 10
160.4616527748758
 20
254.6752903250846
 30
0.0
 10
160.5955417894854
 20
254.398926770503
 30
0.0
 10
160.7066698064886
 20
254.1107133266415
 30
0.0
 10
160.7938605664707
 20
253.8135748834885
 30
0.0
 10
160.8566861731109
 20
253.5091517294569
 30
0.0
 10
160.894534723066
 20
253.2002151171645
 30
0.0
 10
160.9071969852041
 20
252.88882056459
 30
0.0
 10
160.8945347234276
 20
252.5774260120131
 30
0.0
 10
160.8566861738348
 20
252.2684893997047
 30
0.0
 10
160.7938605675589
 20
251.9640662456704
 30
0.0
 10
160.7066698079434
 20
251.6669278024272
 30
0.0
 10
160.5955417913106
 20
251.3787143587609
 30
0.0
 10
160.4616527770756
 20
251.1023508032726
 30
0.0
 10
160.3055499807855
 20
250.8391166321509
 30
0.0
 10
160.1290006360083
 20
250.5918801968867
 30
0.0
 10
159.9326270938236
 20
250.3616586245103
 30
0.0
 10
159.7187313869509
 20
250.1510357426934
 30
0.0
 10
159.4880351623055
 20
249.9608737838166
 30
0.0
 10
159.2432331594832
 20
249.7932675002232
 30
0.0
 10
158.985233396575
 20
249.6490001597618
 30
0.0
 10
158.7169124857027
 20
249.5295384204231
 30
0.0
 10
158.4394874235476
 20
249.4355953733692
 30
0.0
 10
158.1557752805072
 20
249.3679674009318
 30
0.0
 10
157.8674144023254
 20
249.3272222760895
 30
0.0
 10
157.5769425574184
 20
249.3135483981644
 30
0.0
 10
157.2864707125115
 20
249.3272222760896
 30
0.0
 10
156.9981098343298
 20
249.3679674009318
 30
0.0
 10
156.7143976912894
 20
249.4355953733692
 30
0.0
 10
156.4369726291342
 20
249.5295384204231
 30
0.0
 10
156.1686517182617
 20
249.6490001597618
 30
0.0
 10
155.9106519553536
 20
249.7932675002231
 30
0.0
 10
155.6658499525314
 20
249.9608737838166
 30
0.0
 10
155.4351537278862
 20
250.1510357426936
 30
0.0
 10
155.2212580210133
 20
250.3616586245103
 30
0.0
 10
155.0248844788283
 20
250.5918801968867
 30
0.0
 10
154.8483351340511
 20
250.8391166321509
 30
0.0
 10
154.6922323377611
 20
251.1023508032727
 30
0.0
 10
154.558343323526
 20
251.3787143587609
 30
0.0
 10
154.4472153068933
 20
251.6669278024271
 30
0.0
 10
154.3600245472777
 20
251.9640662456704
 30
0.0
 10
154.2971989410018
 20
252.2684893997047
 30
0.0
 10
154.2593503914094
 20
252.5774260120132
 30
0.0
 10
154.2466881296328
 20
252.88882056459
 30
0.0
 10
154.2593503917708
 20
253.2002151171645
 30
0.0
 10
154.2971989417258
 20
253.509151729457
 30
0.0
 10
154.3600245483659
 20
253.8135748834885
 30
0.0
 10
154.4472153083481
 20
254.1107133266415
 30
0.0
 10
154.5583433253513
 20
254.3989267705028
 30
0.0
 10
154.6922323399609
 20
254.6752903250847
 30
0.0
 10
154.8483351366312
 20
254.9385244993313
 30
0.0
 10
155.0248844817945
 20
255.1857609227295
 30
0.0
 10
155.2212580243742
 20
255.4159825385611
 30
0.0
 10
155.4351537316508
 20
255.6266052588728
 30
0.0
 10
155.6658499567131
 20
255.8167678130328
 30
0.0
 10
155.9106519599692
 20
255.9843718882356
 30
0.0
 10
156.1686517233402
 20
256.128647383722
 30
0.0
 10
156.4369726347214
 20
256.2480788414053
 30
0.0
 10
156.714397697507
 20
256.3421340066747
 30
0.0
 10
156.9981098414862
 20
256.4093448991683
 30
0.0
 10
157.286470717793
 20
256.4516399713501
 30
0.0
 10
157.4801187507087
 20
256.4569031721685
 30
0.0
 10
157.5769425574184
 20
256.4595347694891
 30
0.0
 11
157.5769425574184
 21
256.4595347694891
 31
0.0
 11
157.8669903192166
 21
256.4459171566367
 31
0.0
 11
158.1545022437524
 21
256.4052875972232
 31
0.0
 11
158.4382395536209
 21
256.3377204993847
 31
0.0
 11
158.714513071276
 21
256.2441943533039
 31
0.0
 11
158.9832301333746
 21
256.1246507878661
 31
0.0
 11
159.2399593943745
 21
255.981149774431
 31
0.0
 11
159.4853766841568
 21
255.8132406017242
 31
0.0
 11
159.7148757924097
 21
255.6241463370264
 31
0.0
 11
159.9294303514464
 21
255.4130127711967
 31
0.0
 11
160.1248321709455
 21
255.184031409883
 31
0.0
 11
160.3019355760857
 21
254.9361731738855
 31
0.0
 11
160.457372212869
 21
254.6741776623535
 31
0.0
 11
160.5916254414922
 21
254.3972299540865
 31
0.0
 11
160.7023918572795
 21
254.1100767425578
 31
0.0
 11
160.7897496127525
 21
253.8125513561106
 31
0.0
 11
160.8524463062672
 21
253.5088685714955
 31
0.0
 11
160.8903287262363
 21
253.199873181623
 31
0.0
 11
160.9029762313309
 21
252.8888205552177
 31
0.0
 11
160.8903287262363
 21
252.5777679288126
 31
0.0
 11
160.8524463062672
 21
252.2687725389402
 31
0.0
 11
160.7897496127525
 21
251.965089754325
 31
0.0
 11
160.7023918572795
 21
251.6675643678778
 31
0.0
 11
160.5916254414922
 21
251.3804111563491
 31
0.0
 11
160.457372212869
 21
251.1034634480821
 31
0.0
 11
160.3019355760857
 21
250.8414679365499
 31
0.0
 11
160.1248321709455
 21
250.5936097005524
 31
0.0
 11
159.9294303514464
 21
250.3646283392388
 31
0.0
 11
159.7148757924097
 21
250.1534947734092
 31
0.0
 11
159.4853766841568
 21
249.9644005087113
 31
0.0
 11
159.2399593943745
 21
249.7964913360046
 31
0.0
 11
158.9832301333746
 21
249.6529903225695
 31
0.0
 11
158.714513071276
 21
249.5334467571317
 31
0.0
 11
158.4382395536209
 21
249.4399206110509
 31
0.0
 11
158.1545022437524
 21
249.3723535132124
 31
0.0
 11
157.8669903192166
 21
249.3317239537989
 31
0.0
 11
157.5769425574184
 21
249.3181063409465
 31
0.0
 11
157.2868947956203
 21
249.331723953799
 31
0.0
 11
156.9993828710846
 21
249.3723535132124
 31
0.0
 11
156.7156455612161
 21
249.439920611051
 31
0.0
 11
156.4393720435609
 21
249.5334467571317
 31
0.0
 11
156.1706549814621
 21
249.6529903225695
 31
0.0
 11
155.9139257204621
 21
249.7964913360046
 31
0.0
 11
155.66850843068
 21
249.9644005087113
 31
0.0
 11
155.4390093224274
 21
250.1534947734092
 31
0.0
 11
155.2244547633905
 21
250.3646283392388
 31
0.0
 11
155.0290529438911
 21
250.5936097005524
 31
0.0
 11
154.8519495387509
 21
250.8414679365499
 31
0.0
 11
154.6965129019677
 21
251.1034634480821
 31
0.0
 11
154.5622596733445
 21
251.3804111563491
 31
0.0
 11
154.4514932575572
 21
251.6675643678778
 31
0.0
 11
154.3641355020841
 21
251.965089754325
 31
0.0
 11
154.3014388085695
 21
252.2687725389402
 31
0.0
 11
154.2635563886006
 21
252.5777679288126
 31
0.0
 11
154.250908883506
 21
252.8888205552177
 31
0.0
 11
154.2635563886005
 21
253.1998731816229
 31
0.0
 11
154.3014388085695
 21
253.5088685714955
 31
0.0
 11
154.3641355020841
 21
253.8125513561106
 31
0.0
 11
154.4514932575572
 21
254.1100767425578
 31
0.0
 11
154.5622596733445
 21
254.3972299540865
 31
0.0
 11
154.6965129019677
 21
254.6741776623535
 31
0.0
 11
154.8519495387509
 21
254.9361731738855
 31
0.0
 11
155.0290529438911
 21
255.184031409883
 31
0.0
 11
155.2244547633905
 21
255.4130127711967
 31
0.0
 11
155.4390093224274
 21
255.6241463370264
 31
0.0
 11
155.66850843068
 21
255.8132406017243
 31
0.0
 11
155.9139257204621
 21
255.981149774431
 31
0.0
 11
156.1706549814621
 21
256.1246507878662
 31
0.0
 11
156.4393720435609
 21
256.2441943533039
 31
0.0
 11
156.7156455612161
 21
256.3377204993847
 31
0.0
 11
156.9993828710846
 21
256.4052875972232
 31
0.0
 11
157.2868947956203
 21
256.4459171566367
 31
0.0
 11
157.5769425574184
 21
256.4595347694891
 31
0.0
  0
SPLINE
  5
271
330
63
100
AcDbEntity
  8
0
  6
Continuous
 62
     7
100
AcDbSpline
210
0.0
220
0.0
230
1.0
 70
     8
 71
     3
 72
    61
 73
    57
 74
    55
 42
0.000000001
 43
0.0000000001
 44
0.00000001
 40
0.0
 40
0.0
 40
0.0
 40
0.0
 40
0.3217223907975857
 40
0.6431800407857117
 40
0.9847133821558036
 40
1.325878157059748
 40
1.695698036563145
 40
2.065191777689197
 40
2.467083714217122
 40
2.868736664061342
 40
3.302245584273292
 40
3.735593198491578
 40
4.196894712818592
 40
4.658093073204817
 40
5.140893544827331
 40
5.623633286580687
 40
6.119969621121796
 40
6.6162778656461
 40
7.11722240015376
 40
7.618166934663199
 40
8.114475179191807
 40
8.610811513738422
 40
9.09355125549489
 40
9.576351727113726
 40
10.03755008748401
 40
10.49885160177545
 40
10.93219921593283
 40
11.36570813604468
 40
11.76736108574641
 40
12.16925302206335
 40
12.53874676290875
 40
12.90856664200593
 40
13.24973141634208
 40
13.59126475674915
 40
13.91272240503397
 40
14.23444480550161
 40
14.54889176403248
 40
14.86333872256725
 40
15.1850611230448
 40
15.50651877134461
 40
15.84805211176877
 40
16.18921688612064
 40
16.55903676522989
 40
16.9285305060802
 40
17.33042244239247
 40
17.73207539207815
 40
18.16558431216002
 40
18.59893192627482
 40
19.06023344050772
 40
19.52143180080611
 40
20.00423227233544
 40
20.48697201398484
 40
20.9833083483939
 40
21.47961659271394
 40
21.94382832940143
 40
22.40794813449052
 40
22.40794813449052
 40
22.40794813449052
 40
22.40794813449052
 10
465.5724247525121
 20
253.2024733702126
 30
0.0
 10
465.5532042922821
 20
253.3081619301141
 30
0.0
 10
465.5147791874859
 20
253.5194520798952
 30
0.0
 10
465.3999320657026
 20
253.828510024682
 30
0.0
 10
465.2477448512108
 20
254.1273387060431
 30
0.0
 10
465.0508908925385
 20
254.4187429205329
 30
0.0
 10
464.8179112743767
 20
254.6942529113322
 30
0.0
 10
464.5439701818541
 20
254.9590001608746
 30
0.0
 10
464.2386325673818
 20
255.2040966854739
 30
0.0
 10
463.896242032507
 20
255.4346454295913
 30
0.0
 10
463.5277498257711
 20
255.6428671926112
 30
0.0
 10
463.1274177298768
 20
255.832697599576
 30
0.0
 10
462.7065141118175
 20
255.9982394598407
 30
0.0
 10
462.2603690416465
 20
256.1419543640504
 30
0.0
 10
461.7993669594052
 20
256.2599660235339
 30
0.0
 10
461.3208700050378
 20
256.3534823344313
 30
0.0
 10
460.833384022829
 20
256.4203637427261
 30
0.0
 10
460.3369434434488
 20
256.4610705876214
 30
0.0
 10
459.8374858234933
 20
256.4746764287102
 30
0.0
 10
459.3380158129208
 20
256.4615333088431
 30
0.0
 10
458.8415377343521
 20
256.4212864017063
 30
0.0
 10
458.3539899998383
 20
256.3548566465932
 30
0.0
 10
457.8754066145761
 20
256.2617836724618
 30
0.0
 10
457.4142953976541
 20
256.1441991528358
 30
0.0
 10
456.9680173844564
 20
256.0008976339844
 30
0.0
 10
456.5469605535615
 20
255.8357457893455
 30
0.0
 10
456.1464528676474
 20
255.6462863310628
 30
0.0
 10
455.7777675416056
 20
255.4384060958532
 30
0.0
 10
455.435164861041
 20
255.208174467072
 30
0.0
 10
455.1295956788664
 20
254.9633615914933
 30
0.0
 10
454.8554254021256
 20
254.6988659431688
 30
0.0
 10
454.6221335827928
 20
254.4235801361306
 30
0.0
 10
454.4252071148146
 20
254.1323299717265
 30
0.0
 10
454.2720327172015
 20
253.8337448058425
 30
0.0
 10
454.1594038413305
 20
253.5244324011504
 30
0.0
 10
454.0927374063351
 20
253.2112177411271
 30
0.0
 10
454.0691346285572
 20
252.8941594314859
 30
0.0
 10
454.0924436620526
 20
252.5770793914471
 30
0.0
 10
454.1588198951786
 20
252.2638031036582
 30
0.0
 10
454.2711621646409
 20
251.9543864882734
 30
0.0
 10
454.4240598765414
 20
251.6556595442573
 30
0.0
 10
454.6207164354318
 20
251.364227065126
 30
0.0
 10
454.853753120025
 20
251.0887252461879
 30
0.0
 10
455.1276782408419
 20
250.8239757106889
 30
0.0
 10
455.4330204885332
 20
250.5788798479287
 30
0.0
 10
455.7754097269258
 20
250.3483309263425
 30
0.0
 10
456.1439023082316
 20
250.1401091857875
 30
0.0
 10
456.5442342955402
 20
249.9502788851927
 30
0.0
 10
456.9651379616053
 20
249.7847365497014
 30
0.0
 10
457.4112829526005
 20
249.6410234851493
 30
0.0
 10
457.8722853138061
 20
249.5230046485495
 30
0.0
 10
458.3507812153189
 20
249.4295156260519
 30
0.0
 10
458.8382712297093
 20
249.3625296414395
 30
0.0
 10
459.3224877194136
 20
249.3232079594835
 30
0.0
 10
459.797423075407
 20
249.3079727591005
 30
0.0
 10
460.1067810339418
 20
249.3176010333218
 30
0.0
 10
460.2614446954796
 20
249.3224146965776
 30
0.0
 11
465.5724247525121
 21
253.2024733702126
 31
0.0
 11
465.5056085905143
 21
253.5171810180941
 31
0.0
 11
465.3968296391891
 21
253.8196742569525
 31
0.0
 11
465.241627925282
 21
254.1239068173066
 31
0.0
 11
465.0515690920852
 21
254.4072282660544
 31
0.0
 11
464.8133236335792
 21
254.6900813102772
 31
0.0
 11
464.5481630445846
 21
254.9474050104905
 31
0.0
 11
464.2352572303184
 21
255.1996094513555
 31
0.0
 11
463.9024101481104
 21
255.424415839076
 31
0.0
 11
463.5253340971433
 21
255.6382934575412
 31
0.0
 11
463.1339508991085
 21
255.8243293332311
 31
0.0
 11
462.7048587406196
 21
255.9936781054285
 31
0.0
 11
462.2659556494997
 21
256.1353396888827
 31
0.0
 11
461.7983331597832
 21
256.2554459023028
 31
0.0
 11
461.3245835009872
 21
256.3481762589426
 31
0.0
 11
460.8328863042025
 21
256.415878722962
 31
0.0
 11
460.3382395642334
 21
256.456455516673
 31
0.0
 11
459.837483742775
 21
256.4702044762805
 31
0.0
 11
459.3367153986795
 21
256.4569194408452
 31
0.0
 11
458.8420312791774
 21
256.416800923146
 31
0.0
 11
458.3502715713937
 21
256.3495540142156
 31
0.0
 11
457.876436207153
 21
256.2572625961583
 31
0.0
 11
457.4087026473807
 21
256.1375896566381
 31
0.0
 11
456.9696685042073
 21
255.9963347496463
 31
0.0
 11
456.5404196390433
 21
255.827383576591
 31
0.0
 11
456.1488642586157
 21
255.6417103722619
 31
0.0
 11
455.7715902255203
 21
255.4281821824479
 31
0.0
 11
455.438535017397
 21
255.2036842527552
 31
0.0
 11
455.1253956861123
 21
254.951769807365
 31
0.0
 11
454.859996816943
 21
254.6946918719231
 31
0.0
 11
454.6214894154061
 21
254.4120596682787
 31
0.0
 11
454.4311681845525
 21
254.1289144184809
 31
0.0
 11
454.275684685221
 21
253.8248257731568
 31
0.0
 11
454.1666255399197
 21
253.5224334408589
 31
0.0
 11
454.0995178500685
 21
253.2077878289364
 31
0.0
 11
454.0768934148634
 21
252.8941558394424
 31
0.0
 11
454.0992272803612
 21
252.5805030244475
 31
0.0
 11
454.166043442359
 21
252.265795376566
 31
0.0
 11
454.2748223936843
 21
251.9633021377076
 31
0.0
 11
454.4300241075914
 21
251.6590695773534
 31
0.0
 11
454.6200829407883
 21
251.3757481286057
 31
0.0
 11
454.8583283992942
 21
251.0928950843829
 31
0.0
 11
455.123488988289
 21
250.8355713841697
 31
0.0
 11
455.4363948025553
 21
250.5833669433045
 31
0.0
 11
455.7692418847632
 21
250.3585605555841
 31
0.0
 11
456.1463179357302
 21
250.1446829371189
 31
0.0
 11
456.5377011337649
 21
249.958647061429
 31
0.0
 11
456.9667932922538
 21
249.7892982892317
 31
0.0
 11
457.4056963833738
 21
249.6476367057774
 31
0.0
 11
457.8733188730903
 21
249.5275304923573
 31
0.0
 11
458.3470685318866
 21
249.4348001357176
 31
0.0
 11
458.8387657286713
 21
249.3670976716982
 31
0.0
 11
459.3334124686405
 21
249.3265208779873
 31
0.0
 11
459.7974232059191
 21
249.3128617201561
 31
0.0
 11
460.2614446954796
 21
249.3224146965776
 31
0.0
  0
SPLINE
  5
272
330
63
100
AcDbEntity
  8
0
  6
Continuous
 62
     7
100
AcDbSpline
210
0.0
220
0.0
230
1.0
 70
     8
 71
     3
 72
    61
 73
    57
 74
    55
 42
0.000000001
 43
0.0000000001
 44
0.00000001
 40
0.0
 40
0.0
 40
0.0
 40
0.0
 40
0.3217223907975739
 40
0.6431800407856999
 40
0.9847133821557661
 40
1.325878157059774
 40
1.695698036563097
 40
2.065191777689231
 40
2.467083714217201
 40
2.868736664061373
 40
3.302245584273323
 40
3.735593198491609
 40
4.196894712818676
 40
4.658093073204848
 40
5.140893544827306
 40
5.623633286580718
 40
6.119969621121771
 40
6.616277865646132
 40
7.117222400153792
 40
7.618166934663288
 40
8.114475179191896
 40
8.610811513738568
 40
9.09355125549498
 40
9.57635172711376
 40
10.0375500874841
 40
10.49885160177549
 40
10.93219921593276
 40
11.36570813604476
 40
11.7673610857465
 40
12.16925302206338
 40
12.53874676290882
 40
12.908566642006
 40
13.24973141634219
 40
13.59126475674921
 40
13.91272240503403
 40
14.23444480550168
 40
14.54889176403255
 40
14.86333872256731
 40
15.18506112304488
 40
15.50651877134469
 40
15.84805211176888
 40
16.18921688612069
 40
16.55903676522994
 40
16.92853050608024
 40
17.33042244239252
 40
17.73207539207815
 40
18.16558431216022
 40
18.59893192627501
 40
19.06023344050786
 40
19.52143180080631
 40
20.0042322723357
 40
20.48697201398498
 40
20.98330834839399
 40
21.47961659271392
 40
21.94382832948739
 40
22.4079481346628
 40
22.4079481346628
 40
22.4079481346628
 40
22.4079481346628
 10
440.7854968441467
 20
253.2024733702126
 30
0.0
 10
440.8047173043769
 20
253.3081619301142
 30
0.0
 10
440.8431424091728
 20
253.519452079895
 30
0.0
 10
440.9579895309561
 20
253.828510024682
 30
0.0
 10
441.1101767454478
 20
254.1273387060432
 30
0.0
 10
441.3070307041202
 20
254.4187429205329
 30
0.0
 10
441.5400103222821
 20
254.6942529113323
 30
0.0
 10
441.8139514148047
 20
254.9590001608745
 30
0.0
 10
442.1192890292772
 20
255.2040966854739
 30
0.0
 10
442.4616795641518
 20
255.4346454295913
 30
0.0
 10
442.8301717708878
 20
255.6428671926112
 30
0.0
 10
443.2305038667819
 20
255.8326975995759
 30
0.0
 10
443.6514074848413
 20
255.9982394598408
 30
0.0
 10
444.0975525550122
 20
256.1419543640503
 30
0.0
 10
444.5585546372537
 20
256.2599660235339
 30
0.0
 10
445.0370515916211
 20
256.3534823344312
 30
0.0
 10
445.5245375738298
 20
256.420363742726
 30
0.0
 10
446.02097815321
 20
256.4610705876215
 30
0.0
 10
446.5204357731656
 20
256.4746764287102
 30
0.0
 10
447.019905783738
 20
256.4615333088431
 30
0.0
 10
447.5163838623067
 20
256.4212864017063
 30
0.0
 10
448.0039315968206
 20
256.3548566465932
 30
0.0
 10
448.4825149820827
 20
256.2617836724619
 30
0.0
 10
448.9436261990048
 20
256.1441991528359
 30
0.0
 10
449.3899042122023
 20
256.0008976339844
 30
0.0
 10
449.8109610430974
 20
255.8357457893455
 30
0.0
 10
450.2114687290112
 20
255.6462863310627
 30
0.0
 10
450.5801540550532
 20
255.4384060958533
 30
0.0
 10
450.9227567356179
 20
255.208174467072
 30
0.0
 10
451.2283259177925
 20
254.9633615914933
 30
0.0
 10
451.5024961945331
 20
254.6988659431688
 30
0.0
 10
451.7357880138661
 20
254.4235801361305
 30
0.0
 10
451.9327144818444
 20
254.1323299717266
 30
0.0
 10
452.0858888794573
 20
253.8337448058425
 30
0.0
 10
452.1985177553285
 20
253.5244324011504
 30
0.0
 10
452.2651841903236
 20
253.2112177411273
 30
0.0
 10
452.2887869681017
 20
252.8941594314859
 30
0.0
 10
452.2654779346061
 20
252.577079391447
 30
0.0
 10
452.1991017014804
 20
252.2638031036583
 30
0.0
 10
452.0867594320175
 20
251.9543864882734
 30
0.0
 10
451.9338617201177
 20
251.6556595442573
 30
0.0
 10
451.7372051612267
 20
251.3642270651259
 30
0.0
 10
451.5041684766343
 20
251.088725246188
 30
0.0
 10
451.2302433558169
 20
250.8239757106889
 30
0.0
 10
450.9249011081258
 20
250.5788798479288
 30
0.0
 10
450.582511869733
 20
250.3483309263424
 30
0.0
 10
450.214019288427
 20
250.1401091857876
 30
0.0
 10
449.8136873011185
 20
249.9502788851926
 30
0.0
 10
449.3927836350534
 20
249.7847365497014
 30
0.0
 10
448.9466386440581
 20
249.6410234851492
 30
0.0
 10
448.4856362828526
 20
249.5230046485496
 30
0.0
 10
448.0071403813397
 20
249.4295156260518
 30
0.0
 10
447.5196503669495
 20
249.3625296414396
 30
0.0
 10
447.0354338772167
 20
249.3232079594812
 30
0.0
 10
446.5604985211656
 20
249.3079727590982
 30
0.0
 10
446.2511405625737
 20
249.3176010333262
 30
0.0
 10
446.0964769010071
 20
249.3224146965854
 30
0.0
 11
440.7854968441467
 21
253.2024733702126
 31
0.0
 11
440.8523130061444
 21
253.5171810180941
 31
0.0
 11
440.9610919574696
 21
253.8196742569525
 31
0.0
 11
441.1162936713767
 21
254.1239068173066
 31
0.0
 11
441.3063525045736
 21
254.4072282660544
 31
0.0
 11
441.5445979630795
 21
254.6900813102772
 31
0.0
 11
441.8097585520742
 21
254.9474050104905
 31
0.0
 11
442.1226643663404
 21
255.1996094513555
 31
0.0
 11
442.4555114485484
 21
255.424415839076
 31
0.0
 11
442.8325874995155
 21
255.6382934575412
 31
0.0
 11
443.2239706975503
 21
255.8243293332311
 31
0.0
 11
443.6530628560392
 21
255.9936781054285
 31
0.0
 11
444.0919659471591
 21
256.1353396888827
 31
0.0
 11
444.5595884368755
 21
256.2554459023028
 31
0.0
 11
445.0333380956716
 21
256.3481762589426
 31
0.0
 11
445.5250352924562
 21
256.415878722962
 31
0.0
 11
446.0196820324254
 21
256.456455516673
 31
0.0
 11
446.5204378538838
 21
256.4702044762805
 31
0.0
 11
447.0212061979794
 21
256.4569194408452
 31
0.0
 11
447.5158903174814
 21
256.416800923146
 31
0.0
 11
448.0076500252652
 21
256.3495540142156
 31
0.0
 11
448.4814853895058
 21
256.2572625961583
 31
0.0
 11
448.9492189492781
 21
256.1375896566381
 31
0.0
 11
449.3882530924515
 21
255.9963347496463
 31
0.0
 11
449.8175019576155
 21
255.827383576591
 31
0.0
 11
450.209057338043
 21
255.6417103722619
 31
0.0
 11
450.5863313711386
 21
255.4281821824479
 31
0.0
 11
450.9193865792618
 21
255.2036842527552
 31
0.0
 11
451.2325259105465
 21
254.951769807365
 31
0.0
 11
451.4979247797158
 21
254.6946918719231
 31
0.0
 11
451.7364321812527
 21
254.4120596682787
 31
0.0
 11
451.9267534121065
 21
254.1289144184809
 31
0.0
 11
452.0822369114378
 21
253.8248257731568
 31
0.0
 11
452.1912960567391
 21
253.5224334408589
 31
0.0
 11
452.2584037465903
 21
253.2077878289364
 31
0.0
 11
452.2810281817954
 21
252.8941558394424
 31
0.0
 11
452.2586943162977
 21
252.5805030244475
 31
0.0
 11
452.1918781542998
 21
252.265795376566
 31
0.0
 11
452.0830992029745
 21
251.9633021377076
 31
0.0
 11
451.9278974890673
 21
251.6590695773534
 31
0.0
 11
451.7378386558705
 21
251.3757481286057
 31
0.0
 11
451.4995931973647
 21
251.0928950843829
 31
0.0
 11
451.2344326083699
 21
250.8355713841697
 31
0.0
 11
450.9215267941036
 21
250.5833669433045
 31
0.0
 11
450.5886797118957
 21
250.3585605555841
 31
0.0
 11
450.2116036609285
 21
250.1446829371189
 31
0.0
 11
449.8202204628938
 21
249.958647061429
 31
0.0
 11
449.3911283044049
 21
249.7892982892317
 31
0.0
 11
448.9522252132849
 21
249.6476367057774
 31
0.0
 11
448.4846027235683
 21
249.5275304923573
 31
0.0
 11
448.0108530647722
 21
249.4348001357176
 31
0.0
 11
447.5191558679875
 21
249.3670976716982
 31
0.0
 11
447.0245091280184
 21
249.3265208779873
 31
0.0
 11
446.5604983906538
 21
249.3128617201557
 31
0.0
 11
446.0964769010071
 21
249.3224146965854
 31
0.0
  0
SPLINE
  5
273
330
63
100
AcDbEntity
  8
0
  6
Continuous
 62
     7
100
AcDbSpline
210
0.0
220
0.0
230
1.0
 70
     8
 71
     3
 72
    19
 73
    15
 74
    13
 42
0.000000001
 43
0.0000000001
 44
0.00000001
 40
0.0
 40
0.0
 40
0.0
 40
0.0
 40
0.1031164152093783
 40
0.2063392264481751
 40
0.6079921772540657
 40
1.009884113340985
 40
1.379377853673264
 40
1.749197732055616
 40
2.090362505538101
 40
2.431895844884108
 40
2.753353491829047
 40
3.075075890542377
 40
3.389522846469471
 40
3.7039698020687
 40
3.7039698020687
 40
3.7039698020687
 40
3.7039698020687
 10
463.7224486533446
 20
250.2497879120473
 30
0.0
 10
463.7522449924637
 20
250.2669250962276
 30
0.0
 10
463.811868407679
 20
250.3012171589507
 30
0.0
 10
463.9854430921852
 20
250.4058517308893
 30
0.0
 10
464.2364536577431
 20
250.5748760711637
 30
0.0
 10
464.5420643053493
 20
250.8195966767906
 30
0.0
 10
464.8162253874958
 20
251.0841152758377
 30
0.0
 10
465.0495158035712
 20
251.3593946603463
 30
0.0
 10
465.2464556235676
 20
251.6506482790106
 30
0.0
 10
465.3995797646194
 20
251.9492258507047
 30
0.0
 10
465.5123863677724
 20
252.2585638039486
 30
0.0
 10
465.5784023444743
 20
252.5716852969595
 30
0.0
 10
465.6043814294341
 20
252.8890838752807
 30
0.0
 10
465.5830769828635
 20
253.0980102055956
 30
0.0
 10
465.5724247525121
 20
253.2024733702126
 30
0.0
 11
463.7224486533446
 21
250.2497879120473
 31
0.0
 11
463.811658858426
 21
250.3015038076809
 31
0.0
 11
463.9000618073534
 21
250.3547942122123
 31
0.0
 11
464.2331170154765
 21
250.579292141905
 31
0.0
 11
464.5462563467613
 21
250.8312065872952
 31
0.0
 11
464.8116552159307
 21
251.0882845227372
 31
0.0
 11
465.0501626174675
 21
251.3709167263816
 31
0.0
 11
465.2404838483213
 21
251.6540619761794
 31
0.0
 11
465.3959673476525
 21
251.9581506215034
 31
0.0
 11
465.5050264929537
 21
252.2605429538013
 31
0.0
 11
465.5721341828048
 21
252.5751885657238
 31
0.0
 11
465.5947586180098
 21
252.8888205552178
 31
0.0
 11
465.5724247525121
 21
253.2024733702126
 31
0.0
  0
SPLINE
  5
274
330
63
100
AcDbEntity
  8
0
  6
Continuous
 62
     7
100
AcDbSpline
210
0.0
220
0.0
230
1.0
 70
     8
 71
     3
 72
    19
 73
    15
 74
    13
 42
0.000000001
 43
0.0000000001
 44
0.00000001
 40
0.0
 40
0.0
 40
0.0
 40
0.0
 40
0.1031164151942359
 40
0.2063392264180494
 40
0.6079921772239555
 40
1.009884113310981
 40
1.37937785364326
 40
1.749197732025649
 40
2.090362505508039
 40
2.43189584485415
 40
2.753353491799088
 40
3.075075890512383
 40
3.389522846439485
 40
3.703969802038722
 40
3.703969802038722
 40
3.703969802038722
 40
3.703969802038722
 10
442.6354729432881
 20
250.2497879120622
 30
0.0
 10
442.6056766041734
 20
250.26692509624
 30
0.0
 10
442.546053188967
 20
250.3012171589584
 30
0.0
 10
442.3724785044699
 20
250.4058517308921
 30
0.0
 10
442.1214679389154
 20
250.5748760711637
 30
0.0
 10
441.8158572913095
 20
250.8195966767906
 30
0.0
 10
441.541696209163
 20
251.0841152758377
 30
0.0
 10
441.3084057930874
 20
251.3593946603462
 30
0.0
 10
441.1114659730915
 20
251.6506482790107
 30
0.0
 10
440.9583418320391
 20
251.9492258507046
 30
0.0
 10
440.845535228886
 20
252.2585638039485
 30
0.0
 10
440.7795192521845
 20
252.5716852969596
 30
0.0
 10
440.7535401672246
 20
252.8890838752807
 30
0.0
 10
440.774844613795
 20
253.0980102055955
 30
0.0
 10
440.7854968441467
 20
253.2024733702126
 30
0.0
 11
442.6354729432881
 21
250.2497879120622
 31
0.0
 11
442.54626273822
 21
250.3015038076885
 31
0.0
 11
442.4578597893055
 21
250.3547942122123
 31
0.0
 11
442.1248045811823
 21
250.579292141905
 31
0.0
 11
441.8116652498975
 21
250.8312065872952
 31
0.0
 11
441.546266380728
 21
251.0882845227372
 31
0.0
 11
441.3077589791911
 21
251.3709167263816
 31
0.0
 11
441.1174377483376
 21
251.6540619761794
 31
0.0
 11
440.9619542490061
 21
251.9581506215034
 31
0.0
 11
440.852895103705
 21
252.2605429538013
 31
0.0
 11
440.785787413854
 21
252.5751885657238
 31
0.0
 11
440.7631629786489
 21
252.8888205552178
 31
0.0
 11
440.7854968441467
 21
253.2024733702126
 31
0.0
  0
ARC
  5
275
330
63
100
AcDbEntity
  8
1
  6
Continuous
 62
     7
100
AcDbCircle
 10
157.0106079661667
 20
256.7463575197761
 30
0.0
 40
1.000000000000161
100
AcDbArc
 50
74.66244233043868
 51
90.0
  0
ARC
  5
276
330
63
100
AcDbEntity
  8
1
  6
Continuous
 62
     7
100
AcDbCircle
 10
156.9525869044361
 20
258.7463575197762
 30
0.0
 40
0.9999999999999174
100
AcDbArc
 50
210.0000000000102
 51
270.0
  0
ARC
  5
277
330
63
100
AcDbEntity
  8
1
  6
Continuous
 62
     7
100
AcDbCircle
 10
155.2205360968673
 20
257.7463575197761
 30
0.0
 40
1.000000000000058
100
AcDbArc
 50
29.9999999999981
 51
42.9414028648882
  0
ARC
  5
278
330
63
100
AcDbEntity
  8
1
  6
Continuous
 62
     7
100
AcDbCircle
 10
155.2205360968673
 20
257.7463575197761
 30
0.0
 40
1.000000000000005
100
AcDbArc
 50
42.9414028648882
 51
90.0
  0
ARC
  5
279
330
63
100
AcDbEntity
  8
1
  6
Continuous
 62
     7
100
AcDbCircle
 10
135.6846377120049
 20
257.7463575197761
 30
0.0
 40
1.000000000000026
100
AcDbArc
 50
137.0585971351129
 51
149.9999999999962
  0
ARC
  5
27A
330
63
100
AcDbEntity
  8
1
  6
Continuous
 62
     7
100
AcDbCircle
 10
133.9525869044361
 20
258.7463575197762
 30
0.0
 40
1.000000000000114
100
AcDbArc
 50
270.0
 51
329.9999999999962
  0
ARC
  5
27B
330
63
100
AcDbEntity
  8
1
  6
Continuous
 62
     7
100
AcDbCircle
 10
135.6846377120049
 20
257.7463575197761
 30
0.0
 40
1.000000000000114
100
AcDbArc
 50
90.0
 51
137.0585971351129
  0
ARC
  5
27C
330
63
100
AcDbEntity
  8
1
  6
Continuous
 62
     7
100
AcDbCircle
 10
133.8945658427055
 20
256.7463575197761
 30
0.0
 40
1.0
100
AcDbArc
 50
90.0
 51
105.3375576695503
  0
ARC
  5
27D
330
63
100
AcDbEntity
  8
1
  6
Continuous
 62
     7
100
AcDbCircle
 10
443.4110116058984
 20
257.7463575197762
 30
0.0
 40
1.000000000000177
100
AcDbArc
 50
137.0585971351299
 51
150.0000000000044
  0
ARC
  5
27E
330
63
100
AcDbEntity
  8
1
  6
Continuous
 62
     7
100
AcDbCircle
 10
441.6789607983293
 20
258.7463575197762
 30
0.0
 40
1.0
100
AcDbArc
 50
270.0
 51
330.0000000000027
  0
ARC
  5
27F
330
63
100
AcDbEntity
  8
1
  6
Continuous
 62
     7
100
AcDbCircle
 10
443.4110116058984
 20
257.7463575197762
 30
0.0
 40
1.0
100
AcDbArc
 50
90.0
 51
137.0585971351299
  0
ARC
  5
280
330
63
100
AcDbEntity
  8
1
  6
Continuous
 62
     7
100
AcDbCircle
 10
441.6209397365986
 20
256.7463575197762
 30
0.0
 40
1.0
100
AcDbArc
 50
90.0
 51
105.3375576695386
  0
ARC
  5
281
330
63
100
AcDbEntity
  8
1
  6
Continuous
 62
     7
100
AcDbCircle
 10
462.9469099907605
 20
257.7463575197762
 30
0.0
 40
0.9999999999998851
100
AcDbArc
 50
30.0000000000038
 51
42.94140286488343
  0
ARC
  5
282
330
63
100
AcDbEntity
  8
1
  6
Continuous
 62
     7
100
AcDbCircle
 10
464.6789607983293
 20
258.7463575197762
 30
0.0
 40
1.000000000000033
100
AcDbArc
 50
209.9999999999989
 51
270.0
  0
ARC
  5
283
330
63
100
AcDbEntity
  8
1
  6
Continuous
 62
     7
100
AcDbCircle
 10
462.9469099907605
 20
257.7463575197762
 30
0.0
 40
0.9999999999999277
100
AcDbArc
 50
42.94140286488343
 51
90.0
  0
ARC
  5
284
330
63
100
AcDbEntity
  8
1
  6
Continuous
 62
     7
100
AcDbCircle
 10
464.7369818600599
 20
256.7463575197762
 30
0.0
 40
1.000000000000069
100
AcDbArc
 50
74.66244233044569
 51
90.0
  0
ENDBLK
  5
65
330
63
100
AcDbEntity
  8
0
100
AcDbBlockEnd
  0
BLOCK
  5
69
330
66
100
AcDbEntity
  8
0
100
AcDbBlockBegin
  2
61-1X-16-170
 70
     0
 10
129.9525869044362
 20
248.7463575197761
 30
0.0
  3
61-1X-16-170
  1

  0
INSERT
  5
67
330
66
100
AcDbEntity
  8
1
100
AcDbBlockReference
  2
61-1-16-170-M2K
 10
533.7928124846575
 20
345.1878188628179
 30
0.0
 41
1.0
 42
1.0
 43
1.0
  0
INSERT
  5
68
330
66
100
AcDbEntity
  8
0
100
AcDbBlockReference
  2
32-1-16
 10
44.23986501094462
 20
481.1338415503764
 30
0.0
 41
1.0
 42
1.0
 43
1.0
  0
ENDBLK
  5
6A
330
66
100
AcDbEntity
  8
0
100
AcDbBlockEnd
  0
BLOCK
  5
2A1
330
29A
100
AcDbEntity
  8
0
100
AcDbBlockBegin
  2
*D11
 70
     1
 10
0.0
 20
0.0
 30
0.0
  3
*D11
  1

  0
LINE
  5
29B
330
29A
100
AcDbEntity
  8
1
  6
Continuous
 62
     2
100
AcDbLine
 10
162.0128089941564
 20
160.7807672963221
 30
0.0
 11
219.4853956583557
 21
176.1805004799236
 31
0.0
  0
LINE
  5
29C
330
29A
100
AcDbEntity
  8
1
  6
Continuous
 62
     2
100
AcDbLine
 10
202.9251735686354
 20
237.9840907033778
 30
0.0
 11
220.132443271112
 21
173.765685914201
 31
0.0
  0
LINE
  5
29D
330
29A
100
AcDbEntity
  8
1
  6
Continuous
 62
     2
100
AcDbLine
 10
145.4525869044361
 20
222.5843575197764
 30
0.0
 11
162.6598566069128
 21
158.3659527305994
 31
0.0
  0
SOLID
  5
29E
330
29A
100
AcDbEntity
  8
1
 62
     2
100
AcDbTrace
 10
170.1665109542151
 20
164.1581412317266
 30
0.0
 11
170.7628089941564
 21
161.9327266502119
 31
0.0
 12
162.0128089941564
 22
160.7807672963221
 32
0.0
 13
162.0128089941564
 23
160.7807672963221
 33
0.0
  0
SOLID
  5
29F
330
29A
100
AcDbEntity
  8
1
 62
     2
100
AcDbTrace
 10
211.331693698297
 20
172.803126544519
 30
0.0
 11
210.7353956583557
 21
175.0285411260337
 31
0.0
 12
219.4853956583557
 22
176.1805004799236
 32
0.0
 13
219.4853956583557
 23
176.1805004799236
 33
0.0
  0
MTEXT
  5
2A0
330
29A
100
AcDbEntity
  8
1
 62
     7
100
AcDbMText
 10
167.2820570674206
 20
164.7808485132978
 30
0.0
 40
8.75
 41
0.0
 71
     7
 72
     1
  1
60リフト5
  7
CONVERTER_11
 11
0.9659258262890614
 21
0.2588190451025466
 31
0.0
 73
     1
 44
0.45454545454545
  0
ENDBLK
  5
2A2
330
29A
100
AcDbEntity
  8
0
100
AcDbBlockEnd
  0
BLOCK
  5
2AC
330
2A5
100
AcDbEntity
  8
0
100
AcDbBlockBegin
  2
*D12
 70
     1
 10
0.0
 20
0.0
 30
0.0
  3
*D12
  1

  0
LINE
  5
2A6
330
2A5
100
AcDbEntity
  8
1
  6
Continuous
 62
     2
100
AcDbLine
 10
249.5271613939189
 20
298.0843575197761
 30
0.0
 11
249.5271613939189
 21
187.5843575197763
 31
0.0
  0
LINE
  5
2A7
330
2A5
100
AcDbEntity
  8
1
  6
Continuous
 62
     2
100
AcDbLine
 10
433.1789607983293
 20
187.5843575197763
 30
0.0
 11
247.0271613939189
 21
187.5843575197763
 31
0.0
  0
LINE
  5
2A8
330
2A5
100
AcDbEntity
  8
1
  6
Continuous
 62
     2
100
AcDbLine
 10
308.1771613939188
 20
298.0843575197761
 30
0.0
 11
247.0271613939189
 21
298.0843575197761
 31
0.0
  0
SOLID
  5
2A9
330
2A5
100
AcDbEntity
  8
1
 62
     2
100
AcDbTrace
 10
250.6791207478086
 20
289.3343575197761
 30
0.0
 11
248.3752020400292
 21
289.3343575197761
 31
0.0
 12
249.5271613939189
 22
298.0843575197761
 32
0.0
 13
249.5271613939189
 23
298.0843575197761
 33
0.0
  0
SOLID
  5
2AA
330
2A5
100
AcDbEntity
  8
1
 62
     2
100
AcDbTrace
 10
248.3752020400292
 20
196.3343575197763
 30
0.0
 11
250.6791207478086
 21
196.3343575197763
 31
0.0
 12
249.5271613939189
 22
187.5843575197763
 32
0.0
 13
249.5271613939189
 23
187.5843575197763
 33
0.0
  0
MTEXT
  5
2AB
330
2A5
100
AcDbEntity
  8
1
 62
     7
100
AcDbMText
 10
247.0271613939189
 20
236.2718575197762
 30
0.0
 40
8.75
 41
0.0
 71
     7
 72
     1
  1
111
  7
CONVERTER_12
 11
0.0
 21
1.0
 31
0.0
 73
     1
 44
0.60024009603842
  0
ENDBLK
  5
2AD
330
2A5
100
AcDbEntity
  8
0
100
AcDbBlockEnd
  0
BLOCK
  5
2B7
330
2B0
100
AcDbEntity
  8
0
100
AcDbBlockBegin
  2
*D13
 70
     1
 10
0.0
 20
0.0
 30
0.0
  3
*D13
  1

  0
LINE
  5
2B1
330
2B0
100
AcDbEntity
  8
1
  6
Continuous
 62
     2
100
AcDbLine
 10
316.8271613939187
 20
257.0843575197761
 30
0.0
 11
316.8271613939187
 21
187.5843575197763
 31
0.0
  0
LINE
  5
2B2
330
2B0
100
AcDbEntity
  8
1
  6
Continuous
 62
     2
100
AcDbLine
 10
433.1789607983293
 20
187.5843575197763
 30
0.0
 11
314.3271613939187
 21
187.5843575197763
 31
0.0
  0
LINE
  5
2B3
330
2B0
100
AcDbEntity
  8
1
  6
Continuous
 62
     2
100
AcDbLine
 10
275.7907543879328
 20
257.0843575197761
 30
0.0
 11
319.3271613939187
 21
257.0843575197761
 31
0.0
  0
SOLID
  5
2B4
330
2B0
100
AcDbEntity
  8
1
 62
     2
100
AcDbTrace
 10
317.9791207478084
 20
248.3343575197761
 30
0.0
 11
315.675202040029
 21
248.3343575197761
 31
0.0
 12
316.8271613939187
 22
257.0843575197761
 32
0.0
 13
316.8271613939187
 23
257.0843575197761
 33
0.0
  0
SOLID
  5
2B5
330
2B0
100
AcDbEntity
  8
1
 62
     2
100
AcDbTrace
 10
315.675202040029
 20
196.3343575197763
 30
0.0
 11
317.9791207478084
 21
196.3343575197763
 31
0.0
 12
316.8271613939187
 22
187.5843575197763
 32
0.0
 13
316.8271613939187
 23
187.5843575197763
 33
0.0
  0
MTEXT
  5
2B6
330
2B0
100
AcDbEntity
  8
1
 62
     7
100
AcDbMText
 10
314.3271613939187
 20
215.7718575197762
 30
0.0
 40
8.75
 41
0.0
 71
     7
 72
     1
  1
70
  7
CONVERTER_12
 11
0.0
 21
1.0
 31
0.0
 73
     1
 44
0.60024009603842
  0
ENDBLK
  5
2B8
330
2B0
100
AcDbEntity
  8
0
100
AcDbBlockEnd
  0
BLOCK
  5
2C2
330
2BB
100
AcDbEntity
  8
0
100
AcDbBlockBegin
  2
*D14
 70
     1
 10
0.0
 20
0.0
 30
0.0
  3
*D14
  1

  0
LINE
  5
2BC
330
2BB
100
AcDbEntity
  8
1
  6
Continuous
 62
     2
100
AcDbLine
 10
453.1789607983293
 20
323.0843575197761
 30
0.0
 11
283.1771613939188
 21
323.0843575197761
 31
0.0
  0
LINE
  5
2BD
330
2BB
100
AcDbEntity
  8
1
  6
Continuous
 62
     2
100
AcDbLine
 10
283.1771613939188
 20
265.0843575197762
 30
0.0
 11
283.1771613939188
 21
325.5843575197761
 31
0.0
  0
LINE
  5
2BE
330
2BB
100
AcDbEntity
  8
1
  6
Continuous
 62
     2
100
AcDbLine
 10
453.1789607983293
 20
265.0843575197762
 30
0.0
 11
453.1789607983293
 21
325.5843575197761
 31
0.0
  0
SOLID
  5
2BF
330
2BB
100
AcDbEntity
  8
1
 62
     2
100
AcDbTrace
 10
444.4289607983293
 20
321.9323981658864
 30
0.0
 11
444.4289607983293
 21
324.2363168736658
 31
0.0
 12
453.1789607983293
 22
323.0843575197761
 32
0.0
 13
453.1789607983293
 23
323.0843575197761
 33
0.0
  0
SOLID
  5
2C0
330
2BB
100
AcDbEntity
  8
1
 62
     2
100
AcDbTrace
 10
291.9271613939188
 20
324.2363168736658
 30
0.0
 11
291.9271613939188
 21
321.9323981658864
 31
0.0
 12
283.1771613939188
 22
323.0843575197761
 32
0.0
 13
283.1771613939188
 23
323.0843575197761
 33
0.0
  0
MTEXT
  5
2C1
330
2BB
100
AcDbEntity
  8
1
 62
     7
100
AcDbMText
 10
358.9905610961241
 20
325.5843575197761
 30
0.0
 40
8.75
 41
0.0
 71
     7
 72
     1
  1
170
  7
CONVERTER_12
 11
0.9999999999970619
 21
2.424068405545306E-6
 31
0.0
 73
     1
 44
0.60024009603842
  0
ENDBLK
  5
2C3
330
2BB
100
AcDbEntity
  8
0
100
AcDbBlockEnd
  0
BLOCK
  5
2CD
330
2C6
100
AcDbEntity
  8
0
100
AcDbBlockBegin
  2
*D15
 70
     1
 10
0.0
 20
0.0
 30
0.0
  3
*D15
  1

  0
LINE
  5
2C7
330
2C6
100
AcDbEntity
  8
1
  6
Continuous
 62
     2
100
AcDbLine
 10
249.5271613939189
 20
172.5843575197765
 30
0.0
 11
249.5271613939189
 21
187.5843575197763
 31
0.0
  0
LINE
  5
2C8
330
2C6
100
AcDbEntity
  8
1
  6
Continuous
 62
     2
100
AcDbLine
 10
249.5271613939189
 20
157.5843575197765
 30
0.0
 11
249.5271613939189
 21
172.5843575197765
 31
0.0
  0
LINE
  5
2C9
330
2C6
100
AcDbEntity
  8
1
  6
Continuous
 62
     2
100
AcDbLine
 10
433.1789607983293
 20
187.5843575197763
 30
0.0
 11
247.0271613939189
 21
187.5843575197763
 31
0.0
  0
LINE
  5
2CA
330
2C6
100
AcDbEntity
  8
1
  6
Continuous
 62
     2
100
AcDbLine
 10
443.8634607983295
 20
172.5843575197765
 30
0.0
 11
247.0271613939189
 21
172.5843575197765
 31
0.0
  0
SOLID
  5
2CB
330
2C6
100
AcDbEntity
  8
1
 62
     2
100
AcDbTrace
 10
250.5145551258244
 20
165.0843575197765
 30
0.0
 11
248.5397676620134
 21
165.0843575197765
 31
0.0
 12
249.5271613939189
 22
172.5843575197765
 32
0.0
 13
249.5271613939189
 23
172.5843575197765
 33
0.0
  0
MTEXT
  5
2CC
330
2C6
100
AcDbEntity
  8
1
 62
     7
100
AcDbMText
 10
247.0271613939189
 20
174.8343575197764
 30
0.0
 40
8.75
 41
0.0
 71
     7
 72
     1
  1
15
  7
CONVERTER_12
 11
0.0
 21
1.0
 31
0.0
 73
     1
 44
0.60024009603842
  0
ENDBLK
  5
2CE
330
2C6
100
AcDbEntity
  8
0
100
AcDbBlockEnd
  0
BLOCK
  5
2D0
330
2CF
100
AcDbEntity
  8
0
100
AcDbBlockBegin
  2
_NONE
 70
     0
 10
0.0
 20
0.0
 30
0.0
  3
_NONE
  1

  0
ENDBLK
  5
2D1
330
2CF
100
AcDbEntity
  8
0
100
AcDbBlockEnd
  0
BLOCK
  5
2DC
330
2D4
100
AcDbEntity
  8
0
100
AcDbBlockBegin
  2
*D17
 70
     1
 10
0.0
 20
0.0
 30
0.0
  3
*D17
  1

  0
LINE
  5
2D5
330
2D4
100
AcDbEntity
  8
0
  6
Continuous
 62
     2
100
AcDbLine
 10
394.5789229332451
 20
207.125028619442
 30
0.0
 11
420.1828571690444
 21
207.125028619442
 31
0.0
  0
LINE
  5
2D6
330
2D4
100
AcDbEntity
  8
0
  6
Continuous
 62
     2
100
AcDbLine
 10
420.1828571690444
 20
207.125028619442
 30
0.0
 11
460.1828571690444
 21
207.125028619442
 31
0.0
  0
LINE
  5
2D7
330
2D4
100
AcDbEntity
  8
0
  6
Continuous
 62
     2
100
AcDbLine
 10
473.1789607983293
 20
194.1289249901571
 30
0.0
 11
458.4150902160781
 21
208.8927955724084
 31
0.0
  0
LINE
  5
2D8
330
2D4
100
AcDbEntity
  8
0
  6
Continuous
 62
     2
100
AcDbLine
 10
433.1789607983293
 20
194.1289249901571
 30
0.0
 11
418.4150902160781
 21
208.8927955724084
 31
0.0
  0
SOLID
  5
2D9
330
2D4
100
AcDbEntity
  8
0
 62
     2
100
AcDbTrace
 10
428.9328571690444
 20
208.2769879733317
 30
0.0
 11
428.9328571690444
 21
205.9730692655523
 31
0.0
 12
420.1828571690444
 22
207.125028619442
 32
0.0
 13
420.1828571690444
 23
207.125028619442
 33
0.0
  0
SOLID
  5
2DA
330
2D4
100
AcDbEntity
  8
0
 62
     2
100
AcDbTrace
 10
451.4328571690444
 20
205.9730692655523
 30
0.0
 11
451.4328571690444
 21
208.2769879733317
 31
0.0
 12
460.1828571690444
 22
207.125028619442
 32
0.0
 13
460.1828571690444
 23
207.125028619442
 33
0.0
  0
MTEXT
  5
2DB
330
2D4
100
AcDbEntity
  8
0
 62
     7
100
AcDbMText
 10
397.9039229332662
 20
209.6250112267512
 30
0.0
 40
8.75
 41
0.0
 71
     7
 72
     1
  1
\C7;{\Fgdt;n}\C7;40
  7
CONVERTER_12
 11
0.9999999999970619
 21
2.424068405545306E-6
 31
0.0
 73
     1
 44
0.60024009603842
  0
ENDBLK
  5
2DD
330
2D4
100
AcDbEntity
  8
0
100
AcDbBlockEnd
  0
ENDSEC
  0
SECTION
  2
ENTITIES
  0
INSERT
  5
6B
330
1F
100
AcDbEntity
  8
0
100
AcDbBlockReference
  2
A501-0-13
 10
-169.5474130955639
 20
152.5843575197764
 30
0.0
 41
1.0
 42
1.0
 43
1.0
  0
INSERT
  5
6C
330
1F
100
AcDbEntity
  8
1
100
AcDbBlockReference
  2
開示A4
 10
0.0
 20
0.0
 30
0.0
 41
2.5
 42
2.5
 43
2.5
  0
INSERT
  5
6D
330
1F
100
AcDbEntity
  8
1
100
AcDbBlockReference
  2
R10A-13-B
 10
168.5646843550841
 20
204.3430992115708
 30
0.0
 41
1.0
 42
1.0
 43
1.0
  0
INSERT
  5
6E
330
1F
100
AcDbEntity
  8
1
100
AcDbBlockReference
  2
61-1X-16-170
 10
129.9525869044362
 20
248.7463575197761
 30
0.0
 41
1.0
 42
1.0
 43
1.0
  0
LINE
  5
285
330
1F
100
AcDbEntity
  8
1
  6
DASH_CENTER
 62
     2
100
AcDbLine
 10
145.4525869044361
 20
222.5843575197765
 30
0.0
 11
210.1696172658032
 21
239.9252335416471
 31
0.0
  0
LINE
  5
286
330
1F
100
AcDbEntity
  8
1
  6
DASH_CENTER
 62
     2
100
AcDbLine
 10
129.3025869044364
 20
424.8210148193809
 30
0.0
 11
161.6025869044362
 21
424.8210148193809
 31
0.0
  0
LINE
  5
287
330
1F
100
AcDbEntity
  8
1
  6
DASH_CENTER
 62
     2
100
AcDbLine
 10
283.1771613939187
 20
250.0493279339771
 30
0.0
 11
283.1771613939188
 21
265.0843575197762
 31
0.0
  0
LINE
  5
288
330
1F
100
AcDbEntity
  8
1
  6
DASH_CENTER
 62
     2
100
AcDbLine
 10
428.1789607983296
 20
290.0843575197761
 30
0.0
 11
308.1771613939188
 21
290.0843575197761
 31
0.0
  0
LINE
  5
289
330
1F
100
AcDbEntity
  8
1
  6
DASH_CENTER
 62
     2
100
AcDbLine
 10
145.452586904436
 20
165.0843575197764
 30
0.0
 11
145.4525869044363
 21
305.5843575197758
 31
0.0
  0
LINE
  5
28A
330
1F
100
AcDbEntity
  8
1
  6
DASH_CENTER
 62
     2
100
AcDbLine
 10
453.1789607983293
 20
265.0843575197762
 30
0.0
 11
453.1789607983293
 21
165.0843575197764
 31
0.0
  0
LINE
  5
28B
330
1F
100
AcDbEntity
  8
1
  6
DASH_CENTER
 62
     2
100
AcDbLine
 10
118.4910087327079
 20
594.8228142237917
 30
0.0
 11
212.4910087327079
 21
594.8228142237917
 31
0.0
  0
LINE
  5
28C
330
1F
100
AcDbEntity
  8
1
  6
DASH_CENTER
 62
     2
100
AcDbLine
 10
142.5548094255689
 20
221.8079003844688
 30
0.0
 11
145.4525869044361
 21
222.5843575197765
 31
0.0
  0
LINE
  5
28D
330
1F
100
AcDbEntity
  8
1
  6
DASH_CENTER
 62
     2
100
AcDbLine
 10
426.2384893000952
 20
237.3370430906216
 30
0.0
 11
482.17896079833
 21
237.3370430906212
 31
0.0
  0
LINE
  5
28E
330
1F
100
AcDbEntity
  8
1
  6
DASH_CENTER
 62
     2
100
AcDbLine
 10
145.4525869044363
 20
408.6728142237917
 30
0.0
 11
145.4525869044363
 21
622.3228142237917
 31
0.0
  0
ARC
  5
28F
330
1F
100
AcDbEntity
  8
1
  6
DASH_CENTER
 62
     2
100
AcDbCircle
 10
428.1789607983295
 20
265.0843575197762
 30
0.0
 40
24.99999999999977
100
AcDbArc
 50
0.0
 51
89.99999999999974
  0
ARC
  5
290
330
1F
100
AcDbEntity
  8
1
  6
DASH_CENTER
 62
     2
100
AcDbCircle
 10
308.1771613939188
 20
265.0843575197762
 30
0.0
 40
24.99999999999994
100
AcDbArc
 50
90.0
 51
180.0
  0
SOLID
  5
291
330
1F
100
AcDbEntity
  8
1
 62
     2
100
AcDbTrace
 10
131.5977129690317
 20
172.5116555597177
 30
0.0
 11
129.6024608398405
 21
173.6636149136074
 31
0.0
 12
134.9750869044361
 22
180.6653575197764
 32
0.0
 13
134.9750869044361
 23
180.6653575197764
 33
0.0
  0
LEADER
  5
292
330
1F
100
AcDbEntity
  8
1
  6
Continuous
 62
     2
100
AcDbLeader
  3
Standard
 71
     0
 76
     3
 10
134.9750869044361
 20
180.6653575197764
 30
0.0
 10
119.9205001669586
 20
154.5900484035128
 30
0.0
 10
87.0635385926043
 20
154.5900484035128
 30
0.0
  0
MTEXT
  5
294
330
1F
100
AcDbEntity
  8
1
 62
     7
100
AcDbMText
 10
234.3750000000003
 20
42.50000000000014
 30
0.0
 40
8.75
 41
0.0
 71
     5
 72
     1
  1
2,5
  7
CONVERTER_12
 73
     1
 44
0.7202881152461
  0
MTEXT
  5
295
330
1F
100
AcDbEntity
  8
1
 62
     7
100
AcDbMText
 10
213.1250000000002
 20
42.50000000000014
 30
0.0
 40
8.75
 41
0.0
 71
     5
 72
     1
  1
1
  7
CONVERTER_12
 73
     1
 44
0.7202881152461
  0
MTEXT
  5
296
330
1F
100
AcDbEntity
  8
0
 62
     7
100
AcDbMText
 10
142.5000000000003
 20
35.62500000000014
 30
0.0
 40
8.75
 41
0.0
 71
     5
 72
     1
  1
A501-13
  7
CONVERTER_12
 73
     1
 44
1.32052821128451
  0
MTEXT
  5
297
330
1F
100
AcDbEntity
  8
0
 62
     7
100
AcDbMText
 10
142.5000000000003
 20
56.87500000000014
 30
0.0
 40
8.75
 41
0.0
 71
     5
 72
     1
  1
立形自在水栓
  7
CONVERTER_11
 73
     1
 44
1.0
  0
MTEXT
  5
298
330
1F
100
AcDbEntity
  8
1
 62
     7
100
AcDbMText
 10
84.99999999999994
 20
85.00000000000003
 30
0.0
 40
8.75
 41
0.0
 71
     4
 72
     1
  1
JIS
  7
CONVERTER_12
 73
     1
 44
0.7202881152461
  0
MTEXT
  5
299
330
1F
100
AcDbEntity
  8
1
 62
     7
100
AcDbMText
 10
103.4920193797815
 20
162.090048403513
 30
0.0
 40
8.75
 41
0.0
 71
     5
 72
     1
  1
PJ1/2
  7
CONVERTER_12
 73
     1
 44
1.32052821128451
  0
DIMENSION
  5
2A4
330
1F
100
AcDbEntity
  8
1
100
AcDbDimension
  2
*D11
 10
162.0128089941564
 20
160.7807672963221
 30
0.0
 11
188.969721391176
 21
175.1213739438601
 31
0.0
 70
    32
  1
60リフト5
 71
     5
 42
-1.0
 53
15.00000000000152
  3
ME10_DIM_10
100
AcDbAlignedDimension
 13
202.9251735686353
 23
237.9840907033777
 33
0.0
 14
145.4525869044361
 24
222.5843575197765
 34
0.0
 50
15.00000000000152
100
AcDbRotatedDimension
  0
DIMENSION
  5
2AF
330
1F
100
AcDbEntity
  8
1
100
AcDbDimension
  2
*D12
 10
249.5271613939189
 20
298.0843575197761
 30
0.0
 11
242.6521613939189
 21
242.8343575197762
 31
0.0
 70
    32
  1
111
 71
     5
 42
-1.0
 53
90.0
  3
ME10_DIM_11
100
AcDbAlignedDimension
 13
433.1789607983292
 23
187.5843575197763
 33
0.0
 14
308.1771613939187
 24
298.084357519776
 34
0.0
 50
90.0
100
AcDbRotatedDimension
  0
DIMENSION
  5
2BA
330
1F
100
AcDbEntity
  8
1
100
AcDbDimension
  2
*D13
 10
316.8271613939187
 20
257.0843575197761
 30
0.0
 11
309.9521613939187
 21
222.3343575197762
 31
0.0
 70
    32
  1
70
 71
     5
 42
-1.0
 53
90.0
  3
ME10_DIM_12
100
AcDbAlignedDimension
 13
433.1789607983292
 23
187.5843575197763
 33
0.0
 14
275.7907543879327
 24
257.0843575197761
 34
0.0
 50
90.0
100
AcDbRotatedDimension
  0
DIMENSION
  5
2C5
330
1F
100
AcDbEntity
  8
1
100
AcDbDimension
  2
*D14
 10
453.1789607983293
 20
323.0843575197761
 30
0.0
 11
368.1780610961241
 21
329.9593575197761
 31
0.0
 70
    32
  1
<>
 71
     5
 42
-1.0
 53
0.00013888888889
  3
ME10_DIM_13
100
AcDbAlignedDimension
 13
283.1771613939188
 23
265.0843575197761
 33
0.0
 14
453.1789607983292
 24
265.0843575197761
 34
0.0
100
AcDbRotatedDimension
  0
DIMENSION
  5
2D3
330
1F
100
AcDbEntity
  8
1
100
AcDbDimension
  2
*D15
 10
249.5271613939189
 20
172.5843575197765
 30
0.0
 11
242.6521613939189
 21
180.0843575197764
 31
0.0
 70
    32
  1
<>
 71
     5
 42
-1.0
 53
90.0
  3
ME10_DIM_14
100
AcDbAlignedDimension
 13
433.1789607983292
 23
187.5843575197763
 33
0.0
 14
443.8634607983293
 24
172.5843575197764
 34
0.0
 50
90.0
100
AcDbRotatedDimension
  0
DIMENSION
  5
2DF
330
1F
100
AcDbEntity
  8
0
100
AcDbDimension
  2
*D17
 10
420.1828571690444
 20
207.125028619442
 30
0.0
 11
406.3914229332451
 21
214.000028619442
 31
0.0
 70
    33
  1
<>
 71
     5
 42
-1.0
 52
135.0
 53
0.00013888888889
  3
ME10_DIM_15
100
AcDbAlignedDimension
 13
473.1789607983292
 23
194.1289249901571
 33
0.0
 14
433.1789607983292
 24
194.1289249901571
 34
0.0
  0
ENDSEC
  0
SECTION
  2
OBJECTS
  0
DICTIONARY
  5
C
330
0
100
AcDbDictionary
281
     1
  3
ACAD_GROUP
350
D
  3
ACAD_LAYOUT
350
1A
  3
ACAD_MATERIAL
350
3B
  3
ACAD_MLEADERSTYLE
350
2E2
  3
ACAD_MLINESTYLE
350
17
  3
ACAD_PLOTSETTINGS
350
19
  3
ACAD_PLOTSTYLENAME
350
E
  3
ACAD_VISUALSTYLE
350
2A
  3
AcDbVariableDictionary
350
2E0
  0
DICTIONARY
  5
D
102
{ACAD_REACTORS
330
C
102
}
330
C
100
AcDbDictionary
281
     1
  0
DICTIONARY
  5
1A
102
{ACAD_REACTORS
330
C
102
}
330
C
100
AcDbDictionary
281
     1
  3
Layout1
350
1E
  3
Layout2
350
26
  3
Model
350
22
  0
DICTIONARY
  5
3B
102
{ACAD_REACTORS
330
C
102
}
330
C
100
AcDbDictionary
281
     1
  3
ByBlock
350
3D
  3
ByLayer
350
3C
  3
Global
350
3E
  0
DICTIONARY
  5
2E2
102
{ACAD_REACTORS
330
C
102
}
330
C
100
AcDbDictionary
281
     1
  0
DICTIONARY
  5
17
102
{ACAD_REACTORS
330
C
102
}
330
C
100
AcDbDictionary
281
     1
  3
Standard
350
18
  0
DICTIONARY
  5
19
102
{ACAD_REACTORS
330
C
102
}
330
C
100
AcDbDictionary
281
     1
  0
ACDBDICTIONARYWDFLT
  5
E
102
{ACAD_REACTORS
330
C
102
}
330
C
100
AcDbDictionary
281
     1
  3
Normal
350
F
100
AcDbDictionaryWithDefault
340
F
  0
DICTIONARY
  5
2A
102
{ACAD_REACTORS
330
C
102
}
330
C
100
AcDbDictionary
281
     1
  3
2dWireframe
350
2F
  3
3D Hidden
350
31
  3
3dWireframe
350
30
  3
Basic
350
32
  3
Brighten
350
36
  3
ColorChange
350
3A
  3
Conceptual
350
34
  3
Dim
350
35
  3
Facepattern
350
39
  3
Flat
350
2B
  3
FlatWithEdges
350
2C
  3
Gouraud
350
2D
  3
GouraudWithEdges
350
2E
  3
Linepattern
350
38
  3
Realistic
350
33
  3
Thicken
350
37
  0
DICTIONARY
  5
2E0
102
{ACAD_REACTORS
330
C
102
}
330
C
100
AcDbDictionary
281
     1
  3
DIMASSOC
350
2E3
  3
HIDETEXT
350
2E4
  0
LAYOUT
  5
1E
102
{ACAD_REACTORS
330
1A
102
}
330
1A
100
AcDbPlotSettings
  1

  2
none_device
  4

  6

 40
0.0
 41
0.0
 42
0.0
 43
0.0
 44
0.0
 45
0.0
 46
0.0
 47
0.0
 48
0.0
 49
0.0
140
0.0
141
0.0
142
1.0
143
1.0
 70
   688
 72
     0
 73
     0
 74
     5
  7

 75
    16
147
1.0
148
0.0
149
0.0
100
AcDbLayout
  1
Layout1
 70
     1
 71
     1
 10
0.0
 20
0.0
 11
12.0
 21
9.0
 12
0.0
 22
0.0
 32
0.0
 14
1.00000000000000E+20
 24
1.00000000000000E+20
 34
1.00000000000000E+20
 15
-1.00000000000000E+20
 25
-1.00000000000000E+20
 35
-1.00000000000000E+20
146
0.0
 13
0.0
 23
0.0
 33
0.0
 16
1.0
 26
0.0
 36
0.0
 17
0.0
 27
1.0
 37
0.0
 76
     0
330
1B
  0
LAYOUT
  5
26
102
{ACAD_REACTORS
330
1A
102
}
330
1A
100
AcDbPlotSettings
  1

  2
none_device
  4

  6

 40
0.0
 41
0.0
 42
0.0
 43
0.0
 44
0.0
 45
0.0
 46
0.0
 47
0.0
 48
0.0
 49
0.0
140
0.0
141
0.0
142
1.0
143
1.0
 70
   688
 72
     0
 73
     0
 74
     5
  7

 75
    16
147
1.0
148
0.0
149
0.0
100
AcDbLayout
  1
Layout2
 70
     1
 71
     2
 10
0.0
 20
0.0
 11
0.0
 21
0.0
 12
0.0
 22
0.0
 32
0.0
 14
0.0
 24
0.0
 34
0.0
 15
0.0
 25
0.0
 35
0.0
146
0.0
 13
0.0
 23
0.0
 33
0.0
 16
1.0
 26
0.0
 36
0.0
 17
0.0
 27
1.0
 37
0.0
 76
     0
330
23
  0
LAYOUT
  5
22
102
{ACAD_REACTORS
330
1A
102
}
330
1A
100
AcDbPlotSettings
  1

  2
none_device
  4

  6

 40
0.0
 41
0.0
 42
0.0
 43
0.0
 44
0.0
 45
0.0
 46
0.0
 47
0.0
 48
0.0
 49
0.0
140
0.0
141
0.0
142
1.0
143
1.0
 70
  1712
 72
     0
 73
     0
 74
     0
  7

 75
     0
147
1.0
148
0.0
149
0.0
100
AcDbLayout
  1
Model
 70
     1
 71
     0
 10
0.0
 20
0.0
 11
12.0
 21
9.0
 12
0.0
 22
0.0
 32
0.0
 14
0.0
 24
0.0
 34
0.0
 15
525.0
 25
742.5
 35
0.0
146
0.0
 13
0.0
 23
0.0
 33
0.0
 16
1.0
 26
0.0
 36
0.0
 17
0.0
 27
1.0
 37
0.0
 76
     0
330
1F
331
29
  0
MATERIAL
  5
3D
102
{ACAD_REACTORS
330
3B
102
}
102
{ACAD_XDICTIONARY
360
307
102
}
330
3B
100
AcDbMaterial
  1
ByBlock
  0
MATERIAL
  5
3C
102
{ACAD_REACTORS
330
3B
102
}
102
{ACAD_XDICTIONARY
360
305
102
}
330
3B
100
AcDbMaterial
  1
ByLayer
  0
MATERIAL
  5
3E
102
{ACAD_REACTORS
330
3B
102
}
102
{ACAD_XDICTIONARY
360
309
102
}
330
3B
100
AcDbMaterial
  1
Global
  0
MLINESTYLE
  5
18
102
{ACAD_REACTORS
330
17
102
}
330
17
100
AcDbMlineStyle
  2
Standard
 70
     0
  3

 62
   256
 51
90.0
 52
90.0
 71
     2
 49
0.5
 62
   256
  6
BYLAYER
 49
-0.5
 62
   256
  6
BYLAYER
  0
ACDBPLACEHOLDER
  5
F
102
{ACAD_REACTORS
330
E
102
}
330
E
  0
VISUALSTYLE
  5
2F
102
{ACAD_REACTORS
330
2A
102
}
102
{ACAD_XDICTIONARY
360
2ED
102
}
330
2A
100
AcDbVisualStyle
  2
2dWireframe
 70
     4
 71
     0
 72
     2
 73
     0
 90
        0
 40
-0.6
 41
-30.0
 62
     5
 63
     7
 74
     1
 91
        4
 64
     7
 65
   257
 75
     1
175
     1
 42
1.0
 92
        0
 66
   257
 43
1.0
 76
     1
 77
     6
 78
     2
 67
     7
 79
     5
170
     0
171
     0
290
     0
174
     0
 93
        1
 44
0.0
173
     0
291
     0
 45
0.0
1001
ACAD
1000
AcDbSavedByObjectVersion
1070
     0
  0
VISUALSTYLE
  5
31
102
{ACAD_REACTORS
330
2A
102
}
102
{ACAD_XDICTIONARY
360
2F1
102
}
330
2A
100
AcDbVisualStyle
  2
3D Hidden
 70
     6
 71
     1
 72
     2
 73
     2
 90
        0
 40
-0.6
 41
-30.0
 62
     5
 63
     7
 74
     2
 91
        2
 64
     7
 65
   257
 75
     2
175
     1
 42
40.0
 92
        0
 66
   257
 43
1.0
 76
     1
 77
     6
 78
     2
 67
     7
 79
     3
170
     0
171
     0
290
     0
174
     0
 93
        1
 44
0.0
173
     0
291
     0
 45
0.0
1001
ACAD
1000
AcDbSavedByObjectVersion
1070
     0
  0
VISUALSTYLE
  5
30
102
{ACAD_REACTORS
330
2A
102
}
102
{ACAD_XDICTIONARY
360
2EF
102
}
330
2A
100
AcDbVisualStyle
  2
3dWireframe
 70
     5
 71
     0
 72
     2
 73
     0
 90
        0
 40
-0.6
 41
-30.0
 62
     5
 63
     7
 74
     1
 91
        4
 64
     7
 65
   257
 75
     1
175
     1
 42
1.0
 92
        0
 66
   257
 43
1.0
 76
     1
 77
     6
 78
     2
 67
     7
 79
     5
170
     0
171
     0
290
     0
174
     0
 93
        1
 44
0.0
173
     0
291
     0
 45
0.0
1001
ACAD
1000
AcDbSavedByObjectVersion
1070
     0
  0
VISUALSTYLE
  5
32
102
{ACAD_REACTORS
330
2A
102
}
102
{ACAD_XDICTIONARY
360
2F3
102
}
330
2A
100
AcDbVisualStyle
  2
Basic
 70
     7
 71
     1
 72
     0
 73
     1
 90
        0
 40
-0.6
 41
-30.0
 62
     5
 63
     7
 74
     0
 91
        4
 64
     7
 65
   257
 75
     1
175
     1
 42
1.0
 92
        8
 66
     7
 43
1.0
 76
     1
 77
     6
 78
     2
 67
     7
 79
     5
170
     0
171
     0
290
     0
174
     0
 93
        1
 44
0.0
173
     0
291
     1
 45
0.0
1001
ACAD
1000
AcDbSavedByObjectVersion
1070
     0
  0
VISUALSTYLE
  5
36
102
{ACAD_REACTORS
330
2A
102
}
102
{ACAD_XDICTIONARY
360
2FB
102
}
330
2A
100
AcDbVisualStyle
  2
Brighten
 70
    12
 71
     2
 72
     2
 73
     0
 90
        0
 40
-0.6
 41
-30.0
 62
     5
 63
     7
 74
     1
 91
        4
 64
     7
 65
   257
 75
     1
175
     1
 42
1.0
 92
        8
 66
     7
 43
1.0
 76
     1
 77
     6
 78
     2
 67
     7
 79
     5
170
     0
171
     0
290
     0
174
     0
 93
        1
 44
50.0
173
     0
291
     1
 45
0.0
1001
ACAD
1000
AcDbSavedByObjectVersion
1070
     0
  0
VISUALSTYLE
  5
3A
102
{ACAD_REACTORS
330
2A
102
}
102
{ACAD_XDICTIONARY
360
303
102
}
330
2A
100
AcDbVisualStyle
  2
ColorChange
 70
    16
 71
     2
 72
     2
 73
     3
 90
        0
 40
-0.6
 41
-30.0
 62
     5
 63
     8
 74
     1
 91
        4
 64
     7
 65
   257
 75
     1
175
     1
 42
1.0
 92
        8
 66
     8
 43
1.0
 76
     1
 77
     6
 78
     2
 67
     7
 79
     5
170
     0
171
     0
290
     0
174
     0
 93
        1
 44
0.0
173
     0
291
     1
 45
0.0
1001
ACAD
1000
AcDbSavedByObjectVersion
1070
     0
  0
VISUALSTYLE
  5
34
102
{ACAD_REACTORS
330
2A
102
}
102
{ACAD_XDICTIONARY
360
2F7
102
}
330
2A
100
AcDbVisualStyle
  2
Conceptual
 70
     9
 71
     3
 72
     2
 73
     0
 90
        0
 40
-0.6
 41
-30.0
 62
     5
 63
     7
 74
     2
 91
        2
 64
     7
 65
   257
 75
     1
175
     1
 42
40.0
 92
        8
 66
     7
 43
1.0
 76
     1
 77
     6
 78
     2
 67
     7
 79
     3
170
     0
171
     0
290
     0
174
     0
 93
        1
 44
0.0
173
     0
291
     0
 45
0.0
1001
ACAD
1000
AcDbSavedByObjectVersion
1070
     0
  0
VISUALSTYLE
  5
35
102
{ACAD_REACTORS
330
2A
102
}
102
{ACAD_XDICTIONARY
360
2F9
102
}
330
2A
100
AcDbVisualStyle
  2
Dim
 70
    11
 71
     2
 72
     2
 73
     0
 90
        0
 40
-0.6
 41
-30.0
 62
     5
 63
     7
 74
     1
 91
        4
 64
     7
 65
   257
 75
     1
175
     1
 42
1.0
 92
        8
 66
     7
 43
1.0
 76
     1
 77
     6
 78
     2
 67
     7
 79
     5
170
     0
171
     0
290
     0
174
     0
 93
        1
 44
-50.0
173
     0
291
     1
 45
0.0
1001
ACAD
1000
AcDbSavedByObjectVersion
1070
     0
  0
VISUALSTYLE
  5
39
102
{ACAD_REACTORS
330
2A
102
}
102
{ACAD_XDICTIONARY
360
301
102
}
330
2A
100
AcDbVisualStyle
  2
Facepattern
 70
    15
 71
     2
 72
     2
 73
     0
 90
        0
 40
-0.6
 41
-30.0
 62
     5
 63
     7
 74
     1
 91
        4
 64
     7
 65
   257
 75
     1
175
     1
 42
1.0
 92
        8
 66
     7
 43
1.0
 76
     1
 77
     6
 78
     2
 67
     7
 79
     5
170
     0
171
     0
290
     0
174
     0
 93
        1
 44
0.0
173
     0
291
     1
 45
0.0
1001
ACAD
1000
AcDbSavedByObjectVersion
1070
     0
  0
VISUALSTYLE
  5
2B
102
{ACAD_REACTORS
330
2A
102
}
102
{ACAD_XDICTIONARY
360
2E5
102
}
330
2A
100
AcDbVisualStyle
  2
Flat
 70
     0
 71
     2
 72
     1
 73
     1
 90
        2
 40
-0.6
 41
30.0
 62
     5
 63
     7
 74
     0
 91
        4
 64
     7
 65
   257
 75
     1
175
     1
 42
1.0
 92
        8
 66
     7
 43
1.0
 76
     1
 77
     6
 78
     2
 67
     7
 79
     5
170
     0
171
     0
290
     0
174
     0
 93
       13
 44
0.0
173
     0
291
     1
 45
0.0
1001
ACAD
1000
AcDbSavedByObjectVersion
1070
     0
  0
VISUALSTYLE
  5
2C
102
{ACAD_REACTORS
330
2A
102
}
102
{ACAD_XDICTIONARY
360
2E7
102
}
330
2A
100
AcDbVisualStyle
  2
FlatWithEdges
 70
     1
 71
     2
 72
     1
 73
     1
 90
        2
 40
-0.6
 41
30.0
 62
     5
 63
     7
 74
     1
 91
        4
 64
     7
 65
   257
 75
     1
175
     1
 42
1.0
 92
        0
 66
   257
 43
1.0
 76
     1
 77
     6
 78
     2
 67
     7
 79
     5
170
     0
171
     0
290
     0
174
     0
 93
       13
 44
0.0
173
     0
291
     1
 45
0.0
1001
ACAD
1000
AcDbSavedByObjectVersion
1070
     0
  0
VISUALSTYLE
  5
2D
102
{ACAD_REACTORS
330
2A
102
}
102
{ACAD_XDICTIONARY
360
2E9
102
}
330
2A
100
AcDbVisualStyle
  2
Gouraud
 70
     2
 71
     2
 72
     2
 73
     1
 90
        2
 40
-0.6
 41
30.0
 62
     5
 63
     7
 74
     0
 91
        4
 64
     7
 65
   257
 75
     1
175
     1
 42
1.0
 92
        0
 66
     7
 43
1.0
 76
     1
 77
     6
 78
     2
 67
     7
 79
     5
170
     0
171
     0
290
     0
174
     0
 93
       13
 44
0.0
173
     0
291
     1
 45
0.0
1001
ACAD
1000
AcDbSavedByObjectVersion
1070
     0
  0
VISUALSTYLE
  5
2E
102
{ACAD_REACTORS
330
2A
102
}
102
{ACAD_XDICTIONARY
360
2EB
102
}
330
2A
100
AcDbVisualStyle
  2
GouraudWithEdges
 70
     3
 71
     2
 72
     2
 73
     1
 90
        2
 40
-0.6
 41
30.0
 62
     5
 63
     7
 74
     1
 91
        4
 64
     7
 65
   257
 75
     1
175
     1
 42
1.0
 92
        0
 66
   257
 43
1.0
 76
     1
 77
     6
 78
     2
 67
     7
 79
     5
170
     0
171
     0
290
     0
174
     0
 93
       13
 44
0.0
173
     0
291
     1
 45
0.0
1001
ACAD
1000
AcDbSavedByObjectVersion
1070
     0
  0
VISUALSTYLE
  5
38
102
{ACAD_REACTORS
330
2A
102
}
102
{ACAD_XDICTIONARY
360
2FF
102
}
330
2A
100
AcDbVisualStyle
  2
Linepattern
 70
    14
 71
     2
 72
     2
 73
     0
 90
        0
 40
-0.6
 41
-30.0
 62
     5
 63
     7
 74
     1
 91
        4
 64
     7
 65
   257
 75
     7
175
     7
 42
1.0
 92
        8
 66
     7
 43
1.0
 76
     1
 77
     6
 78
     2
 67
     7
 79
     5
170
     0
171
     0
290
     0
174
     0
 93
        1
 44
0.0
173
     0
291
     1
 45
0.0
1001
ACAD
1000
AcDbSavedByObjectVersion
1070
     0
  0
VISUALSTYLE
  5
33
102
{ACAD_REACTORS
330
2A
102
}
102
{ACAD_XDICTIONARY
360
2F5
102
}
330
2A
100
AcDbVisualStyle
  2
Realistic
 70
     8
 71
     2
 72
     2
 73
     0
 90
        0
 40
-0.6
 41
-30.0
 62
     5
 63
     7
 74
     1
 91
        0
 64
     7
 65
   257
 75
     1
175
     1
 42
1.0
 92
        8
 66
     8
 43
1.0
 76
     1
 77
     6
 78
     2
 67
     7
 79
     5
170
     0
171
     0
290
     0
174
     0
 93
       13
 44
0.0
173
     0
291
     0
 45
0.0
1001
ACAD
1000
AcDbSavedByObjectVersion
1070
     0
  0
VISUALSTYLE
  5
37
102
{ACAD_REACTORS
330
2A
102
}
102
{ACAD_XDICTIONARY
360
2FD
102
}
330
2A
100
AcDbVisualStyle
  2
Thicken
 70
    13
 71
     2
 72
     2
 73
     0
 90
        0
 40
-0.6
 41
-30.0
 62
     5
 63
     7
 74
     1
 91
        4
 64
     7
 65
   257
 75
     1
175
     1
 42
1.0
 92
       12
 66
     7
 43
1.0
 76
     1
 77
     6
 78
     2
 67
     7
 79
     5
170
     0
171
     0
290
     0
174
     0
 93
        1
 44
0.0
173
     0
291
     1
 45
0.0
1001
ACAD
1000
AcDbSavedByObjectVersion
1070
     0
  0
DICTIONARYVAR
  5
2E3
102
{ACAD_REACTORS
330
2E0
102
}
330
2E0
100
DictionaryVariables
280
     0
  1
2
  0
DICTIONARYVAR
  5
2E4
102
{ACAD_REACTORS
330
2E0
102
}
330
2E0
100
DictionaryVariables
280
     0
  1
1
  0
DICTIONARY
  5
307
330
3D
100
AcDbDictionary
280
     1
281
     1
  3
ACAD_XREC_ROUNDTRIP
360
308
  0
DICTIONARY
  5
305
330
3C
100
AcDbDictionary
280
     1
281
     1
  3
ACAD_XREC_ROUNDTRIP
360
306
  0
DICTIONARY
  5
309
330
3E
100
AcDbDictionary
280
     1
281
     1
  3
ACAD_XREC_ROUNDTRIP
360
30A
  0
DICTIONARY
  5
2ED
330
2F
100
AcDbDictionary
280
     1
281
     1
  3
ACAD_XREC_ROUNDTRIP
360
2EE
  0
DICTIONARY
  5
2F1
330
31
100
AcDbDictionary
280
     1
281
     1
  3
ACAD_XREC_ROUNDTRIP
360
2F2
  0
DICTIONARY
  5
2EF
330
30
100
AcDbDictionary
280
     1
281
     1
  3
ACAD_XREC_ROUNDTRIP
360
2F0
  0
DICTIONARY
  5
2F3
330
32
100
AcDbDictionary
280
     1
281
     1
  3
ACAD_XREC_ROUNDTRIP
360
2F4
  0
DICTIONARY
  5
2FB
330
36
100
AcDbDictionary
280
     1
281
     1
  3
ACAD_XREC_ROUNDTRIP
360
2FC
  0
DICTIONARY
  5
303
330
3A
100
AcDbDictionary
280
     1
281
     1
  3
ACAD_XREC_ROUNDTRIP
360
304
  0
DICTIONARY
  5
2F7
330
34
100
AcDbDictionary
280
     1
281
     1
  3
ACAD_XREC_ROUNDTRIP
360
2F8
  0
DICTIONARY
  5
2F9
330
35
100
AcDbDictionary
280
     1
281
     1
  3
ACAD_XREC_ROUNDTRIP
360
2FA
  0
DICTIONARY
  5
301
330
39
100
AcDbDictionary
280
     1
281
     1
  3
ACAD_XREC_ROUNDTRIP
360
302
  0
DICTIONARY
  5
2E5
330
2B
100
AcDbDictionary
280
     1
281
     1
  3
ACAD_XREC_ROUNDTRIP
360
2E6
  0
DICTIONARY
  5
2E7
330
2C
100
AcDbDictionary
280
     1
281
     1
  3
ACAD_XREC_ROUNDTRIP
360
2E8
  0
DICTIONARY
  5
2E9
330
2D
100
AcDbDictionary
280
     1
281
     1
  3
ACAD_XREC_ROUNDTRIP
360
2EA
  0
DICTIONARY
  5
2EB
330
2E
100
AcDbDictionary
280
     1
281
     1
  3
ACAD_XREC_ROUNDTRIP
360
2EC
  0
DICTIONARY
  5
2FF
330
38
100
AcDbDictionary
280
     1
281
     1
  3
ACAD_XREC_ROUNDTRIP
360
300
  0
DICTIONARY
  5
2F5
330
33
100
AcDbDictionary
280
     1
281
     1
  3
ACAD_XREC_ROUNDTRIP
360
2F6
  0
DICTIONARY
  5
2FD
330
37
100
AcDbDictionary
280
     1
281
     1
  3
ACAD_XREC_ROUNDTRIP
360
2FE
  0
XRECORD
  5
308
102
{ACAD_REACTORS
330
307
102
}
330
307
100
AcDbXrecord
280
     1
102
MATERIAL
148
0.0
149
0.0
149
0.0
 93
        0
 94
      127
282
     0
 72
     1
 77
     1
171
     1
175
     1
179
     1
273
     0
  0
XRECORD
  5
306
102
{ACAD_REACTORS
330
305
102
}
330
305
100
AcDbXrecord
280
     1
102
MATERIAL
148
0.0
149
0.0
149
0.0
 93
        0
 94
      127
282
     0
 72
     1
 77
     1
171
     1
175
     1
179
     1
273
     0
  0
XRECORD
  5
30A
102
{ACAD_REACTORS
330
309
102
}
330
309
100
AcDbXrecord
280
     1
102
MATERIAL
148
0.0
149
0.0
149
0.0
 93
        0
 94
      127
282
     0
 72
     1
 77
     1
171
     1
175
     1
179
     1
273
     0
  0
XRECORD
  5
2EE
102
{ACAD_REACTORS
330
2ED
102
}
330
2ED
100
AcDbXrecord
280
     1
102
RTVSPropertyOp0
 70
     1
102
RTVSPropertyOp1
 70
     1
102
RTVSPropertyOp2
 70
     1
102
RTVSPropertyOp3
 70
     1
102
RTVSPropertyOp4
 70
     1
102
RTVSPropertyOp5
 70
     1
102
RTVSPropertyOp6
 70
     1
102
RTVSPropertyOp7
 70
     1
102
RTVSPropertyOp8
 70
     1
102
RTVSPropertyOp9
 70
     1
102
RTVSPropertyOp10
 70
     1
102
RTVSPropertyOp11
 70
     1
102
RTVSPropertyOp12
 70
     1
102
RTVSPropertyOp13
 70
     1
102
RTVSPropertyOp14
 70
     1
102
RTVSPropertyOp15
 70
     1
102
RTVSPropertyOp16
 70
     1
102
RTVSPropertyOp17
 70
     1
102
RTVSPropertyOp18
 70
     1
102
RTVSPropertyOp19
 70
     1
102
RTVSPropertyOp20
 70
     1
102
RTVSPropertyOp21
 70
     1
102
RTVSPropertyOp22
 70
     1
102
RTVSPropertyOp23
 70
     1
102
RTVSPropertyOp24
 70
     1
102
RTVSPropertyOp25
 70
     1
102
RTVSPropertyOp26
 70
     1
102
RTVSPropertyOp27
 70
     1
102
RTVSPropertyOp28
 70
     1
102
RTVSPropertyOp29
 70
     1
102
RTVSPropertyOp30
 70
     1
102
RTVSPropertyOp31
 70
     1
102
RTVSPropertyOp32
 70
     1
  0
XRECORD
  5
2F2
102
{ACAD_REACTORS
330
2F1
102
}
330
2F1
100
AcDbXrecord
280
     1
102
RTVSPropertyOp0
 70
     1
102
RTVSPropertyOp1
 70
     1
102
RTVSPropertyOp2
 70
     1
102
RTVSPropertyOp3
 70
     1
102
RTVSPropertyOp4
 70
     1
102
RTVSPropertyOp5
 70
     1
102
RTVSPropertyOp6
 70
     1
102
RTVSPropertyOp7
 70
     1
102
RTVSPropertyOp8
 70
     1
102
RTVSPropertyOp9
 70
     1
102
RTVSPropertyOp10
 70
     1
102
RTVSPropertyOp11
 70
     1
102
RTVSPropertyOp12
 70
     1
102
RTVSPropertyOp13
 70
     1
102
RTVSPropertyOp14
 70
     1
102
RTVSPropertyOp15
 70
     1
102
RTVSPropertyOp16
 70
     1
102
RTVSPropertyOp17
 70
     1
102
RTVSPropertyOp18
 70
     1
102
RTVSPropertyOp19
 70
     1
102
RTVSPropertyOp20
 70
     1
102
RTVSPropertyOp21
 70
     1
102
RTVSPropertyOp22
 70
     1
102
RTVSPropertyOp23
 70
     1
102
RTVSPropertyOp24
 70
     1
102
RTVSPropertyOp25
 70
     1
102
RTVSPropertyOp26
 70
     1
102
RTVSPropertyOp27
 70
     1
102
RTVSPropertyOp28
 70
     1
102
RTVSPropertyOp29
 70
     1
102
RTVSPropertyOp30
 70
     1
102
RTVSPropertyOp31
 70
     1
102
RTVSPropertyOp32
 70
     1
  0
XRECORD
  5
2F0
102
{ACAD_REACTORS
330
2EF
102
}
330
2EF
100
AcDbXrecord
280
     1
102
RTVSPropertyOp0
 70
     1
102
RTVSPropertyOp1
 70
     1
102
RTVSPropertyOp2
 70
     1
102
RTVSPropertyOp3
 70
     1
102
RTVSPropertyOp4
 70
     1
102
RTVSPropertyOp5
 70
     1
102
RTVSPropertyOp6
 70
     1
102
RTVSPropertyOp7
 70
     1
102
RTVSPropertyOp8
 70
     1
102
RTVSPropertyOp9
 70
     1
102
RTVSPropertyOp10
 70
     1
102
RTVSPropertyOp11
 70
     1
102
RTVSPropertyOp12
 70
     1
102
RTVSPropertyOp13
 70
     1
102
RTVSPropertyOp14
 70
     1
102
RTVSPropertyOp15
 70
     1
102
RTVSPropertyOp16
 70
     1
102
RTVSPropertyOp17
 70
     1
102
RTVSPropertyOp18
 70
     1
102
RTVSPropertyOp19
 70
     1
102
RTVSPropertyOp20
 70
     1
102
RTVSPropertyOp21
 70
     1
102
RTVSPropertyOp22
 70
     1
102
RTVSPropertyOp23
 70
     1
102
RTVSPropertyOp24
 70
     1
102
RTVSPropertyOp25
 70
     1
102
RTVSPropertyOp26
 70
     1
102
RTVSPropertyOp27
 70
     1
102
RTVSPropertyOp28
 70
     1
102
RTVSPropertyOp29
 70
     1
102
RTVSPropertyOp30
 70
     1
102
RTVSPropertyOp31
 70
     1
102
RTVSPropertyOp32
 70
     1
  0
XRECORD
  5
2F4
102
{ACAD_REACTORS
330
2F3
102
}
330
2F3
100
AcDbXrecord
280
     1
102
RTVSPropertyOp0
 70
     1
102
RTVSPropertyOp1
 70
     1
102
RTVSPropertyOp2
 70
     1
102
RTVSPropertyOp3
 70
     1
102
RTVSPropertyOp4
 70
     1
102
RTVSPropertyOp5
 70
     1
102
RTVSPropertyOp6
 70
     1
102
RTVSPropertyOp7
 70
     1
102
RTVSPropertyOp8
 70
     1
102
RTVSPropertyOp9
 70
     1
102
RTVSPropertyOp10
 70
     1
102
RTVSPropertyOp11
 70
     1
102
RTVSPropertyOp12
 70
     1
102
RTVSPropertyOp13
 70
     1
102
RTVSPropertyOp14
 70
     1
102
RTVSPropertyOp15
 70
     1
102
RTVSPropertyOp16
 70
     1
102
RTVSPropertyOp17
 70
     1
102
RTVSPropertyOp18
 70
     1
102
RTVSPropertyOp19
 70
     1
102
RTVSPropertyOp20
 70
     1
102
RTVSPropertyOp21
 70
     1
102
RTVSPropertyOp22
 70
     1
102
RTVSPropertyOp23
 70
     1
102
RTVSPropertyOp24
 70
     1
102
RTVSPropertyOp25
 70
     1
102
RTVSPropertyOp26
 70
     1
102
RTVSPropertyOp27
 70
     1
102
RTVSPropertyOp28
 70
     1
102
RTVSPropertyOp29
 70
     1
102
RTVSPropertyOp30
 70
     1
102
RTVSPropertyOp31
 70
     1
102
RTVSPropertyOp32
 70
     1
  0
XRECORD
  5
2FC
102
{ACAD_REACTORS
330
2FB
102
}
330
2FB
100
AcDbXrecord
280
     1
102
RTVSPropertyOp0
 70
     1
102
RTVSPropertyOp1
 70
     1
102
RTVSPropertyOp2
 70
     1
102
RTVSPropertyOp3
 70
     1
102
RTVSPropertyOp4
 70
     1
102
RTVSPropertyOp5
 70
     1
102
RTVSPropertyOp6
 70
     1
102
RTVSPropertyOp7
 70
     1
102
RTVSPropertyOp8
 70
     1
102
RTVSPropertyOp9
 70
     1
102
RTVSPropertyOp10
 70
     1
102
RTVSPropertyOp11
 70
     1
102
RTVSPropertyOp12
 70
     1
102
RTVSPropertyOp13
 70
     1
102
RTVSPropertyOp14
 70
     1
102
RTVSPropertyOp15
 70
     1
102
RTVSPropertyOp16
 70
     1
102
RTVSPropertyOp17
 70
     1
102
RTVSPropertyOp18
 70
     1
102
RTVSPropertyOp19
 70
     1
102
RTVSPropertyOp20
 70
     1
102
RTVSPropertyOp21
 70
     1
102
RTVSPropertyOp22
 70
     1
102
RTVSPropertyOp23
 70
     1
102
RTVSPropertyOp24
 70
     1
102
RTVSPropertyOp25
 70
     1
102
RTVSPropertyOp26
 70
     1
102
RTVSPropertyOp27
 70
     1
102
RTVSPropertyOp28
 70
     1
102
RTVSPropertyOp29
 70
     1
102
RTVSPropertyOp30
 70
     1
102
RTVSPropertyOp31
 70
     1
102
RTVSPropertyOp32
 70
     1
  0
XRECORD
  5
304
102
{ACAD_REACTORS
330
303
102
}
330
303
100
AcDbXrecord
280
     1
102
RTVSPropertyOp0
 70
     1
102
RTVSPropertyOp1
 70
     1
102
RTVSPropertyOp2
 70
     1
102
RTVSPropertyOp3
 70
     1
102
RTVSPropertyOp4
 70
     1
102
RTVSPropertyOp5
 70
     1
102
RTVSPropertyOp6
 70
     1
102
RTVSPropertyOp7
 70
     1
102
RTVSPropertyOp8
 70
     1
102
RTVSPropertyOp9
 70
     1
102
RTVSPropertyOp10
 70
     1
102
RTVSPropertyOp11
 70
     1
102
RTVSPropertyOp12
 70
     1
102
RTVSPropertyOp13
 70
     1
102
RTVSPropertyOp14
 70
     1
102
RTVSPropertyOp15
 70
     1
102
RTVSPropertyOp16
 70
     1
102
RTVSPropertyOp17
 70
     1
102
RTVSPropertyOp18
 70
     1
102
RTVSPropertyOp19
 70
     1
102
RTVSPropertyOp20
 70
     1
102
RTVSPropertyOp21
 70
     1
102
RTVSPropertyOp22
 70
     1
102
RTVSPropertyOp23
 70
     1
102
RTVSPropertyOp24
 70
     1
102
RTVSPropertyOp25
 70
     1
102
RTVSPropertyOp26
 70
     1
102
RTVSPropertyOp27
 70
     1
102
RTVSPropertyOp28
 70
     1
102
RTVSPropertyOp29
 70
     1
102
RTVSPropertyOp30
 70
     1
102
RTVSPropertyOp31
 70
     1
102
RTVSPropertyOp32
 70
     1
  0
XRECORD
  5
2F8
102
{ACAD_REACTORS
330
2F7
102
}
330
2F7
100
AcDbXrecord
280
     1
102
RTVSPropertyOp0
 70
     1
102
RTVSPropertyOp1
 70
     1
102
RTVSPropertyOp2
 70
     1
102
RTVSPropertyOp3
 70
     1
102
RTVSPropertyOp4
 70
     1
102
RTVSPropertyOp5
 70
     1
102
RTVSPropertyOp6
 70
     1
102
RTVSPropertyOp7
 70
     1
102
RTVSPropertyOp8
 70
     1
102
RTVSPropertyOp9
 70
     1
102
RTVSPropertyOp10
 70
     1
102
RTVSPropertyOp11
 70
     1
102
RTVSPropertyOp12
 70
     1
102
RTVSPropertyOp13
 70
     1
102
RTVSPropertyOp14
 70
     1
102
RTVSPropertyOp15
 70
     1
102
RTVSPropertyOp16
 70
     1
102
RTVSPropertyOp17
 70
     1
102
RTVSPropertyOp18
 70
     1
102
RTVSPropertyOp19
 70
     1
102
RTVSPropertyOp20
 70
     1
102
RTVSPropertyOp21
 70
     1
102
RTVSPropertyOp22
 70
     1
102
RTVSPropertyOp23
 70
     1
102
RTVSPropertyOp24
 70
     1
102
RTVSPropertyOp25
 70
     1
102
RTVSPropertyOp26
 70
     1
102
RTVSPropertyOp27
 70
     1
102
RTVSPropertyOp28
 70
     1
102
RTVSPropertyOp29
 70
     1
102
RTVSPropertyOp30
 70
     1
102
RTVSPropertyOp31
 70
     1
102
RTVSPropertyOp32
 70
     1
  0
XRECORD
  5
2FA
102
{ACAD_REACTORS
330
2F9
102
}
330
2F9
100
AcDbXrecord
280
     1
102
RTVSPropertyOp0
 70
     1
102
RTVSPropertyOp1
 70
     1
102
RTVSPropertyOp2
 70
     1
102
RTVSPropertyOp3
 70
     1
102
RTVSPropertyOp4
 70
     1
102
RTVSPropertyOp5
 70
     1
102
RTVSPropertyOp6
 70
     1
102
RTVSPropertyOp7
 70
     1
102
RTVSPropertyOp8
 70
     1
102
RTVSPropertyOp9
 70
     1
102
RTVSPropertyOp10
 70
     1
102
RTVSPropertyOp11
 70
     1
102
RTVSPropertyOp12
 70
     1
102
RTVSPropertyOp13
 70
     1
102
RTVSPropertyOp14
 70
     1
102
RTVSPropertyOp15
 70
     1
102
RTVSPropertyOp16
 70
     1
102
RTVSPropertyOp17
 70
     1
102
RTVSPropertyOp18
 70
     1
102
RTVSPropertyOp19
 70
     1
102
RTVSPropertyOp20
 70
     1
102
RTVSPropertyOp21
 70
     1
102
RTVSPropertyOp22
 70
     1
102
RTVSPropertyOp23
 70
     1
102
RTVSPropertyOp24
 70
     1
102
RTVSPropertyOp25
 70
     1
102
RTVSPropertyOp26
 70
     1
102
RTVSPropertyOp27
 70
     1
102
RTVSPropertyOp28
 70
     1
102
RTVSPropertyOp29
 70
     1
102
RTVSPropertyOp30
 70
     1
102
RTVSPropertyOp31
 70
     1
102
RTVSPropertyOp32
 70
     1
  0
XRECORD
  5
302
102
{ACAD_REACTORS
330
301
102
}
330
301
100
AcDbXrecord
280
     1
102
RTVSPropertyOp0
 70
     1
102
RTVSPropertyOp1
 70
     1
102
RTVSPropertyOp2
 70
     1
102
RTVSPropertyOp3
 70
     1
102
RTVSPropertyOp4
 70
     1
102
RTVSPropertyOp5
 70
     1
102
RTVSPropertyOp6
 70
     1
102
RTVSPropertyOp7
 70
     1
102
RTVSPropertyOp8
 70
     1
102
RTVSPropertyOp9
 70
     1
102
RTVSPropertyOp10
 70
     1
102
RTVSPropertyOp11
 70
     1
102
RTVSPropertyOp12
 70
     1
102
RTVSPropertyOp13
 70
     1
102
RTVSPropertyOp14
 70
     1
102
RTVSPropertyOp15
 70
     1
102
RTVSPropertyOp16
 70
     1
102
RTVSPropertyOp17
 70
     1
102
RTVSPropertyOp18
 70
     1
102
RTVSPropertyOp19
 70
     1
102
RTVSPropertyOp20
 70
     1
102
RTVSPropertyOp21
 70
     1
102
RTVSPropertyOp22
 70
     1
102
RTVSPropertyOp23
 70
     1
102
RTVSPropertyOp24
 70
     1
102
RTVSPropertyOp25
 70
     1
102
RTVSPropertyOp26
 70
     1
102
RTVSPropertyOp27
 70
     1
102
RTVSPropertyOp28
 70
     1
102
RTVSPropertyOp29
 70
     1
102
RTVSPropertyOp30
 70
     1
102
RTVSPropertyOp31
 70
     1
102
RTVSPropertyOp32
 70
     1
  0
XRECORD
  5
2E6
102
{ACAD_REACTORS
330
2E5
102
}
330
2E5
100
AcDbXrecord
280
     1
102
RTVSPropertyOp0
 70
     1
102
RTVSPropertyOp1
 70
     1
102
RTVSPropertyOp2
 70
     1
102
RTVSPropertyOp3
 70
     1
102
RTVSPropertyOp4
 70
     1
102
RTVSPropertyOp5
 70
     1
102
RTVSPropertyOp6
 70
     1
102
RTVSPropertyOp7
 70
     1
102
RTVSPropertyOp8
 70
     1
102
RTVSPropertyOp9
 70
     1
102
RTVSPropertyOp10
 70
     1
102
RTVSPropertyOp11
 70
     1
102
RTVSPropertyOp12
 70
     1
102
RTVSPropertyOp13
 70
     1
102
RTVSPropertyOp14
 70
     1
102
RTVSPropertyOp15
 70
     1
102
RTVSPropertyOp16
 70
     1
102
RTVSPropertyOp17
 70
     1
102
RTVSPropertyOp18
 70
     1
102
RTVSPropertyOp19
 70
     1
102
RTVSPropertyOp20
 70
     1
102
RTVSPropertyOp21
 70
     1
102
RTVSPropertyOp22
 70
     1
102
RTVSPropertyOp23
 70
     1
102
RTVSPropertyOp24
 70
     1
102
RTVSPropertyOp25
 70
     1
102
RTVSPropertyOp26
 70
     1
102
RTVSPropertyOp27
 70
     1
102
RTVSPropertyOp28
 70
     1
102
RTVSPropertyOp29
 70
     1
102
RTVSPropertyOp30
 70
     1
102
RTVSPropertyOp31
 70
     1
102
RTVSPropertyOp32
 70
     1
  0
XRECORD
  5
2E8
102
{ACAD_REACTORS
330
2E7
102
}
330
2E7
100
AcDbXrecord
280
     1
102
RTVSPropertyOp0
 70
     1
102
RTVSPropertyOp1
 70
     1
102
RTVSPropertyOp2
 70
     1
102
RTVSPropertyOp3
 70
     1
102
RTVSPropertyOp4
 70
     1
102
RTVSPropertyOp5
 70
     1
102
RTVSPropertyOp6
 70
     1
102
RTVSPropertyOp7
 70
     1
102
RTVSPropertyOp8
 70
     1
102
RTVSPropertyOp9
 70
     1
102
RTVSPropertyOp10
 70
     1
102
RTVSPropertyOp11
 70
     1
102
RTVSPropertyOp12
 70
     1
102
RTVSPropertyOp13
 70
     1
102
RTVSPropertyOp14
 70
     1
102
RTVSPropertyOp15
 70
     1
102
RTVSPropertyOp16
 70
     1
102
RTVSPropertyOp17
 70
     1
102
RTVSPropertyOp18
 70
     1
102
RTVSPropertyOp19
 70
     1
102
RTVSPropertyOp20
 70
     1
102
RTVSPropertyOp21
 70
     1
102
RTVSPropertyOp22
 70
     1
102
RTVSPropertyOp23
 70
     1
102
RTVSPropertyOp24
 70
     1
102
RTVSPropertyOp25
 70
     1
102
RTVSPropertyOp26
 70
     1
102
RTVSPropertyOp27
 70
     1
102
RTVSPropertyOp28
 70
     1
102
RTVSPropertyOp29
 70
     1
102
RTVSPropertyOp30
 70
     1
102
RTVSPropertyOp31
 70
     1
102
RTVSPropertyOp32
 70
     1
  0
XRECORD
  5
2EA
102
{ACAD_REACTORS
330
2E9
102
}
330
2E9
100
AcDbXrecord
280
     1
102
RTVSPropertyOp0
 70
     1
102
RTVSPropertyOp1
 70
     1
102
RTVSPropertyOp2
 70
     1
102
RTVSPropertyOp3
 70
     1
102
RTVSPropertyOp4
 70
     1
102
RTVSPropertyOp5
 70
     1
102
RTVSPropertyOp6
 70
     1
102
RTVSPropertyOp7
 70
     1
102
RTVSPropertyOp8
 70
     1
102
RTVSPropertyOp9
 70
     1
102
RTVSPropertyOp10
 70
     1
102
RTVSPropertyOp11
 70
     1
102
RTVSPropertyOp12
 70
     1
102
RTVSPropertyOp13
 70
     1
102
RTVSPropertyOp14
 70
     1
102
RTVSPropertyOp15
 70
     1
102
RTVSPropertyOp16
 70
     1
102
RTVSPropertyOp17
 70
     1
102
RTVSPropertyOp18
 70
     1
102
RTVSPropertyOp19
 70
     1
102
RTVSPropertyOp20
 70
     1
102
RTVSPropertyOp21
 70
     1
102
RTVSPropertyOp22
 70
     1
102
RTVSPropertyOp23
 70
     1
102
RTVSPropertyOp24
 70
     1
102
RTVSPropertyOp25
 70
     1
102
RTVSPropertyOp26
 70
     1
102
RTVSPropertyOp27
 70
     1
102
RTVSPropertyOp28
 70
     1
102
RTVSPropertyOp29
 70
     1
102
RTVSPropertyOp30
 70
     1
102
RTVSPropertyOp31
 70
     1
102
RTVSPropertyOp32
 70
     1
  0
XRECORD
  5
2EC
102
{ACAD_REACTORS
330
2EB
102
}
330
2EB
100
AcDbXrecord
280
     1
102
RTVSPropertyOp0
 70
     1
102
RTVSPropertyOp1
 70
     1
102
RTVSPropertyOp2
 70
     1
102
RTVSPropertyOp3
 70
     1
102
RTVSPropertyOp4
 70
     1
102
RTVSPropertyOp5
 70
     1
102
RTVSPropertyOp6
 70
     1
102
RTVSPropertyOp7
 70
     1
102
RTVSPropertyOp8
 70
     1
102
RTVSPropertyOp9
 70
     1
102
RTVSPropertyOp10
 70
     1
102
RTVSPropertyOp11
 70
     1
102
RTVSPropertyOp12
 70
     1
102
RTVSPropertyOp13
 70
     1
102
RTVSPropertyOp14
 70
     1
102
RTVSPropertyOp15
 70
     1
102
RTVSPropertyOp16
 70
     1
102
RTVSPropertyOp17
 70
     1
102
RTVSPropertyOp18
 70
     1
102
RTVSPropertyOp19
 70
     1
102
RTVSPropertyOp20
 70
     1
102
RTVSPropertyOp21
 70
     1
102
RTVSPropertyOp22
 70
     1
102
RTVSPropertyOp23
 70
     1
102
RTVSPropertyOp24
 70
     1
102
RTVSPropertyOp25
 70
     1
102
RTVSPropertyOp26
 70
     1
102
RTVSPropertyOp27
 70
     1
102
RTVSPropertyOp28
 70
     1
102
RTVSPropertyOp29
 70
     1
102
RTVSPropertyOp30
 70
     1
102
RTVSPropertyOp31
 70
     1
102
RTVSPropertyOp32
 70
     1
  0
XRECORD
  5
300
102
{ACAD_REACTORS
330
2FF
102
}
330
2FF
100
AcDbXrecord
280
     1
102
RTVSPropertyOp0
 70
     1
102
RTVSPropertyOp1
 70
     1
102
RTVSPropertyOp2
 70
     1
102
RTVSPropertyOp3
 70
     1
102
RTVSPropertyOp4
 70
     1
102
RTVSPropertyOp5
 70
     1
102
RTVSPropertyOp6
 70
     1
102
RTVSPropertyOp7
 70
     1
102
RTVSPropertyOp8
 70
     1
102
RTVSPropertyOp9
 70
     1
102
RTVSPropertyOp10
 70
     1
102
RTVSPropertyOp11
 70
     1
102
RTVSPropertyOp12
 70
     1
102
RTVSPropertyOp13
 70
     1
102
RTVSPropertyOp14
 70
     1
102
RTVSPropertyOp15
 70
     1
102
RTVSPropertyOp16
 70
     1
102
RTVSPropertyOp17
 70
     1
102
RTVSPropertyOp18
 70
     1
102
RTVSPropertyOp19
 70
     1
102
RTVSPropertyOp20
 70
     1
102
RTVSPropertyOp21
 70
     1
102
RTVSPropertyOp22
 70
     1
102
RTVSPropertyOp23
 70
     1
102
RTVSPropertyOp24
 70
     1
102
RTVSPropertyOp25
 70
     1
102
RTVSPropertyOp26
 70
     1
102
RTVSPropertyOp27
 70
     1
102
RTVSPropertyOp28
 70
     1
102
RTVSPropertyOp29
 70
     1
102
RTVSPropertyOp30
 70
     1
102
RTVSPropertyOp31
 70
     1
102
RTVSPropertyOp32
 70
     1
  0
XRECORD
  5
2F6
102
{ACAD_REACTORS
330
2F5
102
}
330
2F5
100
AcDbXrecord
280
     1
102
RTVSPropertyOp0
 70
     1
102
RTVSPropertyOp1
 70
     1
102
RTVSPropertyOp2
 70
     1
102
RTVSPropertyOp3
 70
     1
102
RTVSPropertyOp4
 70
     1
102
RTVSPropertyOp5
 70
     1
102
RTVSPropertyOp6
 70
     1
102
RTVSPropertyOp7
 70
     1
102
RTVSPropertyOp8
 70
     1
102
RTVSPropertyOp9
 70
     1
102
RTVSPropertyOp10
 70
     1
102
RTVSPropertyOp11
 70
     1
102
RTVSPropertyOp12
 70
     1
102
RTVSPropertyOp13
 70
     1
102
RTVSPropertyOp14
 70
     1
102
RTVSPropertyOp15
 70
     1
102
RTVSPropertyOp16
 70
     1
102
RTVSPropertyOp17
 70
     1
102
RTVSPropertyOp18
 70
     1
102
RTVSPropertyOp19
 70
     1
102
RTVSPropertyOp20
 70
     1
102
RTVSPropertyOp21
 70
     1
102
RTVSPropertyOp22
 70
     1
102
RTVSPropertyOp23
 70
     1
102
RTVSPropertyOp24
 70
     1
102
RTVSPropertyOp25
 70
     1
102
RTVSPropertyOp26
 70
     1
102
RTVSPropertyOp27
 70
     1
102
RTVSPropertyOp28
 70
     1
102
RTVSPropertyOp29
 70
     1
102
RTVSPropertyOp30
 70
     1
102
RTVSPropertyOp31
 70
     1
102
RTVSPropertyOp32
 70
     1
  0
XRECORD
  5
2FE
102
{ACAD_REACTORS
330
2FD
102
}
330
2FD
100
AcDbXrecord
280
     1
102
RTVSPropertyOp0
 70
     1
102
RTVSPropertyOp1
 70
     1
102
RTVSPropertyOp2
 70
     1
102
RTVSPropertyOp3
 70
     1
102
RTVSPropertyOp4
 70
     1
102
RTVSPropertyOp5
 70
     1
102
RTVSPropertyOp6
 70
     1
102
RTVSPropertyOp7
 70
     1
102
RTVSPropertyOp8
 70
     1
102
RTVSPropertyOp9
 70
     1
102
RTVSPropertyOp10
 70
     1
102
RTVSPropertyOp11
 70
     1
102
RTVSPropertyOp12
 70
     1
102
RTVSPropertyOp13
 70
     1
102
RTVSPropertyOp14
 70
     1
102
RTVSPropertyOp15
 70
     1
102
RTVSPropertyOp16
 70
     1
102
RTVSPropertyOp17
 70
     1
102
RTVSPropertyOp18
 70
     1
102
RTVSPropertyOp19
 70
     1
102
RTVSPropertyOp20
 70
     1
102
RTVSPropertyOp21
 70
     1
102
RTVSPropertyOp22
 70
     1
102
RTVSPropertyOp23
 70
     1
102
RTVSPropertyOp24
 70
     1
102
RTVSPropertyOp25
 70
     1
102
RTVSPropertyOp26
 70
     1
102
RTVSPropertyOp27
 70
     1
102
RTVSPropertyOp28
 70
     1
102
RTVSPropertyOp29
 70
     1
102
RTVSPropertyOp30
 70
     1
102
RTVSPropertyOp31
 70
     1
102
RTVSPropertyOp32
 70
     1
  0
ENDSEC
  0
EOF
