  0
SECTION
  2
HEADER
  9
$ACADVER
  1
AC1015
  9
$ACADMAINTVER
 70
     6
  9
$DWGCODEPAGE
  3
DOS932
  9
$INSBASE
 10
0.0
 20
0.0
 30
0.0
  9
$EXTMIN
 10
0.0
 20
0.0
 30
0.0
  9
$EXTMAX
 10
315.0
 20
445.5
 30
0.0
  9
$LIMMIN
 10
0.0
 20
0.0
  9
$LIMMAX
 10
12.0
 20
9.0
  9
$ORTHOMODE
 70
     0
  9
$REGENMODE
 70
     1
  9
$FILLMODE
 70
     1
  9
$QTEXTMODE
 70
     0
  9
$MIRRTEXT
 70
     1
  9
$LTSCALE
 40
1.0
  9
$ATTMODE
 70
     1
  9
$TEXTSIZE
 40
0.2
  9
$TRACEWID
 40
0.05
  9
$TEXTSTYLE
  7
Standard
  9
$CLAYER
  8
0
  9
$CELTYPE
  6
ByLayer
  9
$CECOLOR
 62
   256
  9
$CELTSCALE
 40
1.0
  9
$DISPSILH
 70
     0
  9
$DIMSCALE
 40
1.0
  9
$DIMASZ
 40
0.18
  9
$DIMEXO
 40
0.0625
  9
$DIMDLI
 40
0.38
  9
$DIMRND
 40
0.0
  9
$DIMDLE
 40
0.0
  9
$DIMEXE
 40
0.18
  9
$DIMTP
 40
0.0
  9
$DIMTM
 40
0.0
  9
$DIMTXT
 40
0.18
  9
$DIMCEN
 40
0.09
  9
$DIMTSZ
 40
0.0
  9
$DIMTOL
 70
     0
  9
$DIMLIM
 70
     0
  9
$DIMTIH
 70
     1
  9
$DIMTOH
 70
     1
  9
$DIMSE1
 70
     0
  9
$DIMSE2
 70
     0
  9
$DIMTAD
 70
     0
  9
$DIMZIN
 70
     0
  9
$DIMBLK
  1

  9
$DIMASO
 70
     1
  9
$DIMSHO
 70
     1
  9
$DIMPOST
  1

  9
$DIMAPOST
  1

  9
$DIMALT
 70
     0
  9
$DIMALTD
 70
     2
  9
$DIMALTF
 40
25.4
  9
$DIMLFAC
 40
1.0
  9
$DIMTOFL
 70
     0
  9
$DIMTVP
 40
0.0
  9
$DIMTIX
 70
     0
  9
$DIMSOXD
 70
     0
  9
$DIMSAH
 70
     0
  9
$DIMBLK1
  1

  9
$DIMBLK2
  1

  9
$DIMSTYLE
  2
Standard
  9
$DIMCLRD
 70
     0
  9
$DIMCLRE
 70
     0
  9
$DIMCLRT
 70
     0
  9
$DIMTFAC
 40
1.0
  9
$DIMGAP
 40
0.09
  9
$DIMJUST
 70
     0
  9
$DIMSD1
 70
     0
  9
$DIMSD2
 70
     0
  9
$DIMTOLJ
 70
     1
  9
$DIMTZIN
 70
     0
  9
$DIMALTZ
 70
     0
  9
$DIMALTTZ
 70
     0
  9
$DIMUPT
 70
     0
  9
$DIMDEC
 70
     4
  9
$DIMTDEC
 70
     4
  9
$DIMALTU
 70
     2
  9
$DIMALTTD
 70
     2
  9
$DIMTXSTY
  7
Standard
  9
$DIMAUNIT
 70
     0
  9
$DIMADEC
 70
     0
  9
$DIMALTRND
 40
0.0
  9
$DIMAZIN
 70
     0
  9
$DIMDSEP
 70
    46
  9
$DIMATFIT
 70
     3
  9
$DIMFRAC
 70
     0
  9
$DIMLDRBLK
  1

  9
$DIMLUNIT
 70
     2
  9
$DIMLWD
 70
    -2
  9
$DIMLWE
 70
    -2
  9
$DIMTMOVE
 70
     0
  9
$LUNITS
 70
     2
  9
$LUPREC
 70
     4
  9
$SKETCHINC
 40
0.1
  9
$FILLETRAD
 40
0.5
  9
$AUNITS
 70
     0
  9
$AUPREC
 70
     0
  9
$MENU
  1
.
  9
$ELEVATION
 40
0.0
  9
$PELEVATION
 40
0.0
  9
$THICKNESS
 40
0.0
  9
$LIMCHECK
 70
     0
  9
$CHAMFERA
 40
0.5
  9
$CHAMFERB
 40
0.5
  9
$CHAMFERC
 40
1.0
  9
$CHAMFERD
 40
0.0
  9
$SKPOLY
 70
     0
  9
$TDCREATE
 40
2456134.661689444
  9
$TDUCREATE
 40
2456134.286689444
  9
$TDUPDATE
 40
2456134.661689456
  9
$TDUUPDATE
 40
2456134.286689456
  9
$TDINDWG
 40
0.0000000116
  9
$TDUSRTIMER
 40
0.0000000116
  9
$USRTIMER
 70
     1
  9
$ANGBASE
 50
0.0
  9
$ANGDIR
 70
     0
  9
$PDMODE
 70
     0
  9
$PDSIZE
 40
0.0
  9
$PLINEWID
 40
0.0
  9
$SPLFRAME
 70
     0
  9
$SPLINETYPE
 70
     6
  9
$SPLINESEGS
 70
     8
  9
$HANDSEED
  5
33F
  9
$SURFTAB1
 70
     6
  9
$SURFTAB2
 70
     6
  9
$SURFTYPE
 70
     6
  9
$SURFU
 70
     6
  9
$SURFV
 70
     6
  9
$UCSBASE
  2

  9
$UCSNAME
  2

  9
$UCSORG
 10
0.0
 20
0.0
 30
0.0
  9
$UCSXDIR
 10
1.0
 20
0.0
 30
0.0
  9
$UCSYDIR
 10
0.0
 20
1.0
 30
0.0
  9
$UCSORTHOREF
  2

  9
$UCSORTHOVIEW
 70
     0
  9
$UCSORGTOP
 10
0.0
 20
0.0
 30
0.0
  9
$UCSORGBOTTOM
 10
0.0
 20
0.0
 30
0.0
  9
$UCSORGLEFT
 10
0.0
 20
0.0
 30
0.0
  9
$UCSORGRIGHT
 10
0.0
 20
0.0
 30
0.0
  9
$UCSORGFRONT
 10
0.0
 20
0.0
 30
0.0
  9
$UCSORGBACK
 10
0.0
 20
0.0
 30
0.0
  9
$PUCSBASE
  2

  9
$PUCSNAME
  2

  9
$PUCSORG
 10
0.0
 20
0.0
 30
0.0
  9
$PUCSXDIR
 10
1.0
 20
0.0
 30
0.0
  9
$PUCSYDIR
 10
0.0
 20
1.0
 30
0.0
  9
$PUCSORTHOREF
  2

  9
$PUCSORTHOVIEW
 70
     0
  9
$PUCSORGTOP
 10
0.0
 20
0.0
 30
0.0
  9
$PUCSORGBOTTOM
 10
0.0
 20
0.0
 30
0.0
  9
$PUCSORGLEFT
 10
0.0
 20
0.0
 30
0.0
  9
$PUCSORGRIGHT
 10
0.0
 20
0.0
 30
0.0
  9
$PUCSORGFRONT
 10
0.0
 20
0.0
 30
0.0
  9
$PUCSORGBACK
 10
0.0
 20
0.0
 30
0.0
  9
$USERI1
 70
     0
  9
$USERI2
 70
     0
  9
$USERI3
 70
     0
  9
$USERI4
 70
     0
  9
$USERI5
 70
     0
  9
$USERR1
 40
13.2
  9
$USERR2
 40
0.0
  9
$USERR3
 40
0.0
  9
$USERR4
 40
0.0
  9
$USERR5
 40
0.0
  9
$WORLDVIEW
 70
     1
  9
$SHADEDGE
 70
     3
  9
$SHADEDIF
 70
    70
  9
$TILEMODE
 70
     1
  9
$MAXACTVP
 70
    64
  9
$PINSBASE
 10
0.0
 20
0.0
 30
0.0
  9
$PLIMCHECK
 70
     0
  9
$PEXTMIN
 10
1.00000000000000E+20
 20
1.00000000000000E+20
 30
1.00000000000000E+20
  9
$PEXTMAX
 10
-1.00000000000000E+20
 20
-1.00000000000000E+20
 30
-1.00000000000000E+20
  9
$PLIMMIN
 10
0.0
 20
0.0
  9
$PLIMMAX
 10
12.0
 20
9.0
  9
$UNITMODE
 70
     0
  9
$VISRETAIN
 70
     1
  9
$PLINEGEN
 70
     0
  9
$PSLTSCALE
 70
     1
  9
$TREEDEPTH
 70
  3020
  9
$CMLSTYLE
  2
Standard
  9
$CMLJUST
 70
     0
  9
$CMLSCALE
 40
1.0
  9
$PROXYGRAPHICS
 70
     1
  9
$MEASUREMENT
 70
     1
  9
$CELWEIGHT
370
    -1
  9
$ENDCAPS
280
     0
  9
$JOINSTYLE
280
     0
  9
$LWDISPLAY
290
     0
  9
$INSUNITS
 70
     1
  9
$HYPERLINKBASE
  1

  9
$STYLESHEET
  1

  9
$XEDIT
290
     1
  9
$CEPSNTYPE
380
     0
  9
$PSTYLEMODE
290
     0
  9
$FINGERPRINTGUID
  2
{FAEB1C30-E019-11D5-929B-00C0DF256EC4}
  9
$VERSIONGUID
  2
{FAEB1C32-E019-11D5-929B-00C0DF256EC4}
  9
$EXTNAMES
290
     1
  9
$PSVPSCALE
 40
0.0
  9
$OLESTARTUP
290
     0
  0
ENDSEC
  0
SECTION
  2
CLASSES
  0
CLASS
  1
ACDBDICTIONARYWDFLT
  2
AcDbDictionaryWithDefault
  3
ObjectDBX Classes
 90
        0
280
     0
281
     0
  0
CLASS
  1
TABLESTYLE
  2
AcDbTableStyle
  3
ObjectDBX Classes
 90
     2047
280
     0
281
     0
  0
CLASS
  1
DICTIONARYVAR
  2
AcDbDictionaryVar
  3
ObjectDBX Classes
 90
        0
280
     0
281
     0
  0
CLASS
  1

  2
exOdDbCircle
  3

 90
        0
280
     0
281
     1
  0
CLASS
  1

  2
exOdDbSpline
  3

 90
        0
280
     0
281
     1
  0
CLASS
  1
ACDBPLACEHOLDER
  2
AcDbPlaceHolder
  3
ObjectDBX Classes
 90
        0
280
     0
281
     0
  0
CLASS
  1
LAYOUT
  2
AcDbLayout
  3
ObjectDBX Classes
 90
        0
280
     0
281
     0
  0
ENDSEC
  0
SECTION
  2
TABLES
  0
TABLE
  2
VPORT
  5
8
330
0
100
AcDbSymbolTable
 70
     2
  0
VPORT
  5
29
330
8
100
AcDbSymbolTableRecord
100
AcDbViewportTableRecord
  2
*Active
 70
     0
 10
0.0
 20
0.0
 11
1.0
 21
1.0
 12
157.5
 22
222.75
 13
0.0
 23
0.0
 14
0.5
 24
0.5
 15
0.5
 25
0.5
 16
0.0
 26
0.0
 36
1.0
 17
0.0
 27
0.0
 37
0.0
 40
490.05
 41
1.60267857142857
 42
50.0
 43
0.0
 44
0.0
 50
0.0
 51
0.0
 71
     0
 72
   100
 73
     1
 74
     3
 75
     0
 76
     0
 77
     0
 78
     0
281
     0
 65
     1
110
0.0
120
0.0
130
0.0
111
1.0
121
0.0
131
0.0
112
0.0
122
1.0
132
0.0
 79
     0
146
0.0
  0
ENDTAB
  0
TABLE
  2
LTYPE
  5
5
330
0
100
AcDbSymbolTable
 70
     8
  0
LTYPE
  5
14
330
5
100
AcDbSymbolTableRecord
100
AcDbLinetypeTableRecord
  2
ByBlock
 70
     0
  3

 72
    65
 73
     0
 40
0.0
  0
LTYPE
  5
15
330
5
100
AcDbSymbolTableRecord
100
AcDbLinetypeTableRecord
  2
ByLayer
 70
     0
  3

 72
    65
 73
     0
 40
0.0
  0
LTYPE
  5
16
330
5
100
AcDbSymbolTableRecord
100
AcDbLinetypeTableRecord
  2
Continuous
 70
     0
  3
Solid line
 72
    65
 73
     0
 40
0.0
  0
LTYPE
  5
2E
330
5
100
AcDbSymbolTableRecord
100
AcDbLinetypeTableRecord
  2
DASHED
 70
     0
  3
Dashed
 72
    65
 73
     2
 40
15.0
 49
7.0
 74
     0
 49
-8.0
 74
     0
  0
LTYPE
  5
2F
330
5
100
AcDbSymbolTableRecord
100
AcDbLinetypeTableRecord
  2
DOTTED
 70
     0
  3
Dotted
 72
    65
 73
     2
 40
1.0
 49
0.0
 74
     0
 49
-1.0
 74
     0
  0
LTYPE
  5
30
330
5
100
AcDbSymbolTableRecord
100
AcDbLinetypeTableRecord
  2
DOT_CENTER
 70
     0
  3
Dot_Center
 72
    65
 73
     4
 40
14.0
 49
12.0
 74
     0
 49
-1.0
 74
     0
 49
0.0
 74
     0
 49
-1.0
 74
     0
  0
LTYPE
  5
31
330
5
100
AcDbSymbolTableRecord
100
AcDbLinetypeTableRecord
  2
LONG_DASHED
 70
     0
  3
Long_Dashed
 72
    65
 73
     2
 40
15.0
 49
10.0
 74
     0
 49
-5.0
 74
     0
  0
LTYPE
  5
32
330
5
100
AcDbSymbolTableRecord
100
AcDbLinetypeTableRecord
  2
DASH_CENTER
 70
     0
  3
Dash_Center
 72
    65
 73
     4
 40
14.0
 49
11.0
 74
     0
 49
-1.0
 74
     0
 49
1.0
 74
     0
 49
-1.0
 74
     0
  0
LTYPE
  5
33
330
5
100
AcDbSymbolTableRecord
100
AcDbLinetypeTableRecord
  2
PHANTOM
 70
     0
  3
Phantom
 72
    65
 73
     6
 40
13.0
 49
10.0
 74
     0
 49
-1.0
 74
     0
 49
0.0
 74
     0
 49
-1.0
 74
     0
 49
0.0
 74
     0
 49
-1.0
 74
     0
  0
LTYPE
  5
34
330
5
100
AcDbSymbolTableRecord
100
AcDbLinetypeTableRecord
  2
CENTER_DASH_DASH
 70
     0
  3
Center_Dash_Dash
 72
    65
 73
     6
 40
14.0
 49
9.0
 74
     0
 49
-1.0
 74
     0
 49
1.0
 74
     0
 49
-1.0
 74
     0
 49
1.0
 74
     0
 49
-1.0
 74
     0
  0
ENDTAB
  0
TABLE
  2
LAYER
  5
2
330
0
100
AcDbSymbolTable
 70
     5
  0
LAYER
  5
10
330
2
100
AcDbSymbolTableRecord
100
AcDbLayerTableRecord
  2
0
 70
     0
 62
     7
  6
Continuous
370
    -3
390
F
  0
LAYER
  5
35
330
2
100
AcDbSymbolTableRecord
100
AcDbLayerTableRecord
  2
1
 70
     0
 62
     7
  6
Continuous
370
    -3
390
F
  0
LAYER
  5
36
330
2
100
AcDbSymbolTableRecord
100
AcDbLayerTableRecord
  2
2
 70
     0
 62
     7
  6
Continuous
370
    -3
390
F
  0
LAYER
  5
37
330
2
100
AcDbSymbolTableRecord
100
AcDbLayerTableRecord
  2
27
 70
     0
 62
     7
  6
Continuous
370
    -3
390
F
  0
LAYER
  5
38
330
2
100
AcDbSymbolTableRecord
100
AcDbLayerTableRecord
  2
8
 70
     0
 62
     7
  6
Continuous
370
    -3
390
F
  0
ENDTAB
  0
TABLE
  2
STYLE
  5
3
330
0
100
AcDbSymbolTable
 70
     3
  0
STYLE
  5
11
330
3
100
AcDbSymbolTableRecord
100
AcDbTextStyleTableRecord
  2
Standard
 70
     0
 40
0.0
 41
1.0
 50
0.0
 71
     0
 42
0.2
  3
txt
  4

  0
STYLE
  5
1F9
330
3
100
AcDbSymbolTableRecord
100
AcDbTextStyleTableRecord
  2
CONVERTER_1
 70
     0
 40
0.0
 41
0.89
 50
0.0
 71
     0
 42
0.2
  3
msmincho.ttc
  4

1001
ACAD
1000
MS Mincho
1071
    32785
  0
STYLE
  5
203
330
3
100
AcDbSymbolTableRecord
100
AcDbTextStyleTableRecord
  2
CONVERTER_2
 70
     0
 40
0.0
 41
0.9
 50
0.0
 71
     0
 42
0.2
  3
txt.shx
  4

  0
ENDTAB
  0
TABLE
  2
VIEW
  5
6
330
0
100
AcDbSymbolTable
 70
     0
  0
ENDTAB
  0
TABLE
  2
UCS
  5
7
330
0
100
AcDbSymbolTable
 70
     0
  0
ENDTAB
  0
TABLE
  2
APPID
  5
9
330
0
100
AcDbSymbolTable
 70
     1
  0
APPID
  5
12
330
9
100
AcDbSymbolTableRecord
100
AcDbRegAppTableRecord
  2
ACAD
 70
     0
  0
ENDTAB
  0
TABLE
  2
DIMSTYLE
  5
A
330
0
100
AcDbSymbolTable
 70
    14
100
AcDbDimStyleTable
  0
DIMSTYLE
105
27
330
A
100
AcDbSymbolTableRecord
100
AcDbDimStyleTableRecord
  2
Standard
 70
     0
340
11
  0
DIMSTYLE
105
207
102
{ACAD_REACTORS
330
208
102
}
330
A
100
AcDbSymbolTableRecord
100
AcDbDimStyleTableRecord
  2
ME10_DIM_0
 70
     0
 41
5.25
 42
0.0
 44
1.5
 73
     0
 74
     0
 77
     1
 78
     8
140
5.25
147
0.625
172
     1
173
     1
176
     2
177
     2
178
     7
271
     2
340
203
  0
DIMSTYLE
105
2C4
102
{ACAD_REACTORS
330
2C5
102
}
330
A
100
AcDbSymbolTableRecord
100
AcDbDimStyleTableRecord
  2
ME10_DIM_1
 70
     0
  3
{\Fgdt;n}<>
 41
5.25
 42
0.0
 44
1.5
 73
     0
 74
     0
 77
     1
 78
     8
140
5.25
147
0.625
172
     1
173
     1
176
     2
177
     2
178
     7
271
     2
340
203
  0
DIMSTYLE
105
2CF
102
{ACAD_REACTORS
330
2D0
102
}
330
A
100
AcDbSymbolTableRecord
100
AcDbDimStyleTableRecord
  2
ME10_DIM_2
 70
     0
 41
5.25
 42
0.0
 44
1.5
 73
     0
 74
     0
 77
     1
 78
     8
140
5.25
147
0.625
172
     1
173
     1
176
     2
177
     2
178
     7
271
     2
340
203
  0
DIMSTYLE
105
2DA
102
{ACAD_REACTORS
330
2DB
102
}
330
A
100
AcDbSymbolTableRecord
100
AcDbDimStyleTableRecord
  2
ME10_DIM_3
 70
     0
 41
5.25
 42
0.0
 44
1.5
 73
     0
 74
     0
 77
     1
 78
     8
140
5.25
147
0.625
172
     1
173
     1
176
     2
177
     2
178
     7
271
     2
340
1F9
  0
DIMSTYLE
105
2E5
102
{ACAD_REACTORS
330
2E6
102
}
330
A
100
AcDbSymbolTableRecord
100
AcDbDimStyleTableRecord
  2
ME10_DIM_4
 70
     0
 41
5.25
 42
0.0
 44
1.5
 73
     0
 74
     0
 77
     1
 78
     8
140
5.25
147
0.625
172
     1
173
     1
176
     2
177
     2
178
     7
271
     2
340
203
  0
DIMSTYLE
105
2F0
102
{ACAD_REACTORS
330
2F1
102
}
330
A
100
AcDbSymbolTableRecord
100
AcDbDimStyleTableRecord
  2
ME10_DIM_5
 70
     0
 41
5.25
 42
0.0
 44
1.5
 73
     0
 74
     0
 77
     1
 78
     8
140
5.25
147
0.625
172
     1
173
     1
176
     2
177
     2
178
     7
271
     2
340
203
  0
DIMSTYLE
105
2FB
102
{ACAD_REACTORS
330
2FC
102
}
330
A
100
AcDbSymbolTableRecord
100
AcDbDimStyleTableRecord
  2
ME10_DIM_6
 70
     0
 41
5.25
 42
0.0
 44
1.5
 73
     0
 74
     0
 77
     1
 78
     8
140
5.25
147
0.625
172
     1
173
     1
176
     2
177
     2
178
     7
271
     2
340
203
  0
DIMSTYLE
105
306
102
{ACAD_REACTORS
330
307
102
}
330
A
100
AcDbSymbolTableRecord
100
AcDbDimStyleTableRecord
  2
ME10_DIM_7
 70
     0
 41
5.25
 42
0.0
 44
1.5
 73
     0
 74
     0
 77
     1
 78
     8
140
5.25
147
0.625
172
     1
173
     1
176
     2
177
     2
178
     7
271
     2
340
203
  0
DIMSTYLE
105
311
102
{ACAD_REACTORS
330
312
102
}
330
A
100
AcDbSymbolTableRecord
100
AcDbDimStyleTableRecord
  2
ME10_DIM_8
 70
     0
 41
5.25
 42
0.0
 44
1.5
 73
     0
 74
     0
 77
     1
 78
     8
140
5.25
147
0.625
172
     1
173
     1
176
     2
177
     2
178
     7
271
     2
340
203
  0
DIMSTYLE
105
31C
102
{ACAD_REACTORS
330
31D
102
}
330
A
100
AcDbSymbolTableRecord
100
AcDbDimStyleTableRecord
  2
ME10_DIM_9
 70
     0
 41
5.25
 42
0.0
 44
1.5
 73
     0
 74
     0
 77
     1
 78
     8
140
5.25
147
0.625
172
     1
173
     1
176
     2
177
     2
178
     7
271
     2
340
203
  0
DIMSTYLE
105
327
102
{ACAD_REACTORS
330
328
102
}
330
A
100
AcDbSymbolTableRecord
100
AcDbDimStyleTableRecord
  2
ME10_DIM_10
 70
     0
 41
5.25
 42
0.0
 44
1.5
 73
     0
 74
     0
 77
     1
 78
     8
140
5.25
147
0.625
172
     1
173
     1
176
     2
177
     2
178
     7
271
     2
340
203
  0
DIMSTYLE
105
332
102
{ACAD_REACTORS
330
333
102
}
330
A
100
AcDbSymbolTableRecord
100
AcDbDimStyleTableRecord
  2
ME10_DIM_11
 70
     0
 41
5.25
 42
0.0
 44
1.5
 73
     0
 74
     0
 77
     1
 78
     8
140
5.25
147
0.625
172
     1
173
     1
176
     2
177
     2
178
     7
271
     2
340
203
  0
DIMSTYLE
105
33D
102
{ACAD_REACTORS
330
33E
102
}
330
A
100
AcDbSymbolTableRecord
100
AcDbDimStyleTableRecord
  2
ME10_DIM_12
 70
     0
  3
{\Fgdt;n}<>
 41
5.25
 42
0.0
 44
1.5
 73
     0
 74
     0
 77
     1
 78
     8
140
5.25
147
0.625
172
     1
173
     1
176
     2
177
     2
178
     7
271
     2
340
203
  0
ENDTAB
  0
TABLE
  2
BLOCK_RECORD
  5
1
330
0
100
AcDbSymbolTable
 70
    23
  0
BLOCK_RECORD
  5
1F
330
1
100
AcDbSymbolTableRecord
100
AcDbBlockTableRecord
  2
*Model_Space
340
22
  0
BLOCK_RECORD
  5
1B
330
1
100
AcDbSymbolTableRecord
100
AcDbBlockTableRecord
  2
*Paper_Space
340
1E
  0
BLOCK_RECORD
  5
23
330
1
100
AcDbSymbolTableRecord
100
AcDbBlockTableRecord
  2
*Paper_Space0
340
26
  0
BLOCK_RECORD
  5
39
330
1
100
AcDbSymbolTableRecord
100
AcDbBlockTableRecord
  2
37-1-13
340
0
102
{BLKREFS
331
56
102
}
  0
BLOCK_RECORD
  5
3C
330
1
100
AcDbSymbolTableRecord
100
AcDbBlockTableRecord
  2
36-45
340
0
102
{BLKREFS
331
57
102
}
  0
BLOCK_RECORD
  5
3F
330
1
100
AcDbSymbolTableRecord
100
AcDbBlockTableRecord
  2
B2110-0-M11
340
0
102
{BLKREFS
331
58
102
}
  0
BLOCK_RECORD
  5
42
330
1
100
AcDbSymbolTableRecord
100
AcDbBlockTableRecord
  2
06-96-M11
340
0
102
{BLKREFS
331
59
102
}
  0
BLOCK_RECORD
  5
45
330
1
100
AcDbSymbolTableRecord
100
AcDbBlockTableRecord
  2
_J__A4
340
0
102
{BLKREFS
331
5A
102
}
  0
BLOCK_RECORD
  5
48
330
1
100
AcDbSymbolTableRecord
100
AcDbBlockTableRecord
  2
71-12-15-C2
340
0
102
{BLKREFS
331
5B
102
}
  0
BLOCK_RECORD
  5
4B
330
1
100
AcDbSymbolTableRecord
100
AcDbBlockTableRecord
  2
34-98AK
340
0
102
{BLKREFS
331
52
102
}
  0
BLOCK_RECORD
  5
4E
330
1
100
AcDbSymbolTableRecord
100
AcDbBlockTableRecord
  2
36-140AK
340
0
102
{BLKREFS
331
53
102
}
  0
BLOCK_RECORD
  5
51
330
1
100
AcDbSymbolTableRecord
100
AcDbBlockTableRecord
  2
34-98AX
340
0
102
{BLKREFS
331
5C
102
}
  0
BLOCK_RECORD
  5
1FB
330
1
100
AcDbSymbolTableRecord
100
AcDbBlockTableRecord
  2
*D010
340
0
  0
BLOCK_RECORD
  5
2BB
330
1
100
AcDbSymbolTableRecord
100
AcDbBlockTableRecord
  2
*D111
340
0
  0
BLOCK_RECORD
  5
2C6
330
1
100
AcDbSymbolTableRecord
100
AcDbBlockTableRecord
  2
*D212
340
0
  0
BLOCK_RECORD
  5
2D1
330
1
100
AcDbSymbolTableRecord
100
AcDbBlockTableRecord
  2
*D313
340
0
  0
BLOCK_RECORD
  5
2DC
330
1
100
AcDbSymbolTableRecord
100
AcDbBlockTableRecord
  2
*D414
340
0
  0
BLOCK_RECORD
  5
2E7
330
1
100
AcDbSymbolTableRecord
100
AcDbBlockTableRecord
  2
*D515
340
0
  0
BLOCK_RECORD
  5
2F2
330
1
100
AcDbSymbolTableRecord
100
AcDbBlockTableRecord
  2
*D616
340
0
  0
BLOCK_RECORD
  5
2FD
330
1
100
AcDbSymbolTableRecord
100
AcDbBlockTableRecord
  2
*D717
340
0
  0
BLOCK_RECORD
  5
308
330
1
100
AcDbSymbolTableRecord
100
AcDbBlockTableRecord
  2
*D818
340
0
  0
BLOCK_RECORD
  5
313
330
1
100
AcDbSymbolTableRecord
100
AcDbBlockTableRecord
  2
*D919
340
0
  0
BLOCK_RECORD
  5
31E
330
1
100
AcDbSymbolTableRecord
100
AcDbBlockTableRecord
  2
*D1020
340
0
  0
BLOCK_RECORD
  5
329
330
1
100
AcDbSymbolTableRecord
100
AcDbBlockTableRecord
  2
*D1121
340
0
  0
BLOCK_RECORD
  5
334
330
1
100
AcDbSymbolTableRecord
100
AcDbBlockTableRecord
  2
*D1222
340
0
  0
ENDTAB
  0
ENDSEC
  0
SECTION
  2
BLOCKS
  0
BLOCK
  5
20
330
1F
100
AcDbEntity
  8
0
100
AcDbBlockBegin
  2
*Model_Space
 70
     0
 71
     0
 10
0.0
 20
0.0
 30
0.0
  3
*Model_Space
  1

  0
ENDBLK
  5
21
330
1F
100
AcDbEntity
  8
0
100
AcDbBlockEnd
  0
BLOCK
  5
1C
330
1B
100
AcDbEntity
 67
     1
  8
0
100
AcDbBlockBegin
  2
*Paper_Space
 70
     0
 71
     0
 10
0.0
 20
0.0
 30
0.0
  3
*Paper_Space
  1

  0
ENDBLK
  5
1D
330
1B
100
AcDbEntity
 67
     1
  8
0
100
AcDbBlockEnd
  0
BLOCK
  5
24
330
23
100
AcDbEntity
  8
0
100
AcDbBlockBegin
  2
*Paper_Space0
 70
     0
 71
     0
 10
0.0
 20
0.0
 30
0.0
  3
*Paper_Space0
  1

  0
ENDBLK
  5
25
330
23
100
AcDbEntity
  8
0
100
AcDbBlockEnd
  0
BLOCK
  5
3A
330
39
100
AcDbEntity
  8
0
100
AcDbBlockBegin
  2
37-1-13
 70
     0
 71
     0
 10
320.0237322319395
 20
-195.313467695038
 30
0.0
  3
37-1-13
  1

  0
LINE
  5
5D
330
39
100
AcDbEntity
  8
1
  6
DASH_CENTER
 62
     2
100
AcDbLine
 10
177.9183552927922
 20
159.0
 30
0.0
 11
177.9184539688793
 21
159.0
 31
0.0
  0
LINE
  5
5E
330
39
100
AcDbEntity
  8
1
  6
PHANTOM
 62
     4
100
AcDbLine
 10
180.9184539688793
 20
159.0
 30
0.0
 11
160.9184539688793
 21
159.0
 31
0.0
  0
LINE
  5
5F
330
39
100
AcDbEntity
  8
1
  6
Continuous
 62
     7
100
AcDbLine
 10
170.4184539688791
 20
146.5000000000001
 30
0.0
 11
170.4184539688793
 21
159.0
 31
0.0
  0
LINE
  5
60
330
39
100
AcDbEntity
  8
1
  6
Continuous
 62
     7
100
AcDbLine
 10
177.9184539688793
 20
159.0
 30
0.0
 11
177.9184539688793
 21
145.9292857857287
 31
0.0
  0
LINE
  5
61
330
39
100
AcDbEntity
  8
1
  6
Continuous
 62
     7
100
AcDbLine
 10
163.9184539688793
 20
159.0
 30
0.0
 11
163.9184539688793
 21
153.0
 31
0.0
  0
LINE
  5
62
330
39
100
AcDbEntity
  8
1
  6
Continuous
 62
     7
100
AcDbLine
 10
163.9184539688793
 20
164.9999999999999
 30
0.0
 11
163.9184539688793
 21
159.0
 31
0.0
  0
LINE
  5
63
330
39
100
AcDbEntity
  8
1
  6
Continuous
 62
     7
100
AcDbLine
 10
177.9184539688793
 20
172.0707142142714
 30
0.0
 11
177.9184539688793
 21
159.0
 31
0.0
  0
LINE
  5
64
330
39
100
AcDbEntity
  8
1
  6
Continuous
 62
     7
100
AcDbLine
 10
170.4184539688793
 20
159.0
 30
0.0
 11
170.4184539688791
 21
171.4999999999998
 31
0.0
  0
LINE
  5
65
330
39
100
AcDbEntity
  8
1
  6
Continuous
 62
     7
100
AcDbLine
 10
170.4184539688793
 20
308.1347530241941
 30
0.0
 11
170.4184539688793
 21
308.7126749935994
 31
0.0
  0
LINE
  5
66
330
39
100
AcDbEntity
  8
1
  6
Continuous
 62
     7
100
AcDbLine
 10
177.9184539688794
 20
332.634753024194
 30
0.0
 11
177.9184539688794
 21
333.7054672384654
 31
0.0
  0
LINE
  5
67
330
39
100
AcDbEntity
  8
1
  6
PHANTOM
 62
     4
100
AcDbLine
 10
180.9184539688794
 20
320.634753024194
 30
0.0
 11
160.9184539688794
 21
320.634753024194
 31
0.0
  0
LINE
  5
68
330
39
100
AcDbEntity
  8
1
  6
Continuous
 62
     7
100
AcDbLine
 10
177.9184539688794
 20
307.6347530241939
 30
0.0
 11
170.847739754608
 21
307.6347530241939
 31
0.0
  0
LINE
  5
69
330
39
100
AcDbEntity
  8
1
  6
Continuous
 62
     7
100
AcDbLine
 10
170.7462127104033
 20
333.6347530241939
 30
0.0
 11
177.9184539688794
 21
333.6347530241939
 31
0.0
  0
LINE
  5
6A
330
39
100
AcDbEntity
  8
1
  6
Continuous
 62
     7
100
AcDbLine
 10
170.4184539688793
 20
332.5568310547887
 30
0.0
 11
170.4184539688793
 21
333.1347530241939
 31
0.0
  0
LINE
  5
6B
330
39
100
AcDbEntity
  8
1
  6
Continuous
 62
     7
100
AcDbLine
 10
177.9184539688793
 20
308.634753024194
 30
0.0
 11
177.9184539688794
 21
307.6347530241939
 31
0.0
  0
LINE
  5
6C
330
39
100
AcDbEntity
  8
1
  6
PHANTOM
 62
     4
100
AcDbLine
 10
62.10214391383398
 20
159.0
 30
0.0
 11
93.16515071187722
 21
159.0
 31
0.0
  0
LINE
  5
6D
330
39
100
AcDbEntity
  8
1
  6
PHANTOM
 62
     4
100
AcDbLine
 10
77.66845396887932
 20
141.0010914295203
 30
0.0
 11
77.66845396887932
 21
176.7049856973907
 31
0.0
  0
LINE
  5
6E
330
39
100
AcDbEntity
  8
1
  6
Continuous
 62
     7
100
AcDbLine
 10
84.16845396887932
 20
147.7416697508023
 30
0.0
 11
78.60630510355752
 21
144.530361606136
 31
0.0
  0
LINE
  5
6F
330
39
100
AcDbEntity
  8
1
  6
Continuous
 62
     7
100
AcDbLine
 10
90.66845396887932
 20
159.0
 30
0.0
 11
90.66845396887932
 21
152.5773837106674
 31
0.0
  0
LINE
  5
70
330
39
100
AcDbEntity
  8
1
  6
Continuous
 62
     7
100
AcDbLine
 10
84.16845396887932
 20
170.2583302491977
 30
0.0
 11
89.73060283420111
 21
167.0470221045314
 31
0.0
  0
LINE
  5
71
330
39
100
AcDbEntity
  8
1
  6
Continuous
 62
     7
100
AcDbLine
 10
71.16845396887929
 20
170.2583302491977
 30
0.0
 11
76.73060283420111
 21
173.469638393864
 31
0.0
  0
LINE
  5
72
330
39
100
AcDbEntity
  8
1
  6
Continuous
 62
     7
100
AcDbLine
 10
64.66845396887929
 20
159.0
 30
0.0
 11
64.66845396887929
 21
165.4226162893326
 31
0.0
  0
LINE
  5
73
330
39
100
AcDbEntity
  8
1
  6
Continuous
 62
     7
100
AcDbLine
 10
71.16845396887929
 20
147.7416697508023
 30
0.0
 11
65.60630510355749
 21
150.9529778954686
 31
0.0
  0
LINE
  5
74
330
39
100
AcDbEntity
  8
1
  6
Continuous
 62
     7
100
AcDbLine
 10
89.73060283420111
 20
150.9529778954686
 30
0.0
 11
84.16845396887932
 21
147.7416697508023
 31
0.0
  0
LINE
  5
75
330
39
100
AcDbEntity
  8
1
  6
Continuous
 62
     7
100
AcDbLine
 10
90.66845396887932
 20
165.4226162893326
 30
0.0
 11
90.66845396887932
 21
159.0
 31
0.0
  0
LINE
  5
76
330
39
100
AcDbEntity
  8
1
  6
Continuous
 62
     7
100
AcDbLine
 10
78.60630510355752
 20
173.469638393864
 30
0.0
 11
84.16845396887932
 21
170.2583302491977
 31
0.0
  0
LINE
  5
77
330
39
100
AcDbEntity
  8
1
  6
Continuous
 62
     7
100
AcDbLine
 10
65.60630510355749
 20
167.0470221045314
 30
0.0
 11
71.16845396887929
 21
170.2583302491977
 31
0.0
  0
LINE
  5
78
330
39
100
AcDbEntity
  8
1
  6
Continuous
 62
     7
100
AcDbLine
 10
64.66845396887929
 20
152.5773837106674
 30
0.0
 11
64.66845396887929
 21
159.0
 31
0.0
  0
LINE
  5
79
330
39
100
AcDbEntity
  8
1
  6
Continuous
 62
     7
100
AcDbLine
 10
76.73060283420111
 20
144.530361606136
 30
0.0
 11
71.16845396887929
 21
147.7416697508023
 31
0.0
  0
ARC
  5
7A
330
39
100
AcDbEntity
  8
1
  6
Continuous
 62
     7
100
AcDbCircle
 10
174.4184539688793
 20
149.5
 30
0.0
 40
5.000000000000091
100
AcDbArc
 50
-143.1301023541584
 51
-45.57299599919334
  0
ARC
  5
7B
330
39
100
AcDbEntity
  8
1
  6
Continuous
 62
     7
100
AcDbCircle
 10
150.5119987637643
 20
133.0935447948851
 30
0.0
 40
23.99999999999995
100
AcDbArc
 50
33.95919250009782
 51
56.0408074999023
  0
ARC
  5
7C
330
39
100
AcDbEntity
  8
1
  6
Continuous
 62
     7
100
AcDbCircle
 10
150.5119987637643
 20
184.9064552051149
 30
0.0
 40
24.00000000000012
100
AcDbArc
 50
-56.04080749990245
 51
-33.95919250009798
  0
ARC
  5
7D
330
39
100
AcDbEntity
  8
1
  6
Continuous
 62
     7
100
AcDbCircle
 10
174.4184539688793
 20
168.4999999999999
 30
0.0
 40
5.000000000000057
100
AcDbArc
 50
45.57299599919494
 51
143.1301023541581
  0
ARC
  5
7E
330
39
100
AcDbEntity
  8
1
  6
Continuous
 62
     7
100
AcDbCircle
 10
150.5119987637644
 20
346.5412082293088
 30
0.0
 40
23.99999999999988
100
AcDbArc
 50
-35.67683356557378
 51
-32.53189151774819
  0
ARC
  5
7F
330
39
100
AcDbEntity
  8
1
  6
Continuous
 62
     7
100
AcDbCircle
 10
174.4184539688794
 20
311.134753024194
 30
0.0
 40
5.000000000000034
100
AcDbArc
 50
-143.1301023541571
 51
-135.5729959991931
  0
ARC
  5
80
330
39
100
AcDbEntity
  8
1
  6
Continuous
 62
     7
100
AcDbCircle
 10
150.5119987637644
 20
294.7282978190791
 30
0.0
 40
24.00000000000001
100
AcDbArc
 50
33.95919250009765
 51
35.676833565574
  0
ARC
  5
81
330
39
100
AcDbEntity
  8
1
  6
Continuous
 62
     7
100
AcDbCircle
 10
77.66845396887932
 20
159.0
 30
0.0
 40
14.5
100
AcDbArc
 50
86.29155527472959
 51
90.0
  0
ARC
  5
82
330
39
100
AcDbEntity
  8
1
  6
Continuous
 62
     7
100
AcDbCircle
 10
77.66845396887932
 20
159.0
 30
0.0
 40
14.5
100
AcDbArc
 50
-93.70844472527047
 51
-90.0
  0
ARC
  5
83
330
39
100
AcDbEntity
  8
1
  6
Continuous
 62
     7
100
AcDbCircle
 10
77.66845396887932
 20
159.0
 30
0.0
 40
14.5
100
AcDbArc
 50
-90.0
 51
-86.29155527472959
  0
ARC
  5
84
330
39
100
AcDbEntity
  8
1
  6
Continuous
 62
     7
100
AcDbCircle
 10
77.66845396887932
 20
159.0
 30
0.0
 40
13.00000000000002
100
AcDbArc
 50
-120.0000000000001
 51
-60.00000000000002
  0
ARC
  5
85
330
39
100
AcDbEntity
  8
1
  6
Continuous
 62
     7
100
AcDbCircle
 10
77.66845396887932
 20
159.0
 30
0.0
 40
14.50000000000003
100
AcDbArc
 50
-33.7084447252705
 51
-26.29155527472953
  0
ARC
  5
86
330
39
100
AcDbEntity
  8
1
  6
Continuous
 62
     7
100
AcDbCircle
 10
77.66845396887932
 20
159.0
 30
0.0
 40
13.00000000000001
100
AcDbArc
 50
-60.00000000000002
 51
0.0
  0
ARC
  5
87
330
39
100
AcDbEntity
  8
1
  6
Continuous
 62
     7
100
AcDbCircle
 10
77.66845396887932
 20
159.0
 30
0.0
 40
14.50000000000002
100
AcDbArc
 50
26.29155527472953
 51
33.7084447252705
  0
ARC
  5
88
330
39
100
AcDbEntity
  8
1
  6
Continuous
 62
     7
100
AcDbCircle
 10
77.66845396887932
 20
159.0
 30
0.0
 40
13.0
100
AcDbArc
 50
0.0
 51
60.00000000000002
  0
ARC
  5
89
330
39
100
AcDbEntity
  8
1
  6
Continuous
 62
     7
100
AcDbCircle
 10
77.66845396887932
 20
159.0
 30
0.0
 40
14.5
100
AcDbArc
 50
90.0
 51
93.70844472527047
  0
ARC
  5
8A
330
39
100
AcDbEntity
  8
1
  6
Continuous
 62
     7
100
AcDbCircle
 10
77.66845396887932
 20
159.0
 30
0.0
 40
13.00000000000001
100
AcDbArc
 50
60.00000000000002
 51
120.0000000000001
  0
ARC
  5
8B
330
39
100
AcDbEntity
  8
1
  6
Continuous
 62
     7
100
AcDbCircle
 10
77.66845396887932
 20
159.0
 30
0.0
 40
14.50000000000006
100
AcDbArc
 50
146.2915552747296
 51
153.7084447252705
  0
ARC
  5
8C
330
39
100
AcDbEntity
  8
1
  6
Continuous
 62
     7
100
AcDbCircle
 10
77.66845396887932
 20
159.0
 30
0.0
 40
13.00000000000003
100
AcDbArc
 50
180.0
 51
-120.0000000000001
  0
ARC
  5
8D
330
39
100
AcDbEntity
  8
1
  6
Continuous
 62
     7
100
AcDbCircle
 10
77.66845396887932
 20
159.0
 30
0.0
 40
13.00000000000002
100
AcDbArc
 50
120.0000000000001
 51
180.0
  0
ARC
  5
8E
330
39
100
AcDbEntity
  8
1
  6
Continuous
 62
     7
100
AcDbCircle
 10
77.66845396887932
 20
159.0
 30
0.0
 40
14.50000000000004
100
AcDbArc
 50
-153.7084447252705
 51
-146.2915552747296
  0
CIRCLE
  5
8F
330
39
100
AcDbEntity
  8
1
  6
Continuous
 62
     7
100
AcDbCircle
 10
77.66845396887932
 20
159.0
 30
0.0
 40
5.0
  0
CIRCLE
  5
90
330
39
100
AcDbEntity
  8
1
  6
Continuous
 62
     7
100
AcDbCircle
 10
77.66845396887932
 20
159.0
 30
0.0
 40
6.0
  0
SPLINE
  5
91
330
39
100
AcDbEntity
  8
1
  6
Continuous
 62
     7
100
AcDbSpline
210
0.0
220
0.0
230
1.0
 70
     8
 71
     3
 72
    29
 73
    25
 74
    23
 42
0.0000000001
 43
0.0000000001
 44
0.00000001
 40
0.0
 40
0.0
 40
0.0
 40
0.0
 40
0.6069077131759006
 40
1.212222625822616
 40
1.842666707826666
 40
2.474631900595337
 40
3.102420172365277
 40
3.729333891456256
 40
4.271042939833063
 40
4.812985328221173
 40
5.340107980728343
 40
5.866248927280004
 40
6.263874837343174
 40
6.661485236222339
 40
7.280966497568993
 40
7.902596738528116
 40
8.549168915178818
 40
9.195896772489245
 40
9.722415974179301
 40
10.24911841725704
 40
11.07897537274019
 40
11.90732207846643
 40
12.67331709995026
 40
13.44191271185813
 40
13.44191271185813
 40
13.44191271185813
 40
13.44191271185813
 10
170.9184539688793
 20
159.0
 30
0.0
 10
170.9283293423416
 20
159.2020598295575
 30
0.0
 10
170.9480541718166
 20
159.6056491922262
 30
0.0
 10
171.0118445258696
 20
160.2173547425648
 30
0.0
 10
171.146027823187
 20
160.8267718044547
 30
0.0
 10
171.3464834438715
 20
161.42517797996
 30
0.0
 10
171.6050445606894
 20
161.9997405118557
 30
0.0
 10
171.9139739504606
 20
162.5146383095272
 30
0.0
 10
172.2677908750356
 20
162.9636571835254
 30
0.0
 10
172.6558155431985
 20
163.3375987860165
 30
0.0
 10
173.0927459469612
 20
163.6445646874767
 30
0.0
 10
173.5329599140614
 20
163.8518733450106
 30
0.0
 10
173.9596690347461
 20
163.9677759332814
 30
0.0
 10
174.4305844772482
 20
164.0184791381759
 30
0.0
 10
174.9795590702923
 20
163.9580228148979
 30
0.0
 10
175.5773051365123
 20
163.7450755831512
 30
0.0
 10
176.1189073825108
 20
163.3978386458048
 30
0.0
 10
176.5595153506484
 20
162.9764809199722
 30
0.0
 10
176.9093892742853
 20
162.5290674297152
 30
0.0
 10
177.2382996572746
 20
161.9932310437927
 30
0.0
 10
177.5420382789016
 20
161.3283399938792
 30
0.0
 10
177.7668081442444
 20
160.5486789324053
 30
0.0
 10
177.8711949496537
 20
159.7662733140957
 30
0.0
 10
177.9026174284027
 20
159.2557128447333
 30
0.0
 10
177.9183552927922
 20
159.0
 30
0.0
 11
170.9184539688793
 21
159.0
 31
0.0
 11
170.9536548346416
 21
159.6058860217582
 31
0.0
 11
171.0220118267257
 21
160.2073288412396
 31
0.0
 11
171.1566883125502
 21
160.8232200529807
 31
0.0
 11
171.3567532044953
 21
161.4226815145294
 31
0.0
 11
171.6161344427455
 21
161.9943802878495
 31
0.0
 11
171.9403543975235
 21
162.5309455048625
 31
0.0
 11
172.2769635375046
 21
162.9553780436416
 31
0.0
 11
172.6684539688793
 21
163.3301270189222
 31
0.0
 11
173.1007991300978
 21
163.6316829048822
 31
0.0
 11
173.5778015157139
 21
163.853703218716
 31
0.0
 11
173.9616505458436
 21
163.9574639358591
 31
0.0
 11
174.3570620916579
 21
163.9992220336798
 31
0.0
 11
174.9731665458679
 21
163.9346284220585
 31
0.0
 11
175.5591007161446
 21
163.7270102519071
 31
0.0
 11
176.1057023500586
 21
163.381637651052
 31
0.0
 11
176.5756783301389
 21
162.937363524449
 31
0.0
 11
176.9011529777101
 21
162.5234931056743
 31
0.0
 11
177.1780584758898
 21
162.0754542584502
 31
0.0
 11
177.5230205640672
 21
161.3206935518126
 31
0.0
 11
177.7516980538135
 21
160.5245372414245
 31
0.0
 11
177.8620181828281
 21
159.766528110825
 31
0.0
 11
177.9183552927922
 21
159.0
 31
0.0
  0
SPLINE
  5
92
330
39
100
AcDbEntity
  8
1
  6
Continuous
 62
     7
100
AcDbSpline
210
0.0
220
0.0
230
1.0
 70
    11
 71
     3
 72
    79
 73
    75
 74
    73
 42
0.0000000001
 43
0.0000000001
 44
0.00000001
 40
0.0
 40
0.0
 40
0.0
 40
0.0
 40
0.2803981145479299
 40
0.560797785903316
 40
0.8427454841468224
 40
1.124697473048477
 40
1.409536451638125
 40
1.694381500885919
 40
1.983071310125285
 40
2.271767843422967
 40
2.564776142200932
 40
2.857790854546406
 40
3.155055698552841
 40
3.452325978930932
 40
3.753284827389711
 40
4.054247742882629
 40
4.357919806975588
 40
4.66159436832878
 40
4.966700748943411
 40
5.271807969839443
 40
5.576915190735305
 40
5.882021571349795
 40
6.185696132702993
 40
6.489368196795944
 40
6.79033111228901
 40
7.091289960747931
 40
7.388560241125884
 40
7.685825085132266
 40
7.978839797477842
 40
8.271848096255786
 40
8.560544629553453
 40
8.849234438792763
 40
9.134079488040561
 40
9.418918466630146
 40
9.700870455531899
 40
9.982818153775384
 40
10.26321782513079
 40
10.54361593967872
 40
10.82401405422665
 40
11.10441372558206
 40
11.38636142382548
 40
11.66831341272722
 40
11.95315239131682
 40
12.23799744056458
 40
12.52668724980389
 40
12.81538378310158
 40
13.10839208187952
 40
13.4014067942251
 40
13.69867163823141
 40
13.99594191860946
 40
14.29690076706837
 40
14.59786368256146
 40
14.90153574665441
 40
15.20521030800761
 40
15.5103166886221
 40
15.81542390951796
 40
16.12053113041397
 40
16.42563751102863
 40
16.72931207238182
 40
17.03298413647477
 40
17.33394705196772
 40
17.63490590042649
 40
17.9321761808046
 40
18.22944102481104
 40
18.52245573715655
 40
18.81546403593448
 40
19.1041605692322
 40
19.39285037847155
 40
19.67769542771931
 40
19.96253440630888
 40
20.24448639521062
 40
20.52643409345404
 40
20.80683376480943
 40
21.08723187935736
 40
21.08723187935736
 40
21.08723187935736
 40
21.08723187935736
 10
170.9184539688793
 20
170.2583302491976
 30
0.0
 10
170.9210353547685
 20
170.3518307922511
 30
0.0
 10
170.9261981408792
 20
170.5388323974856
 30
0.0
 10
170.967670490928
 20
170.8173168107256
 30
0.0
 10
171.0335706513207
 20
171.0912590071279
 30
0.0
 10
171.1258027605547
 20
171.3591871724634
 30
0.0
 10
171.2428849499136
 20
171.6182329600237
 30
0.0
 10
171.384361231493
 20
171.8673922541765
 30
0.0
 10
171.5486435774861
 20
172.1037022743544
 30
0.0
 10
171.7351037257025
 20
172.3264772682723
 30
0.0
 10
171.9415282006397
 20
172.5329333005705
 30
0.0
 10
172.1672458950762
 20
172.7225460442109
 30
0.0
 10
172.4095366934249
 20
172.8929452201365
 30
0.0
 10
172.6675941862649
 20
173.0436580277443
 30
0.0
 10
172.9384213897468
 20
173.1728811642698
 30
0.0
 10
173.2209382432434
 20
173.2801608374543
 30
0.0
 10
173.5121262138366
 20
173.3643153410096
 30
0.0
 10
173.8105049867514
 20
173.4249586148406
 30
0.0
 10
174.1132659586316
 20
173.461492377112
 30
0.0
 10
174.4184539688795
 20
173.4737114078485
 30
0.0
 10
174.7236419791258
 20
173.461492377112
 30
0.0
 10
175.0264029510106
 20
173.4249586148406
 30
0.0
 10
175.3247817239085
 20
173.3643153410096
 30
0.0
 10
175.6159696945643
 20
173.2801608374543
 30
0.0
 10
175.8984865478293
 20
173.1728811642699
 30
0.0
 10
176.169313752171
 20
173.0436580277444
 30
0.0
 10
176.42737124184
 20
172.8929452201365
 30
0.0
 10
176.6696620519357
 20
172.7225460442109
 30
0.0
 10
176.8953797031334
 20
172.5329333005704
 30
0.0
 10
177.10180433816
 20
172.3264772682723
 30
0.0
 10
177.2882638973372
 20
172.1037022743544
 30
0.0
 10
177.4525484250482
 20
171.8673922541765
 30
0.0
 10
177.5940166681182
 20
171.6182329600238
 30
0.0
 10
177.7111286717198
 20
171.3591871724634
 30
0.0
 10
177.8032505901925
 20
171.0912590071279
 30
0.0
 10
177.8695603557603
 20
170.8173168107256
 30
0.0
 10
177.9095120208561
 20
170.5388323974855
 30
0.0
 10
177.9229249304792
 20
170.2583302491976
 30
0.0
 10
177.9095120208561
 20
169.9778281009096
 30
0.0
 10
177.8695603557603
 20
169.6993436876696
 30
0.0
 10
177.8032505901927
 20
169.4254014912673
 30
0.0
 10
177.7111286717197
 20
169.1574733259319
 30
0.0
 10
177.5940166681182
 20
168.8984275383716
 30
0.0
 10
177.4525484250482
 20
168.6492682442188
 30
0.0
 10
177.2882638973372
 20
168.412958224041
 30
0.0
 10
177.10180433816
 20
168.1901832301229
 30
0.0
 10
176.8953797031335
 20
167.9837271978249
 30
0.0
 10
176.6696620519356
 20
167.7941144541844
 30
0.0
 10
176.4273712418402
 20
167.6237152782588
 30
0.0
 10
176.169313752171
 20
167.4730024706508
 30
0.0
 10
175.8984865478294
 20
167.3437793341254
 30
0.0
 10
175.6159696945643
 20
167.2364996609409
 30
0.0
 10
175.3247817239085
 20
167.1523451573857
 30
0.0
 10
175.0264029510105
 20
167.0917018835546
 30
0.0
 10
174.7236419791258
 20
167.0551681212833
 30
0.0
 10
174.4184539688795
 20
167.0429490905466
 30
0.0
 10
174.1132659586316
 20
167.0551681212833
 30
0.0
 10
173.8105049867514
 20
167.0917018835546
 30
0.0
 10
173.5121262138365
 20
167.1523451573857
 30
0.0
 10
173.2209382432434
 20
167.2364996609409
 30
0.0
 10
172.9384213897468
 20
167.3437793341254
 30
0.0
 10
172.6675941862649
 20
167.4730024706508
 30
0.0
 10
172.4095366934249
 20
167.6237152782588
 30
0.0
 10
172.1672458950761
 20
167.7941144541844
 30
0.0
 10
171.9415282006396
 20
167.9837271978249
 30
0.0
 10
171.7351037257025
 20
168.190183230123
 30
0.0
 10
171.5486435774861
 20
168.412958224041
 30
0.0
 10
171.3843612314929
 20
168.6492682442188
 30
0.0
 10
171.2428849499138
 20
168.8984275383716
 30
0.0
 10
171.1258027605546
 20
169.1574733259319
 30
0.0
 10
171.0335706513208
 20
169.4254014912673
 30
0.0
 10
170.967670490928
 20
169.6993436876696
 30
0.0
 10
170.9261981408792
 20
169.9778281009097
 30
0.0
 10
170.9210353547685
 20
170.1648297061441
 30
0.0
 10
170.9184539688793
 20
170.2583302491976
 30
0.0
 11
170.9184539688793
 21
170.2583302491976
 31
0.0
 11
170.9318067541774
 21
170.5384102480672
 31
0.0
 11
170.9716268333365
 21
170.8159680564459
 31
0.0
 11
171.0378864160605
 21
171.0900194608248
 31
0.0
 11
171.1295297961285
 21
171.3566623210992
 31
0.0
 11
171.2467777964137
 21
171.6162507456353
 31
0.0
 11
171.3873650556337
 21
171.8639843215308
 31
0.0
 11
171.5520622509858
 21
172.1010848061398
 31
0.0
 11
171.7372984179629
 21
172.3225193354746
 31
0.0
 11
171.9443912948781
 21
172.5298027247844
 31
0.0
 11
172.1686973349763
 21
172.7183350085619
 31
0.0
 11
172.4117921656772
 21
172.8894235551356
 31
0.0
 11
172.6684539688793
 21
173.0394046818585
 31
0.0
 11
172.9400421888504
 21
173.1690814617328
 31
0.0
 11
173.2213834672393
 21
173.2759728158102
 31
0.0
 11
173.5131009507848
 21
173.3603388771405
 31
0.0
 11
173.8106853470449
 21
173.4208514073762
 31
0.0
 11
174.1135910815792
 21
173.4574303559392
 31
0.0
 11
174.4184539688793
 21
173.4696383938639
 31
0.0
 11
174.7233168561792
 21
173.4574303559392
 31
0.0
 11
175.0262225907134
 21
173.4208514073762
 31
0.0
 11
175.3238069869736
 21
173.3603388771405
 31
0.0
 11
175.615524470519
 21
173.2759728158102
 31
0.0
 11
175.8968657489081
 21
173.1690814617329
 31
0.0
 11
176.1684539688793
 21
173.0394046818585
 31
0.0
 11
176.4251157720813
 21
172.8894235551356
 31
0.0
 11
176.6682106027821
 21
172.7183350085619
 31
0.0
 11
176.8925166428804
 21
172.5298027247843
 31
0.0
 11
177.0996095197956
 21
172.3225193354746
 31
0.0
 11
177.2848456867727
 21
172.1010848061398
 31
0.0
 11
177.4495428821247
 21
171.8639843215308
 31
0.0
 11
177.5901301413448
 21
171.6162507456353
 31
0.0
 11
177.7073781416299
 21
171.3566623210993
 31
0.0
 11
177.7990215216979
 21
171.0900194608248
 31
0.0
 11
177.8652811044219
 21
170.8159680564459
 31
0.0
 11
177.9051011835811
 21
170.5384102480672
 31
0.0
 11
177.9184539688793
 21
170.2583302491976
 31
0.0
 11
177.9051011835811
 21
169.978250250328
 31
0.0
 11
177.8652811044219
 21
169.7006924419493
 31
0.0
 11
177.799021521698
 21
169.4266410375705
 31
0.0
 11
177.7073781416299
 21
169.159998177296
 31
0.0
 11
177.5901301413447
 21
168.90040975276
 31
0.0
 11
177.4495428821247
 21
168.6526761768645
 31
0.0
 11
177.2848456867727
 21
168.4155756922555
 31
0.0
 11
177.0996095197956
 21
168.1941411629207
 31
0.0
 11
176.8925166428804
 21
167.986857773611
 31
0.0
 11
176.6682106027821
 21
167.7983254898334
 31
0.0
 11
176.4251157720814
 21
167.6272369432597
 31
0.0
 11
176.1684539688793
 21
167.4772558165367
 31
0.0
 11
175.8968657489081
 21
167.3475790366623
 31
0.0
 11
175.615524470519
 21
167.240687682585
 31
0.0
 11
175.3238069869736
 21
167.1563216212547
 31
0.0
 11
175.0262225907134
 21
167.095809091019
 31
0.0
 11
174.7233168561792
 21
167.059230142456
 31
0.0
 11
174.4184539688793
 21
167.0470221045313
 31
0.0
 11
174.1135910815793
 21
167.059230142456
 31
0.0
 11
173.8106853470449
 21
167.095809091019
 31
0.0
 11
173.5131009507848
 21
167.1563216212547
 31
0.0
 11
173.2213834672393
 21
167.240687682585
 31
0.0
 11
172.9400421888504
 21
167.3475790366624
 31
0.0
 11
172.6684539688793
 21
167.4772558165367
 31
0.0
 11
172.4117921656772
 21
167.6272369432597
 31
0.0
 11
172.1686973349763
 21
167.7983254898334
 31
0.0
 11
171.9443912948781
 21
167.986857773611
 31
0.0
 11
171.7372984179629
 21
168.1941411629207
 31
0.0
 11
171.5520622509858
 21
168.4155756922555
 31
0.0
 11
171.3873650556337
 21
168.6526761768645
 31
0.0
 11
171.2467777964137
 21
168.90040975276
 31
0.0
 11
171.1295297961285
 21
169.159998177296
 31
0.0
 11
171.0378864160605
 21
169.4266410375705
 31
0.0
 11
170.9716268333365
 21
169.7006924419493
 31
0.0
 11
170.9318067541774
 21
169.978250250328
 31
0.0
 11
170.9184539688793
 21
170.2583302491976
 31
0.0
  0
SPLINE
  5
93
330
39
100
AcDbEntity
  8
1
  6
Continuous
 62
     7
100
AcDbSpline
210
0.0
220
0.0
230
1.0
 70
    11
 71
     3
 72
    79
 73
    75
 74
    73
 42
0.0000000001
 43
0.0000000001
 44
0.00000001
 40
0.0
 40
0.0
 40
0.0
 40
0.0
 40
0.2803981145479015
 40
0.5607977859032877
 40
0.8427454841467388
 40
1.124697473048447
 40
1.409536451638055
 40
1.69438150088581
 40
1.983071310125199
 40
2.271767843422947
 40
2.564776142200912
 40
2.857790854546386
 40
3.155055698552742
 40
3.452325978930896
 40
3.753284827389676
 40
4.054247742882593
 40
4.357919806975544
 40
4.661594368328742
 40
4.966700748943369
 40
5.271807969839403
 40
5.576915190735265
 40
5.882021571349752
 40
6.185696132702955
 40
6.489368196795899
 40
6.790331112288976
 40
7.091289960747884
 40
7.388560241125866
 40
7.685825085132199
 40
7.978839797477779
 40
8.271848096255724
 40
8.560544629553457
 40
8.84923443879279
 40
9.134079488040548
 40
9.418918466630068
 40
9.700870455531838
 40
9.982818153775337
 40
10.26321782513074
 40
10.54361593967865
 40
10.82401405422658
 40
11.10441372558199
 40
11.38636142382543
 40
11.66831341272715
 40
11.95315239131677
 40
12.23799744056453
 40
12.52668724980384
 40
12.8153837831015
 40
13.10839208187949
 40
13.4014067942251
 40
13.6986716382314
 40
13.99594191860943
 40
14.29690076706836
 40
14.59786368256141
 40
14.90153574665433
 40
15.20521030800756
 40
15.51031668862205
 40
15.81542390951791
 40
16.12053113041392
 40
16.42563751102857
 40
16.72931207238177
 40
17.03298413647472
 40
17.33394705196767
 40
17.63490590042642
 40
17.93217618080451
 40
18.22944102481093
 40
18.52245573715648
 40
18.81546403593444
 40
19.10416056923215
 40
19.39285037847149
 40
19.67769542771925
 40
19.96253440630886
 40
20.24448639521054
 40
20.52643409345402
 40
20.80683376480943
 40
21.08723187935733
 40
21.08723187935733
 40
21.08723187935733
 40
21.08723187935733
 10
170.9184539688793
 20
147.7416697508023
 30
0.0
 10
170.9210353547686
 20
147.6481692077488
 30
0.0
 10
170.9261981408792
 20
147.4611676025144
 30
0.0
 10
170.9676704909279
 20
147.1826831892743
 30
0.0
 10
171.0335706513208
 20
146.9087409928721
 30
0.0
 10
171.1258027605547
 20
146.6408128275366
 30
0.0
 10
171.2428849499137
 20
146.3817670399763
 30
0.0
 10
171.384361231493
 20
146.1326077458235
 30
0.0
 10
171.5486435774861
 20
145.8962977256456
 30
0.0
 10
171.7351037257025
 20
145.6735227317276
 30
0.0
 10
171.9415282006396
 20
145.4670666994295
 30
0.0
 10
172.1672458950762
 20
145.277453955789
 30
0.0
 10
172.4095366934249
 20
145.1070547798634
 30
0.0
 10
172.6675941862649
 20
144.9563419722556
 30
0.0
 10
172.9384213897468
 20
144.8271188357301
 30
0.0
 10
173.2209382432434
 20
144.7198391625456
 30
0.0
 10
173.5121262138365
 20
144.6356846589904
 30
0.0
 10
173.8105049867513
 20
144.5750413851592
 30
0.0
 10
174.1132659586316
 20
144.5385076228881
 30
0.0
 10
174.4184539688795
 20
144.5262885921513
 30
0.0
 10
174.7236419791259
 20
144.538507622888
 30
0.0
 10
175.0264029510106
 20
144.5750413851593
 30
0.0
 10
175.3247817239085
 20
144.6356846589905
 30
0.0
 10
175.6159696945643
 20
144.7198391625457
 30
0.0
 10
175.8984865478292
 20
144.8271188357301
 30
0.0
 10
176.169313752171
 20
144.9563419722555
 30
0.0
 10
176.42737124184
 20
145.1070547798635
 30
0.0
 10
176.6696620519356
 20
145.277453955789
 30
0.0
 10
176.8953797031335
 20
145.4670666994295
 30
0.0
 10
177.10180433816
 20
145.6735227317275
 30
0.0
 10
177.2882638973371
 20
145.8962977256456
 30
0.0
 10
177.4525484250482
 20
146.1326077458235
 30
0.0
 10
177.5940166681181
 20
146.3817670399762
 30
0.0
 10
177.7111286717198
 20
146.6408128275365
 30
0.0
 10
177.8032505901926
 20
146.9087409928719
 30
0.0
 10
177.8695603557603
 20
147.1826831892743
 30
0.0
 10
177.9095120208561
 20
147.4611676025143
 30
0.0
 10
177.9229249304792
 20
147.7416697508023
 30
0.0
 10
177.9095120208562
 20
148.0221718990902
 30
0.0
 10
177.8695603557602
 20
148.3006563123302
 30
0.0
 10
177.8032505901928
 20
148.5745985087327
 30
0.0
 10
177.7111286717197
 20
148.842526674068
 30
0.0
 10
177.5940166681182
 20
149.1015724616284
 30
0.0
 10
177.4525484250481
 20
149.3507317557811
 30
0.0
 10
177.2882638973372
 20
149.5870417759589
 30
0.0
 10
177.10180433816
 20
149.809816769877
 30
0.0
 10
176.8953797031334
 20
150.016272802175
 30
0.0
 10
176.6696620519357
 20
150.2058855458155
 30
0.0
 10
176.4273712418401
 20
150.3762847217412
 30
0.0
 10
176.169313752171
 20
150.5269975293491
 30
0.0
 10
175.8984865478293
 20
150.6562206658746
 30
0.0
 10
175.6159696945643
 20
150.763500339059
 30
0.0
 10
175.3247817239085
 20
150.8476548426141
 30
0.0
 10
175.0264029510106
 20
150.9082981164453
 30
0.0
 10
174.7236419791258
 20
150.9448318787166
 30
0.0
 10
174.4184539688795
 20
150.9570509094532
 30
0.0
 10
174.1132659586316
 20
150.9448318787166
 30
0.0
 10
173.8105049867514
 20
150.9082981164453
 30
0.0
 10
173.5121262138365
 20
150.8476548426142
 30
0.0
 10
173.2209382432434
 20
150.763500339059
 30
0.0
 10
172.9384213897467
 20
150.6562206658745
 30
0.0
 10
172.6675941862649
 20
150.5269975293491
 30
0.0
 10
172.4095366934249
 20
150.3762847217411
 30
0.0
 10
172.1672458950762
 20
150.2058855458157
 30
0.0
 10
171.9415282006396
 20
150.0162728021751
 30
0.0
 10
171.7351037257025
 20
149.8098167698769
 30
0.0
 10
171.5486435774861
 20
149.587041775959
 30
0.0
 10
171.384361231493
 20
149.3507317557812
 30
0.0
 10
171.2428849499136
 20
149.1015724616283
 30
0.0
 10
171.1258027605547
 20
148.842526674068
 30
0.0
 10
171.0335706513207
 20
148.5745985087326
 30
0.0
 10
170.967670490928
 20
148.3006563123303
 30
0.0
 10
170.9261981408792
 20
148.0221718990902
 30
0.0
 10
170.9210353547686
 20
147.8351702938558
 30
0.0
 10
170.9184539688793
 20
147.7416697508023
 30
0.0
 11
170.9184539688793
 21
147.7416697508023
 31
0.0
 11
170.9318067541774
 21
147.4615897519327
 31
0.0
 11
170.9716268333365
 21
147.184031943554
 31
0.0
 11
171.0378864160605
 21
146.9099805391751
 31
0.0
 11
171.1295297961285
 21
146.6433376789007
 31
0.0
 11
171.2467777964137
 21
146.3837492543647
 31
0.0
 11
171.3873650556337
 21
146.1360156784692
 31
0.0
 11
171.5520622509858
 21
145.8989151938602
 31
0.0
 11
171.7372984179629
 21
145.6774806645253
 31
0.0
 11
171.9443912948781
 21
145.4701972752155
 31
0.0
 11
172.1686973349763
 21
145.281664991438
 31
0.0
 11
172.4117921656771
 21
145.1105764448644
 31
0.0
 11
172.6684539688793
 21
144.9605953181414
 31
0.0
 11
172.9400421888504
 21
144.8309185382671
 31
0.0
 11
173.2213834672393
 21
144.7240271841897
 31
0.0
 11
173.5131009507848
 21
144.6396611228595
 31
0.0
 11
173.8106853470449
 21
144.5791485926237
 31
0.0
 11
174.1135910815792
 21
144.5425696440607
 31
0.0
 11
174.4184539688793
 21
144.530361606136
 31
0.0
 11
174.7233168561792
 21
144.5425696440607
 31
0.0
 11
175.0262225907134
 21
144.5791485926237
 31
0.0
 11
175.3238069869736
 21
144.6396611228595
 31
0.0
 11
175.615524470519
 21
144.7240271841897
 31
0.0
 11
175.8968657489081
 21
144.8309185382671
 31
0.0
 11
176.1684539688793
 21
144.9605953181414
 31
0.0
 11
176.4251157720813
 21
145.1105764448644
 31
0.0
 11
176.6682106027821
 21
145.281664991438
 31
0.0
 11
176.8925166428804
 21
145.4701972752156
 31
0.0
 11
177.0996095197956
 21
145.6774806645253
 31
0.0
 11
177.2848456867727
 21
145.8989151938602
 31
0.0
 11
177.4495428821247
 21
146.1360156784692
 31
0.0
 11
177.5901301413447
 21
146.3837492543647
 31
0.0
 11
177.7073781416299
 21
146.6433376789006
 31
0.0
 11
177.799021521698
 21
146.9099805391751
 31
0.0
 11
177.8652811044219
 21
147.184031943554
 31
0.0
 11
177.9051011835811
 21
147.4615897519327
 31
0.0
 11
177.9184539688793
 21
147.7416697508023
 31
0.0
 11
177.9051011835811
 21
148.0217497496719
 31
0.0
 11
177.8652811044219
 21
148.2993075580506
 31
0.0
 11
177.799021521698
 21
148.5733589624295
 31
0.0
 11
177.7073781416299
 21
148.8400018227039
 31
0.0
 11
177.5901301413447
 21
149.09959024724
 31
0.0
 11
177.4495428821247
 21
149.3473238231354
 31
0.0
 11
177.2848456867727
 21
149.5844243077444
 31
0.0
 11
177.0996095197956
 21
149.8058588370792
 31
0.0
 11
176.8925166428804
 21
150.013142226389
 31
0.0
 11
176.6682106027821
 21
150.2016745101666
 31
0.0
 11
176.4251157720814
 21
150.3727630567403
 31
0.0
 11
176.1684539688793
 21
150.5227441834632
 31
0.0
 11
175.8968657489081
 21
150.6524209633376
 31
0.0
 11
175.615524470519
 21
150.7593123174149
 31
0.0
 11
175.3238069869736
 21
150.8436783787451
 31
0.0
 11
175.0262225907134
 21
150.9041909089809
 31
0.0
 11
174.7233168561792
 21
150.9407698575439
 31
0.0
 11
174.4184539688793
 21
150.9529778954686
 31
0.0
 11
174.1135910815793
 21
150.9407698575439
 31
0.0
 11
173.8106853470449
 21
150.9041909089809
 31
0.0
 11
173.5131009507848
 21
150.8436783787452
 31
0.0
 11
173.2213834672393
 21
150.7593123174149
 31
0.0
 11
172.9400421888504
 21
150.6524209633375
 31
0.0
 11
172.6684539688793
 21
150.5227441834632
 31
0.0
 11
172.4117921656772
 21
150.3727630567402
 31
0.0
 11
172.1686973349763
 21
150.2016745101666
 31
0.0
 11
171.9443912948781
 21
150.013142226389
 31
0.0
 11
171.7372984179629
 21
149.8058588370792
 31
0.0
 11
171.5520622509858
 21
149.5844243077444
 31
0.0
 11
171.3873650556337
 21
149.3473238231354
 31
0.0
 11
171.2467777964137
 21
149.09959024724
 31
0.0
 11
171.1295297961285
 21
148.8400018227039
 31
0.0
 11
171.0378864160605
 21
148.5733589624295
 31
0.0
 11
170.9716268333365
 21
148.2993075580506
 31
0.0
 11
170.9318067541774
 21
148.0217497496719
 31
0.0
 11
170.9184539688793
 21
147.7416697508023
 31
0.0
  0
SPLINE
  5
94
330
39
100
AcDbEntity
  8
1
  6
Continuous
 62
     7
100
AcDbSpline
210
0.0
220
0.0
230
1.0
 70
     8
 71
     3
 72
    29
 73
    25
 74
    23
 42
0.0000000001
 43
0.0000000001
 44
0.00000001
 40
0.0
 40
0.0
 40
0.0
 40
0.0
 40
0.6069077131759291
 40
1.212222625822729
 40
1.842666707826751
 40
2.474631900595449
 40
3.10242017236539
 40
3.729333891456344
 40
4.27104293983315
 40
4.812985328221203
 40
5.340107980728362
 40
5.866248927280021
 40
6.263874837343192
 40
6.661485236222356
 40
7.280966497569014
 40
7.902596738528127
 40
8.549168915178784
 40
9.195896772489212
 40
9.722415974179267
 40
10.249118417257
 40
11.07897537274011
 40
11.90732207846638
 40
12.6733170999503
 40
13.4419127118582
 40
13.4419127118582
 40
13.4419127118582
 40
13.4419127118582
 10
170.9184539688793
 20
159.0
 30
0.0
 10
170.9283293423416
 20
158.7979401704425
 30
0.0
 10
170.9480541718166
 20
158.3943508077738
 30
0.0
 10
171.0118445258695
 20
157.7826452574351
 30
0.0
 10
171.146027823187
 20
157.1732281955452
 30
0.0
 10
171.3464834438715
 20
156.57482202004
 30
0.0
 10
171.6050445606894
 20
156.0002594881442
 30
0.0
 10
171.9139739504606
 20
155.4853616904726
 30
0.0
 10
172.2677908750356
 20
155.0363428164746
 30
0.0
 10
172.6558155431986
 20
154.6624012139834
 30
0.0
 10
173.0927459469613
 20
154.3554353125234
 30
0.0
 10
173.5329599140613
 20
154.1481266549894
 30
0.0
 10
173.959669034746
 20
154.0322240667186
 30
0.0
 10
174.4305844772482
 20
153.9815208618241
 30
0.0
 10
174.9795590702923
 20
154.0419771851021
 30
0.0
 10
175.5773051365123
 20
154.2549244168489
 30
0.0
 10
176.1189073825108
 20
154.6021613541952
 30
0.0
 10
176.5595153506484
 20
155.0235190800277
 30
0.0
 10
176.9093892742853
 20
155.4709325702847
 30
0.0
 10
177.2382996572745
 20
156.0067689562072
 30
0.0
 10
177.5420382789016
 20
156.6716600061207
 30
0.0
 10
177.7668081442443
 20
157.4513210675947
 30
0.0
 10
177.8711949496539
 20
158.2337266859042
 30
0.0
 10
177.9026174284027
 20
158.7442871552667
 30
0.0
 10
177.9183552927922
 20
159.0
 30
0.0
 11
170.9184539688793
 21
159.0
 31
0.0
 11
170.9536548346416
 21
158.3941139782418
 31
0.0
 11
171.0220118267257
 21
157.7926711587603
 31
0.0
 11
171.1566883125502
 21
157.1767799470192
 31
0.0
 11
171.3567532044953
 21
156.5773184854705
 31
0.0
 11
171.6161344427455
 21
156.0056197121504
 31
0.0
 11
171.9403543975235
 21
155.4690544951374
 31
0.0
 11
172.2769635375046
 21
155.0446219563583
 31
0.0
 11
172.6684539688793
 21
154.6698729810778
 31
0.0
 11
173.1007991300978
 21
154.3683170951178
 31
0.0
 11
173.5778015157139
 21
154.146296781284
 31
0.0
 11
173.9616505458436
 21
154.0425360641409
 31
0.0
 11
174.3570620916579
 21
154.0007779663202
 31
0.0
 11
174.9731665458679
 21
154.0653715779416
 31
0.0
 11
175.5591007161446
 21
154.2729897480929
 31
0.0
 11
176.1057023500586
 21
154.6183623489479
 31
0.0
 11
176.5756783301389
 21
155.0626364755509
 31
0.0
 11
176.9011529777101
 21
155.4765068943256
 31
0.0
 11
177.1780584758898
 21
155.9245457415497
 31
0.0
 11
177.5230205640672
 21
156.6793064481872
 31
0.0
 11
177.7516980538135
 21
157.4754627585754
 31
0.0
 11
177.8620181828282
 21
158.233471889175
 31
0.0
 11
177.9183552927922
 21
159.0
 31
0.0
  0
SPLINE
  5
95
330
39
100
AcDbEntity
  8
1
  6
Continuous
 62
     7
100
AcDbSpline
210
0.0
220
0.0
230
1.0
 70
     8
 71
     3
 72
    13
 73
     9
 74
     7
 42
0.0000000001
 43
0.0000000001
 44
0.00000001
 40
0.0
 40
0.0
 40
0.0
 40
0.0
 40
0.1798419738771665
 40
0.3605598390662252
 40
0.6680047339660189
 40
0.9754496288657275
 40
1.08478091624313
 40
1.193638939709499
 40
1.193638939709499
 40
1.193638939709499
 40
1.193638939709499
 10
173.7599290304862
 20
308.6718544824882
 30
0.0
 10
173.8177090143025
 20
308.6557646044988
 30
0.0
 10
173.9335503900222
 20
308.6235064853658
 30
0.0
 10
174.153104563402
 20
308.584702718097
 30
0.0
 10
174.4184300760695
 20
308.5650184806444
 30
0.0
 10
174.6600615944275
 20
308.582838267112
 30
0.0
 10
174.8330530273476
 20
308.6110272641963
 30
0.0
 10
174.904054946358
 20
308.6268558818931
 30
0.0
 10
174.9394789024442
 20
308.6347530241959
 30
0.0
 11
173.7599290304862
 21
308.6718544824882
 31
0.0
 11
173.9339318489577
 21
308.626399507711
 31
0.0
 11
174.1117752088792
 21
308.5942952069034
 31
0.0
 11
174.4184539688794
 21
308.5726041588721
 31
0.0
 11
174.7251327288795
 21
308.5942952069034
 31
0.0
 11
174.8330063206787
 21
308.6120889864886
 31
0.0
 11
174.9394789024442
 21
308.6347530241959
 31
0.0
  0
SPLINE
  5
96
330
39
100
AcDbEntity
  8
1
  6
Continuous
 62
     7
100
AcDbSpline
210
0.0
220
0.0
230
1.0
 70
     8
 71
     3
 72
    13
 73
     9
 74
     7
 42
0.0000000001
 43
0.0000000001
 44
0.00000001
 40
0.0
 40
0.0
 40
0.0
 40
0.0
 40
0.17984197389387
 40
0.3605598390996577
 40
0.6680047339994757
 40
0.9754496288992491
 40
1.084780916267157
 40
1.193638939724043
 40
1.193638939724043
 40
1.193638939724043
 40
1.193638939724043
 10
173.7599290304542
 20
332.5976515658898
 30
0.0
 10
173.8177090142757
 20
332.6137414438814
 30
0.0
 10
173.9335503900057
 20
332.6459995630189
 30
0.0
 10
174.1531045633965
 20
332.6848033302903
 30
0.0
 10
174.4184300760695
 20
332.7044875677435
 30
0.0
 10
174.6600615944245
 20
332.6866677812758
 30
0.0
 10
174.8330530273382
 20
332.6584787841929
 30
0.0
 10
174.9040549463427
 20
332.642650166498
 30
0.0
 10
174.9394789024258
 20
332.6347530241961
 30
0.0
 11
173.7599290304542
 21
332.5976515658898
 31
0.0
 11
173.9339318489414
 21
332.6431065406732
 31
0.0
 11
174.1117752088792
 21
332.6752108414844
 31
0.0
 11
174.4184539688794
 21
332.6969018895156
 31
0.0
 11
174.7251327288795
 21
332.6752108414842
 31
0.0
 11
174.8330063206695
 21
332.6574170619008
 31
0.0
 11
174.9394789024258
 21
332.6347530241961
 31
0.0
  0
ENDBLK
  5
3B
330
39
100
AcDbEntity
  8
0
100
AcDbBlockEnd
  0
BLOCK
  5
3D
330
3C
100
AcDbEntity
  8
0
100
AcDbBlockBegin
  2
36-45
 70
     0
 71
     0
 10
-205.55389162204
 20
1066.784875924049
 30
0.0
  3
36-45
  1

  0
LINE
  5
97
330
3C
100
AcDbEntity
  8
1
  6
Continuous
 62
     7
100
AcDbLine
 10
162.4184539688794
 20
163.7500000000003
 30
0.0
 11
161.4184539688794
 21
162.7500000000003
 31
0.0
  0
LINE
  5
98
330
3C
100
AcDbEntity
  8
1
  6
Continuous
 62
     7
100
AcDbLine
 10
161.4184539688794
 20
155.2500000000003
 30
0.0
 11
161.4184539688794
 21
162.7500000000003
 31
0.0
  0
LINE
  5
99
330
3C
100
AcDbEntity
  8
1
  6
Continuous
 62
     7
100
AcDbLine
 10
162.4184539688794
 20
154.2500000000003
 30
0.0
 11
163.9184539688793
 21
154.2500000000003
 31
0.0
  0
LINE
  5
9A
330
3C
100
AcDbEntity
  8
1
  6
Continuous
 62
     7
100
AcDbLine
 10
161.4184539688794
 20
155.2500000000003
 30
0.0
 11
162.4184539688794
 21
154.2500000000003
 31
0.0
  0
LINE
  5
9B
330
3C
100
AcDbEntity
  8
1
  6
Continuous
 62
     7
100
AcDbLine
 10
73.00449642190249
 20
159.9000000000003
 30
0.0
 11
82.33241151585611
 21
159.9000000000003
 31
0.0
  0
LINE
  5
9C
330
3C
100
AcDbEntity
  8
1
  6
Continuous
 62
     7
100
AcDbLine
 10
82.33241151585621
 20
158.1000000000001
 30
0.0
 11
73.00449642190242
 21
158.1000000000001
 31
0.0
  0
LINE
  5
9D
330
3C
100
AcDbEntity
  8
1
  6
Continuous
 62
     7
100
AcDbLine
 10
163.9184539688793
 20
163.7500000000003
 30
0.0
 11
162.4184539688794
 21
163.7500000000003
 31
0.0
  0
ARC
  5
9E
330
3C
100
AcDbEntity
  8
1
  6
Continuous
 62
     7
100
AcDbCircle
 10
77.66845396887932
 20
159.0
 30
0.0
 40
3.75000000000028
100
AcDbArc
 50
13.8865403626325
 51
166.1134596373675
  0
ARC
  5
9F
330
3C
100
AcDbEntity
  8
1
  6
Continuous
 62
     7
100
AcDbCircle
 10
77.66845396887932
 20
159.0
 30
0.0
 40
3.750000000000267
100
AcDbArc
 50
-166.1134596373737
 51
-13.88654036262623
  0
ARC
  5
A0
330
3C
100
AcDbEntity
  8
1
  6
Continuous
 62
     7
100
AcDbCircle
 10
77.66845396887932
 20
159.0
 30
0.0
 40
4.750000000000239
100
AcDbArc
 50
10.9220706121917
 51
169.0779293878084
  0
ARC
  5
A1
330
3C
100
AcDbEntity
  8
1
  6
Continuous
 62
     7
100
AcDbCircle
 10
77.66845396887932
 20
159.0
 30
0.0
 40
4.750000000000261
100
AcDbArc
 50
-10.92207061218676
 51
0.0
  0
ARC
  5
A2
330
3C
100
AcDbEntity
  8
1
  6
Continuous
 62
     7
100
AcDbCircle
 10
77.66845396887932
 20
159.0
 30
0.0
 40
4.750000000000298
100
AcDbArc
 50
0.0
 51
10.9220706121917
  0
ARC
  5
A3
330
3C
100
AcDbEntity
  8
1
  6
Continuous
 62
     7
100
AcDbCircle
 10
77.66845396887932
 20
159.0
 30
0.0
 40
4.750000000000275
100
AcDbArc
 50
-169.0779293878133
 51
-10.92207061218676
  0
ARC
  5
A4
330
3C
100
AcDbEntity
  8
1
  6
Continuous
 62
     7
100
AcDbCircle
 10
77.66845396887932
 20
159.0
 30
0.0
 40
4.750000000000281
100
AcDbArc
 50
169.0779293878084
 51
-169.0779293878133
  0
ENDBLK
  5
3E
330
3C
100
AcDbEntity
  8
0
100
AcDbBlockEnd
  0
BLOCK
  5
40
330
3F
100
AcDbEntity
  8
0
100
AcDbBlockBegin
  2
B2110-0-M11
 70
     0
 71
     0
 10
943.9184539688795
 20
-28.75
 30
0.0
  3
B2110-0-M11
  1

  0
LINE
  5
A5
330
3F
100
AcDbEntity
  8
1
  6
Continuous
 62
     7
100
AcDbLine
 10
218.6684539688794
 20
170.5989612986097
 30
0.0
 11
183.9184539688794
 21
170.5989612986097
 31
0.0
  0
LINE
  5
A6
330
3F
100
AcDbEntity
  8
1
  6
Continuous
 62
     7
100
AcDbLine
 10
222.6684539688794
 20
165.2000000000003
 30
0.0
 11
222.6684539688794
 21
152.8000000000001
 31
0.0
  0
LINE
  5
A7
330
3F
100
AcDbEntity
  8
1
  6
Continuous
 62
     7
100
AcDbLine
 10
182.1256493811097
 20
171.75
 30
0.0
 11
182.1256493811094
 21
146.25
 31
0.0
  0
LINE
  5
A8
330
3F
100
AcDbEntity
  8
1
  6
Continuous
 62
     7
100
AcDbLine
 10
222.6684539688794
 20
326.8347530241942
 30
0.0
 11
217.4975411188067
 21
326.8347530241942
 31
0.0
  0
LINE
  5
A9
330
3F
100
AcDbEntity
  8
1
  6
Continuous
 62
     7
100
AcDbLine
 10
223.1684539688794
 20
326.3347530241942
 30
0.0
 11
222.6684539688794
 21
326.8347530241942
 31
0.0
  0
LINE
  5
AA
330
3F
100
AcDbEntity
  8
1
  6
Continuous
 62
     7
100
AcDbLine
 10
223.1684539688794
 20
326.3347530241942
 30
0.0
 11
223.1684539688797
 21
323.9977530241944
 31
0.0
  0
LINE
  5
AB
330
3F
100
AcDbEntity
  8
1
  6
Continuous
 62
     7
100
AcDbLine
 10
222.6684539688794
 20
314.434753024194
 30
0.0
 11
217.497541118807
 21
314.4347530241942
 31
0.0
  0
LINE
  5
AC
330
3F
100
AcDbEntity
  8
1
  6
Continuous
 62
     7
100
AcDbLine
 10
223.1684539688794
 20
314.934753024194
 30
0.0
 11
222.6684539688794
 21
314.434753024194
 31
0.0
  0
LINE
  5
AD
330
3F
100
AcDbEntity
  8
1
  6
Continuous
 62
     7
100
AcDbLine
 10
223.1684539688797
 20
323.9977530241944
 30
0.0
 11
223.1684539688794
 21
314.934753024194
 31
0.0
  0
LINE
  5
AE
330
3F
100
AcDbEntity
  8
1
  6
Continuous
 62
     7
100
AcDbLine
 10
179.4184539688793
 20
308.634753024194
 30
0.0
 11
180.826611275433
 21
308.634753024194
 31
0.0
  0
LINE
  5
AF
330
3F
100
AcDbEntity
  8
1
  6
Continuous
 62
     7
100
AcDbLine
 10
179.4184539688793
 20
308.634753024194
 30
0.0
 11
179.4184539688793
 21
308.8575508804834
 31
0.0
  0
LINE
  5
B0
330
3F
100
AcDbEntity
  8
1
  6
Continuous
 62
     7
100
AcDbLine
 10
179.4184539688793
 20
332.634753024194
 30
0.0
 11
177.9184539688794
 21
332.634753024194
 31
0.0
  0
LINE
  5
B1
330
3F
100
AcDbEntity
  8
1
  6
Continuous
 62
     7
100
AcDbLine
 10
180.826611275433
 20
332.634753024194
 30
0.0
 11
179.4184539688793
 21
332.634753024194
 31
0.0
  0
LINE
  5
B2
330
3F
100
AcDbEntity
  8
1
  6
Continuous
 62
     2
100
AcDbLine
 10
180.826611275433
 20
332.634753024194
 30
0.0
 11
180.3361135351086
 21
332.3515640217809
 31
0.0
  0
LINE
  5
B3
330
3F
100
AcDbEntity
  8
1
  6
Continuous
 62
     7
100
AcDbLine
 10
182.1256493811094
 20
307.884753024194
 30
0.0
 11
180.826611275433
 21
308.634753024194
 31
0.0
  0
LINE
  5
B4
330
3F
100
AcDbEntity
  8
1
  6
Continuous
 62
     7
100
AcDbLine
 10
182.1256493811094
 20
307.884753024194
 30
0.0
 11
183.6684539688793
 21
307.884753024194
 31
0.0
  0
LINE
  5
B5
330
3F
100
AcDbEntity
  8
1
  6
Continuous
 62
     7
100
AcDbLine
 10
182.1256493811096
 20
333.384753024194
 30
0.0
 11
180.826611275433
 21
332.634753024194
 31
0.0
  0
LINE
  5
B6
330
3F
100
AcDbEntity
  8
1
  6
Continuous
 62
     7
100
AcDbLine
 10
182.1256493811094
 20
307.884753024194
 30
0.0
 11
190.4240108968547
 21
307.884753024194
 31
0.0
  0
LINE
  5
B7
330
3F
100
AcDbEntity
  8
1
  6
PHANTOM
 62
     4
100
AcDbLine
 10
168.9184539688793
 20
320.634753024194
 30
0.0
 11
227.6684539688795
 21
320.634753024194
 31
0.0
  0
LINE
  5
B8
330
3F
100
AcDbEntity
  8
1
  6
Continuous
 62
     7
100
AcDbLine
 10
190.4240108968547
 20
333.384753024194
 30
0.0
 11
182.1256493811096
 21
333.384753024194
 31
0.0
  0
LINE
  5
B9
330
3F
100
AcDbEntity
  8
1
  6
Continuous
 62
     7
100
AcDbLine
 10
182.1256493811096
 20
333.384753024194
 30
0.0
 11
182.1256493811096
 21
332.2093746183101
 31
0.0
  0
LINE
  5
BA
330
3F
100
AcDbEntity
  8
1
  6
Continuous
 62
     7
100
AcDbLine
 10
222.6684539688794
 20
326.8347530241942
 30
0.0
 11
222.6684539688794
 21
314.434753024194
 31
0.0
  0
LINE
  5
BB
330
3F
100
AcDbEntity
  8
1
  6
PHANTOM
 62
     4
100
AcDbLine
 10
201.6684539688793
 20
342.134753024194
 30
0.0
 11
201.6684539688793
 21
299.1347530241939
 31
0.0
  0
LINE
  5
BC
330
3F
100
AcDbEntity
  8
1
  6
Continuous
 62
     7
100
AcDbLine
 10
177.9184539688793
 20
308.634753024194
 30
0.0
 11
179.4184539688793
 21
308.634753024194
 31
0.0
  0
LINE
  5
BD
330
3F
100
AcDbEntity
  8
1
  6
Continuous
 62
     2
100
AcDbLine
 10
180.3361135351086
 20
308.9179420266071
 30
0.0
 11
180.826611275433
 21
308.634753024194
 31
0.0
  0
LINE
  5
BE
330
3F
100
AcDbEntity
  8
1
  6
Continuous
 62
     7
100
AcDbLine
 10
179.4184539688793
 20
332.4119551679047
 30
0.0
 11
179.4184539688793
 21
332.634753024194
 31
0.0
  0
LINE
  5
BF
330
3F
100
AcDbEntity
  8
1
  6
Continuous
 62
     7
100
AcDbLine
 10
182.1256493811094
 20
309.0601314300778
 30
0.0
 11
182.1256493811094
 21
307.884753024194
 31
0.0
  0
LINE
  5
C0
330
3F
100
AcDbEntity
  8
1
  6
Continuous
 62
     7
100
AcDbLine
 10
88.14595396887931
 20
215.0380000000002
 30
0.0
 11
88.14595396887931
 21
209.9999999999999
 31
0.0
  0
LINE
  5
C1
330
3F
100
AcDbEntity
  8
1
  6
Continuous
 62
     7
100
AcDbLine
 10
67.19095396887943
 20
215.0380000000002
 30
0.0
 11
67.19095396887943
 21
209.9999999999999
 31
0.0
  0
LINE
  5
C2
330
3F
100
AcDbEntity
  8
1
  6
Continuous
 62
     2
100
AcDbLine
 10
86.98395396887942
 20
216.2000000000002
 30
0.0
 11
86.98395396887942
 21
212.9074747049435
 31
0.0
  0
LINE
  5
C3
330
3F
100
AcDbEntity
  8
1
  6
Continuous
 62
     7
100
AcDbLine
 10
88.14595396887931
 20
215.0380000000002
 30
0.0
 11
86.98395396887942
 21
216.2000000000002
 31
0.0
  0
LINE
  5
C4
330
3F
100
AcDbEntity
  8
1
  6
Continuous
 62
     7
100
AcDbLine
 10
67.19095396887943
 20
215.0380000000002
 30
0.0
 11
68.35295396887923
 21
216.2000000000002
 31
0.0
  0
LINE
  5
C5
330
3F
100
AcDbEntity
  8
1
  6
Continuous
 62
     7
100
AcDbLine
 10
68.35295396887923
 20
216.2000000000002
 30
0.0
 11
86.98395396887942
 21
216.2000000000002
 31
0.0
  0
LINE
  5
C6
330
3F
100
AcDbEntity
  8
1
  6
Continuous
 62
     7
100
AcDbLine
 10
64.66845396887933
 20
128.6999999999996
 30
0.0
 11
64.66845396887929
 21
130.0054507344986
 31
0.0
  0
LINE
  5
C7
330
3F
100
AcDbEntity
  8
1
  6
Continuous
 62
     7
100
AcDbLine
 10
64.66845396887933
 20
128.6999999999996
 30
0.0
 11
90.66845396887942
 21
128.6999999999996
 31
0.0
  0
LINE
  5
C8
330
3F
100
AcDbEntity
  8
1
  6
PHANTOM
 62
     4
100
AcDbLine
 10
61.66845396887923
 20
159.0
 30
0.0
 11
90.41845396887932
 21
159.0
 31
0.0
  0
LINE
  5
C9
330
3F
100
AcDbEntity
  8
1
  6
PHANTOM
 62
     4
100
AcDbLine
 10
90.41845396887932
 20
159.0
 30
0.0
 11
93.66845396887942
 21
159.0
 31
0.0
  0
LINE
  5
CA
330
3F
100
AcDbEntity
  8
1
  6
Continuous
 62
     7
100
AcDbLine
 10
185.1684539688794
 20
173.0
 30
0.0
 11
183.9184539688794
 21
171.75
 31
0.0
  0
LINE
  5
CB
330
3F
100
AcDbEntity
  8
1
  6
Continuous
 62
     7
100
AcDbLine
 10
218.1684539688794
 20
173.0
 30
0.0
 11
218.6684539688794
 21
172.5
 31
0.0
  0
LINE
  5
CC
330
3F
100
AcDbEntity
  8
1
  6
Continuous
 62
     7
100
AcDbLine
 10
183.9184539688794
 20
171.75
 30
0.0
 11
182.1256493811097
 21
171.75
 31
0.0
  0
LINE
  5
CD
330
3F
100
AcDbEntity
  8
1
  6
Continuous
 62
     7
100
AcDbLine
 10
182.1256493811097
 20
171.75
 30
0.0
 11
180.8266112754329
 21
171.0
 31
0.0
  0
LINE
  5
CE
330
3F
100
AcDbEntity
  8
1
  6
Continuous
 62
     7
100
AcDbLine
 10
182.1256493811094
 20
146.25
 30
0.0
 11
183.6684539688794
 21
146.25
 31
0.0
  0
LINE
  5
CF
330
3F
100
AcDbEntity
  8
1
  6
Continuous
 62
     7
100
AcDbLine
 10
182.1256493811094
 20
146.25
 30
0.0
 11
180.8266112754329
 21
147.0
 31
0.0
  0
LINE
  5
D0
330
3F
100
AcDbEntity
  8
1
  6
PHANTOM
 62
     4
100
AcDbLine
 10
201.6684539688794
 20
219.7000000000002
 30
0.0
 11
201.6684539688794
 21
124.9999999999996
 31
0.0
  0
LINE
  5
D1
330
3F
100
AcDbEntity
  8
1
  6
Continuous
 62
     7
100
AcDbLine
 10
192.3529539688794
 20
204.2000000000002
 30
0.0
 11
210.9184539688795
 21
204.2000000000002
 31
0.0
  0
LINE
  5
D2
330
3F
100
AcDbEntity
  8
1
  6
Continuous
 62
     7
100
AcDbLine
 10
210.9839539688794
 20
204.2000000000002
 30
0.0
 11
210.9184539688795
 21
204.2000000000002
 31
0.0
  0
LINE
  5
D3
330
3F
100
AcDbEntity
  8
1
  6
Continuous
 62
     7
100
AcDbLine
 10
223.1684539688794
 20
164.7000000000003
 30
0.0
 11
222.6684539688794
 21
165.2000000000003
 31
0.0
  0
LINE
  5
D4
330
3F
100
AcDbEntity
  8
1
  6
Continuous
 62
     7
100
AcDbLine
 10
222.6684539688794
 20
165.2000000000003
 30
0.0
 11
221.6684539688794
 21
165.2000000000003
 31
0.0
  0
LINE
  5
D5
330
3F
100
AcDbEntity
  8
1
  6
Continuous
 62
     7
100
AcDbLine
 10
223.1684539688794
 20
164.7000000000003
 30
0.0
 11
223.1684539688794
 21
153.3000000000001
 31
0.0
  0
LINE
  5
D6
330
3F
100
AcDbEntity
  8
1
  6
Continuous
 62
     7
100
AcDbLine
 10
223.1684539688794
 20
153.3000000000001
 30
0.0
 11
222.6684539688794
 21
152.8000000000001
 31
0.0
  0
LINE
  5
D7
330
3F
100
AcDbEntity
  8
1
  6
Continuous
 62
     7
100
AcDbLine
 10
222.6684539688794
 20
152.8000000000001
 30
0.0
 11
217.6684539688795
 21
152.8000000000002
 31
0.0
  0
LINE
  5
D8
330
3F
100
AcDbEntity
  8
1
  6
Continuous
 62
     7
100
AcDbLine
 10
192.4184539688794
 20
202.6500000000002
 30
0.0
 11
194.1684539688794
 21
202.6500000000002
 31
0.0
  0
LINE
  5
D9
330
3F
100
AcDbEntity
  8
1
  6
Continuous
 62
     7
100
AcDbLine
 10
210.9184539688795
 20
204.2000000000002
 30
0.0
 11
210.9184539688794
 21
202.6500000000002
 31
0.0
  0
LINE
  5
DA
330
3F
100
AcDbEntity
  8
1
  6
PHANTOM
 62
     4
100
AcDbLine
 10
170.6684539688794
 20
159.0
 30
0.0
 11
226.1684539688795
 21
159.0
 31
0.0
  0
LINE
  5
DB
330
3F
100
AcDbEntity
  8
1
  6
Continuous
 62
     7
100
AcDbLine
 10
212.1459539688793
 20
215.0380000000002
 30
0.0
 11
212.1459539688793
 21
205.3620000000003
 31
0.0
  0
LINE
  5
DC
330
3F
100
AcDbEntity
  8
1
  6
Continuous
 62
     7
100
AcDbLine
 10
212.1459539688793
 20
205.3620000000003
 30
0.0
 11
210.9839539688794
 21
204.2000000000002
 31
0.0
  0
LINE
  5
DD
330
3F
100
AcDbEntity
  8
1
  6
Continuous
 62
     7
100
AcDbLine
 10
185.1684539688794
 20
173.0
 30
0.0
 11
218.1684539688794
 21
173.0
 31
0.0
  0
LINE
  5
DE
330
3F
100
AcDbEntity
  8
1
  6
Continuous
 62
     7
100
AcDbLine
 10
191.1909539688794
 20
208.2000000000002
 30
0.0
 11
191.1909539688794
 21
205.3620000000003
 31
0.0
  0
LINE
  5
DF
330
3F
100
AcDbEntity
  8
1
  6
Continuous
 62
     7
100
AcDbLine
 10
191.1909539688794
 20
215.0380000000002
 30
0.0
 11
191.1909539688794
 21
208.2000000000002
 31
0.0
  0
LINE
  5
E0
330
3F
100
AcDbEntity
  8
1
  6
Continuous
 62
     2
100
AcDbLine
 10
210.9839539688794
 20
216.2000000000002
 30
0.0
 11
210.9839539688794
 21
204.2000000000002
 31
0.0
  0
LINE
  5
E1
330
3F
100
AcDbEntity
  8
1
  6
Continuous
 62
     7
100
AcDbLine
 10
212.1459539688793
 20
215.0380000000002
 30
0.0
 11
210.9839539688794
 21
216.2000000000002
 31
0.0
  0
LINE
  5
E2
330
3F
100
AcDbEntity
  8
1
  6
Continuous
 62
     7
100
AcDbLine
 10
191.1909539688794
 20
215.0380000000002
 30
0.0
 11
192.3529539688794
 21
216.2000000000002
 31
0.0
  0
LINE
  5
E3
330
3F
100
AcDbEntity
  8
1
  6
Continuous
 62
     7
100
AcDbLine
 10
191.1909539688794
 20
205.3620000000003
 30
0.0
 11
192.3529539688794
 21
204.2000000000002
 31
0.0
  0
LINE
  5
E4
330
3F
100
AcDbEntity
  8
1
  6
Continuous
 62
     2
100
AcDbLine
 10
192.3529539688794
 20
204.2000000000002
 30
0.0
 11
192.3529539688794
 21
216.2000000000002
 31
0.0
  0
LINE
  5
E5
330
3F
100
AcDbEntity
  8
1
  6
Continuous
 62
     7
100
AcDbLine
 10
192.3529539688794
 20
216.2000000000002
 30
0.0
 11
210.9839539688794
 21
216.2000000000002
 31
0.0
  0
LINE
  5
E6
330
3F
100
AcDbEntity
  8
1
  6
Continuous
 62
     7
100
AcDbLine
 10
210.9184539688794
 20
202.6500000000002
 30
0.0
 11
194.1684539688794
 21
202.6500000000002
 31
0.0
  0
LINE
  5
E7
330
3F
100
AcDbEntity
  8
1
  6
Continuous
 62
     7
100
AcDbLine
 10
192.4184539688794
 20
204.2000000000002
 30
0.0
 11
192.4184539688794
 21
202.6500000000002
 31
0.0
  0
LINE
  5
E8
330
3F
100
AcDbEntity
  8
1
  6
Continuous
 62
     7
100
AcDbLine
 10
218.6684539688794
 20
172.5
 30
0.0
 11
218.6684539688794
 21
170.5989612986097
 31
0.0
  0
LINE
  5
E9
330
3F
100
AcDbEntity
  8
1
  6
Continuous
 62
     7
100
AcDbLine
 10
214.6684539688794
 20
149.8000000000002
 30
0.0
 11
214.6684539688794
 21
139.493586939317
 31
0.0
  0
LINE
  5
EA
330
3F
100
AcDbEntity
  8
1
  6
Continuous
 62
     7
100
AcDbLine
 10
188.6684539688794
 20
139.493586939317
 30
0.0
 11
188.6684539688794
 21
141.25
 31
0.0
  0
LINE
  5
EB
330
3F
100
AcDbEntity
  8
1
  6
Continuous
 62
     7
100
AcDbLine
 10
191.1684539688794
 20
128.6999999999996
 30
0.0
 11
212.1684539688795
 21
128.6999999999996
 31
0.0
  0
LINE
  5
EC
330
3F
100
AcDbEntity
  8
1
  6
Continuous
 62
     7
100
AcDbLine
 10
191.1684539688794
 20
128.6999999999996
 30
0.0
 11
212.1684539688795
 21
128.6999999999996
 31
0.0
  0
LINE
  5
ED
330
3F
100
AcDbEntity
  8
1
  6
Continuous
 62
     7
100
AcDbLine
 10
186.6573469699492
 20
137.6999999999998
 30
0.0
 11
186.6791340729402
 21
137.6999999999998
 31
0.0
  0
LINE
  5
EE
330
3F
100
AcDbEntity
  8
1
  6
Continuous
 62
     7
100
AcDbLine
 10
216.6795609678097
 20
137.6999999999998
 30
0.0
 11
216.6577738648185
 21
137.6999999999998
 31
0.0
  0
LINE
  5
EF
330
3F
100
AcDbEntity
  8
1
  6
Continuous
 62
     7
100
AcDbLine
 10
216.6795609678097
 20
130.0054507344986
 30
0.0
 11
214.4184539688794
 21
128.6999999999996
 31
0.0
  0
LINE
  5
F0
330
3F
100
AcDbEntity
  8
1
  6
Continuous
 62
     7
100
AcDbLine
 10
214.4184539688794
 20
128.6999999999996
 30
0.0
 11
212.1684539688795
 21
128.6999999999996
 31
0.0
  0
LINE
  5
F1
330
3F
100
AcDbEntity
  8
1
  6
Continuous
 62
     7
100
AcDbLine
 10
216.6795609678097
 20
130.0054507344986
 30
0.0
 11
216.6795609678097
 21
137.6999999999998
 31
0.0
  0
LINE
  5
F2
330
3F
100
AcDbEntity
  8
1
  6
Continuous
 62
     7
100
AcDbLine
 10
188.9184539688794
 20
128.6999999999996
 30
0.0
 11
186.6573469699492
 21
130.0054507344986
 31
0.0
  0
LINE
  5
F3
330
3F
100
AcDbEntity
  8
1
  6
Continuous
 62
     7
100
AcDbLine
 10
188.9184539688794
 20
128.6999999999996
 30
0.0
 11
191.1684539688794
 21
128.6999999999996
 31
0.0
  0
LINE
  5
F4
330
3F
100
AcDbEntity
  8
1
  6
Continuous
 62
     7
100
AcDbLine
 10
186.6573469699492
 20
130.0054507344986
 30
0.0
 11
186.6573469699492
 21
137.6999999999998
 31
0.0
  0
LINE
  5
F5
102
{ACAD_REACTORS
330
15C
330
15C
102
}
330
3F
100
AcDbEntity
  8
1
  6
Continuous
 62
     2
100
AcDbLine
 10
180.8266112754329
 20
171.0
 30
0.0
 11
179.4184539688794
 21
170.1870000000001
 31
0.0
  0
LINE
  5
F6
102
{ACAD_REACTORS
330
15C
330
15C
102
}
330
3F
100
AcDbEntity
  8
1
  6
Continuous
 62
     7
100
AcDbLine
 10
180.8266112754329
 20
171.0
 30
0.0
 11
179.4184539688794
 21
171.0
 31
0.0
  0
LINE
  5
F7
102
{ACAD_REACTORS
330
15C
330
15C
102
}
330
3F
100
AcDbEntity
  8
1
  6
Continuous
 62
     7
100
AcDbLine
 10
179.4184539688794
 20
170.1870000000001
 30
0.0
 11
179.4184539688794
 21
171.0
 31
0.0
  0
LINE
  5
F8
330
3F
100
AcDbEntity
  8
1
  6
Continuous
 62
     7
100
AcDbLine
 10
179.4184539688794
 20
171.0
 30
0.0
 11
177.9184539688793
 21
170.9999999999999
 31
0.0
  0
LINE
  5
F9
330
3F
100
AcDbEntity
  8
1
  6
Continuous
 62
     2
100
AcDbLine
 10
179.4184539688794
 20
147.8130000000001
 30
0.0
 11
177.9184539688793
 21
147.8130000000001
 31
0.0
  0
LINE
  5
FA
330
3F
100
AcDbEntity
  8
1
  6
Continuous
 62
     7
100
AcDbLine
 10
179.4184539688794
 20
147.0
 30
0.0
 11
179.4184539688794
 21
170.1870000000001
 31
0.0
  0
LINE
  5
FB
330
3F
100
AcDbEntity
  8
1
  6
Continuous
 62
     7
100
AcDbLine
 10
179.4184539688794
 20
147.0
 30
0.0
 11
180.8266112754329
 21
147.0
 31
0.0
  0
LINE
  5
FC
330
3F
100
AcDbEntity
  8
1
  6
Continuous
 62
     2
100
AcDbLine
 10
179.4184539688794
 20
147.8130000000001
 30
0.0
 11
180.8266112754329
 21
147.0
 31
0.0
  0
LINE
  5
FD
330
3F
100
AcDbEntity
  8
1
  6
Continuous
 62
     7
100
AcDbLine
 10
220.6076532477322
 20
165.2659486618833
 30
0.0
 11
221.6684539688794
 21
165.2000000000003
 31
0.0
  0
LINE
  5
FE
330
3F
100
AcDbEntity
  8
1
  6
Continuous
 62
     7
100
AcDbLine
 10
94.66845396887932
 20
172.5
 30
0.0
 11
94.66845396887932
 21
170.5989612986097
 31
0.0
  0
LINE
  5
FF
330
3F
100
AcDbEntity
  8
1
  6
Continuous
 62
     7
100
AcDbLine
 10
94.16845396887932
 20
173.0
 30
0.0
 11
94.66845396887932
 21
172.5
 31
0.0
  0
LINE
  5
100
330
3F
100
AcDbEntity
  8
1
  6
Continuous
 62
     7
100
AcDbLine
 10
94.66845396887932
 20
172.5
 30
0.0
 11
94.66845396887932
 21
170.5989612986097
 31
0.0
  0
LINE
  5
101
330
3F
100
AcDbEntity
  8
1
  6
Continuous
 62
     7
100
AcDbLine
 10
64.71845396887952
 20
173.0
 30
0.0
 11
75.91716527484351
 21
173.0
 31
0.0
  0
LINE
  5
102
330
3F
100
AcDbEntity
  8
1
  6
Continuous
 62
     7
100
AcDbLine
 10
94.66845396887932
 20
170.5989612986097
 30
0.0
 11
93.66845396887942
 21
170.5989612986097
 31
0.0
  0
LINE
  5
103
330
3F
100
AcDbEntity
  8
1
  6
Continuous
 62
     7
100
AcDbLine
 10
90.66845396887942
 20
167.5989612986097
 30
0.0
 11
90.66845396887942
 21
137.6999999999998
 31
0.0
  0
LINE
  5
104
330
3F
100
AcDbEntity
  8
1
  6
Continuous
 62
     7
100
AcDbLine
 10
60.66845396887929
 20
170.5989612986097
 30
0.0
 11
60.66845396887929
 21
172.5
 31
0.0
  0
LINE
  5
105
330
3F
100
AcDbEntity
  8
1
  6
Continuous
 62
     7
100
AcDbLine
 10
60.66845396887929
 20
172.5
 30
0.0
 11
61.16845396887929
 21
173.0
 31
0.0
  0
LINE
  5
106
330
3F
100
AcDbEntity
  8
1
  6
Continuous
 62
     7
100
AcDbLine
 10
60.66845396887929
 20
170.5989612986097
 30
0.0
 11
60.66845396887929
 21
172.5
 31
0.0
  0
LINE
  5
107
330
3F
100
AcDbEntity
  8
1
  6
Continuous
 62
     7
100
AcDbLine
 10
61.16845396887929
 20
173.0
 30
0.0
 11
64.71845396887952
 21
173.0
 31
0.0
  0
LINE
  5
108
330
3F
100
AcDbEntity
  8
1
  6
Continuous
 62
     7
100
AcDbLine
 10
61.66845396887923
 20
170.5989612986097
 30
0.0
 11
60.66845396887929
 21
170.5989612986097
 31
0.0
  0
LINE
  5
109
330
3F
100
AcDbEntity
  8
1
  6
Continuous
 62
     7
100
AcDbLine
 10
60.66845396887929
 20
170.5989612986097
 30
0.0
 11
60.66845396887929
 21
172.5
 31
0.0
  0
LINE
  5
10A
330
3F
100
AcDbEntity
  8
1
  6
Continuous
 62
     7
100
AcDbLine
 10
60.66845396887929
 20
170.5989612986097
 30
0.0
 11
60.66845396887929
 21
172.5
 31
0.0
  0
LINE
  5
10B
330
3F
100
AcDbEntity
  8
1
  6
Continuous
 62
     7
100
AcDbLine
 10
61.66845396887923
 20
170.5989612986097
 30
0.0
 11
71.79784098611893
 21
170.5989612986097
 31
0.0
  0
LINE
  5
10C
330
3F
100
AcDbEntity
  8
1
  6
Continuous
 62
     7
100
AcDbLine
 10
64.66845396887929
 20
137.6999999999998
 30
0.0
 11
64.66845396887921
 21
167.5989612986097
 31
0.0
  0
LINE
  5
10D
330
3F
100
AcDbEntity
  8
1
  6
Continuous
 62
     7
100
AcDbLine
 10
90.66845396887942
 20
137.6999999999998
 30
0.0
 11
90.66845396887932
 21
130.0054507344986
 31
0.0
  0
LINE
  5
10E
330
3F
100
AcDbEntity
  8
1
  6
Continuous
 62
     7
100
AcDbLine
 10
64.66845396887929
 20
130.0054507344986
 30
0.0
 11
64.66845396887929
 21
137.6999999999998
 31
0.0
  0
LINE
  5
10F
330
3F
100
AcDbEntity
  8
1
  6
DASH_CENTER
 62
     4
100
AcDbLine
 10
77.66845396887932
 20
130.0054507344986
 30
0.0
 11
77.66845396887932
 21
124.9999999999996
 31
0.0
  0
LINE
  5
110
330
3F
100
AcDbEntity
  8
1
  6
Continuous
 62
     7
100
AcDbLine
 10
90.66845396887932
 20
130.0054507344986
 30
0.0
 11
90.66845396887942
 21
128.6999999999996
 31
0.0
  0
LINE
  5
111
330
3F
100
AcDbEntity
  8
1
  6
Continuous
 62
     7
100
AcDbLine
 10
77.66845396887932
 20
130.0054507344986
 30
0.0
 11
77.66845396887932
 21
136.999616207492
 31
0.0
  0
LINE
  5
112
330
3F
100
AcDbEntity
  8
1
  6
Continuous
 62
     7
100
AcDbLine
 10
191.1909539688794
 20
215.0380000000002
 30
0.0
 11
212.1459539688793
 21
215.0380000000002
 31
0.0
  0
LINE
  5
113
330
3F
100
AcDbEntity
  8
1
  6
Continuous
 62
     7
100
AcDbLine
 10
212.1459539688793
 20
205.3620000000003
 30
0.0
 11
191.1909539688794
 21
205.3620000000003
 31
0.0
  0
LINE
  5
114
330
3F
100
AcDbEntity
  8
1
  6
Continuous
 62
     7
100
AcDbLine
 10
209.1684539688794
 20
202.6500000000002
 30
0.0
 11
209.1684539688794
 21
201.0000000000001
 31
0.0
  0
LINE
  5
115
330
3F
100
AcDbEntity
  8
1
  6
Continuous
 62
     7
100
AcDbLine
 10
194.1684539688794
 20
202.6500000000002
 30
0.0
 11
194.1684539688794
 21
201.0000000000001
 31
0.0
  0
LINE
  5
116
330
3F
100
AcDbEntity
  8
1
  6
Continuous
 62
     7
100
AcDbLine
 10
177.9184539688793
 20
146.9999999999999
 30
0.0
 11
179.4184539688794
 21
147.0
 31
0.0
  0
LINE
  5
117
330
3F
100
AcDbEntity
  8
1
  6
Continuous
 62
     2
100
AcDbLine
 10
177.9184539688793
 20
170.1870000000001
 30
0.0
 11
179.4184539688794
 21
170.1870000000001
 31
0.0
  0
LINE
  5
118
330
3F
100
AcDbEntity
  8
8
  6
Continuous
 62
     7
100
AcDbLine
 10
194.1629004688793
 20
137.0
 30
0.0
 11
194.1629004688793
 21
130.0054507344986
 31
0.0
  0
LINE
  5
119
330
3F
100
AcDbEntity
  8
8
  6
Continuous
 62
     7
100
AcDbLine
 10
209.1740074688794
 20
130.0054507344998
 30
0.0
 11
209.1740074688794
 21
137.0
 31
0.0
  0
LINE
  5
11A
330
3F
100
AcDbEntity
  8
1
  6
Continuous
 62
     2
100
AcDbLine
 10
68.35295396887922
 20
212.9074747049434
 30
0.0
 11
68.35295396887923
 21
216.2000000000002
 31
0.0
  0
LINE
  5
11B
330
3F
100
AcDbEntity
  8
1
  6
Continuous
 62
     7
100
AcDbLine
 10
83.53906695163971
 20
170.5989612986097
 30
0.0
 11
93.66845396887942
 21
170.5989612986097
 31
0.0
  0
LINE
  5
11C
330
3F
100
AcDbEntity
  8
1
  6
Continuous
 62
     7
100
AcDbLine
 10
79.41974266291501
 20
173.0
 30
0.0
 11
94.16845396887932
 21
173.0
 31
0.0
  0
LINE
  5
11D
330
3F
100
AcDbEntity
  8
1
  6
DASH_CENTER
 62
     4
100
AcDbLine
 10
77.66845396887932
 20
219.7000000000002
 30
0.0
 11
77.66845396887932
 21
136.999616207492
 31
0.0
  0
LINE
  5
11E
330
3F
100
AcDbEntity
  8
1
  6
Continuous
 62
     7
100
AcDbLine
 10
67.19095396887943
 20
215.0380000000002
 30
0.0
 11
88.14595396887931
 21
215.0380000000002
 31
0.0
  0
ARC
  5
11F
330
3F
100
AcDbEntity
  8
8
  6
Continuous
 62
     7
100
AcDbCircle
 10
186.4334035588792
 20
140.6928641400001
 30
0.0
 40
3.701115319999914
100
AcDbArc
 50
-86.19984339000591
 51
-58.87449467646017
  0
ARC
  5
120
330
3F
100
AcDbEntity
  8
1
  6
Continuous
 62
     7
100
AcDbCircle
 10
201.6684539688793
 20
320.634753024194
 30
0.0
 40
17.00000000000006
100
AcDbArc
 50
-131.4096221092711
 51
-21.38948332618413
  0
ARC
  5
121
330
3F
100
AcDbEntity
  8
1
  6
Continuous
 62
     7
100
AcDbCircle
 10
201.6684539688793
 20
320.634753024194
 30
0.0
 40
17.00000000000011
100
AcDbArc
 50
-21.38948332618413
 51
0.0
  0
ARC
  5
122
330
3F
100
AcDbEntity
  8
1
  6
Continuous
 62
     7
100
AcDbCircle
 10
201.6684539688793
 20
320.634753024194
 30
0.0
 40
17.00000000000009
100
AcDbArc
 50
0.0
 51
21.38948332618556
  0
ARC
  5
123
330
3F
100
AcDbEntity
  8
1
  6
Continuous
 62
     7
100
AcDbCircle
 10
201.6684539688793
 20
320.634753024194
 30
0.0
 40
17.00000000000006
100
AcDbArc
 50
-139.7109446504036
 51
-131.4096221092711
  0
ARC
  5
124
330
3F
100
AcDbEntity
  8
1
  6
Continuous
 62
     7
100
AcDbCircle
 10
201.6684539688793
 20
320.634753024194
 30
0.0
 40
16.99999999999996
100
AcDbArc
 50
21.38948332618556
 51
131.4096221092711
  0
ARC
  5
125
330
3F
100
AcDbEntity
  8
1
  6
Continuous
 62
     7
100
AcDbCircle
 10
201.6684539688793
 20
320.634753024194
 30
0.0
 40
17.00000000000006
100
AcDbArc
 50
131.4096221092711
 51
139.7109446504036
  0
ARC
  5
126
330
3F
100
AcDbEntity
  8
27
  6
Continuous
 62
     7
100
AcDbCircle
 10
217.3234539688792
 20
171.2962417300001
 30
0.0
 40
1.515000000000212
100
AcDbArc
 50
-41.18818515405098
 51
-27.40331234686853
  0
ARC
  5
127
330
3F
100
AcDbEntity
  8
27
  6
Continuous
 62
     7
100
AcDbCircle
 10
220.4721752388793
 20
168.41903388
 30
0.0
 40
2.750841470000232
100
AcDbArc
 50
136.9014101459859
 51
147.2718735275879
  0
ARC
  5
128
330
3F
100
AcDbEntity
  8
27
  6
Continuous
 62
     7
100
AcDbCircle
 10
220.5870722888794
 20
168.35604968
 30
0.0
 40
2.88156519000019
100
AcDbArc
 50
147.4534962885732
 51
169.4249065797679
  0
ARC
  5
129
330
3F
100
AcDbEntity
  8
27
  6
Continuous
 62
     7
100
AcDbCircle
 10
220.5621139188793
 20
168.21966458
 30
0.0
 40
2.885393789999849
100
AcDbArc
 50
166.6706662291446
 51
-138.2191451374314
  0
ARC
  5
12A
330
3F
100
AcDbEntity
  8
27
  6
Continuous
 62
     7
100
AcDbCircle
 10
221.2428924588793
 20
169.12245013
 30
0.0
 40
4.00059288999963
100
AcDbArc
 50
-135.072282128527
 51
-111.1565476056807
  0
ARC
  5
12B
330
3F
100
AcDbEntity
  8
27
  6
Continuous
 62
     7
100
AcDbCircle
 10
220.8330114788793
 20
169.38414372
 30
0.0
 40
4.124356540000123
100
AcDbArc
 50
-104.5193177728873
 51
-93.13224842134915
  0
ARC
  5
12C
330
3F
100
AcDbEntity
  8
1
  6
Continuous
 62
     7
100
AcDbCircle
 10
71.16845396887929
 20
145.5348756711495
 30
0.0
 40
16.83487567114991
100
AcDbArc
 50
-112.7122476873897
 51
-67.28775231261025
  0
ARC
  5
12D
330
3F
100
AcDbEntity
  8
1
  6
Continuous
 62
     7
100
AcDbCircle
 10
84.16845396887932
 20
145.5348756711495
 30
0.0
 40
16.83487567114991
100
AcDbArc
 50
-112.7122476873897
 51
-67.28775231261034
  0
ARC
  5
12E
330
3F
100
AcDbEntity
  8
8
  6
Continuous
 62
     7
100
AcDbCircle
 10
71.36541710887927
 20
136.4024890900001
 30
0.0
 40
2.399252210000057
100
AcDbArc
 50
94.72517206000629
 51
114.1529450100018
  0
ARC
  5
12F
330
3F
100
AcDbEntity
  8
8
  6
Continuous
 62
     7
100
AcDbCircle
 10
88.80986594887932
 20
178.3351018200001
 30
0.0
 40
43.17047147000017
100
AcDbArc
 50
-112.9837058900003
 51
-109.2967165000005
  0
ARC
  5
130
330
3F
100
AcDbEntity
  8
8
  6
Continuous
 62
     7
100
AcDbCircle
 10
70.97034104887932
 20
136.3973528500002
 30
0.0
 40
2.404354000000069
100
AcDbArc
 50
65.87366534998945
 51
85.28983288999594
  0
ARC
  5
131
330
3F
100
AcDbEntity
  8
8
  6
Continuous
 62
     7
100
AcDbCircle
 10
95.21565402887931
 20
75.8439647400001
 30
0.0
 40
67.48262154999998
100
AcDbArc
 50
111.5908121499998
 51
112.5023624800003
  0
ARC
  5
132
330
3F
100
AcDbEntity
  8
8
  6
Continuous
 62
     7
100
AcDbCircle
 10
62.68332399887929
 20
153.6303809400002
 30
0.0
 40
16.83466281000017
100
AcDbArc
 50
-78.76866837000146
 51
-66.52793544000028
  0
ARC
  5
133
330
3F
100
AcDbEntity
  8
8
  6
Continuous
 62
     7
100
AcDbCircle
 10
64.63199472887929
 20
144.51916643
 30
0.0
 40
7.519638610000065
100
AcDbArc
 50
-89.44037402999854
 51
-79.81071539000341
  0
ARC
  5
134
330
3F
100
AcDbEntity
  8
8
  6
Continuous
 62
     7
100
AcDbCircle
 10
77.97748983887931
 20
147.18442514
 30
0.0
 40
10.1904150300001
100
AcDbArc
 50
-109.691701810002
 51
-91.73782580677684
  0
ARC
  5
135
330
3F
100
AcDbEntity
  8
8
  6
Continuous
 62
     7
100
AcDbCircle
 10
77.63199472887932
 20
144.51916643
 30
0.0
 40
7.51963860999992
100
AcDbArc
 50
-89.7221982505627
 51
-79.81071539000372
  0
ARC
  5
136
330
3F
100
AcDbEntity
  8
8
  6
Continuous
 62
     7
100
AcDbCircle
 10
75.68332399887932
 20
153.6303809400002
 30
0.0
 40
16.83466281000017
100
AcDbArc
 50
-78.76866837000146
 51
-66.52793544000019
  0
ARC
  5
137
330
3F
100
AcDbEntity
  8
8
  6
Continuous
 62
     7
100
AcDbCircle
 10
108.2156540288793
 20
75.8439647400001
 30
0.0
 40
67.48262154999999
100
AcDbArc
 50
111.5908121499999
 51
112.5023624800003
  0
ARC
  5
138
330
3F
100
AcDbEntity
  8
8
  6
Continuous
 62
     7
100
AcDbCircle
 10
83.97034104887932
 20
136.3973528500002
 30
0.0
 40
2.404354000000081
100
AcDbArc
 50
65.87366534998886
 51
85.28983288999459
  0
ARC
  5
139
330
3F
100
AcDbEntity
  8
8
  6
Continuous
 62
     7
100
AcDbCircle
 10
84.36541710887931
 20
136.4024890900001
 30
0.0
 40
2.399252210000058
100
AcDbArc
 50
94.72517206000661
 51
114.1529450100027
  0
ARC
  5
13A
330
3F
100
AcDbEntity
  8
8
  6
Continuous
 62
     7
100
AcDbCircle
 10
101.8098659488793
 20
178.3351018200001
 30
0.0
 40
43.17047147000015
100
AcDbArc
 50
-112.9837058900003
 51
-109.2967165000005
  0
ARC
  5
13B
330
3F
100
AcDbEntity
  8
8
  6
Continuous
 62
     7
100
AcDbCircle
 10
90.97748983887931
 20
147.18442514
 30
0.0
 40
10.19041503000009
100
AcDbArc
 50
-109.6917018100019
 51
-91.94588934999813
  0
ARC
  5
13C
330
3F
100
AcDbEntity
  8
8
  6
Continuous
 62
     7
100
AcDbCircle
 10
185.2166253088793
 20
143.4851670500001
 30
0.0
 40
6.732399549999945
100
AcDbArc
 50
-62.29581052471394
 51
-52.96335244000019
  0
ARC
  5
13D
330
3F
100
AcDbEntity
  8
8
  6
Continuous
 62
     7
100
AcDbCircle
 10
190.5610600288793
 20
137.8458027
 30
0.0
 40
0.959789219999997
100
AcDbArc
 50
99.07160142999732
 51
128.9997247900107
  0
ARC
  5
13E
330
3F
100
AcDbEntity
  8
8
  6
Continuous
 62
     7
100
AcDbCircle
 10
229.3770772388793
 20
81.6594801800001
 30
0.0
 40
69.24750191999978
100
AcDbArc
 50
124.6988362699997
 51
125.3914540399996
  0
ARC
  5
13F
330
3F
100
AcDbEntity
  8
8
  6
Continuous
 62
     7
100
AcDbCircle
 10
202.1298401488793
 20
153.8470614500002
 30
0.0
 40
18.96483608
100
AcDbArc
 50
-126.4472990599994
 51
-120.6079640600005
  0
ARC
  5
140
330
3F
100
AcDbEntity
  8
8
  6
Continuous
 62
     7
100
AcDbCircle
 10
190.2586061388794
 20
137.84414187
 30
0.0
 40
0.9613973100001253
100
AcDbArc
 50
51.03698033000519
 51
80.95597642002669
  0
ARC
  5
141
330
3F
100
AcDbEntity
  8
8
  6
Continuous
 62
     7
100
AcDbCircle
 10
194.3868438788794
 20
140.6928641400001
 30
0.0
 40
3.701115319999826
100
AcDbArc
 50
-121.1254990899997
 51
-93.80015660999585
  0
ARC
  5
142
330
3F
100
AcDbEntity
  8
8
  6
Continuous
 62
     7
100
AcDbCircle
 10
194.1221971088793
 20
146.9887505900001
 30
0.0
 40
9.989212340000035
100
AcDbArc
 50
-89.52156603999868
 51
-81.16278571999784
  0
ARC
  5
143
330
3F
100
AcDbEntity
  8
8
  6
Continuous
 62
     7
100
AcDbCircle
 10
191.9977550988793
 20
158.48638228
 30
0.0
 40
21.6792820999998
100
AcDbArc
 50
-80.2830204200006
 51
-69.43436828999933
  0
ARC
  5
144
330
3F
100
AcDbEntity
  8
8
  6
Continuous
 62
     7
100
AcDbCircle
 10
228.4100863488794
 20
57.91975603
 30
0.0
 40
85.27814920000012
100
AcDbArc
 50
108.91754652
 51
109.7356652899998
  0
ARC
  5
145
330
3F
100
AcDbEntity
  8
8
  6
Continuous
 62
     7
100
AcDbCircle
 10
201.8865890688793
 20
135.6808041300002
 30
0.0
 40
3.120471709999826
100
AcDbArc
 50
94.02298928999076
 51
111.1182533999941
  0
ARC
  5
146
330
3F
100
AcDbEntity
  8
8
  6
Continuous
 62
     7
100
AcDbCircle
 10
201.4489837488794
 20
135.6739865000002
 30
0.0
 40
3.127255860000023
100
AcDbArc
 50
68.90549917999194
 51
85.99013943000415
  0
ARC
  5
147
330
3F
100
AcDbEntity
  8
8
  6
Continuous
 62
     7
100
AcDbCircle
 10
221.4589187088794
 20
190.0176042500001
 30
0.0
 40
54.78363663000014
100
AcDbArc
 50
-110.1640333600004
 51
-106.8642602399998
  0
ARC
  5
148
330
3F
100
AcDbEntity
  8
8
  6
Continuous
 62
     7
100
AcDbCircle
 10
209.5156761688794
 20
150.38923349
 30
0.0
 40
13.39486311999981
100
AcDbArc
 50
-107.1499098599995
 51
-91.64437590999954
  0
ARC
  5
149
330
3F
100
AcDbEntity
  8
8
  6
Continuous
 62
     7
100
AcDbCircle
 10
209.1473734588793
 20
139.5799952100001
 30
0.0
 40
2.580554929999984
100
AcDbArc
 50
-88.93446524999601
 51
-72.55576080998964
  0
ARC
  5
14A
330
3F
100
AcDbEntity
  8
8
  6
Continuous
 62
     7
100
AcDbCircle
 10
207.7332858088794
 20
143.4851670500001
 30
0.0
 40
6.73239954999985
100
AcDbArc
 50
-71.0375738900036
 51
-52.96335244000154
  0
ARC
  5
14B
330
3F
100
AcDbEntity
  8
8
  6
Continuous
 62
     7
100
AcDbCircle
 10
213.0777205288794
 20
137.8458027
 30
0.0
 40
0.9597892200000284
100
AcDbArc
 50
99.07160143000905
 51
128.999724790016
  0
ARC
  5
14C
330
3F
100
AcDbEntity
  8
8
  6
Continuous
 62
     7
100
AcDbCircle
 10
251.8937377388794
 20
81.6594801800001
 30
0.0
 40
69.24750191999988
100
AcDbArc
 50
124.6988362699999
 51
125.3914540399997
  0
ARC
  5
14D
330
3F
100
AcDbEntity
  8
8
  6
Continuous
 62
     7
100
AcDbCircle
 10
212.7752666388793
 20
137.84414187
 30
0.0
 40
0.9613973100001968
100
AcDbArc
 50
51.03698032999992
 51
80.95597642001332
  0
ARC
  5
14E
330
3F
100
AcDbEntity
  8
8
  6
Continuous
 62
     7
100
AcDbCircle
 10
224.6465006488794
 20
153.8470614500002
 30
0.0
 40
18.9648360800001
100
AcDbArc
 50
-126.4472990599998
 51
-120.607964060001
  0
ARC
  5
14F
330
3F
100
AcDbEntity
  8
8
  6
Continuous
 62
     7
100
AcDbCircle
 10
216.9035043788794
 20
140.6928641400001
 30
0.0
 40
3.701115319999826
100
AcDbArc
 50
-121.1254990899997
 51
-93.80015660999453
  0
ARC
  5
150
330
3F
100
AcDbEntity
  8
1
  6
Continuous
 62
     7
100
AcDbCircle
 10
201.6684539688793
 20
150.9289257755245
 30
0.0
 40
22.22892577552494
100
AcDbArc
 50
-109.7336453504746
 51
-70.26635464952524
  0
ARC
  5
151
330
3F
100
AcDbEntity
  8
1
  6
Continuous
 62
     7
100
AcDbCircle
 10
212.9267842183447
 20
134.7467754677798
 30
0.0
 40
6.046775467780434
100
AcDbArc
 50
-128.3617500833762
 51
-51.63824991662594
  0
ARC
  5
152
330
3F
100
AcDbEntity
  8
1
  6
Continuous
 62
     7
100
AcDbCircle
 10
190.4101237194139
 20
134.7467754677798
 30
0.0
 40
6.046775467780065
100
AcDbArc
 50
-128.3617500833718
 51
-51.63824991662298
  0
CIRCLE
  5
153
330
3F
100
AcDbEntity
  8
1
  6
Continuous
 62
     7
100
AcDbCircle
 10
201.6684539688793
 20
320.634753024194
 30
0.0
 40
6.5
  0
CIRCLE
  5
154
330
3F
100
AcDbEntity
  8
1
  6
Continuous
 62
     2
100
AcDbCircle
 10
201.6684539688793
 20
320.634753024194
 30
0.0
 40
9.3155000000001
  0
CIRCLE
  5
155
330
3F
100
AcDbEntity
  8
1
  6
Continuous
 62
     7
100
AcDbCircle
 10
201.6684539688793
 20
320.634753024194
 30
0.0
 40
10.47749999999999
  0
ARC
  5
156
330
3F
100
AcDbEntity
  8
1
  6
Continuous
 62
     7
100
AcDbCircle
 10
183.6684539688794
 20
141.25
 30
0.0
 40
5.0
100
AcDbArc
 50
0.0
 51
90.0
  0
ARC
  5
157
330
3F
100
AcDbEntity
  8
1
  6
Continuous
 62
     7
100
AcDbCircle
 10
217.6684539688794
 20
149.8000000000002
 30
0.0
 40
3.0
100
AcDbArc
 50
89.99999999999784
 51
180.0
  0
ARC
  5
158
330
3F
100
AcDbEntity
  8
1
  6
Continuous
 62
     7
100
AcDbCircle
 10
186.6791340729402
 20
139.6999999999998
 30
0.0
 40
2.0
100
AcDbArc
 50
-90.0
 51
-5.92384691567799
  0
ARC
  5
159
330
3F
100
AcDbEntity
  8
1
  6
Continuous
 62
     7
100
AcDbCircle
 10
216.6577738648185
 20
139.6999999999998
 30
0.0
 40
1.999999999999902
100
AcDbArc
 50
-174.0761530843218
 51
-90.0
  0
ARC
  5
15A
330
3F
100
AcDbEntity
  8
1
  6
Continuous
 62
     7
100
AcDbCircle
 10
93.66845396887942
 20
167.5989612986097
 30
0.0
 40
3.0
100
AcDbArc
 50
90.0
 51
180.0
  0
ARC
  5
15B
330
3F
100
AcDbEntity
  8
1
  6
Continuous
 62
     7
100
AcDbCircle
 10
61.66845396887921
 20
167.5989612986097
 30
0.0
 40
2.999999999999993
100
AcDbArc
 50
0.0
 51
89.99999999999973
  0
HATCH
  5
15C
330
3F
100
AcDbEntity
  8
1
  6
Continuous
 62
     2
100
AcDbHatch
 10
0.0
 20
0.0
 30
0.0
210
0.0
220
0.0
230
1.0
  2
CUSTOM0
 70
     0
 71
     1
 91
        1
 92
        1
 93
        3
 72
     1
 10
180.8266112754329
 20
171.0
 11
179.4184539688794
 21
171.0
 72
     1
 10
179.4184539688794
 20
171.0
 11
179.4184539688794
 21
170.1870000000001
 72
     1
 10
179.4184539688794
 20
170.1870000000001
 11
180.8266112754329
 21
171.0
 97
        3
330
F6
330
F7
330
F5
 75
     1
 76
     2
 52
45.0
 41
1.0
 77
     0
 78
     1
 53
45.0
 43
0.0
 44
0.0
 45
-2.82842712474619
 46
0.0000000000000002
 79
     0
 98
        1
 10
0.0
 20
0.0
  0
ENDBLK
  5
41
330
3F
100
AcDbEntity
  8
0
100
AcDbBlockEnd
  0
BLOCK
  5
43
330
42
100
AcDbEntity
  8
0
100
AcDbBlockBegin
  2
06-96-M11
 70
     0
 71
     0
 10
971.757863506159
 20
-622.7500000000001
 30
0.0
  3
06-96-M11
  1

  0
LINE
  5
15D
330
42
100
AcDbEntity
  8
1
  6
PHANTOM
 62
     4
100
AcDbLine
 10
246.569734574225
 20
365.5360336295395
 30
0.0
 11
210.1537353431178
 21
329.1200343984325
 31
0.0
  0
LINE
  5
15E
330
42
100
AcDbEntity
  8
1
  6
PHANTOM
 62
     5
100
AcDbLine
 10
230.4208299054868
 20
362.5930552062414
 30
0.0
 11
229.5991718257481
 21
363.4147132859802
 31
0.0
  0
LINE
  5
15F
330
42
100
AcDbEntity
  8
1
  6
PHANTOM
 62
     5
100
AcDbLine
 10
228.1762201050138
 20
361.9916138228815
 30
0.0
 11
230.4208299054868
 21
362.5930552062414
 31
0.0
  0
LINE
  5
160
330
42
100
AcDbEntity
  8
1
  6
PHANTOM
 62
     5
100
AcDbLine
 10
244.4484142306655
 20
348.5654708810628
 30
0.0
 11
249.9907171816057
 21
354.1077738320029
 31
0.0
  0
LINE
  5
161
330
42
100
AcDbEntity
  8
1
  6
PHANTOM
 62
     5
100
AcDbLine
 10
243.6267561509268
 20
349.3871289608015
 30
0.0
 11
230.4208299054868
 21
362.5930552062414
 31
0.0
  0
LINE
  5
162
330
42
100
AcDbEntity
  8
1
  6
PHANTOM
 62
     5
100
AcDbLine
 10
243.0253147675669
 20
347.1425191603286
 30
0.0
 11
243.0252606901084
 21
347.1423173405057
 31
0.0
  0
LINE
  5
163
330
42
100
AcDbEntity
  8
1
  6
PHANTOM
 62
     5
100
AcDbLine
 10
228.1760182851909
 20
361.9915597454229
 30
0.0
 11
228.1762201050138
 21
361.9916138228815
 31
0.0
  0
LINE
  5
164
330
42
100
AcDbEntity
  8
1
  6
PHANTOM
 62
     5
100
AcDbLine
 10
229.5991718257481
 20
363.4147132859802
 30
0.0
 11
235.1414747766881
 21
368.9570162369204
 31
0.0
  0
LINE
  5
165
330
42
100
AcDbEntity
  8
1
  6
PHANTOM
 62
     5
100
AcDbLine
 10
228.1759664392205
 20
361.9915458533371
 30
0.0
 11
228.1760182851909
 21
361.9915597454229
 31
0.0
  0
LINE
  5
166
330
42
100
AcDbEntity
  8
1
  6
PHANTOM
 62
     5
100
AcDbLine
 10
243.6267561509268
 20
349.3871289608015
 30
0.0
 11
243.0253147675669
 21
347.1425191603286
 31
0.0
  0
LINE
  5
167
330
42
100
AcDbEntity
  8
1
  6
PHANTOM
 62
     5
100
AcDbLine
 10
243.0252606901084
 20
347.1423173405057
 30
0.0
 11
244.4484142306655
 21
348.5654708810628
 31
0.0
  0
LINE
  5
168
330
42
100
AcDbEntity
  8
1
  6
PHANTOM
 62
     5
100
AcDbLine
 10
236.7847909361656
 20
368.9570162369201
 30
0.0
 11
249.9907171816056
 21
355.7510899914802
 31
0.0
  0
LINE
  5
169
330
42
100
AcDbEntity
  8
1
  6
PHANTOM
 62
     5
100
AcDbLine
 10
249.9907171816057
 20
354.1077738320029
 30
0.0
 11
249.9907171816056
 21
355.7510899914802
 31
0.0
  0
LINE
  5
16A
330
42
100
AcDbEntity
  8
1
  6
PHANTOM
 62
     5
100
AcDbLine
 10
249.9907171816056
 20
355.7510899914802
 30
0.0
 11
243.6267561509268
 21
349.3871289608015
 31
0.0
  0
LINE
  5
16B
330
42
100
AcDbEntity
  8
1
  6
PHANTOM
 62
     5
100
AcDbLine
 10
249.9907171816056
 20
355.7510899914802
 30
0.0
 11
249.1690591018669
 21
354.9294319117416
 31
0.0
  0
LINE
  5
16C
330
42
100
AcDbEntity
  8
1
  6
PHANTOM
 62
     5
100
AcDbLine
 10
236.7847909361656
 20
368.9570162369201
 30
0.0
 11
249.9907171816056
 21
355.7510899914802
 31
0.0
  0
LINE
  5
16D
330
42
100
AcDbEntity
  8
1
  6
PHANTOM
 62
     5
100
AcDbLine
 10
235.963132856427
 20
368.1353581571815
 30
0.0
 11
236.7847909361656
 21
368.9570162369201
 31
0.0
  0
LINE
  5
16E
330
42
100
AcDbEntity
  8
1
  6
PHANTOM
 62
     5
100
AcDbLine
 10
235.1414747766881
 20
368.9570162369204
 30
0.0
 11
236.7847909361656
 21
368.9570162369201
 31
0.0
  0
LINE
  5
16F
330
42
100
AcDbEntity
  8
1
  6
PHANTOM
 62
     5
100
AcDbLine
 10
228.1760182851909
 20
361.9915597454229
 30
0.0
 11
229.5991718257481
 21
363.4147132859802
 31
0.0
  0
LINE
  5
170
330
42
100
AcDbEntity
  8
1
  6
PHANTOM
 62
     5
100
AcDbLine
 10
230.4208299054868
 20
362.5930552062414
 30
0.0
 11
235.963132856427
 21
368.1353581571815
 31
0.0
  0
LINE
  5
171
330
42
100
AcDbEntity
  8
1
  6
PHANTOM
 62
     5
100
AcDbLine
 10
236.7847909361656
 20
368.9570162369201
 30
0.0
 11
249.9907171816056
 21
355.7510899914802
 31
0.0
  0
LINE
  5
172
330
42
100
AcDbEntity
  8
1
  6
PHANTOM
 62
     5
100
AcDbLine
 10
235.1414747766881
 20
368.9570162369204
 30
0.0
 11
249.9907171816057
 21
354.1077738320029
 31
0.0
  0
LINE
  5
173
330
42
100
AcDbEntity
  8
1
  6
PHANTOM
 62
     5
100
AcDbLine
 10
244.4484142306655
 20
348.5654708810628
 30
0.0
 11
243.6267561509268
 21
349.3871289608015
 31
0.0
  0
LINE
  5
174
330
42
100
AcDbEntity
  8
1
  6
PHANTOM
 62
     4
100
AcDbLine
 10
168.1684539688793
 20
173.1683856439146
 30
0.0
 11
168.1684539688793
 21
212.9999999999999
 31
0.0
  0
LINE
  5
175
330
42
100
AcDbEntity
  8
1
  6
Continuous
 62
     7
100
AcDbLine
 10
183.9184539688792
 20
199.5000000000002
 30
0.0
 11
182.6684539688796
 21
199.5000000000002
 31
0.0
  0
LINE
  5
176
330
42
100
AcDbEntity
  8
1
  6
Continuous
 62
     7
100
AcDbLine
 10
185.1684539688796
 20
174.0000000000001
 30
0.0
 11
186.1684539688796
 21
173.0000000000001
 31
0.0
  0
LINE
  5
177
330
42
100
AcDbEntity
  8
1
  6
Continuous
 62
     7
100
AcDbLine
 10
185.0961649328816
 20
174.0722890359977
 30
0.0
 11
185.1684539688796
 21
174.0000000000001
 31
0.0
  0
LINE
  5
178
330
42
100
AcDbEntity
  8
1
  6
Continuous
 62
     7
100
AcDbLine
 10
217.1684539688794
 20
173.0000000000001
 30
0.0
 11
186.1684539688796
 21
173.0000000000001
 31
0.0
  0
LINE
  5
179
330
42
100
AcDbEntity
  8
1
  6
Continuous
 62
     7
100
AcDbLine
 10
217.1684539688794
 20
173.0000000000001
 30
0.0
 11
218.1684539688794
 21
174.0000000000001
 31
0.0
  0
LINE
  5
17A
330
42
100
AcDbEntity
  8
1
  6
Continuous
 62
     7
100
AcDbLine
 10
153.6684539688791
 20
198.5
 30
0.0
 11
154.9593317657812
 21
199.25
 31
0.0
  0
LINE
  5
17B
330
42
100
AcDbEntity
  8
1
  6
Continuous
 62
     7
100
AcDbLine
 10
154.9801351129514
 20
176.7500000000001
 30
0.0
 11
153.6810970072744
 21
177.5000000000002
 31
0.0
  0
LINE
  5
17C
330
42
100
AcDbEntity
  8
1
  6
Continuous
 62
     7
100
AcDbLine
 10
154.9801351129514
 20
176.7500000000001
 30
0.0
 11
161.2045534963653
 21
176.7500000000001
 31
0.0
  0
LINE
  5
17D
330
42
100
AcDbEntity
  8
1
  6
Continuous
 62
     7
100
AcDbLine
 10
217.7665301802327
 20
194.7679491924311
 30
0.0
 11
216.820377757526
 21
196.4067332602637
 31
0.0
  0
LINE
  5
17E
330
42
100
AcDbEntity
  8
1
  6
Continuous
 62
     2
100
AcDbLine
 10
143.8304539688791
 20
178.6620000000001
 30
0.0
 11
142.6684539688793
 21
178.662
 31
0.0
  0
LINE
  5
17F
330
42
100
AcDbEntity
  8
1
  6
Continuous
 62
     2
100
AcDbLine
 10
143.8304539688791
 20
178.6620000000001
 30
0.0
 11
142.6684539688793
 21
178.662
 31
0.0
  0
LINE
  5
180
330
42
100
AcDbEntity
  8
1
  6
Continuous
 62
     2
100
AcDbLine
 10
143.8304539688791
 20
197.3380000000001
 30
0.0
 11
151.6684539688791
 21
197.3380000000001
 31
0.0
  0
LINE
  5
181
330
42
100
AcDbEntity
  8
1
  6
Continuous
 62
     7
100
AcDbLine
 10
143.8304539688791
 20
198.5000000000001
 30
0.0
 11
151.6684539688791
 21
198.5
 31
0.0
  0
LINE
  5
182
330
42
100
AcDbEntity
  8
1
  6
Continuous
 62
     7
100
AcDbLine
 10
142.6684539688793
 20
197.3380000000001
 30
0.0
 11
143.8304539688791
 21
198.5000000000001
 31
0.0
  0
LINE
  5
183
330
42
100
AcDbEntity
  8
1
  6
Continuous
 62
     7
100
AcDbLine
 10
142.6684539688793
 20
178.662
 30
0.0
 11
143.8304539688791
 21
177.5000000000001
 31
0.0
  0
LINE
  5
184
330
42
100
AcDbEntity
  8
1
  6
Continuous
 62
     2
100
AcDbLine
 10
142.6684539688793
 20
197.3380000000001
 30
0.0
 11
143.8304539688791
 21
197.3380000000001
 31
0.0
  0
LINE
  5
185
330
42
100
AcDbEntity
  8
1
  6
Continuous
 62
     7
100
AcDbLine
 10
151.6684539688791
 20
197.3380000000001
 30
0.0
 11
151.6684539688791
 21
198.5
 31
0.0
  0
LINE
  5
186
330
42
100
AcDbEntity
  8
1
  6
Continuous
 62
     7
100
AcDbLine
 10
151.6684539688791
 20
198.5
 30
0.0
 11
153.6684539688791
 21
198.5
 31
0.0
  0
LINE
  5
187
330
42
100
AcDbEntity
  8
1
  6
Continuous
 62
     2
100
AcDbLine
 10
151.6684539688791
 20
197.3380000000001
 30
0.0
 11
153.6811434910997
 21
198.5000268374491
 31
0.0
  0
LINE
  5
188
330
42
100
AcDbEntity
  8
1
  6
Continuous
 62
     2
100
AcDbLine
 10
151.6684539688791
 20
178.6620000000001
 30
0.0
 11
143.8304539688791
 21
178.6620000000001
 31
0.0
  0
LINE
  5
189
330
42
100
AcDbEntity
  8
1
  6
Continuous
 62
     2
100
AcDbLine
 10
153.6810970072744
 20
177.5000000000002
 30
0.0
 11
151.6684539688791
 21
178.6620000000001
 31
0.0
  0
LINE
  5
18A
330
42
100
AcDbEntity
  8
1
  6
Continuous
 62
     7
100
AcDbLine
 10
151.6684539688791
 20
177.5000000000002
 30
0.0
 11
151.6684539688791
 21
197.3380000000001
 31
0.0
  0
LINE
  5
18B
330
42
100
AcDbEntity
  8
1
  6
Continuous
 62
     2
100
AcDbLine
 10
151.6684539688791
 20
178.6620000000001
 30
0.0
 11
143.8304539688791
 21
178.6620000000001
 31
0.0
  0
LINE
  5
18C
330
42
100
AcDbEntity
  8
1
  6
Continuous
 62
     7
100
AcDbLine
 10
142.6684539688793
 20
178.662
 30
0.0
 11
142.6684539688793
 21
197.3380000000001
 31
0.0
  0
LINE
  5
18D
330
42
100
AcDbEntity
  8
1
  6
Continuous
 62
     7
100
AcDbLine
 10
151.6684539688791
 20
177.5000000000002
 30
0.0
 11
153.6810970072744
 21
177.5000000000002
 31
0.0
  0
LINE
  5
18E
330
42
100
AcDbEntity
  8
1
  6
Continuous
 62
     7
100
AcDbLine
 10
143.8304539688791
 20
177.5000000000001
 30
0.0
 11
151.6684539688791
 21
177.5000000000002
 31
0.0
  0
LINE
  5
18F
330
42
100
AcDbEntity
  8
1
  6
Continuous
 62
     7
100
AcDbLine
 10
179.6684539688793
 20
209.9999999999999
 30
0.0
 11
179.6684539688796
 21
202.5000000000001
 31
0.0
  0
LINE
  5
190
330
42
100
AcDbEntity
  8
1
  6
Continuous
 62
     7
100
AcDbLine
 10
216.4184539688793
 20
201.0000000000002
 30
0.0
 11
216.4184539688793
 21
197.9067332602637
 31
0.0
  0
LINE
  5
191
330
42
100
AcDbEntity
  8
1
  6
Continuous
 62
     7
100
AcDbLine
 10
218.1684539688794
 20
193.2679491924313
 30
0.0
 11
218.1684539688794
 21
174.0000000000001
 31
0.0
  0
LINE
  5
192
330
42
100
AcDbEntity
  8
1
  6
Continuous
 62
     7
100
AcDbLine
 10
156.6684539688793
 20
209.9999999999999
 30
0.0
 11
179.6684539688793
 21
209.9999999999999
 31
0.0
  0
LINE
  5
193
330
42
100
AcDbEntity
  8
1
  6
Continuous
 62
     7
100
AcDbLine
 10
156.6684539688793
 20
209.9999999999999
 30
0.0
 11
156.6684539688793
 21
201.9580684100419
 31
0.0
  0
LINE
  5
194
330
42
100
AcDbEntity
  8
1
  6
Continuous
 62
     7
100
AcDbLine
 10
151.6684539688791
 20
197.3380000000001
 30
0.0
 11
151.6684539688791
 21
198.5
 31
0.0
  0
LINE
  5
195
330
42
100
AcDbEntity
  8
1
  6
Continuous
 62
     7
100
AcDbLine
 10
151.6684539688791
 20
198.5
 30
0.0
 11
153.6684539688791
 21
198.5
 31
0.0
  0
LINE
  5
196
330
42
100
AcDbEntity
  8
1
  6
Continuous
 62
     2
100
AcDbLine
 10
151.6684539688791
 20
197.3380000000001
 30
0.0
 11
153.6811434910997
 21
198.5000268374491
 31
0.0
  0
LINE
  5
197
330
42
100
AcDbEntity
  8
1
  6
PHANTOM
 62
     4
100
AcDbLine
 10
201.6684539688793
 20
204.0000000000002
 30
0.0
 11
201.6684539688793
 21
170.0000000000001
 31
0.0
  0
LINE
  5
198
330
42
100
AcDbEntity
  8
1
  6
PHANTOM
 62
     4
100
AcDbLine
 10
139.6684539688793
 20
188.0000000000001
 30
0.0
 11
222.3684539688793
 21
188.0000000000001
 31
0.0
  0
LINE
  5
199
330
42
100
AcDbEntity
  8
1
  6
Continuous
 62
     7
100
AcDbLine
 10
143.8304539688792
 20
311.296753024194
 30
0.0
 11
143.8304539688792
 21
329.972753024194
 31
0.0
  0
LINE
  5
19A
330
42
100
AcDbEntity
  8
1
  6
Continuous
 62
     7
100
AcDbLine
 10
151.6684539688791
 20
329.972753024194
 30
0.0
 11
151.6684539688791
 21
311.296753024194
 31
0.0
  0
LINE
  5
19B
330
42
100
AcDbEntity
  8
1
  6
Continuous
 62
     7
100
AcDbLine
 10
154.1684539688795
 20
331.1347530241942
 30
0.0
 11
153.6810970072743
 21
331.1347530241939
 31
0.0
  0
LINE
  5
19C
330
42
100
AcDbEntity
  8
1
  6
Continuous
 62
     7
100
AcDbLine
 10
153.6810970072743
 20
310.1347530241941
 30
0.0
 11
154.1684539688795
 21
310.1347530241937
 31
0.0
  0
LINE
  5
19D
330
42
100
AcDbEntity
  8
1
  6
Continuous
 62
     2
100
AcDbLine
 10
143.8304539688792
 20
311.296753024194
 30
0.0
 11
142.6684539688794
 21
311.2967530241939
 31
0.0
  0
LINE
  5
19E
330
42
100
AcDbEntity
  8
1
  6
Continuous
 62
     2
100
AcDbLine
 10
143.8304539688792
 20
311.296753024194
 30
0.0
 11
142.6684539688794
 21
311.2967530241939
 31
0.0
  0
LINE
  5
19F
330
42
100
AcDbEntity
  8
1
  6
Continuous
 62
     7
100
AcDbLine
 10
143.8304539688792
 20
310.134753024194
 30
0.0
 11
143.8304539688792
 21
311.296753024194
 31
0.0
  0
LINE
  5
1A0
330
42
100
AcDbEntity
  8
1
  6
Continuous
 62
     2
100
AcDbLine
 10
143.8304539688792
 20
329.972753024194
 30
0.0
 11
151.6684539688791
 21
329.972753024194
 31
0.0
  0
LINE
  5
1A1
330
42
100
AcDbEntity
  8
1
  6
Continuous
 62
     7
100
AcDbLine
 10
143.8304539688792
 20
331.134753024194
 30
0.0
 11
143.8304539688792
 21
329.972753024194
 31
0.0
  0
LINE
  5
1A2
330
42
100
AcDbEntity
  8
1
  6
Continuous
 62
     7
100
AcDbLine
 10
143.8304539688792
 20
331.134753024194
 30
0.0
 11
151.6684539688791
 21
331.1347530241939
 31
0.0
  0
LINE
  5
1A3
330
42
100
AcDbEntity
  8
1
  6
Continuous
 62
     7
100
AcDbLine
 10
142.6684539688794
 20
329.972753024194
 30
0.0
 11
143.8304539688792
 21
331.134753024194
 31
0.0
  0
LINE
  5
1A4
330
42
100
AcDbEntity
  8
1
  6
Continuous
 62
     7
100
AcDbLine
 10
142.6684539688794
 20
311.2967530241939
 30
0.0
 11
143.8304539688792
 21
310.134753024194
 31
0.0
  0
LINE
  5
1A5
330
42
100
AcDbEntity
  8
1
  6
Continuous
 62
     2
100
AcDbLine
 10
142.6684539688794
 20
329.972753024194
 30
0.0
 11
143.8304539688792
 21
329.972753024194
 31
0.0
  0
LINE
  5
1A6
330
42
100
AcDbEntity
  8
1
  6
Continuous
 62
     7
100
AcDbLine
 10
151.6684539688791
 20
329.972753024194
 30
0.0
 11
151.6684539688791
 21
331.1347530241939
 31
0.0
  0
LINE
  5
1A7
330
42
100
AcDbEntity
  8
1
  6
Continuous
 62
     7
100
AcDbLine
 10
151.6684539688791
 20
331.1347530241939
 30
0.0
 11
153.6684539688791
 21
331.1347530241939
 31
0.0
  0
LINE
  5
1A8
330
42
100
AcDbEntity
  8
1
  6
Continuous
 62
     2
100
AcDbLine
 10
151.6684539688791
 20
329.972753024194
 30
0.0
 11
153.6811434910998
 21
331.134779861643
 31
0.0
  0
LINE
  5
1A9
330
42
100
AcDbEntity
  8
1
  6
Continuous
 62
     2
100
AcDbLine
 10
151.6684539688791
 20
311.296753024194
 30
0.0
 11
143.8304539688792
 21
311.296753024194
 31
0.0
  0
LINE
  5
1AA
330
42
100
AcDbEntity
  8
1
  6
Continuous
 62
     2
100
AcDbLine
 10
153.6810970072743
 20
310.1347530241941
 30
0.0
 11
151.6684539688791
 21
311.296753024194
 31
0.0
  0
LINE
  5
1AB
330
42
100
AcDbEntity
  8
1
  6
Continuous
 62
     7
100
AcDbLine
 10
151.6684539688791
 20
310.1347530241941
 30
0.0
 11
151.6684539688791
 21
311.296753024194
 31
0.0
  0
LINE
  5
1AC
330
42
100
AcDbEntity
  8
1
  6
Continuous
 62
     2
100
AcDbLine
 10
151.6684539688791
 20
311.296753024194
 30
0.0
 11
143.8304539688792
 21
311.296753024194
 31
0.0
  0
LINE
  5
1AD
330
42
100
AcDbEntity
  8
1
  6
Continuous
 62
     7
100
AcDbLine
 10
142.6684539688794
 20
311.2967530241939
 30
0.0
 11
142.6684539688794
 21
329.972753024194
 31
0.0
  0
LINE
  5
1AE
330
42
100
AcDbEntity
  8
1
  6
Continuous
 62
     7
100
AcDbLine
 10
151.6684539688791
 20
310.1347530241941
 30
0.0
 11
153.6810970072743
 21
310.1347530241941
 31
0.0
  0
LINE
  5
1AF
330
42
100
AcDbEntity
  8
1
  6
Continuous
 62
     7
100
AcDbLine
 10
143.8304539688792
 20
310.134753024194
 30
0.0
 11
151.6684539688791
 21
310.1347530241941
 31
0.0
  0
LINE
  5
1B0
330
42
100
AcDbEntity
  8
1
  6
Continuous
 62
     7
100
AcDbLine
 10
151.6684539688791
 20
329.972753024194
 30
0.0
 11
151.6684539688791
 21
331.1347530241939
 31
0.0
  0
LINE
  5
1B1
330
42
100
AcDbEntity
  8
1
  6
Continuous
 62
     7
100
AcDbLine
 10
151.6684539688791
 20
331.1347530241939
 30
0.0
 11
153.6684539688791
 21
331.1347530241939
 31
0.0
  0
LINE
  5
1B2
330
42
100
AcDbEntity
  8
1
  6
Continuous
 62
     2
100
AcDbLine
 10
151.6684539688791
 20
329.972753024194
 30
0.0
 11
153.6811434910998
 21
331.134779861643
 31
0.0
  0
LINE
  5
1B3
330
42
100
AcDbEntity
  8
1
  6
PHANTOM
 62
     4
100
AcDbLine
 10
168.1684539688793
 20
306.134753024194
 30
0.0
 11
168.1684539688793
 21
335.134753024194
 31
0.0
  0
LINE
  5
1B4
330
42
100
AcDbEntity
  8
1
  6
PHANTOM
 62
     4
100
AcDbLine
 10
139.6684539688794
 20
320.634753024194
 30
0.0
 11
221.9184539688792
 21
320.634753024194
 31
0.0
  0
LINE
  5
1B5
330
42
100
AcDbEntity
  8
1
  6
PHANTOM
 62
     4
100
AcDbLine
 10
201.6684539688793
 20
301.384753024194
 30
0.0
 11
201.6684539688793
 21
339.884753024194
 31
0.0
  0
LINE
  5
1B6
330
42
100
AcDbEntity
  8
1
  6
Continuous
 62
     7
100
AcDbLine
 10
66.16845396887935
 20
209.9999999999999
 30
0.0
 11
66.16845396887935
 21
191.709732484921
 31
0.0
  0
LINE
  5
1B7
330
42
100
AcDbEntity
  8
1
  6
Continuous
 62
     7
100
AcDbLine
 10
66.16845396887935
 20
209.9999999999999
 30
0.0
 11
89.16845396887932
 21
209.9999999999999
 31
0.0
  0
LINE
  5
1B8
330
42
100
AcDbEntity
  8
1
  6
Continuous
 62
     7
100
AcDbLine
 10
89.16845396887932
 20
209.9999999999999
 30
0.0
 11
89.16845396888002
 21
191.7097324849187
 31
0.0
  0
LINE
  5
1B9
330
42
100
AcDbEntity
  8
1
  6
PHANTOM
 62
     4
100
AcDbLine
 10
77.66845396887932
 20
214.4999999999999
 30
0.0
 11
77.66845396887932
 21
173.0000000000001
 31
0.0
  0
LINE
  5
1BA
330
42
100
AcDbEntity
  8
1
  6
Continuous
 62
     7
100
AcDbLine
 10
186.5165301802358
 20
201.0000000000002
 30
0.0
 11
216.4184539688793
 21
201.0000000000002
 31
0.0
  0
LINE
  5
1BB
330
42
100
AcDbEntity
  8
1
  6
Continuous
 62
     7
100
AcDbLine
 10
143.8304539688791
 20
198.5000000000001
 30
0.0
 11
143.8304539688791
 21
177.5000000000001
 31
0.0
  0
LINE
  5
1BC
330
42
100
AcDbEntity
  8
1
  6
Continuous
 62
     7
100
AcDbLine
 10
92.41845396887932
 20
201.0000000000002
 30
0.0
 11
92.41845396887932
 21
197.9067332602637
 31
0.0
  0
LINE
  5
1BD
330
42
100
AcDbEntity
  8
1
  6
Continuous
 62
     7
100
AcDbLine
 10
93.76653018023272
 20
194.7679491924311
 30
0.0
 11
92.82037775752602
 21
196.4067332602637
 31
0.0
  0
LINE
  5
1BE
330
42
100
AcDbEntity
  8
1
  6
Continuous
 62
     7
100
AcDbLine
 10
94.16845396887942
 20
193.2679491924313
 30
0.0
 11
94.16845396887942
 21
174.0000000000001
 31
0.0
  0
LINE
  5
1BF
330
42
100
AcDbEntity
  8
1
  6
Continuous
 62
     7
100
AcDbLine
 10
93.16845396887942
 20
173.0000000000001
 30
0.0
 11
94.16845396887942
 21
174.0000000000001
 31
0.0
  0
LINE
  5
1C0
330
42
100
AcDbEntity
  8
1
  6
Continuous
 62
     7
100
AcDbLine
 10
93.16845396887942
 20
173.0000000000001
 30
0.0
 11
79.41974266291501
 21
173.0
 31
0.0
  0
LINE
  5
1C1
330
42
100
AcDbEntity
  8
1
  6
Continuous
 62
     7
100
AcDbLine
 10
62.91845396887935
 20
201.0000000000002
 30
0.0
 11
66.16845396887935
 21
201.0000000000002
 31
0.0
  0
LINE
  5
1C2
330
42
100
AcDbEntity
  8
1
  6
Continuous
 62
     7
100
AcDbLine
 10
61.16845396887923
 20
174.0000000000001
 30
0.0
 11
61.16845396887923
 21
193.2679491924313
 31
0.0
  0
LINE
  5
1C3
330
42
100
AcDbEntity
  8
1
  6
Continuous
 62
     7
100
AcDbLine
 10
62.51653018023266
 20
196.4067332602637
 30
0.0
 11
61.57037775752598
 21
194.7679491924311
 31
0.0
  0
LINE
  5
1C4
330
42
100
AcDbEntity
  8
1
  6
Continuous
 62
     7
100
AcDbLine
 10
62.91845396887935
 20
197.9067332602637
 30
0.0
 11
62.91845396887935
 21
201.0000000000002
 31
0.0
  0
LINE
  5
1C5
330
42
100
AcDbEntity
  8
1
  6
Continuous
 62
     7
100
AcDbLine
 10
61.16845396887923
 20
174.0000000000001
 30
0.0
 11
62.16845396887958
 21
173.0000000000001
 31
0.0
  0
LINE
  5
1C6
330
42
100
AcDbEntity
  8
1
  6
Continuous
 62
     7
100
AcDbLine
 10
89.28345396887931
 20
201.0000000000002
 30
0.0
 11
92.41845396887932
 21
201.0000000000002
 31
0.0
  0
LINE
  5
1C7
330
42
100
AcDbEntity
  8
1
  6
PHANTOM
 62
     4
100
AcDbLine
 10
56.66845396887923
 20
188.0000000000001
 30
0.0
 11
88.91845396887932
 21
188.0000000000001
 31
0.0
  0
LINE
  5
1C8
330
42
100
AcDbEntity
  8
1
  6
PHANTOM
 62
     4
100
AcDbLine
 10
88.91845396887932
 20
188.0000000000001
 30
0.0
 11
98.66845396887942
 21
188.0000000000001
 31
0.0
  0
LINE
  5
1C9
330
42
100
AcDbEntity
  8
1
  6
Continuous
 62
     7
100
AcDbLine
 10
71.66845396887919
 20
190.4999999999999
 30
0.0
 11
83.66845396887942
 21
190.4999999999999
 31
0.0
  0
LINE
  5
1CA
330
42
100
AcDbEntity
  8
1
  6
Continuous
 62
     7
100
AcDbLine
 10
75.91716527484351
 20
173.0
 30
0.0
 11
62.16845396887958
 21
173.0000000000001
 31
0.0
  0
ARC
  5
1CB
330
42
100
AcDbEntity
  8
1
  6
PHANTOM
 62
     5
100
AcDbCircle
 10
207.4462689247558
 20
382.3856356716325
 30
0.0
 40
29.08001036972328
100
AcDbArc
 50
-53.64044301660417
 51
-44.53197846900857
  0
ARC
  5
1CC
330
42
100
AcDbEntity
  8
1
  6
PHANTOM
 62
     5
100
AcDbCircle
 10
263.4193366163178
 20
326.4125679800705
 30
0.0
 40
29.08001036972331
100
AcDbArc
 50
134.5319784690084
 51
143.6404430166042
  0
ARC
  5
1CD
330
42
100
AcDbEntity
  8
1
  6
PHANTOM
 62
     5
100
AcDbCircle
 10
159.4695946747214
 20
402.9377287268807
 30
0.0
 40
100.0000000000068
100
AcDbArc
 50
-50.4323687787395
 51
-36.35955698339555
  0
ARC
  5
1CE
330
42
100
AcDbEntity
  8
1
  6
PHANTOM
 62
     5
100
AcDbCircle
 10
283.9714296715661
 20
278.435893730036
 30
0.0
 40
100.0000000000069
100
AcDbArc
 50
126.3595569833956
 51
143.2009322638512
  0
ARC
  5
1CF
330
42
100
AcDbEntity
  8
1
  6
Continuous
 62
     7
100
AcDbCircle
 10
182.1684539688793
 20
173.4176834209435
 30
0.0
 40
2.999999999999964
100
AcDbArc
 50
12.60344218969706
 51
94.93347130137686
  0
ARC
  5
1D0
330
42
100
AcDbEntity
  8
1
  6
Continuous
 62
     7
100
AcDbCircle
 10
183.9184539688809
 20
202.4999999999976
 30
0.0
 40
2.999999999997414
100
AcDbArc
 50
-90.00000000003257
 51
-29.99999999994202
  0
ARC
  5
1D1
330
42
100
AcDbEntity
  8
1
  6
Continuous
 62
     7
100
AcDbCircle
 10
153.6684539688793
 20
201.9580684100419
 30
0.0
 40
3.000000000000196
100
AcDbArc
 50
-64.51386936147203
 51
0.0
  0
ARC
  5
1D2
330
42
100
AcDbEntity
  8
1
  6
Continuous
 62
     7
100
AcDbCircle
 10
173.3105613029139
 20
276.0360917964377
 30
0.0
 40
100.0000000000072
100
AcDbArc
 50
-96.74980723388293
 51
-85.06652869862589
  0
ARC
  5
1D3
330
42
100
AcDbEntity
  8
1
  6
Continuous
 62
     7
100
AcDbCircle
 10
153.6684539688793
 20
201.5
 30
0.0
 40
3.0
100
AcDbArc
 50
-90.00000000000381
 51
-89.75764725489641
  0
ARC
  5
1D4
330
42
100
AcDbEntity
  8
1
  6
Continuous
 62
     7
100
AcDbCircle
 10
201.6684539688793
 20
320.634753024194
 30
0.0
 40
14.74999999999998
100
AcDbArc
 50
-133.0033945268115
 51
-128.8104107554249
  0
ARC
  5
1D5
330
42
100
AcDbEntity
  8
1
  6
Continuous
 62
     7
100
AcDbCircle
 10
201.6684539688793
 20
320.634753024194
 30
0.0
 40
14.75000000000006
100
AcDbArc
 50
-128.173259967494
 51
0.0
  0
ARC
  5
1D6
330
42
100
AcDbEntity
  8
1
  6
Continuous
 62
     7
100
AcDbCircle
 10
201.6684539688793
 20
320.634753024194
 30
0.0
 40
14.75
100
AcDbArc
 50
0.0
 51
128.1732599674942
  0
ARC
  5
1D7
330
42
100
AcDbEntity
  8
1
  6
Continuous
 62
     7
100
AcDbCircle
 10
153.9184539688795
 20
360.2136887527111
 30
0.0
 40
29.08001036972335
100
AcDbArc
 50
-89.50742378891366
 51
-81.35955698339576
  0
ARC
  5
1D8
330
42
100
AcDbEntity
  8
1
  6
Continuous
 62
     7
100
AcDbCircle
 10
173.3105613029139
 20
232.5986612277565
 30
0.0
 40
100.0000000000068
100
AcDbArc
 50
81.79906773614879
 51
98.64044301660445
  0
ARC
  5
1D9
330
42
100
AcDbEntity
  8
1
  6
Continuous
 62
     7
100
AcDbCircle
 10
153.9184539688795
 20
281.0558172956769
 30
0.0
 40
29.08001036972323
100
AcDbArc
 50
81.35955698339576
 51
89.50742378891366
  0
ARC
  5
1DA
330
42
100
AcDbEntity
  8
1
  6
Continuous
 62
     7
100
AcDbCircle
 10
173.3105613029139
 20
408.6708448206315
 30
0.0
 40
100.0000000000069
100
AcDbArc
 50
-98.64044301660445
 51
-81.7990677361489
  0
ARC
  5
1DB
330
42
100
AcDbEntity
  8
1
  6
Continuous
 62
     7
100
AcDbCircle
 10
153.6684539688794
 20
334.1347530241939
 30
0.0
 40
3.0
100
AcDbArc
 50
-90.00000000000543
 51
-89.75764725489641
  0
ARC
  5
1DC
330
42
100
AcDbEntity
  8
1
  6
Continuous
 62
     7
100
AcDbCircle
 10
201.6684539688793
 20
320.634753024194
 30
0.0
 40
14.74999999999993
100
AcDbArc
 50
133.0033945268116
 51
-133.0033945268115
  0
ARC
  5
1DD
330
42
100
AcDbEntity
  8
1
  6
Continuous
 62
     7
100
AcDbCircle
 10
201.6684539688793
 20
320.634753024194
 30
0.0
 40
14.75000000000002
100
AcDbArc
 50
128.8104107554256
 51
133.0033945268116
  0
ARC
  5
1DE
330
42
100
AcDbEntity
  8
1
  6
Continuous
 62
     7
100
AcDbCircle
 10
201.6684539688793
 20
320.634753024194
 30
0.0
 40
16.50000000000002
100
AcDbArc
 50
-134.4906208521202
 51
0.0
  0
ARC
  5
1DF
330
42
100
AcDbEntity
  8
1
  6
Continuous
 62
     7
100
AcDbCircle
 10
201.6684539688793
 20
320.634753024194
 30
0.0
 40
16.5
100
AcDbArc
 50
0.0
 51
134.4906208521196
  0
ARC
  5
1E0
330
42
100
AcDbEntity
  8
2
  6
Continuous
 62
     7
100
AcDbCircle
 10
77.66845396887932
 20
188.0000000000001
 30
0.0
 40
12.08354729000043
100
AcDbArc
 50
162.1210549122246
 51
17.87894508776394
  0
ARC
  5
1E1
330
42
100
AcDbEntity
  8
2
  6
Continuous
 62
     7
100
AcDbCircle
 10
79.97303146887931
 20
186.3245130500001
 30
0.0
 40
13.87794050000036
100
AcDbArc
 50
-159.453849910002
 51
-131.1692141999995
  0
ARC
  5
1E2
330
42
100
AcDbEntity
  8
2
  6
Continuous
 62
     7
100
AcDbCircle
 10
82.98556615887931
 20
187.6750768300001
 30
0.0
 40
17.17409545999981
100
AcDbArc
 50
-169.209794750001
 51
-158.7620113999994
  0
ARC
  5
1E3
330
42
100
AcDbEntity
  8
2
  6
Continuous
 62
     7
100
AcDbCircle
 10
77.54731888887932
 20
183.8461588200001
 30
0.0
 40
10.57499237999969
100
AcDbArc
 50
-83.10160639069943
 51
-48.89668840999783
  0
ARC
  5
1E4
330
42
100
AcDbEntity
  8
2
  6
Continuous
 62
     7
100
AcDbCircle
 10
75.36387646887931
 20
186.3245130500001
 30
0.0
 40
13.87794049999967
100
AcDbArc
 50
-48.83078580000039
 51
-20.54615008999795
  0
ARC
  5
1E5
330
42
100
AcDbEntity
  8
2
  6
Continuous
 62
     7
100
AcDbCircle
 10
72.35134177887933
 20
187.6750768300001
 30
0.0
 40
17.17409545999969
100
AcDbArc
 50
-21.23798860000057
 51
-10.79020524999899
  0
ARC
  5
1E6
330
42
100
AcDbEntity
  8
1
  6
Continuous
 62
     7
100
AcDbCircle
 10
77.66845396887932
 20
188.0000000000001
 30
0.0
 40
6.50000000000003
100
AcDbArc
 50
157.3801350519619
 51
22.61986494803824
  0
ARC
  5
1E7
330
42
100
AcDbEntity
  8
1
  6
Continuous
 62
     7
100
AcDbCircle
 10
77.66845396887932
 20
188.0000000000001
 30
0.0
 40
6.500000000000004
100
AcDbArc
 50
22.61986494803824
 51
157.3801350519619
  0
ARC
  5
1E8
330
42
100
AcDbEntity
  8
2
  6
Continuous
 62
     7
100
AcDbCircle
 10
77.78958904887931
 20
183.8461588200001
 30
0.0
 40
10.57499237999972
100
AcDbArc
 50
-131.1033115900022
 51
-96.89839360930156
  0
CIRCLE
  5
1E9
330
42
100
AcDbEntity
  8
1
  6
Continuous
 62
     7
100
AcDbCircle
 10
168.1684539688793
 20
320.634753024194
 30
0.0
 40
11.5
  0
CIRCLE
  5
1EA
330
42
100
AcDbEntity
  8
1
  6
Continuous
 62
     7
100
AcDbCircle
 10
168.1684539688793
 20
320.634753024194
 30
0.0
 40
10.5
  0
CIRCLE
  5
1EB
330
42
100
AcDbEntity
  8
1
  6
Continuous
 62
     2
100
AcDbCircle
 10
77.66845396887932
 20
188.0000000000001
 30
0.0
 40
9.338000000000093
  0
CIRCLE
  5
1EC
330
42
100
AcDbEntity
  8
1
  6
Continuous
 62
     7
100
AcDbCircle
 10
77.66845396887932
 20
188.0000000000001
 30
0.0
 40
10.5
  0
CIRCLE
  5
1ED
330
42
100
AcDbEntity
  8
1
  6
Continuous
 62
     7
100
AcDbCircle
 10
77.66845396887932
 20
188.0000000000001
 30
0.0
 40
11.25
  0
ARC
  5
1EE
330
42
100
AcDbEntity
  8
1
  6
PHANTOM
 62
     5
100
AcDbCircle
 10
201.4950945587752
 20
340.1339824067856
 30
0.0
 40
2.999999999999951
100
AcDbArc
 50
-89.49062085212066
 51
-36.79906773614862
  0
ARC
  5
1EF
330
42
100
AcDbEntity
  8
1
  6
Continuous
 62
     7
100
AcDbCircle
 10
182.6684539688796
 20
202.5000000000002
 30
0.0
 40
3.0
100
AcDbArc
 50
-179.9999999999984
 51
-90.0
  0
ARC
  5
1F0
330
42
100
AcDbEntity
  8
1
  6
Continuous
 62
     7
100
AcDbCircle
 10
161.2045534963653
 20
173.7500000000001
 30
0.0
 40
2.999999999999986
100
AcDbArc
 50
83.25019276611766
 51
90.0
  0
ARC
  5
1F1
330
42
100
AcDbEntity
  8
1
  6
Continuous
 62
     7
100
AcDbCircle
 10
215.1684539688794
 20
193.2679491924313
 30
0.0
 40
3.0
100
AcDbArc
 50
0.0
 51
29.99999999999671
  0
ARC
  5
1F2
330
42
100
AcDbEntity
  8
1
  6
Continuous
 62
     7
100
AcDbCircle
 10
219.4184539688793
 20
197.9067332602637
 30
0.0
 40
3.0
100
AcDbArc
 50
180.0
 51
-150.0
  0
ARC
  5
1F3
330
42
100
AcDbEntity
  8
1
  6
Continuous
 62
     7
100
AcDbCircle
 10
188.0030002590039
 20
334.5453739630036
 30
0.0
 40
3.000000000000098
100
AcDbArc
 50
-98.20093226385092
 51
-45.50937914787961
  0
ARC
  5
1F4
330
42
100
AcDbEntity
  8
1
  6
Continuous
 62
     7
100
AcDbCircle
 10
188.0030002590036
 20
306.7241320853845
 30
0.0
 40
3.000000000000014
100
AcDbArc
 50
45.50937914787844
 51
98.20093226384962
  0
ARC
  5
1F5
330
42
100
AcDbEntity
  8
1
  6
Continuous
 62
     7
100
AcDbCircle
 10
95.41845396887932
 20
197.9067332602637
 30
0.0
 40
3.0
100
AcDbArc
 50
180.0
 51
-149.9999999999999
  0
ARC
  5
1F6
330
42
100
AcDbEntity
  8
1
  6
Continuous
 62
     7
100
AcDbCircle
 10
91.16845396887942
 20
193.2679491924313
 30
0.0
 40
3.0
100
AcDbArc
 50
0.0
 51
29.99999999999684
  0
ARC
  5
1F7
330
42
100
AcDbEntity
  8
1
  6
Continuous
 62
     7
100
AcDbCircle
 10
64.16845396887923
 20
193.2679491924313
 30
0.0
 40
2.999999999999845
100
AcDbArc
 50
150.0000000000027
 51
180.0
  0
ARC
  5
1F8
330
42
100
AcDbEntity
  8
1
  6
Continuous
 62
     7
100
AcDbCircle
 10
59.91845396887935
 20
197.9067332602637
 30
0.0
 40
2.999999999999994
100
AcDbArc
 50
-30.00000000000007
 51
0.0
  0
MTEXT
  5
1FA
330
42
100
AcDbEntity
  8
1
 62
     7
100
AcDbMText
 10
191.056004869264
 20
378.6751926027209
 30
0.0
 40
5.25
 41
0.0
 71
     5
 72
     1
  1
回転可能
  7
CONVERTER_1
 73
     1
 44
0.7202881152461
  0
DIMENSION
  5
208
330
42
100
AcDbEntity
  8
1
100
AcDbDimension
  2
*D010
 10
176.7980836512371
 20
380.6771383462873
 30
0.0
 11
174.1575200269874
 21
384.0378296247408
 31
0.0
 70
     5
  1
360^N0^O
 71
     5
 42
0.0
  3
ME10_DIM_0
100
AcDb3PointAngularDimension
 13
246.569734574225
 23
365.5360336295395
 33
0.0
 14
139.6684539688794
 24
320.634753024194
 34
0.0
 15
201.6684539688793
 25
320.634753024194
 35
0.0
  0
ENDBLK
  5
44
330
42
100
AcDbEntity
  8
0
100
AcDbBlockEnd
  0
BLOCK
  5
46
330
45
100
AcDbEntity
  8
0
100
AcDbBlockBegin
  2
_J__A4
 70
     0
 71
     0
 10
0.0
 20
0.0
 30
0.0
  3
_J__A4
  1

  0
POINT
  5
209
330
45
100
AcDbEntity
  8
1
 62
     4
100
AcDbPoint
 10
34.00000000000001
 20
34.00000000000001
 30
0.0
  0
POINT
  5
20A
330
45
100
AcDbEntity
  8
1
 62
     4
100
AcDbPoint
 10
57.0
 20
12.25
 30
0.0
  0
POINT
  5
20B
330
45
100
AcDbEntity
  8
1
 62
     4
100
AcDbPoint
 10
57.0
 20
20.75000000000001
 30
0.0
  0
POINT
  5
20C
330
45
100
AcDbEntity
  8
1
 62
     4
100
AcDbPoint
 10
57.0
 20
24.75000000000001
 30
0.0
  0
POINT
  5
20D
330
45
100
AcDbEntity
  8
1
 62
     4
100
AcDbPoint
 10
57.0
 20
16.25
 30
0.0
  0
POINT
  5
20E
330
45
100
AcDbEntity
  8
1
 62
     4
100
AcDbPoint
 10
157.5
 20
19.00000000000001
 30
0.0
  0
POINT
  5
20F
330
45
100
AcDbEntity
  8
1
 62
     4
100
AcDbPoint
 10
47.50000000000001
 20
282.0000000000003
 30
0.0
  0
POINT
  5
210
330
45
100
AcDbEntity
  8
1
 62
     4
100
AcDbPoint
 10
57.0
 20
22.75000000000001
 30
0.0
  0
POINT
  5
211
330
45
100
AcDbEntity
  8
1
 62
     4
100
AcDbPoint
 10
57.0
 20
14.25
 30
0.0
  0
POINT
  5
212
330
45
100
AcDbEntity
  8
1
 62
     4
100
AcDbPoint
 10
157.5
 20
12.5
 30
0.0
  0
POINT
  5
213
330
45
100
AcDbEntity
  8
1
 62
     4
100
AcDbPoint
 10
163.25
 20
12.5
 30
0.0
  0
POINT
  5
214
330
45
100
AcDbEntity
  8
1
 62
     4
100
AcDbPoint
 10
151.75
 20
12.5
 30
0.0
  0
POINT
  5
215
330
45
100
AcDbEntity
  8
1
 62
     4
100
AcDbPoint
 10
134.75
 20
12.5
 30
0.0
  0
POINT
  5
216
330
45
100
AcDbEntity
  8
1
 62
     4
100
AcDbPoint
 10
146.25
 20
12.5
 30
0.0
  0
POINT
  5
217
330
45
100
AcDbEntity
  8
1
 62
     4
100
AcDbPoint
 10
140.5
 20
12.5
 30
0.0
  0
POINT
  5
218
330
45
100
AcDbEntity
  8
1
 62
     4
100
AcDbPoint
 10
140.5
 20
19.00000000000001
 30
0.0
  0
POINT
  5
219
330
45
100
AcDbEntity
  8
1
 62
     4
100
AcDbPoint
 10
117.75
 20
12.5
 30
0.0
  0
POINT
  5
21A
330
45
100
AcDbEntity
  8
1
 62
     4
100
AcDbPoint
 10
129.25
 20
12.5
 30
0.0
  0
POINT
  5
21B
330
45
100
AcDbEntity
  8
1
 62
     4
100
AcDbPoint
 10
123.5
 20
12.5
 30
0.0
  0
POINT
  5
21C
330
45
100
AcDbEntity
  8
1
 62
     4
100
AcDbPoint
 10
123.5
 20
19.00000000000001
 30
0.0
  0
POINT
  5
21D
330
45
100
AcDbEntity
  8
1
 62
     4
100
AcDbPoint
 10
100.75
 20
12.5
 30
0.0
  0
POINT
  5
21E
330
45
100
AcDbEntity
  8
1
 62
     4
100
AcDbPoint
 10
112.25
 20
12.5
 30
0.0
  0
POINT
  5
21F
330
45
100
AcDbEntity
  8
1
 62
     4
100
AcDbPoint
 10
106.5
 20
12.5
 30
0.0
  0
POINT
  5
220
330
45
100
AcDbEntity
  8
1
 62
     4
100
AcDbPoint
 10
106.5
 20
19.00000000000001
 30
0.0
  0
POINT
  5
221
330
45
100
AcDbEntity
  8
1
 62
     4
100
AcDbPoint
 10
85.24999999999999
 20
17.0
 30
0.0
  0
POINT
  5
222
330
45
100
AcDbEntity
  8
1
 62
     4
100
AcDbPoint
 10
93.74999999999999
 20
17.0
 30
0.0
  0
LINE
  5
223
330
45
100
AcDbEntity
  8
1
  6
Continuous
 62
     2
100
AcDbLine
 10
81.0
 20
27.00000000000001
 30
0.0
 11
80.99999999999999
 21
10.0
 31
0.0
  0
LINE
  5
224
330
45
100
AcDbEntity
  8
1
  6
DOT_CENTER
 62
     2
100
AcDbLine
 10
187.0
 20
26.50000000000001
 30
0.0
 11
187.0
 21
20.50000000000001
 31
0.0
  0
LINE
  5
225
330
45
100
AcDbEntity
  8
1
  6
DOT_CENTER
 62
     2
100
AcDbLine
 10
184.0
 20
23.50000000000001
 30
0.0
 11
197.0
 21
23.50000000000001
 31
0.0
  0
LINE
  5
226
330
45
100
AcDbEntity
  8
1
  6
Continuous
 62
     7
100
AcDbLine
 10
196.0
 20
21.50000000000001
 30
0.0
 11
191.0
 21
22.30000000000001
 31
0.0
  0
LINE
  5
227
330
45
100
AcDbEntity
  8
1
  6
Continuous
 62
     7
100
AcDbLine
 10
196.0
 20
25.50000000000001
 30
0.0
 11
196.0
 21
21.50000000000001
 31
0.0
  0
LINE
  5
228
330
45
100
AcDbEntity
  8
1
  6
Continuous
 62
     7
100
AcDbLine
 10
191.0
 20
24.70000000000001
 30
0.0
 11
196.0
 21
25.50000000000001
 31
0.0
  0
LINE
  5
229
330
45
100
AcDbEntity
  8
1
  6
Continuous
 62
     7
100
AcDbLine
 10
191.0
 20
24.70000000000001
 30
0.0
 11
191.0
 21
22.30000000000001
 31
0.0
  0
LINE
  5
22A
330
45
100
AcDbEntity
  8
1
  6
Continuous
 62
     2
100
AcDbLine
 10
33.00000000000001
 20
27.0
 30
0.0
 11
33.00000000000001
 21
10.0
 31
0.0
  0
LINE
  5
22B
330
45
100
AcDbEntity
  8
1
  6
Continuous
 62
     2
100
AcDbLine
 10
25.0
 20
18.50000000000001
 30
0.0
 11
81.0
 21
18.50000000000001
 31
0.0
  0
LINE
  5
22C
330
45
100
AcDbEntity
  8
1
  6
Continuous
 62
     7
100
AcDbLine
 10
200.0
 20
287.0000000000003
 30
0.0
 11
105.0
 21
287.0000000000003
 31
0.0
  0
LINE
  5
22D
330
45
100
AcDbEntity
  8
1
  6
Continuous
 62
     7
100
AcDbLine
 10
200.0
 20
10.0
 30
0.0
 11
200.0
 21
148.5
 31
0.0
  0
LINE
  5
22E
330
45
100
AcDbEntity
  8
1
  6
Continuous
 62
     7
100
AcDbLine
 10
25.0
 20
10.0
 30
0.0
 11
105.0
 21
9.99999999999999
 31
0.0
  0
LINE
  5
22F
330
45
100
AcDbEntity
  8
1
  6
PHANTOM
 62
     4
100
AcDbLine
 10
0.0
 20
297.0
 30
0.0
 11
0.0
 21
0.0
 31
0.0
  0
LINE
  5
230
330
45
100
AcDbEntity
  8
1
  6
PHANTOM
 62
     4
100
AcDbLine
 10
210.0
 20
297.0
 30
0.0
 11
0.0
 21
297.0
 31
0.0
  0
LINE
  5
231
330
45
100
AcDbEntity
  8
1
  6
PHANTOM
 62
     4
100
AcDbLine
 10
210.0
 20
0.0
 30
0.0
 11
210.0
 21
297.0
 31
0.0
  0
LINE
  5
232
330
45
100
AcDbEntity
  8
1
  6
PHANTOM
 62
     4
100
AcDbLine
 10
0.0
 20
0.0
 30
0.0
 11
210.0
 21
0.0
 31
0.0
  0
LINE
  5
233
330
45
100
AcDbEntity
  8
1
  6
Continuous
 62
     7
100
AcDbLine
 10
25.0
 20
41.0
 30
0.0
 11
200.0
 21
41.0
 31
0.0
  0
LINE
  5
234
330
45
100
AcDbEntity
  8
1
  6
Continuous
 62
     7
100
AcDbLine
 10
200.0
 20
27.00000000000001
 30
0.0
 11
25.0
 21
27.00000000000001
 31
0.0
  0
LINE
  5
235
330
45
100
AcDbEntity
  8
1
  6
Continuous
 62
     2
100
AcDbLine
 10
33.00000000000001
 20
41.00000000000001
 30
0.0
 11
33.00000000000001
 21
27.0
 31
0.0
  0
LINE
  5
236
330
45
100
AcDbEntity
  8
1
  6
Continuous
 62
     2
100
AcDbLine
 10
55.0
 20
287.0000000000003
 30
0.0
 11
55.0
 21
277.0000000000003
 31
0.0
  0
LINE
  5
237
330
45
100
AcDbEntity
  8
1
  6
Continuous
 62
     2
100
AcDbLine
 10
40.0
 20
287.0000000000003
 30
0.0
 11
40.00000000000001
 21
277.0000000000003
 31
0.0
  0
LINE
  5
238
330
45
100
AcDbEntity
  8
1
  6
Continuous
 62
     7
100
AcDbLine
 10
25.0
 20
10.0
 30
0.0
 11
25.0
 21
148.5
 31
0.0
  0
LINE
  5
239
330
45
100
AcDbEntity
  8
1
  6
Continuous
 62
     2
100
AcDbLine
 10
55.0
 20
277.0000000000003
 30
0.0
 11
25.0
 21
277.0000000000003
 31
0.0
  0
LINE
  5
23A
330
45
100
AcDbEntity
  8
1
  6
Continuous
 62
     2
100
AcDbLine
 10
166.0
 20
27.00000000000001
 30
0.0
 11
166.0
 21
10.0
 31
0.0
  0
LINE
  5
23B
330
45
100
AcDbEntity
  8
1
  6
Continuous
 62
     2
100
AcDbLine
 10
132.0
 20
27.00000000000001
 30
0.0
 11
132.0
 21
9.99999999999999
 31
0.0
  0
LINE
  5
23C
330
45
100
AcDbEntity
  8
1
  6
Continuous
 62
     2
100
AcDbLine
 10
149.0
 20
27.00000000000001
 30
0.0
 11
149.0
 21
10.0
 31
0.0
  0
LINE
  5
23D
330
45
100
AcDbEntity
  8
1
  6
Continuous
 62
     2
100
AcDbLine
 10
115.0
 20
27.00000000000001
 30
0.0
 11
115.0
 21
9.99999999999999
 31
0.0
  0
LINE
  5
23E
330
45
100
AcDbEntity
  8
1
  6
Continuous
 62
     2
100
AcDbLine
 10
98.0
 20
27.00000000000001
 30
0.0
 11
97.99999999999999
 21
9.99999999999999
 31
0.0
  0
LINE
  5
23F
330
45
100
AcDbEntity
  8
1
  6
Continuous
 62
     2
100
AcDbLine
 10
166.0
 20
20.00000000000001
 30
0.0
 11
200.0
 21
20.00000000000001
 31
0.0
  0
LINE
  5
240
330
45
100
AcDbEntity
  8
1
  6
Continuous
 62
     2
100
AcDbLine
 10
105.0
 20
287.0000000000003
 30
0.0
 11
105.0
 21
292.0000000000003
 31
0.0
  0
LINE
  5
241
330
45
100
AcDbEntity
  8
1
  6
Continuous
 62
     7
100
AcDbLine
 10
105.0
 20
287.0000000000003
 30
0.0
 11
25.0
 21
287.0000000000003
 31
0.0
  0
LINE
  5
242
330
45
100
AcDbEntity
  8
1
  6
Continuous
 62
     2
100
AcDbLine
 10
25.0
 20
148.5
 30
0.0
 11
20.0
 21
148.5
 31
0.0
  0
LINE
  5
243
330
45
100
AcDbEntity
  8
1
  6
Continuous
 62
     7
100
AcDbLine
 10
25.0
 20
148.5
 30
0.0
 11
25.0
 21
287.0000000000003
 31
0.0
  0
LINE
  5
244
330
45
100
AcDbEntity
  8
1
  6
Continuous
 62
     2
100
AcDbLine
 10
200.0
 20
148.5
 30
0.0
 11
205.0
 21
148.5
 31
0.0
  0
LINE
  5
245
330
45
100
AcDbEntity
  8
1
  6
Continuous
 62
     7
100
AcDbLine
 10
200.0
 20
148.5
 30
0.0
 11
200.0
 21
287.0000000000003
 31
0.0
  0
LINE
  5
246
330
45
100
AcDbEntity
  8
1
  6
Continuous
 62
     2
100
AcDbLine
 10
105.0
 20
9.99999999999999
 30
0.0
 11
105.0
 21
5.0
 31
0.0
  0
LINE
  5
247
330
45
100
AcDbEntity
  8
1
  6
Continuous
 62
     7
100
AcDbLine
 10
105.0
 20
9.99999999999999
 30
0.0
 11
200.0
 21
10.0
 31
0.0
  0
CIRCLE
  5
248
330
45
100
AcDbEntity
  8
1
  6
DOT_CENTER
 62
     7
100
AcDbCircle
 10
89.49999999999999
 20
18.0
 30
0.0
 40
0.1000000000000227
  0
CIRCLE
  5
249
330
45
100
AcDbEntity
  8
1
  6
DOT_CENTER
 62
     7
100
AcDbCircle
 10
89.5
 20
16.0
 30
0.0
 40
0.1000000000000085
  0
CIRCLE
  5
24A
330
45
100
AcDbEntity
  8
1
  6
Continuous
 62
     7
100
AcDbCircle
 10
187.0
 20
23.50000000000001
 30
0.0
 40
2.0
  0
CIRCLE
  5
24B
330
45
100
AcDbEntity
  8
1
  6
Continuous
 62
     7
100
AcDbCircle
 10
187.0
 20
23.50000000000001
 30
0.0
 40
1.200000000000102
  0
CIRCLE
  5
24C
330
45
100
AcDbEntity
  8
1
  6
Continuous
 62
     7
100
AcDbCircle
 10
154.5
 20
12.5
 30
0.0
 40
0.3000000000000114
  0
CIRCLE
  5
24D
330
45
100
AcDbEntity
  8
1
  6
Continuous
 62
     7
100
AcDbCircle
 10
160.5
 20
12.5
 30
0.0
 40
0.3000000000000114
  0
CIRCLE
  5
24E
330
45
100
AcDbEntity
  8
1
  6
Continuous
 62
     7
100
AcDbCircle
 10
143.5
 20
12.5
 30
0.0
 40
0.3000000000000114
  0
CIRCLE
  5
24F
330
45
100
AcDbEntity
  8
1
  6
Continuous
 62
     7
100
AcDbCircle
 10
137.5
 20
12.5
 30
0.0
 40
0.3000000000000114
  0
CIRCLE
  5
250
330
45
100
AcDbEntity
  8
1
  6
Continuous
 62
     7
100
AcDbCircle
 10
126.5
 20
12.5
 30
0.0
 40
0.2999999999999972
  0
CIRCLE
  5
251
330
45
100
AcDbEntity
  8
1
  6
Continuous
 62
     7
100
AcDbCircle
 10
120.5
 20
12.5
 30
0.0
 40
0.2999999999999972
  0
CIRCLE
  5
252
330
45
100
AcDbEntity
  8
1
  6
Continuous
 62
     7
100
AcDbCircle
 10
109.5
 20
12.5
 30
0.0
 40
0.2999999999999972
  0
CIRCLE
  5
253
330
45
100
AcDbEntity
  8
1
  6
Continuous
 62
     7
100
AcDbCircle
 10
103.5
 20
12.5
 30
0.0
 40
0.2999999999999972
  0
MTEXT
  5
254
330
45
100
AcDbEntity
  8
1
 62
   250
100
AcDbMText
 10
25.0
 20
5.0
 30
0.0
 40
3.5
 41
0.0
 71
     4
 72
     1
  1
備考欄の文字列 原点位置=4
  7
CONVERTER_1
 73
     1
 44
0.7202881152461
  0
MTEXT
  5
255
330
45
100
AcDbEntity
  8
1
 62
     2
100
AcDbMText
 10
89.49999999999999
 20
24.00000000000001
 30
0.0
 40
3.5
 41
0.0
 71
     5
 72
     1
  1
尺度
  7
CONVERTER_1
 73
     1
 44
0.7202881152461
  0
MTEXT
  5
256
330
45
100
AcDbEntity
  8
1
 62
     2
100
AcDbMText
 10
135.5
 20
25.00000000000001
 30
0.0
 40
3.0
 41
0.0
 71
     5
 72
     1
  1
製図
  7
CONVERTER_1
 73
     1
 44
0.78031212484994
  0
MTEXT
  5
257
330
45
100
AcDbEntity
  8
1
 62
     2
100
AcDbMText
 10
152.5
 20
25.00000000000001
 30
0.0
 40
3.0
 41
0.0
 71
     5
 72
     1
  1
設計
  7
CONVERTER_1
 73
     1
 44
0.78031212484994
  0
MTEXT
  5
258
330
45
100
AcDbEntity
  8
1
 62
     2
100
AcDbMText
 10
118.5
 20
25.00000000000001
 30
0.0
 40
3.0
 41
0.0
 71
     5
 72
     1
  1
検図
  7
CONVERTER_1
 73
     1
 44
0.78031212484994
  0
MTEXT
  5
259
330
45
100
AcDbEntity
  8
1
 62
     2
100
AcDbMText
 10
175.0
 20
23.50000000000001
 30
0.0
 40
3.5
 41
0.0
 71
     5
 72
     1
  1
第三角法
  7
CONVERTER_1
 73
     1
 44
0.7202881152461
  0
MTEXT
  5
25A
330
45
100
AcDbEntity
  8
1
 62
     2
100
AcDbMText
 10
101.5
 20
25.00000000000001
 30
0.0
 40
3.0
 41
0.0
 71
     5
 72
     1
  1
承認
  7
CONVERTER_1
 73
     1
 44
0.78031212484994
  0
MTEXT
  5
25B
330
45
100
AcDbEntity
  8
1
 62
     2
100
AcDbMText
 10
29.00000000000001
 20
14.25
 30
0.0
 40
3.5
 41
0.0
 71
     5
 72
     1
  1
品番
  7
CONVERTER_1
 73
     1
 44
0.96038415366146
  0
MTEXT
  5
25C
330
45
100
AcDbEntity
  8
1
 62
     2
100
AcDbMText
 10
29.00000000000001
 20
22.75
 30
0.0
 40
3.5
 41
0.0
 71
     5
 72
     1
  1
品名
  7
CONVERTER_1
 73
     1
 44
0.96038415366146
  0
MTEXT
  5
25D
330
45
100
AcDbEntity
  8
1
 62
     2
100
AcDbMText
 10
29.00000000000001
 20
34.00000000000001
 30
0.0
 40
3.5
 41
0.0
 71
     5
 72
     1
  1
備考
  7
CONVERTER_1
 73
     1
 44
0.60024009603842
  0
MTEXT
  5
25E
330
45
100
AcDbEntity
  8
1
 62
     2
100
AcDbMText
 10
32.50000000000001
 20
282.0000000000003
 30
0.0
 40
5.0
 41
0.0
 71
     5
 72
     1
  1
図番
  7
CONVERTER_1
 73
     1
 44
0.60024009603842
  0
MTEXT
  5
25F
330
45
100
AcDbEntity
  8
1
 62
     7
100
AcDbMText
 10
171.5
 20
15.0
 30
0.0
 40
2.5
 41
0.0
 71
     5
 72
     1
  1
株式会社
  7
CONVERTER_1
 73
     1
 44
1.32052821128451
  0
MTEXT
  5
260
330
45
100
AcDbEntity
  8
1
 62
     7
100
AcDbMText
 10
188.5
 20
15.0
 30
0.0
 40
3.0
 41
0.0
 71
     5
 72
     1
  1
三栄水栓製作所
  7
CONVERTER_1
 73
     1
 44
1.32052821128451
  0
ENDBLK
  5
47
330
45
100
AcDbEntity
  8
0
100
AcDbBlockEnd
  0
BLOCK
  5
49
330
48
100
AcDbEntity
  8
0
100
AcDbBlockBegin
  2
71-12-15-C2
 70
     0
 71
     0
 10
290.0
 20
-33.0
 30
0.0
  3
71-12-15-C2
  1

  0
LINE
  5
261
330
48
100
AcDbEntity
  8
1
  6
Continuous
 62
     7
100
AcDbLine
 10
191.7453078147568
 20
310.9640325767451
 30
0.0
 11
193.5235237685689
 21
314.0439929555773
 31
0.0
  0
LINE
  5
262
330
48
100
AcDbEntity
  8
1
  6
Continuous
 62
     7
100
AcDbLine
 10
206.9072039688795
 20
329.7085341923453
 30
0.0
 11
207.262870828571
 21
330.3245672638994
 31
0.0
  0
LINE
  5
263
330
48
100
AcDbEntity
  8
1
  6
Continuous
 62
     7
100
AcDbLine
 10
196.4297039688794
 20
329.7085341923455
 30
0.0
 11
196.074037109188
 21
330.3245672638994
 31
0.0
  0
LINE
  5
264
330
48
100
AcDbEntity
  8
1
  6
Continuous
 62
     7
100
AcDbLine
 10
212.1459539688793
 20
320.634753024194
 30
0.0
 11
212.8572876882623
 21
320.634753024194
 31
0.0
  0
LINE
  5
265
330
48
100
AcDbEntity
  8
1
  6
Continuous
 62
     7
100
AcDbLine
 10
209.8133841691901
 20
314.0439929555778
 30
0.0
 11
211.5916001230027
 21
310.9640325767451
 31
0.0
  0
LINE
  5
266
330
48
100
AcDbEntity
  8
1
  6
Continuous
 62
     7
100
AcDbLine
 10
191.1909539688793
 20
320.634753024194
 30
0.0
 11
190.4796202494964
 21
320.634753024194
 31
0.0
  0
LINE
  5
267
330
48
100
AcDbEntity
  8
1
  6
Continuous
 62
     7
100
AcDbLine
 10
209.1684539688793
 20
201.0000000000002
 30
0.0
 11
209.1684539688793
 21
202.5000000000002
 31
0.0
  0
LINE
  5
268
330
48
100
AcDbEntity
  8
1
  6
Continuous
 62
     7
100
AcDbLine
 10
216.1684539688794
 20
201.0000000000002
 30
0.0
 11
209.1684539688793
 21
201.0000000000002
 31
0.0
  0
LINE
  5
269
330
48
100
AcDbEntity
  8
1
  6
Continuous
 62
     7
100
AcDbLine
 10
216.1684539688794
 20
202.5000000000002
 30
0.0
 11
216.1684539688794
 21
201.0000000000002
 31
0.0
  0
LINE
  5
26A
330
48
100
AcDbEntity
  8
1
  6
Continuous
 62
     7
100
AcDbLine
 10
209.1684539688793
 20
202.5000000000002
 30
0.0
 11
216.1684539688794
 21
202.5000000000002
 31
0.0
  0
LINE
  5
26B
330
48
100
AcDbEntity
  8
1
  6
Continuous
 62
     7
100
AcDbLine
 10
187.1684539688793
 20
201.0000000000002
 30
0.0
 11
187.1684539688793
 21
202.5000000000002
 31
0.0
  0
LINE
  5
26C
330
48
100
AcDbEntity
  8
1
  6
Continuous
 62
     7
100
AcDbLine
 10
194.1684539688793
 20
201.0000000000002
 30
0.0
 11
187.1684539688793
 21
201.0000000000002
 31
0.0
  0
LINE
  5
26D
330
48
100
AcDbEntity
  8
1
  6
Continuous
 62
     7
100
AcDbLine
 10
194.1684539688793
 20
202.5000000000002
 30
0.0
 11
194.1684539688793
 21
201.0000000000002
 31
0.0
  0
LINE
  5
26E
330
48
100
AcDbEntity
  8
1
  6
Continuous
 62
     7
100
AcDbLine
 10
187.1684539688793
 20
202.5000000000002
 30
0.0
 11
194.1684539688793
 21
202.5000000000002
 31
0.0
  0
ARC
  5
26F
330
48
100
AcDbEntity
  8
1
  6
Continuous
 62
     7
100
AcDbCircle
 10
201.6684539688795
 20
320.634753024194
 30
0.0
 40
14.50000000000003
100
AcDbArc
 50
-42.291951080849
 51
0.0
  0
ARC
  5
270
330
48
100
AcDbEntity
  8
1
  6
Continuous
 62
     7
100
AcDbCircle
 10
201.6684539688795
 20
320.634753024194
 30
0.0
 40
11.69999999999998
100
AcDbArc
 50
122.5586976876638
 51
150.0000000000005
  0
ARC
  5
271
330
48
100
AcDbEntity
  8
1
  6
Continuous
 62
     7
100
AcDbCircle
 10
201.6684539688795
 20
320.634753024194
 30
0.0
 40
14.5
100
AcDbArc
 50
0.0
 51
150.0000000000001
  0
ARC
  5
272
330
48
100
AcDbEntity
  8
1
  6
Continuous
 62
     7
100
AcDbCircle
 10
201.6684539688795
 20
320.634753024194
 30
0.0
 40
11.69999999999989
100
AcDbArc
 50
2.55869768766227
 51
57.4413023123363
  0
ARC
  5
273
330
48
100
AcDbEntity
  8
1
  6
Continuous
 62
     7
100
AcDbCircle
 10
201.6684539688795
 20
320.634753024194
 30
0.0
 40
11.6999999999999
100
AcDbArc
 50
150.0000000000005
 51
177.4413023123378
  0
ARC
  5
274
330
48
100
AcDbEntity
  8
1
  6
Continuous
 62
     7
100
AcDbCircle
 10
201.6684539688795
 20
320.634753024194
 30
0.0
 40
14.50000000000003
100
AcDbArc
 50
150.0000000000001
 51
-137.7080489191507
  0
ARC
  5
275
330
48
100
AcDbEntity
  8
1
  6
Continuous
 62
     7
100
AcDbCircle
 10
212.0246128248947
 20
311.2140325767451
 30
0.0
 40
0.4999999999997949
100
AcDbArc
 50
-149.9999999999864
 51
-42.29195108084601
  0
ARC
  5
276
330
48
100
AcDbEntity
  8
1
  6
Continuous
 62
     7
100
AcDbCircle
 10
212.8572876882623
 20
321.134753024194
 30
0.0
 40
0.5
100
AcDbArc
 50
-90.0
 51
2.55869768764522
  0
ARC
  5
277
330
48
100
AcDbEntity
  8
1
  6
Continuous
 62
     7
100
AcDbCircle
 10
207.6958835304631
 20
330.0745672638994
 30
0.0
 40
0.5000000000001447
100
AcDbArc
 50
57.44130231232411
 51
149.999999999993
  0
ARC
  5
278
330
48
100
AcDbEntity
  8
1
  6
Continuous
 62
     7
100
AcDbCircle
 10
195.641024407296
 20
330.0745672638994
 30
0.0
 40
0.4999999999998195
100
AcDbArc
 50
30.00000000001194
 51
122.5586976876869
  0
ARC
  5
279
330
48
100
AcDbEntity
  8
1
  6
Continuous
 62
     7
100
AcDbCircle
 10
190.4796202494964
 20
321.134753024194
 30
0.0
 40
0.5000000000000174
100
AcDbArc
 50
177.4413023123548
 51
-90.0
  0
ARC
  5
27A
330
48
100
AcDbEntity
  8
1
  6
Continuous
 62
     7
100
AcDbCircle
 10
191.3122951128643
 20
311.2140325767451
 30
0.0
 40
0.499999999999981
100
AcDbArc
 50
-137.7080489191444
 51
-29.99999999998263
  0
ENDBLK
  5
4A
330
48
100
AcDbEntity
  8
0
100
AcDbBlockEnd
  0
BLOCK
  5
4C
330
4B
100
AcDbEntity
  8
0
100
AcDbBlockBegin
  2
34-98AK
 70
     0
 71
     0
 10
178.1684539688793
 20
196.9999999999999
 30
0.0
  3
34-98AK
  1

  0
LINE
  5
27B
330
4B
100
AcDbEntity
  8
1
  6
Continuous
 62
     7
100
AcDbLine
 10
161.1684539688793
 20
213.9999999999999
 30
0.0
 11
175.1684539688793
 21
213.9999999999999
 31
0.0
  0
LINE
  5
27C
330
4B
100
AcDbEntity
  8
1
  6
Continuous
 62
     7
100
AcDbLine
 10
178.1684539688793
 20
210.9999999999999
 30
0.0
 11
178.1684539688793
 21
209.9999999999999
 31
0.0
  0
LINE
  5
27D
330
4B
100
AcDbEntity
  8
1
  6
Continuous
 62
     7
100
AcDbLine
 10
159.2770482535508
 20
321.384753024194
 30
0.0
 11
163.225023985558
 21
321.384753024194
 31
0.0
  0
LINE
  5
27E
330
4B
100
AcDbEntity
  8
1
  6
Continuous
 62
     7
100
AcDbLine
 10
177.0598596842077
 20
319.884753024194
 30
0.0
 11
173.1118839522005
 21
319.884753024194
 31
0.0
  0
LINE
  5
27F
330
4B
100
AcDbEntity
  8
1
  6
Continuous
 62
     7
100
AcDbLine
 10
163.225023985558
 20
319.884753024194
 30
0.0
 11
159.2770482535508
 21
319.884753024194
 31
0.0
  0
LINE
  5
280
330
4B
100
AcDbEntity
  8
1
  6
Continuous
 62
     7
100
AcDbLine
 10
173.1118839522005
 20
321.384753024194
 30
0.0
 11
177.0598596842077
 21
321.384753024194
 31
0.0
  0
LINE
  5
281
330
4B
100
AcDbEntity
  8
1
  6
DOT_CENTER
 62
     2
100
AcDbLine
 10
155.1684539688793
 20
320.634753024194
 30
0.0
 11
181.1684539688793
 21
320.634753024194
 31
0.0
  0
LINE
  5
282
330
4B
100
AcDbEntity
  8
1
  6
DOT_CENTER
 62
     2
100
AcDbLine
 10
168.1684539688793
 20
307.634753024194
 30
0.0
 11
168.1684539688793
 21
333.634753024194
 31
0.0
  0
LINE
  5
283
330
4B
100
AcDbEntity
  8
1
  6
Continuous
 62
     7
100
AcDbLine
 10
158.1684539688793
 20
209.9999999999999
 30
0.0
 11
158.1684539688793
 21
210.9999999999999
 31
0.0
  0
LINE
  5
284
330
4B
100
AcDbEntity
  8
1
  6
Continuous
 62
     7
100
AcDbLine
 10
158.1684539688793
 20
209.9999999999999
 30
0.0
 11
178.1684539688793
 21
209.9999999999999
 31
0.0
  0
LINE
  5
285
330
4B
100
AcDbEntity
  8
1
  6
Continuous
 62
     7
100
AcDbLine
 10
67.66845396887935
 20
209.9999999999999
 30
0.0
 11
87.66845396887932
 21
209.9999999999999
 31
0.0
  0
LINE
  5
286
330
4B
100
AcDbEntity
  8
1
  6
Continuous
 62
     7
100
AcDbLine
 10
67.66845396887935
 20
209.9999999999999
 30
0.0
 11
67.66845396887935
 21
210.9999999999999
 31
0.0
  0
LINE
  5
287
330
4B
100
AcDbEntity
  8
1
  6
Continuous
 62
     7
100
AcDbLine
 10
87.66845396887932
 20
210.9999999999999
 30
0.0
 11
87.66845396887932
 21
209.9999999999999
 31
0.0
  0
LINE
  5
288
330
4B
100
AcDbEntity
  8
1
  6
Continuous
 62
     7
100
AcDbLine
 10
70.66845396887935
 20
213.9999999999999
 30
0.0
 11
84.66845396887932
 21
213.9999999999999
 31
0.0
  0
ARC
  5
289
330
4B
100
AcDbEntity
  8
1
  6
Continuous
 62
     7
100
AcDbCircle
 10
168.1684539688793
 20
320.634753024194
 30
0.0
 40
8.922981317618826
100
AcDbArc
 50
-4.82154930734075
 51
4.82154930734075
  0
ARC
  5
28A
330
4B
100
AcDbEntity
  8
1
  6
Continuous
 62
     7
100
AcDbCircle
 10
168.1684539688793
 20
320.634753024194
 30
0.0
 40
8.922981317618939
100
AcDbArc
 50
175.1784506926593
 51
-175.1784506926593
  0
CIRCLE
  5
28B
330
4B
100
AcDbEntity
  8
1
  6
Continuous
 62
     7
100
AcDbCircle
 10
168.1684539688793
 20
320.634753024194
 30
0.0
 40
10.0
  0
CIRCLE
  5
28C
330
4B
100
AcDbEntity
  8
1
  6
Continuous
 62
     7
100
AcDbCircle
 10
168.1684539688793
 20
320.634753024194
 30
0.0
 40
4.0
  0
CIRCLE
  5
28D
330
4B
100
AcDbEntity
  8
1
  6
Continuous
 62
     7
100
AcDbCircle
 10
168.1684539688793
 20
320.634753024194
 30
0.0
 40
5.0
  0
ARC
  5
28E
330
4B
100
AcDbEntity
  8
1
  6
Continuous
 62
     7
100
AcDbCircle
 10
161.1684539688793
 20
210.9999999999999
 30
0.0
 40
2.999999999999826
100
AcDbArc
 50
129.8659625900249
 51
180.0
  0
ARC
  5
28F
330
4B
100
AcDbEntity
  8
1
  6
Continuous
 62
     7
100
AcDbCircle
 10
175.1684539688793
 20
210.9999999999999
 30
0.0
 40
3.000000000000027
100
AcDbArc
 50
50.13403740997052
 51
90.0
  0
ARC
  5
290
330
4B
100
AcDbEntity
  8
1
  6
Continuous
 62
     7
100
AcDbCircle
 10
161.1684539688793
 20
210.9999999999999
 30
0.0
 40
3.0
100
AcDbArc
 50
90.0
 51
129.8659625900249
  0
ARC
  5
291
330
4B
100
AcDbEntity
  8
1
  6
Continuous
 62
     7
100
AcDbCircle
 10
175.1684539688793
 20
210.9999999999999
 30
0.0
 40
3.0
100
AcDbArc
 50
0.0
 51
50.13403740997052
  0
ARC
  5
292
330
4B
100
AcDbEntity
  8
1
  6
Continuous
 62
     7
100
AcDbCircle
 10
84.66845396887932
 20
210.9999999999999
 30
0.0
 40
3.0
100
AcDbArc
 50
0.0
 51
50.13403740997072
  0
ARC
  5
293
330
4B
100
AcDbEntity
  8
1
  6
Continuous
 62
     7
100
AcDbCircle
 10
70.66845396887935
 20
210.9999999999999
 30
0.0
 40
3.0
100
AcDbArc
 50
90.0
 51
129.8659625900249
  0
ARC
  5
294
330
4B
100
AcDbEntity
  8
1
  6
Continuous
 62
     7
100
AcDbCircle
 10
84.66845396887932
 20
210.9999999999999
 30
0.0
 40
3.000000000000018
100
AcDbArc
 50
50.13403740997072
 51
90.0
  0
ARC
  5
295
330
4B
100
AcDbEntity
  8
1
  6
Continuous
 62
     7
100
AcDbCircle
 10
70.66845396887935
 20
210.9999999999999
 30
0.0
 40
2.999999999999826
100
AcDbArc
 50
129.8659625900249
 51
180.0
  0
ENDBLK
  5
4D
330
4B
100
AcDbEntity
  8
0
100
AcDbBlockEnd
  0
BLOCK
  5
4F
330
4E
100
AcDbEntity
  8
0
100
AcDbBlockBegin
  2
36-140AK
 70
     0
 71
     0
 10
348.1507056618814
 20
37.83724604966125
 30
0.0
  3
36-140AK
  1

  0
LINE
  5
296
330
4E
100
AcDbEntity
  8
1
  6
PHANTOM
 62
     4
100
AcDbLine
 10
168.1684539688793
 20
311.634753024194
 30
0.0
 11
168.1684539688793
 21
329.634753024194
 31
0.0
  0
LINE
  5
297
330
4E
100
AcDbEntity
  8
1
  6
PHANTOM
 62
     4
100
AcDbLine
 10
159.1684539688793
 20
320.634753024194
 30
0.0
 11
177.1684539688793
 21
320.634753024194
 31
0.0
  0
LINE
  5
298
330
4E
100
AcDbEntity
  8
1
  6
Continuous
 62
     7
100
AcDbLine
 10
171.9309223551643
 20
319.884753024194
 30
0.0
 11
164.4059855825943
 21
319.884753024194
 31
0.0
  0
LINE
  5
299
330
4E
100
AcDbEntity
  8
1
  6
Continuous
 62
     7
100
AcDbLine
 10
164.4059855825943
 20
321.384753024194
 30
0.0
 11
171.9309223551643
 21
321.384753024194
 31
0.0
  0
ARC
  5
29A
330
4E
100
AcDbEntity
  8
1
  6
Continuous
 62
     7
100
AcDbCircle
 10
168.1684539688793
 20
320.634753024194
 30
0.0
 40
3.836491673103711
100
AcDbArc
 50
168.7265859457701
 51
-168.7265859457701
  0
ARC
  5
29B
330
4E
100
AcDbEntity
  8
1
  6
Continuous
 62
     7
100
AcDbCircle
 10
168.1684539688793
 20
320.634753024194
 30
0.0
 40
3.836491673103711
100
AcDbArc
 50
-11.27341405422991
 51
11.27341405422991
  0
CIRCLE
  5
29C
330
4E
100
AcDbEntity
  8
1
  6
Continuous
 62
     7
100
AcDbCircle
 10
168.1684539688793
 20
320.634753024194
 30
0.0
 40
3.900000000000006
  0
ENDBLK
  5
50
330
4E
100
AcDbEntity
  8
0
100
AcDbBlockEnd
  0
BLOCK
  5
54
330
51
100
AcDbEntity
  8
0
100
AcDbBlockBegin
  2
34-98AX
 70
     0
 71
     0
 10
-77.11482961298856
 20
-282.4968122032109
 30
0.0
  3
34-98AX
  1

  0
INSERT
  5
52
330
51
100
AcDbEntity
  8
1
100
AcDbBlockReference
  2
34-98AK
 10
178.1684539688793
 20
196.9999999999999
 30
0.0
  0
INSERT
  5
53
330
51
100
AcDbEntity
  8
1
100
AcDbBlockReference
  2
36-140AK
 10
348.1507056618814
 20
37.83724604966125
 30
0.0
  0
LINE
  5
29D
330
51
100
AcDbEntity
  8
1
  6
PHANTOM
 62
     4
100
AcDbLine
 10
168.1684539688793
 20
186.4999999999999
 30
0.0
 11
168.1684539688793
 21
213.9999999999999
 31
0.0
  0
ENDBLK
  5
55
330
51
100
AcDbEntity
  8
0
100
AcDbBlockEnd
  0
BLOCK
  5
205
330
1FB
100
AcDbEntity
  8
0
100
AcDbBlockBegin
  2
*D010
 70
     1
 71
     0
 10
0.0
 20
0.0
 30
0.0
  3
*D010
  1

  0
LINE
  5
1FC
330
1FB
100
AcDbEntity
  8
1
  6
Continuous
 62
     2
100
AcDbLine
 10
247.6229061737712
 20
366.5892052290857
 30
0.0
 11
248.6835663455511
 21
367.6498654008656
 31
0.0
  0
LINE
  5
1FD
330
1FB
100
AcDbEntity
  8
1
  6
Continuous
 62
     2
100
AcDbLine
 10
136.6790444092951
 20
320.634753024194
 30
0.0
 11
135.1790444092951
 21
320.634753024194
 31
0.0
  0
LINE
  5
1FE
330
1FB
100
AcDbEntity
  8
1
  6
Continuous
 62
     2
100
AcDbLine
 10
246.569734574225
 20
365.5360336295395
 30
0.0
 11
247.6229061737712
 21
366.5892052290857
 31
0.0
  0
LINE
  5
1FF
330
1FB
100
AcDbEntity
  8
1
  6
Continuous
 62
     2
100
AcDbLine
 10
139.6684539688794
 20
320.634753024194
 30
0.0
 11
136.6790444092951
 21
320.634753024194
 31
0.0
  0
ARC
  5
200
330
1FB
100
AcDbEntity
  8
1
  6
Continuous
 62
     2
100
AcDbCircle
 10
201.6684539688793
 20
320.634753024194
 30
0.0
 40
64.9894095595842
100
AcDbArc
 50
44.99999999999986
 51
180.0
  0
SOLID
  5
201
330
1FB
100
AcDbEntity
  8
1
 62
     2
100
AcDbTrace
 10
243.2951183636332
 20
369.6405125550537
 30
0.0
 11
244.2323206056812
 21
370.6566556876094
 31
0.0
 12
247.6229061737712
 22
366.5892052290857
 32
0.0
 13
247.6229061737712
 23
366.5892052290857
 33
0.0
  0
SOLID
  5
202
330
1FB
100
AcDbEntity
  8
1
 62
     2
100
AcDbTrace
 10
136.2004286553224
 20
325.9083808729462
 30
0.0
 11
137.5816524157041
 21
325.8525612339552
 31
0.0
 12
136.6790444092951
 22
320.634753024194
 32
0.0
 13
136.6790444092951
 23
320.634753024194
 33
0.0
  0
MTEXT
  5
204
330
1FB
100
AcDbEntity
  8
1
 62
     7
100
AcDbMText
 10
167.737348935792
 20
378.3906237306921
 30
0.0
 40
5.25
 41
0.0
 71
     7
 72
     1
  1
360{\Fgdt;~}
  7
CONVERTER_2
 11
0.9238795325112874
 21
0.3826834323650887
 31
0.0
 73
     1
 44
0.60024009603842
  0
ENDBLK
  5
206
330
1FB
100
AcDbEntity
  8
0
100
AcDbBlockEnd
  0
BLOCK
  5
2C2
330
2BB
100
AcDbEntity
  8
0
100
AcDbBlockBegin
  2
*D111
 70
     1
 71
     0
 10
0.0
 20
0.0
 30
0.0
  3
*D111
  1

  0
LINE
  5
2BC
330
2BB
100
AcDbEntity
  8
1
  6
Continuous
 62
     2
100
AcDbLine
 10
60.66845396887929
 20
101.6999999999996
 30
0.0
 11
94.66845396887932
 21
101.6999999999996
 31
0.0
  0
LINE
  5
2BD
330
2BB
100
AcDbEntity
  8
1
  6
Continuous
 62
     2
100
AcDbLine
 10
60.66845396887929
 20
170.5989612986097
 30
0.0
 11
60.66845396887929
 21
100.1999999999996
 31
0.0
  0
LINE
  5
2BE
330
2BB
100
AcDbEntity
  8
1
  6
Continuous
 62
     2
100
AcDbLine
 10
94.66845396887932
 20
170.5989612986097
 30
0.0
 11
94.66845396887932
 21
100.1999999999996
 31
0.0
  0
SOLID
  5
2BF
330
2BB
100
AcDbEntity
  8
1
 62
     2
100
AcDbTrace
 10
65.91845396887929
 20
102.3911756123334
 30
0.0
 11
65.91845396887929
 21
101.0088243876658
 31
0.0
 12
60.66845396887929
 22
101.6999999999996
 32
0.0
 13
60.66845396887929
 23
101.6999999999996
 33
0.0
  0
SOLID
  5
2C0
330
2BB
100
AcDbEntity
  8
1
 62
     2
100
AcDbTrace
 10
89.41845396887932
 20
101.0088243876658
 30
0.0
 11
89.41845396887932
 21
102.3911756123334
 31
0.0
 12
94.66845396887932
 22
101.6999999999996
 32
0.0
 13
94.66845396887932
 23
101.6999999999996
 33
0.0
  0
MTEXT
  5
2C1
330
2BB
100
AcDbEntity
  8
1
 62
     7
100
AcDbMText
 10
68.27095396890462
 20
103.1999791287706
 30
0.0
 40
5.25
 41
0.0
 71
     7
 72
     1
  1
\C7;{\Fgdt;n}\C7;34
  7
CONVERTER_2
 11
0.9999999999970621
 21
2.424068405545307E-6
 31
0.0
 73
     1
 44
0.60024009603842
  0
ENDBLK
  5
2C3
330
2BB
100
AcDbEntity
  8
0
100
AcDbBlockEnd
  0
BLOCK
  5
2CD
330
2C6
100
AcDbEntity
  8
0
100
AcDbBlockBegin
  2
*D212
 70
     1
 71
     0
 10
0.0
 20
0.0
 30
0.0
  3
*D212
  1

  0
LINE
  5
2C7
330
2C6
100
AcDbEntity
  8
1
  6
Continuous
 62
     2
100
AcDbLine
 10
64.66845396887933
 20
113.6999999999996
 30
0.0
 11
90.66845396887942
 21
113.6999999999996
 31
0.0
  0
LINE
  5
2C8
330
2C6
100
AcDbEntity
  8
1
  6
Continuous
 62
     2
100
AcDbLine
 10
64.66845396887933
 20
128.6999999999996
 30
0.0
 11
64.66845396887933
 21
112.1999999999996
 31
0.0
  0
LINE
  5
2C9
330
2C6
100
AcDbEntity
  8
1
  6
Continuous
 62
     2
100
AcDbLine
 10
90.66845396887942
 20
128.6999999999996
 30
0.0
 11
90.66845396887942
 21
112.1999999999996
 31
0.0
  0
SOLID
  5
2CA
330
2C6
100
AcDbEntity
  8
1
 62
     2
100
AcDbTrace
 10
69.91845396887933
 20
114.3911756123334
 30
0.0
 11
69.91845396887933
 21
113.0088243876658
 31
0.0
 12
64.66845396887933
 22
113.6999999999996
 32
0.0
 13
64.66845396887933
 23
113.6999999999996
 33
0.0
  0
SOLID
  5
2CB
330
2C6
100
AcDbEntity
  8
1
 62
     2
100
AcDbTrace
 10
85.41845396887942
 20
113.0088243876658
 30
0.0
 11
85.41845396887942
 21
114.3911756123334
 31
0.0
 12
90.66845396887942
 22
113.6999999999996
 32
0.0
 13
90.66845396887942
 23
113.6999999999996
 33
0.0
  0
MTEXT
  5
2CC
330
2C6
100
AcDbEntity
  8
1
 62
     7
100
AcDbMText
 10
73.73095396887932
 20
115.1999999999996
 30
0.0
 40
5.25
 41
0.0
 71
     7
 72
     1
  1
26
  7
CONVERTER_2
 11
0.9999999999970621
 21
2.424068405545307E-6
 31
0.0
 73
     1
 44
0.60024009603842
  0
ENDBLK
  5
2CE
330
2C6
100
AcDbEntity
  8
0
100
AcDbBlockEnd
  0
BLOCK
  5
2D8
330
2D1
100
AcDbEntity
  8
0
100
AcDbBlockBegin
  2
*D313
 70
     1
 71
     0
 10
0.0
 20
0.0
 30
0.0
  3
*D313
  1

  0
LINE
  5
2D2
330
2D1
100
AcDbEntity
  8
1
  6
Continuous
 62
     2
100
AcDbLine
 10
161.4184539688794
 20
113.6999999999996
 30
0.0
 11
201.6684539688794
 21
113.6999999999996
 31
0.0
  0
LINE
  5
2D3
330
2D1
100
AcDbEntity
  8
1
  6
Continuous
 62
     2
100
AcDbLine
 10
161.4184539688794
 20
155.2500000000003
 30
0.0
 11
161.4184539688794
 21
112.1999999999996
 31
0.0
  0
LINE
  5
2D4
330
2D1
100
AcDbEntity
  8
1
  6
Continuous
 62
     2
100
AcDbLine
 10
201.6684539688794
 20
124.9999999999996
 30
0.0
 11
201.6684539688794
 21
112.1999999999996
 31
0.0
  0
SOLID
  5
2D5
330
2D1
100
AcDbEntity
  8
1
 62
     2
100
AcDbTrace
 10
166.6684539688794
 20
114.3911756123334
 30
0.0
 11
166.6684539688794
 21
113.0088243876658
 31
0.0
 12
161.4184539688794
 22
113.6999999999996
 32
0.0
 13
161.4184539688794
 23
113.6999999999996
 33
0.0
  0
SOLID
  5
2D6
330
2D1
100
AcDbEntity
  8
1
 62
     2
100
AcDbTrace
 10
196.4184539688794
 20
113.0088243876658
 30
0.0
 11
196.4184539688794
 21
114.3911756123334
 31
0.0
 12
201.6684539688794
 22
113.6999999999996
 32
0.0
 13
201.6684539688794
 23
113.6999999999996
 33
0.0
  0
MTEXT
  5
2D7
330
2D1
100
AcDbEntity
  8
1
 62
     7
100
AcDbMText
 10
168.1559539688794
 20
115.1999999999996
 30
0.0
 40
5.25
 41
0.0
 71
     7
 72
     1
  1
41リフト5
  7
CONVERTER_1
 11
0.9999999999970621
 21
2.424068405545307E-6
 31
0.0
 73
     1
 44
0.60024009603842
  0
ENDBLK
  5
2D9
330
2D1
100
AcDbEntity
  8
0
100
AcDbBlockEnd
  0
BLOCK
  5
2E3
330
2DC
100
AcDbEntity
  8
0
100
AcDbBlockBegin
  2
*D414
 70
     1
 71
     0
 10
0.0
 20
0.0
 30
0.0
  3
*D414
  1

  0
LINE
  5
2DD
330
2DC
100
AcDbEntity
  8
1
  6
Continuous
 62
     2
100
AcDbLine
 10
201.6684539688794
 20
243.2000000000002
 30
0.0
 11
223.1684539688794
 21
243.2000000000002
 31
0.0
  0
LINE
  5
2DE
330
2DC
100
AcDbEntity
  8
1
  6
Continuous
 62
     2
100
AcDbLine
 10
201.6684539688794
 20
219.7000000000002
 30
0.0
 11
201.6684539688794
 21
244.7000000000002
 31
0.0
  0
LINE
  5
2DF
330
2DC
100
AcDbEntity
  8
1
  6
Continuous
 62
     2
100
AcDbLine
 10
223.1684539688794
 20
164.7000000000003
 30
0.0
 11
223.1684539688794
 21
244.7000000000002
 31
0.0
  0
SOLID
  5
2E0
330
2DC
100
AcDbEntity
  8
1
 62
     2
100
AcDbTrace
 10
206.9184539688794
 20
243.891175612334
 30
0.0
 11
206.9184539688794
 21
242.5088243876664
 31
0.0
 12
201.6684539688794
 22
243.2000000000002
 32
0.0
 13
201.6684539688794
 23
243.2000000000002
 33
0.0
  0
SOLID
  5
2E1
330
2DC
100
AcDbEntity
  8
1
 62
     2
100
AcDbTrace
 10
217.9184539688794
 20
242.5088243876664
 30
0.0
 11
217.9184539688794
 21
243.891175612334
 31
0.0
 12
223.1684539688794
 22
243.2000000000002
 32
0.0
 13
223.1684539688794
 23
243.2000000000002
 33
0.0
  0
MTEXT
  5
2E2
330
2DC
100
AcDbEntity
  8
1
 62
     7
100
AcDbMText
 10
208.4809539688794
 20
244.7000000000002
 30
0.0
 40
5.25
 41
0.0
 71
     7
 72
     1
  1
22
  7
CONVERTER_2
 11
0.9999999999970621
 21
2.424068405545307E-6
 31
0.0
 73
     1
 44
0.60024009603842
  0
ENDBLK
  5
2E4
330
2DC
100
AcDbEntity
  8
0
100
AcDbBlockEnd
  0
BLOCK
  5
2EE
330
2E7
100
AcDbEntity
  8
0
100
AcDbBlockBegin
  2
*D515
 70
     1
 71
     0
 10
0.0
 20
0.0
 30
0.0
  3
*D515
  1

  0
LINE
  5
2E8
330
2E7
100
AcDbEntity
  8
1
  6
Continuous
 62
     2
100
AcDbLine
 10
142.6684539688793
 20
243.2000000000002
 30
0.0
 11
201.6684539688794
 21
243.2000000000002
 31
0.0
  0
LINE
  5
2E9
330
2E7
100
AcDbEntity
  8
1
  6
Continuous
 62
     2
100
AcDbLine
 10
142.6684539688793
 20
197.3380000000001
 30
0.0
 11
142.6684539688793
 21
244.7000000000002
 31
0.0
  0
LINE
  5
2EA
330
2E7
100
AcDbEntity
  8
1
  6
Continuous
 62
     2
100
AcDbLine
 10
201.6684539688794
 20
219.7000000000002
 30
0.0
 11
201.6684539688794
 21
244.7000000000002
 31
0.0
  0
SOLID
  5
2EB
330
2E7
100
AcDbEntity
  8
1
 62
     2
100
AcDbTrace
 10
147.9184539688793
 20
243.891175612334
 30
0.0
 11
147.9184539688793
 21
242.5088243876664
 31
0.0
 12
142.6684539688793
 22
243.2000000000002
 32
0.0
 13
142.6684539688793
 23
243.2000000000002
 33
0.0
  0
SOLID
  5
2EC
330
2E7
100
AcDbEntity
  8
1
 62
     2
100
AcDbTrace
 10
196.4184539688794
 20
242.5088243876664
 30
0.0
 11
196.4184539688794
 21
243.891175612334
 31
0.0
 12
201.6684539688794
 22
243.2000000000002
 32
0.0
 13
201.6684539688794
 23
243.2000000000002
 33
0.0
  0
MTEXT
  5
2ED
330
2E7
100
AcDbEntity
  8
1
 62
     7
100
AcDbMText
 10
168.2309539688793
 20
244.7000000000002
 30
0.0
 40
5.25
 41
0.0
 71
     7
 72
     1
  1
59
  7
CONVERTER_2
 11
0.9999999999970621
 21
2.424068405545307E-6
 31
0.0
 73
     1
 44
0.60024009603842
  0
ENDBLK
  5
2EF
330
2E7
100
AcDbEntity
  8
0
100
AcDbBlockEnd
  0
BLOCK
  5
2F9
330
2F2
100
AcDbEntity
  8
0
100
AcDbBlockBegin
  2
*D616
 70
     1
 71
     0
 10
0.0
 20
0.0
 30
0.0
  3
*D616
  1

  0
LINE
  5
2F3
330
2F2
100
AcDbEntity
  8
1
  6
Continuous
 62
     2
100
AcDbLine
 10
142.6684539688794
 20
276.6347530241939
 30
0.0
 11
223.1684539688794
 21
276.6347530241939
 31
0.0
  0
LINE
  5
2F4
330
2F2
100
AcDbEntity
  8
1
  6
Continuous
 62
     2
100
AcDbLine
 10
142.6684539688794
 20
311.2967530241939
 30
0.0
 11
142.6684539688794
 21
275.1347530241939
 31
0.0
  0
LINE
  5
2F5
330
2F2
100
AcDbEntity
  8
1
  6
Continuous
 62
     2
100
AcDbLine
 10
223.1684539688794
 20
314.934753024194
 30
0.0
 11
223.1684539688794
 21
275.1347530241939
 31
0.0
  0
SOLID
  5
2F6
330
2F2
100
AcDbEntity
  8
1
 62
     2
100
AcDbTrace
 10
147.9184539688794
 20
277.3259286365278
 30
0.0
 11
147.9184539688794
 21
275.9435774118601
 31
0.0
 12
142.6684539688794
 22
276.6347530241939
 32
0.0
 13
142.6684539688794
 23
276.6347530241939
 33
0.0
  0
SOLID
  5
2F7
330
2F2
100
AcDbEntity
  8
1
 62
     2
100
AcDbTrace
 10
217.9184539688794
 20
275.9435774118601
 30
0.0
 11
217.9184539688794
 21
277.3259286365278
 31
0.0
 12
223.1684539688794
 22
276.6347530241939
 32
0.0
 13
223.1684539688794
 23
276.6347530241939
 33
0.0
  0
MTEXT
  5
2F8
330
2F2
100
AcDbEntity
  8
1
 62
     7
100
AcDbMText
 10
179.7684539688794
 20
278.1347530241939
 30
0.0
 40
5.25
 41
0.0
 71
     7
 72
     1
  1
81
  7
CONVERTER_2
 11
0.9999999999970621
 21
2.424068405545307E-6
 31
0.0
 73
     1
 44
0.60024009603842
  0
ENDBLK
  5
2FA
330
2F2
100
AcDbEntity
  8
0
100
AcDbBlockEnd
  0
BLOCK
  5
304
330
2FD
100
AcDbEntity
  8
0
100
AcDbBlockBegin
  2
*D717
 70
     1
 71
     0
 10
0.0
 20
0.0
 30
0.0
  3
*D717
  1

  0
LINE
  5
2FE
330
2FD
100
AcDbEntity
  8
1
  6
Continuous
 62
     2
100
AcDbLine
 10
250.1684539688794
 20
159.0
 30
0.0
 11
250.1684539688794
 21
216.2000000000002
 31
0.0
  0
LINE
  5
2FF
330
2FD
100
AcDbEntity
  8
1
  6
Continuous
 62
     2
100
AcDbLine
 10
226.1684539688795
 20
159.0
 30
0.0
 11
251.6684539688794
 21
159.0
 31
0.0
  0
LINE
  5
300
330
2FD
100
AcDbEntity
  8
1
  6
Continuous
 62
     2
100
AcDbLine
 10
210.9839539688794
 20
216.2000000000002
 30
0.0
 11
251.6684539688794
 21
216.2000000000002
 31
0.0
  0
SOLID
  5
301
330
2FD
100
AcDbEntity
  8
1
 62
     2
100
AcDbTrace
 10
249.4772783565456
 20
164.25
 30
0.0
 11
250.8596295812132
 21
164.25
 31
0.0
 12
250.1684539688794
 22
159.0
 32
0.0
 13
250.1684539688794
 23
159.0
 33
0.0
  0
SOLID
  5
302
330
2FD
100
AcDbEntity
  8
1
 62
     2
100
AcDbTrace
 10
250.8596295812132
 20
210.9500000000002
 30
0.0
 11
249.4772783565456
 21
210.9500000000002
 31
0.0
 12
250.1684539688794
 22
216.2000000000002
 32
0.0
 13
250.1684539688794
 23
216.2000000000002
 33
0.0
  0
MTEXT
  5
303
330
2FD
100
AcDbEntity
  8
1
 62
     7
100
AcDbMText
 10
248.6684539688794
 20
183.6625000000001
 30
0.0
 40
5.25
 41
0.0
 71
     7
 72
     1
  1
57
  7
CONVERTER_2
 11
0.0
 21
1.0
 31
0.0
 73
     1
 44
0.60024009603842
  0
ENDBLK
  5
305
330
2FD
100
AcDbEntity
  8
0
100
AcDbBlockEnd
  0
BLOCK
  5
30F
330
308
100
AcDbEntity
  8
0
100
AcDbBlockBegin
  2
*D818
 70
     1
 71
     0
 10
0.0
 20
0.0
 30
0.0
  3
*D818
  1

  0
LINE
  5
309
330
308
100
AcDbEntity
  8
1
  6
Continuous
 62
     2
100
AcDbLine
 10
250.1684539688794
 20
128.6999999999996
 30
0.0
 11
250.1684539688794
 21
159.0
 31
0.0
  0
LINE
  5
30A
330
308
100
AcDbEntity
  8
1
  6
Continuous
 62
     2
100
AcDbLine
 10
214.4184539688794
 20
128.6999999999996
 30
0.0
 11
251.6684539688794
 21
128.6999999999996
 31
0.0
  0
LINE
  5
30B
330
308
100
AcDbEntity
  8
1
  6
Continuous
 62
     2
100
AcDbLine
 10
226.1684539688795
 20
159.0
 30
0.0
 11
251.6684539688794
 21
159.0
 31
0.0
  0
SOLID
  5
30C
330
308
100
AcDbEntity
  8
1
 62
     2
100
AcDbTrace
 10
249.4772783565456
 20
133.9499999999996
 30
0.0
 11
250.8596295812132
 21
133.9499999999996
 31
0.0
 12
250.1684539688794
 22
128.6999999999996
 32
0.0
 13
250.1684539688794
 23
128.6999999999996
 33
0.0
  0
SOLID
  5
30D
330
308
100
AcDbEntity
  8
1
 62
     2
100
AcDbTrace
 10
250.8596295812132
 20
153.75
 30
0.0
 11
249.4772783565456
 21
153.75
 31
0.0
 12
250.1684539688794
 22
159.0
 32
0.0
 13
250.1684539688794
 23
159.0
 33
0.0
  0
MTEXT
  5
30E
330
308
100
AcDbEntity
  8
1
 62
     7
100
AcDbMText
 10
248.6684539688794
 20
139.9124999999998
 30
0.0
 40
5.25
 41
0.0
 71
     7
 72
     1
  1
30
  7
CONVERTER_2
 11
0.0
 21
1.0
 31
0.0
 73
     1
 44
0.60024009603842
  0
ENDBLK
  5
310
330
308
100
AcDbEntity
  8
0
100
AcDbBlockEnd
  0
BLOCK
  5
31A
330
313
100
AcDbEntity
  8
0
100
AcDbBlockBegin
  2
*D919
 70
     1
 71
     0
 10
0.0
 20
0.0
 30
0.0
  3
*D919
  1

  0
LINE
  5
314
330
313
100
AcDbEntity
  8
1
  6
Continuous
 62
     2
100
AcDbLine
 10
262.1684539688794
 20
128.6999999999996
 30
0.0
 11
262.1684539688794
 21
216.2000000000002
 31
0.0
  0
LINE
  5
315
330
313
100
AcDbEntity
  8
1
  6
Continuous
 62
     2
100
AcDbLine
 10
214.4184539688795
 20
128.6999999999996
 30
0.0
 11
263.6684539688794
 21
128.6999999999996
 31
0.0
  0
LINE
  5
316
330
313
100
AcDbEntity
  8
1
  6
Continuous
 62
     2
100
AcDbLine
 10
210.9839539688795
 20
216.2000000000002
 30
0.0
 11
263.6684539688794
 21
216.2000000000002
 31
0.0
  0
SOLID
  5
317
330
313
100
AcDbEntity
  8
1
 62
     2
100
AcDbTrace
 10
261.4772783565456
 20
133.9499999999996
 30
0.0
 11
262.8596295812133
 21
133.9499999999996
 31
0.0
 12
262.1684539688794
 22
128.6999999999996
 32
0.0
 13
262.1684539688794
 23
128.6999999999996
 33
0.0
  0
SOLID
  5
318
330
313
100
AcDbEntity
  8
1
 62
     2
100
AcDbTrace
 10
262.8596295812133
 20
210.9500000000002
 30
0.0
 11
261.4772783565456
 21
210.9500000000002
 31
0.0
 12
262.1684539688794
 22
216.2000000000002
 32
0.0
 13
262.1684539688794
 23
216.2000000000002
 33
0.0
  0
MTEXT
  5
319
330
313
100
AcDbEntity
  8
1
 62
     7
100
AcDbMText
 10
260.6684539688794
 20
168.5124999999999
 30
0.0
 40
5.25
 41
0.0
 71
     7
 72
     1
  1
87
  7
CONVERTER_2
 11
0.0
 21
1.0
 31
0.0
 73
     1
 44
0.60024009603842
  0
ENDBLK
  5
31B
330
313
100
AcDbEntity
  8
0
100
AcDbBlockEnd
  0
BLOCK
  5
325
330
31E
100
AcDbEntity
  8
0
100
AcDbBlockBegin
  2
*D1020
 70
     1
 71
     0
 10
0.0
 20
0.0
 30
0.0
  3
*D1020
  1

  0
LINE
  5
31F
330
31E
100
AcDbEntity
  8
1
  6
Continuous
 62
     2
100
AcDbLine
 10
142.6684539688794
 20
288.6347530241939
 30
0.0
 11
168.1684539688793
 21
288.6347530241939
 31
0.0
  0
LINE
  5
320
330
31E
100
AcDbEntity
  8
1
  6
Continuous
 62
     2
100
AcDbLine
 10
142.6684539688794
 20
311.2967530241939
 30
0.0
 11
142.6684539688794
 21
287.1347530241939
 31
0.0
  0
LINE
  5
321
330
31E
100
AcDbEntity
  8
1
  6
Continuous
 62
     2
100
AcDbLine
 10
168.1684539688793
 20
304.634753024194
 30
0.0
 11
168.1684539688793
 21
287.1347530241939
 31
0.0
  0
SOLID
  5
322
330
31E
100
AcDbEntity
  8
1
 62
     2
100
AcDbTrace
 10
147.9184539688794
 20
289.3259286365278
 30
0.0
 11
147.9184539688794
 21
287.9435774118601
 31
0.0
 12
142.6684539688794
 22
288.6347530241939
 32
0.0
 13
142.6684539688794
 23
288.6347530241939
 33
0.0
  0
SOLID
  5
323
330
31E
100
AcDbEntity
  8
1
 62
     2
100
AcDbTrace
 10
162.9184539688793
 20
287.9435774118601
 30
0.0
 11
162.9184539688793
 21
289.3259286365278
 31
0.0
 12
168.1684539688793
 22
288.6347530241939
 32
0.0
 13
168.1684539688793
 23
288.6347530241939
 33
0.0
  0
MTEXT
  5
324
330
31E
100
AcDbEntity
  8
1
 62
     7
100
AcDbMText
 10
151.427208991922
 20
290.1347530241939
 30
0.0
 40
5.25
 41
0.0
 71
     7
 72
     1
  1
26
  7
CONVERTER_2
 11
0.9999999999970621
 21
2.424068405545307E-6
 31
0.0
 73
     1
 44
0.60024009603842
  0
ENDBLK
  5
326
330
31E
100
AcDbEntity
  8
0
100
AcDbBlockEnd
  0
BLOCK
  5
330
330
329
100
AcDbEntity
  8
0
100
AcDbBlockBegin
  2
*D1121
 70
     1
 71
     0
 10
0.0
 20
0.0
 30
0.0
  3
*D1121
  1

  0
LINE
  5
32A
330
329
100
AcDbEntity
  8
1
  6
Continuous
 62
     2
100
AcDbLine
 10
168.1684539688793
 20
288.6347530241939
 30
0.0
 11
201.6684539688793
 21
288.6347530241939
 31
0.0
  0
LINE
  5
32B
330
329
100
AcDbEntity
  8
1
  6
Continuous
 62
     2
100
AcDbLine
 10
168.1684539688793
 20
304.634753024194
 30
0.0
 11
168.1684539688793
 21
287.1347530241939
 31
0.0
  0
LINE
  5
32C
330
329
100
AcDbEntity
  8
1
  6
Continuous
 62
     2
100
AcDbLine
 10
201.6684539688793
 20
299.1347530241939
 30
0.0
 11
201.6684539688793
 21
287.1347530241939
 31
0.0
  0
SOLID
  5
32D
330
329
100
AcDbEntity
  8
1
 62
     2
100
AcDbTrace
 10
173.4184539688793
 20
289.3259286365278
 30
0.0
 11
173.4184539688793
 21
287.9435774118601
 31
0.0
 12
168.1684539688793
 22
288.6347530241939
 32
0.0
 13
168.1684539688793
 23
288.6347530241939
 33
0.0
  0
SOLID
  5
32E
330
329
100
AcDbEntity
  8
1
 62
     2
100
AcDbTrace
 10
196.4184539688793
 20
287.9435774118601
 30
0.0
 11
196.4184539688793
 21
289.3259286365278
 31
0.0
 12
201.6684539688793
 22
288.6347530241939
 32
0.0
 13
201.6684539688793
 23
288.6347530241939
 33
0.0
  0
MTEXT
  5
32F
330
329
100
AcDbEntity
  8
1
 62
     7
100
AcDbMText
 10
183.004930628014
 20
290.1347530241939
 30
0.0
 40
5.25
 41
0.0
 71
     7
 72
     1
  1
34
  7
CONVERTER_2
 11
0.9999999999970621
 21
2.424068405545307E-6
 31
0.0
 73
     1
 44
0.60024009603842
  0
ENDBLK
  5
331
330
329
100
AcDbEntity
  8
0
100
AcDbBlockEnd
  0
BLOCK
  5
33B
330
334
100
AcDbEntity
  8
0
100
AcDbBlockBegin
  2
*D1222
 70
     1
 71
     0
 10
0.0
 20
0.0
 30
0.0
  3
*D1222
  1

  0
LINE
  5
335
330
334
100
AcDbEntity
  8
1
  6
Continuous
 62
     2
100
AcDbLine
 10
61.16845396887923
 20
231.2000000000002
 30
0.0
 11
94.16845396887942
 21
231.2000000000002
 31
0.0
  0
LINE
  5
336
330
334
100
AcDbEntity
  8
1
  6
Continuous
 62
     2
100
AcDbLine
 10
61.16845396887923
 20
193.2679491924313
 30
0.0
 11
61.16845396887923
 21
232.7000000000002
 31
0.0
  0
LINE
  5
337
330
334
100
AcDbEntity
  8
1
  6
Continuous
 62
     2
100
AcDbLine
 10
94.16845396887942
 20
193.2679491924313
 30
0.0
 11
94.16845396887942
 21
232.7000000000002
 31
0.0
  0
SOLID
  5
338
330
334
100
AcDbEntity
  8
1
 62
     2
100
AcDbTrace
 10
66.41845396887923
 20
231.891175612334
 30
0.0
 11
66.41845396887923
 21
230.5088243876664
 31
0.0
 12
61.16845396887923
 22
231.2000000000002
 32
0.0
 13
61.16845396887923
 23
231.2000000000002
 33
0.0
  0
SOLID
  5
339
330
334
100
AcDbEntity
  8
1
 62
     2
100
AcDbTrace
 10
88.91845396887942
 20
230.5088243876664
 30
0.0
 11
88.91845396887942
 21
231.891175612334
 31
0.0
 12
94.16845396887942
 22
231.2000000000002
 32
0.0
 13
94.16845396887942
 23
231.2000000000002
 33
0.0
  0
MTEXT
  5
33A
330
334
100
AcDbEntity
  8
1
 62
     7
100
AcDbMText
 10
68.27095396890462
 20
232.6999791287712
 30
0.0
 40
5.25
 41
0.0
 71
     7
 72
     1
  1
\C7;{\Fgdt;n}\C7;33
  7
CONVERTER_2
 11
0.9999999999970621
 21
2.424068405545307E-6
 31
0.0
 73
     1
 44
0.60024009603842
  0
ENDBLK
  5
33C
330
334
100
AcDbEntity
  8
0
100
AcDbBlockEnd
  0
ENDSEC
  0
SECTION
  2
ENTITIES
  0
INSERT
  5
56
330
1F
100
AcDbEntity
  8
0
100
AcDbBlockReference
  2
37-1-13
 10
320.0237322319395
 20
-195.313467695038
 30
0.0
  0
INSERT
  5
57
330
1F
100
AcDbEntity
  8
1
100
AcDbBlockReference
  2
36-45
 10
-205.55389162204
 20
1066.784875924049
 30
0.0
  0
INSERT
  5
58
330
1F
100
AcDbEntity
  8
1
100
AcDbBlockReference
  2
B2110-0-M11
 10
943.9184539688795
 20
-28.75
 30
0.0
  0
INSERT
  5
59
330
1F
100
AcDbEntity
  8
1
100
AcDbBlockReference
  2
06-96-M11
 10
971.757863506159
 20
-622.7500000000001
 30
0.0
  0
INSERT
  5
5A
330
1F
100
AcDbEntity
  8
1
100
AcDbBlockReference
  2
_J__A4
 10
0.0
 20
0.0
 30
0.0
 41
1.5
 42
1.5
 43
1.5
  0
INSERT
  5
5B
330
1F
100
AcDbEntity
  8
1
100
AcDbBlockReference
  2
71-12-15-C2
 10
290.0
 20
-33.0
 30
0.0
  0
INSERT
  5
5C
330
1F
100
AcDbEntity
  8
1
100
AcDbBlockReference
  2
34-98AX
 10
-77.11482961298856
 20
-282.4968122032109
 30
0.0
  0
LINE
  5
29E
330
1F
100
AcDbEntity
  8
1
  6
DASH_CENTER
 62
     2
100
AcDbLine
 10
201.6684539688793
 20
219.2000000000002
 30
0.0
 11
201.6684539688793
 21
124.9999999999996
 31
0.0
  0
LINE
  5
29F
330
1F
100
AcDbEntity
  8
1
  6
DASH_CENTER
 62
     2
100
AcDbLine
 10
168.1684539688793
 20
216.9999999999999
 30
0.0
 11
168.1684539688793
 21
173.1683856439146
 31
0.0
  0
LINE
  5
2A0
330
1F
100
AcDbEntity
  8
1
  6
DASH_CENTER
 62
     2
100
AcDbLine
 10
139.6684539688794
 20
188.0000000000001
 30
0.0
 11
221.1684539688794
 21
188.0000000000001
 31
0.0
  0
LINE
  5
2A1
330
1F
100
AcDbEntity
  8
1
  6
DASH_CENTER
 62
     2
100
AcDbLine
 10
158.4184539688794
 20
159.0
 30
0.0
 11
225.3554539688795
 21
159.0
 31
0.0
  0
LINE
  5
2A2
330
1F
100
AcDbEntity
  8
1
  6
DASH_CENTER
 62
     2
100
AcDbLine
 10
138.1684539688794
 20
320.634753024194
 30
0.0
 11
227.6684539688796
 21
320.634753024194
 31
0.0
  0
LINE
  5
2A3
330
1F
100
AcDbEntity
  8
1
  6
DASH_CENTER
 62
     2
100
AcDbLine
 10
201.6684539688793
 20
342.134753024194
 30
0.0
 11
201.6684539688793
 21
299.1347530241939
 31
0.0
  0
LINE
  5
2A4
330
1F
100
AcDbEntity
  8
1
  6
DASH_CENTER
 62
     2
100
AcDbLine
 10
168.1684539688793
 20
336.9663673802793
 30
0.0
 11
168.1684539688793
 21
304.634753024194
 31
0.0
  0
LINE
  5
2A5
330
1F
100
AcDbEntity
  8
1
  6
DASH_CENTER
 62
     2
100
AcDbLine
 10
77.66845396887932
 20
220.7000000000002
 30
0.0
 11
77.66845396887932
 21
124.1999999999996
 31
0.0
  0
LINE
  5
2A6
330
1F
100
AcDbEntity
  8
1
  6
DASH_CENTER
 62
     2
100
AcDbLine
 10
60.16845396887929
 20
159.0
 30
0.0
 11
95.16845396887932
 21
159.0
 31
0.0
  0
LINE
  5
2A7
330
1F
100
AcDbEntity
  8
1
  6
DASH_CENTER
 62
     2
100
AcDbLine
 10
62.66845396887932
 20
188.0000000000001
 30
0.0
 11
92.66845396887932
 21
188.0000000000001
 31
0.0
  0
LINE
  5
2A8
330
1F
100
AcDbEntity
  8
1
  6
DASH_CENTER
 62
     2
100
AcDbLine
 10
210.5072887337112
 20
329.4735877890258
 30
0.0
 11
246.5697345742251
 21
365.5360336295395
 31
0.0
  0
SOLID
  5
2A9
330
1F
100
AcDbEntity
  8
1
 62
     2
100
AcDbTrace
 10
226.3920296076367
 20
151.9489544362986
 30
0.0
 11
225.194878330122
 21
151.2577788239648
 31
0.0
 12
223.1684539688794
 22
156.15
 32
0.0
 13
223.1684539688794
 23
156.15
 33
0.0
  0
LEADER
  5
2AA
330
1F
100
AcDbEntity
  8
1
  6
Continuous
 62
     2
100
AcDbLeader
  3
Standard
 71
     0
 76
     3
 10
223.1684539688794
 20
156.15
 30
0.0
 10
247.6769728959793
 20
113.6999999999996
 30
0.0
 10
279.6843587866652
 20
113.6999999999996
 30
0.0
  0
SOLID
  5
2AB
330
1F
100
AcDbEntity
  8
1
 62
     2
100
AcDbTrace
 10
214.1723783301219
 20
215.0922211760354
 30
0.0
 11
215.3695296076367
 21
214.4010455637016
 31
0.0
 12
212.1459539688793
 22
210.2000000000002
 32
0.0
 13
212.1459539688793
 23
210.2000000000002
 33
0.0
  0
LEADER
  5
2AC
330
1F
100
AcDbEntity
  8
1
  6
Continuous
 62
     2
100
AcDbLeader
  3
Standard
 71
     0
 76
     3
 10
212.1459539688793
 20
210.2000000000002
 30
0.0
 10
224.2703096218613
 20
231.2000000000002
 30
0.0
 10
242.810323369799
 20
231.2000000000002
 30
0.0
  0
SOLID
  5
2AD
330
1F
100
AcDbEntity
  8
1
 62
     2
100
AcDbTrace
 10
144.5258783301217
 20
202.7010455637015
 30
0.0
 11
145.7230296076365
 21
203.3922211760354
 31
0.0
 12
147.7494539688791
 22
198.5000000000001
 32
0.0
 13
147.7494539688791
 23
198.5000000000001
 33
0.0
  0
LEADER
  5
2AE
330
1F
100
AcDbEntity
  8
1
  6
Continuous
 62
     2
100
AcDbLeader
  3
Standard
 71
     0
 76
     3
 10
147.7494539688791
 20
198.5000000000001
 30
0.0
 10
139.0891999310346
 20
213.5000000000001
 30
0.0
 10
120.267513050475
 20
213.5000000000005
 30
0.0
  0
SOLID
  5
2AF
330
1F
100
AcDbEntity
  8
1
 62
     2
100
AcDbTrace
 10
212.3975831071019
 20
124.4989544362982
 30
0.0
 11
211.2004318295872
 21
123.8077788239644
 31
0.0
 12
209.1740074683445
 22
128.6999999999996
 32
0.0
 13
209.1740074683445
 23
128.6999999999996
 33
0.0
  0
LEADER
  5
2B0
330
1F
100
AcDbEntity
  8
1
  6
Continuous
 62
     2
100
AcDbLeader
  3
Standard
 71
     0
 76
     3
 10
209.1740074683445
 20
128.6999999999996
 30
0.0
 10
224.7624647364644
 20
101.6999999999996
 30
0.0
 10
248.0424069815126
 20
101.6999999999996
 30
0.0
  0
MTEXT
  5
2B1
330
1F
100
AcDbEntity
  8
1
 62
     7
100
AcDbMText
 10
263.6919974364522
 20
118.1999999999996
 30
0.0
 40
5.25
 41
0.0
 71
     5
 72
     1
  1
W1/4山20
  7
CONVERTER_1
 73
     1
 44
0.7202881152461
  0
MTEXT
  5
2B2
330
1F
100
AcDbEntity
  8
1
 62
     7
100
AcDbMText
 10
234.185245864766
 20
234.9500000000002
 30
0.0
 40
5.25
 41
0.0
 71
     5
 72
     1
  1
G1/2
  7
CONVERTER_2
 73
     1
 44
0.7202881152461
  0
MTEXT
  5
2B3
330
1F
100
AcDbEntity
  8
1
 62
     7
100
AcDbMText
 10
128.242759625884
 20
217.2500000000003
 30
0.0
 40
5.25
 41
0.0
 71
     5
 72
     1
  1
G1/2
  7
CONVERTER_2
 73
     1
 44
0.7202881152461
  0
MTEXT
  5
2B4
330
1F
100
AcDbEntity
  8
1
 62
     7
100
AcDbMText
 10
236.3503382358575
 20
106.1999999999996
 30
0.0
 40
5.25
 41
0.0
 71
     5
 72
     1
  1
Rc1/2
  7
CONVERTER_2
 73
     1
 44
0.7202881152461
  0
MTEXT
  5
2B5
330
1F
100
AcDbEntity
  8
1
 62
     7
100
AcDbMText
 10
51.0
 20
56.25000000000001
 30
0.0
 40
5.25
 41
0.0
 71
     4
 72
     1
  1
JIS
  7
CONVERTER_2
 73
     1
 44
0.7202881152461
  0
MTEXT
  5
2B6
330
1F
100
AcDbEntity
  8
1
 62
     7
100
AcDbMText
 10
127.875
 20
25.5
 30
0.0
 40
5.25
 41
0.0
 71
     5
 72
     1
  1
1
  7
CONVERTER_2
 73
     1
 44
0.7202881152461
  0
MTEXT
  5
2B7
330
1F
100
AcDbEntity
  8
1
 62
     7
100
AcDbMText
 10
140.625
 20
25.5
 30
0.0
 40
5.25
 41
0.0
 71
     5
 72
     1
  1
1,5
  7
CONVERTER_2
 73
     1
 44
0.7202881152461
  0
MTEXT
  5
2B8
330
1F
100
AcDbEntity
  8
1
 62
     7
100
AcDbMText
 10
85.5
 20
34.12500000000001
 30
0.0
 40
5.25
 41
0.0
 71
     5
 72
     1
  1
D式回転分岐バルブ
  7
CONVERTER_1
 73
     1
 44
0.7202881152461
  0
MTEXT
  5
2B9
330
1F
100
AcDbEntity
  8
1
 62
     7
100
AcDbMText
 10
85.5
 20
21.375
 30
0.0
 40
5.25
 41
0.0
 71
     5
 72
     1
  1
B2110D-13
  7
CONVERTER_2
 73
     1
 44
0.7202881152461
  0
MTEXT
  5
2BA
330
1F
100
AcDbEntity
  8
1
 62
     7
100
AcDbMText
 10
51.0
 20
45.75000000000001
 30
0.0
 40
5.25
 41
0.0
 71
     4
 72
     1
  1
分岐側は回転式(角度制限なし)
  7
CONVERTER_1
 73
     1
 44
0.7202881152461
  0
DIMENSION
  5
2C5
330
1F
100
AcDbEntity
  8
1
100
AcDbDimension
  2
*D111
 10
60.66845396887929
 20
101.6999999999996
 30
0.0
 11
77.66845396887932
 21
105.8249999999996
 31
0.0
  1
<>
 71
     5
 42
0.0
 53
0.00013888888889
  3
ME10_DIM_1
100
AcDbAlignedDimension
 13
94.66845396887931
 23
170.5989612986097
 33
0.0
 14
60.66845396887928
 24
170.5989612986097
 34
0.0
100
AcDbRotatedDimension
  0
DIMENSION
  5
2D0
330
1F
100
AcDbEntity
  8
1
100
AcDbDimension
  2
*D212
 10
64.66845396887933
 20
113.6999999999996
 30
0.0
 11
77.66845396887932
 21
117.8249999999996
 31
0.0
  1
<>
 71
     5
 42
0.0
 53
0.00013888888889
  3
ME10_DIM_2
100
AcDbAlignedDimension
 13
90.66845396887942
 23
128.6999999999996
 33
0.0
 14
64.66845396887933
 24
128.6999999999996
 34
0.0
100
AcDbRotatedDimension
  0
DIMENSION
  5
2DB
330
1F
100
AcDbEntity
  8
1
100
AcDbDimension
  2
*D313
 10
161.4184539688794
 20
113.6999999999996
 30
0.0
 11
181.5434539688794
 21
117.8249999999996
 31
0.0
  1
41リフト5
 71
     5
 42
0.0
 53
0.00013888888889
  3
ME10_DIM_3
100
AcDbAlignedDimension
 13
201.6684539688794
 23
124.9999999999996
 33
0.0
 14
161.4184539688794
 24
155.2500000000003
 34
0.0
100
AcDbRotatedDimension
  0
DIMENSION
  5
2E6
330
1F
100
AcDbEntity
  8
1
100
AcDbDimension
  2
*D414
 10
201.6684539688794
 20
243.2000000000002
 30
0.0
 11
212.4184539688794
 21
247.3250000000002
 31
0.0
  1
22
 71
     5
 42
0.0
 53
0.00013888888889
  3
ME10_DIM_4
100
AcDbAlignedDimension
 13
223.1684539688794
 23
164.7000000000003
 33
0.0
 14
201.6684539688794
 24
219.7000000000002
 34
0.0
100
AcDbRotatedDimension
  0
DIMENSION
  5
2F1
330
1F
100
AcDbEntity
  8
1
100
AcDbDimension
  2
*D515
 10
142.6684539688793
 20
243.2000000000002
 30
0.0
 11
172.1684539688793
 21
247.3250000000002
 31
0.0
  1
<>
 71
     5
 42
0.0
 53
0.00013888888889
  3
ME10_DIM_5
100
AcDbAlignedDimension
 13
201.6684539688794
 23
219.7000000000002
 33
0.0
 14
142.6684539688793
 24
197.3380000000001
 34
0.0
100
AcDbRotatedDimension
  0
DIMENSION
  5
2FC
330
1F
100
AcDbEntity
  8
1
100
AcDbDimension
  2
*D616
 10
142.6684539688794
 20
276.6347530241939
 30
0.0
 11
182.9184539688794
 21
280.7597530241939
 31
0.0
  1
81
 71
     5
 42
0.0
 53
0.00013888888889
  3
ME10_DIM_6
100
AcDbAlignedDimension
 13
223.1684539688794
 23
314.934753024194
 33
0.0
 14
142.6684539688794
 24
311.2967530241939
 34
0.0
100
AcDbRotatedDimension
  0
DIMENSION
  5
307
330
1F
100
AcDbEntity
  8
1
100
AcDbDimension
  2
*D717
 10
250.1684539688794
 20
159.0
 30
0.0
 11
246.0434539688794
 21
187.6000000000001
 31
0.0
  1
57
 71
     5
 42
0.0
 53
90.0
  3
ME10_DIM_7
100
AcDbAlignedDimension
 13
210.9839539688794
 23
216.2000000000002
 33
0.0
 14
226.1684539688795
 24
159.0
 34
0.0
 50
90.0
100
AcDbRotatedDimension
  0
DIMENSION
  5
312
330
1F
100
AcDbEntity
  8
1
100
AcDbDimension
  2
*D818
 10
250.1684539688794
 20
128.6999999999996
 30
0.0
 11
246.0434539688794
 21
143.8499999999998
 31
0.0
  1
30
 71
     5
 42
0.0
 53
90.0
  3
ME10_DIM_8
100
AcDbAlignedDimension
 13
226.1684539688795
 23
159.0
 33
0.0
 14
214.4184539688794
 24
128.6999999999996
 34
0.0
 50
90.0
100
AcDbRotatedDimension
  0
DIMENSION
  5
31D
330
1F
100
AcDbEntity
  8
1
100
AcDbDimension
  2
*D919
 10
262.1684539688794
 20
128.6999999999996
 30
0.0
 11
258.0434539688794
 21
172.4499999999999
 31
0.0
  1
87
 71
     5
 42
0.0
 53
90.0
  3
ME10_DIM_9
100
AcDbAlignedDimension
 13
210.9839539688794
 23
216.2000000000002
 33
0.0
 14
214.4184539688794
 24
128.6999999999996
 34
0.0
 50
90.0
100
AcDbRotatedDimension
  0
DIMENSION
  5
328
330
1F
100
AcDbEntity
  8
1
100
AcDbDimension
  2
*D1020
 10
142.6684539688794
 20
288.6347530241939
 30
0.0
 11
155.364708991922
 21
292.7597530241939
 31
0.0
  1
26
 71
     5
 42
0.0
 53
0.00013888888889
  3
ME10_DIM_10
100
AcDbAlignedDimension
 13
168.1684539688793
 23
304.634753024194
 33
0.0
 14
142.6684539688794
 24
311.2967530241939
 34
0.0
100
AcDbRotatedDimension
  0
DIMENSION
  5
333
330
1F
100
AcDbEntity
  8
1
100
AcDbDimension
  2
*D1121
 10
168.1684539688793
 20
288.6347530241939
 30
0.0
 11
186.942430628014
 21
292.7597530241939
 31
0.0
  1
34
 71
     5
 42
0.0
 53
0.00013888888889
  3
ME10_DIM_11
100
AcDbAlignedDimension
 13
201.6684539688793
 23
299.1347530241939
 33
0.0
 14
168.1684539688793
 24
304.634753024194
 34
0.0
100
AcDbRotatedDimension
  0
DIMENSION
  5
33E
330
1F
100
AcDbEntity
  8
1
100
AcDbDimension
  2
*D1222
 10
61.16845396887923
 20
231.2000000000002
 30
0.0
 11
77.66845396887932
 21
235.3250000000002
 31
0.0
  1
<>
 71
     5
 42
0.0
 53
0.00013888888889
  3
ME10_DIM_12
100
AcDbAlignedDimension
 13
94.16845396887942
 23
193.2679491924313
 33
0.0
 14
61.16845396887922
 24
193.2679491924313
 34
0.0
100
AcDbRotatedDimension
  0
ENDSEC
  0
SECTION
  2
OBJECTS
  0
DICTIONARY
  5
C
330
0
100
AcDbDictionary
281
     1
  3
ACAD_GROUP
350
D
  3
ACAD_LAYOUT
350
1A
  3
ACAD_MLINESTYLE
350
17
  3
ACAD_PLOTSETTINGS
350
19
  3
ACAD_PLOTSTYLENAME
350
E
  3
ACAD_TABLESTYLE
350
2A
  3
AcDbVariableDictionary
350
2C
  0
DICTIONARY
  5
D
102
{ACAD_REACTORS
330
C
102
}
330
C
100
AcDbDictionary
281
     1
  0
DICTIONARY
  5
1A
102
{ACAD_REACTORS
330
C
102
}
330
C
100
AcDbDictionary
281
     1
  3
Layout1
350
1E
  3
Layout2
350
26
  3
Model
350
22
  0
DICTIONARY
  5
17
102
{ACAD_REACTORS
330
C
102
}
330
C
100
AcDbDictionary
281
     1
  3
Standard
350
18
  0
DICTIONARY
  5
19
102
{ACAD_REACTORS
330
C
102
}
330
C
100
AcDbDictionary
281
     1
  0
ACDBDICTIONARYWDFLT
  5
E
102
{ACAD_REACTORS
330
C
102
}
330
C
100
AcDbDictionary
281
     1
  3
Normal
350
F
100
AcDbDictionaryWithDefault
340
F
  0
DICTIONARY
  5
2A
102
{ACAD_REACTORS
330
C
102
}
330
C
100
AcDbDictionary
281
     1
  3
Standard
350
2B
  0
DICTIONARY
  5
2C
102
{ACAD_REACTORS
330
C
102
}
330
C
100
AcDbDictionary
281
     1
  3
CTABLESTYLE
350
2D
  0
LAYOUT
  5
1E
102
{ACAD_REACTORS
330
1A
102
}
330
1A
100
AcDbPlotSettings
  1

  2

  4

  6

 40
0.0
 41
0.0
 42
0.0
 43
0.0
 44
0.0
 45
0.0
 46
0.0
 47
0.0
 48
0.0
 49
0.0
140
0.0
141
0.0
142
1.0
143
1.0
 70
   688
 72
     0
 73
     0
 74
     5
  7

 75
    16
147
1.0
148
0.0
149
0.0
100
AcDbLayout
  1
Layout1
 70
     1
 71
     1
 10
0.0
 20
0.0
 11
12.0
 21
9.0
 12
0.0
 22
0.0
 32
0.0
 14
1.00000000000000E+20
 24
1.00000000000000E+20
 34
1.00000000000000E+20
 15
-1.00000000000000E+20
 25
-1.00000000000000E+20
 35
-1.00000000000000E+20
146
0.0
 13
0.0
 23
0.0
 33
0.0
 16
1.0
 26
0.0
 36
0.0
 17
0.0
 27
1.0
 37
0.0
 76
     0
330
1B
  0
LAYOUT
  5
26
102
{ACAD_REACTORS
330
1A
102
}
330
1A
100
AcDbPlotSettings
  1

  2

  4

  6

 40
0.0
 41
0.0
 42
0.0
 43
0.0
 44
0.0
 45
0.0
 46
0.0
 47
0.0
 48
0.0
 49
0.0
140
0.0
141
0.0
142
1.0
143
1.0
 70
   688
 72
     0
 73
     0
 74
     5
  7

 75
    16
147
1.0
148
0.0
149
0.0
100
AcDbLayout
  1
Layout2
 70
     1
 71
     2
 10
0.0
 20
0.0
 11
0.0
 21
0.0
 12
0.0
 22
0.0
 32
0.0
 14
0.0
 24
0.0
 34
0.0
 15
0.0
 25
0.0
 35
0.0
146
0.0
 13
0.0
 23
0.0
 33
0.0
 16
1.0
 26
0.0
 36
0.0
 17
0.0
 27
1.0
 37
0.0
 76
     0
330
23
  0
LAYOUT
  5
22
102
{ACAD_REACTORS
330
1A
102
}
330
1A
100
AcDbPlotSettings
  1

  2

  4

  6

 40
0.0
 41
0.0
 42
0.0
 43
0.0
 44
0.0
 45
0.0
 46
0.0
 47
0.0
 48
0.0
 49
0.0
140
0.0
141
0.0
142
1.0
143
1.0
 70
  1712
 72
     0
 73
     0
 74
     0
  7

 75
     0
147
1.0
148
0.0
149
0.0
100
AcDbLayout
  1
Model
 70
     1
 71
     0
 10
0.0
 20
0.0
 11
0.0
 21
0.0
 12
0.0
 22
0.0
 32
0.0
 14
0.0
 24
0.0
 34
0.0
 15
315.0
 25
445.5
 35
0.0
146
0.0
 13
0.0
 23
0.0
 33
0.0
 16
1.0
 26
0.0
 36
0.0
 17
0.0
 27
1.0
 37
0.0
 76
     0
330
1F
  0
MLINESTYLE
  5
18
102
{ACAD_REACTORS
330
17
102
}
330
17
100
AcDbMlineStyle
  2
Standard
 70
     0
  3

 62
   256
 51
90.0
 52
90.0
 71
     2
 49
0.5
 62
   256
  6
BYLAYER
 49
-0.5
 62
   256
  6
BYLAYER
  0
ACDBPLACEHOLDER
  5
F
102
{ACAD_REACTORS
330
E
102
}
330
E
  0
TABLESTYLE
  5
2B
102
{ACAD_REACTORS
330
2A
102
}
330
2A
100
AcDbTableStyle
  3
Standard
 70
     0
 71
     0
 40
0.06
 41
0.06
280
     0
281
     0
  7
Standard
140
0.18
170
     2
 62
     0
 63
     7
283
     0
274
    -2
284
     1
 64
     0
275
    -2
285
     1
 65
     0
276
    -2
286
     1
 66
     0
277
    -2
287
     1
 67
     0
278
    -2
288
     1
 68
     0
279
    -2
289
     1
 69
     0
  7
Standard
140
0.25
170
     5
 62
     0
 63
     7
283
     0
274
    -2
284
     1
 64
     0
275
    -2
285
     1
 65
     0
276
    -2
286
     1
 66
     0
277
    -2
287
     1
 67
     0
278
    -2
288
     1
 68
     0
279
    -2
289
     1
 69
     0
  7
Standard
140
0.18
170
     5
 62
     0
 63
     7
283
     0
274
    -2
284
     1
 64
     0
275
    -2
285
     1
 65
     0
276
    -2
286
     1
 66
     0
277
    -2
287
     1
 67
     0
278
    -2
288
     1
 68
     0
279
    -2
289
     1
 69
     0
  0
DICTIONARYVAR
  5
2D
102
{ACAD_REACTORS
330
2C
102
}
330
2C
100
DictionaryVariables
280
     0
  1
Standard
  0
ENDSEC
  0
EOF
