  0
SECTION
  2
HEADER
  9
$ACADVER
  1
AC1015
  9
$ACADMAINTVER
 70
     6
  9
$DWGCODEPAGE
  3
DOS932
  9
$INSBASE
 10
0.0
 20
0.0
 30
0.0
  9
$EXTMIN
 10
0.0
 20
0.0
 30
0.0
  9
$EXTMAX
 10
420.0
 20
594.0
 30
0.0
  9
$LIMMIN
 10
0.0
 20
0.0
  9
$LIMMAX
 10
12.0
 20
9.0
  9
$ORTHOMODE
 70
     0
  9
$REGENMODE
 70
     1
  9
$FILLMODE
 70
     1
  9
$QTEXTMODE
 70
     0
  9
$MIRRTEXT
 70
     1
  9
$LTSCALE
 40
1.0
  9
$ATTMODE
 70
     1
  9
$TEXTSIZE
 40
0.2
  9
$TRACEWID
 40
0.05
  9
$TEXTSTYLE
  7
Standard
  9
$CLAYER
  8
0
  9
$CELTYPE
  6
ByLayer
  9
$CECOLOR
 62
   256
  9
$CELTSCALE
 40
1.0
  9
$DISPSILH
 70
     0
  9
$DIMSCALE
 40
1.0
  9
$DIMASZ
 40
0.18
  9
$DIMEXO
 40
0.0625
  9
$DIMDLI
 40
0.38
  9
$DIMRND
 40
0.0
  9
$DIMDLE
 40
0.0
  9
$DIMEXE
 40
0.18
  9
$DIMTP
 40
0.0
  9
$DIMTM
 40
0.0
  9
$DIMTXT
 40
0.18
  9
$DIMCEN
 40
0.09
  9
$DIMTSZ
 40
0.0
  9
$DIMTOL
 70
     0
  9
$DIMLIM
 70
     0
  9
$DIMTIH
 70
     1
  9
$DIMTOH
 70
     1
  9
$DIMSE1
 70
     0
  9
$DIMSE2
 70
     0
  9
$DIMTAD
 70
     0
  9
$DIMZIN
 70
     0
  9
$DIMBLK
  1

  9
$DIMASO
 70
     1
  9
$DIMSHO
 70
     1
  9
$DIMPOST
  1

  9
$DIMAPOST
  1

  9
$DIMALT
 70
     0
  9
$DIMALTD
 70
     2
  9
$DIMALTF
 40
25.4
  9
$DIMLFAC
 40
1.0
  9
$DIMTOFL
 70
     0
  9
$DIMTVP
 40
0.0
  9
$DIMTIX
 70
     0
  9
$DIMSOXD
 70
     0
  9
$DIMSAH
 70
     0
  9
$DIMBLK1
  1

  9
$DIMBLK2
  1

  9
$DIMSTYLE
  2
Standard
  9
$DIMCLRD
 70
     0
  9
$DIMCLRE
 70
     0
  9
$DIMCLRT
 70
     0
  9
$DIMTFAC
 40
1.0
  9
$DIMGAP
 40
0.09
  9
$DIMJUST
 70
     0
  9
$DIMSD1
 70
     0
  9
$DIMSD2
 70
     0
  9
$DIMTOLJ
 70
     1
  9
$DIMTZIN
 70
     0
  9
$DIMALTZ
 70
     0
  9
$DIMALTTZ
 70
     0
  9
$DIMUPT
 70
     0
  9
$DIMDEC
 70
     4
  9
$DIMTDEC
 70
     4
  9
$DIMALTU
 70
     2
  9
$DIMALTTD
 70
     2
  9
$DIMTXSTY
  7
Standard
  9
$DIMAUNIT
 70
     0
  9
$DIMADEC
 70
     0
  9
$DIMALTRND
 40
0.0
  9
$DIMAZIN
 70
     0
  9
$DIMDSEP
 70
    46
  9
$DIMATFIT
 70
     3
  9
$DIMFRAC
 70
     0
  9
$DIMLDRBLK
  1

  9
$DIMLUNIT
 70
     2
  9
$DIMLWD
 70
    -2
  9
$DIMLWE
 70
    -2
  9
$DIMTMOVE
 70
     0
  9
$LUNITS
 70
     2
  9
$LUPREC
 70
     4
  9
$SKETCHINC
 40
0.1
  9
$FILLETRAD
 40
0.5
  9
$AUNITS
 70
     0
  9
$AUPREC
 70
     0
  9
$MENU
  1
.
  9
$ELEVATION
 40
0.0
  9
$PELEVATION
 40
0.0
  9
$THICKNESS
 40
0.0
  9
$LIMCHECK
 70
     0
  9
$CHAMFERA
 40
0.5
  9
$CHAMFERB
 40
0.5
  9
$CHAMFERC
 40
1.0
  9
$CHAMFERD
 40
0.0
  9
$SKPOLY
 70
     0
  9
$TDCREATE
 40
2456134.664288194
  9
$TDUCREATE
 40
2456134.289288194
  9
$TDUPDATE
 40
2456134.664288206
  9
$TDUUPDATE
 40
2456134.289288206
  9
$TDINDWG
 40
0.0000000116
  9
$TDUSRTIMER
 40
0.0000000116
  9
$USRTIMER
 70
     1
  9
$ANGBASE
 50
0.0
  9
$ANGDIR
 70
     0
  9
$PDMODE
 70
     0
  9
$PDSIZE
 40
0.0
  9
$PLINEWID
 40
0.0
  9
$SPLFRAME
 70
     0
  9
$SPLINETYPE
 70
     6
  9
$SPLINESEGS
 70
     8
  9
$HANDSEED
  5
29B
  9
$SURFTAB1
 70
     6
  9
$SURFTAB2
 70
     6
  9
$SURFTYPE
 70
     6
  9
$SURFU
 70
     6
  9
$SURFV
 70
     6
  9
$UCSBASE
  2

  9
$UCSNAME
  2

  9
$UCSORG
 10
0.0
 20
0.0
 30
0.0
  9
$UCSXDIR
 10
1.0
 20
0.0
 30
0.0
  9
$UCSYDIR
 10
0.0
 20
1.0
 30
0.0
  9
$UCSORTHOREF
  2

  9
$UCSORTHOVIEW
 70
     0
  9
$UCSORGTOP
 10
0.0
 20
0.0
 30
0.0
  9
$UCSORGBOTTOM
 10
0.0
 20
0.0
 30
0.0
  9
$UCSORGLEFT
 10
0.0
 20
0.0
 30
0.0
  9
$UCSORGRIGHT
 10
0.0
 20
0.0
 30
0.0
  9
$UCSORGFRONT
 10
0.0
 20
0.0
 30
0.0
  9
$UCSORGBACK
 10
0.0
 20
0.0
 30
0.0
  9
$PUCSBASE
  2

  9
$PUCSNAME
  2

  9
$PUCSORG
 10
0.0
 20
0.0
 30
0.0
  9
$PUCSXDIR
 10
1.0
 20
0.0
 30
0.0
  9
$PUCSYDIR
 10
0.0
 20
1.0
 30
0.0
  9
$PUCSORTHOREF
  2

  9
$PUCSORTHOVIEW
 70
     0
  9
$PUCSORGTOP
 10
0.0
 20
0.0
 30
0.0
  9
$PUCSORGBOTTOM
 10
0.0
 20
0.0
 30
0.0
  9
$PUCSORGLEFT
 10
0.0
 20
0.0
 30
0.0
  9
$PUCSORGRIGHT
 10
0.0
 20
0.0
 30
0.0
  9
$PUCSORGFRONT
 10
0.0
 20
0.0
 30
0.0
  9
$PUCSORGBACK
 10
0.0
 20
0.0
 30
0.0
  9
$USERI1
 70
     0
  9
$USERI2
 70
     0
  9
$USERI3
 70
     0
  9
$USERI4
 70
     0
  9
$USERI5
 70
     0
  9
$USERR1
 40
13.2
  9
$USERR2
 40
0.0
  9
$USERR3
 40
0.0
  9
$USERR4
 40
0.0
  9
$USERR5
 40
0.0
  9
$WORLDVIEW
 70
     1
  9
$SHADEDGE
 70
     3
  9
$SHADEDIF
 70
    70
  9
$TILEMODE
 70
     1
  9
$MAXACTVP
 70
    64
  9
$PINSBASE
 10
0.0
 20
0.0
 30
0.0
  9
$PLIMCHECK
 70
     0
  9
$PEXTMIN
 10
1.00000000000000E+20
 20
1.00000000000000E+20
 30
1.00000000000000E+20
  9
$PEXTMAX
 10
-1.00000000000000E+20
 20
-1.00000000000000E+20
 30
-1.00000000000000E+20
  9
$PLIMMIN
 10
0.0
 20
0.0
  9
$PLIMMAX
 10
12.0
 20
9.0
  9
$UNITMODE
 70
     0
  9
$VISRETAIN
 70
     1
  9
$PLINEGEN
 70
     0
  9
$PSLTSCALE
 70
     1
  9
$TREEDEPTH
 70
  3020
  9
$CMLSTYLE
  2
Standard
  9
$CMLJUST
 70
     0
  9
$CMLSCALE
 40
1.0
  9
$PROXYGRAPHICS
 70
     1
  9
$MEASUREMENT
 70
     1
  9
$CELWEIGHT
370
    -1
  9
$ENDCAPS
280
     0
  9
$JOINSTYLE
280
     0
  9
$LWDISPLAY
290
     0
  9
$INSUNITS
 70
     1
  9
$HYPERLINKBASE
  1

  9
$STYLESHEET
  1

  9
$XEDIT
290
     1
  9
$CEPSNTYPE
380
     0
  9
$PSTYLEMODE
290
     0
  9
$FINGERPRINTGUID
  2
{FAEB1C30-E019-11D5-929B-00C0DF256EC4}
  9
$VERSIONGUID
  2
{FAEB1C32-E019-11D5-929B-00C0DF256EC4}
  9
$EXTNAMES
290
     1
  9
$PSVPSCALE
 40
0.0
  9
$OLESTARTUP
290
     0
  0
ENDSEC
  0
SECTION
  2
CLASSES
  0
CLASS
  1
ACDBDICTIONARYWDFLT
  2
AcDbDictionaryWithDefault
  3
ObjectDBX Classes
 90
        0
280
     0
281
     0
  0
CLASS
  1
TABLESTYLE
  2
AcDbTableStyle
  3
ObjectDBX Classes
 90
     2047
280
     0
281
     0
  0
CLASS
  1
DICTIONARYVAR
  2
AcDbDictionaryVar
  3
ObjectDBX Classes
 90
        0
280
     0
281
     0
  0
CLASS
  1

  2
exOdDbSpline
  3

 90
        0
280
     0
281
     1
  0
CLASS
  1

  2
exOdDbCircle
  3

 90
        0
280
     0
281
     1
  0
CLASS
  1
ACDBPLACEHOLDER
  2
AcDbPlaceHolder
  3
ObjectDBX Classes
 90
        0
280
     0
281
     0
  0
CLASS
  1
LAYOUT
  2
AcDbLayout
  3
ObjectDBX Classes
 90
        0
280
     0
281
     0
  0
ENDSEC
  0
SECTION
  2
TABLES
  0
TABLE
  2
VPORT
  5
8
330
0
100
AcDbSymbolTable
 70
     2
  0
VPORT
  5
29
330
8
100
AcDbSymbolTableRecord
100
AcDbViewportTableRecord
  2
*Active
 70
     0
 10
0.0
 20
0.0
 11
1.0
 21
1.0
 12
210.0
 22
297.0
 13
0.0
 23
0.0
 14
0.5
 24
0.5
 15
0.5
 25
0.5
 16
0.0
 26
0.0
 36
1.0
 17
0.0
 27
0.0
 37
0.0
 40
653.4000000000001
 41
1.60267857142857
 42
50.0
 43
0.0
 44
0.0
 50
0.0
 51
0.0
 71
     0
 72
   100
 73
     1
 74
     3
 75
     0
 76
     0
 77
     0
 78
     0
281
     0
 65
     1
110
0.0
120
0.0
130
0.0
111
1.0
121
0.0
131
0.0
112
0.0
122
1.0
132
0.0
 79
     0
146
0.0
  0
ENDTAB
  0
TABLE
  2
LTYPE
  5
5
330
0
100
AcDbSymbolTable
 70
     8
  0
LTYPE
  5
14
330
5
100
AcDbSymbolTableRecord
100
AcDbLinetypeTableRecord
  2
ByBlock
 70
     0
  3

 72
    65
 73
     0
 40
0.0
  0
LTYPE
  5
15
330
5
100
AcDbSymbolTableRecord
100
AcDbLinetypeTableRecord
  2
ByLayer
 70
     0
  3

 72
    65
 73
     0
 40
0.0
  0
LTYPE
  5
16
330
5
100
AcDbSymbolTableRecord
100
AcDbLinetypeTableRecord
  2
Continuous
 70
     0
  3
Solid line
 72
    65
 73
     0
 40
0.0
  0
LTYPE
  5
2E
330
5
100
AcDbSymbolTableRecord
100
AcDbLinetypeTableRecord
  2
DASHED
 70
     0
  3
Dashed
 72
    65
 73
     2
 40
15.0
 49
7.0
 74
     0
 49
-8.0
 74
     0
  0
LTYPE
  5
2F
330
5
100
AcDbSymbolTableRecord
100
AcDbLinetypeTableRecord
  2
DOTTED
 70
     0
  3
Dotted
 72
    65
 73
     2
 40
1.0
 49
0.0
 74
     0
 49
-1.0
 74
     0
  0
LTYPE
  5
30
330
5
100
AcDbSymbolTableRecord
100
AcDbLinetypeTableRecord
  2
DOT_CENTER
 70
     0
  3
Dot_Center
 72
    65
 73
     4
 40
14.0
 49
12.0
 74
     0
 49
-1.0
 74
     0
 49
0.0
 74
     0
 49
-1.0
 74
     0
  0
LTYPE
  5
31
330
5
100
AcDbSymbolTableRecord
100
AcDbLinetypeTableRecord
  2
LONG_DASHED
 70
     0
  3
Long_Dashed
 72
    65
 73
     2
 40
15.0
 49
10.0
 74
     0
 49
-5.0
 74
     0
  0
LTYPE
  5
32
330
5
100
AcDbSymbolTableRecord
100
AcDbLinetypeTableRecord
  2
DASH_CENTER
 70
     0
  3
Dash_Center
 72
    65
 73
     4
 40
14.0
 49
11.0
 74
     0
 49
-1.0
 74
     0
 49
1.0
 74
     0
 49
-1.0
 74
     0
  0
LTYPE
  5
33
330
5
100
AcDbSymbolTableRecord
100
AcDbLinetypeTableRecord
  2
PHANTOM
 70
     0
  3
Phantom
 72
    65
 73
     6
 40
13.0
 49
10.0
 74
     0
 49
-1.0
 74
     0
 49
0.0
 74
     0
 49
-1.0
 74
     0
 49
0.0
 74
     0
 49
-1.0
 74
     0
  0
LTYPE
  5
34
330
5
100
AcDbSymbolTableRecord
100
AcDbLinetypeTableRecord
  2
CENTER_DASH_DASH
 70
     0
  3
Center_Dash_Dash
 72
    65
 73
     6
 40
14.0
 49
9.0
 74
     0
 49
-1.0
 74
     0
 49
1.0
 74
     0
 49
-1.0
 74
     0
 49
1.0
 74
     0
 49
-1.0
 74
     0
  0
ENDTAB
  0
TABLE
  2
LAYER
  5
2
330
0
100
AcDbSymbolTable
 70
     2
  0
LAYER
  5
10
330
2
100
AcDbSymbolTableRecord
100
AcDbLayerTableRecord
  2
0
 70
     0
 62
     7
  6
Continuous
370
    -3
390
F
  0
LAYER
  5
35
330
2
100
AcDbSymbolTableRecord
100
AcDbLayerTableRecord
  2
1
 70
     0
 62
     7
  6
Continuous
370
    -3
390
F
  0
ENDTAB
  0
TABLE
  2
STYLE
  5
3
330
0
100
AcDbSymbolTable
 70
     3
  0
STYLE
  5
11
330
3
100
AcDbSymbolTableRecord
100
AcDbTextStyleTableRecord
  2
Standard
 70
     0
 40
0.0
 41
1.0
 50
0.0
 71
     0
 42
0.2
  3
txt
  4

  0
STYLE
  5
216
330
3
100
AcDbSymbolTableRecord
100
AcDbTextStyleTableRecord
  2
CONVERTER_1
 70
     0
 40
0.0
 41
0.89
 50
0.0
 71
     0
 42
0.2
  3
msmincho.ttc
  4

1001
ACAD
1000
MS Mincho
1071
    32785
  0
STYLE
  5
232
330
3
100
AcDbSymbolTableRecord
100
AcDbTextStyleTableRecord
  2
CONVERTER_2
 70
     0
 40
0.0
 41
0.9
 50
0.0
 71
     0
 42
0.2
  3
txt.shx
  4

  0
ENDTAB
  0
TABLE
  2
VIEW
  5
6
330
0
100
AcDbSymbolTable
 70
     0
  0
ENDTAB
  0
TABLE
  2
UCS
  5
7
330
0
100
AcDbSymbolTable
 70
     0
  0
ENDTAB
  0
TABLE
  2
APPID
  5
9
330
0
100
AcDbSymbolTable
 70
     1
  0
APPID
  5
12
330
9
100
AcDbSymbolTableRecord
100
AcDbRegAppTableRecord
  2
ACAD
 70
     0
  0
ENDTAB
  0
TABLE
  2
DIMSTYLE
  5
A
330
0
100
AcDbSymbolTable
 70
     9
100
AcDbDimStyleTable
  0
DIMSTYLE
105
27
330
A
100
AcDbSymbolTableRecord
100
AcDbDimStyleTableRecord
  2
Standard
 70
     0
340
11
  0
DIMSTYLE
105
246
102
{ACAD_REACTORS
330
247
102
}
330
A
100
AcDbSymbolTableRecord
100
AcDbDimStyleTableRecord
  2
ME10_DIM_0
 70
     0
 41
7.0
 42
0.0
 44
2.0
 73
     0
 74
     0
 77
     1
 78
     8
140
7.0
147
0.625
172
     1
173
     1
176
     2
177
     2
178
     7
271
     2
340
232
  0
DIMSTYLE
105
252
102
{ACAD_REACTORS
330
253
102
}
330
A
100
AcDbSymbolTableRecord
100
AcDbDimStyleTableRecord
  2
ME10_DIM_1
 70
     0
 41
7.0
 42
0.0
 44
2.0
 73
     0
 74
     0
 77
     1
 78
     8
140
7.0
147
0.625
172
     1
173
     1
176
     2
177
     2
178
     7
271
     2
340
232
  0
DIMSTYLE
105
25E
102
{ACAD_REACTORS
330
25F
102
}
330
A
100
AcDbSymbolTableRecord
100
AcDbDimStyleTableRecord
  2
ME10_DIM_2
 70
     0
 41
7.0
 42
0.0
 44
2.0
 73
     0
 74
     0
 77
     1
 78
     8
140
7.0
147
0.625
172
     1
173
     1
176
     2
177
     2
178
     7
271
     2
340
232
  0
DIMSTYLE
105
26A
102
{ACAD_REACTORS
330
26B
102
}
330
A
100
AcDbSymbolTableRecord
100
AcDbDimStyleTableRecord
  2
ME10_DIM_3
 70
     0
 41
7.0
 42
0.0
 44
2.0
 73
     0
 74
     0
 77
     1
 78
     8
140
7.0
147
0.625
172
     1
173
     1
176
     2
177
     2
178
     7
271
     2
340
232
  0
DIMSTYLE
105
276
102
{ACAD_REACTORS
330
277
102
}
330
A
100
AcDbSymbolTableRecord
100
AcDbDimStyleTableRecord
  2
ME10_DIM_4
 70
     0
 41
7.0
 42
0.0
 44
2.0
 73
     0
 74
     0
 77
     1
 78
     8
140
7.0
147
0.625
172
     1
173
     1
176
     2
177
     2
178
     7
271
     2
340
232
  0
DIMSTYLE
105
281
102
{ACAD_REACTORS
330
282
102
}
330
A
100
AcDbSymbolTableRecord
100
AcDbDimStyleTableRecord
  2
ME10_DIM_5
 70
     0
 41
7.0
 42
0.0
 44
2.0
 73
     0
 74
     0
 77
     1
 78
     8
140
7.0
147
0.625
172
     1
173
     1
176
     2
177
     2
178
     7
271
     2
340
216
  0
DIMSTYLE
105
28C
102
{ACAD_REACTORS
330
28D
102
}
330
A
100
AcDbSymbolTableRecord
100
AcDbDimStyleTableRecord
  2
ME10_DIM_6
 70
     0
  3
{\Fgdt;n}<>
 41
7.0
 42
0.0
 44
2.0
 73
     0
 74
     0
 77
     1
 78
     8
140
7.0
147
0.625
172
     1
173
     1
176
     2
177
     2
178
     7
271
     2
340
232
  0
DIMSTYLE
105
299
102
{ACAD_REACTORS
330
29A
102
}
330
A
100
AcDbSymbolTableRecord
100
AcDbDimStyleTableRecord
  2
ME10_DIM_7
 70
     0
 41
7.0
 42
0.0
 44
2.0
 73
     0
 74
     0
 77
     1
 78
     8
140
7.0
147
0.625
172
     1
173
     1
176
     2
177
     2
178
     7
271
     2
340
232
  0
ENDTAB
  0
TABLE
  2
BLOCK_RECORD
  5
1
330
0
100
AcDbSymbolTable
 70
    22
  0
BLOCK_RECORD
  5
1F
330
1
100
AcDbSymbolTableRecord
100
AcDbBlockTableRecord
  2
*Model_Space
340
22
  0
BLOCK_RECORD
  5
1B
330
1
100
AcDbSymbolTableRecord
100
AcDbBlockTableRecord
  2
*Paper_Space
340
1E
  0
BLOCK_RECORD
  5
23
330
1
100
AcDbSymbolTableRecord
100
AcDbBlockTableRecord
  2
*Paper_Space0
340
26
  0
BLOCK_RECORD
  5
36
330
1
100
AcDbSymbolTableRecord
100
AcDbBlockTableRecord
  2
32-15
340
0
102
{BLKREFS
331
60
102
}
  0
BLOCK_RECORD
  5
39
330
1
100
AcDbSymbolTableRecord
100
AcDbBlockTableRecord
  2
28-1-13
340
0
102
{BLKREFS
331
61
102
}
  0
BLOCK_RECORD
  5
3C
330
1
100
AcDbSymbolTableRecord
100
AcDbBlockTableRecord
  2
41-1-15
340
0
102
{BLKREFS
331
46
102
}
  0
BLOCK_RECORD
  5
3F
330
1
100
AcDbSymbolTableRecord
100
AcDbBlockTableRecord
  2
91-1
340
0
102
{BLKREFS
331
47
102
}
  0
BLOCK_RECORD
  5
42
330
1
100
AcDbSymbolTableRecord
100
AcDbBlockTableRecord
  2
37-1-13
340
0
102
{BLKREFS
331
48
102
}
  0
BLOCK_RECORD
  5
45
330
1
100
AcDbSymbolTableRecord
100
AcDbBlockTableRecord
  2
R10A
340
0
102
{BLKREFS
331
62
102
}
  0
BLOCK_RECORD
  5
4B
330
1
100
AcDbSymbolTableRecord
100
AcDbBlockTableRecord
  2
B24-1
340
0
102
{BLKREFS
331
63
102
}
  0
BLOCK_RECORD
  5
4E
330
1
100
AcDbSymbolTableRecord
100
AcDbBlockTableRecord
  2
B24-2
340
0
102
{BLKREFS
331
64
102
}
  0
BLOCK_RECORD
  5
51
330
1
100
AcDbSymbolTableRecord
100
AcDbBlockTableRecord
  2
32-26
340
0
102
{BLKREFS
331
65
102
}
  0
BLOCK_RECORD
  5
54
330
1
100
AcDbSymbolTableRecord
100
AcDbBlockTableRecord
  2
_n___h__
340
0
102
{BLKREFS
331
66
102
}
  0
BLOCK_RECORD
  5
57
330
1
100
AcDbSymbolTableRecord
100
AcDbBlockTableRecord
  2
B24-16
340
0
102
{BLKREFS
331
67
102
}
  0
BLOCK_RECORD
  5
5A
330
1
100
AcDbSymbolTableRecord
100
AcDbBlockTableRecord
  2
B24-17-M1
340
0
102
{BLKREFS
331
68
102
}
  0
BLOCK_RECORD
  5
5D
330
1
100
AcDbSymbolTableRecord
100
AcDbBlockTableRecord
  2
_J__A4
340
0
102
{BLKREFS
331
69
102
}
  0
BLOCK_RECORD
  5
23A
330
1
100
AcDbSymbolTableRecord
100
AcDbBlockTableRecord
  2
*D014
340
0
  0
BLOCK_RECORD
  5
248
330
1
100
AcDbSymbolTableRecord
100
AcDbBlockTableRecord
  2
*D115
340
0
  0
BLOCK_RECORD
  5
254
330
1
100
AcDbSymbolTableRecord
100
AcDbBlockTableRecord
  2
*D216
340
0
  0
BLOCK_RECORD
  5
260
330
1
100
AcDbSymbolTableRecord
100
AcDbBlockTableRecord
  2
*D317
340
0
  0
BLOCK_RECORD
  5
26C
330
1
100
AcDbSymbolTableRecord
100
AcDbBlockTableRecord
  2
*D418
340
0
  0
BLOCK_RECORD
  5
278
330
1
100
AcDbSymbolTableRecord
100
AcDbBlockTableRecord
  2
*D519
340
0
  0
BLOCK_RECORD
  5
283
330
1
100
AcDbSymbolTableRecord
100
AcDbBlockTableRecord
  2
*D620
340
0
  0
BLOCK_RECORD
  5
28E
330
1
100
AcDbSymbolTableRecord
100
AcDbBlockTableRecord
  2
*D721
340
0
  0
ENDTAB
  0
ENDSEC
  0
SECTION
  2
BLOCKS
  0
BLOCK
  5
20
330
1F
100
AcDbEntity
  8
0
100
AcDbBlockBegin
  2
*Model_Space
 70
     0
 71
     0
 10
0.0
 20
0.0
 30
0.0
  3
*Model_Space
  1

  0
ENDBLK
  5
21
330
1F
100
AcDbEntity
  8
0
100
AcDbBlockEnd
  0
BLOCK
  5
1C
330
1B
100
AcDbEntity
 67
     1
  8
0
100
AcDbBlockBegin
  2
*Paper_Space
 70
     0
 71
     0
 10
0.0
 20
0.0
 30
0.0
  3
*Paper_Space
  1

  0
ENDBLK
  5
1D
330
1B
100
AcDbEntity
 67
     1
  8
0
100
AcDbBlockEnd
  0
BLOCK
  5
24
330
23
100
AcDbEntity
  8
0
100
AcDbBlockBegin
  2
*Paper_Space0
 70
     0
 71
     0
 10
0.0
 20
0.0
 30
0.0
  3
*Paper_Space0
  1

  0
ENDBLK
  5
25
330
23
100
AcDbEntity
  8
0
100
AcDbBlockEnd
  0
BLOCK
  5
37
330
36
100
AcDbEntity
  8
0
100
AcDbBlockBegin
  2
32-15
 70
     0
 71
     0
 10
-40.16838627272466
 20
142.764346860708
 30
0.0
  3
32-15
  1

  0
LINE
  5
6A
330
36
100
AcDbEntity
  8
1
  6
Continuous
 62
     7
100
AcDbLine
 10
279.3799834700533
 20
245.453214322881
 30
0.0
 11
279.3799834700533
 21
244.5401726938876
 31
0.0
  0
LINE
  5
6B
330
36
100
AcDbEntity
  8
1
  6
Continuous
 62
     7
100
AcDbLine
 10
266.3799834700533
 20
244.5401726938876
 30
0.0
 11
266.3799834700533
 21
264.141214322881
 31
0.0
  0
LINE
  5
6C
330
36
100
AcDbEntity
  8
1
  6
Continuous
 62
     7
100
AcDbLine
 10
279.3799834700533
 20
266.7422559518743
 30
0.0
 11
279.3799834700533
 21
245.453214322881
 31
0.0
  0
LINE
  5
6D
330
36
100
AcDbEntity
  8
1
  6
Continuous
 62
     7
100
AcDbLine
 10
266.3799834700533
 20
264.141214322881
 30
0.0
 11
266.3799834700533
 21
266.7422559518743
 31
0.0
  0
ARC
  5
6E
330
36
100
AcDbEntity
  8
1
  6
Continuous
 62
     7
100
AcDbCircle
 10
273.2394867261829
 20
255.649119686005
 30
0.0
 40
4.937258481435665
100
AcDbArc
 50
-5.05243810312362
 51
-0.09174000870405
  0
ARC
  5
6F
330
36
100
AcDbEntity
  8
1
  6
Continuous
 62
     7
100
AcDbCircle
 10
273.3797676532804
 20
255.8097740943548
 30
0.0
 40
4.730419719015644
100
AcDbArc
 50
40.07428910508084
 51
89.99738598454833
  0
ARC
  5
70
330
36
100
AcDbEntity
  8
1
  6
Continuous
 62
     7
100
AcDbCircle
 10
273.1893943559291
 20
256.4185998287233
 30
0.0
 40
4.125998199723306
100
AcDbArc
 50
87.3524372952819
 51
128.3579306802669
  0
ARC
  5
71
330
36
100
AcDbEntity
  8
1
  6
Continuous
 62
     7
100
AcDbCircle
 10
274.3066463051566
 20
255.0068505158296
 30
0.0
 40
5.926355953201415
100
AcDbArc
 50
128.3579306802668
 51
152.8482326541361
  0
ARC
  5
72
330
36
100
AcDbEntity
  8
1
  6
Continuous
 62
     7
100
AcDbCircle
 10
273.307989767894
 20
255.5190279869429
 30
0.0
 40
4.804018819656655
100
AcDbArc
 50
152.8482326541354
 51
178.542570992617
  0
ARC
  5
73
330
36
100
AcDbEntity
  8
1
  6
Continuous
 62
     7
100
AcDbCircle
 10
273.307989767894
 20
255.763400658819
 30
0.0
 40
4.80401881965679
100
AcDbArc
 50
-178.5425709926187
 51
-152.8482326541354
  0
ARC
  5
74
330
36
100
AcDbEntity
  8
1
  6
Continuous
 62
     7
100
AcDbCircle
 10
273.1893943559291
 20
254.8638288170387
 30
0.0
 40
4.125998199723383
100
AcDbArc
 50
-128.3579306802666
 51
-87.35243729528193
  0
ARC
  5
75
330
36
100
AcDbEntity
  8
1
  6
Continuous
 62
     7
100
AcDbCircle
 10
274.3066463051566
 20
256.2755781299323
 30
0.0
 40
5.926355953201357
100
AcDbArc
 50
-152.8482326541361
 51
-128.3579306802673
  0
ARC
  5
76
330
36
100
AcDbEntity
  8
1
  6
Continuous
 62
     7
100
AcDbCircle
 10
273.2394867261829
 20
255.6333089597569
 30
0.0
 40
4.937258481435611
100
AcDbArc
 50
0.09174000870537
 51
5.05243810312362
  0
ARC
  5
77
330
36
100
AcDbEntity
  8
1
  6
Continuous
 62
     7
100
AcDbCircle
 10
273.161860047437
 20
255.6264459105283
 30
0.0
 40
5.015187954023598
100
AcDbArc
 50
5.05243810312234
 51
40.07428910507996
  0
ARC
  5
78
330
36
100
AcDbEntity
  8
1
  6
Continuous
 62
     7
100
AcDbCircle
 10
273.161860047437
 20
255.6559827352337
 30
0.0
 40
5.015187954023523
100
AcDbArc
 50
-40.07428910507971
 51
-5.05243810312331
  0
ARC
  5
79
330
36
100
AcDbEntity
  8
1
  6
Continuous
 62
     7
100
AcDbCircle
 10
273.3797676532804
 20
255.4726545514071
 30
0.0
 40
4.7304197190156
100
AcDbArc
 50
-89.99738598454833
 51
-40.07428910507952
  0
ARC
  5
7A
330
36
100
AcDbEntity
  8
1
  6
Continuous
 62
     7
100
AcDbCircle
 10
272.8799834700533
 20
258.941214322881
 30
0.0
 40
15.80000000000005
100
AcDbArc
 50
-114.2923335669549
 51
-65.70766643304506
  0
ARC
  5
7B
330
36
100
AcDbEntity
  8
1
  6
Continuous
 62
     7
100
AcDbCircle
 10
272.8799834700533
 20
252.3412143228809
 30
0.0
 40
15.80000000000005
100
AcDbArc
 50
65.70766643304506
 51
114.2923335669549
  0
SPLINE
  5
7C
330
36
100
AcDbEntity
  8
1
  6
Continuous
 62
     7
100
AcDbSpline
210
0.0
220
0.0
230
1.0
 70
    11
 71
     3
 72
    79
 73
    75
 74
    73
 42
0.0000000001
 43
0.0000000001
 44
0.00000001
 40
0.0
 40
0.0
 40
0.0
 40
0.0
 40
0.2164388510899676
 40
0.4330213901588913
 40
0.6664029452428583
 40
0.8999556959143626
 40
1.162342903951835
 40
1.424792811758864
 40
1.721818249127161
 40
2.018877338058212
 40
2.350956324596098
 40
2.683053254537352
 40
3.046836484610686
 40
3.410630989668793
 40
3.800174953577276
 40
4.189725686088149
 40
4.597341509202304
 40
5.004961006155314
 40
5.421874691173358
 40
5.838789536562598
 40
6.255704381951838
 40
6.672618066969996
 40
7.080237563923063
 40
7.487853387037218
 40
7.877404119548036
 40
8.266948083456519
 40
8.630742588514627
 40
8.99452581858796
 40
9.326622748529266
 40
9.658701735067051
 40
9.955760823998197
 40
10.2527862613665
 40
10.51523616917348
 40
10.77762337721099
 40
11.01117612788252
 40
11.24455768296646
 40
11.46114022203537
 40
11.67757907312534
 40
11.89401792421539
 40
12.1106004632843
 40
12.34398201836824
 40
12.57753476903978
 40
12.83992197707723
 40
13.10237188488422
 40
13.3993973222525
 40
13.69645641118365
 40
14.02853539772151
 40
14.36063232766275
 40
14.72441555773605
 40
15.08821006279422
 40
15.47775402670272
 40
15.86730475921353
 40
16.27492058232775
 40
16.68254007928075
 40
17.0994537642989
 40
17.51636860968814
 40
17.93328345507738
 40
18.35019714009543
 40
18.75781663704843
 40
19.16543246016259
 40
19.5549831926734
 40
19.94452715658195
 40
20.30832166164007
 40
20.67210489171342
 40
21.00420182165473
 40
21.33628080819257
 40
21.63333989712361
 40
21.93036533449191
 40
22.19281524229892
 40
22.45520245033634
 40
22.68875520100787
 40
22.92213675609181
 40
23.13871929516074
 40
23.35515814625079
 40
23.35515814625079
 40
23.35515814625079
 40
23.35515814625079
 10
268.5841519467406
 20
245.6819221793599
 30
0.0
 10
268.5878945180368
 20
245.609700853295
 30
0.0
 10
268.5953821452227
 20
245.4652102553535
 30
0.0
 10
268.653594867246
 20
245.2492746031519
 30
0.0
 10
268.7453250419204
 20
245.0399542911689
 30
0.0
 10
268.8747045233697
 20
244.833225770595
 30
0.0
 10
269.0353503049739
 20
244.63720840874
 30
0.0
 10
269.2322902666127
 20
244.4460945912313
 30
0.0
 10
269.4560897048181
 20
244.2680862437308
 30
0.0
 10
269.7140447933327
 20
244.0978874739207
 30
0.0
 10
269.9945993493114
 20
243.9424715157584
 30
0.0
 10
270.3055584638573
 20
243.7979783279683
 30
0.0
 10
270.6348642705947
 20
243.6695664726154
 30
0.0
 10
270.989348194842
 20
243.5549255600582
 30
0.0
 10
271.3578005383006
 20
243.4573769376601
 30
0.0
 10
271.7450498933972
 20
243.3759019092317
 30
0.0
 10
272.1417268435939
 20
243.3122521543007
 30
0.0
 10
272.5500046423554
 20
243.2662766328206
 30
0.0
 10
272.9630338149248
 20
243.238573232668
 30
0.0
 10
273.3799834700541
 20
243.2293620342583
 30
0.0
 10
273.7969331251784
 20
243.2385732326679
 30
0.0
 10
274.2099622977634
 20
243.2662766328207
 30
0.0
 10
274.6182400964692
 20
243.3122521543007
 30
0.0
 10
275.0149170468699
 20
243.3759019092317
 30
0.0
 10
275.402166401237
 20
243.4573769376602
 30
0.0
 10
275.7706187473323
 20
243.5549255600582
 30
0.0
 10
276.1251026623605
 20
243.6695664726154
 30
0.0
 10
276.4544085020149
 20
243.7979783279683
 30
0.0
 10
276.7653675039006
 20
243.9424715157582
 30
0.0
 10
277.0459224575529
 20
244.0978874739209
 30
0.0
 10
277.3038762105676
 20
244.2680862437308
 30
0.0
 10
277.5276803229422
 20
244.4460945912313
 30
0.0
 10
277.7246047657453
 20
244.63720840874
 30
0.0
 10
277.8853048225716
 20
244.833225770595
 30
0.0
 10
278.014502871297
 20
245.039954291169
 30
0.0
 10
278.1068767127946
 20
245.2492746031518
 30
0.0
 10
278.1628516948416
 20
245.4652102553536
 30
0.0
 10
278.1822944918453
 20
245.6819221793599
 30
0.0
 10
278.1628516948416
 20
245.8986341033664
 30
0.0
 10
278.1068767127947
 20
246.1145697555679
 30
0.0
 10
278.0145028712971
 20
246.3238900675511
 30
0.0
 10
277.8853048225716
 20
246.5306185881248
 30
0.0
 10
277.7246047657453
 20
246.7266359499799
 30
0.0
 10
277.5276803229423
 20
246.9177497674885
 30
0.0
 10
277.3038762105676
 20
247.0957581149889
 30
0.0
 10
277.0459224575529
 20
247.2659568847989
 30
0.0
 10
276.7653675039005
 20
247.4213728429616
 30
0.0
 10
276.4544085020149
 20
247.5658660307516
 30
0.0
 10
276.1251026623605
 20
247.6942778861045
 30
0.0
 10
275.7706187473323
 20
247.8089187986616
 30
0.0
 10
275.402166401237
 20
247.9064674210599
 30
0.0
 10
275.0149170468699
 20
247.9879424494882
 30
0.0
 10
274.6182400964691
 20
248.0515922044194
 30
0.0
 10
274.2099622977632
 20
248.0975677258992
 30
0.0
 10
273.7969331251786
 20
248.1252711260519
 30
0.0
 10
273.3799834700541
 20
248.1344823244614
 30
0.0
 10
272.9630338149248
 20
248.125271126052
 30
0.0
 10
272.5500046423554
 20
248.0975677258993
 30
0.0
 10
272.1417268435939
 20
248.0515922044193
 30
0.0
 10
271.7450498933972
 20
247.9879424494883
 30
0.0
 10
271.3578005383007
 20
247.9064674210598
 30
0.0
 10
270.989348194842
 20
247.8089187986618
 30
0.0
 10
270.6348642705947
 20
247.6942778861045
 30
0.0
 10
270.3055584638573
 20
247.5658660307516
 30
0.0
 10
269.9945993493112
 20
247.4213728429616
 30
0.0
 10
269.7140447933328
 20
247.2659568847989
 30
0.0
 10
269.4560897048182
 20
247.095758114989
 30
0.0
 10
269.2322902666127
 20
246.9177497674885
 30
0.0
 10
269.0353503049739
 20
246.7266359499799
 30
0.0
 10
268.8747045233697
 20
246.5306185881249
 30
0.0
 10
268.7453250419204
 20
246.3238900675509
 30
0.0
 10
268.653594867246
 20
246.114569755568
 30
0.0
 10
268.5953821452226
 20
245.8986341033663
 30
0.0
 10
268.5878945180369
 20
245.7541435054249
 30
0.0
 10
268.5841519467406
 20
245.6819221793599
 30
0.0
 11
268.5841519467406
 21
245.6819221793599
 31
0.0
 11
268.6029592196335
 21
245.4663019976805
 31
0.0
 11
268.6570114037546
 21
245.2565727493118
 31
0.0
 11
268.7503405377312
 21
245.0426647714227
 31
0.0
 11
268.8733759770639
 21
244.8441473464585
 31
0.0
 11
269.0389839794822
 21
244.6406257592086
 31
0.0
 11
269.2266715385943
 21
244.4571773079683
 31
0.0
 11
269.4586404161958
 21
244.2716657173111
 31
0.0
 11
269.7061633814848
 21
244.1074205226446
 31
0.0
 11
269.9963594930687
 21
243.945981152844
 31
0.0
 11
270.2972823887238
 21
243.8055041734239
 31
0.0
 11
270.636053548267
 21
243.6729434705579
 31
0.0
 11
270.982067708397
 21
243.5606018358003
 31
0.0
 11
271.3585647597416
 21
243.4606294888922
 31
0.0
 11
271.7397124850842
 21
243.3801547433758
 31
0.0
 11
272.1421542998222
 21
243.3154149178936
 31
0.0
 11
272.5471960656325
 21
243.2696456897432
 31
0.0
 11
272.9631714158423
 21
243.2416898536243
 31
0.0
 11
273.3799834700533
 21
243.2324324365767
 31
0.0
 11
273.7967955242642
 21
243.2416898536243
 31
0.0
 11
274.2127708744742
 21
243.2696456897432
 31
0.0
 11
274.6178126402846
 21
243.3154149178936
 31
0.0
 11
275.0202544550225
 21
243.3801547433758
 31
0.0
 11
275.401402180365
 21
243.4606294888922
 31
0.0
 11
275.7778992317097
 21
243.5606018358003
 31
0.0
 11
276.1239133918397
 21
243.6729434705579
 31
0.0
 11
276.4626845513829
 21
243.8055041734239
 31
0.0
 11
276.763607447038
 21
243.945981152844
 31
0.0
 11
277.0538035586218
 21
244.1074205226446
 31
0.0
 11
277.301326523911
 21
244.2716657173111
 31
0.0
 11
277.5332954015124
 21
244.4571773079683
 31
0.0
 11
277.7209829606244
 21
244.6406257592086
 31
0.0
 11
277.8865909630428
 21
244.8441473464585
 31
0.0
 11
278.0096264023756
 21
245.0426647714228
 31
0.0
 11
278.1029555363521
 21
245.2565727493118
 31
0.0
 11
278.1570077204731
 21
245.4663019976805
 31
0.0
 11
278.1758149933661
 21
245.6819221793599
 31
0.0
 11
278.1570077204731
 21
245.8975423610394
 31
0.0
 11
278.1029555363521
 21
246.1072716094081
 31
0.0
 11
278.0096264023756
 21
246.3211795872972
 31
0.0
 11
277.8865909630428
 21
246.5196970122614
 31
0.0
 11
277.7209829606245
 21
246.7232185995113
 31
0.0
 11
277.5332954015124
 21
246.9066670507515
 31
0.0
 11
277.301326523911
 21
247.0921786414087
 31
0.0
 11
277.0538035586218
 21
247.2564238360752
 31
0.0
 11
276.7636074470379
 21
247.4178632058759
 31
0.0
 11
276.4626845513829
 21
247.5583401852959
 31
0.0
 11
276.1239133918397
 21
247.6909008881619
 31
0.0
 11
275.7778992317097
 21
247.8032425229196
 31
0.0
 11
275.401402180365
 21
247.9032148698278
 31
0.0
 11
275.0202544550225
 21
247.9836896153441
 31
0.0
 11
274.6178126402845
 21
248.0484294408264
 31
0.0
 11
274.2127708744742
 21
248.0941986689767
 31
0.0
 11
273.7967955242642
 21
248.1221545050956
 31
0.0
 11
273.3799834700533
 21
248.1314119221431
 31
0.0
 11
272.9631714158423
 21
248.1221545050956
 31
0.0
 11
272.5471960656325
 21
248.0941986689767
 31
0.0
 11
272.1421542998222
 21
248.0484294408264
 31
0.0
 11
271.7397124850842
 21
247.9836896153441
 31
0.0
 11
271.3585647597417
 21
247.9032148698278
 31
0.0
 11
270.982067708397
 21
247.8032425229196
 31
0.0
 11
270.636053548267
 21
247.6909008881619
 31
0.0
 11
270.2972823887238
 21
247.5583401852959
 31
0.0
 11
269.9963594930687
 21
247.4178632058758
 31
0.0
 11
269.7061633814848
 21
247.2564238360752
 31
0.0
 11
269.4586404161958
 21
247.0921786414087
 31
0.0
 11
269.2266715385943
 21
246.9066670507515
 31
0.0
 11
269.0389839794822
 21
246.7232185995112
 31
0.0
 11
268.8733759770639
 21
246.5196970122614
 31
0.0
 11
268.7503405377312
 21
246.3211795872971
 31
0.0
 11
268.6570114037546
 21
246.1072716094081
 31
0.0
 11
268.6029592196335
 21
245.8975423610394
 31
0.0
 11
268.5841519467406
 21
245.6819221793599
 31
0.0
  0
SPLINE
  5
7D
330
36
100
AcDbEntity
  8
1
  6
Continuous
 62
     7
100
AcDbSpline
210
0.0
220
0.0
230
1.0
 70
    11
 71
     3
 72
    79
 73
    75
 74
    73
 42
0.0000000001
 43
0.0000000001
 44
0.00000001
 40
0.0
 40
0.0
 40
0.0
 40
0.0
 40
0.2164388510899393
 40
0.433021390158863
 40
0.666402945242804
 40
0.8999556959143567
 40
1.16234290395182
 40
1.424792811758828
 40
1.721818249127179
 40
2.018877338058199
 40
2.350956324596071
 40
2.683053254537337
 40
3.046836484610671
 40
3.410630989668778
 40
3.80017495357726
 40
4.18972568608814
 40
4.597341509202304
 40
5.004961006155311
 40
5.421874691173355
 40
5.838789536562594
 40
6.255704381951833
 40
6.672618066969987
 40
7.080237563923051
 40
7.487853387037214
 40
7.877404119548026
 40
8.266948083456523
 40
8.630742588514648
 40
8.994525818587961
 40
9.326622748529255
 40
9.658701735067055
 40
9.955760823998155
 40
10.25278626136652
 40
10.51523616917348
 40
10.77762337721099
 40
11.01117612788254
 40
11.24455768296648
 40
11.46114022203532
 40
11.67757907312532
 40
11.89401792421526
 40
12.11060046328423
 40
12.34398201836812
 40
12.57753476903967
 40
12.83992197707718
 40
13.10237188488419
 40
13.39939732225247
 40
13.69645641118361
 40
14.02853539772143
 40
14.3606323276627
 40
14.724415557736
 40
15.08821006279415
 40
15.47775402670263
 40
15.86730475921345
 40
16.27492058232767
 40
16.68254007928069
 40
17.09945376429884
 40
17.51636860968808
 40
17.93328345507732
 40
18.35019714009535
 40
18.75781663704837
 40
19.16543246016253
 40
19.55498319267337
 40
19.94452715658189
 40
20.30832166163998
 40
20.67210489171333
 40
21.00420182165465
 40
21.33628080819247
 40
21.63333989712356
 40
21.9303653344918
 40
22.19281524229877
 40
22.45520245033624
 40
22.68875520100779
 40
22.92213675609179
 40
23.13871929516071
 40
23.35515814625071
 40
23.35515814625071
 40
23.35515814625071
 40
23.35515814625071
 10
268.5841519467406
 20
265.600506466402
 30
0.0
 10
268.5878945180369
 20
265.672727792467
 30
0.0
 10
268.5953821452227
 20
265.8172183904085
 30
0.0
 10
268.6535948672459
 20
266.0331540426099
 30
0.0
 10
268.7453250419204
 20
266.2424743545929
 30
0.0
 10
268.8747045233698
 20
266.449202875167
 30
0.0
 10
269.0353503049739
 20
266.6452202370218
 30
0.0
 10
269.2322902666128
 20
266.8363340545308
 30
0.0
 10
269.4560897048181
 20
267.0143424020311
 30
0.0
 10
269.7140447933329
 20
267.1845411718412
 30
0.0
 10
269.9945993493112
 20
267.3399571300034
 30
0.0
 10
270.3055584638573
 20
267.4844503177938
 30
0.0
 10
270.6348642705947
 20
267.6128621731465
 30
0.0
 10
270.9893481948419
 20
267.7275030857038
 30
0.0
 10
271.3578005383007
 20
267.8250517081018
 30
0.0
 10
271.7450498933971
 20
267.9065267365302
 30
0.0
 10
272.1417268435939
 20
267.9701764914615
 30
0.0
 10
272.5500046423554
 20
268.0161520129413
 30
0.0
 10
272.9630338149247
 20
268.0438554130941
 30
0.0
 10
273.3799834700541
 20
268.0530666115036
 30
0.0
 10
273.7969331251785
 20
268.043855413094
 30
0.0
 10
274.2099622977632
 20
268.0161520129413
 30
0.0
 10
274.6182400964692
 20
267.9701764914614
 30
0.0
 10
275.0149170468699
 20
267.9065267365302
 30
0.0
 10
275.4021664012371
 20
267.8250517081019
 30
0.0
 10
275.7706187473324
 20
267.7275030857039
 30
0.0
 10
276.1251026623605
 20
267.6128621731464
 30
0.0
 10
276.4544085020149
 20
267.4844503177937
 30
0.0
 10
276.7653675039007
 20
267.3399571300038
 30
0.0
 10
277.0459224575528
 20
267.184541171841
 30
0.0
 10
277.3038762105678
 20
267.0143424020312
 30
0.0
 10
277.5276803229421
 20
266.8363340545306
 30
0.0
 10
277.7246047657454
 20
266.645220237022
 30
0.0
 10
277.8853048225716
 20
266.4492028751669
 30
0.0
 10
278.0145028712969
 20
266.242474354593
 30
0.0
 10
278.1068767127947
 20
266.0331540426099
 30
0.0
 10
278.1628516948413
 20
265.8172183904083
 30
0.0
 10
278.1822944918455
 20
265.6005064664022
 30
0.0
 10
278.1628516948414
 20
265.3837945423956
 30
0.0
 10
278.1068767127948
 20
265.1678588901941
 30
0.0
 10
278.0145028712969
 20
264.958538578211
 30
0.0
 10
277.8853048225717
 20
264.7518100576372
 30
0.0
 10
277.7246047657453
 20
264.5557926957821
 30
0.0
 10
277.5276803229422
 20
264.3646788782733
 30
0.0
 10
277.3038762105676
 20
264.1866705307729
 30
0.0
 10
277.0459224575529
 20
264.016471760963
 30
0.0
 10
276.7653675039006
 20
263.8610558028004
 30
0.0
 10
276.4544085020149
 20
263.7165626150104
 30
0.0
 10
276.1251026623606
 20
263.5881507596574
 30
0.0
 10
275.7706187473323
 20
263.4735098471002
 30
0.0
 10
275.402166401237
 20
263.3759612247023
 30
0.0
 10
275.01491704687
 20
263.2944861962737
 30
0.0
 10
274.618240096469
 20
263.2308364413427
 30
0.0
 10
274.2099622977634
 20
263.1848609198625
 30
0.0
 10
273.7969331251784
 20
263.1571575197101
 30
0.0
 10
273.3799834700541
 20
263.1479463213003
 30
0.0
 10
272.9630338149247
 20
263.1571575197102
 30
0.0
 10
272.5500046423554
 20
263.1848609198625
 30
0.0
 10
272.1417268435939
 20
263.2308364413427
 30
0.0
 10
271.745049893397
 20
263.2944861962737
 30
0.0
 10
271.3578005383007
 20
263.3759612247023
 30
0.0
 10
270.9893481948419
 20
263.4735098471003
 30
0.0
 10
270.6348642705947
 20
263.5881507596574
 30
0.0
 10
270.3055584638572
 20
263.7165626150103
 30
0.0
 10
269.9945993493113
 20
263.8610558028004
 30
0.0
 10
269.7140447933327
 20
264.0164717609629
 30
0.0
 10
269.4560897048182
 20
264.186670530773
 30
0.0
 10
269.2322902666126
 20
264.3646788782734
 30
0.0
 10
269.0353503049739
 20
264.5557926957819
 30
0.0
 10
268.8747045233697
 20
264.751810057637
 30
0.0
 10
268.7453250419203
 20
264.958538578211
 30
0.0
 10
268.6535948672461
 20
265.167858890194
 30
0.0
 10
268.5953821452226
 20
265.3837945423956
 30
0.0
 10
268.5878945180369
 20
265.5282851403371
 30
0.0
 10
268.5841519467406
 20
265.600506466402
 30
0.0
 11
268.5841519467406
 21
265.600506466402
 31
0.0
 11
268.6029592196335
 21
265.8161266480814
 31
0.0
 11
268.6570114037546
 21
266.0258558964501
 31
0.0
 11
268.7503405377312
 21
266.2397638743391
 31
0.0
 11
268.8733759770639
 21
266.4382812993034
 31
0.0
 11
269.0389839794823
 21
266.6418028865533
 31
0.0
 11
269.2266715385943
 21
266.8252513377936
 31
0.0
 11
269.4586404161958
 21
267.0107629284508
 31
0.0
 11
269.7061633814848
 21
267.1750081231173
 31
0.0
 11
269.9963594930687
 21
267.3364474929179
 31
0.0
 11
270.2972823887238
 21
267.476924472338
 31
0.0
 11
270.636053548267
 21
267.609485175204
 31
0.0
 11
270.982067708397
 21
267.7218268099616
 31
0.0
 11
271.3585647597416
 21
267.8217991568698
 31
0.0
 11
271.7397124850842
 21
267.9022739023861
 31
0.0
 11
272.1421542998222
 21
267.9670137278685
 31
0.0
 11
272.5471960656325
 21
268.0127829560188
 31
0.0
 11
272.9631714158423
 21
268.0407387921377
 31
0.0
 11
273.3799834700533
 21
268.0499962091852
 31
0.0
 11
273.7967955242642
 21
268.0407387921376
 31
0.0
 11
274.2127708744742
 21
268.0127829560188
 31
0.0
 11
274.6178126402846
 21
267.9670137278685
 31
0.0
 11
275.0202544550225
 21
267.9022739023861
 31
0.0
 11
275.401402180365
 21
267.8217991568698
 31
0.0
 11
275.7778992317097
 21
267.7218268099616
 31
0.0
 11
276.1239133918397
 21
267.6094851752039
 31
0.0
 11
276.4626845513829
 21
267.476924472338
 31
0.0
 11
276.763607447038
 21
267.336447492918
 31
0.0
 11
277.0538035586218
 21
267.1750081231173
 31
0.0
 11
277.3013265239109
 21
267.0107629284508
 31
0.0
 11
277.5332954015124
 21
266.8252513377936
 31
0.0
 11
277.7209829606244
 21
266.6418028865533
 31
0.0
 11
277.8865909630428
 21
266.4382812993034
 31
0.0
 11
278.0096264023756
 21
266.2397638743391
 31
0.0
 11
278.1029555363521
 21
266.0258558964501
 31
0.0
 11
278.1570077204731
 21
265.8161266480815
 31
0.0
 11
278.1758149933661
 21
265.600506466402
 31
0.0
 11
278.1570077204731
 21
265.3848862847226
 31
0.0
 11
278.1029555363521
 21
265.1751570363539
 31
0.0
 11
278.0096264023756
 21
264.9612490584649
 31
0.0
 11
277.8865909630428
 21
264.7627316335006
 31
0.0
 11
277.7209829606244
 21
264.5592100462507
 31
0.0
 11
277.5332954015124
 21
264.3757615950104
 31
0.0
 11
277.301326523911
 21
264.1902500043532
 31
0.0
 11
277.0538035586218
 21
264.0260048096867
 31
0.0
 11
276.7636074470379
 21
263.8645654398861
 31
0.0
 11
276.4626845513829
 21
263.724088460466
 31
0.0
 11
276.1239133918397
 21
263.5915277576
 31
0.0
 11
275.7778992317097
 21
263.4791861228424
 31
0.0
 11
275.401402180365
 21
263.3792137759343
 31
0.0
 11
275.0202544550225
 21
263.2987390304179
 31
0.0
 11
274.6178126402845
 21
263.2339992049356
 31
0.0
 11
274.2127708744742
 21
263.1882299767852
 31
0.0
 11
273.7967955242642
 21
263.1602741406664
 31
0.0
 11
273.3799834700533
 21
263.1510167236188
 31
0.0
 11
272.9631714158423
 21
263.1602741406664
 31
0.0
 11
272.5471960656325
 21
263.1882299767852
 31
0.0
 11
272.1421542998222
 21
263.2339992049356
 31
0.0
 11
271.7397124850842
 21
263.2987390304179
 31
0.0
 11
271.3585647597417
 21
263.3792137759343
 31
0.0
 11
270.982067708397
 21
263.4791861228424
 31
0.0
 11
270.636053548267
 21
263.5915277576
 31
0.0
 11
270.2972823887238
 21
263.724088460466
 31
0.0
 11
269.9963594930687
 21
263.8645654398861
 31
0.0
 11
269.7061633814848
 21
264.0260048096867
 31
0.0
 11
269.4586404161958
 21
264.1902500043533
 31
0.0
 11
269.2266715385943
 21
264.3757615950104
 31
0.0
 11
269.0389839794822
 21
264.5592100462506
 31
0.0
 11
268.8733759770639
 21
264.7627316335005
 31
0.0
 11
268.7503405377312
 21
264.9612490584648
 31
0.0
 11
268.6570114037546
 21
265.1751570363539
 31
0.0
 11
268.6029592196335
 21
265.3848862847225
 31
0.0
 11
268.5841519467406
 21
265.600506466402
 31
0.0
  0
ENDBLK
  5
38
330
36
100
AcDbEntity
  8
0
100
AcDbBlockEnd
  0
BLOCK
  5
3A
330
39
100
AcDbEntity
  8
0
100
AcDbBlockBegin
  2
28-1-13
 70
     0
 71
     0
 10
392.8027031091247
 20
282.5057499309596
 30
0.0
  3
28-1-13
  1

  0
ARC
  5
7E
330
39
100
AcDbEntity
  8
1
  6
Continuous
 62
     7
100
AcDbCircle
 10
140.1545200666412
 20
423.2850702006641
 30
0.0
 40
23.15
100
AcDbArc
 50
-63.02744086258215
 51
-116.9725591374179
  0
ENDBLK
  5
3B
330
39
100
AcDbEntity
  8
0
100
AcDbBlockEnd
  0
BLOCK
  5
3D
330
3C
100
AcDbEntity
  8
0
100
AcDbBlockBegin
  2
41-1-15
 70
     0
 71
     0
 10
235.2037664861109
 20
92.84955563945943
 30
0.0
  3
41-1-15
  1

  0
LINE
  5
7F
330
3C
100
AcDbEntity
  8
1
  6
Continuous
 62
     7
100
AcDbLine
 10
138.2456859905042
 20
262.1372017579458
 30
0.0
 11
141.8601425097332
 21
262.1372017579458
 31
0.0
  0
ENDBLK
  5
3E
330
3C
100
AcDbEntity
  8
0
100
AcDbBlockEnd
  0
BLOCK
  5
40
330
3F
100
AcDbEntity
  8
0
100
AcDbBlockBegin
  2
91-1
 70
     0
 71
     0
 10
201.0084710788957
 20
87.79096601021783
 30
0.0
  3
91-1
  1

  0
LINE
  5
80
330
3F
100
AcDbEntity
  8
1
  6
Continuous
 62
     7
100
AcDbLine
 10
135.0452444516195
 20
260.1372017579458
 30
0.0
 11
145.1147224884871
 21
260.1372017579458
 31
0.0
  0
LINE
  5
81
330
3F
100
AcDbEntity
  8
1
  6
Continuous
 62
     7
100
AcDbLine
 10
133.497846917677
 20
257.1372017579458
 30
0.0
 11
146.6621200224296
 21
257.1372017579458
 31
0.0
  0
ENDBLK
  5
41
330
3F
100
AcDbEntity
  8
0
100
AcDbBlockEnd
  0
BLOCK
  5
43
330
42
100
AcDbEntity
  8
0
100
AcDbBlockBegin
  2
37-1-13
 70
     0
 71
     0
 10
331.8812136868244
 20
137.6414958678012
 30
0.0
  3
37-1-13
  1

  0
LINE
  5
82
330
42
100
AcDbEntity
  8
1
  6
Continuous
 62
     7
100
AcDbLine
 10
127.7065862976488
 20
277.7412143228809
 30
0.0
 11
152.4533806424578
 21
277.7412143228809
 31
0.0
  0
LINE
  5
83
330
42
100
AcDbEntity
  8
1
  6
Continuous
 62
     7
100
AcDbLine
 10
227.7065862976489
 20
277.7412143228809
 30
0.0
 11
252.4533806424578
 21
277.7412143228809
 31
0.0
  0
LINE
  5
84
330
42
100
AcDbEntity
  8
1
  6
Continuous
 62
     7
100
AcDbLine
 10
127.7065862976488
 20
279.641214322881
 30
0.0
 11
127.7065862976488
 21
277.7412143228809
 31
0.0
  0
LINE
  5
85
330
42
100
AcDbEntity
  8
1
  6
Continuous
 62
     7
100
AcDbLine
 10
152.4533806424578
 20
279.641214322881
 30
0.0
 11
152.4533806424578
 21
277.7412143228809
 31
0.0
  0
ARC
  5
86
330
42
100
AcDbEntity
  8
1
  6
Continuous
 62
     7
100
AcDbCircle
 10
232.5799834700533
 20
281.2412143228809
 30
0.0
 40
5.999999999999894
100
AcDbArc
 50
-164.5339900465801
 51
-144.3146652873475
  0
ARC
  5
87
330
42
100
AcDbEntity
  8
1
  6
Continuous
 62
     7
100
AcDbCircle
 10
247.5799834700533
 20
281.2412143228809
 30
0.0
 40
6.000000000000022
100
AcDbArc
 50
-35.68533471265191
 51
-15.46600995341964
  0
SPLINE
  5
88
330
42
100
AcDbEntity
  8
1
  6
Continuous
 62
     7
100
AcDbSpline
210
0.0
220
0.0
230
1.0
 70
     8
 71
     3
 72
    59
 73
    55
 74
    53
 42
0.0000000001
 43
0.0000000001
 44
0.00000001
 40
0.0
 40
0.0
 40
0.0
 40
0.0
 40
0.2639003488901786
 40
0.5278698961393793
 40
0.699152095431643
 40
0.8704303567765588
 40
1.050498410350599
 40
1.230569964916512
 40
1.410680634974052
 40
1.590791763217925
 40
1.779291564385619
 40
1.967793008672777
 40
2.159887604911702
 40
2.351983245471402
 40
2.5440366098714
 40
2.736089023104797
 40
2.931725045737616
 40
3.127363515140086
 40
3.328102120986291
 40
3.528839438553504
 40
3.729587323548684
 40
3.93033831117568
 40
4.133754007864425
 40
4.337162612515738
 40
4.472822242318686
 40
4.608475642325134
 40
4.676241268584887
 40
4.744006111301018
 40
4.811770949703457
 40
4.879536580332714
 40
5.015190041741523
 40
5.150849609292757
 40
5.352920349747956
 40
5.554998392849898
 40
5.757087322387232
 40
5.959172813002747
 40
6.157346380052593
 40
6.355521413583608
 40
6.553723432686616
 40
6.751923376317546
 40
6.943976040880246
 40
7.136029161391293
 40
7.328124892854018
 40
7.520219329354968
 40
7.704496899652328
 40
7.888771873135906
 40
8.073104189154247
 40
8.257442619025841
 40
8.433091975798892
 40
8.608718491833322
 40
8.784401321572297
 40
8.960138901464909
 40
9.222789995939744
 40
9.485274621745914
 40
9.485274621745914
 40
9.485274621745914
 40
9.485274621745914
 10
142.1118977710578
 20
279.641214322881
 30
0.0
 10
142.1633277591121
 20
279.569794072637
 30
0.0
 10
142.2662012208821
 20
279.4269348447614
 30
0.0
 10
142.4204984560236
 20
279.2518064776352
 30
0.0
 10
142.5619867057974
 20
279.1073508891909
 30
0.0
 10
142.689494837906
 20
278.9885490299018
 30
0.0
 10
142.8242956442986
 20
278.8735426779725
 30
0.0
 10
142.9662970344886
 20
278.7627019931736
 30
0.0
 10
143.1128169999354
 20
278.6578912410403
 30
0.0
 10
143.2657915405163
 20
278.557535909691
 30
0.0
 10
143.4250359738681
 20
278.461902159385
 30
0.0
 10
143.5914274174349
 20
278.370702093018
 30
0.0
 10
143.7622872293919
 20
278.2854576247898
 30
0.0
 10
143.9373147100444
 20
278.206227412674
 30
0.0
 10
144.1151005321731
 20
278.1334402815647
 30
0.0
 10
144.2964746380791
 20
278.0666316324533
 30
0.0
 10
144.4812242678205
 20
278.0058780675668
 30
0.0
 10
144.6707456221798
 20
277.9507519344892
 30
0.0
 10
144.8636913349087
 20
277.9017231717602
 30
0.0
 10
145.0598640203574
 20
277.8589580345932
 30
0.0
 10
145.2573721950354
 20
277.8228425934972
 30
0.0
 10
145.4568523506001
 20
277.7931726133558
 30
0.0
 10
145.6580807618474
 20
277.7699733570437
 30
0.0
 10
145.8383391790682
 20
277.7551989093337
 30
0.0
 10
145.9963575802524
 20
277.7466081388639
 30
0.0
 10
146.1093339584736
 20
277.7429334708947
 30
0.0
 10
146.1997179807775
 20
277.741460029879
 30
0.0
 10
146.2674834686294
 20
277.7410907131001
 30
0.0
 10
146.3352489578536
 20
277.7414600229456
 30
0.0
 10
146.4256330012027
 20
277.7429334691956
 30
0.0
 10
146.5386093749754
 20
277.7466081922863
 30
0.0
 10
146.6961824657156
 20
277.7551747342258
 30
0.0
 10
146.8755529930041
 20
277.7698564669784
 30
0.0
 10
147.0763454286755
 20
277.7929388545649
 30
0.0
 10
147.2762769967371
 20
277.822609302464
 30
0.0
 10
147.4738263982241
 20
277.8587097409773
 30
0.0
 10
147.6687730389217
 20
277.9011619822284
 30
0.0
 10
147.860921628796
 20
277.9498521830307
 30
0.0
 10
148.051301793016
 20
278.0050902653054
 30
0.0
 10
148.2376901731265
 20
278.0663366205911
 30
0.0
 10
148.4198665581239
 20
278.1334400368526
 30
0.0
 10
148.5976525689663
 20
278.2062269727703
 30
0.0
 10
148.7726786931582
 20
278.2854598418682
 30
0.0
 10
148.9422786697301
 20
278.3700749881289
 30
0.0
 10
149.1062414557894
 20
278.4598404995491
 30
0.0
 10
149.2644038993111
 20
278.5545331263097
 30
0.0
 10
149.4186875950705
 20
278.6554650304765
 30
0.0
 10
149.5663516763494
 20
278.7609868742532
 30
0.0
 10
149.7072298584922
 20
278.8707499583526
 30
0.0
 10
149.8410730898764
 20
278.9845828832401
 30
0.0
 10
149.9697396162297
 20
279.1043220356017
 30
0.0
 10
150.1130094076785
 20
279.2504938590143
 30
0.0
 10
150.2692405860391
 20
279.424854520261
 30
0.0
 10
150.3686797396284
 20
279.5691096316902
 30
0.0
 10
150.4183835552561
 20
279.641214322881
 30
0.0
 11
142.1118977710578
 21
279.641214322881
 31
0.0
 11
142.2695926353059
 21
279.429611572582
 31
0.0
 11
142.4429682320584
 21
279.2305617689506
 31
0.0
 11
142.5629039739009
 21
279.1082792696996
 31
0.0
 11
142.6881592537151
 21
278.9914573638428
 31
0.0
 11
142.8251213663856
 21
278.8745561935717
 31
0.0
 11
142.9670377711431
 21
278.763716224136
 31
0.0
 11
143.1135010769042
 21
278.6588908763707
 31
0.0
 11
143.26407384026
 21
278.5600583844832
 31
0.0
 11
143.4256518596156
 21
278.4629773940609
 31
0.0
 11
143.5909339038997
 21
278.3723427409993
 31
0.0
 11
143.7628049476063
 21
278.2865483458479
 31
0.0
 11
143.9377895293364
 21
278.2072947574195
 31
0.0
 11
144.1155142409824
 21
278.1345044995019
 31
0.0
 11
144.295721099442
 21
278.0680995479326
 31
0.0
 11
144.4815573631394
 21
278.0069576110434
 31
0.0
 11
144.6694025852202
 21
277.9522896748142
 31
0.0
 11
144.8639544095599
 21
277.9028369142928
 31
0.0
 11
145.060082472593
 21
277.8600671404456
 31
0.0
 11
145.2575526355111
 21
277.8239389231198
 31
0.0
 11
145.4561165408506
 21
277.794386689202
 31
0.0
 11
145.6581933929988
 21
277.7710866573298
 31
0.0
 11
145.860922055129
 21
277.7544688958352
 31
0.0
 11
145.9963814248978
 21
277.7471004292288
 31
0.0
 11
146.1319629984118
 21
277.742686603591
 31
0.0
 11
146.199719630662
 21
277.7415825707581
 31
0.0
 11
146.2674834700533
 21
277.7412138170604
 31
0.0
 11
146.3352473051591
 21
277.7415825655624
 31
0.0
 11
146.4030039416947
 21
277.7426866035909
 31
0.0
 11
146.5385855752887
 21
277.7471004708492
 31
0.0
 11
146.6740448849776
 21
277.7544688958353
 31
0.0
 11
146.8754419712634
 21
277.7709551866163
 31
0.0
 11
147.0761975390511
 21
277.7940362937418
 31
0.0
 11
147.2760945194571
 21
277.8237201726349
 31
0.0
 11
147.4748844675135
 21
277.8600671404456
 31
0.0
 11
147.6685170806229
 21
277.9022473943292
 31
0.0
 11
147.8606167951785
 21
277.9509407571487
 31
0.0
 11
148.0509603437523
 21
278.0061980995826
 31
0.0
 11
148.2392458406644
 21
278.0680995479327
 31
0.0
 11
148.4194530055291
 21
278.1345043948722
 31
0.0
 11
148.5971774107701
 21
278.2072947574195
 31
0.0
 11
148.7721613211808
 21
278.2865500483697
 31
0.0
 11
148.9440330362068
 21
278.3723427409993
 31
0.0
 11
149.1056538851577
 21
278.4608691444001
 31
0.0
 11
149.2637383787086
 21
278.5555610593196
 31
0.0
 11
149.417972561165
 21
278.6565076773446
 31
0.0
 11
149.5679291689634
 21
278.7637162241361
 31
0.0
 11
149.7064427738489
 21
278.8717286206302
 31
0.0
 11
149.8401926818633
 21
278.98555144453
 31
0.0
 11
149.9687763040512
 21
279.1052623829197
 31
0.0
 11
150.0919987080481
 21
279.2305617689507
 31
0.0
 11
150.2648702796096
 21
279.4283015403036
 31
0.0
 11
150.4183835552561
 21
279.641214322881
 31
0.0
  0
SPLINE
  5
89
330
42
100
AcDbEntity
  8
1
  6
Continuous
 62
     7
100
AcDbSpline
210
0.0
220
0.0
230
1.0
 70
     8
 71
     3
 72
    59
 73
    55
 74
    53
 42
0.0000000001
 43
0.0000000001
 44
0.00000001
 40
0.0
 40
0.0
 40
0.0
 40
0.0
 40
0.2639003488901446
 40
0.527869896139364
 40
0.6991520954316078
 40
0.8704303567765444
 40
1.050498410350606
 40
1.230569964916497
 40
1.410680634974106
 40
1.590791763217955
 40
1.779291564385625
 40
1.967793008672807
 40
2.159887604911707
 40
2.351983245471407
 40
2.544036609871432
 40
2.736089023104856
 40
2.931725045737621
 40
3.127363515140118
 40
3.328102120986323
 40
3.528839438553536
 40
3.729587323548688
 40
3.930338311175684
 40
4.133754007864429
 40
4.337162612515741
 40
4.472822242318661
 40
4.608475642325109
 40
4.67624126858489
 40
4.744006111301022
 40
4.811770949703461
 40
4.879536580332689
 40
5.015190041741498
 40
5.150849609292703
 40
5.352920349747903
 40
5.554998392849901
 40
5.757087322387235
 40
5.959172813002778
 40
6.157346380052624
 40
6.355521413583611
 40
6.553723432686647
 40
6.751923376317577
 40
6.943976040880277
 40
7.136029161391324
 40
7.328124892854049
 40
7.520219329354999
 40
7.70449689965236
 40
7.888771873135912
 40
8.073104189154277
 40
8.257442619025872
 40
8.433091975798945
 40
8.60871849183331
 40
8.784401321572306
 40
8.960138901464937
 40
9.222789995939772
 40
9.485274621745926
 40
9.485274621745926
 40
9.485274621745926
 40
9.485274621745926
 10
138.0480691691341
 20
279.641214322881
 30
0.0
 10
137.9966391810799
 20
279.569794072637
 30
0.0
 10
137.8937657193099
 20
279.4269348447614
 30
0.0
 10
137.7394684841683
 20
279.2518064776352
 30
0.0
 10
137.5979802343946
 20
279.107350889191
 30
0.0
 10
137.470472102286
 20
278.9885490299018
 30
0.0
 10
137.3356712958933
 20
278.8735426779725
 30
0.0
 10
137.1936699057034
 20
278.7627019931734
 30
0.0
 10
137.0471499402565
 20
278.6578912410405
 30
0.0
 10
136.8941753996756
 20
278.557535909691
 30
0.0
 10
136.7349309663238
 20
278.4619021593849
 30
0.0
 10
136.568539522757
 20
278.370702093018
 30
0.0
 10
136.3976797108
 20
278.2854576247897
 30
0.0
 10
136.2226522301475
 20
278.206227412674
 30
0.0
 10
136.0448664080187
 20
278.1334402815646
 30
0.0
 10
135.8634923021128
 20
278.0666316324534
 30
0.0
 10
135.6787426723714
 20
278.0058780675668
 30
0.0
 10
135.4892213180121
 20
277.9507519344892
 30
0.0
 10
135.2962756052832
 20
277.9017231717602
 30
0.0
 10
135.1001029198345
 20
277.8589580345932
 30
0.0
 10
134.9025947451565
 20
277.8228425934971
 30
0.0
 10
134.7031145895918
 20
277.7931726133558
 30
0.0
 10
134.5018861783445
 20
277.7699733570437
 30
0.0
 10
134.3216277611237
 20
277.7551989093337
 30
0.0
 10
134.1636093599396
 20
277.7466081388639
 30
0.0
 10
134.0506329817184
 20
277.7429334708946
 30
0.0
 10
133.9602489594143
 20
277.741460029879
 30
0.0
 10
133.8924834715625
 20
277.7410907131001
 30
0.0
 10
133.8247179823383
 20
277.7414600229456
 30
0.0
 10
133.7343339389892
 20
277.7429334691956
 30
0.0
 10
133.6213575652166
 20
277.7466081922864
 30
0.0
 10
133.4637844744764
 20
277.7551747342258
 30
0.0
 10
133.2844139471878
 20
277.7698564669784
 30
0.0
 10
133.0836215115165
 20
277.7929388545649
 30
0.0
 10
132.8836899434548
 20
277.8226093024641
 30
0.0
 10
132.6861405419678
 20
277.8587097409773
 30
0.0
 10
132.4911939012702
 20
277.9011619822283
 30
0.0
 10
132.2990453113959
 20
277.9498521830307
 30
0.0
 10
132.1086651471759
 20
278.0050902653055
 30
0.0
 10
131.9222767670654
 20
278.0663366205911
 30
0.0
 10
131.7401003820679
 20
278.1334400368526
 30
0.0
 10
131.5623143712256
 20
278.2062269727703
 30
0.0
 10
131.3872882470337
 20
278.2854598418683
 30
0.0
 10
131.2176882704617
 20
278.3700749881289
 30
0.0
 10
131.0537254844025
 20
278.4598404995491
 30
0.0
 10
130.8955630408808
 20
278.5545331263097
 30
0.0
 10
130.7412793451214
 20
278.6554650304767
 30
0.0
 10
130.5936152638424
 20
278.760986874253
 30
0.0
 10
130.4527370816996
 20
278.8707499583526
 30
0.0
 10
130.3188938503155
 20
278.9845828832401
 30
0.0
 10
130.1902273239623
 20
279.1043220356018
 30
0.0
 10
130.0469575325134
 20
279.2504938590143
 30
0.0
 10
129.8907263541528
 20
279.424854520261
 30
0.0
 10
129.7912872005635
 20
279.5691096316903
 30
0.0
 10
129.7415833849358
 20
279.641214322881
 30
0.0
 11
138.0480691691341
 21
279.641214322881
 31
0.0
 11
137.890374304886
 21
279.429611572582
 31
0.0
 11
137.7169987081335
 21
279.2305617689506
 31
0.0
 11
137.5970629662911
 21
279.1082792696996
 31
0.0
 11
137.4718076864768
 21
278.9914573638428
 31
0.0
 11
137.3348455738063
 21
278.8745561935717
 31
0.0
 11
137.1929291690488
 21
278.763716224136
 31
0.0
 11
137.0464658632877
 21
278.6588908763707
 31
0.0
 11
136.8958930999319
 21
278.5600583844832
 31
0.0
 11
136.7343150805763
 21
278.4629773940609
 31
0.0
 11
136.5690330362922
 21
278.3723427409993
 31
0.0
 11
136.3971619925856
 21
278.2865483458479
 31
0.0
 11
136.2221774108555
 21
278.2072947574195
 31
0.0
 11
136.0444526992094
 21
278.1345044995019
 31
0.0
 11
135.8642458407499
 21
278.0680995479326
 31
0.0
 11
135.6784095770525
 21
278.0069576110434
 31
0.0
 11
135.4905643549717
 21
277.9522896748142
 31
0.0
 11
135.296012530632
 21
277.9028369142928
 31
0.0
 11
135.0998844675989
 21
277.8600671404456
 31
0.0
 11
134.9024143046808
 21
277.8239389231198
 31
0.0
 11
134.7038503993413
 21
277.794386689202
 31
0.0
 11
134.5017735471931
 21
277.7710866573298
 31
0.0
 11
134.2990448850629
 21
277.7544688958352
 31
0.0
 11
134.1635855152942
 21
277.7471004292288
 31
0.0
 11
134.0280039417801
 21
277.742686603591
 31
0.0
 11
133.96024730953
 21
277.7415825707581
 31
0.0
 11
133.8924834701386
 21
277.7412138170604
 31
0.0
 11
133.8247196350328
 21
277.7415825655624
 31
0.0
 11
133.7569629984973
 21
277.7426866035909
 31
0.0
 11
133.6213813649033
 21
277.7471004708492
 31
0.0
 11
133.4859220552143
 21
277.7544688958353
 31
0.0
 11
133.2845249689286
 21
277.7709551866163
 31
0.0
 11
133.0837694011408
 21
277.7940362937418
 31
0.0
 11
132.8838724207349
 21
277.8237201726349
 31
0.0
 11
132.6850824726784
 21
277.8600671404456
 31
0.0
 11
132.491449859569
 21
277.9022473943292
 31
0.0
 11
132.2993501450134
 21
277.9509407571487
 31
0.0
 11
132.1090065964396
 21
278.0061980995826
 31
0.0
 11
131.9207210995274
 21
278.0680995479327
 31
0.0
 11
131.7405139346627
 21
278.1345043948722
 31
0.0
 11
131.5627895294218
 21
278.2072947574195
 31
0.0
 11
131.3878056190111
 21
278.2865500483697
 31
0.0
 11
131.2159339039851
 21
278.3723427409993
 31
0.0
 11
131.0543130550342
 21
278.4608691444001
 31
0.0
 11
130.8962285614833
 21
278.5555610593196
 31
0.0
 11
130.7419943790269
 21
278.6565076773446
 31
0.0
 11
130.5920377712285
 21
278.7637162241361
 31
0.0
 11
130.4535241663429
 21
278.8717286206302
 31
0.0
 11
130.3197742583286
 21
278.98555144453
 31
0.0
 11
130.1911906361407
 21
279.1052623829197
 31
0.0
 11
130.0679682321438
 21
279.2305617689507
 31
0.0
 11
129.8950966605823
 21
279.4283015403036
 31
0.0
 11
129.7415833849358
 21
279.641214322881
 31
0.0
  0
SPLINE
  5
8A
330
42
100
AcDbEntity
  8
1
  6
Continuous
 62
     7
100
AcDbSpline
210
0.0
220
0.0
230
1.0
 70
     8
 71
     3
 72
    75
 73
    71
 74
    69
 42
0.0000000001
 43
0.0000000001
 44
0.00000001
 40
0.0
 40
0.0
 40
0.0
 40
0.0
 40
0.2234546935381494
 40
0.4469379722622041
 40
0.5861327440835409
 40
0.725326251116555
 40
0.8645619814769867
 40
1.003798092057516
 40
1.140104149776516
 40
1.276407205500267
 40
1.406700083462716
 40
1.536993992073427
 40
1.667254074200868
 40
1.797511102913231
 40
1.922254040577121
 40
2.046991767045033
 40
2.128766698544701
 40
2.210529734487895
 40
2.253477058068312
 40
2.29642353608553
 40
2.335068823945017
 40
2.373715312263744
 40
2.455525006927985
 40
2.537341465480903
 40
2.616918627002802
 40
2.696487655979342
 40
2.737349175742641
 40
2.778209239530729
 40
2.816717251846484
 40
2.855226695531813
 40
2.934822917082819
 40
3.014426787050826
 40
3.093238222460463
 40
3.172041445828908
 40
3.211333696857786
 40
3.250624479885609
 40
3.289915262913376
 40
3.329207513942195
 40
3.408010737310394
 40
3.486822172720355
 40
3.566426042689452
 40
3.646022264239536
 40
3.684531707923377
 40
3.723039720240526
 40
3.763899784033451
 40
3.804761303791996
 40
3.884330332722675
 40
3.963907494288966
 40
4.045723953023805
 40
4.127533647512179
 40
4.166180135585128
 40
4.204825423686146
 40
4.247771902642062
 40
4.29071922530354
 40
4.372482252770785
 40
4.454257192388468
 40
4.578994975652974
 40
4.703737860510828
 40
4.833994684708969
 40
4.964254953755541
 40
5.094549501759587
 40
5.224841804741848
 40
5.361142834362623
 40
5.497450659523158
 40
5.636692613024931
 40
5.775923481113884
 40
5.915102383991999
 40
6.054308326671546
 40
6.27728071451129
 40
6.500169648075551
 40
6.500169648075551
 40
6.500169648075551
 40
6.500169648075551
 10
253.1963989424592
 20
279.641214322881
 30
0.0
 10
253.1678114612269
 20
279.5724129459098
 30
0.0
 10
253.1106328417414
 20
279.4348013906298
 30
0.0
 10
253.022619552733
 20
279.2601675049681
 30
0.0
 10
252.9405751070815
 20
279.1143505742327
 30
0.0
 10
252.8674986304548
 20
278.9958166871044
 30
0.0
 10
252.7897265500901
 20
278.8802979653848
 30
0.0
 10
252.7077763597891
 20
278.7688915164185
 30
0.0
 10
252.621773924639
 20
278.661834154728
 30
0.0
 10
252.5331467187727
 20
278.5608692841162
 30
0.0
 10
252.4415281722779
 20
278.4653726517774
 30
0.0
 10
252.3472030453608
 20
278.3754402762276
 30
0.0
 10
252.24885533882
 20
278.2899392080198
 30
0.0
 10
252.1479712735167
 20
278.2103930677483
 30
0.0
 10
252.0448127935521
 20
278.1369572905649
 30
0.0
 10
251.9518255687144
 20
278.0773260367786
 30
0.0
 10
251.8688866425335
 20
278.0287696412552
 30
0.0
 10
251.8083232866853
 20
277.9960339156744
 30
0.0
 10
251.758443870679
 20
277.9708236018134
 30
0.0
 10
251.7210480502785
 20
277.952793303696
 30
0.0
 10
251.6846444889873
 20
277.9360215908014
 30
0.0
 10
251.6361153741447
 20
277.9146273629442
 30
0.0
 10
251.5737313142717
 20
277.8890093300477
 30
0.0
 10
251.4976792093885
 20
277.8608874147842
 30
0.0
 10
251.4213796869661
 20
277.8357374853949
 30
0.0
 10
251.3573243933685
 20
277.8171911906823
 30
0.0
 10
251.3052712014959
 20
277.8037267642389
 30
0.0
 10
251.2662824957552
 20
277.7944415528549
 30
0.0
 10
251.2278940091801
 20
277.786051241238
 30
0.0
 10
251.1766984058102
 20
277.775825504715
 30
0.0
 10
251.1117236231393
 20
277.7647035289598
 30
0.0
 10
251.033061499828
 20
277.7542381618738
 30
0.0
 10
250.9543279753028
 20
277.7467295328665
 30
0.0
 10
250.8887830892365
 20
277.7429634258147
 30
0.0
 10
250.8363397921378
 20
277.741463380775
 30
0.0
 10
250.7970478418858
 20
277.7410897962601
 30
0.0
 10
250.7577558916338
 20
277.741463380775
 30
0.0
 10
250.7053125945352
 20
277.7429634258146
 30
0.0
 10
250.639767708469
 20
277.7467295328666
 30
0.0
 10
250.5610341839433
 20
277.7542381618738
 30
0.0
 10
250.4823720606317
 20
277.7647035289593
 30
0.0
 10
250.4173972779613
 20
277.7758255047145
 30
0.0
 10
250.3662016745923
 20
277.7860512412393
 30
0.0
 10
250.3278131880153
 20
277.7944415528558
 30
0.0
 10
250.2888244822729
 20
277.8037267642347
 30
0.0
 10
250.2367712904155
 20
277.8171911906762
 30
0.0
 10
250.1727159968336
 20
277.8357374854373
 30
0.0
 10
250.096416474354
 20
277.8608874148371
 30
0.0
 10
250.0203643693652
 20
277.8890093298595
 30
0.0
 10
249.9579803095764
 20
277.914627362773
 30
0.0
 10
249.9094511949973
 20
277.9360215910798
 30
0.0
 10
249.8730476333742
 20
277.952793303982
 30
0.0
 10
249.8356518122058
 20
277.9708236006967
 30
0.0
 10
249.7857723989025
 20
277.9960339137637
 30
0.0
 10
249.725209050268
 20
278.0287696520301
 30
0.0
 10
249.6422701069955
 20
278.0773260540079
 30
0.0
 10
249.5492828159427
 20
278.1369572098827
 30
0.0
 10
249.4461243975544
 20
278.2103929714737
 30
0.0
 10
249.3452406983037
 20
278.2899395446341
 30
0.0
 10
249.2468927732789
 20
278.3754406295737
 30
0.0
 10
249.1525660320253
 20
278.465371418323
 30
0.0
 10
249.0609482851754
 20
278.5608680569727
 30
0.0
 10
248.9723280647308
 20
278.6618388014912
 30
0.0
 10
248.8863232176138
 20
278.7688958896825
 30
0.0
 10
248.8043419962696
 20
278.8802808848128
 30
0.0
 10
248.7265832969589
 20
278.9958036557465
 30
0.0
 10
248.6536124943362
 20
279.1144049974295
 30
0.0
 10
248.5716839560022
 20
279.2600638242525
 30
0.0
 10
248.4825746642689
 20
279.4338227489209
 30
0.0
 10
248.4278682006338
 20
279.5720924251221
 30
0.0
 10
248.4005200886686
 20
279.641214322881
 30
0.0
 11
253.1963989424592
 21
279.641214322881
 31
0.0
 11
253.1081534967848
 21
279.4359224784693
 31
0.0
 11
253.0081288586587
 21
279.2360729159555
 31
0.0
 11
252.9397742118566
 21
279.114817702612
 31
0.0
 11
252.8667249008921
 21
278.9963329754622
 31
0.0
 11
252.7889351092076
 21
278.8808542461712
 31
0.0
 11
252.7064061911268
 21
278.7687129416933
 31
0.0
 11
252.6210133900128
 21
278.6624707142655
 31
0.0
 11
252.5310672001336
 21
278.5600587719646
 31
0.0
 11
252.4408447660092
 21
278.4660579930934
 31
0.0
 11
252.3465228011545
 21
278.3761698984033
 31
0.0
 11
252.2481896259748
 21
278.2907399525124
 31
0.0
 11
252.1458754578175
 21
278.2101254096355
 31
0.0
 11
252.0442466420727
 21
278.1377901878737
 31
0.0
 11
251.9392383481414
 21
278.0704644230431
 31
0.0
 11
251.8686542770125
 21
278.0291724344176
 31
0.0
 11
251.7967130996385
 21
277.9903180775874
 31
0.0
 11
251.7583842487896
 21
277.9709435635207
 31
0.0
 11
251.7197002709309
 21
277.9522901501302
 31
0.0
 11
251.6846012224131
 21
277.9361187226457
 31
0.0
 11
251.6492389060311
 21
277.9205284167003
 31
0.0
 11
251.5735577508656
 21
277.8894609273607
 31
0.0
 11
251.4968157673195
 21
277.861095440382
 31
0.0
 11
251.421233088993
 21
277.8361999915432
 31
0.0
 11
251.3447981732392
 21
277.8140881389302
 31
0.0
 11
251.3052389363524
 21
277.8038543432364
 31
0.0
 11
251.2654907568725
 21
277.7943871873383
 31
0.0
 11
251.2278708544788
 21
277.7861646599654
 31
0.0
 11
251.190107373642
 21
277.7786216653318
 31
0.0
 11
251.1116521341128
 21
277.7651928204218
 31
0.0
 11
251.032743368528
 21
277.754696019587
 31
0.0
 11
250.9542870429289
 21
277.7472229128159
 31
0.0
 11
250.8756130174333
 21
277.7427122891818
 31
0.0
 11
250.8363368446021
 21
277.741588350282
 31
0.0
 11
250.7970478418858
 21
277.7412143228809
 31
0.0
 11
250.7577588391695
 21
277.741588350282
 31
0.0
 11
250.7184826663384
 21
277.7427122891817
 31
0.0
 11
250.639808640843
 21
277.7472229128159
 31
0.0
 11
250.5613523152435
 21
277.7546960195869
 31
0.0
 11
250.4824435496576
 21
277.7651928204214
 31
0.0
 11
250.4039883101294
 21
277.7786216653319
 31
0.0
 11
250.3662248292943
 21
277.7861646599661
 31
0.0
 11
250.328604926899
 21
277.7943871873383
 31
0.0
 11
250.2888567474136
 21
277.8038543432342
 31
0.0
 11
250.2492975105323
 21
277.8140881389303
 31
0.0
 11
250.1728625948327
 21
277.8361999915656
 31
0.0
 11
250.0972799164521
 21
277.861095440382
 31
0.0
 11
250.0205379326774
 21
277.889460927267
 31
0.0
 11
249.9448567777404
 21
277.9205284167002
 31
0.0
 11
249.9094944616863
 21
277.9361187227801
 31
0.0
 11
249.8743954128406
 21
277.9522901501301
 31
0.0
 11
249.8357114336829
 21
277.9709435629877
 31
0.0
 11
249.797382584133
 21
277.9903180775874
 31
0.0
 11
249.7254414191336
 21
278.0291724394937
 31
0.0
 11
249.6548573356301
 21
278.0704644230431
 31
0.0
 11
249.5498489501549
 21
278.137790150322
 31
0.0
 11
249.448220225954
 21
278.2101254096355
 31
0.0
 11
249.3459064425057
 21
278.2907401103214
 31
0.0
 11
249.2475728826171
 21
278.3761698984033
 31
0.0
 11
249.1532494676551
 21
278.4660573982545
 31
0.0
 11
249.0630284836379
 21
278.5600587719645
 31
0.0
 11
248.9730880551632
 21
278.6624730776131
 31
0.0
 11
248.8876894926447
 21
278.7687129416933
 31
0.0
 11
248.8051383102945
 21
278.8808451132925
 31
0.0
 11
248.7273707828794
 21
278.9963329754623
 31
0.0
 11
248.654404786647
 21
279.1148518785967
 31
0.0
 11
248.585966825113
 21
279.2360729159556
 31
0.0
 11
248.4858634189828
 21
279.4353114509333
 31
0.0
 11
248.4005200886686
 21
279.641214322881
 31
0.0
  0
SPLINE
  5
8B
330
42
100
AcDbEntity
  8
1
  6
Continuous
 62
     7
100
AcDbSpline
210
0.0
220
0.0
230
1.0
 70
     8
 71
     3
 72
    55
 73
    51
 74
    49
 42
0.0000000001
 43
0.0000000001
 44
0.00000001
 40
0.0
 40
0.0
 40
0.0
 40
0.0
 40
0.2801473619091554
 40
0.5605129600692125
 40
0.7446669491262985
 40
0.9287572531805292
 40
1.127082595982527
 40
1.325437941159801
 40
1.530519052463241
 40
1.735593233636909
 40
1.940589653728525
 40
2.145586718645725
 40
2.35730031716008
 40
2.569017664265785
 40
2.791769576897236
 40
3.01452011365364
 40
3.237293924410831
 40
3.460070351896093
 40
3.690700159360936
 40
3.921328775088276
 40
4.154014070369632
 40
4.386701389452901
 40
4.619373816188221
 40
4.8520443962533
 40
5.086762937828468
 40
5.321483665507371
 40
5.556204407522693
 40
5.790922933273925
 40
6.023593435257511
 40
6.256265944359431
 40
6.488953589562861
 40
6.721638543157727
 40
6.948323906841696
 40
7.175011264886269
 40
7.40173105765748
 40
7.628447430310898
 40
7.845653353646881
 40
8.062861337101843
 40
8.280123518547841
 40
8.497381433782005
 40
8.702377244666062
 40
8.907374786008276
 40
9.112454703831462
 40
9.317530464102205
 40
9.508706164924044
 40
9.699879891745136
 40
9.891167831653455
 40
10.08246221755953
 40
10.36445242186103
 40
10.64635108188232
 40
10.64635108188232
 40
10.64635108188232
 40
10.64635108188232
 10
244.8731327365577
 20
279.641214322881
 30
0.0
 10
244.8148691354084
 20
279.5681183820404
 30
0.0
 10
244.6982965454618
 20
279.4218695582416
 30
0.0
 10
244.5191130375342
 20
279.2493024546604
 30
0.0
 10
244.3570773481871
 20
279.1062018204891
 30
0.0
 10
244.2101180211402
 20
278.9874597768596
 30
0.0
 10
244.0543678872821
 20
278.8723901643019
 30
0.0
 10
243.8880563268677
 20
278.7601456527717
 30
0.0
 10
243.7154502202785
 20
278.6535078180707
 30
0.0
 10
243.5369052623839
 20
278.5525747250489
 30
0.0
 10
243.354795514545
 20
278.4582960225233
 30
0.0
 10
243.1674666866045
 20
278.3695733427533
 30
0.0
 10
242.975126652845
 20
278.2864896810545
 30
0.0
 10
242.7746086919636
 20
278.2077275065499
 30
0.0
 10
242.5681550546619
 20
278.1343274129116
 30
0.0
 10
242.3559074371249
 20
278.0665811546592
 30
0.0
 10
242.1416089468304
 20
278.0056103639113
 30
0.0
 10
241.9230006506562
 20
277.9505860895
 30
0.0
 10
241.7002823952586
 20
277.9015780101869
 30
0.0
 10
241.4729469819618
 20
277.8586720913488
 30
0.0
 10
241.2437585493516
 20
277.8224425946752
 30
0.0
 10
241.0129371234633
 20
277.7928261173466
 30
0.0
 10
240.7813719070906
 20
277.7697923127446
 30
0.0
 10
240.5485705092929
 20
277.753295001243
 30
0.0
 10
240.314711290376
 20
277.7434037731041
 30
0.0
 10
240.0799834650233
 20
277.740119574984
 30
0.0
 10
239.8452556464521
 20
277.7434038437127
 30
0.0
 10
239.6113964539534
 20
277.7532950341758
 30
0.0
 10
239.3785950456143
 20
277.7697921083523
 30
0.0
 10
239.1470297127922
 20
277.7928259981425
 30
0.0
 10
238.9162083960406
 20
277.8224433172608
 30
0.0
 10
238.6883183478446
 20
277.8584673221375
 30
0.0
 10
238.4635563121894
 20
277.9008256138989
 30
0.0
 10
238.2420848168262
 20
277.9493771852542
 30
0.0
 10
238.0221569333008
 20
278.0045500316879
 30
0.0
 10
237.8070900254911
 20
278.0656776182213
 30
0.0
 10
237.5970858639857
 20
278.1326105545161
 30
0.0
 10
237.3922844558873
 20
278.2051331940168
 30
0.0
 10
237.1899425375789
 20
278.2843141886855
 30
0.0
 10
236.9941712805124
 20
278.3687825189493
 30
0.0
 10
236.80517401155
 20
278.4583002941999
 30
0.0
 10
236.6230612776907
 20
278.5525771683215
 30
0.0
 10
236.4445087734626
 20
278.6534974374129
 30
0.0
 10
236.2739398300844
 20
278.7588807829922
 30
0.0
 10
236.111547318486
 20
278.8683786893614
 30
0.0
 10
235.9574295853821
 20
278.981644776235
 30
0.0
 10
235.8081731139784
 20
279.1013467509915
 30
0.0
 10
235.6419699598394
 20
279.2478487792552
 30
0.0
 10
235.4619829211955
 20
279.4243999882655
 30
0.0
 10
235.3416789136785
 20
279.568950700349
 30
0.0
 10
235.2815366752696
 20
279.641214322881
 30
0.0
 11
244.8731327365577
 21
279.641214322881
 31
0.0
 11
244.6937706565522
 21
279.4260125834811
 31
0.0
 11
244.4944059786753
 21
279.2288867509611
 31
0.0
 11
244.356180619788
 21
279.107205027411
 31
0.0
 11
244.2130310696929
 21
278.991457688978
 31
0.0
 11
244.0535632394521
 21
278.873546906113
 31
0.0
 11
243.8892052788201
 21
278.7625005025815
 31
0.0
 11
243.7147722944615
 21
278.654651551816
 31
0.0
 11
243.5362842311571
 21
278.5536692214711
 31
0.0
 11
243.3542593525135
 21
278.4593799017941
 31
0.0
 11
243.1690112781041
 21
278.3715906794927
 31
0.0
 11
242.9746783212325
 21
278.2875826461303
 31
0.0
 11
242.7776387019167
 21
278.2101254096356
 31
0.0
 11
242.5677678342374
 21
278.1354753360892
 31
0.0
 11
242.3555743574378
 21
278.06771303072
 31
0.0
 11
242.1413160375667
 21
278.0067085790357
 31
0.0
 11
241.9252883281437
 21
277.9522901501301
 31
0.0
 11
241.7000508793587
 21
277.9027099145912
 31
0.0
 11
241.4734262808359
 21
277.8599214846515
 31
0.0
 11
241.2435992172645
 21
277.8235626137899
 31
0.0
 11
241.0128074133303
 21
277.7939225783823
 31
0.0
 11
240.7812778441511
 21
277.7708896289707
 31
0.0
 11
240.5491894084607
 21
277.7544410166713
 31
0.0
 11
240.3146810626752
 21
277.7445097772651
 31
0.0
 11
240.0799834700533
 21
277.7412143228809
 31
0.0
 11
239.8452858638377
 21
277.7445098302625
 31
0.0
 11
239.610777531646
 21
277.7544410166714
 31
0.0
 11
239.3786891630957
 21
277.7708894718249
 31
0.0
 11
239.1471595267765
 21
277.7939225783824
 31
0.0
 11
238.9163674679718
 21
277.8235631894257
 31
0.0
 11
238.6865406592708
 21
277.8599214846516
 31
0.0
 11
238.4637796644368
 21
277.9019190237356
 31
0.0
 11
238.2423542888925
 21
277.9504778680617
 31
0.0
 11
238.0224592444472
 21
278.0056868697066
 31
0.0
 11
237.804392582669
 21
278.0677130307199
 31
0.0
 11
237.5974530979799
 21
278.1337013843047
 31
0.0
 11
237.3927140094277
 21
278.2062356086088
 31
0.0
 11
237.190413296765
 21
278.2854648780918
 31
0.0
 11
236.9909556620027
 21
278.3715906794927
 31
0.0
 11
236.8057103190808
 21
278.4593827372529
 31
0.0
 11
236.6236827089496
 21
278.5536692214712
 31
0.0
 11
236.4451848298187
 21
278.6546458516394
 31
0.0
 11
236.2707616612865
 21
278.7625005025815
 31
0.0
 11
236.1122904941798
 21
278.8694352386617
 31
0.0
 11
235.9582752182048
 21
278.9826902102657
 31
0.0
 11
235.809135894937
 21
279.1024755942221
 31
0.0
 11
235.6655609614314
 21
279.2288867509609
 31
0.0
 11
235.465484939943
 21
279.4276027818879
 31
0.0
 11
235.2815366752696
 21
279.641214322881
 31
0.0
  0
SPLINE
  5
8C
330
42
100
AcDbEntity
  8
1
  6
Continuous
 62
     7
100
AcDbSpline
210
0.0
220
0.0
230
1.0
 70
     8
 71
     3
 72
    75
 73
    71
 74
    69
 42
0.0000000001
 43
0.0000000001
 44
0.00000001
 40
0.0
 40
0.0
 40
0.0
 40
0.0
 40
0.2234546935381606
 40
0.4469379722622408
 40
0.5861327440835635
 40
0.7253262511165926
 40
0.8645619814770401
 40
1.003798092057502
 40
1.140104149776573
 40
1.276407205500306
 40
1.406700083462774
 40
1.536993992073464
 40
1.667254074200862
 40
1.79751110291327
 40
1.922254040577206
 40
2.046991767045022
 40
2.128766698544716
 40
2.210529734487834
 40
2.253477058068277
 40
2.296423536085495
 40
2.33506882394506
 40
2.373715312263813
 40
2.455525006928001
 40
2.537341465480946
 40
2.616918627002818
 40
2.696487655979358
 40
2.737349175742629
 40
2.778209239530662
 40
2.816717251846445
 40
2.855226695531746
 40
2.93482291708278
 40
3.014426787050816
 40
3.093238222460368
 40
3.17204144582887
 40
3.211333696857804
 40
3.250624479885543
 40
3.289915262913394
 40
3.329207513942185
 40
3.40801073731047
 40
3.486822172720374
 40
3.566426042689471
 40
3.646022264239611
 40
3.684531707923423
 40
3.723039720240434
 40
3.763899784033414
 40
3.804761303791959
 40
3.884330332722665
 40
3.963907494289037
 40
4.045723953023822
 40
4.127533647512171
 40
4.166180135585094
 40
4.204825423686086
 40
4.247771902642053
 40
4.290719225303531
 40
4.372482252770777
 40
4.454257192388484
 40
4.578994975652942
 40
4.703737860510819
 40
4.833994684708915
 40
4.96425495375553
 40
5.094549501759535
 40
5.224841804741796
 40
5.361142834362627
 40
5.497450659523181
 40
5.636692613024904
 40
5.77592348111392
 40
5.91510238399199
 40
6.054308326671579
 40
6.277280714511285
 40
6.500169648075535
 40
6.500169648075535
 40
6.500169648075535
 40
6.500169648075535
 10
226.9635679976474
 20
279.641214322881
 30
0.0
 10
226.9921554788798
 20
279.5724129459098
 30
0.0
 10
227.0493340983653
 20
279.4348013906299
 30
0.0
 10
227.1373473873736
 20
279.2601675049681
 30
0.0
 10
227.2193918330251
 20
279.1143505742327
 30
0.0
 10
227.292468309652
 20
278.9958166871044
 30
0.0
 10
227.3702403900165
 20
278.8802979653847
 30
0.0
 10
227.4521905803175
 20
278.7688915164186
 30
0.0
 10
227.5381930154678
 20
278.661834154728
 30
0.0
 10
227.6268202213339
 20
278.5608692841162
 30
0.0
 10
227.7184387678289
 20
278.4653726517773
 30
0.0
 10
227.812763894746
 20
278.3754402762276
 30
0.0
 10
227.9111116012867
 20
278.2899392080198
 30
0.0
 10
228.01199566659
 20
278.2103930677482
 30
0.0
 10
228.1151541465545
 20
278.136957290565
 30
0.0
 10
228.2081413713922
 20
278.0773260367787
 30
0.0
 10
228.2910802975732
 20
278.0287696412552
 30
0.0
 10
228.3516436534213
 20
277.9960339156744
 30
0.0
 10
228.4015230694276
 20
277.9708236018134
 30
0.0
 10
228.4389188898281
 20
277.9527933036959
 30
0.0
 10
228.4753224511195
 20
277.9360215908015
 30
0.0
 10
228.5238515659621
 20
277.9146273629442
 30
0.0
 10
228.586235625835
 20
277.8890093300477
 30
0.0
 10
228.6622877307181
 20
277.8608874147842
 30
0.0
 10
228.7385872531406
 20
277.8357374853949
 30
0.0
 10
228.8026425467382
 20
277.8171911906821
 30
0.0
 10
228.8546957386107
 20
277.8037267642389
 30
0.0
 10
228.8936844443514
 20
277.7944415528548
 30
0.0
 10
228.9320729309266
 20
277.786051241238
 30
0.0
 10
228.9832685342964
 20
277.7758255047149
 30
0.0
 10
229.0482433169672
 20
277.76470352896
 30
0.0
 10
229.1269054402786
 20
277.7542381618738
 30
0.0
 10
229.205638964804
 20
277.7467295328665
 30
0.0
 10
229.27118385087
 20
277.7429634258147
 30
0.0
 10
229.3236271479689
 20
277.741463380775
 30
0.0
 10
229.3629190982209
 20
277.7410897962601
 30
0.0
 10
229.4022110484728
 20
277.741463380775
 30
0.0
 10
229.4546543455716
 20
277.7429634258146
 30
0.0
 10
229.5201992316376
 20
277.7467295328665
 30
0.0
 10
229.5989327561634
 20
277.7542381618738
 30
0.0
 10
229.677594879475
 20
277.7647035289593
 30
0.0
 10
229.7425696621453
 20
277.7758255047145
 30
0.0
 10
229.7937652655146
 20
277.7860512412391
 30
0.0
 10
229.8321537520912
 20
277.794441552856
 30
0.0
 10
229.8711424578338
 20
277.8037267642346
 30
0.0
 10
229.9231956496911
 20
277.8171911906762
 30
0.0
 10
229.9872509432732
 20
277.8357374854374
 30
0.0
 10
230.0635504657527
 20
277.8608874148371
 30
0.0
 10
230.1396025707415
 20
277.8890093298595
 30
0.0
 10
230.2019866305303
 20
277.9146273627731
 30
0.0
 10
230.2505157451093
 20
277.9360215910797
 30
0.0
 10
230.2869193067325
 20
277.9527933039821
 30
0.0
 10
230.3243151279008
 20
277.9708236006967
 30
0.0
 10
230.3741945412042
 20
277.9960339137637
 30
0.0
 10
230.4347578898387
 20
278.0287696520301
 30
0.0
 10
230.5176968331112
 20
278.0773260540079
 30
0.0
 10
230.6106841241639
 20
278.1369572098827
 30
0.0
 10
230.7138425425523
 20
278.2103929714738
 30
0.0
 10
230.8147262418029
 20
278.2899395446341
 30
0.0
 10
230.9130741668277
 20
278.3754406295736
 30
0.0
 10
231.0074009080814
 20
278.465371418323
 30
0.0
 10
231.0990186549311
 20
278.5608680569727
 30
0.0
 10
231.1876388753758
 20
278.6618388014912
 30
0.0
 10
231.2736437224929
 20
278.7688958896824
 30
0.0
 10
231.3556249438369
 20
278.8802808848128
 30
0.0
 10
231.4333836431478
 20
278.9958036557464
 30
0.0
 10
231.5063544457704
 20
279.1144049974296
 30
0.0
 10
231.5882829841046
 20
279.2600638242523
 30
0.0
 10
231.6773922758376
 20
279.433822748921
 30
0.0
 10
231.7320987394728
 20
279.5720924251221
 30
0.0
 10
231.759446851438
 20
279.641214322881
 30
0.0
 11
226.9635679976474
 21
279.641214322881
 31
0.0
 11
227.0518134433218
 21
279.4359224784693
 31
0.0
 11
227.151838081448
 21
279.2360729159555
 31
0.0
 11
227.2201927282501
 21
279.114817702612
 31
0.0
 11
227.2932420392146
 21
278.9963329754622
 31
0.0
 11
227.3710318308992
 21
278.8808542461712
 31
0.0
 11
227.4535607489798
 21
278.7687129416933
 31
0.0
 11
227.5389535500939
 21
278.6624707142655
 31
0.0
 11
227.6288997399731
 21
278.5600587719646
 31
0.0
 11
227.7191221740976
 21
278.4660579930934
 31
0.0
 11
227.8134441389522
 21
278.3761698984033
 31
0.0
 11
227.9117773141318
 21
278.2907399525124
 31
0.0
 11
228.0140914822892
 21
278.2101254096355
 31
0.0
 11
228.1157202980341
 21
278.1377901878737
 31
0.0
 11
228.2207285919652
 21
278.0704644230431
 31
0.0
 11
228.2913126630942
 21
278.0291724344176
 31
0.0
 11
228.3632538404681
 21
277.9903180775874
 31
0.0
 11
228.401582691317
 21
277.9709435635207
 31
0.0
 11
228.4402666691757
 21
277.9522901501302
 31
0.0
 11
228.4753657176936
 21
277.9361187226457
 31
0.0
 11
228.5107280340756
 21
277.9205284167003
 31
0.0
 11
228.5864091892411
 21
277.8894609273607
 31
0.0
 11
228.6631511727873
 21
277.861095440382
 31
0.0
 11
228.7387338511137
 21
277.8361999915432
 31
0.0
 11
228.8151687668675
 21
277.8140881389302
 31
0.0
 11
228.8547280037542
 21
277.8038543432364
 31
0.0
 11
228.8944761832341
 21
277.7943871873383
 31
0.0
 11
228.9320960856278
 21
277.7861646599654
 31
0.0
 11
228.9698595664646
 21
277.7786216653318
 31
0.0
 11
229.0483148059938
 21
277.7651928204218
 31
0.0
 11
229.1272235715786
 21
277.754696019587
 31
0.0
 11
229.2056798971777
 21
277.7472229128159
 31
0.0
 11
229.2843539226734
 21
277.7427122891818
 31
0.0
 11
229.3236300955046
 21
277.741588350282
 31
0.0
 11
229.3629190982208
 21
277.7412143228809
 31
0.0
 11
229.4022081009372
 21
277.741588350282
 31
0.0
 11
229.4414842737683
 21
277.7427122891817
 31
0.0
 11
229.5201582992638
 21
277.7472229128159
 31
0.0
 11
229.5986146248632
 21
277.7546960195869
 31
0.0
 11
229.6775233904491
 21
277.7651928204214
 31
0.0
 11
229.7559786299773
 21
277.7786216653319
 31
0.0
 11
229.7937421108125
 21
277.7861646599661
 31
0.0
 11
229.8313620132076
 21
277.7943871873383
 31
0.0
 11
229.8711101926931
 21
277.8038543432342
 31
0.0
 11
229.9106694295743
 21
277.8140881389303
 31
0.0
 11
229.987104345274
 21
277.8361999915656
 31
0.0
 11
230.0626870236546
 21
277.861095440382
 31
0.0
 11
230.1394290074293
 21
277.889460927267
 31
0.0
 11
230.2151101623663
 21
277.9205284167002
 31
0.0
 11
230.2504724784203
 21
277.9361187227801
 31
0.0
 11
230.285571527266
 21
277.9522901501301
 31
0.0
 11
230.3242555064238
 21
277.9709435629877
 31
0.0
 11
230.3625843559736
 21
277.9903180775874
 31
0.0
 11
230.434525520973
 21
278.0291724394937
 31
0.0
 11
230.5051096044766
 21
278.0704644230431
 31
0.0
 11
230.6101179899517
 21
278.137790150322
 31
0.0
 11
230.7117467141526
 21
278.2101254096355
 31
0.0
 11
230.8140604976009
 21
278.2907401103214
 31
0.0
 11
230.9123940574896
 21
278.3761698984033
 31
0.0
 11
231.0067174724515
 21
278.4660573982545
 31
0.0
 11
231.0969384564687
 21
278.5600587719645
 31
0.0
 11
231.1868788849435
 21
278.6624730776131
 31
0.0
 11
231.272277447462
 21
278.7687129416933
 31
0.0
 11
231.3548286298121
 21
278.8808451132925
 31
0.0
 11
231.4325961572273
 21
278.9963329754623
 31
0.0
 11
231.5055621534597
 21
279.1148518785967
 31
0.0
 11
231.5740001149938
 21
279.2360729159556
 31
0.0
 11
231.6741035211239
 21
279.4353114509333
 31
0.0
 11
231.759446851438
 21
279.641214322881
 31
0.0
  0
ENDBLK
  5
44
330
42
100
AcDbEntity
  8
0
100
AcDbBlockEnd
  0
BLOCK
  5
49
330
45
100
AcDbEntity
  8
0
100
AcDbBlockBegin
  2
R10A
 70
     0
 71
     0
 10
240.0799834700533
 20
257.1372017579458
 30
0.0
  3
R10A
  1

  0
INSERT
  5
46
330
45
100
AcDbEntity
  8
0
100
AcDbBlockReference
  2
41-1-15
 10
235.2037664861109
 20
92.84955563945943
 30
0.0
  0
INSERT
  5
47
330
45
100
AcDbEntity
  8
0
100
AcDbBlockReference
  2
91-1
 10
201.0084710788957
 20
87.79096601021783
 30
0.0
  0
INSERT
  5
48
330
45
100
AcDbEntity
  8
0
100
AcDbBlockReference
  2
37-1-13
 10
331.8812136868244
 20
137.6414958678012
 30
0.0
  0
ENDBLK
  5
4A
330
45
100
AcDbEntity
  8
0
100
AcDbBlockEnd
  0
BLOCK
  5
4C
330
4B
100
AcDbEntity
  8
0
100
AcDbBlockBegin
  2
B24-1
 70
     0
 71
     0
 10
312.0799834700533
 20
201.1412143228809
 30
0.0
  3
B24-1
  1

  0
LINE
  5
8D
330
4B
100
AcDbEntity
  8
1
  6
Continuous
 62
     7
100
AcDbLine
 10
266.3799834700533
 20
264.141214322881
 30
0.0
 11
265.0799834700533
 21
264.141214322881
 31
0.0
  0
LINE
  5
8E
330
4B
100
AcDbEntity
  8
1
  6
Continuous
 62
     7
100
AcDbLine
 10
228.5799834700533
 20
277.7412143228809
 30
0.0
 11
228.5799834700533
 21
276.141214322881
 31
0.0
  0
LINE
  5
8F
330
4B
100
AcDbEntity
  8
1
  6
Continuous
 62
     2
100
AcDbLine
 10
229.2149834700533
 20
277.7412143228809
 30
0.0
 11
229.2149834700533
 21
276.141214322881
 31
0.0
  0
LINE
  5
90
330
4B
100
AcDbEntity
  8
1
  6
Continuous
 62
     2
100
AcDbLine
 10
250.9449834700533
 20
277.7412143228809
 30
0.0
 11
250.9449834700533
 21
276.141214322881
 31
0.0
  0
LINE
  5
91
330
4B
100
AcDbEntity
  8
1
  6
Continuous
 62
     7
100
AcDbLine
 10
128.5799834700533
 20
277.7412143228809
 30
0.0
 11
128.5799834700533
 21
276.141214322881
 31
0.0
  0
LINE
  5
92
330
4B
100
AcDbEntity
  8
1
  6
Continuous
 62
     2
100
AcDbLine
 10
129.2149834700533
 20
277.7412143228809
 30
0.0
 11
129.2149834700533
 21
276.141214322881
 31
0.0
  0
LINE
  5
93
330
4B
100
AcDbEntity
  8
1
  6
Continuous
 62
     2
100
AcDbLine
 10
150.9449834700533
 20
277.7412143228809
 30
0.0
 11
150.9449834700533
 21
276.141214322881
 31
0.0
  0
LINE
  5
94
330
4B
100
AcDbEntity
  8
1
  6
Continuous
 62
     7
100
AcDbLine
 10
129.2149834700533
 20
276.141214322881
 30
0.0
 11
128.5799834700533
 21
276.141214322881
 31
0.0
  0
LINE
  5
95
330
4B
100
AcDbEntity
  8
1
  6
Continuous
 62
     7
100
AcDbLine
 10
126.5799834700533
 20
255.641214322881
 30
0.0
 11
129.0799834700533
 21
267.141214322881
 31
0.0
  0
LINE
  5
96
330
4B
100
AcDbEntity
  8
1
  6
Continuous
 62
     7
100
AcDbLine
 10
151.0799834700533
 20
266.891214322881
 30
0.0
 11
153.5799834700533
 21
255.641214322881
 31
0.0
  0
LINE
  5
97
330
4B
100
AcDbEntity
  8
1
  6
Continuous
 62
     7
100
AcDbLine
 10
129.0799834700533
 20
267.141214322881
 30
0.0
 11
129.0799834700533
 21
275.0413620600747
 31
0.0
  0
LINE
  5
98
330
4B
100
AcDbEntity
  8
1
  6
Continuous
 62
     2
100
AcDbLine
 10
150.9449834700533
 20
276.141214322881
 30
0.0
 11
151.0799834700533
 21
275.0413620600747
 31
0.0
  0
LINE
  5
99
330
4B
100
AcDbEntity
  8
1
  6
Continuous
 62
     7
100
AcDbLine
 10
151.0799834700533
 20
275.0413620600747
 30
0.0
 11
151.5799834700533
 21
276.141214322881
 31
0.0
  0
LINE
  5
9A
330
4B
100
AcDbEntity
  8
1
  6
Continuous
 62
     7
100
AcDbLine
 10
128.5799834700533
 20
276.141214322881
 30
0.0
 11
129.0799834700533
 21
275.0413620600747
 31
0.0
  0
LINE
  5
9B
330
4B
100
AcDbEntity
  8
1
  6
Continuous
 62
     7
100
AcDbLine
 10
150.9449834700533
 20
276.141214322881
 30
0.0
 11
129.2149834700533
 21
276.141214322881
 31
0.0
  0
LINE
  5
9C
330
4B
100
AcDbEntity
  8
1
  6
Continuous
 62
     2
100
AcDbLine
 10
129.0799834700533
 20
275.0413620600747
 30
0.0
 11
129.2149834700533
 21
276.141214322881
 31
0.0
  0
LINE
  5
9D
330
4B
100
AcDbEntity
  8
1
  6
Continuous
 62
     7
100
AcDbLine
 10
150.9449834700533
 20
276.141214322881
 30
0.0
 11
151.5799834700533
 21
276.141214322881
 31
0.0
  0
LINE
  5
9E
330
4B
100
AcDbEntity
  8
1
  6
Continuous
 62
     7
100
AcDbLine
 10
151.5799834700533
 20
276.141214322881
 30
0.0
 11
151.5799834700533
 21
277.7412143228809
 31
0.0
  0
LINE
  5
9F
330
4B
100
AcDbEntity
  8
1
  6
Continuous
 62
     7
100
AcDbLine
 10
151.0799834700533
 20
275.0413620600747
 30
0.0
 11
151.0799834700533
 21
266.891214322881
 31
0.0
  0
LINE
  5
A0
330
4B
100
AcDbEntity
  8
1
  6
Continuous
 62
     7
100
AcDbLine
 10
133.3770808149926
 20
256.4372017579458
 30
0.0
 11
146.7828861251139
 21
256.4372017579458
 31
0.0
  0
LINE
  5
A1
330
4B
100
AcDbEntity
  8
1
  6
Continuous
 62
     7
100
AcDbLine
 10
149.6545200666411
 20
341.2850702006639
 30
0.0
 11
130.6545200666411
 21
341.2850702006639
 31
0.0
  0
LINE
  5
A2
330
4B
100
AcDbEntity
  8
1
  6
Continuous
 62
     7
100
AcDbLine
 10
130.6545200666411
 20
340.2850702006639
 30
0.0
 11
149.6545200666411
 21
340.2850702006639
 31
0.0
  0
LINE
  5
A3
330
4B
100
AcDbEntity
  8
1
  6
Continuous
 62
     2
100
AcDbLine
 10
130.6545200666411
 20
340.2850702006639
 30
0.0
 11
130.6545200666411
 21
341.2850702006639
 31
0.0
  0
LINE
  5
A4
330
4B
100
AcDbEntity
  8
1
  6
Continuous
 62
     2
100
AcDbLine
 10
149.6545200666411
 20
340.2850702006639
 30
0.0
 11
149.6545200666411
 21
341.2850702006639
 31
0.0
  0
LINE
  5
A5
330
4B
100
AcDbEntity
  8
1
  6
Continuous
 62
     7
100
AcDbLine
 10
129.6545200666411
 20
341.2850702006639
 30
0.0
 11
130.6545200666411
 21
340.2850702006639
 31
0.0
  0
LINE
  5
A6
330
4B
100
AcDbEntity
  8
1
  6
Continuous
 62
     7
100
AcDbLine
 10
150.6545200666411
 20
341.2850702006639
 30
0.0
 11
149.6545200666411
 21
340.2850702006639
 31
0.0
  0
LINE
  5
A7
330
4B
100
AcDbEntity
  8
1
  6
Continuous
 62
     7
100
AcDbLine
 10
129.6545200666411
 20
341.2850702006639
 30
0.0
 11
130.6545200666411
 21
341.2850702006639
 31
0.0
  0
LINE
  5
A8
330
4B
100
AcDbEntity
  8
1
  6
Continuous
 62
     2
100
AcDbLine
 10
130.6545200666411
 20
341.2850702006639
 30
0.0
 11
130.6545200666411
 21
344.6200185093786
 31
0.0
  0
LINE
  5
A9
330
4B
100
AcDbEntity
  8
1
  6
Continuous
 62
     7
100
AcDbLine
 10
150.6545200666411
 20
341.2850702006639
 30
0.0
 11
149.6545200666411
 21
341.2850702006639
 31
0.0
  0
LINE
  5
AA
330
4B
100
AcDbEntity
  8
1
  6
Continuous
 62
     2
100
AcDbLine
 10
149.6545200666411
 20
341.2850702006639
 30
0.0
 11
149.6545200666411
 21
344.5273879037104
 31
0.0
  0
LINE
  5
AB
330
4B
100
AcDbEntity
  8
1
  6
Continuous
 62
     7
100
AcDbLine
 10
229.0799834700533
 20
267.141214322881
 30
0.0
 11
229.0799834700533
 21
275.0413620600747
 31
0.0
  0
LINE
  5
AC
330
4B
100
AcDbEntity
  8
1
  6
Continuous
 62
     7
100
AcDbLine
 10
131.9045200666411
 20
387.2850702006639
 30
0.0
 11
131.9045200666411
 21
379.5502288219654
 31
0.0
  0
LINE
  5
AD
330
4B
100
AcDbEntity
  8
1
  6
Continuous
 62
     7
100
AcDbLine
 10
265.0799834700533
 20
247.391214322881
 30
0.0
 11
265.0799834700533
 21
247.141214322881
 31
0.0
  0
LINE
  5
AE
330
4B
100
AcDbEntity
  8
1
  6
Continuous
 62
     7
100
AcDbLine
 10
265.0799834700533
 20
247.391214322881
 30
0.0
 11
265.0799834700533
 21
264.141214322881
 31
0.0
  0
LINE
  5
AF
330
4B
100
AcDbEntity
  8
1
  6
Continuous
 62
     7
100
AcDbLine
 10
258.5173775375457
 20
247.391214322881
 30
0.0
 11
265.0799834700533
 21
247.391214322881
 31
0.0
  0
LINE
  5
B0
330
4B
100
AcDbEntity
  8
1
  6
Continuous
 62
     7
100
AcDbLine
 10
265.0799834700533
 20
247.141214322881
 30
0.0
 11
266.3799834700533
 21
247.141214322881
 31
0.0
  0
LINE
  5
B1
330
4B
100
AcDbEntity
  8
1
  6
Continuous
 62
     7
100
AcDbLine
 10
265.0799834700533
 20
263.891214322881
 30
0.0
 11
254.0799834700533
 21
263.891214322881
 31
0.0
  0
LINE
  5
B2
330
4B
100
AcDbEntity
  8
1
  6
Continuous
 62
     7
100
AcDbLine
 10
226.2235770095023
 20
246.141214322881
 30
0.0
 11
226.019747286229
 21
246.141214322881
 31
0.0
  0
LINE
  5
B3
330
4B
100
AcDbEntity
  8
1
  6
Continuous
 62
     7
100
AcDbLine
 10
227.0799834700533
 20
265.141214322881
 30
0.0
 11
226.019747286229
 21
265.141214322881
 31
0.0
  0
LINE
  5
B4
330
4B
100
AcDbEntity
  8
1
  6
Continuous
 62
     2
100
AcDbLine
 10
250.9449834700533
 20
276.141214322881
 30
0.0
 11
251.0799834700533
 21
275.0413620600747
 31
0.0
  0
LINE
  5
B5
330
4B
100
AcDbEntity
  8
1
  6
Continuous
 62
     7
100
AcDbLine
 10
251.0799834700533
 20
275.0413620600747
 30
0.0
 11
251.5799834700533
 21
276.141214322881
 31
0.0
  0
LINE
  5
B6
330
4B
100
AcDbEntity
  8
1
  6
Continuous
 62
     7
100
AcDbLine
 10
228.5799834700533
 20
276.141214322881
 30
0.0
 11
229.0799834700533
 21
275.0413620600747
 31
0.0
  0
LINE
  5
B7
330
4B
100
AcDbEntity
  8
1
  6
Continuous
 62
     2
100
AcDbLine
 10
216.0799834700533
 20
265.141214322881
 30
0.0
 11
217.0799834700533
 21
265.141214322881
 31
0.0
  0
LINE
  5
B8
330
4B
100
AcDbEntity
  8
1
  6
Continuous
 62
     2
100
AcDbLine
 10
216.0799834700533
 20
246.141214322881
 30
0.0
 11
217.0799834700533
 21
246.141214322881
 31
0.0
  0
LINE
  5
B9
330
4B
100
AcDbEntity
  8
1
  6
Continuous
 62
     7
100
AcDbLine
 10
217.0799834700533
 20
266.141214322881
 30
0.0
 11
216.0799834700533
 21
265.141214322881
 31
0.0
  0
LINE
  5
BA
330
4B
100
AcDbEntity
  8
1
  6
Continuous
 62
     7
100
AcDbLine
 10
217.0799834700533
 20
245.141214322881
 30
0.0
 11
216.0799834700533
 21
246.141214322881
 31
0.0
  0
LINE
  5
BB
330
4B
100
AcDbEntity
  8
1
  6
Continuous
 62
     7
100
AcDbLine
 10
225.0799834700533
 20
266.141214322881
 30
0.0
 11
225.0799834700533
 21
246.141214322881
 31
0.0
  0
LINE
  5
BC
330
4B
100
AcDbEntity
  8
1
  6
Continuous
 62
     7
100
AcDbLine
 10
225.0799834700533
 20
266.141214322881
 30
0.0
 11
217.0799834700533
 21
266.141214322881
 31
0.0
  0
LINE
  5
BD
330
4B
100
AcDbEntity
  8
1
  6
Continuous
 62
     7
100
AcDbLine
 10
225.0799834700534
 20
245.141214322881
 30
0.0
 11
225.0799834700533
 21
246.141214322881
 31
0.0
  0
LINE
  5
BE
330
4B
100
AcDbEntity
  8
1
  6
Continuous
 62
     7
100
AcDbLine
 10
225.0799834700534
 20
245.141214322881
 30
0.0
 11
217.0799834700533
 21
245.141214322881
 31
0.0
  0
LINE
  5
BF
330
4B
100
AcDbEntity
  8
1
  6
Continuous
 62
     2
100
AcDbLine
 10
225.0799834700533
 20
246.141214322881
 30
0.0
 11
226.019747286229
 21
246.141214322881
 31
0.0
  0
LINE
  5
C0
330
4B
100
AcDbEntity
  8
1
  6
Continuous
 62
     2
100
AcDbLine
 10
225.0799834700533
 20
265.141214322881
 30
0.0
 11
226.019747286229
 21
265.141214322881
 31
0.0
  0
LINE
  5
C1
330
4B
100
AcDbEntity
  8
1
  6
Continuous
 62
     7
100
AcDbLine
 10
229.2149834700533
 20
276.141214322881
 30
0.0
 11
228.5799834700533
 21
276.141214322881
 31
0.0
  0
LINE
  5
C2
330
4B
100
AcDbEntity
  8
1
  6
Continuous
 62
     2
100
AcDbLine
 10
229.0799834700533
 20
275.0413620600747
 30
0.0
 11
229.2149834700533
 21
276.141214322881
 31
0.0
  0
LINE
  5
C3
330
4B
100
AcDbEntity
  8
1
  6
Continuous
 62
     7
100
AcDbLine
 10
229.2149834700533
 20
276.141214322881
 30
0.0
 11
251.5799834700533
 21
276.141214322881
 31
0.0
  0
LINE
  5
C4
330
4B
100
AcDbEntity
  8
1
  6
Continuous
 62
     7
100
AcDbLine
 10
251.5799834700533
 20
276.141214322881
 30
0.0
 11
251.5799834700533
 21
277.7412143228809
 31
0.0
  0
LINE
  5
C5
330
4B
100
AcDbEntity
  8
1
  6
Continuous
 62
     7
100
AcDbLine
 10
216.0799834700533
 20
265.141214322881
 30
0.0
 11
216.0799834700533
 21
246.141214322881
 31
0.0
  0
LINE
  5
C6
330
4B
100
AcDbEntity
  8
1
  6
Continuous
 62
     7
100
AcDbLine
 10
217.0799834700533
 20
266.141214322881
 30
0.0
 11
217.0799834700533
 21
246.141214322881
 31
0.0
  0
LINE
  5
C7
330
4B
100
AcDbEntity
  8
1
  6
Continuous
 62
     2
100
AcDbLine
 10
217.0799834700533
 20
265.141214322881
 30
0.0
 11
225.0799834700533
 21
265.141214322881
 31
0.0
  0
LINE
  5
C8
330
4B
100
AcDbEntity
  8
1
  6
Continuous
 62
     7
100
AcDbLine
 10
217.0799834700533
 20
245.141214322881
 30
0.0
 11
217.0799834700533
 21
246.141214322881
 31
0.0
  0
LINE
  5
C9
330
4B
100
AcDbEntity
  8
1
  6
Continuous
 62
     2
100
AcDbLine
 10
217.0799834700533
 20
246.141214322881
 30
0.0
 11
225.0799834700533
 21
246.141214322881
 31
0.0
  0
LINE
  5
CA
330
4B
100
AcDbEntity
  8
1
  6
Continuous
 62
     7
100
AcDbLine
 10
251.0799834700533
 20
275.0413620600747
 30
0.0
 11
251.0799834700533
 21
266.891214322881
 31
0.0
  0
LINE
  5
CB
330
4B
100
AcDbEntity
  8
1
  6
Continuous
 62
     7
100
AcDbLine
 10
150.6545200666411
 20
344.9931243224151
 30
0.0
 11
150.6545200666411
 21
341.2850702006639
 31
0.0
  0
LINE
  5
CC
330
4B
100
AcDbEntity
  8
1
  6
Continuous
 62
     7
100
AcDbLine
 10
129.6545200666411
 20
344.9121583693346
 30
0.0
 11
129.6545200666411
 21
341.2850702006639
 31
0.0
  0
LINE
  5
CD
330
4B
100
AcDbEntity
  8
1
  6
Continuous
 62
     7
100
AcDbLine
 10
148.4045200666411
 20
379.4102219271429
 30
0.0
 11
148.4045200666411
 21
387.2850702006639
 31
0.0
  0
ARC
  5
CE
330
4B
100
AcDbEntity
  8
1
  6
Continuous
 62
     7
100
AcDbCircle
 10
255.1278109061929
 20
248.7680801407175
 30
0.0
 40
17.00000000000004
100
AcDbArc
 50
105.1100870401906
 51
136.4582060124629
  0
ARC
  5
CF
330
4B
100
AcDbEntity
  8
1
  6
Continuous
 62
     7
100
AcDbCircle
 10
225.0321560339138
 20
248.7680801407175
 30
0.0
 40
16.99999999999999
100
AcDbArc
 50
43.5417939875374
 51
74.88991295980969
  0
ARC
  5
D0
330
4B
100
AcDbEntity
  8
1
  6
Continuous
 62
     7
100
AcDbCircle
 10
140.0799834700533
 20
255.641214322881
 30
0.0
 40
13.49999999999999
100
AcDbArc
 50
180.0
 51
-90.0
  0
ARC
  5
D1
330
4B
100
AcDbEntity
  8
1
  6
Continuous
 62
     7
100
AcDbCircle
 10
140.0799834700533
 20
255.641214322881
 30
0.0
 40
13.5
100
AcDbArc
 50
-90.0
 51
0.0
  0
ARC
  5
D2
330
4B
100
AcDbEntity
  8
1
  6
Continuous
 62
     7
100
AcDbCircle
 10
140.0799834700533
 20
255.641214322881
 30
0.0
 40
6.749999999999957
100
AcDbArc
 50
6.77230953754952
 51
173.2276904624506
  0
ARC
  5
D3
330
4B
100
AcDbEntity
  8
1
  6
Continuous
 62
     7
100
AcDbCircle
 10
140.0799834700533
 20
255.641214322881
 30
0.0
 40
6.750000000000041
100
AcDbArc
 50
173.2276904624506
 51
6.77230953754952
  0
ARC
  5
D4
330
4B
100
AcDbEntity
  8
1
  6
Continuous
 62
     7
100
AcDbCircle
 10
240.0799834700533
 20
267.141214322881
 30
0.0
 40
25.00000000000004
100
AcDbArc
 50
-122.2042275039719
 51
-58.21166938294825
  0
ARC
  5
D5
330
4B
100
AcDbEntity
  8
1
  6
Continuous
 62
     7
100
AcDbCircle
 10
227.6780596814067
 20
267.641214322881
 30
0.0
 40
3.000000000000074
100
AcDbArc
 50
-150.0000000000008
 51
-123.5573097619206
  0
ARC
  5
D6
330
4B
100
AcDbEntity
  8
1
  6
Continuous
 62
     7
100
AcDbCircle
 10
227.6780596814067
 20
243.641214322881
 30
0.0
 40
2.999999999999993
100
AcDbArc
 50
123.5573097619206
 51
149.9999999999997
  0
CIRCLE
  5
D7
330
4B
100
AcDbEntity
  8
1
  6
Continuous
 62
     2
100
AcDbCircle
 10
140.0799834700533
 20
255.641214322881
 30
0.0
 40
9.5
  0
CIRCLE
  5
D8
330
4B
100
AcDbEntity
  8
1
  6
Continuous
 62
     7
100
AcDbCircle
 10
140.0799834700533
 20
255.641214322881
 30
0.0
 40
10.5
  0
ARC
  5
D9
330
4B
100
AcDbEntity
  8
1
  6
Continuous
 62
     7
100
AcDbCircle
 10
226.2235770095023
 20
245.141214322881
 30
0.0
 40
0.9999999999999495
100
AcDbArc
 50
57.79577249602575
 51
90.0
  0
ARC
  5
DA
330
4B
100
AcDbEntity
  8
1
  6
Continuous
 62
     7
100
AcDbCircle
 10
258.5173775375457
 20
237.391214322881
 30
0.0
 40
10.0
100
AcDbArc
 50
90.0
 51
121.7883306170519
  0
ARC
  5
DB
330
4B
100
AcDbEntity
  8
1
  6
Continuous
 62
     7
100
AcDbCircle
 10
227.0799834700533
 20
267.141214322881
 30
0.0
 40
2.0
100
AcDbArc
 50
-90.0
 51
0.0
  0
ARC
  5
DC
330
4B
100
AcDbEntity
  8
1
  6
Continuous
 62
     7
100
AcDbCircle
 10
254.0799834700533
 20
266.891214322881
 30
0.0
 40
3.0
100
AcDbArc
 50
180.0
 51
-90.0
  0
ENDBLK
  5
4D
330
4B
100
AcDbEntity
  8
0
100
AcDbBlockEnd
  0
BLOCK
  5
4F
330
4E
100
AcDbEntity
  8
0
100
AcDbBlockBegin
  2
B24-2
 70
     0
 71
     0
 10
136.2227493309324
 20
219.1002122534484
 30
0.0
  3
B24-2
  1

  0
LINE
  5
DD
330
4E
100
AcDbEntity
  8
1
  6
Continuous
 62
     7
100
AcDbLine
 10
128.9436819048576
 20
266.5142271229806
 30
0.0
 11
127.0678102196785
 21
266.5142271229806
 31
0.0
  0
LINE
  5
DE
330
4E
100
AcDbEntity
  8
1
  6
Continuous
 62
     7
100
AcDbLine
 10
129.0799834700533
 20
269.641214322881
 30
0.0
 11
125.0799834700533
 21
269.641214322881
 31
0.0
  0
LINE
  5
DF
330
4E
100
AcDbEntity
  8
1
  6
Continuous
 62
     7
100
AcDbLine
 10
129.0799834700533
 20
268.141214322881
 30
0.0
 11
125.0799834700533
 21
268.141214322881
 31
0.0
  0
LINE
  5
E0
330
4E
100
AcDbEntity
  8
1
  6
Continuous
 62
     7
100
AcDbLine
 10
130.3299834700533
 20
243.1137471383818
 30
0.0
 11
130.3299834700533
 21
241.641214322881
 31
0.0
  0
LINE
  5
E1
330
4E
100
AcDbEntity
  8
1
  6
Continuous
 62
     7
100
AcDbLine
 10
126.5799834700533
 20
266.641214322881
 30
0.0
 11
126.5799834700533
 21
255.641214322881
 31
0.0
  0
LINE
  5
E2
330
4E
100
AcDbEntity
  8
1
  6
Continuous
 62
     7
100
AcDbLine
 10
125.0799834700533
 20
269.641214322881
 30
0.0
 11
125.0799834700533
 21
268.141214322881
 31
0.0
  0
LINE
  5
E3
330
4E
100
AcDbEntity
  8
1
  6
Continuous
 62
     7
100
AcDbLine
 10
153.0921567204281
 20
266.5142271229806
 30
0.0
 11
151.1637584033645
 21
266.5142271229806
 31
0.0
  0
LINE
  5
E4
330
4E
100
AcDbEntity
  8
1
  6
Continuous
 62
     7
100
AcDbLine
 10
155.0799834700533
 20
268.141214322881
 30
0.0
 11
151.0799834700533
 21
268.141214322881
 31
0.0
  0
LINE
  5
E5
330
4E
100
AcDbEntity
  8
1
  6
Continuous
 62
     7
100
AcDbLine
 10
149.8299834700533
 20
241.641214322881
 30
0.0
 11
149.8299834700533
 21
243.1137471383818
 31
0.0
  0
LINE
  5
E6
330
4E
100
AcDbEntity
  8
1
  6
Continuous
 62
     7
100
AcDbLine
 10
129.5799834700533
 20
234.641214322881
 30
0.0
 11
129.5799834700533
 21
220.641214322881
 31
0.0
  0
LINE
  5
E7
330
4E
100
AcDbEntity
  8
1
  6
Continuous
 62
     2
100
AcDbLine
 10
130.5799834700533
 20
234.641214322881
 30
0.0
 11
130.5799834700533
 21
220.641214322881
 31
0.0
  0
LINE
  5
E8
330
4E
100
AcDbEntity
  8
1
  6
Continuous
 62
     2
100
AcDbLine
 10
149.5799834700533
 20
234.641214322881
 30
0.0
 11
149.5799834700533
 21
220.641214322881
 31
0.0
  0
LINE
  5
E9
330
4E
100
AcDbEntity
  8
1
  6
Continuous
 62
     7
100
AcDbLine
 10
150.5799834700533
 20
234.641214322881
 30
0.0
 11
150.5799834700533
 21
220.641214322881
 31
0.0
  0
LINE
  5
EA
330
4E
100
AcDbEntity
  8
1
  6
Continuous
 62
     7
100
AcDbLine
 10
153.5799834700533
 20
255.641214322881
 30
0.0
 11
153.5799834700533
 21
266.641214322881
 31
0.0
  0
LINE
  5
EB
330
4E
100
AcDbEntity
  8
1
  6
Continuous
 62
     7
100
AcDbLine
 10
155.0799834700533
 20
268.141214322881
 30
0.0
 11
155.0799834700533
 21
269.641214322881
 31
0.0
  0
LINE
  5
EC
330
4E
100
AcDbEntity
  8
1
  6
Continuous
 62
     2
100
AcDbLine
 10
130.5799834700533
 20
220.641214322881
 30
0.0
 11
130.5799834700533
 21
219.641214322881
 31
0.0
  0
LINE
  5
ED
330
4E
100
AcDbEntity
  8
1
  6
Continuous
 62
     2
100
AcDbLine
 10
149.5799834700533
 20
220.641214322881
 30
0.0
 11
149.5799834700533
 21
219.641214322881
 31
0.0
  0
LINE
  5
EE
330
4E
100
AcDbEntity
  8
1
  6
Continuous
 62
     7
100
AcDbLine
 10
146.5799834700533
 20
219.641214322881
 30
0.0
 11
149.5799834700533
 21
219.641214322881
 31
0.0
  0
LINE
  5
EF
330
4E
100
AcDbEntity
  8
1
  6
Continuous
 62
     7
100
AcDbLine
 10
129.5799834700533
 20
220.641214322881
 30
0.0
 11
130.5799834700533
 21
219.641214322881
 31
0.0
  0
LINE
  5
F0
330
4E
100
AcDbEntity
  8
1
  6
Continuous
 62
     7
100
AcDbLine
 10
149.5799834700533
 20
219.641214322881
 30
0.0
 11
150.5799834700533
 21
220.641214322881
 31
0.0
  0
LINE
  5
F1
330
4E
100
AcDbEntity
  8
1
  6
Continuous
 62
     7
100
AcDbLine
 10
130.5799834700533
 20
219.641214322881
 30
0.0
 11
146.5799834700533
 21
219.641214322881
 31
0.0
  0
LINE
  5
F2
330
4E
100
AcDbEntity
  8
1
  6
Continuous
 62
     7
100
AcDbLine
 10
155.0799834700533
 20
269.641214322881
 30
0.0
 11
151.0799834700533
 21
269.641214322881
 31
0.0
  0
LINE
  5
F3
330
4E
100
AcDbEntity
  8
1
  6
Continuous
 62
     7
100
AcDbLine
 10
130.5799834700533
 20
220.641214322881
 30
0.0
 11
129.5799834700533
 21
220.641214322881
 31
0.0
  0
LINE
  5
F4
330
4E
100
AcDbEntity
  8
1
  6
Continuous
 62
     7
100
AcDbLine
 10
130.5799834700533
 20
220.641214322881
 30
0.0
 11
150.5799834700533
 21
220.641214322881
 31
0.0
  0
LINE
  5
F5
330
4E
100
AcDbEntity
  8
1
  6
Continuous
 62
     2
100
AcDbLine
 10
279.3799834700533
 20
246.141214322881
 30
0.0
 11
282.0799834700533
 21
246.141214322881
 31
0.0
  0
LINE
  5
F6
330
4E
100
AcDbEntity
  8
1
  6
Continuous
 62
     7
100
AcDbLine
 10
279.3799834700533
 20
266.141214322881
 30
0.0
 11
282.0799834700533
 21
266.141214322881
 31
0.0
  0
LINE
  5
F7
330
4E
100
AcDbEntity
  8
1
  6
Continuous
 62
     7
100
AcDbLine
 10
284.0799834700533
 20
266.5142271229806
 30
0.0
 11
284.0799834700533
 21
268.141214322881
 31
0.0
  0
LINE
  5
F8
330
4E
100
AcDbEntity
  8
1
  6
Continuous
 62
     7
100
AcDbLine
 10
312.0921567204282
 20
266.5142271229806
 30
0.0
 11
284.0799834700533
 21
266.5142271229806
 31
0.0
  0
LINE
  5
F9
330
4E
100
AcDbEntity
  8
1
  6
Continuous
 62
     7
100
AcDbLine
 10
284.0799834700533
 20
268.141214322881
 30
0.0
 11
284.0799834700533
 21
269.641214322881
 31
0.0
  0
LINE
  5
FA
330
4E
100
AcDbEntity
  8
1
  6
Continuous
 62
     7
100
AcDbLine
 10
314.0799834700533
 20
268.141214322881
 30
0.0
 11
284.0799834700533
 21
268.141214322881
 31
0.0
  0
LINE
  5
FB
330
4E
100
AcDbEntity
  8
1
  6
Continuous
 62
     7
100
AcDbLine
 10
282.0799834700533
 20
245.141214322881
 30
0.0
 11
282.0799834700533
 21
246.141214322881
 31
0.0
  0
LINE
  5
FC
330
4E
100
AcDbEntity
  8
1
  6
Continuous
 62
     2
100
AcDbLine
 10
282.0799834700533
 20
246.141214322881
 30
0.0
 11
283.8120342776222
 21
245.141214322881
 31
0.0
  0
LINE
  5
FD
330
4E
100
AcDbEntity
  8
1
  6
Continuous
 62
     7
100
AcDbLine
 10
308.8299834700533
 20
241.641214322881
 30
0.0
 11
308.8299834700533
 21
243.1137471383818
 31
0.0
  0
LINE
  5
FE
330
4E
100
AcDbEntity
  8
1
  6
Continuous
 62
     7
100
AcDbLine
 10
288.5799834700533
 20
234.641214322881
 30
0.0
 11
288.5799834700533
 21
220.641214322881
 31
0.0
  0
LINE
  5
FF
330
4E
100
AcDbEntity
  8
1
  6
Continuous
 62
     2
100
AcDbLine
 10
289.5799834700533
 20
234.641214322881
 30
0.0
 11
289.5799834700533
 21
220.641214322881
 31
0.0
  0
LINE
  5
100
330
4E
100
AcDbEntity
  8
1
  6
Continuous
 62
     2
100
AcDbLine
 10
308.5799834700533
 20
234.641214322881
 30
0.0
 11
308.5799834700533
 21
220.641214322881
 31
0.0
  0
LINE
  5
101
330
4E
100
AcDbEntity
  8
1
  6
Continuous
 62
     7
100
AcDbLine
 10
309.5799834700533
 20
234.641214322881
 30
0.0
 11
309.5799834700533
 21
220.641214322881
 31
0.0
  0
LINE
  5
102
330
4E
100
AcDbEntity
  8
1
  6
Continuous
 62
     7
100
AcDbLine
 10
149.9045200666412
 20
405.0171210082328
 30
0.0
 11
149.9045200666412
 21
411.886057085486
 31
0.0
  0
LINE
  5
103
330
4E
100
AcDbEntity
  8
1
  6
Continuous
 62
     7
100
AcDbLine
 10
140.1545200666412
 20
403.2850702006639
 30
0.0
 11
149.6545200666412
 21
403.2850702006639
 31
0.0
  0
LINE
  5
104
330
4E
100
AcDbEntity
  8
1
  6
Continuous
 62
     2
100
AcDbLine
 10
149.6545200666412
 20
400.7850702006639
 30
0.0
 11
149.6545200666412
 21
403.2850702006639
 31
0.0
  0
LINE
  5
105
330
4E
100
AcDbEntity
  8
1
  6
Continuous
 62
     7
100
AcDbLine
 10
150.6545200666412
 20
403.2850702006639
 30
0.0
 11
149.9045200666412
 21
405.0171210082328
 31
0.0
  0
LINE
  5
106
330
4E
100
AcDbEntity
  8
1
  6
Continuous
 62
     7
100
AcDbLine
 10
150.6545200666412
 20
403.2850702006639
 30
0.0
 11
149.6545200666412
 21
403.2850702006639
 31
0.0
  0
LINE
  5
107
330
4E
100
AcDbEntity
  8
1
  6
Continuous
 62
     7
100
AcDbLine
 10
150.6545200666412
 20
403.2850702006639
 30
0.0
 11
150.6545200666412
 21
400.7850702006639
 31
0.0
  0
LINE
  5
108
330
4E
100
AcDbEntity
  8
1
  6
Continuous
 62
     2
100
AcDbLine
 10
149.6545200666412
 20
403.2850702006639
 30
0.0
 11
149.9045200666412
 21
405.0171210082328
 31
0.0
  0
LINE
  5
109
330
4E
100
AcDbEntity
  8
1
  6
Continuous
 62
     7
100
AcDbLine
 10
130.6545200666412
 20
403.2850702006639
 30
0.0
 11
140.1545200666412
 21
403.2850702006639
 31
0.0
  0
LINE
  5
10A
330
4E
100
AcDbEntity
  8
1
  6
Continuous
 62
     7
100
AcDbLine
 10
130.4045200666412
 20
411.886057085486
 30
0.0
 11
130.4045200666412
 21
405.0171210082328
 31
0.0
  0
LINE
  5
10B
330
4E
100
AcDbEntity
  8
1
  6
Continuous
 62
     7
100
AcDbLine
 10
309.5799834700533
 20
269.641214322881
 30
0.0
 11
284.0799834700533
 21
269.641214322881
 31
0.0
  0
LINE
  5
10C
330
4E
100
AcDbEntity
  8
1
  6
Continuous
 62
     7
100
AcDbLine
 10
283.8799834700533
 20
266.141214322881
 30
0.0
 11
283.8120342776222
 21
266.141214322881
 31
0.0
  0
LINE
  5
10D
330
4E
100
AcDbEntity
  8
1
  6
Continuous
 62
     7
100
AcDbLine
 10
283.8120342776222
 20
266.141214322881
 30
0.0
 11
282.0799834700533
 21
266.141214322881
 31
0.0
  0
LINE
  5
10E
330
4E
100
AcDbEntity
  8
1
  6
Continuous
 62
     7
100
AcDbLine
 10
312.5799834700533
 20
255.641214322881
 30
0.0
 11
312.5799834700533
 21
266.641214322881
 31
0.0
  0
LINE
  5
10F
330
4E
100
AcDbEntity
  8
1
  6
Continuous
 62
     2
100
AcDbLine
 10
130.6545200666412
 20
403.2850702006639
 30
0.0
 11
130.6545200666412
 21
400.7850702006639
 31
0.0
  0
LINE
  5
110
330
4E
100
AcDbEntity
  8
1
  6
Continuous
 62
     7
100
AcDbLine
 10
130.4045200666412
 20
405.0171210082328
 30
0.0
 11
129.6545200666412
 21
403.2850702006639
 31
0.0
  0
LINE
  5
111
330
4E
100
AcDbEntity
  8
1
  6
Continuous
 62
     7
100
AcDbLine
 10
130.6545200666412
 20
403.2850702006639
 30
0.0
 11
129.6545200666412
 21
403.2850702006639
 31
0.0
  0
LINE
  5
112
330
4E
100
AcDbEntity
  8
1
  6
Continuous
 62
     7
100
AcDbLine
 10
129.6545200666412
 20
400.7850702006639
 30
0.0
 11
129.6545200666412
 21
403.2850702006639
 31
0.0
  0
LINE
  5
113
330
4E
100
AcDbEntity
  8
1
  6
Continuous
 62
     2
100
AcDbLine
 10
130.4045200666412
 20
405.0171210082328
 30
0.0
 11
130.6545200666412
 21
403.2850702006639
 31
0.0
  0
LINE
  5
114
330
4E
100
AcDbEntity
  8
1
  6
Continuous
 62
     2
100
AcDbLine
 10
283.8120342776222
 20
266.141214322881
 30
0.0
 11
282.0799834700533
 21
265.141214322881
 31
0.0
  0
LINE
  5
115
330
4E
100
AcDbEntity
  8
1
  6
Continuous
 62
     7
100
AcDbLine
 10
284.8563176503079
 20
245.141214322881
 30
0.0
 11
279.3799834700533
 21
245.141214322881
 31
0.0
  0
LINE
  5
116
330
4E
100
AcDbEntity
  8
1
  6
Continuous
 62
     7
100
AcDbLine
 10
284.0799834700533
 20
266.3412143228809
 30
0.0
 11
284.0799834700533
 21
266.5142271229806
 31
0.0
  0
LINE
  5
117
330
4E
100
AcDbEntity
  8
1
  6
Continuous
 62
     7
100
AcDbLine
 10
314.0799834700533
 20
268.141214322881
 30
0.0
 11
314.0799834700533
 21
269.641214322881
 31
0.0
  0
LINE
  5
118
330
4E
100
AcDbEntity
  8
1
  6
Continuous
 62
     2
100
AcDbLine
 10
289.5799834700533
 20
220.641214322881
 30
0.0
 11
289.5799834700533
 21
219.641214322881
 31
0.0
  0
LINE
  5
119
330
4E
100
AcDbEntity
  8
1
  6
Continuous
 62
     2
100
AcDbLine
 10
308.5799834700533
 20
220.641214322881
 30
0.0
 11
308.5799834700533
 21
219.641214322881
 31
0.0
  0
LINE
  5
11A
330
4E
100
AcDbEntity
  8
1
  6
Continuous
 62
     7
100
AcDbLine
 10
289.5799834700533
 20
219.641214322881
 30
0.0
 11
308.5799834700533
 21
219.641214322881
 31
0.0
  0
LINE
  5
11B
330
4E
100
AcDbEntity
  8
1
  6
Continuous
 62
     7
100
AcDbLine
 10
288.5799834700533
 20
220.641214322881
 30
0.0
 11
289.5799834700533
 21
219.641214322881
 31
0.0
  0
LINE
  5
11C
330
4E
100
AcDbEntity
  8
1
  6
Continuous
 62
     7
100
AcDbLine
 10
308.5799834700533
 20
219.641214322881
 30
0.0
 11
309.5799834700533
 21
220.641214322881
 31
0.0
  0
LINE
  5
11D
330
4E
100
AcDbEntity
  8
1
  6
Continuous
 62
     2
100
AcDbLine
 10
282.0799834700533
 20
265.141214322881
 30
0.0
 11
279.3799834700533
 21
265.141214322881
 31
0.0
  0
LINE
  5
11E
330
4E
100
AcDbEntity
  8
1
  6
Continuous
 62
     7
100
AcDbLine
 10
314.0799834700533
 20
269.641214322881
 30
0.0
 11
309.5799834700533
 21
269.641214322881
 31
0.0
  0
LINE
  5
11F
330
4E
100
AcDbEntity
  8
1
  6
Continuous
 62
     7
100
AcDbLine
 10
282.0799834700533
 20
246.141214322881
 30
0.0
 11
282.0799834700533
 21
266.141214322881
 31
0.0
  0
LINE
  5
120
330
4E
100
AcDbEntity
  8
1
  6
Continuous
 62
     7
100
AcDbLine
 10
289.5799834700533
 20
220.641214322881
 30
0.0
 11
288.5799834700533
 21
220.641214322881
 31
0.0
  0
LINE
  5
121
330
4E
100
AcDbEntity
  8
1
  6
Continuous
 62
     7
100
AcDbLine
 10
289.5799834700533
 20
220.641214322881
 30
0.0
 11
309.5799834700533
 21
220.641214322881
 31
0.0
  0
ARC
  5
122
330
4E
100
AcDbEntity
  8
1
  6
Continuous
 62
     7
100
AcDbCircle
 10
156.4811692746329
 20
258.0741318060698
 30
0.0
 40
29.99999999999995
100
AcDbArc
 50
-175.3483615556314
 51
-151.1451041608736
  0
ARC
  5
123
330
4E
100
AcDbEntity
  8
1
  6
Continuous
 62
     7
100
AcDbCircle
 10
156.4811692746329
 20
258.0741318060698
 30
0.0
 40
29.99999999999995
100
AcDbArc
 50
-175.3483615556314
 51
-151.1451041608736
  0
ARC
  5
124
330
4E
100
AcDbEntity
  8
1
  6
Continuous
 62
     7
100
AcDbCircle
 10
140.1532480439037
 20
347.8477183891579
 30
0.0
 40
104.5
100
AcDbArc
 50
-95.4311251346542
 51
-93.30214185114357
  0
ARC
  5
125
330
4E
100
AcDbEntity
  8
1
  6
Continuous
 62
     7
100
AcDbCircle
 10
140.1532480439037
 20
347.8477183891579
 30
0.0
 40
104.5
100
AcDbArc
 50
-86.78890920926817
 51
-85.21627791518648
  0
ARC
  5
126
330
4E
100
AcDbEntity
  8
1
  6
Continuous
 62
     7
100
AcDbCircle
 10
123.6787976654737
 20
258.0741318060698
 30
0.0
 40
30.0
100
AcDbArc
 50
-28.8548958391264
 51
-4.6516384443686
  0
ARC
  5
127
330
4E
100
AcDbEntity
  8
1
  6
Continuous
 62
     7
100
AcDbCircle
 10
3.06549506301729
 20
254.1742291313044
 30
0.0
 40
281.7858539380931
100
AcDbArc
 50
-1.59321924792432
 51
2.23338889548734
  0
ARC
  5
128
330
4E
100
AcDbEntity
  8
1
  6
Continuous
 62
     7
100
AcDbCircle
 10
299.1532480439037
 20
347.8477183891579
 30
0.0
 40
104.5
100
AcDbArc
 50
-95.4311251346542
 51
-85.21627791518648
  0
ARC
  5
129
330
4E
100
AcDbEntity
  8
1
  6
Continuous
 62
     7
100
AcDbCircle
 10
284.3341759639656
 20
240.1685522531859
 30
0.0
 40
4.999999999999948
100
AcDbArc
 50
17.12950099032902
 51
84.00576836654649
  0
ARC
  5
12A
330
4E
100
AcDbEntity
  8
1
  6
Continuous
 62
     7
100
AcDbCircle
 10
282.6787976654737
 20
258.0741318060698
 30
0.0
 40
30.0
100
AcDbArc
 50
-28.8548958391264
 51
-4.6516384443686
  0
CIRCLE
  5
12B
330
4E
100
AcDbEntity
  8
1
  6
Continuous
 62
     7
100
AcDbCircle
 10
140.1545200666412
 20
423.2850702006639
 30
0.0
 40
13.0
  0
CIRCLE
  5
12C
330
4E
100
AcDbEntity
  8
1
  6
Continuous
 62
     7
100
AcDbCircle
 10
140.1545200666412
 20
423.2850702006639
 30
0.0
 40
12.5
  0
CIRCLE
  5
12D
330
4E
100
AcDbEntity
  8
1
  6
Continuous
 62
     7
100
AcDbCircle
 10
140.1545200666412
 20
423.2850702006639
 30
0.0
 40
12.0
  0
CIRCLE
  5
12E
330
4E
100
AcDbEntity
  8
1
  6
Continuous
 62
     7
100
AcDbCircle
 10
140.1545200666412
 20
423.2850702006639
 30
0.0
 40
14.9999999999999
  0
CIRCLE
  5
12F
330
4E
100
AcDbEntity
  8
1
  6
Continuous
 62
     2
100
AcDbCircle
 10
140.1545200666412
 20
423.2850702006639
 30
0.0
 40
10.5
  0
CIRCLE
  5
130
330
4E
100
AcDbEntity
  8
1
  6
Continuous
 62
     7
100
AcDbCircle
 10
140.1545200666412
 20
423.2850702006639
 30
0.0
 40
9.5
  0
CIRCLE
  5
131
330
4E
100
AcDbEntity
  8
1
  6
Continuous
 62
     7
100
AcDbCircle
 10
140.1545200666412
 20
423.2850702006639
 30
0.0
 40
6.5
  0
ARC
  5
132
330
4E
100
AcDbEntity
  8
1
  6
Continuous
 62
     7
100
AcDbCircle
 10
129.3299834700533
 20
243.1137471383818
 30
0.0
 40
1.0
100
AcDbArc
 50
0.0
 51
28.85489583912768
  0
ARC
  5
133
330
4E
100
AcDbEntity
  8
0
  6
Continuous
 62
     7
100
AcDbCircle
 10
125.0799834700533
 20
266.641214322881
 30
0.0
 40
1.5
100
AcDbArc
 50
0.0
 51
90.0
  0
ARC
  5
134
330
4E
100
AcDbEntity
  8
1
  6
Continuous
 62
     7
100
AcDbCircle
 10
150.8299834700533
 20
243.1137471383818
 30
0.0
 40
0.9999999999999731
100
AcDbArc
 50
151.1451041608723
 51
180.0
  0
ARC
  5
135
330
4E
100
AcDbEntity
  8
0
  6
Continuous
 62
     7
100
AcDbCircle
 10
155.0799834700533
 20
266.641214322881
 30
0.0
 40
1.5
100
AcDbArc
 50
90.0
 51
180.0
  0
ARC
  5
136
330
4E
100
AcDbEntity
  8
1
  6
Continuous
 62
     7
100
AcDbCircle
 10
283.8799834700533
 20
266.3412143228809
 30
0.0
 40
0.1999999999998749
100
AcDbArc
 50
-90.0
 51
0.0
  0
ARC
  5
137
330
4E
100
AcDbEntity
  8
1
  6
Continuous
 62
     7
100
AcDbCircle
 10
309.8299834700533
 20
243.1137471383818
 30
0.0
 40
0.9999999999999731
100
AcDbArc
 50
151.1451041608723
 51
180.0
  0
ARC
  5
138
330
4E
100
AcDbEntity
  8
0
  6
Continuous
 62
     7
100
AcDbCircle
 10
314.0799834700533
 20
266.641214322881
 30
0.0
 40
1.5
100
AcDbArc
 50
90.0
 51
180.0
  0
ENDBLK
  5
50
330
4E
100
AcDbEntity
  8
0
100
AcDbBlockEnd
  0
BLOCK
  5
52
330
51
100
AcDbEntity
  8
0
100
AcDbBlockBegin
  2
32-26
 70
     0
 71
     0
 10
215.7195898738087
 20
225.9805709048239
 30
0.0
  3
32-26
  1

  0
LINE
  5
139
330
51
100
AcDbEntity
  8
1
  6
Continuous
 62
     7
100
AcDbLine
 10
151.6902264916977
 20
400.7850702006639
 30
0.0
 11
148.8299834700532
 21
400.7850702006639
 31
0.0
  0
LINE
  5
13A
330
51
100
AcDbEntity
  8
1
  6
Continuous
 62
     7
100
AcDbLine
 10
131.3299834700532
 20
400.7850702006639
 30
0.0
 11
128.4697404484087
 21
400.7850702006639
 31
0.0
  0
LINE
  5
13B
330
51
100
AcDbEntity
  8
1
  6
Continuous
 62
     7
100
AcDbLine
 10
148.8299834700532
 20
400.7850702006639
 30
0.0
 11
131.3299834700532
 21
400.7850702006639
 31
0.0
  0
LINE
  5
13C
330
51
100
AcDbEntity
  8
1
  6
Continuous
 62
     7
100
AcDbLine
 10
151.6902264916977
 20
387.2850702006639
 30
0.0
 11
128.4697404484087
 21
387.2850702006639
 31
0.0
  0
LINE
  5
13D
330
51
100
AcDbEntity
  8
1
  6
Continuous
 62
     7
100
AcDbLine
 10
128.0799834700532
 20
387.9728923741728
 30
0.0
 11
128.0799834700532
 21
400.0972480271551
 31
0.0
  0
LINE
  5
13E
330
51
100
AcDbEntity
  8
1
  6
Continuous
 62
     7
100
AcDbLine
 10
152.1134240236402
 20
388.0367580216526
 30
0.0
 11
152.0859816096502
 21
400.085855836562
 31
0.0
  0
ARC
  5
13F
330
51
100
AcDbEntity
  8
1
  6
Continuous
 62
     7
100
AcDbCircle
 10
140.5799834700532
 20
394.0350702006639
 30
0.0
 40
13.00000000000001
100
AcDbArc
 50
-31.28066715204843
 51
-27.478041180941
  0
ARC
  5
140
330
51
100
AcDbEntity
  8
1
  6
Continuous
 62
     7
100
AcDbCircle
 10
139.5799834700532
 20
394.0350702006639
 30
0.0
 40
13.00000000000003
100
AcDbArc
 50
148.7193328479517
 51
152.2042275039715
  0
ARC
  5
141
330
51
100
AcDbEntity
  8
1
  6
Continuous
 62
     7
100
AcDbCircle
 10
139.5799834700532
 20
394.0350702006639
 30
0.0
 40
13.00000000000002
100
AcDbArc
 50
-152.2042275039719
 51
-148.7193328479517
  0
ARC
  5
142
330
51
100
AcDbEntity
  8
1
  6
Continuous
 62
     7
100
AcDbCircle
 10
140.5799834700532
 20
394.0350702006639
 30
0.0
 40
13.00000000000002
100
AcDbArc
 50
27.73902865182936
 51
31.28066715204843
  0
SPLINE
  5
143
330
51
100
AcDbEntity
  8
1
  6
Continuous
 62
     7
100
AcDbSpline
210
0.0
220
0.0
230
1.0
 70
    11
 71
     3
 72
    79
 73
    75
 74
    73
 42
0.0000000001
 43
0.0000000001
 44
0.00000001
 40
0.0
 40
0.0
 40
0.0
 40
0.0
 40
0.4678396358551878
 40
0.9356833315675053
 40
1.407164902727448
 40
1.878657444504631
 40
2.356913553244569
 40
2.835184659649258
 40
3.322422508491967
 40
3.809676298602081
 40
4.30693338620452
 40
4.804205071558583
 40
5.311285550888156
 40
5.818377974215732
 40
6.333943877614335
 40
6.849518475762044
 40
7.371294391285057
 40
7.893075548689127
 40
8.418126831531129
 40
8.943179862118264
 40
9.468232892705341
 40
9.993284175547117
 40
10.51506533295113
 40
11.0368412484742
 40
11.55241584662193
 40
12.06798175002056
 40
12.57507417334808
 40
13.08215465267767
 40
13.57942633803179
 40
14.07668342563427
 40
14.56393721574433
 40
15.05117506458705
 40
15.52944617099175
 40
16.00770227973171
 40
16.4791948215088
 40
16.9506763926688
 40
17.41852008838111
 40
17.8863597242363
 40
18.35419936009154
 40
18.8220430558039
 40
19.29352462696387
 40
19.76501716874097
 40
20.24327327748093
 40
20.72154438388562
 40
21.20878223272828
 40
21.6960360228384
 40
22.1932931104409
 40
22.69056479579501
 40
23.19764527512455
 40
23.70473769845211
 40
24.22030360185076
 40
24.73587819999847
 40
25.25765411552155
 40
25.77943527292556
 40
26.30448655576734
 40
26.82953958635442
 40
27.35459261694162
 40
27.87964389978357
 40
28.40142505718758
 40
28.92320097271065
 40
29.43877557085838
 40
29.95434147425691
 40
30.4614338975845
 40
30.96851437691407
 40
31.46578606226815
 40
31.96304314987063
 40
32.45029693998082
 40
32.93753478882346
 40
33.41580589522815
 40
33.89406200396808
 40
34.36555454574522
 40
34.83703611690512
 40
35.3048798126175
 40
35.77271944847274
 40
35.77271944847274
 40
35.77271944847274
 40
35.77271944847274
 10
134.0799834700532
 20
400.085855836562
 30
0.0
 10
134.2359911174385
 20
400.0814053037892
 30
0.0
 10
134.5480077660251
 20
400.0725041996224
 30
0.0
 10
135.012740013762
 20
400.0010620336039
 30
0.0
 10
135.4696992846496
 20
399.8875527622317
 30
0.0
 10
135.9168286622902
 20
399.7286467356842
 30
0.0
 10
136.3488099864749
 20
399.5270569850106
 30
0.0
 10
136.7645805442766
 20
399.2833229198549
 30
0.0
 10
137.1585417284738
 20
399.0005582945803
 30
0.0
 10
137.5302232834458
 20
398.6793787224586
 30
0.0
 10
137.8743470756464
 20
398.3241644007524
 30
0.0
 10
138.1906362679893
 20
397.9354446069067
 30
0.0
 10
138.4746311336272
 20
397.5185704583203
 30
0.0
 10
138.7259795128176
 20
397.0742530144092
 30
0.0
 10
138.9413455238899
 20
396.6083034463813
 30
0.0
 10
139.1202224554564
 20
396.1219713557046
 30
0.0
 10
139.2604852308605
 20
395.6209796439508
 30
0.0
 10
139.3615795825184
 20
395.1074350974053
 30
0.0
 10
139.42248253279
 20
394.5864906592886
 30
0.0
 10
139.44284093209
 20
394.0613069291069
 30
0.0
 10
139.42248253279
 20
393.5361231989278
 30
0.0
 10
139.3615795825184
 20
393.0151787608032
 30
0.0
 10
139.2604852308606
 20
392.5016342142881
 30
0.0
 10
139.1202224554564
 20
392.0006425024215
 30
0.0
 10
138.9413455238898
 20
391.5143104121606
 30
0.0
 10
138.7259795128176
 20
391.048360842593
 30
0.0
 10
138.4746311336274
 20
390.6040434043374
 30
0.0
 10
138.1906362679893
 20
390.1871692348532
 30
0.0
 10
137.8743470756466
 20
389.7984495175538
 30
0.0
 10
137.5302232834459
 20
389.4432349132599
 30
0.0
 10
137.1585417284737
 20
389.1220563754554
 30
0.0
 10
136.7645805442766
 20
388.8392879302273
 30
0.0
 10
136.3488099864749
 20
388.5955678703531
 30
0.0
 10
135.9168286622902
 20
388.3939263019066
 30
0.0
 10
135.4696992846496
 20
388.2352110494753
 30
0.0
 10
135.0127400137621
 20
388.1209937631543
 30
0.0
 10
134.548007766025
 20
388.0521745551448
 30
0.0
 10
134.0799834700532
 20
388.0290497883524
 30
0.0
 10
133.6119591740813
 20
388.0521745551446
 30
0.0
 10
133.1472269263443
 20
388.1209937631539
 30
0.0
 10
132.6902676554567
 20
388.2352110494753
 30
0.0
 10
132.2431382778162
 20
388.3939263019065
 30
0.0
 10
131.8111569536315
 20
388.5955678703531
 30
0.0
 10
131.3953863958298
 20
388.8392879302273
 30
0.0
 10
131.0014252116326
 20
389.1220563754554
 30
0.0
 10
130.6297436566605
 20
389.4432349132597
 30
0.0
 10
130.2856198644598
 20
389.7984495175537
 30
0.0
 10
129.9693306721171
 20
390.1871692348533
 30
0.0
 10
129.6853358064791
 20
390.6040434043372
 30
0.0
 10
129.4339874272888
 20
391.048360842593
 30
0.0
 10
129.2186214162165
 20
391.5143104121606
 30
0.0
 10
129.03974448465
 20
392.0006425024216
 30
0.0
 10
128.8994817092458
 20
392.5016342142881
 30
0.0
 10
128.798387357588
 20
393.0151787608028
 30
0.0
 10
128.7374844073164
 20
393.536123198928
 30
0.0
 10
128.7171260080163
 20
394.0613069291068
 30
0.0
 10
128.7374844073164
 20
394.5864906592886
 30
0.0
 10
128.7983873575881
 20
395.1074350974053
 30
0.0
 10
128.8994817092458
 20
395.6209796439507
 30
0.0
 10
129.03974448465
 20
396.1219713557044
 30
0.0
 10
129.2186214162165
 20
396.6083034463813
 30
0.0
 10
129.4339874272887
 20
397.074253014409
 30
0.0
 10
129.6853358064791
 20
397.5185704583206
 30
0.0
 10
129.9693306721171
 20
397.9354446069065
 30
0.0
 10
130.2856198644599
 20
398.3241644007528
 30
0.0
 10
130.6297436566606
 20
398.6793787224584
 30
0.0
 10
131.0014252116326
 20
399.0005582945805
 30
0.0
 10
131.3953863958298
 20
399.283322919855
 30
0.0
 10
131.8111569536315
 20
399.5270569850105
 30
0.0
 10
132.2431382778162
 20
399.7286467356843
 30
0.0
 10
132.6902676554567
 20
399.8875527622316
 30
0.0
 10
133.1472269263443
 20
400.0010620336039
 30
0.0
 10
133.6119591740813
 20
400.0725041996225
 30
0.0
 10
133.9239758226679
 20
400.0814053037892
 30
0.0
 10
134.0799834700532
 20
400.085855836562
 30
0.0
 11
134.0799834700532
 21
400.085855836562
 31
0.0
 11
134.5472572778133
 21
400.0628533702049
 31
0.0
 11
135.0100554944696
 21
399.9943294015699
 31
0.0
 11
135.4675058557559
 21
399.880162686182
 31
0.0
 11
135.9118677510634
 21
399.7225310810063
 31
0.0
 11
136.3453316567854
 21
399.5204470688151
 31
0.0
 11
136.7580191307568
 21
399.278719329305
 31
0.0
 11
137.1539972731622
 21
398.9948143591441
 31
0.0
 11
137.5227997520511
 21
398.6763791419616
 31
0.0
 11
137.8689726728257
 21
398.3194072661881
 31
0.0
 11
138.182972142766
 21
397.9338123207699
 31
0.0
 11
138.4686483824446
 21
397.5148616093488
 31
0.0
 11
138.7184772988731
 21
397.0735813828347
 31
0.0
 11
138.9349459368376
 21
396.6056609520721
 31
0.0
 11
139.1130441671825
 21
396.1218240099075
 31
0.0
 11
139.2538285817416
 21
395.6194000309444
 31
0.0
 11
139.3546840330613
 21
395.1074588681522
 31
0.0
 11
139.4157039380288
 21
394.585965415833
 31
0.0
 11
139.4360547914603
 21
394.0613069291073
 31
0.0
 11
139.4157039380288
 21
393.5366484423816
 31
0.0
 11
139.3546840330613
 21
393.0151549900626
 31
0.0
 11
139.2538285817416
 21
392.5032138272705
 31
0.0
 11
139.1130441671825
 21
392.0007898483073
 31
0.0
 11
138.9349459368376
 21
391.5169529061427
 31
0.0
 11
138.7184772988731
 21
391.0490324753801
 31
0.0
 11
138.4686483824447
 21
390.607752248866
 31
0.0
 11
138.1829721427661
 21
390.1888015374449
 31
0.0
 11
137.8689726728258
 21
389.8032065920266
 31
0.0
 11
137.5227997520511
 21
389.4462347162531
 31
0.0
 11
137.1539972731621
 21
389.1277994990708
 31
0.0
 11
136.7580191307568
 21
388.8438945289098
 31
0.0
 11
136.3453316567854
 21
388.6021667893996
 31
0.0
 11
135.9118677510634
 21
388.4000827772084
 31
0.0
 11
135.467505855756
 21
388.2424511720329
 31
0.0
 11
135.0100554944696
 21
388.1282844566449
 31
0.0
 11
134.5472572778133
 21
388.05976048801
 31
0.0
 11
134.0799834700532
 21
388.0367580216528
 31
0.0
 11
133.6127096622931
 21
388.0597604880098
 31
0.0
 11
133.1499114456367
 21
388.1282844566447
 31
0.0
 11
132.6924610843504
 21
388.2424511720328
 31
0.0
 11
132.248099189043
 21
388.4000827772084
 31
0.0
 11
131.814635283321
 21
388.6021667893997
 31
0.0
 11
131.4019478093496
 21
388.8438945289098
 31
0.0
 11
131.0059696669443
 21
389.1277994990707
 31
0.0
 11
130.6371671880553
 21
389.4462347162531
 31
0.0
 11
130.2909942672806
 21
389.8032065920266
 31
0.0
 11
129.9769947973403
 21
390.1888015374449
 31
0.0
 11
129.6913185576618
 21
390.607752248866
 31
0.0
 11
129.4414896412333
 21
391.0490324753801
 31
0.0
 11
129.2250210032688
 21
391.5169529061427
 31
0.0
 11
129.0469227729239
 21
392.0007898483073
 31
0.0
 11
128.9061383583648
 21
392.5032138272705
 31
0.0
 11
128.8052829070451
 21
393.0151549900626
 31
0.0
 11
128.7442630020776
 21
393.5366484423816
 31
0.0
 11
128.723912148646
 21
394.0613069291073
 31
0.0
 11
128.7442630020776
 21
394.5859654158331
 31
0.0
 11
128.8052829070451
 21
395.1074588681522
 31
0.0
 11
128.9061383583648
 21
395.6194000309444
 31
0.0
 11
129.0469227729239
 21
396.1218240099075
 31
0.0
 11
129.2250210032688
 21
396.6056609520721
 31
0.0
 11
129.4414896412333
 21
397.0735813828346
 31
0.0
 11
129.6913185576617
 21
397.5148616093488
 31
0.0
 11
129.9769947973403
 21
397.9338123207699
 31
0.0
 11
130.2909942672806
 21
398.3194072661881
 31
0.0
 11
130.6371671880553
 21
398.6763791419616
 31
0.0
 11
131.0059696669443
 21
398.9948143591441
 31
0.0
 11
131.4019478093496
 21
399.278719329305
 31
0.0
 11
131.814635283321
 21
399.5204470688151
 31
0.0
 11
132.248099189043
 21
399.7225310810063
 31
0.0
 11
132.6924610843504
 21
399.8801626861819
 31
0.0
 11
133.1499114456367
 21
399.9943294015699
 31
0.0
 11
133.6127096622931
 21
400.062853370205
 31
0.0
 11
134.0799834700532
 21
400.085855836562
 31
0.0
  0
SPLINE
  5
144
330
51
100
AcDbEntity
  8
1
  6
Continuous
 62
     7
100
AcDbSpline
210
0.0
220
0.0
230
1.0
 70
    11
 71
     3
 72
    79
 73
    75
 74
    73
 42
0.0000000001
 43
0.0000000001
 44
0.00000001
 40
0.0
 40
0.0
 40
0.0
 40
0.0
 40
0.4678396358551878
 40
0.9356833315675053
 40
1.407164902727434
 40
1.878657444504556
 40
2.356913553244493
 40
2.835184659649182
 40
3.322422508491891
 40
3.80967629860207
 40
4.306933386204548
 40
4.804205071558576
 40
5.311285550888149
 40
5.818377974215683
 40
6.333943877614298
 40
6.849518475762027
 40
7.371294391285095
 40
7.89307554868911
 40
8.418126831531112
 40
8.943179862118246
 40
9.468232892705323
 40
9.9932841755471
 40
10.51506533295111
 40
11.03684124847418
 40
11.55241584662192
 40
12.06798175002058
 40
12.57507417334811
 40
13.08215465267768
 40
13.57942633803179
 40
14.07668342563423
 40
14.56393721574431
 40
15.05117506458708
 40
15.5294461709917
 40
16.00770227973166
 40
16.47919482150881
 40
16.95067639266882
 40
17.41852008838114
 40
17.88635972423633
 40
18.35419936009157
 40
18.82204305580395
 40
19.29352462696392
 40
19.76501716874102
 40
20.24327327748094
 40
20.72154438388568
 40
21.20878223272835
 40
21.69603602283847
 40
22.19329311044097
 40
22.69056479579507
 40
23.19764527512461
 40
23.70473769845218
 40
24.22030360185082
 40
24.73587819999854
 40
25.25765411552161
 40
25.77943527292563
 40
26.3044865557674
 40
26.82953958635448
 40
27.35459261694167
 40
27.87964389978361
 40
28.40142505718762
 40
28.9232009727107
 40
29.43877557085842
 40
29.95434147425696
 40
30.46143389758454
 40
30.96851437691412
 40
31.4657860622682
 40
31.96304314987068
 40
32.45029693998087
 40
32.9375347888235
 40
33.41580589522819
 40
33.89406200396812
 40
34.36555454574526
 40
34.83703611690516
 40
35.30487981261754
 40
35.77271944847279
 40
35.77271944847279
 40
35.77271944847279
 40
35.77271944847279
 10
146.0799834700532
 20
400.085855836562
 30
0.0
 10
146.2359911174385
 20
400.0814053037892
 30
0.0
 10
146.5480077660251
 20
400.0725041996224
 30
0.0
 10
147.012740013762
 20
400.0010620336038
 30
0.0
 10
147.4696992846496
 20
399.8875527622319
 30
0.0
 10
147.9168286622901
 20
399.7286467356841
 30
0.0
 10
148.3488099864748
 20
399.5270569850106
 30
0.0
 10
148.7645805442766
 20
399.2833229198549
 30
0.0
 10
149.1585417284737
 20
399.0005582945803
 30
0.0
 10
149.5302232834458
 20
398.6793787224585
 30
0.0
 10
149.8743470756465
 20
398.3241644007526
 30
0.0
 10
150.1906362679892
 20
397.9354446069065
 30
0.0
 10
150.4746311336272
 20
397.5185704583205
 30
0.0
 10
150.7259795128175
 20
397.0742530144091
 30
0.0
 10
150.9413455238899
 20
396.6083034463813
 30
0.0
 10
151.1202224554564
 20
396.1219713557044
 30
0.0
 10
151.2604852308605
 20
395.6209796439508
 30
0.0
 10
151.3615795825184
 20
395.1074350974053
 30
0.0
 10
151.42248253279
 20
394.5864906592886
 30
0.0
 10
151.44284093209
 20
394.0613069291069
 30
0.0
 10
151.42248253279
 20
393.5361231989278
 30
0.0
 10
151.3615795825184
 20
393.0151787608032
 30
0.0
 10
151.2604852308605
 20
392.501634214288
 30
0.0
 10
151.1202224554565
 20
392.0006425024216
 30
0.0
 10
150.9413455238898
 20
391.5143104121607
 30
0.0
 10
150.7259795128175
 20
391.0483608425929
 30
0.0
 10
150.4746311336272
 20
390.6040434043374
 30
0.0
 10
150.1906362679892
 20
390.1871692348532
 30
0.0
 10
149.8743470756465
 20
389.7984495175538
 30
0.0
 10
149.5302232834459
 20
389.4432349132597
 30
0.0
 10
149.1585417284738
 20
389.1220563754555
 30
0.0
 10
148.7645805442766
 20
388.8392879302274
 30
0.0
 10
148.3488099864749
 20
388.5955678703531
 30
0.0
 10
147.9168286622901
 20
388.3939263019065
 30
0.0
 10
147.4696992846497
 20
388.2352110494752
 30
0.0
 10
147.0127400137621
 20
388.120993763154
 30
0.0
 10
146.548007766025
 20
388.0521745551446
 30
0.0
 10
146.0799834700532
 20
388.0290497883522
 30
0.0
 10
145.6119591740813
 20
388.0521745551445
 30
0.0
 10
145.1472269263442
 20
388.1209937631538
 30
0.0
 10
144.6902676554567
 20
388.2352110494751
 30
0.0
 10
144.2431382778162
 20
388.3939263019066
 30
0.0
 10
143.8111569536315
 20
388.595567870353
 30
0.0
 10
143.3953863958298
 20
388.8392879302275
 30
0.0
 10
143.0014252116326
 20
389.1220563754553
 30
0.0
 10
142.6297436566605
 20
389.4432349132598
 30
0.0
 10
142.2856198644599
 20
389.7984495175537
 30
0.0
 10
141.9693306721171
 20
390.1871692348533
 30
0.0
 10
141.6853358064791
 20
390.6040434043372
 30
0.0
 10
141.4339874272888
 20
391.048360842593
 30
0.0
 10
141.2186214162165
 20
391.5143104121606
 30
0.0
 10
141.03974448465
 20
392.0006425024216
 30
0.0
 10
140.8994817092458
 20
392.501634214288
 30
0.0
 10
140.7983873575881
 20
393.0151787608031
 30
0.0
 10
140.7374844073164
 20
393.536123198928
 30
0.0
 10
140.7171260080165
 20
394.0613069291068
 30
0.0
 10
140.7374844073164
 20
394.5864906592888
 30
0.0
 10
140.798387357588
 20
395.1074350974052
 30
0.0
 10
140.8994817092458
 20
395.6209796439508
 30
0.0
 10
141.03974448465
 20
396.1219713557044
 30
0.0
 10
141.2186214162165
 20
396.6083034463813
 30
0.0
 10
141.4339874272888
 20
397.0742530144091
 30
0.0
 10
141.685335806479
 20
397.5185704583205
 30
0.0
 10
141.9693306721171
 20
397.9354446069066
 30
0.0
 10
142.2856198644599
 20
398.3241644007526
 30
0.0
 10
142.6297436566606
 20
398.6793787224586
 30
0.0
 10
143.0014252116325
 20
399.0005582945802
 30
0.0
 10
143.3953863958298
 20
399.2833229198551
 30
0.0
 10
143.8111569536315
 20
399.5270569850105
 30
0.0
 10
144.2431382778162
 20
399.7286467356843
 30
0.0
 10
144.6902676554568
 20
399.8875527622316
 30
0.0
 10
145.1472269263443
 20
400.0010620336039
 30
0.0
 10
145.6119591740813
 20
400.0725041996225
 30
0.0
 10
145.9239758226679
 20
400.0814053037892
 30
0.0
 10
146.0799834700532
 20
400.085855836562
 30
0.0
 11
146.0799834700532
 21
400.085855836562
 31
0.0
 11
146.5472572778133
 21
400.0628533702049
 31
0.0
 11
147.0100554944696
 21
399.9943294015699
 31
0.0
 11
147.4675058557559
 21
399.880162686182
 31
0.0
 11
147.9118677510633
 21
399.7225310810063
 31
0.0
 11
148.3453316567853
 21
399.5204470688151
 31
0.0
 11
148.7580191307567
 21
399.278719329305
 31
0.0
 11
149.1539972731621
 21
398.9948143591441
 31
0.0
 11
149.5227997520511
 21
398.6763791419616
 31
0.0
 11
149.8689726728258
 21
398.3194072661881
 31
0.0
 11
150.182972142766
 21
397.9338123207699
 31
0.0
 11
150.4686483824446
 21
397.5148616093488
 31
0.0
 11
150.718477298873
 21
397.0735813828347
 31
0.0
 11
150.9349459368376
 21
396.6056609520721
 31
0.0
 11
151.1130441671825
 21
396.1218240099075
 31
0.0
 11
151.2538285817416
 21
395.6194000309444
 31
0.0
 11
151.3546840330613
 21
395.1074588681522
 31
0.0
 11
151.4157039380288
 21
394.585965415833
 31
0.0
 11
151.4360547914603
 21
394.0613069291073
 31
0.0
 11
151.4157039380288
 21
393.5366484423816
 31
0.0
 11
151.3546840330613
 21
393.0151549900626
 31
0.0
 11
151.2538285817416
 21
392.5032138272705
 31
0.0
 11
151.1130441671825
 21
392.0007898483073
 31
0.0
 11
150.9349459368375
 21
391.5169529061427
 31
0.0
 11
150.718477298873
 21
391.0490324753801
 31
0.0
 11
150.4686483824446
 21
390.607752248866
 31
0.0
 11
150.182972142766
 21
390.1888015374449
 31
0.0
 11
149.8689726728257
 21
389.8032065920266
 31
0.0
 11
149.5227997520511
 21
389.4462347162531
 31
0.0
 11
149.1539972731621
 21
389.1277994990708
 31
0.0
 11
148.7580191307567
 21
388.8438945289098
 31
0.0
 11
148.3453316567854
 21
388.6021667893996
 31
0.0
 11
147.9118677510634
 21
388.4000827772084
 31
0.0
 11
147.467505855756
 21
388.2424511720327
 31
0.0
 11
147.0100554944696
 21
388.1282844566447
 31
0.0
 11
146.5472572778133
 21
388.0597604880097
 31
0.0
 11
146.0799834700532
 21
388.0367580216526
 31
0.0
 11
145.6127096622931
 21
388.0597604880097
 31
0.0
 11
145.1499114456367
 21
388.1282844566447
 31
0.0
 11
144.6924610843504
 21
388.2424511720328
 31
0.0
 11
144.248099189043
 21
388.4000827772084
 31
0.0
 11
143.814635283321
 21
388.6021667893996
 31
0.0
 11
143.4019478093496
 21
388.8438945289098
 31
0.0
 11
143.0059696669443
 21
389.1277994990707
 31
0.0
 11
142.6371671880553
 21
389.4462347162531
 31
0.0
 11
142.2909942672806
 21
389.8032065920266
 31
0.0
 11
141.9769947973403
 21
390.1888015374449
 31
0.0
 11
141.6913185576618
 21
390.607752248866
 31
0.0
 11
141.4414896412333
 21
391.0490324753801
 31
0.0
 11
141.2250210032688
 21
391.5169529061427
 31
0.0
 11
141.0469227729239
 21
392.0007898483073
 31
0.0
 11
140.9061383583648
 21
392.5032138272705
 31
0.0
 11
140.8052829070451
 21
393.0151549900626
 31
0.0
 11
140.7442630020776
 21
393.5366484423816
 31
0.0
 11
140.7239121486461
 21
394.0613069291073
 31
0.0
 11
140.7442630020776
 21
394.5859654158331
 31
0.0
 11
140.8052829070451
 21
395.1074588681522
 31
0.0
 11
140.9061383583648
 21
395.6194000309444
 31
0.0
 11
141.0469227729239
 21
396.1218240099075
 31
0.0
 11
141.2250210032688
 21
396.6056609520721
 31
0.0
 11
141.4414896412333
 21
397.0735813828346
 31
0.0
 11
141.6913185576617
 21
397.5148616093488
 31
0.0
 11
141.9769947973403
 21
397.9338123207699
 31
0.0
 11
142.2909942672806
 21
398.3194072661881
 31
0.0
 11
142.6371671880553
 21
398.6763791419616
 31
0.0
 11
143.0059696669443
 21
398.9948143591441
 31
0.0
 11
143.4019478093496
 21
399.278719329305
 31
0.0
 11
143.814635283321
 21
399.5204470688151
 31
0.0
 11
144.248099189043
 21
399.7225310810063
 31
0.0
 11
144.6924610843504
 21
399.8801626861819
 31
0.0
 11
145.1499114456367
 21
399.9943294015699
 31
0.0
 11
145.6127096622931
 21
400.062853370205
 31
0.0
 11
146.0799834700532
 21
400.085855836562
 31
0.0
  0
ENDBLK
  5
53
330
51
100
AcDbEntity
  8
0
100
AcDbBlockEnd
  0
BLOCK
  5
55
330
54
100
AcDbEntity
  8
0
100
AcDbBlockBegin
  2
_n___h__
 70
     0
 71
     0
 10
457.39774223195
 20
185.514683319505
 30
0.0
  3
_n___h__
  1

  0
POINT
  5
145
330
54
100
AcDbEntity
  8
1
 62
     7
100
AcDbPoint
 10
256.333229801809
 20
280.134635375512
 30
0.0
  0
POINT
  5
146
330
54
100
AcDbEntity
  8
1
 62
     7
100
AcDbPoint
 10
255.8332730862309
 20
279.641214322881
 30
0.0
  0
POINT
  5
147
330
54
100
AcDbEntity
  8
1
 62
     7
100
AcDbPoint
 10
224.326693853831
 20
279.641214322881
 30
0.0
  0
POINT
  5
148
330
54
100
AcDbEntity
  8
1
 62
     7
100
AcDbPoint
 10
223.826737138253
 20
280.134635375512
 30
0.0
  0
POINT
  5
149
330
54
100
AcDbEntity
  8
1
 62
     7
100
AcDbPoint
 10
123.8267371382753
 20
280.134635375512
 30
0.0
  0
POINT
  5
14A
330
54
100
AcDbEntity
  8
1
 62
     7
100
AcDbPoint
 10
124.3266938538534
 20
279.641214322881
 30
0.0
  0
POINT
  5
14B
330
54
100
AcDbEntity
  8
1
 62
     7
100
AcDbPoint
 10
155.8332730862533
 20
279.641214322881
 30
0.0
  0
POINT
  5
14C
330
54
100
AcDbEntity
  8
1
 62
     7
100
AcDbPoint
 10
156.3332298018313
 20
280.134635375512
 30
0.0
  0
LINE
  5
14D
330
54
100
AcDbEntity
  8
1
  6
Continuous
 62
     7
100
AcDbLine
 10
255.8332730862309
 20
279.641214322881
 30
0.0
 11
224.326693853831
 21
279.641214322881
 31
0.0
  0
LINE
  5
14E
330
54
100
AcDbEntity
  8
1
  6
Continuous
 62
     7
100
AcDbLine
 10
262.079983470031
 20
305.826849697981
 30
0.0
 11
262.079983470031
 21
309.708979064181
 31
0.0
  0
LINE
  5
14F
330
54
100
AcDbEntity
  8
1
  6
Continuous
 62
     7
100
AcDbLine
 10
233.5799834719907
 20
316.641214322881
 30
0.0
 11
246.579983470031
 21
316.641214322881
 31
0.0
  0
LINE
  5
150
330
54
100
AcDbEntity
  8
1
  6
Continuous
 62
     7
100
AcDbLine
 10
243.1140914035309
 20
305.826849697981
 30
0.0
 11
243.1140914035309
 21
309.708979064181
 31
0.0
  0
LINE
  5
151
330
54
100
AcDbEntity
  8
1
  6
Continuous
 62
     7
100
AcDbLine
 10
250.4330455619699
 20
305.826849698013
 30
0.0
 11
250.433045561931
 21
313.065568712781
 31
0.0
  0
LINE
  5
152
330
54
100
AcDbEntity
  8
1
  6
Continuous
 62
     7
100
AcDbLine
 10
218.0799834700309
 20
309.708979064181
 30
0.0
 11
218.0799834700309
 21
305.826849697981
 31
0.0
  0
LINE
  5
153
330
54
100
AcDbEntity
  8
1
  6
Continuous
 62
     7
100
AcDbLine
 10
118.0799834700533
 20
309.708979064181
 30
0.0
 11
118.0799834700533
 21
305.826849697981
 31
0.0
  0
LINE
  5
154
330
54
100
AcDbEntity
  8
1
  6
Continuous
 62
     7
100
AcDbLine
 10
153.4330455619922
 20
305.826849698013
 30
0.0
 11
153.4330455619534
 21
313.065568712781
 31
0.0
  0
LINE
  5
155
330
54
100
AcDbEntity
  8
1
  6
Continuous
 62
     7
100
AcDbLine
 10
149.5020378246153
 20
305.826849697981
 30
0.0
 11
149.5020378246153
 21
309.708979064181
 31
0.0
  0
LINE
  5
156
330
54
100
AcDbEntity
  8
1
  6
Continuous
 62
     7
100
AcDbLine
 10
133.579983472013
 20
316.641214322881
 30
0.0
 11
146.5799834700533
 21
316.641214322881
 31
0.0
  0
LINE
  5
157
330
54
100
AcDbEntity
  8
1
  6
Continuous
 62
     7
100
AcDbLine
 10
162.0799834700533
 20
305.826849697981
 30
0.0
 11
162.0799834700533
 21
309.708979064181
 31
0.0
  0
LINE
  5
158
330
54
100
AcDbEntity
  8
1
  6
Continuous
 62
     7
100
AcDbLine
 10
155.8332730862533
 20
279.641214322881
 30
0.0
 11
124.3266938538534
 21
279.641214322881
 31
0.0
  0
LINE
  5
159
330
54
100
AcDbEntity
  8
1
  6
Continuous
 62
     7
100
AcDbLine
 10
130.6579291154927
 20
309.708979064181
 30
0.0
 11
130.6579291154927
 21
305.826849697981
 31
0.0
  0
LINE
  5
15A
330
54
100
AcDbEntity
  8
1
  6
Continuous
 62
     7
100
AcDbLine
 10
126.7269213781532
 20
313.065568712781
 30
0.0
 11
126.7269213781144
 21
305.826849698013
 31
0.0
  0
ARC
  5
15B
330
54
100
AcDbEntity
  8
1
  6
Continuous
 62
     7
100
AcDbCircle
 10
293.829983470031
 20
279.641214322881
 30
0.0
 40
37.49999999998191
100
AcDbArc
 50
155.2304131734763
 51
179.2460864090317
  0
ARC
  5
15C
330
54
100
AcDbEntity
  8
1
  6
Continuous
 62
     7
100
AcDbCircle
 10
237.079983470031
 20
305.826849697981
 30
0.0
 40
24.99999999999957
100
AcDbArc
 50
-24.76958682659992
 51
0.0
  0
ARC
  5
15D
330
54
100
AcDbEntity
  8
1
  6
Continuous
 62
     7
100
AcDbCircle
 10
256.079983470031
 20
309.708979064181
 30
0.0
 40
6.0
100
AcDbArc
 50
0.0
 51
80.71563779409738
  0
ARC
  5
15E
330
54
100
AcDbEntity
  8
1
  6
Continuous
 62
     7
100
AcDbCircle
 10
254.323465110031
 20
305.090639215981
 30
0.0
 40
10.545900481
100
AcDbArc
 50
74.84786389390241
 51
105.1521361060979
  0
ARC
  5
15F
330
54
100
AcDbEntity
  8
1
  6
Continuous
 62
     7
100
AcDbCircle
 10
253.142658883131
 20
313.065568712781
 30
0.0
 40
2.709613321214527
100
AcDbArc
 50
125.5579850247982
 51
180.0
  0
ARC
  5
160
330
54
100
AcDbEntity
  8
1
  6
Continuous
 62
     7
100
AcDbCircle
 10
255.786546905931
 20
309.323388097081
 30
0.0
 40
6.085568310200172
100
AcDbArc
 50
56.20468456850234
 51
77.72866044436755
  0
ARC
  5
161
330
54
100
AcDbEntity
  8
1
  6
Continuous
 62
     7
100
AcDbCircle
 10
255.257715583031
 20
308.702835648281
 30
0.0
 40
6.896061462556008
100
AcDbArc
 50
8.3894672563433
 51
55.42111889273168
  0
ARC
  5
162
330
54
100
AcDbEntity
  8
1
  6
Continuous
 62
     7
100
AcDbCircle
 10
270.4900922387309
 20
297.819875580081
 30
0.0
 40
19.80625606929985
100
AcDbArc
 50
-175.6349954843002
 51
-147.2445771054011
  0
ARC
  5
163
330
54
100
AcDbEntity
  8
1
  6
Continuous
 62
     7
100
AcDbCircle
 10
320.042442849131
 20
303.319786556481
 30
0.0
 40
69.65453004850053
100
AcDbArc
 50
177.9373176484001
 51
-174.2261786489195
  0
ARC
  5
164
330
54
100
AcDbEntity
  8
1
  6
Continuous
 62
     7
100
AcDbCircle
 10
231.1499070040309
 20
306.693029774381
 30
0.0
 40
29.97132022242074
100
AcDbArc
 50
-40.81397054084079
 51
-26.14895452240037
  0
ARC
  5
165
330
54
100
AcDbEntity
  8
1
  6
Continuous
 62
     7
100
AcDbCircle
 10
342.5021269305309
 20
247.840267604381
 30
0.0
 40
95.99442900589953
100
AcDbArc
 50
150.2360129228998
 51
151.6088624424228
  0
ARC
  5
166
330
54
100
AcDbEntity
  8
1
  6
Continuous
 62
     7
100
AcDbCircle
 10
238.345242392431
 20
310.676546373281
 30
0.0
 40
4.623548302800132
100
AcDbArc
 50
47.25532142710559
 51
67.96351585240197
  0
ARC
  5
167
330
54
100
AcDbEntity
  8
1
  6
Continuous
 62
     7
100
AcDbCircle
 10
197.7326869714301
 20
322.6957092502063
 30
0.0
 40
49.81164764227492
100
AcDbArc
 50
-35.90433944112986
 51
-31.98255453922964
  0
ARC
  5
168
330
54
100
AcDbEntity
  8
1
  6
Continuous
 62
     7
100
AcDbCircle
 10
237.5400168754309
 20
310.111908940781
 30
0.0
 40
5.588618731875536
100
AcDbArc
 50
-4.13451522960555
 51
45.12125598382871
  0
ARC
  5
169
330
54
100
AcDbEntity
  8
1
  6
Continuous
 62
     7
100
AcDbCircle
 10
218.4024889720432
 20
308.6858458407518
 30
0.0
 40
24.87643772082182
100
AcDbArc
 50
-29.82782819006744
 51
-6.59946504979682
  0
ARC
  5
16A
330
54
100
AcDbEntity
  8
1
  6
Continuous
 62
     7
100
AcDbCircle
 10
255.8332730862309
 20
280.141214322881
 30
0.0
 40
0.5
100
AcDbArc
 50
-90.0
 51
-0.75391359103368
  0
ARC
  5
16B
330
54
100
AcDbEntity
  8
1
  6
Continuous
 62
     7
100
AcDbCircle
 10
140.079983470053
 20
329.2850702006639
 30
0.0
 40
18.00000000000021
100
AcDbArc
 50
57.69745479080077
 51
122.3025452091993
  0
ARC
  5
16C
330
54
100
AcDbEntity
  8
1
  6
Continuous
 62
     7
100
AcDbCircle
 10
173.366961540453
 20
353.4694753975639
 30
0.0
 40
17.99999999999934
100
AcDbArc
 50
129.6974547908
 51
-165.6974547907996
  0
ARC
  5
16D
330
54
100
AcDbEntity
  8
1
  6
Continuous
 62
     7
100
AcDbCircle
 10
160.652467300353
 20
392.6006650038638
 30
0.0
 40
18.00000000000008
100
AcDbArc
 50
-158.3025452092017
 51
-93.69745479080068
  0
ARC
  5
16E
330
54
100
AcDbEntity
  8
1
  6
Continuous
 62
     7
100
AcDbCircle
 10
119.507499639853
 20
392.6006650038638
 30
0.0
 40
18.00000000000016
100
AcDbArc
 50
-86.30254520919897
 51
-21.69745479079819
  0
ARC
  5
16F
330
54
100
AcDbEntity
  8
1
  6
Continuous
 62
     7
100
AcDbCircle
 10
106.7930053997531
 20
353.4694753975639
 30
0.0
 40
17.9999999999995
100
AcDbArc
 50
-14.30254520920047
 51
50.30254520920031
  0
ARC
  5
170
330
54
100
AcDbEntity
  8
1
  6
Continuous
 62
     7
100
AcDbCircle
 10
140.079983470053
 20
364.2850702006639
 30
0.0
 40
22.00000000008047
100
AcDbArc
 50
7.9271561696861
 51
28.07284383044583
  0
ARC
  5
171
330
54
100
AcDbEntity
  8
1
  6
Continuous
 62
     7
100
AcDbCircle
 10
140.079983470053
 20
364.2850702006639
 30
0.0
 40
22.00000000000766
100
AcDbArc
 50
-64.07284383034708
 51
-43.92715616948283
  0
ARC
  5
172
330
54
100
AcDbEntity
  8
1
  6
Continuous
 62
     7
100
AcDbCircle
 10
140.079983470053
 20
364.2850702006639
 30
0.0
 40
21.99999999997035
100
AcDbArc
 50
-136.0728438303365
 51
-115.927156169653
  0
ARC
  5
173
330
54
100
AcDbEntity
  8
1
  6
Continuous
 62
     7
100
AcDbCircle
 10
140.079983470053
 20
364.2850702006639
 30
0.0
 40
22.00000000009506
100
AcDbArc
 50
79.92715616952599
 51
100.0728438302173
  0
ARC
  5
174
330
54
100
AcDbEntity
  8
1
  6
Continuous
 62
     7
100
AcDbCircle
 10
140.079983470053
 20
364.2850702006639
 30
0.0
 40
22.0000000000115
100
AcDbArc
 50
151.9271561694315
 51
172.072843830278
  0
ARC
  5
175
330
54
100
AcDbEntity
  8
1
  6
Continuous
 62
     7
100
AcDbCircle
 10
244.141232573531
 20
236.678394874881
 30
0.0
 40
79.99999999999415
100
AcDbArc
 50
80.71563779414971
 51
88.25310269342424
  0
ARC
  5
176
330
54
100
AcDbEntity
  8
1
  6
Continuous
 62
     7
100
AcDbCircle
 10
236.0187343665309
 20
236.678394874881
 30
0.0
 40
79.99999999999417
100
AcDbArc
 50
91.74689730517284
 51
99.28436220585031
  0
ARC
  5
177
330
54
100
AcDbEntity
  8
1
  6
Continuous
 62
     7
100
AcDbCircle
 10
224.326693853831
 20
280.141214322881
 30
0.0
 40
0.5000000000000053
100
AcDbArc
 50
-179.2460864089661
 51
-90.0
  0
ARC
  5
178
330
54
100
AcDbEntity
  8
1
  6
Continuous
 62
     7
100
AcDbCircle
 10
224.0799834700309
 20
309.708979064181
 30
0.0
 40
6.00000000000015
100
AcDbArc
 50
99.28436220590263
 51
180.0
  0
ARC
  5
179
330
54
100
AcDbEntity
  8
1
  6
Continuous
 62
     7
100
AcDbCircle
 10
243.079983470031
 20
305.826849697981
 30
0.0
 40
25.00000000000011
100
AcDbArc
 50
180.0
 51
-155.2304131734002
  0
ARC
  5
17A
330
54
100
AcDbEntity
  8
1
  6
Continuous
 62
     7
100
AcDbCircle
 10
186.3299834700309
 20
279.641214322881
 30
0.0
 40
37.49999999987344
100
AcDbArc
 50
0.75391359096835
 51
24.76958682652375
  0
ARC
  5
17B
330
54
100
AcDbEntity
  8
1
  6
Continuous
 62
     7
100
AcDbCircle
 10
234.4482681810061
 20
290.6698029298478
 30
0.0
 40
24.93677399918505
100
AcDbArc
 50
76.94773547353343
 51
106.9046438078092
  0
ARC
  5
17C
330
54
100
AcDbEntity
  8
1
  6
Continuous
 62
     7
100
AcDbCircle
 10
229.8239551755626
 20
308.0406124252039
 30
0.0
 40
7.000000000001726
100
AcDbArc
 50
112.0401688203448
 51
142.4926349816188
  0
ARC
  5
17D
330
54
100
AcDbEntity
  8
1
  6
Continuous
 62
     7
100
AcDbCircle
 10
232.1553328012964
 20
308.0359523145634
 30
0.0
 40
8.96476432471554
100
AcDbArc
 50
151.5793271923858
 51
-146.0788987094882
  0
ARC
  5
17E
330
54
100
AcDbEntity
  8
1
  6
Continuous
 62
     7
100
AcDbCircle
 10
294.6407376497035
 20
338.1516344120702
 30
0.0
 40
78.24789375070354
100
AcDbArc
 50
-153.3326081543843
 51
-145.0269107775315
  0
ARC
  5
17F
330
54
100
AcDbEntity
  8
1
  6
Continuous
 62
     7
100
AcDbCircle
 10
209.4337257922381
 20
278.7769794060149
 30
0.0
 40
25.60629001276977
100
AcDbArc
 50
18.67366992674976
 51
34.55446783636013
  0
ARC
  5
180
330
54
100
AcDbEntity
  8
1
  6
Continuous
 62
     7
100
AcDbCircle
 10
256.3584093413387
 20
276.4287143218144
 30
0.0
 40
25.00000000000003
100
AcDbArc
 50
136.9818005753554
 51
155.0470996670551
  0
ARC
  5
181
330
54
100
AcDbEntity
  8
1
  6
Continuous
 62
     7
100
AcDbCircle
 10
162.7463557624231
 20
276.4287143218144
 30
0.0
 40
25.00000000000003
100
AcDbArc
 50
136.9818005753554
 51
155.0470996670551
  0
ARC
  5
182
330
54
100
AcDbEntity
  8
1
  6
Continuous
 62
     7
100
AcDbCircle
 10
86.32998347005326
 20
279.641214322881
 30
0.0
 40
37.49999999987337
100
AcDbArc
 50
0.75391359096835
 51
24.76958682652373
  0
ARC
  5
183
330
54
100
AcDbEntity
  8
1
  6
Continuous
 62
     7
100
AcDbCircle
 10
143.0799834700533
 20
305.826849697981
 30
0.0
 40
24.99999999999999
100
AcDbArc
 50
180.0
 51
-155.2304131734001
  0
ARC
  5
184
330
54
100
AcDbEntity
  8
1
  6
Continuous
 62
     7
100
AcDbCircle
 10
124.0799834700533
 20
309.708979064181
 30
0.0
 40
6.000000000000169
100
AcDbArc
 50
99.28436220590369
 51
180.0
  0
ARC
  5
185
330
54
100
AcDbEntity
  8
1
  6
Continuous
 62
     7
100
AcDbCircle
 10
124.3266938538534
 20
280.141214322881
 30
0.0
 40
0.500000000000119
100
AcDbArc
 50
-179.2460864089663
 51
-90.0
  0
ARC
  5
186
330
54
100
AcDbEntity
  8
1
  6
Continuous
 62
     7
100
AcDbCircle
 10
136.0187343665533
 20
236.678394874881
 30
0.0
 40
79.99999999999417
100
AcDbArc
 50
91.74689730517289
 51
99.28436220585039
  0
ARC
  5
187
330
54
100
AcDbEntity
  8
1
  6
Continuous
 62
     7
100
AcDbCircle
 10
144.1412325735533
 20
236.678394874881
 30
0.0
 40
79.99999999999417
100
AcDbArc
 50
80.71563779414964
 51
88.25310269342425
  0
ARC
  5
188
330
54
100
AcDbEntity
  8
1
  6
Continuous
 62
     7
100
AcDbCircle
 10
155.8332730862533
 20
280.141214322881
 30
0.0
 40
0.5
100
AcDbArc
 50
-90.0
 51
-0.75391359103389
  0
ARC
  5
189
330
54
100
AcDbEntity
  8
1
  6
Continuous
 62
     7
100
AcDbCircle
 10
124.7904353931276
 20
308.6858458407518
 30
0.0
 40
24.87643772082181
100
AcDbArc
 50
-29.82782819006746
 51
-6.59946504979683
  0
ARC
  5
18A
330
54
100
AcDbEntity
  8
1
  6
Continuous
 62
     7
100
AcDbCircle
 10
143.9279632965153
 20
310.111908940781
 30
0.0
 40
5.588618731875536
100
AcDbArc
 50
-4.13451522960555
 51
45.12125598382851
  0
ARC
  5
18B
330
54
100
AcDbEntity
  8
1
  6
Continuous
 62
     7
100
AcDbCircle
 10
104.1206333925145
 20
322.6957092502063
 30
0.0
 40
49.81164764227491
100
AcDbArc
 50
-35.90433944112987
 51
-31.98255453922964
  0
ARC
  5
18C
330
54
100
AcDbEntity
  8
1
  6
Continuous
 62
     7
100
AcDbCircle
 10
144.7331888135153
 20
310.676546373281
 30
0.0
 40
4.623548302800209
100
AcDbArc
 50
47.25532142710455
 51
67.96351585240099
  0
ARC
  5
18D
330
54
100
AcDbEntity
  8
1
  6
Continuous
 62
     7
100
AcDbCircle
 10
242.7521269302137
 20
268.7067345638276
 30
0.0
 40
87.76850930762691
100
AcDbArc
 50
162.2291532988136
 51
163.6020028183365
  0
ARC
  5
18E
330
54
100
AcDbEntity
  8
1
  6
Continuous
 62
     7
100
AcDbCircle
 10
132.8999070040275
 20
296.9789862699488
 30
0.0
 40
25.89070943259774
100
AcDbArc
 50
-22.42198396544475
 51
-7.75696794700428
  0
ARC
  5
18F
330
54
100
AcDbEntity
  8
1
  6
Continuous
 62
     7
100
AcDbCircle
 10
223.0424428491532
 20
303.319786556481
 30
0.0
 40
69.65453004850039
100
AcDbArc
 50
177.9373176484001
 51
-174.2261786489195
  0
ARC
  5
190
330
54
100
AcDbEntity
  8
1
  6
Continuous
 62
     7
100
AcDbCircle
 10
173.4900922387533
 20
297.819875580081
 30
0.0
 40
19.80625606929987
100
AcDbArc
 50
-175.6349954843002
 51
-147.2445771054013
  0
ARC
  5
191
330
54
100
AcDbEntity
  8
1
  6
Continuous
 62
     7
100
AcDbCircle
 10
155.2577155830533
 20
308.702835648281
 30
0.0
 40
6.896061462556008
100
AcDbArc
 50
8.3894672563433
 51
55.42111889273187
  0
ARC
  5
192
330
54
100
AcDbEntity
  8
1
  6
Continuous
 62
     7
100
AcDbCircle
 10
155.7865469059533
 20
309.323388097081
 30
0.0
 40
6.085568310200172
100
AcDbArc
 50
56.20468456850234
 51
77.72866044436624
  0
ARC
  5
193
330
54
100
AcDbEntity
  8
1
  6
Continuous
 62
     7
100
AcDbCircle
 10
156.1426588831533
 20
313.065568712781
 30
0.0
 40
2.709613321214527
100
AcDbArc
 50
125.5579850247982
 51
180.0
  0
ARC
  5
194
330
54
100
AcDbEntity
  8
1
  6
Continuous
 62
     7
100
AcDbCircle
 10
155.8234651100533
 20
310.6298409640089
 30
0.0
 40
4.807193657563654
100
AcDbArc
 50
74.84786389390121
 51
105.1521361060975
  0
ARC
  5
195
330
54
100
AcDbEntity
  8
1
  6
Continuous
 62
     7
100
AcDbCircle
 10
156.0799834700533
 20
309.708979064181
 30
0.0
 40
6.0
100
AcDbArc
 50
0.0
 51
80.71563779409631
  0
ARC
  5
196
330
54
100
AcDbEntity
  8
1
  6
Continuous
 62
     7
100
AcDbCircle
 10
137.0799834700533
 20
305.826849697981
 30
0.0
 40
24.9999999999996
100
AcDbArc
 50
-24.7695868265999
 51
0.0
  0
ARC
  5
197
330
54
100
AcDbEntity
  8
1
  6
Continuous
 62
     7
100
AcDbCircle
 10
193.8299834700533
 20
279.641214322881
 30
0.0
 40
37.49999999998191
100
AcDbArc
 50
155.2304131734763
 51
179.2460864090317
  0
ARC
  5
198
330
54
100
AcDbEntity
  8
1
  6
Continuous
 62
     7
100
AcDbCircle
 10
117.4136111776849
 20
276.4287143218144
 30
0.0
 40
24.99999999999996
100
AcDbArc
 50
24.95290033294488
 51
43.01819942464459
  0
ARC
  5
199
330
54
100
AcDbEntity
  8
1
  6
Continuous
 62
     7
100
AcDbCircle
 10
176.0393335475935
 20
322.6957092502063
 30
0.0
 40
49.81164764227516
100
AcDbArc
 50
-148.0174454607704
 51
-144.0956605588701
  0
ARC
  5
19A
330
54
100
AcDbEntity
  8
1
  6
Continuous
 62
     7
100
AcDbCircle
 10
155.3695315469804
 20
308.6858458407518
 30
0.0
 40
24.87643772078888
100
AcDbArc
 50
-173.4005349502032
 51
-150.1721718099326
  0
ARC
  5
19B
330
54
100
AcDbEntity
  8
1
  6
Continuous
 62
     7
100
AcDbCircle
 10
136.2320036435927
 20
310.111908940781
 30
0.0
 40
5.588618731816257
100
AcDbArc
 50
134.8787440161713
 51
-175.8654847703945
  0
ARC
  5
19C
330
54
100
AcDbEntity
  8
1
  6
Continuous
 62
     7
100
AcDbCircle
 10
135.4267781265927
 20
310.676546373281
 30
0.0
 40
4.623548302799487
100
AcDbArc
 50
112.036484147598
 51
132.7446785728955
  0
ARC
  5
19D
330
54
100
AcDbEntity
  8
1
  6
Continuous
 62
     7
100
AcDbCircle
 10
140.079983470054
 20
290.7922135415438
 30
0.0
 40
24.99999999999987
100
AcDbArc
 50
75.19572724054822
 51
104.8042727594516
  0
ARC
  5
19E
330
54
100
AcDbEntity
  8
1
  6
Continuous
 62
     7
100
AcDbCircle
 10
37.40784000989288
 20
268.7067345638276
 30
0.0
 40
87.76850930766108
100
AcDbArc
 50
16.39799718166352
 51
17.7708467011864
  0
ARC
  5
19F
330
54
100
AcDbEntity
  8
1
  6
Continuous
 62
     7
100
AcDbCircle
 10
147.2600599360791
 20
296.9789862699488
 30
0.0
 40
25.89070943258044
100
AcDbArc
 50
-172.2430320529957
 51
-157.5780160345553
  0
ARC
  5
1A0
330
54
100
AcDbEntity
  8
1
  6
Continuous
 62
     7
100
AcDbCircle
 10
106.6698747013533
 20
297.819875580081
 30
0.0
 40
19.80625606930028
100
AcDbArc
 50
-32.75542289459875
 51
-4.36500451569981
  0
ARC
  5
1A1
330
54
100
AcDbEntity
  8
1
  6
Continuous
 62
     7
100
AcDbCircle
 10
57.1175240909534
 20
303.319786556481
 30
0.0
 40
69.65453004857176
100
AcDbArc
 50
-5.77382135108051
 51
2.06268235159989
  0
ARC
  5
1A2
330
54
100
AcDbEntity
  8
1
  6
Continuous
 62
     7
100
AcDbCircle
 10
124.0173080569533
 20
313.065568712781
 30
0.0
 40
2.709613321199896
100
AcDbArc
 50
0.0
 51
54.44201497520184
  0
ARC
  5
1A3
330
54
100
AcDbEntity
  8
1
  6
Continuous
 62
     7
100
AcDbCircle
 10
124.3365018300533
 20
310.6298409640089
 30
0.0
 40
4.807193657563627
100
AcDbArc
 50
74.84786389390234
 51
105.1521361060986
  0
ARC
  5
1A4
330
54
100
AcDbEntity
  8
1
  6
Continuous
 62
     7
100
AcDbCircle
 10
124.3734200341533
 20
309.323388097081
 30
0.0
 40
6.085568310204407
100
AcDbArc
 50
102.2713395556336
 51
123.7953154314977
  0
ARC
  5
1A5
330
54
100
AcDbEntity
  8
1
  6
Continuous
 62
     7
100
AcDbCircle
 10
124.9022513570533
 20
308.702835648281
 30
0.0
 40
6.896061462539393
100
AcDbArc
 50
124.5788811072683
 51
171.6105327436567
  0
CIRCLE
  5
1A6
330
54
100
AcDbEntity
  8
1
  6
Continuous
 62
     7
100
AcDbCircle
 10
140.079983470053
 20
364.2850702006639
 30
0.0
 40
6.5
  0
ENDBLK
  5
56
330
54
100
AcDbEntity
  8
0
100
AcDbBlockEnd
  0
BLOCK
  5
58
330
57
100
AcDbEntity
  8
0
100
AcDbBlockBegin
  2
B24-16
 70
     0
 71
     0
 10
0.0
 20
891.0
 30
0.0
  3
B24-16
  1

  0
LINE
  5
1A7
330
57
100
AcDbEntity
  8
1
  6
Continuous
 62
     7
100
AcDbLine
 10
134.0799834700565
 20
317.6412143228941
 30
0.0
 11
134.0799834700565
 21
316.641214322881
 31
0.0
  0
LINE
  5
1A8
330
57
100
AcDbEntity
  8
1
  6
Continuous
 62
     7
100
AcDbLine
 10
146.0799834700565
 20
316.641214322881
 30
0.0
 11
146.0799834700565
 21
317.6412143228941
 31
0.0
  0
LINE
  5
1A9
330
57
100
AcDbEntity
  8
1
  6
Continuous
 62
     7
100
AcDbLine
 10
246.0799834701087
 20
316.641214322881
 30
0.0
 11
246.0799834701087
 21
317.6412143228941
 31
0.0
  0
LINE
  5
1AA
330
57
100
AcDbEntity
  8
1
  6
Continuous
 62
     7
100
AcDbLine
 10
234.0799834701087
 20
317.6412143228941
 30
0.0
 11
234.0799834701087
 21
316.641214322881
 31
0.0
  0
ARC
  5
1AB
330
57
100
AcDbEntity
  8
1
  6
Continuous
 62
     7
100
AcDbCircle
 10
140.0799834700565
 20
307.2489094774811
 30
0.0
 40
11.99999999999975
100
AcDbArc
 50
59.99999999999932
 51
120.0000000000007
  0
ARC
  5
1AC
330
57
100
AcDbEntity
  8
1
  6
Continuous
 62
     7
100
AcDbCircle
 10
240.0799834701087
 20
307.2489094774811
 30
0.0
 40
11.99999999999977
100
AcDbArc
 50
90.00000000036899
 51
120.0000000000007
  0
ARC
  5
1AD
330
57
100
AcDbEntity
  8
1
  6
Continuous
 62
     7
100
AcDbCircle
 10
240.0799834701087
 20
307.2489094774811
 30
0.0
 40
11.99999999999975
100
AcDbArc
 50
59.99999999999932
 51
90.00000000036899
  0
CIRCLE
  5
1AE
330
57
100
AcDbEntity
  8
1
  6
Continuous
 62
     7
100
AcDbCircle
 10
140.079983470053
 20
364.2850702006639
 30
0.0
 40
6.0
  0
ENDBLK
  5
59
330
57
100
AcDbEntity
  8
0
100
AcDbBlockEnd
  0
BLOCK
  5
5B
330
5A
100
AcDbEntity
  8
0
100
AcDbBlockBegin
  2
B24-17-M1
 70
     0
 71
     0
 10
-409.573551412505
 20
659.8744685612819
 30
0.0
  3
B24-17-M1
  1

  0
LINE
  5
1AF
330
5A
100
AcDbEntity
  8
1
  6
Continuous
 62
     7
100
AcDbLine
 10
163.0799834700532
 20
236.141214322881
 30
0.0
 11
163.0799834700532
 21
234.641214322881
 31
0.0
  0
LINE
  5
1B0
330
5A
100
AcDbEntity
  8
1
  6
Continuous
 62
     7
100
AcDbLine
 10
161.5799834700532
 20
237.641214322881
 30
0.0
 11
155.6684407381532
 21
237.641214322881
 31
0.0
  0
LINE
  5
1B1
330
5A
100
AcDbEntity
  8
1
  6
Continuous
 62
     7
100
AcDbLine
 10
155.6684407381532
 20
240.141214322881
 30
0.0
 11
155.6684407381532
 21
237.641214322881
 31
0.0
  0
LINE
  5
1B2
330
5A
100
AcDbEntity
  8
1
  6
Continuous
 62
     7
100
AcDbLine
 10
153.0799834700533
 20
241.641214322881
 30
0.0
 11
155.6684407381532
 21
240.141214322881
 31
0.0
  0
LINE
  5
1B3
330
5A
100
AcDbEntity
  8
1
  6
Continuous
 62
     7
100
AcDbLine
 10
124.4915262019534
 20
240.141214322881
 30
0.0
 11
127.0799834700533
 21
241.641214322881
 31
0.0
  0
LINE
  5
1B4
330
5A
100
AcDbEntity
  8
1
  6
Continuous
 62
     7
100
AcDbLine
 10
124.4915262019534
 20
237.641214322881
 30
0.0
 11
124.4915262019534
 21
240.141214322881
 31
0.0
  0
LINE
  5
1B5
330
5A
100
AcDbEntity
  8
1
  6
Continuous
 62
     7
100
AcDbLine
 10
124.4915262019534
 20
237.641214322881
 30
0.0
 11
118.5799834700534
 21
237.641214322881
 31
0.0
  0
LINE
  5
1B6
330
5A
100
AcDbEntity
  8
1
  6
Continuous
 62
     7
100
AcDbLine
 10
117.0799834700533
 20
234.641214322881
 30
0.0
 11
117.0799834700534
 21
236.141214322881
 31
0.0
  0
LINE
  5
1B7
330
5A
100
AcDbEntity
  8
1
  6
Continuous
 62
     7
100
AcDbLine
 10
127.0799834700533
 20
241.641214322881
 30
0.0
 11
153.0799834700533
 21
241.641214322881
 31
0.0
  0
LINE
  5
1B8
330
5A
100
AcDbEntity
  8
1
  6
Continuous
 62
     7
100
AcDbLine
 10
163.0799834700532
 20
234.641214322881
 30
0.0
 11
117.0799834700533
 21
234.641214322881
 31
0.0
  0
LINE
  5
1B9
330
5A
100
AcDbEntity
  8
1
  6
Continuous
 62
     7
100
AcDbLine
 10
124.4915262019534
 20
237.641214322881
 30
0.0
 11
155.6684407381532
 21
237.641214322881
 31
0.0
  0
LINE
  5
1BA
330
5A
100
AcDbEntity
  8
1
  6
Continuous
 62
     7
100
AcDbLine
 10
155.6684407381532
 20
240.141214322881
 30
0.0
 11
124.4915262019534
 21
240.141214322881
 31
0.0
  0
LINE
  5
1BB
330
5A
100
AcDbEntity
  8
1
  6
Continuous
 62
     7
100
AcDbLine
 10
314.6684407381533
 20
240.141214322881
 30
0.0
 11
283.4915262019534
 21
240.141214322881
 31
0.0
  0
LINE
  5
1BC
330
5A
100
AcDbEntity
  8
1
  6
Continuous
 62
     7
100
AcDbLine
 10
283.4915262019534
 20
237.641214322881
 30
0.0
 11
314.6684407381533
 21
237.641214322881
 31
0.0
  0
LINE
  5
1BD
330
5A
100
AcDbEntity
  8
1
  6
Continuous
 62
     7
100
AcDbLine
 10
322.0799834700532
 20
234.641214322881
 30
0.0
 11
276.0799834700533
 21
234.641214322881
 31
0.0
  0
LINE
  5
1BE
330
5A
100
AcDbEntity
  8
1
  6
Continuous
 62
     7
100
AcDbLine
 10
286.0799834700533
 20
241.641214322881
 30
0.0
 11
312.0799834700533
 21
241.641214322881
 31
0.0
  0
LINE
  5
1BF
330
5A
100
AcDbEntity
  8
1
  6
Continuous
 62
     7
100
AcDbLine
 10
276.0799834700533
 20
234.641214322881
 30
0.0
 11
276.0799834700534
 21
236.141214322881
 31
0.0
  0
LINE
  5
1C0
330
5A
100
AcDbEntity
  8
1
  6
Continuous
 62
     7
100
AcDbLine
 10
283.4915262019534
 20
237.641214322881
 30
0.0
 11
277.5799834700534
 21
237.641214322881
 31
0.0
  0
LINE
  5
1C1
330
5A
100
AcDbEntity
  8
1
  6
Continuous
 62
     7
100
AcDbLine
 10
283.4915262019534
 20
237.641214322881
 30
0.0
 11
283.4915262019534
 21
240.141214322881
 31
0.0
  0
LINE
  5
1C2
330
5A
100
AcDbEntity
  8
1
  6
Continuous
 62
     7
100
AcDbLine
 10
283.4915262019534
 20
240.141214322881
 30
0.0
 11
286.0799834700533
 21
241.641214322881
 31
0.0
  0
LINE
  5
1C3
330
5A
100
AcDbEntity
  8
1
  6
Continuous
 62
     7
100
AcDbLine
 10
312.0799834700533
 20
241.641214322881
 30
0.0
 11
314.6684407381533
 21
240.141214322881
 31
0.0
  0
LINE
  5
1C4
330
5A
100
AcDbEntity
  8
1
  6
Continuous
 62
     7
100
AcDbLine
 10
314.6684407381533
 20
240.141214322881
 30
0.0
 11
314.6684407381533
 21
237.641214322881
 31
0.0
  0
LINE
  5
1C5
330
5A
100
AcDbEntity
  8
1
  6
Continuous
 62
     7
100
AcDbLine
 10
320.5799834700532
 20
237.641214322881
 30
0.0
 11
314.6684407381533
 21
237.641214322881
 31
0.0
  0
LINE
  5
1C6
330
5A
100
AcDbEntity
  8
1
  6
Continuous
 62
     7
100
AcDbLine
 10
322.0799834700532
 20
236.141214322881
 30
0.0
 11
322.0799834700532
 21
234.641214322881
 31
0.0
  0
ARC
  5
1C7
330
5A
100
AcDbEntity
  8
1
  6
Continuous
 62
     7
100
AcDbCircle
 10
161.5799834700532
 20
236.141214322881
 30
0.0
 40
1.5
100
AcDbArc
 50
0.0
 51
90.0
  0
ARC
  5
1C8
330
5A
100
AcDbEntity
  8
1
  6
Continuous
 62
     7
100
AcDbCircle
 10
118.5799834700534
 20
236.141214322881
 30
0.0
 40
1.5
100
AcDbArc
 50
90.0
 51
180.0
  0
ARC
  5
1C9
330
5A
100
AcDbEntity
  8
1
  6
Continuous
 62
     7
100
AcDbCircle
 10
277.5799834700534
 20
236.141214322881
 30
0.0
 40
1.5
100
AcDbArc
 50
90.0
 51
180.0
  0
ARC
  5
1CA
330
5A
100
AcDbEntity
  8
1
  6
Continuous
 62
     7
100
AcDbCircle
 10
320.5799834700532
 20
236.141214322881
 30
0.0
 40
1.5
100
AcDbArc
 50
0.0
 51
90.0
  0
ENDBLK
  5
5C
330
5A
100
AcDbEntity
  8
0
100
AcDbBlockEnd
  0
BLOCK
  5
5E
330
5D
100
AcDbEntity
  8
0
100
AcDbBlockBegin
  2
_J__A4
 70
     0
 71
     0
 10
0.0
 20
0.0
 30
0.0
  3
_J__A4
  1

  0
POINT
  5
1CB
330
5D
100
AcDbEntity
  8
1
 62
     4
100
AcDbPoint
 10
93.75
 20
17.0
 30
0.0
  0
POINT
  5
1CC
330
5D
100
AcDbEntity
  8
1
 62
     4
100
AcDbPoint
 10
85.25
 20
17.0
 30
0.0
  0
POINT
  5
1CD
330
5D
100
AcDbEntity
  8
1
 62
     4
100
AcDbPoint
 10
106.5
 20
19.00000000000001
 30
0.0
  0
POINT
  5
1CE
330
5D
100
AcDbEntity
  8
1
 62
     4
100
AcDbPoint
 10
106.5
 20
12.5
 30
0.0
  0
POINT
  5
1CF
330
5D
100
AcDbEntity
  8
1
 62
     4
100
AcDbPoint
 10
112.25
 20
12.5
 30
0.0
  0
POINT
  5
1D0
330
5D
100
AcDbEntity
  8
1
 62
     4
100
AcDbPoint
 10
100.75
 20
12.5
 30
0.0
  0
POINT
  5
1D1
330
5D
100
AcDbEntity
  8
1
 62
     4
100
AcDbPoint
 10
123.5
 20
19.00000000000001
 30
0.0
  0
POINT
  5
1D2
330
5D
100
AcDbEntity
  8
1
 62
     4
100
AcDbPoint
 10
123.5
 20
12.5
 30
0.0
  0
POINT
  5
1D3
330
5D
100
AcDbEntity
  8
1
 62
     4
100
AcDbPoint
 10
129.25
 20
12.5
 30
0.0
  0
POINT
  5
1D4
330
5D
100
AcDbEntity
  8
1
 62
     4
100
AcDbPoint
 10
117.75
 20
12.5
 30
0.0
  0
POINT
  5
1D5
330
5D
100
AcDbEntity
  8
1
 62
     4
100
AcDbPoint
 10
140.5
 20
19.00000000000001
 30
0.0
  0
POINT
  5
1D6
330
5D
100
AcDbEntity
  8
1
 62
     4
100
AcDbPoint
 10
140.5
 20
12.5
 30
0.0
  0
POINT
  5
1D7
330
5D
100
AcDbEntity
  8
1
 62
     4
100
AcDbPoint
 10
146.25
 20
12.5
 30
0.0
  0
POINT
  5
1D8
330
5D
100
AcDbEntity
  8
1
 62
     4
100
AcDbPoint
 10
134.75
 20
12.5
 30
0.0
  0
POINT
  5
1D9
330
5D
100
AcDbEntity
  8
1
 62
     4
100
AcDbPoint
 10
151.75
 20
12.5
 30
0.0
  0
POINT
  5
1DA
330
5D
100
AcDbEntity
  8
1
 62
     4
100
AcDbPoint
 10
163.25
 20
12.5
 30
0.0
  0
POINT
  5
1DB
330
5D
100
AcDbEntity
  8
1
 62
     4
100
AcDbPoint
 10
157.5
 20
12.5
 30
0.0
  0
POINT
  5
1DC
330
5D
100
AcDbEntity
  8
1
 62
     4
100
AcDbPoint
 10
57.0
 20
14.25
 30
0.0
  0
POINT
  5
1DD
330
5D
100
AcDbEntity
  8
1
 62
     4
100
AcDbPoint
 10
57.0
 20
22.75000000000001
 30
0.0
  0
POINT
  5
1DE
330
5D
100
AcDbEntity
  8
1
 62
     4
100
AcDbPoint
 10
47.5
 20
282.0000000000003
 30
0.0
  0
POINT
  5
1DF
330
5D
100
AcDbEntity
  8
1
 62
     4
100
AcDbPoint
 10
157.5
 20
19.00000000000001
 30
0.0
  0
POINT
  5
1E0
330
5D
100
AcDbEntity
  8
1
 62
     4
100
AcDbPoint
 10
57.0
 20
16.25
 30
0.0
  0
POINT
  5
1E1
330
5D
100
AcDbEntity
  8
1
 62
     4
100
AcDbPoint
 10
57.0
 20
24.75000000000001
 30
0.0
  0
POINT
  5
1E2
330
5D
100
AcDbEntity
  8
1
 62
     4
100
AcDbPoint
 10
57.0
 20
20.75000000000001
 30
0.0
  0
POINT
  5
1E3
330
5D
100
AcDbEntity
  8
1
 62
     4
100
AcDbPoint
 10
57.0
 20
12.25
 30
0.0
  0
POINT
  5
1E4
330
5D
100
AcDbEntity
  8
1
 62
     4
100
AcDbPoint
 10
34.0
 20
34.00000000000001
 30
0.0
  0
LINE
  5
1E5
330
5D
100
AcDbEntity
  8
1
  6
Continuous
 62
     7
100
AcDbLine
 10
105.0
 20
10.0
 30
0.0
 11
200.0
 21
10.0
 31
0.0
  0
LINE
  5
1E6
330
5D
100
AcDbEntity
  8
1
  6
Continuous
 62
     2
100
AcDbLine
 10
105.0
 20
10.0
 30
0.0
 11
105.0
 21
5.0
 31
0.0
  0
LINE
  5
1E7
330
5D
100
AcDbEntity
  8
1
  6
Continuous
 62
     7
100
AcDbLine
 10
200.0
 20
148.5
 30
0.0
 11
200.0
 21
287.0000000000003
 31
0.0
  0
LINE
  5
1E8
330
5D
100
AcDbEntity
  8
1
  6
Continuous
 62
     2
100
AcDbLine
 10
200.0
 20
148.5
 30
0.0
 11
205.0
 21
148.5
 31
0.0
  0
LINE
  5
1E9
330
5D
100
AcDbEntity
  8
1
  6
Continuous
 62
     7
100
AcDbLine
 10
25.0
 20
148.5
 30
0.0
 11
25.0
 21
287.0000000000003
 31
0.0
  0
LINE
  5
1EA
330
5D
100
AcDbEntity
  8
1
  6
Continuous
 62
     2
100
AcDbLine
 10
25.0
 20
148.5
 30
0.0
 11
20.0
 21
148.5
 31
0.0
  0
LINE
  5
1EB
330
5D
100
AcDbEntity
  8
1
  6
Continuous
 62
     7
100
AcDbLine
 10
105.0
 20
287.0000000000003
 30
0.0
 11
25.0
 21
287.0000000000003
 31
0.0
  0
LINE
  5
1EC
330
5D
100
AcDbEntity
  8
1
  6
Continuous
 62
     2
100
AcDbLine
 10
105.0
 20
287.0000000000003
 30
0.0
 11
105.0
 21
292.0000000000003
 31
0.0
  0
LINE
  5
1ED
330
5D
100
AcDbEntity
  8
1
  6
Continuous
 62
     2
100
AcDbLine
 10
166.0
 20
20.00000000000001
 30
0.0
 11
200.0
 21
20.00000000000001
 31
0.0
  0
LINE
  5
1EE
330
5D
100
AcDbEntity
  8
1
  6
Continuous
 62
     2
100
AcDbLine
 10
98.0
 20
27.00000000000001
 30
0.0
 11
98.0
 21
9.99999999999999
 31
0.0
  0
LINE
  5
1EF
330
5D
100
AcDbEntity
  8
1
  6
Continuous
 62
     2
100
AcDbLine
 10
115.0
 20
27.00000000000001
 30
0.0
 11
115.0
 21
9.99999999999999
 31
0.0
  0
LINE
  5
1F0
330
5D
100
AcDbEntity
  8
1
  6
Continuous
 62
     2
100
AcDbLine
 10
149.0
 20
27.00000000000001
 30
0.0
 11
149.0
 21
10.0
 31
0.0
  0
LINE
  5
1F1
330
5D
100
AcDbEntity
  8
1
  6
Continuous
 62
     2
100
AcDbLine
 10
132.0
 20
27.00000000000001
 30
0.0
 11
132.0
 21
9.99999999999999
 31
0.0
  0
LINE
  5
1F2
330
5D
100
AcDbEntity
  8
1
  6
Continuous
 62
     2
100
AcDbLine
 10
166.0
 20
27.00000000000001
 30
0.0
 11
166.0
 21
10.0
 31
0.0
  0
LINE
  5
1F3
330
5D
100
AcDbEntity
  8
1
  6
Continuous
 62
     2
100
AcDbLine
 10
55.0
 20
277.0000000000003
 30
0.0
 11
25.0
 21
277.0000000000003
 31
0.0
  0
LINE
  5
1F4
330
5D
100
AcDbEntity
  8
1
  6
Continuous
 62
     7
100
AcDbLine
 10
25.0
 20
10.0
 30
0.0
 11
25.0
 21
148.5
 31
0.0
  0
LINE
  5
1F5
330
5D
100
AcDbEntity
  8
1
  6
Continuous
 62
     2
100
AcDbLine
 10
40.0
 20
287.0000000000003
 30
0.0
 11
40.0
 21
277.0000000000003
 31
0.0
  0
LINE
  5
1F6
330
5D
100
AcDbEntity
  8
1
  6
Continuous
 62
     2
100
AcDbLine
 10
55.0
 20
287.0000000000003
 30
0.0
 11
55.0
 21
277.0000000000003
 31
0.0
  0
LINE
  5
1F7
330
5D
100
AcDbEntity
  8
1
  6
Continuous
 62
     2
100
AcDbLine
 10
33.0
 20
41.00000000000001
 30
0.0
 11
33.0
 21
27.0
 31
0.0
  0
LINE
  5
1F8
330
5D
100
AcDbEntity
  8
1
  6
Continuous
 62
     7
100
AcDbLine
 10
200.0
 20
27.00000000000001
 30
0.0
 11
25.0
 21
27.00000000000001
 31
0.0
  0
LINE
  5
1F9
330
5D
100
AcDbEntity
  8
1
  6
Continuous
 62
     7
100
AcDbLine
 10
25.0
 20
41.0
 30
0.0
 11
200.0
 21
41.0
 31
0.0
  0
LINE
  5
1FA
330
5D
100
AcDbEntity
  8
1
  6
PHANTOM
 62
     4
100
AcDbLine
 10
0.0
 20
0.0
 30
0.0
 11
210.0
 21
0.0
 31
0.0
  0
LINE
  5
1FB
330
5D
100
AcDbEntity
  8
1
  6
PHANTOM
 62
     4
100
AcDbLine
 10
210.0
 20
0.0
 30
0.0
 11
210.0
 21
297.0
 31
0.0
  0
LINE
  5
1FC
330
5D
100
AcDbEntity
  8
1
  6
PHANTOM
 62
     4
100
AcDbLine
 10
210.0
 20
297.0
 30
0.0
 11
0.0
 21
297.0
 31
0.0
  0
LINE
  5
1FD
330
5D
100
AcDbEntity
  8
1
  6
PHANTOM
 62
     4
100
AcDbLine
 10
0.0
 20
297.0
 30
0.0
 11
0.0
 21
0.0
 31
0.0
  0
LINE
  5
1FE
330
5D
100
AcDbEntity
  8
1
  6
Continuous
 62
     7
100
AcDbLine
 10
25.0
 20
10.0
 30
0.0
 11
105.0
 21
10.0
 31
0.0
  0
LINE
  5
1FF
330
5D
100
AcDbEntity
  8
1
  6
Continuous
 62
     7
100
AcDbLine
 10
200.0
 20
10.0
 30
0.0
 11
200.0
 21
148.5
 31
0.0
  0
LINE
  5
200
330
5D
100
AcDbEntity
  8
1
  6
Continuous
 62
     7
100
AcDbLine
 10
200.0
 20
287.0000000000003
 30
0.0
 11
105.0
 21
287.0000000000003
 31
0.0
  0
LINE
  5
201
330
5D
100
AcDbEntity
  8
1
  6
Continuous
 62
     2
100
AcDbLine
 10
25.0
 20
18.50000000000001
 30
0.0
 11
81.0
 21
18.50000000000001
 31
0.0
  0
LINE
  5
202
330
5D
100
AcDbEntity
  8
1
  6
Continuous
 62
     2
100
AcDbLine
 10
33.0
 20
27.0
 30
0.0
 11
33.0
 21
10.0
 31
0.0
  0
LINE
  5
203
330
5D
100
AcDbEntity
  8
1
  6
Continuous
 62
     7
100
AcDbLine
 10
191.0
 20
24.70000000000001
 30
0.0
 11
191.0
 21
22.30000000000001
 31
0.0
  0
LINE
  5
204
330
5D
100
AcDbEntity
  8
1
  6
Continuous
 62
     7
100
AcDbLine
 10
191.0
 20
24.70000000000001
 30
0.0
 11
196.0
 21
25.50000000000001
 31
0.0
  0
LINE
  5
205
330
5D
100
AcDbEntity
  8
1
  6
Continuous
 62
     7
100
AcDbLine
 10
196.0
 20
25.50000000000001
 30
0.0
 11
196.0
 21
21.50000000000001
 31
0.0
  0
LINE
  5
206
330
5D
100
AcDbEntity
  8
1
  6
Continuous
 62
     7
100
AcDbLine
 10
196.0
 20
21.50000000000001
 30
0.0
 11
191.0
 21
22.30000000000001
 31
0.0
  0
LINE
  5
207
330
5D
100
AcDbEntity
  8
1
  6
DOT_CENTER
 62
     2
100
AcDbLine
 10
184.0
 20
23.50000000000001
 30
0.0
 11
197.0
 21
23.50000000000001
 31
0.0
  0
LINE
  5
208
330
5D
100
AcDbEntity
  8
1
  6
DOT_CENTER
 62
     2
100
AcDbLine
 10
187.0
 20
26.50000000000001
 30
0.0
 11
187.0
 21
20.50000000000001
 31
0.0
  0
LINE
  5
209
330
5D
100
AcDbEntity
  8
1
  6
Continuous
 62
     2
100
AcDbLine
 10
81.0
 20
27.00000000000001
 30
0.0
 11
81.0
 21
10.0
 31
0.0
  0
CIRCLE
  5
20A
330
5D
100
AcDbEntity
  8
1
  6
Continuous
 62
     7
100
AcDbCircle
 10
103.5
 20
12.5
 30
0.0
 40
0.2999999999999972
  0
CIRCLE
  5
20B
330
5D
100
AcDbEntity
  8
1
  6
Continuous
 62
     7
100
AcDbCircle
 10
109.5
 20
12.5
 30
0.0
 40
0.2999999999999972
  0
CIRCLE
  5
20C
330
5D
100
AcDbEntity
  8
1
  6
Continuous
 62
     7
100
AcDbCircle
 10
120.5
 20
12.5
 30
0.0
 40
0.2999999999999972
  0
CIRCLE
  5
20D
330
5D
100
AcDbEntity
  8
1
  6
Continuous
 62
     7
100
AcDbCircle
 10
126.5
 20
12.5
 30
0.0
 40
0.2999999999999972
  0
CIRCLE
  5
20E
330
5D
100
AcDbEntity
  8
1
  6
Continuous
 62
     7
100
AcDbCircle
 10
137.5
 20
12.5
 30
0.0
 40
0.3000000000000114
  0
CIRCLE
  5
20F
330
5D
100
AcDbEntity
  8
1
  6
Continuous
 62
     7
100
AcDbCircle
 10
143.5
 20
12.5
 30
0.0
 40
0.3000000000000114
  0
CIRCLE
  5
210
330
5D
100
AcDbEntity
  8
1
  6
Continuous
 62
     7
100
AcDbCircle
 10
160.5
 20
12.5
 30
0.0
 40
0.3000000000000114
  0
CIRCLE
  5
211
330
5D
100
AcDbEntity
  8
1
  6
Continuous
 62
     7
100
AcDbCircle
 10
154.5
 20
12.5
 30
0.0
 40
0.3000000000000114
  0
CIRCLE
  5
212
330
5D
100
AcDbEntity
  8
1
  6
Continuous
 62
     7
100
AcDbCircle
 10
187.0
 20
23.50000000000001
 30
0.0
 40
1.200000000000102
  0
CIRCLE
  5
213
330
5D
100
AcDbEntity
  8
1
  6
Continuous
 62
     7
100
AcDbCircle
 10
187.0
 20
23.50000000000001
 30
0.0
 40
2.0
  0
CIRCLE
  5
214
330
5D
100
AcDbEntity
  8
1
  6
DOT_CENTER
 62
     7
100
AcDbCircle
 10
89.5
 20
16.0
 30
0.0
 40
0.1000000000000227
  0
CIRCLE
  5
215
330
5D
100
AcDbEntity
  8
1
  6
DOT_CENTER
 62
     7
100
AcDbCircle
 10
89.5
 20
18.0
 30
0.0
 40
0.1000000000000227
  0
MTEXT
  5
217
330
5D
100
AcDbEntity
  8
1
 62
     7
100
AcDbMText
 10
188.5
 20
15.0
 30
0.0
 40
3.0
 41
0.0
 71
     5
 72
     1
  1
三栄水栓製作所
  7
CONVERTER_1
 73
     1
 44
1.32052821128451
  0
MTEXT
  5
218
330
5D
100
AcDbEntity
  8
1
 62
     7
100
AcDbMText
 10
171.5
 20
15.0
 30
0.0
 40
2.5
 41
0.0
 71
     5
 72
     1
  1
株式会社
  7
CONVERTER_1
 73
     1
 44
1.32052821128451
  0
MTEXT
  5
219
330
5D
100
AcDbEntity
  8
1
 62
     2
100
AcDbMText
 10
32.5
 20
282.0000000000003
 30
0.0
 40
5.0
 41
0.0
 71
     5
 72
     1
  1
図番
  7
CONVERTER_1
 73
     1
 44
0.60024009603842
  0
MTEXT
  5
21A
330
5D
100
AcDbEntity
  8
1
 62
     2
100
AcDbMText
 10
29.0
 20
34.00000000000001
 30
0.0
 40
3.5
 41
0.0
 71
     5
 72
     1
  1
備考
  7
CONVERTER_1
 73
     1
 44
0.60024009603842
  0
MTEXT
  5
21B
330
5D
100
AcDbEntity
  8
1
 62
     2
100
AcDbMText
 10
29.0
 20
22.75
 30
0.0
 40
3.5
 41
0.0
 71
     5
 72
     1
  1
品名
  7
CONVERTER_1
 73
     1
 44
0.96038415366146
  0
MTEXT
  5
21C
330
5D
100
AcDbEntity
  8
1
 62
     2
100
AcDbMText
 10
29.0
 20
14.25
 30
0.0
 40
3.5
 41
0.0
 71
     5
 72
     1
  1
品番
  7
CONVERTER_1
 73
     1
 44
0.96038415366146
  0
MTEXT
  5
21D
330
5D
100
AcDbEntity
  8
1
 62
     2
100
AcDbMText
 10
101.5
 20
25.00000000000001
 30
0.0
 40
3.0
 41
0.0
 71
     5
 72
     1
  1
承認
  7
CONVERTER_1
 73
     1
 44
0.78031212484994
  0
MTEXT
  5
21E
330
5D
100
AcDbEntity
  8
1
 62
     2
100
AcDbMText
 10
175.0
 20
23.50000000000001
 30
0.0
 40
3.5
 41
0.0
 71
     5
 72
     1
  1
第三角法
  7
CONVERTER_1
 73
     1
 44
0.7202881152461
  0
MTEXT
  5
21F
330
5D
100
AcDbEntity
  8
1
 62
     2
100
AcDbMText
 10
118.5
 20
25.00000000000001
 30
0.0
 40
3.0
 41
0.0
 71
     5
 72
     1
  1
検図
  7
CONVERTER_1
 73
     1
 44
0.78031212484994
  0
MTEXT
  5
220
330
5D
100
AcDbEntity
  8
1
 62
     2
100
AcDbMText
 10
152.5
 20
25.00000000000001
 30
0.0
 40
3.0
 41
0.0
 71
     5
 72
     1
  1
設計
  7
CONVERTER_1
 73
     1
 44
0.78031212484994
  0
MTEXT
  5
221
330
5D
100
AcDbEntity
  8
1
 62
     2
100
AcDbMText
 10
135.5
 20
25.00000000000001
 30
0.0
 40
3.0
 41
0.0
 71
     5
 72
     1
  1
製図
  7
CONVERTER_1
 73
     1
 44
0.78031212484994
  0
MTEXT
  5
222
330
5D
100
AcDbEntity
  8
1
 62
     2
100
AcDbMText
 10
89.5
 20
24.00000000000001
 30
0.0
 40
3.5
 41
0.0
 71
     5
 72
     1
  1
尺度
  7
CONVERTER_1
 73
     1
 44
0.7202881152461
  0
MTEXT
  5
223
330
5D
100
AcDbEntity
  8
1
 62
   250
100
AcDbMText
 10
25.0
 20
5.0
 30
0.0
 40
3.5
 41
0.0
 71
     4
 72
     1
  1
備考欄の文字列 原点位置=4
  7
CONVERTER_1
 73
     1
 44
0.7202881152461
  0
ENDBLK
  5
5F
330
5D
100
AcDbEntity
  8
0
100
AcDbBlockEnd
  0
BLOCK
  5
244
330
23A
100
AcDbEntity
  8
0
100
AcDbBlockBegin
  2
*D014
 70
     1
 71
     0
 10
0.0
 20
0.0
 30
0.0
  3
*D014
  1

  0
LINE
  5
23B
330
23A
100
AcDbEntity
  8
1
  6
Continuous
 62
     2
100
AcDbLine
 10
202.0799834700533
 20
221.641214322881
 30
0.0
 11
216.0799834700533
 21
221.641214322881
 31
0.0
  0
LINE
  5
23C
330
23A
100
AcDbEntity
  8
1
  6
Continuous
 62
     2
100
AcDbLine
 10
216.0799834700533
 20
221.641214322881
 30
0.0
 11
225.0799834700534
 21
221.641214322881
 31
0.0
  0
LINE
  5
23D
330
23A
100
AcDbEntity
  8
1
  6
Continuous
 62
     2
100
AcDbLine
 10
225.0799834700534
 20
221.641214322881
 30
0.0
 11
239.0799834700534
 21
221.641214322881
 31
0.0
  0
LINE
  5
23E
330
23A
100
AcDbEntity
  8
1
  6
Continuous
 62
     2
100
AcDbLine
 10
225.0799834700534
 20
245.141214322881
 30
0.0
 11
225.0799834700534
 21
219.641214322881
 31
0.0
  0
LINE
  5
23F
330
23A
100
AcDbEntity
  8
1
  6
Continuous
 62
     2
100
AcDbLine
 10
216.0799834700533
 20
246.141214322881
 30
0.0
 11
216.0799834700533
 21
237.1500484295046
 31
0.0
  0
LINE
  5
240
330
23A
100
AcDbEntity
  8
1
  6
Continuous
 62
     2
100
AcDbLine
 10
216.0799834700533
 20
234.2891218119787
 30
0.0
 11
216.0799834700533
 21
219.641214322881
 31
0.0
  0
SOLID
  5
241
330
23A
100
AcDbEntity
  8
1
 62
     2
100
AcDbTrace
 10
209.0799834700533
 20
220.7196468397692
 30
0.0
 11
209.0799834700533
 21
222.5627818059928
 31
0.0
 12
216.0799834700533
 22
221.641214322881
 32
0.0
 13
216.0799834700533
 23
221.641214322881
 33
0.0
  0
SOLID
  5
242
330
23A
100
AcDbEntity
  8
1
 62
     2
100
AcDbTrace
 10
232.0799834700534
 20
222.5627818059928
 30
0.0
 11
232.0799834700534
 21
220.7196468397692
 31
0.0
 12
225.0799834700534
 22
221.641214322881
 32
0.0
 13
225.0799834700534
 23
221.641214322881
 33
0.0
  0
MTEXT
  5
243
330
23A
100
AcDbEntity
  8
1
 62
     7
100
AcDbMText
 10
218.113962877011
 20
223.641214322881
 30
0.0
 40
7.0
 41
0.0
 71
     7
 72
     1
  1
9
  7
CONVERTER_2
 11
0.9999999999970621
 21
2.424068405545307E-6
 31
0.0
 73
     1
 44
0.60024009603842
  0
ENDBLK
  5
245
330
23A
100
AcDbEntity
  8
0
100
AcDbBlockEnd
  0
BLOCK
  5
250
330
248
100
AcDbEntity
  8
0
100
AcDbBlockBegin
  2
*D115
 70
     1
 71
     0
 10
0.0
 20
0.0
 30
0.0
  3
*D115
  1

  0
LINE
  5
249
330
248
100
AcDbEntity
  8
1
  6
Continuous
 62
     2
100
AcDbLine
 10
216.0799834700533
 20
185.641214322881
 30
0.0
 11
299.0799834700533
 21
185.641214322881
 31
0.0
  0
LINE
  5
24A
330
248
100
AcDbEntity
  8
1
  6
Continuous
 62
     2
100
AcDbLine
 10
299.0799834700533
 20
217.6412143228809
 30
0.0
 11
299.0799834700533
 21
183.641214322881
 31
0.0
  0
LINE
  5
24B
330
248
100
AcDbEntity
  8
1
  6
Continuous
 62
     2
100
AcDbLine
 10
216.0799834700533
 20
246.1412143228809
 30
0.0
 11
216.0799834700533
 21
237.4042189896539
 31
0.0
  0
LINE
  5
24C
330
248
100
AcDbEntity
  8
1
  6
Continuous
 62
     2
100
AcDbLine
 10
216.0799834700533
 20
234.8645816831941
 30
0.0
 11
216.0799834700533
 21
183.641214322881
 31
0.0
  0
SOLID
  5
24D
330
248
100
AcDbEntity
  8
1
 62
     2
100
AcDbTrace
 10
223.0799834700533
 20
186.5627818059928
 30
0.0
 11
223.0799834700533
 21
184.7196468397692
 31
0.0
 12
216.0799834700533
 22
185.641214322881
 32
0.0
 13
216.0799834700533
 23
185.641214322881
 33
0.0
  0
SOLID
  5
24E
330
248
100
AcDbEntity
  8
1
 62
     2
100
AcDbTrace
 10
292.0799834700533
 20
184.7196468397692
 30
0.0
 11
292.0799834700533
 21
186.5627818059928
 31
0.0
 12
299.0799834700533
 22
185.641214322881
 32
0.0
 13
299.0799834700533
 23
185.641214322881
 33
0.0
  0
MTEXT
  5
24F
330
248
100
AcDbEntity
  8
1
 62
     7
100
AcDbMText
 10
253.032406181085
 20
187.641214322881
 30
0.0
 40
7.0
 41
0.0
 71
     7
 72
     1
  1
83
  7
CONVERTER_2
 11
0.9999999999970621
 21
2.424068405545307E-6
 31
0.0
 73
     1
 44
0.60024009603842
  0
ENDBLK
  5
251
330
248
100
AcDbEntity
  8
0
100
AcDbBlockEnd
  0
BLOCK
  5
25C
330
254
100
AcDbEntity
  8
0
100
AcDbBlockBegin
  2
*D216
 70
     1
 71
     0
 10
0.0
 20
0.0
 30
0.0
  3
*D216
  1

  0
LINE
  5
255
330
254
100
AcDbEntity
  8
1
  6
Continuous
 62
     2
100
AcDbLine
 10
216.0799834700533
 20
201.641214322881
 30
0.0
 11
240.0799834700533
 21
201.641214322881
 31
0.0
  0
LINE
  5
256
330
254
100
AcDbEntity
  8
1
  6
Continuous
 62
     2
100
AcDbLine
 10
240.0799834700533
 20
240.6037993967124
 30
0.0
 11
240.0799834700533
 21
199.641214322881
 31
0.0
  0
LINE
  5
257
330
254
100
AcDbEntity
  8
1
  6
Continuous
 62
     2
100
AcDbLine
 10
216.0799834700533
 20
246.141214322881
 30
0.0
 11
216.0799834700533
 21
237.4118704427275
 31
0.0
  0
LINE
  5
258
330
254
100
AcDbEntity
  8
1
  6
Continuous
 62
     2
100
AcDbLine
 10
216.0799834700533
 20
234.2747293375096
 30
0.0
 11
216.0799834700533
 21
199.641214322881
 31
0.0
  0
SOLID
  5
259
330
254
100
AcDbEntity
  8
1
 62
     2
100
AcDbTrace
 10
223.0799834700533
 20
202.5627818059928
 30
0.0
 11
223.0799834700533
 21
200.7196468397692
 31
0.0
 12
216.0799834700533
 22
201.641214322881
 32
0.0
 13
216.0799834700533
 23
201.641214322881
 33
0.0
  0
SOLID
  5
25A
330
254
100
AcDbEntity
  8
1
 62
     2
100
AcDbTrace
 10
233.0799834700533
 20
200.7196468397692
 30
0.0
 11
233.0799834700533
 21
202.5627818059928
 31
0.0
 12
240.0799834700533
 22
201.641214322881
 32
0.0
 13
240.0799834700533
 23
201.641214322881
 33
0.0
  0
MTEXT
  5
25B
330
254
100
AcDbEntity
  8
1
 62
     7
100
AcDbMText
 10
222.868885530316
 20
203.641214322881
 30
0.0
 40
7.0
 41
0.0
 71
     7
 72
     1
  1
24
  7
CONVERTER_2
 11
0.9999999999970621
 21
2.424068405545307E-6
 31
0.0
 73
     1
 44
0.60024009603842
  0
ENDBLK
  5
25D
330
254
100
AcDbEntity
  8
0
100
AcDbBlockEnd
  0
BLOCK
  5
268
330
260
100
AcDbEntity
  8
0
100
AcDbBlockBegin
  2
*D317
 70
     1
 71
     0
 10
0.0
 20
0.0
 30
0.0
  3
*D317
  1

  0
LINE
  5
261
330
260
100
AcDbEntity
  8
1
  6
Continuous
 62
     2
100
AcDbLine
 10
372.0799834700532
 20
219.6412143228809
 30
0.0
 11
372.0799834700532
 21
269.6412143228809
 31
0.0
  0
LINE
  5
262
330
260
100
AcDbEntity
  8
1
  6
Continuous
 62
     2
100
AcDbLine
 10
314.0799834700533
 20
269.6412143228809
 30
0.0
 11
374.0799834700532
 21
269.6412143228809
 31
0.0
  0
LINE
  5
263
330
260
100
AcDbEntity
  8
1
  6
Continuous
 62
     2
100
AcDbLine
 10
308.5799834700533
 20
219.6412143228809
 30
0.0
 11
312.9504790674191
 21
219.6412143228809
 31
0.0
  0
LINE
  5
264
330
260
100
AcDbEntity
  8
1
  6
Continuous
 62
     2
100
AcDbLine
 10
315.9135811568061
 20
219.6412143228809
 30
0.0
 11
374.0799834700532
 21
219.6412143228809
 31
0.0
  0
SOLID
  5
265
330
260
100
AcDbEntity
  8
1
 62
     2
100
AcDbTrace
 10
371.1584159869415
 20
226.6412143228809
 30
0.0
 11
373.001550953165
 21
226.6412143228809
 31
0.0
 12
372.0799834700532
 22
219.6412143228809
 32
0.0
 13
372.0799834700532
 23
219.6412143228809
 33
0.0
  0
SOLID
  5
266
330
260
100
AcDbEntity
  8
1
 62
     2
100
AcDbTrace
 10
373.001550953165
 20
262.6412143228809
 30
0.0
 11
371.1584159869415
 21
262.6412143228809
 31
0.0
 12
372.0799834700532
 22
269.6412143228809
 32
0.0
 13
372.0799834700532
 23
269.6412143228809
 33
0.0
  0
MTEXT
  5
267
330
260
100
AcDbEntity
  8
1
 62
     7
100
AcDbMText
 10
370.0799834700532
 20
237.486907591196
 30
0.0
 40
7.0
 41
0.0
 71
     7
 72
     1
  1
50
  7
CONVERTER_2
 11
0.0
 21
1.0
 31
0.0
 73
     1
 44
0.60024009603842
  0
ENDBLK
  5
269
330
260
100
AcDbEntity
  8
0
100
AcDbBlockEnd
  0
BLOCK
  5
274
330
26C
100
AcDbEntity
  8
0
100
AcDbBlockBegin
  2
*D418
 70
     1
 71
     0
 10
0.0
 20
0.0
 30
0.0
  3
*D418
  1

  0
LINE
  5
26D
330
26C
100
AcDbEntity
  8
1
  6
Continuous
 62
     2
100
AcDbLine
 10
356.0799834700532
 20
255.6412143228809
 30
0.0
 11
356.0799834700532
 21
219.6412143228809
 31
0.0
  0
LINE
  5
26E
330
26C
100
AcDbEntity
  8
1
  6
Continuous
 62
     2
100
AcDbLine
 10
308.5799834700534
 20
219.6412143228809
 30
0.0
 11
313.2591312729891
 21
219.6412143228809
 31
0.0
  0
LINE
  5
26F
330
26C
100
AcDbEntity
  8
1
  6
Continuous
 62
     2
100
AcDbLine
 10
316.5106776432103
 20
219.6412143228809
 30
0.0
 11
358.0799834700532
 21
219.6412143228809
 31
0.0
  0
LINE
  5
270
330
26C
100
AcDbEntity
  8
1
  6
Continuous
 62
     2
100
AcDbLine
 10
314.1262842162288
 20
255.6412143228809
 30
0.0
 11
358.0799834700532
 21
255.6412143228809
 31
0.0
  0
SOLID
  5
271
330
26C
100
AcDbEntity
  8
1
 62
     2
100
AcDbTrace
 10
357.001550953165
 20
248.6412143228809
 30
0.0
 11
355.1584159869415
 21
248.6412143228809
 31
0.0
 12
356.0799834700532
 22
255.6412143228809
 32
0.0
 13
356.0799834700532
 23
255.6412143228809
 33
0.0
  0
SOLID
  5
272
330
26C
100
AcDbEntity
  8
1
 62
     2
100
AcDbTrace
 10
355.1584159869415
 20
226.6412143228809
 30
0.0
 11
357.001550953165
 21
226.6412143228809
 31
0.0
 12
356.0799834700532
 22
219.6412143228809
 32
0.0
 13
356.0799834700532
 23
219.6412143228809
 33
0.0
  0
MTEXT
  5
273
330
26C
100
AcDbEntity
  8
1
 62
     7
100
AcDbMText
 10
354.0799834700532
 20
231.860973957565
 30
0.0
 40
7.0
 41
0.0
 71
     7
 72
     1
  1
36
  7
CONVERTER_2
 11
0.0
 21
1.0
 31
0.0
 73
     1
 44
0.60024009603842
  0
ENDBLK
  5
275
330
26C
100
AcDbEntity
  8
0
100
AcDbBlockEnd
  0
BLOCK
  5
27F
330
278
100
AcDbEntity
  8
0
100
AcDbBlockBegin
  2
*D519
 70
     1
 71
     0
 10
0.0
 20
0.0
 30
0.0
  3
*D519
  1

  0
LINE
  5
279
330
278
100
AcDbEntity
  8
1
  6
Continuous
 62
     2
100
AcDbLine
 10
196.036974207852
 20
319.2489094774809
 30
0.0
 11
196.036974207852
 21
255.641214322881
 31
0.0
  0
LINE
  5
27A
330
278
100
AcDbEntity
  8
1
  6
Continuous
 62
     2
100
AcDbLine
 10
240.0799834700314
 20
319.2489094774809
 30
0.0
 11
194.036974207852
 21
319.2489094774809
 31
0.0
  0
LINE
  5
27B
330
278
100
AcDbEntity
  8
1
  6
Continuous
 62
     2
100
AcDbLine
 10
214.0799834700533
 20
255.641214322881
 30
0.0
 11
194.036974207852
 21
255.641214322881
 31
0.0
  0
SOLID
  5
27C
330
278
100
AcDbEntity
  8
1
 62
     2
100
AcDbTrace
 10
196.9585416909638
 20
312.2489094774809
 30
0.0
 11
195.1154067247402
 21
312.2489094774809
 31
0.0
 12
196.036974207852
 22
319.2489094774809
 32
0.0
 13
196.036974207852
 23
319.2489094774809
 33
0.0
  0
SOLID
  5
27D
330
278
100
AcDbEntity
  8
1
 62
     2
100
AcDbTrace
 10
195.1154067247402
 20
262.641214322881
 30
0.0
 11
196.9585416909638
 21
262.641214322881
 31
0.0
 12
196.036974207852
 22
255.641214322881
 32
0.0
 13
196.036974207852
 23
255.641214322881
 33
0.0
  0
MTEXT
  5
27E
330
278
100
AcDbEntity
  8
1
 62
     7
100
AcDbMText
 10
194.036974207852
 20
267.371235827363
 30
0.0
 40
7.0
 41
0.0
 71
     7
 72
     1
  1
64リフト5
  7
CONVERTER_1
 11
0.0
 21
1.0
 31
0.0
 73
     1
 44
0.60024009603842
  0
ENDBLK
  5
280
330
278
100
AcDbEntity
  8
0
100
AcDbBlockEnd
  0
BLOCK
  5
28A
330
283
100
AcDbEntity
  8
0
100
AcDbBlockBegin
  2
*D620
 70
     1
 71
     0
 10
0.0
 20
0.0
 30
0.0
  3
*D620
  1

  0
LINE
  5
284
330
283
100
AcDbEntity
  8
1
  6
Continuous
 62
     2
100
AcDbLine
 10
276.0799834700533
 20
167.641214322881
 30
0.0
 11
322.0799834700532
 21
167.641214322881
 31
0.0
  0
LINE
  5
285
330
283
100
AcDbEntity
  8
1
  6
Continuous
 62
     2
100
AcDbLine
 10
322.0799834700532
 20
234.641214322881
 30
0.0
 11
322.0799834700532
 21
165.641214322881
 31
0.0
  0
LINE
  5
286
330
283
100
AcDbEntity
  8
1
  6
Continuous
 62
     2
100
AcDbLine
 10
276.0799834700533
 20
234.641214322881
 30
0.0
 11
276.0799834700533
 21
165.641214322881
 31
0.0
  0
SOLID
  5
287
330
283
100
AcDbEntity
  8
1
 62
     2
100
AcDbTrace
 10
283.0799834700533
 20
168.5627818059928
 30
0.0
 11
283.0799834700533
 21
166.7196468397692
 31
0.0
 12
276.0799834700533
 22
167.641214322881
 32
0.0
 13
276.0799834700533
 23
167.641214322881
 33
0.0
  0
SOLID
  5
288
330
283
100
AcDbEntity
  8
1
 62
     2
100
AcDbTrace
 10
315.0799834700532
 20
166.7196468397692
 30
0.0
 11
315.0799834700532
 21
168.5627818059928
 31
0.0
 12
322.0799834700532
 22
167.641214322881
 32
0.0
 13
322.0799834700532
 23
167.641214322881
 33
0.0
  0
MTEXT
  5
289
330
283
100
AcDbEntity
  8
1
 62
     7
100
AcDbMText
 10
286.7331894100958
 20
169.6411864945757
 30
0.0
 40
7.0
 41
0.0
 71
     7
 72
     1
  1
\C7;{\Fgdt;n}\C7;46
  7
CONVERTER_2
 11
0.9999999999970621
 21
2.424068405545307E-6
 31
0.0
 73
     1
 44
0.60024009603842
  0
ENDBLK
  5
28B
330
283
100
AcDbEntity
  8
0
100
AcDbBlockEnd
  0
BLOCK
  5
297
330
28E
100
AcDbEntity
  8
0
100
AcDbBlockBegin
  2
*D721
 70
     1
 71
     0
 10
0.0
 20
0.0
 30
0.0
  3
*D721
  1

  0
LINE
  5
28F
330
28E
100
AcDbEntity
  8
1
  6
Continuous
 62
     2
100
AcDbLine
 10
342.0799834700532
 20
205.641214322881
 30
0.0
 11
342.0799834700532
 21
219.641214322881
 31
0.0
  0
LINE
  5
290
330
28E
100
AcDbEntity
  8
1
  6
Continuous
 62
     2
100
AcDbLine
 10
342.0799834700532
 20
219.641214322881
 30
0.0
 11
342.0799834700532
 21
234.641214322881
 31
0.0
  0
LINE
  5
291
330
28E
100
AcDbEntity
  8
1
  6
Continuous
 62
     2
100
AcDbLine
 10
342.0799834700532
 20
234.641214322881
 30
0.0
 11
342.0799834700532
 21
248.641214322881
 31
0.0
  0
LINE
  5
292
330
28E
100
AcDbEntity
  8
1
  6
Continuous
 62
     2
100
AcDbLine
 10
322.0799834700532
 20
234.641214322881
 30
0.0
 11
344.0799834700532
 21
234.641214322881
 31
0.0
  0
LINE
  5
293
330
28E
100
AcDbEntity
  8
1
  6
Continuous
 62
     2
100
AcDbLine
 10
308.5799834700533
 20
219.641214322881
 30
0.0
 11
344.0799834700532
 21
219.641214322881
 31
0.0
  0
SOLID
  5
294
330
28E
100
AcDbEntity
  8
1
 62
     2
100
AcDbTrace
 10
343.001550953165
 20
212.641214322881
 30
0.0
 11
341.1584159869415
 21
212.641214322881
 31
0.0
 12
342.0799834700532
 22
219.641214322881
 32
0.0
 13
342.0799834700532
 23
219.641214322881
 33
0.0
  0
SOLID
  5
295
330
28E
100
AcDbEntity
  8
1
 62
     2
100
AcDbTrace
 10
341.1584159869415
 20
241.641214322881
 30
0.0
 11
343.001550953165
 21
241.641214322881
 31
0.0
 12
342.0799834700532
 22
234.641214322881
 32
0.0
 13
342.0799834700532
 23
234.641214322881
 33
0.0
  0
MTEXT
  5
296
330
28E
100
AcDbEntity
  8
1
 62
     7
100
AcDbMText
 10
340.0799834700532
 20
222.103259345588
 30
0.0
 40
7.0
 41
0.0
 71
     7
 72
     1
  1
15
  7
CONVERTER_2
 11
0.0
 21
1.0
 31
0.0
 73
     1
 44
0.60024009603842
  0
ENDBLK
  5
298
330
28E
100
AcDbEntity
  8
0
100
AcDbBlockEnd
  0
ENDSEC
  0
SECTION
  2
ENTITIES
  0
INSERT
  5
60
330
1F
100
AcDbEntity
  8
1
100
AcDbBlockReference
  2
32-15
 10
-40.16838627272466
 20
142.764346860708
 30
0.0
  0
INSERT
  5
61
330
1F
100
AcDbEntity
  8
1
100
AcDbBlockReference
  2
28-1-13
 10
392.8027031091247
 20
282.5057499309596
 30
0.0
  0
INSERT
  5
62
330
1F
100
AcDbEntity
  8
0
100
AcDbBlockReference
  2
R10A
 10
240.0799834700533
 20
257.1372017579458
 30
0.0
  0
INSERT
  5
63
330
1F
100
AcDbEntity
  8
0
100
AcDbBlockReference
  2
B24-1
 10
312.0799834700533
 20
201.1412143228809
 30
0.0
  0
INSERT
  5
64
330
1F
100
AcDbEntity
  8
0
100
AcDbBlockReference
  2
B24-2
 10
136.2227493309324
 20
219.1002122534484
 30
0.0
  0
INSERT
  5
65
330
1F
100
AcDbEntity
  8
0
100
AcDbBlockReference
  2
32-26
 10
215.7195898738087
 20
225.9805709048239
 30
0.0
  0
INSERT
  5
66
330
1F
100
AcDbEntity
  8
0
100
AcDbBlockReference
  2
_n___h__
 10
457.39774223195
 20
185.514683319505
 30
0.0
  0
INSERT
  5
67
330
1F
100
AcDbEntity
  8
0
100
AcDbBlockReference
  2
B24-16
 10
0.0
 20
891.0
 30
0.0
  0
INSERT
  5
68
330
1F
100
AcDbEntity
  8
0
100
AcDbBlockReference
  2
B24-17-M1
 10
-409.573551412505
 20
659.8744685612819
 30
0.0
  0
INSERT
  5
69
330
1F
100
AcDbEntity
  8
1
100
AcDbBlockReference
  2
_J__A4
 10
0.0
 20
0.0
 30
0.0
 41
2.0
 42
2.0
 43
2.0
  0
LINE
  5
224
330
1F
100
AcDbEntity
  8
1
  6
DASH_CENTER
 62
     2
100
AcDbLine
 10
214.0799834700533
 20
255.641214322881
 30
0.0
 11
314.1262842162288
 21
255.641214322881
 31
0.0
  0
LINE
  5
225
330
1F
100
AcDbEntity
  8
1
  6
DASH_CENTER
 62
     2
100
AcDbLine
 10
299.0799834700533
 20
217.641214322881
 30
0.0
 11
299.0799834700533
 21
271.641214322881
 31
0.0
  0
LINE
  5
226
330
1F
100
AcDbEntity
  8
1
  6
DASH_CENTER
 62
     2
100
AcDbLine
 10
240.0799834700533
 20
322.1372017579457
 30
0.0
 11
240.0799834700533
 21
240.6037993967124
 31
0.0
  0
LINE
  5
227
330
1F
100
AcDbEntity
  8
1
  6
DASH_CENTER
 62
     2
100
AcDbLine
 10
111.0045200666412
 20
423.2850702006639
 30
0.0
 11
169.3045200666412
 21
423.2850702006639
 31
0.0
  0
LINE
  5
228
330
1F
100
AcDbEntity
  8
1
  6
DASH_CENTER
 62
     2
100
AcDbLine
 10
164.9786708478397
 20
364.2850702006639
 30
0.0
 11
115.181296092366
 21
364.2850702006639
 31
0.0
  0
LINE
  5
229
330
1F
100
AcDbEntity
  8
1
  6
DASH_CENTER
 62
     2
100
AcDbLine
 10
140.079983470053
 20
334.2850702006639
 30
0.0
 11
140.079983470053
 21
452.4349502067412
 31
0.0
  0
LINE
  5
22A
330
1F
100
AcDbEntity
  8
1
  6
DASH_CENTER
 62
     2
100
AcDbLine
 10
140.079983470053
 20
213.641214322881
 30
0.0
 11
140.079983470053
 21
325.2489094774809
 31
0.0
  0
LINE
  5
22B
330
1F
100
AcDbEntity
  8
1
  6
DASH_CENTER
 62
     2
100
AcDbLine
 10
120.5799834700533
 20
255.641214322881
 30
0.0
 11
159.5799834700533
 21
255.641214322881
 31
0.0
  0
SOLID
  5
22C
330
1F
100
AcDbEntity
  8
1
 62
     2
100
AcDbTrace
 10
312.2818826183769
 20
276.1641758909279
 30
0.0
 11
313.8780843217298
 21
275.2426084078161
 31
0.0
 12
309.5799834700533
 22
269.641214322881
 32
0.0
 13
309.5799834700533
 23
269.641214322881
 33
0.0
  0
LEADER
  5
22D
330
1F
100
AcDbEntity
  8
1
  6
Continuous
 62
     2
100
AcDbLeader
  3
Standard
 71
     0
 76
     3
 10
309.5799834700533
 20
269.641214322881
 30
0.0
 10
316.6550864848828
 20
281.8956522133493
 30
0.0
 10
340.2685153647406
 20
281.8956522133493
 30
0.0
  0
SOLID
  5
22E
330
1F
100
AcDbEntity
  8
1
 62
     2
100
AcDbTrace
 10
313.8780843217298
 20
222.8145151512706
 30
0.0
 11
312.2818826183768
 21
221.8929476681588
 31
0.0
 12
309.5799834700533
 22
228.4159092362058
 32
0.0
 13
309.5799834700533
 23
228.4159092362058
 33
0.0
  0
LEADER
  5
22F
330
1F
100
AcDbEntity
  8
1
  6
Continuous
 62
     2
100
AcDbLeader
  3
Standard
 71
     0
 76
     3
 10
309.5799834700533
 20
228.4159092362058
 30
0.0
 10
331.4508647283621
 20
190.5344316905091
 30
0.0
 10
360.9759419614287
 20
190.5344316905091
 30
0.0
  0
SOLID
  5
230
330
1F
100
AcDbEntity
  8
1
 62
     2
100
AcDbTrace
 10
218.7281793919926
 20
238.618252754834
 30
0.0
 11
217.1319776886396
 21
239.5398202379458
 31
0.0
 12
221.4300785403161
 22
245.141214322881
 32
0.0
 13
221.4300785403161
 23
245.141214322881
 33
0.0
  0
LEADER
  5
231
330
1F
100
AcDbEntity
  8
1
  6
Continuous
 62
     2
100
AcDbLeader
  3
Standard
 71
     0
 76
     3
 10
221.4300785403161
 20
245.141214322881
 30
0.0
 10
211.5289476573826
 20
227.9919525812508
 30
0.0
 10
182.1361525403293
 20
227.9919525812508
 30
0.0
  0
MTEXT
  5
233
330
1F
100
AcDbEntity
  8
1
 62
     7
100
AcDbMText
 10
170.5
 20
34.0
 30
0.0
 40
7.0
 41
0.0
 71
     5
 72
     1
  1
1
  7
CONVERTER_2
 73
     1
 44
0.7202881152461
  0
MTEXT
  5
234
330
1F
100
AcDbEntity
  8
1
 62
     7
100
AcDbMText
 10
114.0
 20
28.5
 30
0.0
 40
7.0
 41
0.0
 71
     5
 72
     1
  1
B24-13
  7
CONVERTER_2
 73
     1
 44
0.7202881152461
  0
MTEXT
  5
235
330
1F
100
AcDbEntity
  8
1
 62
     7
100
AcDbMText
 10
114.0
 20
45.50000000000001
 30
0.0
 40
7.0
 41
0.0
 71
     5
 72
     1
  1
分岐バルブ
  7
CONVERTER_1
 73
     1
 44
0.7202881152461
  0
MTEXT
  5
236
330
1F
100
AcDbEntity
  8
1
 62
     7
100
AcDbMText
 10
328.8159772868141
 20
287.1456522133493
 30
0.0
 40
7.0
 41
0.0
 71
     5
 72
     1
  1
G1/2
  7
CONVERTER_2
 73
     1
 44
1.32052821128451
  0
MTEXT
  5
237
330
1F
100
AcDbEntity
  8
1
 62
     7
100
AcDbMText
 10
347.5441199099339
 20
195.7844316905091
 30
0.0
 40
7.0
 41
0.0
 71
     5
 72
     1
  1
PJ1/2
  7
CONVERTER_2
 73
     1
 44
1.32052821128451
  0
MTEXT
  5
238
330
1F
100
AcDbEntity
  8
1
 62
     7
100
AcDbMText
 10
196.0937797941782
 20
233.2419525812507
 30
0.0
 40
7.0
 41
0.0
 71
     5
 72
     1
  1
PJ1/2
  7
CONVERTER_2
 73
     1
 44
1.32052821128451
  0
MTEXT
  5
239
330
1F
100
AcDbEntity
  8
1
 62
     7
100
AcDbMText
 10
187.5
 20
34.0
 30
0.0
 40
7.0
 41
0.0
 71
     5
 72
     1
  1
2
  7
CONVERTER_2
 73
     1
 44
0.7202881152461
  0
DIMENSION
  5
247
330
1F
100
AcDbEntity
  8
1
100
AcDbDimension
  2
*D014
 10
216.0799834700533
 20
221.641214322881
 30
0.0
 11
220.213962877011
 21
227.141214322881
 31
0.0
  1
<>
 71
     5
 42
0.0
 53
0.00013888888889
  3
ME10_DIM_0
100
AcDbAlignedDimension
 13
225.0799834700534
 23
245.141214322881
 33
0.0
 14
216.0799834700533
 24
246.141214322881
 34
0.0
100
AcDbRotatedDimension
  0
DIMENSION
  5
253
330
1F
100
AcDbEntity
  8
1
100
AcDbDimension
  2
*D115
 10
216.0799834700533
 20
185.641214322881
 30
0.0
 11
258.282406181085
 21
191.141214322881
 31
0.0
  1
<>
 71
     5
 42
0.0
 53
0.00013888888889
  3
ME10_DIM_1
100
AcDbAlignedDimension
 13
299.0799834700533
 23
217.641214322881
 33
0.0
 14
216.0799834700533
 24
246.141214322881
 34
0.0
100
AcDbRotatedDimension
  0
DIMENSION
  5
25F
330
1F
100
AcDbEntity
  8
1
100
AcDbDimension
  2
*D216
 10
216.0799834700533
 20
201.641214322881
 30
0.0
 11
228.118885530316
 21
207.141214322881
 31
0.0
  1
<>
 71
     5
 42
0.0
 53
0.00013888888889
  3
ME10_DIM_2
100
AcDbAlignedDimension
 13
240.0799834700533
 23
240.6037993967124
 33
0.0
 14
216.0799834700533
 24
246.141214322881
 34
0.0
100
AcDbRotatedDimension
  0
DIMENSION
  5
26B
330
1F
100
AcDbEntity
  8
1
100
AcDbDimension
  2
*D317
 10
372.0799834700532
 20
219.6412143228809
 30
0.0
 11
366.5799834700532
 21
242.736907591196
 31
0.0
  1
<>
 71
     5
 42
0.0
 53
90.0
  3
ME10_DIM_3
100
AcDbAlignedDimension
 13
314.0799834700533
 23
269.641214322881
 33
0.0
 14
308.5799834700533
 24
219.641214322881
 34
0.0
 50
90.0
100
AcDbRotatedDimension
  0
DIMENSION
  5
277
330
1F
100
AcDbEntity
  8
1
100
AcDbDimension
  2
*D418
 10
356.0799834700532
 20
255.6412143228809
 30
0.0
 11
350.5799834700532
 21
237.110973957565
 31
0.0
  1
<>
 71
     5
 42
0.0
 53
90.0
  3
ME10_DIM_4
100
AcDbAlignedDimension
 13
308.5799834700533
 23
219.641214322881
 33
0.0
 14
314.1262842162288
 24
255.641214322881
 34
0.0
 50
90.0
100
AcDbRotatedDimension
  0
DIMENSION
  5
282
330
1F
100
AcDbEntity
  8
1
100
AcDbDimension
  2
*D519
 10
196.036974207852
 20
319.2489094774809
 30
0.0
 11
190.536974207852
 21
286.271235827363
 31
0.0
  1
64リフト5
 71
     5
 42
0.0
 53
90.0
  3
ME10_DIM_5
100
AcDbAlignedDimension
 13
214.0799834700533
 23
255.641214322881
 33
0.0
 14
240.0799834700314
 24
319.2489094774809
 34
0.0
 50
90.0
100
AcDbRotatedDimension
  0
DIMENSION
  5
28D
330
1F
100
AcDbEntity
  8
1
100
AcDbDimension
  2
*D620
 10
276.0799834700533
 20
167.641214322881
 30
0.0
 11
299.263189410062
 21
173.141214322881
 31
0.0
 70
     1
  1
<>
 71
     5
 42
0.0
 53
0.00013888888889
  3
ME10_DIM_6
100
AcDbAlignedDimension
 13
322.0799834700532
 23
234.641214322881
 33
0.0
 14
276.0799834700533
 24
234.641214322881
 34
0.0
  0
DIMENSION
  5
29A
330
1F
100
AcDbEntity
  8
1
100
AcDbDimension
  2
*D721
 10
342.0799834700532
 20
219.641214322881
 30
0.0
 11
336.5799834700532
 21
226.303259345588
 31
0.0
  1
<>
 71
     5
 42
0.0
 53
90.0
  3
ME10_DIM_7
100
AcDbAlignedDimension
 13
322.0799834700532
 23
234.641214322881
 33
0.0
 14
308.5799834700533
 24
219.641214322881
 34
0.0
 50
90.0
100
AcDbRotatedDimension
  0
ENDSEC
  0
SECTION
  2
OBJECTS
  0
DICTIONARY
  5
C
330
0
100
AcDbDictionary
281
     1
  3
ACAD_GROUP
350
D
  3
ACAD_LAYOUT
350
1A
  3
ACAD_MLINESTYLE
350
17
  3
ACAD_PLOTSETTINGS
350
19
  3
ACAD_PLOTSTYLENAME
350
E
  3
ACAD_TABLESTYLE
350
2A
  3
AcDbVariableDictionary
350
2C
  0
DICTIONARY
  5
D
102
{ACAD_REACTORS
330
C
102
}
330
C
100
AcDbDictionary
281
     1
  0
DICTIONARY
  5
1A
102
{ACAD_REACTORS
330
C
102
}
330
C
100
AcDbDictionary
281
     1
  3
Layout1
350
1E
  3
Layout2
350
26
  3
Model
350
22
  0
DICTIONARY
  5
17
102
{ACAD_REACTORS
330
C
102
}
330
C
100
AcDbDictionary
281
     1
  3
Standard
350
18
  0
DICTIONARY
  5
19
102
{ACAD_REACTORS
330
C
102
}
330
C
100
AcDbDictionary
281
     1
  0
ACDBDICTIONARYWDFLT
  5
E
102
{ACAD_REACTORS
330
C
102
}
330
C
100
AcDbDictionary
281
     1
  3
Normal
350
F
100
AcDbDictionaryWithDefault
340
F
  0
DICTIONARY
  5
2A
102
{ACAD_REACTORS
330
C
102
}
330
C
100
AcDbDictionary
281
     1
  3
Standard
350
2B
  0
DICTIONARY
  5
2C
102
{ACAD_REACTORS
330
C
102
}
330
C
100
AcDbDictionary
281
     1
  3
CTABLESTYLE
350
2D
  0
LAYOUT
  5
1E
102
{ACAD_REACTORS
330
1A
102
}
330
1A
100
AcDbPlotSettings
  1

  2

  4

  6

 40
0.0
 41
0.0
 42
0.0
 43
0.0
 44
0.0
 45
0.0
 46
0.0
 47
0.0
 48
0.0
 49
0.0
140
0.0
141
0.0
142
1.0
143
1.0
 70
   688
 72
     0
 73
     0
 74
     5
  7

 75
    16
147
1.0
148
0.0
149
0.0
100
AcDbLayout
  1
Layout1
 70
     1
 71
     1
 10
0.0
 20
0.0
 11
12.0
 21
9.0
 12
0.0
 22
0.0
 32
0.0
 14
1.00000000000000E+20
 24
1.00000000000000E+20
 34
1.00000000000000E+20
 15
-1.00000000000000E+20
 25
-1.00000000000000E+20
 35
-1.00000000000000E+20
146
0.0
 13
0.0
 23
0.0
 33
0.0
 16
1.0
 26
0.0
 36
0.0
 17
0.0
 27
1.0
 37
0.0
 76
     0
330
1B
  0
LAYOUT
  5
26
102
{ACAD_REACTORS
330
1A
102
}
330
1A
100
AcDbPlotSettings
  1

  2

  4

  6

 40
0.0
 41
0.0
 42
0.0
 43
0.0
 44
0.0
 45
0.0
 46
0.0
 47
0.0
 48
0.0
 49
0.0
140
0.0
141
0.0
142
1.0
143
1.0
 70
   688
 72
     0
 73
     0
 74
     5
  7

 75
    16
147
1.0
148
0.0
149
0.0
100
AcDbLayout
  1
Layout2
 70
     1
 71
     2
 10
0.0
 20
0.0
 11
0.0
 21
0.0
 12
0.0
 22
0.0
 32
0.0
 14
0.0
 24
0.0
 34
0.0
 15
0.0
 25
0.0
 35
0.0
146
0.0
 13
0.0
 23
0.0
 33
0.0
 16
1.0
 26
0.0
 36
0.0
 17
0.0
 27
1.0
 37
0.0
 76
     0
330
23
  0
LAYOUT
  5
22
102
{ACAD_REACTORS
330
1A
102
}
330
1A
100
AcDbPlotSettings
  1

  2

  4

  6

 40
0.0
 41
0.0
 42
0.0
 43
0.0
 44
0.0
 45
0.0
 46
0.0
 47
0.0
 48
0.0
 49
0.0
140
0.0
141
0.0
142
1.0
143
1.0
 70
  1712
 72
     0
 73
     0
 74
     0
  7

 75
     0
147
1.0
148
0.0
149
0.0
100
AcDbLayout
  1
Model
 70
     1
 71
     0
 10
0.0
 20
0.0
 11
0.0
 21
0.0
 12
0.0
 22
0.0
 32
0.0
 14
0.0
 24
0.0
 34
0.0
 15
420.0
 25
594.0
 35
0.0
146
0.0
 13
0.0
 23
0.0
 33
0.0
 16
1.0
 26
0.0
 36
0.0
 17
0.0
 27
1.0
 37
0.0
 76
     0
330
1F
  0
MLINESTYLE
  5
18
102
{ACAD_REACTORS
330
17
102
}
330
17
100
AcDbMlineStyle
  2
Standard
 70
     0
  3

 62
   256
 51
90.0
 52
90.0
 71
     2
 49
0.5
 62
   256
  6
BYLAYER
 49
-0.5
 62
   256
  6
BYLAYER
  0
ACDBPLACEHOLDER
  5
F
102
{ACAD_REACTORS
330
E
102
}
330
E
  0
TABLESTYLE
  5
2B
102
{ACAD_REACTORS
330
2A
102
}
330
2A
100
AcDbTableStyle
  3
Standard
 70
     0
 71
     0
 40
0.06
 41
0.06
280
     0
281
     0
  7
Standard
140
0.18
170
     2
 62
     0
 63
     7
283
     0
274
    -2
284
     1
 64
     0
275
    -2
285
     1
 65
     0
276
    -2
286
     1
 66
     0
277
    -2
287
     1
 67
     0
278
    -2
288
     1
 68
     0
279
    -2
289
     1
 69
     0
  7
Standard
140
0.25
170
     5
 62
     0
 63
     7
283
     0
274
    -2
284
     1
 64
     0
275
    -2
285
     1
 65
     0
276
    -2
286
     1
 66
     0
277
    -2
287
     1
 67
     0
278
    -2
288
     1
 68
     0
279
    -2
289
     1
 69
     0
  7
Standard
140
0.18
170
     5
 62
     0
 63
     7
283
     0
274
    -2
284
     1
 64
     0
275
    -2
285
     1
 65
     0
276
    -2
286
     1
 66
     0
277
    -2
287
     1
 67
     0
278
    -2
288
     1
 68
     0
279
    -2
289
     1
 69
     0
  0
DICTIONARYVAR
  5
2D
102
{ACAD_REACTORS
330
2C
102
}
330
2C
100
DictionaryVariables
280
     0
  1
Standard
  0
ENDSEC
  0
EOF
