  0
SECTION
  2
HEADER
  9
$ACADVER
  1
AC1015
  9
$ACADMAINTVER
 70
     6
  9
$DWGCODEPAGE
  3
ANSI_932
  9
$INSBASE
 10
0.0
 20
0.0
 30
0.0
  9
$EXTMIN
 10
0.0
 20
0.0
 30
0.0
  9
$EXTMAX
 10
315.0
 20
445.5
 30
0.0
  9
$LIMMIN
 10
0.0
 20
0.0
  9
$LIMMAX
 10
12.0
 20
9.0
  9
$ORTHOMODE
 70
     0
  9
$REGENMODE
 70
     1
  9
$FILLMODE
 70
     1
  9
$QTEXTMODE
 70
     0
  9
$MIRRTEXT
 70
     1
  9
$LTSCALE
 40
1.0
  9
$ATTMODE
 70
     1
  9
$TEXTSIZE
 40
0.2
  9
$TRACEWID
 40
0.05
  9
$TEXTSTYLE
  7
Standard
  9
$CLAYER
  8
0
  9
$CELTYPE
  6
ByLayer
  9
$CECOLOR
 62
   256
  9
$CELTSCALE
 40
1.0
  9
$DISPSILH
 70
     0
  9
$DIMSCALE
 40
1.0
  9
$DIMASZ
 40
0.18
  9
$DIMEXO
 40
0.0625
  9
$DIMDLI
 40
0.38
  9
$DIMRND
 40
0.0
  9
$DIMDLE
 40
0.0
  9
$DIMEXE
 40
0.18
  9
$DIMTP
 40
0.0
  9
$DIMTM
 40
0.0
  9
$DIMTXT
 40
0.18
  9
$DIMCEN
 40
0.09
  9
$DIMTSZ
 40
0.0
  9
$DIMTOL
 70
     0
  9
$DIMLIM
 70
     0
  9
$DIMTIH
 70
     1
  9
$DIMTOH
 70
     1
  9
$DIMSE1
 70
     0
  9
$DIMSE2
 70
     0
  9
$DIMTAD
 70
     0
  9
$DIMZIN
 70
     0
  9
$DIMBLK
  1

  9
$DIMASO
 70
     1
  9
$DIMSHO
 70
     1
  9
$DIMPOST
  1

  9
$DIMAPOST
  1

  9
$DIMALT
 70
     0
  9
$DIMALTD
 70
     2
  9
$DIMALTF
 40
25.4
  9
$DIMLFAC
 40
1.0
  9
$DIMTOFL
 70
     0
  9
$DIMTVP
 40
0.0
  9
$DIMTIX
 70
     0
  9
$DIMSOXD
 70
     0
  9
$DIMSAH
 70
     0
  9
$DIMBLK1
  1

  9
$DIMBLK2
  1

  9
$DIMSTYLE
  2
Standard
  9
$DIMCLRD
 70
     0
  9
$DIMCLRE
 70
     0
  9
$DIMCLRT
 70
     0
  9
$DIMTFAC
 40
1.0
  9
$DIMGAP
 40
0.09
  9
$DIMJUST
 70
     0
  9
$DIMSD1
 70
     0
  9
$DIMSD2
 70
     0
  9
$DIMTOLJ
 70
     1
  9
$DIMTZIN
 70
     0
  9
$DIMALTZ
 70
     0
  9
$DIMALTTZ
 70
     0
  9
$DIMUPT
 70
     0
  9
$DIMDEC
 70
     4
  9
$DIMTDEC
 70
     4
  9
$DIMALTU
 70
     2
  9
$DIMALTTD
 70
     2
  9
$DIMTXSTY
  7
Standard
  9
$DIMAUNIT
 70
     0
  9
$DIMADEC
 70
     0
  9
$DIMALTRND
 40
0.0
  9
$DIMAZIN
 70
     0
  9
$DIMDSEP
 70
    46
  9
$DIMATFIT
 70
     3
  9
$DIMFRAC
 70
     0
  9
$DIMLDRBLK
  1

  9
$DIMLUNIT
 70
     2
  9
$DIMLWD
 70
    -2
  9
$DIMLWE
 70
    -2
  9
$DIMTMOVE
 70
     0
  9
$LUNITS
 70
     2
  9
$LUPREC
 70
     4
  9
$SKETCHINC
 40
0.1
  9
$FILLETRAD
 40
0.5
  9
$AUNITS
 70
     0
  9
$AUPREC
 70
     0
  9
$MENU
  1
.
  9
$ELEVATION
 40
0.0
  9
$PELEVATION
 40
0.0
  9
$THICKNESS
 40
0.0
  9
$LIMCHECK
 70
     0
  9
$CHAMFERA
 40
0.5
  9
$CHAMFERB
 40
0.5
  9
$CHAMFERC
 40
1.0
  9
$CHAMFERD
 40
0.0
  9
$SKPOLY
 70
     0
  9
$TDCREATE
 40
2456548.615215417
  9
$TDUCREATE
 40
2456548.240215417
  9
$TDUPDATE
 40
2456548.615216678
  9
$TDUUPDATE
 40
2456548.240216678
  9
$TDINDWG
 40
0.0000000116
  9
$TDUSRTIMER
 40
0.0000000116
  9
$USRTIMER
 70
     1
  9
$ANGBASE
 50
0.0
  9
$ANGDIR
 70
     0
  9
$PDMODE
 70
     0
  9
$PDSIZE
 40
0.0
  9
$PLINEWID
 40
0.0
  9
$SPLFRAME
 70
     0
  9
$SPLINETYPE
 70
     6
  9
$SPLINESEGS
 70
     8
  9
$HANDSEED
  5
32D
  9
$SURFTAB1
 70
     6
  9
$SURFTAB2
 70
     6
  9
$SURFTYPE
 70
     6
  9
$SURFU
 70
     6
  9
$SURFV
 70
     6
  9
$UCSBASE
  2

  9
$UCSNAME
  2

  9
$UCSORG
 10
0.0
 20
0.0
 30
0.0
  9
$UCSXDIR
 10
1.0
 20
0.0
 30
0.0
  9
$UCSYDIR
 10
0.0
 20
1.0
 30
0.0
  9
$UCSORTHOREF
  2

  9
$UCSORTHOVIEW
 70
     0
  9
$UCSORGTOP
 10
0.0
 20
0.0
 30
0.0
  9
$UCSORGBOTTOM
 10
0.0
 20
0.0
 30
0.0
  9
$UCSORGLEFT
 10
0.0
 20
0.0
 30
0.0
  9
$UCSORGRIGHT
 10
0.0
 20
0.0
 30
0.0
  9
$UCSORGFRONT
 10
0.0
 20
0.0
 30
0.0
  9
$UCSORGBACK
 10
0.0
 20
0.0
 30
0.0
  9
$PUCSBASE
  2

  9
$PUCSNAME
  2

  9
$PUCSORG
 10
0.0
 20
0.0
 30
0.0
  9
$PUCSXDIR
 10
1.0
 20
0.0
 30
0.0
  9
$PUCSYDIR
 10
0.0
 20
1.0
 30
0.0
  9
$PUCSORTHOREF
  2

  9
$PUCSORTHOVIEW
 70
     0
  9
$PUCSORGTOP
 10
0.0
 20
0.0
 30
0.0
  9
$PUCSORGBOTTOM
 10
0.0
 20
0.0
 30
0.0
  9
$PUCSORGLEFT
 10
0.0
 20
0.0
 30
0.0
  9
$PUCSORGRIGHT
 10
0.0
 20
0.0
 30
0.0
  9
$PUCSORGFRONT
 10
0.0
 20
0.0
 30
0.0
  9
$PUCSORGBACK
 10
0.0
 20
0.0
 30
0.0
  9
$USERI1
 70
     0
  9
$USERI2
 70
     0
  9
$USERI3
 70
     0
  9
$USERI4
 70
     0
  9
$USERI5
 70
     0
  9
$USERR1
 40
18.1
  9
$USERR2
 40
0.0
  9
$USERR3
 40
0.0
  9
$USERR4
 40
0.0
  9
$USERR5
 40
0.0
  9
$WORLDVIEW
 70
     1
  9
$SHADEDGE
 70
     3
  9
$SHADEDIF
 70
    70
  9
$TILEMODE
 70
     1
  9
$MAXACTVP
 70
    64
  9
$PINSBASE
 10
0.0
 20
0.0
 30
0.0
  9
$PLIMCHECK
 70
     0
  9
$PEXTMIN
 10
1.00000000000000E+20
 20
1.00000000000000E+20
 30
1.00000000000000E+20
  9
$PEXTMAX
 10
-1.00000000000000E+20
 20
-1.00000000000000E+20
 30
-1.00000000000000E+20
  9
$PLIMMIN
 10
0.0
 20
0.0
  9
$PLIMMAX
 10
12.0
 20
9.0
  9
$UNITMODE
 70
     0
  9
$VISRETAIN
 70
     1
  9
$PLINEGEN
 70
     0
  9
$PSLTSCALE
 70
     1
  9
$TREEDEPTH
 70
  3020
  9
$CMLSTYLE
  2
Standard
  9
$CMLJUST
 70
     0
  9
$CMLSCALE
 40
1.0
  9
$PROXYGRAPHICS
 70
     1
  9
$MEASUREMENT
 70
     1
  9
$CELWEIGHT
370
    -1
  9
$ENDCAPS
280
     0
  9
$JOINSTYLE
280
     0
  9
$LWDISPLAY
290
     0
  9
$INSUNITS
 70
     4
  9
$HYPERLINKBASE
  1

  9
$STYLESHEET
  1

  9
$XEDIT
290
     1
  9
$CEPSNTYPE
380
     0
  9
$PSTYLEMODE
290
     1
  9
$FINGERPRINTGUID
  2
{0F72BE60-49B5-40BC-BAAF-ABB7543EE196}
  9
$VERSIONGUID
  2
{FAEB1C32-E019-11D5-929B-00C0DF256EC4}
  9
$EXTNAMES
290
     1
  9
$PSVPSCALE
 40
0.0
  9
$OLESTARTUP
290
     0
  0
ENDSEC
  0
SECTION
  2
CLASSES
  0
CLASS
  1
ACDBDICTIONARYWDFLT
  2
AcDbDictionaryWithDefault
  3
ObjectDBX Classes
 90
        0
280
     0
281
     0
  0
CLASS
  1
VISUALSTYLE
  2
AcDbVisualStyle
  3
ObjectDBX Classes
 90
     4095
280
     0
281
     0
  0
CLASS
  1
MATERIAL
  2
AcDbMaterial
  3
ObjectDBX Classes
 90
     1153
280
     0
281
     0
  0
CLASS
  1
DICTIONARYVAR
  2
AcDbDictionaryVar
  3
ObjectDBX Classes
 90
        0
280
     0
281
     0
  0
CLASS
  1
ACDBPLACEHOLDER
  2
AcDbPlaceHolder
  3
ObjectDBX Classes
 90
        0
280
     0
281
     0
  0
CLASS
  1
LAYOUT
  2
AcDbLayout
  3
ObjectDBX Classes
 90
        0
280
     0
281
     0
  0
ENDSEC
  0
SECTION
  2
TABLES
  0
TABLE
  2
VPORT
  5
8
330
0
100
AcDbSymbolTable
 70
     1
  0
VPORT
  5
29
330
8
100
AcDbSymbolTableRecord
100
AcDbViewportTableRecord
  2
*Active
 70
     0
 10
0.0
 20
0.0
 11
1.0
 21
1.0
 12
157.5
 22
222.75
 13
0.0
 23
0.0
 14
0.5
 24
0.5
 15
0.5
 25
0.5
 16
0.0
 26
0.0
 36
1.0
 17
0.0
 27
0.0
 37
0.0
 40
490.05
 41
1.60267857142857
 42
50.0
 43
0.0
 44
0.0
 50
0.0
 51
0.0
 71
     0
 72
   100
 73
     1
 74
     3
 75
     0
 76
     0
 77
     0
 78
     0
281
     0
 65
     1
110
0.0
120
0.0
130
0.0
111
1.0
121
0.0
131
0.0
112
0.0
122
1.0
132
0.0
 79
     0
146
0.0
  0
ENDTAB
  0
TABLE
  2
LTYPE
  5
5
330
0
100
AcDbSymbolTable
 70
     8
  0
LTYPE
  5
14
330
5
100
AcDbSymbolTableRecord
100
AcDbLinetypeTableRecord
  2
ByBlock
 70
     0
  3

 72
    65
 73
     0
 40
0.0
  0
LTYPE
  5
15
330
5
100
AcDbSymbolTableRecord
100
AcDbLinetypeTableRecord
  2
ByLayer
 70
     0
  3

 72
    65
 73
     0
 40
0.0
  0
LTYPE
  5
16
330
5
100
AcDbSymbolTableRecord
100
AcDbLinetypeTableRecord
  2
Continuous
 70
     0
  3
Solid line
 72
    65
 73
     0
 40
0.0
  0
LTYPE
  5
3F
330
5
100
AcDbSymbolTableRecord
100
AcDbLinetypeTableRecord
  2
DASHED
 70
     0
  3
Dashed
 72
    65
 73
     2
 40
15.0
 49
7.0
 74
     0
 49
-8.0
 74
     0
  0
LTYPE
  5
40
330
5
100
AcDbSymbolTableRecord
100
AcDbLinetypeTableRecord
  2
DOTTED
 70
     0
  3
Dotted
 72
    65
 73
     2
 40
1.0
 49
0.0
 74
     0
 49
-1.0
 74
     0
  0
LTYPE
  5
41
330
5
100
AcDbSymbolTableRecord
100
AcDbLinetypeTableRecord
  2
DOT_CENTER
 70
     0
  3
Dot_Center
 72
    65
 73
     4
 40
14.0
 49
12.0
 74
     0
 49
-1.0
 74
     0
 49
0.0
 74
     0
 49
-1.0
 74
     0
  0
LTYPE
  5
42
330
5
100
AcDbSymbolTableRecord
100
AcDbLinetypeTableRecord
  2
LONG_DASHED
 70
     0
  3
Long_Dashed
 72
    65
 73
     2
 40
15.0
 49
10.0
 74
     0
 49
-5.0
 74
     0
  0
LTYPE
  5
43
330
5
100
AcDbSymbolTableRecord
100
AcDbLinetypeTableRecord
  2
DASH_CENTER
 70
     0
  3
Dash_Center
 72
    65
 73
     4
 40
14.0
 49
11.0
 74
     0
 49
-1.0
 74
     0
 49
1.0
 74
     0
 49
-1.0
 74
     0
  0
LTYPE
  5
44
330
5
100
AcDbSymbolTableRecord
100
AcDbLinetypeTableRecord
  2
PHANTOM
 70
     0
  3
Phantom
 72
    65
 73
     6
 40
13.0
 49
10.0
 74
     0
 49
-1.0
 74
     0
 49
0.0
 74
     0
 49
-1.0
 74
     0
 49
0.0
 74
     0
 49
-1.0
 74
     0
  0
LTYPE
  5
45
330
5
100
AcDbSymbolTableRecord
100
AcDbLinetypeTableRecord
  2
CENTER_DASH_DASH
 70
     0
  3
Center_Dash_Dash
 72
    65
 73
     6
 40
14.0
 49
9.0
 74
     0
 49
-1.0
 74
     0
 49
1.0
 74
     0
 49
-1.0
 74
     0
 49
1.0
 74
     0
 49
-1.0
 74
     0
  0
ENDTAB
  0
TABLE
  2
LAYER
  5
2
330
0
100
AcDbSymbolTable
 70
     2
  0
LAYER
  5
10
330
2
100
AcDbSymbolTableRecord
100
AcDbLayerTableRecord
  2
0
 70
     0
 62
     7
  6
Continuous
370
    -3
390
F
  0
LAYER
  5
46
330
2
100
AcDbSymbolTableRecord
100
AcDbLayerTableRecord
  2
1
 70
     0
 62
     7
  6
Continuous
370
    -3
390
F
  0
ENDTAB
  0
TABLE
  2
STYLE
  5
3
330
0
100
AcDbSymbolTable
 70
     3
  0
STYLE
  5
11
330
3
100
AcDbSymbolTableRecord
100
AcDbTextStyleTableRecord
  2
Standard
 70
     0
 40
0.0
 41
1.0
 50
0.0
 71
     0
 42
0.2
  3
txt
  4

  0
STYLE
  5
C6
330
3
100
AcDbSymbolTableRecord
100
AcDbTextStyleTableRecord
  2
CONVERTER_11
 70
     0
 40
0.0
 41
0.89
 50
0.0
 71
     0
 42
0.2
  3
MS Mincho.ttf
  4

1001
ACAD
1000
MS Mincho
1071
    32785
  0
STYLE
  5
2A2
330
3
100
AcDbSymbolTableRecord
100
AcDbTextStyleTableRecord
  2
CONVERTER_12
 70
     0
 40
0.0
 41
0.9
 50
0.0
 71
     0
 42
0.2
  3
txt.shx
  4

  0
ENDTAB
  0
TABLE
  2
VIEW
  5
6
330
0
100
AcDbSymbolTable
 70
     0
  0
ENDTAB
  0
TABLE
  2
UCS
  5
7
330
0
100
AcDbSymbolTable
 70
     0
  0
ENDTAB
  0
TABLE
  2
APPID
  5
9
330
0
100
AcDbSymbolTable
 70
     1
  0
APPID
  5
12
330
9
100
AcDbSymbolTableRecord
100
AcDbRegAppTableRecord
  2
ACAD
 70
     0
  0
ENDTAB
  0
TABLE
  2
DIMSTYLE
  5
A
330
0
100
AcDbSymbolTable
 70
     9
100
AcDbDimStyleTable
  0
DIMSTYLE
105
27
330
A
100
AcDbSymbolTableRecord
100
AcDbDimStyleTableRecord
  2
Standard
 70
     0
178
     0
340
11
  0
DIMSTYLE
105
2B2
102
{ACAD_REACTORS
330
2B3
102
}
330
A
100
AcDbSymbolTableRecord
100
AcDbDimStyleTableRecord
  2
ME10_DIM_10
 70
     0
 41
5.25
 42
0.0
 44
1.5
 73
     0
 74
     0
 77
     1
 78
     8
140
5.25
147
1.5
172
     1
173
     1
174
     1
175
     1
176
     2
177
     2
271
     2
178
     7
271
     2
340
2A2
  0
DIMSTYLE
105
2BD
102
{ACAD_REACTORS
330
2BE
102
}
330
A
100
AcDbSymbolTableRecord
100
AcDbDimStyleTableRecord
  2
ME10_DIM_11
 70
     0
 41
5.25
 42
0.0
 44
1.5
 73
     0
 74
     0
 77
     1
 78
     8
140
5.25
147
1.5
172
     1
173
     1
174
     1
175
     1
176
     2
177
     2
271
     2
178
     7
271
     2
340
C6
  0
DIMSTYLE
105
2C8
102
{ACAD_REACTORS
330
2C9
102
}
330
A
100
AcDbSymbolTableRecord
100
AcDbDimStyleTableRecord
  2
ME10_DIM_12
 70
     0
 41
5.25
 42
0.0
 44
1.5
 73
     0
 74
     0
 77
     1
 78
     8
140
5.25
147
1.5
172
     1
173
     1
174
     1
175
     1
176
     2
177
     2
271
     2
178
     7
271
     2
340
2A2
  0
DIMSTYLE
105
2D3
102
{ACAD_REACTORS
330
2D4
102
}
330
A
100
AcDbSymbolTableRecord
100
AcDbDimStyleTableRecord
  2
ME10_DIM_13
 70
     0
 41
5.25
 42
0.0
 44
1.5
 73
     0
 74
     0
 77
     1
 78
     8
140
5.25
147
1.5
172
     1
173
     1
174
     1
175
     1
176
     2
177
     2
271
     2
178
     7
271
     2
340
2A2
  0
DIMSTYLE
105
2DE
102
{ACAD_REACTORS
330
2DF
102
}
330
A
100
AcDbSymbolTableRecord
100
AcDbDimStyleTableRecord
  2
ME10_DIM_14
 70
     0
 41
5.25
 42
0.0
 44
1.5
 73
     0
 74
     0
 77
     1
 78
     8
140
5.25
147
1.5
172
     1
173
     1
174
     1
175
     1
176
     2
177
     2
271
     2
178
     7
271
     2
340
2A2
  0
DIMSTYLE
105
2E9
102
{ACAD_REACTORS
330
2EA
102
}
330
A
100
AcDbSymbolTableRecord
100
AcDbDimStyleTableRecord
  2
ME10_DIM_15
 70
     0
 41
5.25
 42
0.0
 44
1.5
 73
     0
 74
     0
 77
     1
 78
     8
140
5.25
147
1.5
172
     1
173
     1
174
     1
175
     1
176
     2
177
     2
271
     2
178
     7
271
     2
340
2A2
  0
DIMSTYLE
105
2F4
102
{ACAD_REACTORS
330
2F5
102
}
330
A
100
AcDbSymbolTableRecord
100
AcDbDimStyleTableRecord
  2
ME10_DIM_16
 70
     0
 41
5.25
 42
0.0
 44
1.5
 73
     0
 74
     0
 77
     1
 78
     8
140
5.25
147
1.5
172
     1
173
     1
174
     1
175
     1
176
     2
177
     2
271
     2
178
     7
271
     2
340
2A2
  0
DIMSTYLE
105
300
102
{ACAD_REACTORS
330
301
102
}
330
A
100
AcDbSymbolTableRecord
100
AcDbDimStyleTableRecord
  2
ME10_DIM_17
 70
     0
  3
{\Fgdt;n}<>
 41
5.25
 42
0.0
 44
1.5
 73
     0
 74
     0
 77
     1
 78
     8
140
5.25
147
1.5
172
     1
173
     1
174
     1
175
     1
176
     2
177
     2
271
     2
178
     7
271
     2
340
2A2
  0
ENDTAB
  0
TABLE
  2
BLOCK_RECORD
  5
1
330
0
100
AcDbSymbolTable
 70
    22
  0
BLOCK_RECORD
  5
1F
330
1
100
AcDbSymbolTableRecord
100
AcDbBlockTableRecord
  2
*Model_Space
340
22
  0
BLOCK_RECORD
  5
1B
330
1
100
AcDbSymbolTableRecord
100
AcDbBlockTableRecord
  2
*Paper_Space
340
1E
  0
BLOCK_RECORD
  5
23
330
1
100
AcDbSymbolTableRecord
100
AcDbBlockTableRecord
  2
*Paper_Space0
340
26
  0
BLOCK_RECORD
  5
47
330
1
100
AcDbSymbolTableRecord
100
AcDbBlockTableRecord
  2
開示A4
340
0
102
{BLKREFS
331
72
102
}
  0
BLOCK_RECORD
  5
4A
330
1
100
AcDbSymbolTableRecord
100
AcDbBlockTableRecord
  2
92-80
340
0
102
{BLKREFS
331
73
102
}
  0
BLOCK_RECORD
  5
4D
330
1
100
AcDbSymbolTableRecord
100
AcDbBlockTableRecord
  2
32-1-16
340
0
102
{BLKREFS
331
74
102
}
  0
BLOCK_RECORD
  5
50
330
1
100
AcDbSymbolTableRecord
100
AcDbBlockTableRecord
  2
75-2
340
0
102
{BLKREFS
331
75
102
}
  0
BLOCK_RECORD
  5
53
330
1
100
AcDbSymbolTableRecord
100
AcDbBlockTableRecord
  2
21-1C
340
0
102
{BLKREFS
331
60
102
}
  0
BLOCK_RECORD
  5
56
330
1
100
AcDbSymbolTableRecord
100
AcDbBlockTableRecord
  2
42-15
340
0
102
{BLKREFS
331
61
102
}
  0
BLOCK_RECORD
  5
59
330
1
100
AcDbSymbolTableRecord
100
AcDbBlockTableRecord
  2
37-1-13
340
0
102
{BLKREFS
331
62
102
}
  0
BLOCK_RECORD
  5
5C
330
1
100
AcDbSymbolTableRecord
100
AcDbBlockTableRecord
  2
36-54-M11
340
0
102
{BLKREFS
331
63
102
}
  0
BLOCK_RECORD
  5
5F
330
1
100
AcDbSymbolTableRecord
100
AcDbBlockTableRecord
  2
R10AK-13
340
0
102
{BLKREFS
331
76
102
}
  0
BLOCK_RECORD
  5
66
330
1
100
AcDbSymbolTableRecord
100
AcDbBlockTableRecord
  2
35-22
340
0
102
{BLKREFS
331
77
102
}
  0
BLOCK_RECORD
  5
69
330
1
100
AcDbSymbolTableRecord
100
AcDbBlockTableRecord
  2
32-26
340
0
102
{BLKREFS
331
78
102
}
  0
BLOCK_RECORD
  5
6C
330
1
100
AcDbSymbolTableRecord
100
AcDbBlockTableRecord
  2
B320-0
340
0
102
{BLKREFS
331
79
102
}
  0
BLOCK_RECORD
  5
6F
330
1
100
AcDbSymbolTableRecord
100
AcDbBlockTableRecord
  2
62-1B-M2
340
0
102
{BLKREFS
331
7A
102
}
  0
BLOCK_RECORD
  5
2A9
330
1
100
AcDbSymbolTableRecord
100
AcDbBlockTableRecord
  2
*D14
340
0
  0
BLOCK_RECORD
  5
2B4
330
1
100
AcDbSymbolTableRecord
100
AcDbBlockTableRecord
  2
*D15
340
0
  0
BLOCK_RECORD
  5
2BF
330
1
100
AcDbSymbolTableRecord
100
AcDbBlockTableRecord
  2
*D16
340
0
  0
BLOCK_RECORD
  5
2CA
330
1
100
AcDbSymbolTableRecord
100
AcDbBlockTableRecord
  2
*D17
340
0
  0
BLOCK_RECORD
  5
2D5
330
1
100
AcDbSymbolTableRecord
100
AcDbBlockTableRecord
  2
*D18
340
0
  0
BLOCK_RECORD
  5
2E0
330
1
100
AcDbSymbolTableRecord
100
AcDbBlockTableRecord
  2
*D19
340
0
  0
BLOCK_RECORD
  5
2EB
330
1
100
AcDbSymbolTableRecord
100
AcDbBlockTableRecord
  2
*D20
340
0
  0
BLOCK_RECORD
  5
2F6
330
1
100
AcDbSymbolTableRecord
100
AcDbBlockTableRecord
  2
*D21
340
0
  0
ENDTAB
  0
ENDSEC
  0
SECTION
  2
BLOCKS
  0
BLOCK
  5
20
330
1F
100
AcDbEntity
  8
0
100
AcDbBlockBegin
  2
*Model_Space
 70
     0
 10
0.0
 20
0.0
 30
0.0
  3
*Model_Space
  1

  0
ENDBLK
  5
21
330
1F
100
AcDbEntity
  8
0
100
AcDbBlockEnd
  0
BLOCK
  5
1C
330
1B
100
AcDbEntity
 67
     1
  8
0
100
AcDbBlockBegin
  2
*Paper_Space
 70
     0
 10
0.0
 20
0.0
 30
0.0
  3
*Paper_Space
  1

  0
ENDBLK
  5
1D
330
1B
100
AcDbEntity
 67
     1
  8
0
100
AcDbBlockEnd
  0
BLOCK
  5
24
330
23
100
AcDbEntity
  8
0
100
AcDbBlockBegin
  2
*Paper_Space0
 70
     0
 10
0.0
 20
0.0
 30
0.0
  3
*Paper_Space0
  1

  0
ENDBLK
  5
25
330
23
100
AcDbEntity
  8
0
100
AcDbBlockEnd
  0
BLOCK
  5
48
330
47
100
AcDbEntity
  8
0
100
AcDbBlockBegin
  2
開示A4
 70
     0
 10
0.0
 20
0.0
 30
0.0
  3
開示A4
  1

  0
POINT
  5
7B
330
47
100
AcDbEntity
  8
1
 62
     4
100
AcDbPoint
 10
34.0
 20
34.00000000000001
 30
0.0
  0
POINT
  5
7C
330
47
100
AcDbEntity
  8
1
 62
     4
100
AcDbPoint
 10
57.0
 20
12.25
 30
0.0
  0
POINT
  5
7D
330
47
100
AcDbEntity
  8
1
 62
     4
100
AcDbPoint
 10
57.0
 20
20.75000000000001
 30
0.0
  0
POINT
  5
7E
330
47
100
AcDbEntity
  8
1
 62
     4
100
AcDbPoint
 10
57.0
 20
24.75000000000001
 30
0.0
  0
POINT
  5
7F
330
47
100
AcDbEntity
  8
1
 62
     4
100
AcDbPoint
 10
57.0
 20
16.25
 30
0.0
  0
POINT
  5
80
330
47
100
AcDbEntity
  8
1
 62
     4
100
AcDbPoint
 10
157.5
 20
19.00000000000001
 30
0.0
  0
POINT
  5
81
330
47
100
AcDbEntity
  8
1
 62
     4
100
AcDbPoint
 10
47.5
 20
282.0000000000003
 30
0.0
  0
POINT
  5
82
330
47
100
AcDbEntity
  8
1
 62
     4
100
AcDbPoint
 10
57.0
 20
22.75000000000001
 30
0.0
  0
POINT
  5
83
330
47
100
AcDbEntity
  8
1
 62
     4
100
AcDbPoint
 10
57.0
 20
14.25
 30
0.0
  0
POINT
  5
84
330
47
100
AcDbEntity
  8
1
 62
     4
100
AcDbPoint
 10
157.5
 20
12.5
 30
0.0
  0
POINT
  5
85
330
47
100
AcDbEntity
  8
1
 62
     4
100
AcDbPoint
 10
163.25
 20
12.5
 30
0.0
  0
POINT
  5
86
330
47
100
AcDbEntity
  8
1
 62
     4
100
AcDbPoint
 10
151.75
 20
12.5
 30
0.0
  0
POINT
  5
87
330
47
100
AcDbEntity
  8
1
 62
     4
100
AcDbPoint
 10
134.75
 20
12.5
 30
0.0
  0
POINT
  5
88
330
47
100
AcDbEntity
  8
1
 62
     4
100
AcDbPoint
 10
146.25
 20
12.5
 30
0.0
  0
POINT
  5
89
330
47
100
AcDbEntity
  8
1
 62
     4
100
AcDbPoint
 10
140.5
 20
12.5
 30
0.0
  0
POINT
  5
8A
330
47
100
AcDbEntity
  8
1
 62
     4
100
AcDbPoint
 10
140.5
 20
19.00000000000001
 30
0.0
  0
POINT
  5
8B
330
47
100
AcDbEntity
  8
1
 62
     4
100
AcDbPoint
 10
117.75
 20
12.5
 30
0.0
  0
POINT
  5
8C
330
47
100
AcDbEntity
  8
1
 62
     4
100
AcDbPoint
 10
129.25
 20
12.5
 30
0.0
  0
POINT
  5
8D
330
47
100
AcDbEntity
  8
1
 62
     4
100
AcDbPoint
 10
123.5
 20
12.5
 30
0.0
  0
POINT
  5
8E
330
47
100
AcDbEntity
  8
1
 62
     4
100
AcDbPoint
 10
123.5
 20
19.00000000000001
 30
0.0
  0
POINT
  5
8F
330
47
100
AcDbEntity
  8
1
 62
     4
100
AcDbPoint
 10
100.75
 20
12.5
 30
0.0
  0
POINT
  5
90
330
47
100
AcDbEntity
  8
1
 62
     4
100
AcDbPoint
 10
112.25
 20
12.5
 30
0.0
  0
POINT
  5
91
330
47
100
AcDbEntity
  8
1
 62
     4
100
AcDbPoint
 10
106.5
 20
12.5
 30
0.0
  0
POINT
  5
92
330
47
100
AcDbEntity
  8
1
 62
     4
100
AcDbPoint
 10
106.5
 20
19.00000000000001
 30
0.0
  0
POINT
  5
93
330
47
100
AcDbEntity
  8
1
 62
     4
100
AcDbPoint
 10
85.25
 20
17.0
 30
0.0
  0
POINT
  5
94
330
47
100
AcDbEntity
  8
1
 62
     4
100
AcDbPoint
 10
93.75
 20
17.0
 30
0.0
  0
LINE
  5
95
330
47
100
AcDbEntity
  8
1
  6
Continuous
 62
     2
100
AcDbLine
 10
81.0
 20
27.00000000000001
 30
0.0
 11
81.0
 21
10.0
 31
0.0
  0
LINE
  5
96
330
47
100
AcDbEntity
  8
1
  6
DOT_CENTER
 62
     2
100
AcDbLine
 10
187.0
 20
26.50000000000001
 30
0.0
 11
187.0
 21
20.50000000000001
 31
0.0
  0
LINE
  5
97
330
47
100
AcDbEntity
  8
1
  6
DOT_CENTER
 62
     2
100
AcDbLine
 10
184.0
 20
23.50000000000001
 30
0.0
 11
197.0
 21
23.50000000000001
 31
0.0
  0
LINE
  5
98
330
47
100
AcDbEntity
  8
1
  6
Continuous
 62
     7
100
AcDbLine
 10
196.0
 20
21.50000000000001
 30
0.0
 11
191.0
 21
22.30000000000001
 31
0.0
  0
LINE
  5
99
330
47
100
AcDbEntity
  8
1
  6
Continuous
 62
     7
100
AcDbLine
 10
196.0
 20
25.50000000000001
 30
0.0
 11
196.0
 21
21.50000000000001
 31
0.0
  0
LINE
  5
9A
330
47
100
AcDbEntity
  8
1
  6
Continuous
 62
     7
100
AcDbLine
 10
191.0
 20
24.70000000000001
 30
0.0
 11
196.0
 21
25.50000000000001
 31
0.0
  0
LINE
  5
9B
330
47
100
AcDbEntity
  8
1
  6
Continuous
 62
     7
100
AcDbLine
 10
191.0
 20
24.70000000000001
 30
0.0
 11
191.0
 21
22.30000000000001
 31
0.0
  0
LINE
  5
9C
330
47
100
AcDbEntity
  8
1
  6
Continuous
 62
     2
100
AcDbLine
 10
33.0
 20
27.0
 30
0.0
 11
33.0
 21
10.0
 31
0.0
  0
LINE
  5
9D
330
47
100
AcDbEntity
  8
1
  6
Continuous
 62
     2
100
AcDbLine
 10
25.0
 20
18.50000000000001
 30
0.0
 11
81.0
 21
18.50000000000001
 31
0.0
  0
LINE
  5
9E
330
47
100
AcDbEntity
  8
1
  6
Continuous
 62
     7
100
AcDbLine
 10
200.0
 20
287.0000000000003
 30
0.0
 11
105.0
 21
287.0000000000003
 31
0.0
  0
LINE
  5
9F
330
47
100
AcDbEntity
  8
1
  6
Continuous
 62
     7
100
AcDbLine
 10
200.0
 20
10.0
 30
0.0
 11
200.0
 21
148.5
 31
0.0
  0
LINE
  5
A0
330
47
100
AcDbEntity
  8
1
  6
Continuous
 62
     7
100
AcDbLine
 10
25.0
 20
10.0
 30
0.0
 11
105.0
 21
10.0
 31
0.0
  0
LINE
  5
A1
330
47
100
AcDbEntity
  8
1
  6
PHANTOM
 62
     4
100
AcDbLine
 10
0.0
 20
297.0
 30
0.0
 11
0.0
 21
0.0
 31
0.0
  0
LINE
  5
A2
330
47
100
AcDbEntity
  8
1
  6
PHANTOM
 62
     4
100
AcDbLine
 10
210.0
 20
297.0
 30
0.0
 11
0.0
 21
297.0
 31
0.0
  0
LINE
  5
A3
330
47
100
AcDbEntity
  8
1
  6
PHANTOM
 62
     4
100
AcDbLine
 10
210.0
 20
0.0
 30
0.0
 11
210.0
 21
297.0
 31
0.0
  0
LINE
  5
A4
330
47
100
AcDbEntity
  8
1
  6
PHANTOM
 62
     4
100
AcDbLine
 10
0.0
 20
0.0
 30
0.0
 11
210.0
 21
0.0
 31
0.0
  0
LINE
  5
A5
330
47
100
AcDbEntity
  8
1
  6
Continuous
 62
     7
100
AcDbLine
 10
25.0
 20
41.0
 30
0.0
 11
200.0
 21
41.0
 31
0.0
  0
LINE
  5
A6
330
47
100
AcDbEntity
  8
1
  6
Continuous
 62
     7
100
AcDbLine
 10
200.0
 20
27.00000000000001
 30
0.0
 11
25.0
 21
27.00000000000001
 31
0.0
  0
LINE
  5
A7
330
47
100
AcDbEntity
  8
1
  6
Continuous
 62
     2
100
AcDbLine
 10
33.0
 20
41.00000000000001
 30
0.0
 11
33.0
 21
27.0
 31
0.0
  0
LINE
  5
A8
330
47
100
AcDbEntity
  8
1
  6
Continuous
 62
     2
100
AcDbLine
 10
55.0
 20
287.0000000000003
 30
0.0
 11
55.0
 21
277.0000000000003
 31
0.0
  0
LINE
  5
A9
330
47
100
AcDbEntity
  8
1
  6
Continuous
 62
     2
100
AcDbLine
 10
40.0
 20
287.0000000000003
 30
0.0
 11
40.0
 21
277.0000000000003
 31
0.0
  0
LINE
  5
AA
330
47
100
AcDbEntity
  8
1
  6
Continuous
 62
     7
100
AcDbLine
 10
25.0
 20
10.0
 30
0.0
 11
25.0
 21
148.5
 31
0.0
  0
LINE
  5
AB
330
47
100
AcDbEntity
  8
1
  6
Continuous
 62
     2
100
AcDbLine
 10
55.0
 20
277.0000000000003
 30
0.0
 11
25.0
 21
277.0000000000003
 31
0.0
  0
LINE
  5
AC
330
47
100
AcDbEntity
  8
1
  6
Continuous
 62
     2
100
AcDbLine
 10
166.0
 20
27.00000000000001
 30
0.0
 11
166.0
 21
10.0
 31
0.0
  0
LINE
  5
AD
330
47
100
AcDbEntity
  8
1
  6
Continuous
 62
     2
100
AcDbLine
 10
132.0
 20
27.00000000000001
 30
0.0
 11
132.0
 21
9.99999999999999
 31
0.0
  0
LINE
  5
AE
330
47
100
AcDbEntity
  8
1
  6
Continuous
 62
     2
100
AcDbLine
 10
149.0
 20
27.00000000000001
 30
0.0
 11
149.0
 21
10.0
 31
0.0
  0
LINE
  5
AF
330
47
100
AcDbEntity
  8
1
  6
Continuous
 62
     2
100
AcDbLine
 10
115.0
 20
27.00000000000001
 30
0.0
 11
115.0
 21
9.99999999999999
 31
0.0
  0
LINE
  5
B0
330
47
100
AcDbEntity
  8
1
  6
Continuous
 62
     2
100
AcDbLine
 10
98.0
 20
27.00000000000001
 30
0.0
 11
98.0
 21
9.99999999999999
 31
0.0
  0
LINE
  5
B1
330
47
100
AcDbEntity
  8
1
  6
Continuous
 62
     2
100
AcDbLine
 10
166.0
 20
20.00000000000001
 30
0.0
 11
200.0
 21
20.00000000000001
 31
0.0
  0
LINE
  5
B2
330
47
100
AcDbEntity
  8
1
  6
Continuous
 62
     2
100
AcDbLine
 10
105.0
 20
287.0000000000003
 30
0.0
 11
105.0
 21
292.0000000000003
 31
0.0
  0
LINE
  5
B3
330
47
100
AcDbEntity
  8
1
  6
Continuous
 62
     7
100
AcDbLine
 10
105.0
 20
287.0000000000003
 30
0.0
 11
25.0
 21
287.0000000000003
 31
0.0
  0
LINE
  5
B4
330
47
100
AcDbEntity
  8
1
  6
Continuous
 62
     2
100
AcDbLine
 10
25.0
 20
148.5
 30
0.0
 11
20.0
 21
148.5
 31
0.0
  0
LINE
  5
B5
330
47
100
AcDbEntity
  8
1
  6
Continuous
 62
     7
100
AcDbLine
 10
25.0
 20
148.5
 30
0.0
 11
25.0
 21
287.0000000000003
 31
0.0
  0
LINE
  5
B6
330
47
100
AcDbEntity
  8
1
  6
Continuous
 62
     2
100
AcDbLine
 10
200.0
 20
148.5
 30
0.0
 11
205.0
 21
148.5
 31
0.0
  0
LINE
  5
B7
330
47
100
AcDbEntity
  8
1
  6
Continuous
 62
     7
100
AcDbLine
 10
200.0
 20
148.5
 30
0.0
 11
200.0
 21
287.0000000000003
 31
0.0
  0
LINE
  5
B8
330
47
100
AcDbEntity
  8
1
  6
Continuous
 62
     2
100
AcDbLine
 10
105.0
 20
10.0
 30
0.0
 11
105.0
 21
5.0
 31
0.0
  0
LINE
  5
B9
330
47
100
AcDbEntity
  8
1
  6
Continuous
 62
     7
100
AcDbLine
 10
105.0
 20
10.0
 30
0.0
 11
200.0
 21
10.0
 31
0.0
  0
CIRCLE
  5
BA
330
47
100
AcDbEntity
  8
1
  6
DOT_CENTER
 62
     7
100
AcDbCircle
 10
89.5
 20
18.0
 30
0.0
 40
0.1000000000000227
  0
CIRCLE
  5
BB
330
47
100
AcDbEntity
  8
1
  6
DOT_CENTER
 62
     7
100
AcDbCircle
 10
89.5
 20
16.0
 30
0.0
 40
0.1000000000000227
  0
CIRCLE
  5
BC
330
47
100
AcDbEntity
  8
1
  6
Continuous
 62
     7
100
AcDbCircle
 10
187.0
 20
23.50000000000001
 30
0.0
 40
2.0
  0
CIRCLE
  5
BD
330
47
100
AcDbEntity
  8
1
  6
Continuous
 62
     7
100
AcDbCircle
 10
187.0
 20
23.50000000000001
 30
0.0
 40
1.200000000000102
  0
CIRCLE
  5
BE
330
47
100
AcDbEntity
  8
1
  6
Continuous
 62
     7
100
AcDbCircle
 10
154.5
 20
12.5
 30
0.0
 40
0.3000000000000114
  0
CIRCLE
  5
BF
330
47
100
AcDbEntity
  8
1
  6
Continuous
 62
     7
100
AcDbCircle
 10
160.5
 20
12.5
 30
0.0
 40
0.3000000000000114
  0
CIRCLE
  5
C0
330
47
100
AcDbEntity
  8
1
  6
Continuous
 62
     7
100
AcDbCircle
 10
143.5
 20
12.5
 30
0.0
 40
0.3000000000000114
  0
CIRCLE
  5
C1
330
47
100
AcDbEntity
  8
1
  6
Continuous
 62
     7
100
AcDbCircle
 10
137.5
 20
12.5
 30
0.0
 40
0.3000000000000114
  0
CIRCLE
  5
C2
330
47
100
AcDbEntity
  8
1
  6
Continuous
 62
     7
100
AcDbCircle
 10
126.5
 20
12.5
 30
0.0
 40
0.2999999999999972
  0
CIRCLE
  5
C3
330
47
100
AcDbEntity
  8
1
  6
Continuous
 62
     7
100
AcDbCircle
 10
120.5
 20
12.5
 30
0.0
 40
0.2999999999999972
  0
CIRCLE
  5
C4
330
47
100
AcDbEntity
  8
1
  6
Continuous
 62
     7
100
AcDbCircle
 10
109.5
 20
12.5
 30
0.0
 40
0.2999999999999972
  0
CIRCLE
  5
C5
330
47
100
AcDbEntity
  8
1
  6
Continuous
 62
     7
100
AcDbCircle
 10
103.5
 20
12.5
 30
0.0
 40
0.2999999999999972
  0
MTEXT
  5
C7
330
47
100
AcDbEntity
  8
1
 62
   250
100
AcDbMText
 10
25.0
 20
5.0
 30
0.0
 40
3.5
 41
0.0
 71
     4
 72
     1
  1
備考欄の文字列 原点位置=4
  7
CONVERTER_11
 73
     1
 44
0.54545454545455
  0
MTEXT
  5
C8
330
47
100
AcDbEntity
  8
1
 62
     2
100
AcDbMText
 10
89.5
 20
24.00000000000001
 30
0.0
 40
3.5
 41
0.0
 71
     5
 72
     1
  1
尺度
  7
CONVERTER_11
 73
     1
 44
0.54545454545455
  0
MTEXT
  5
C9
330
47
100
AcDbEntity
  8
1
 62
     2
100
AcDbMText
 10
135.5
 20
25.00000000000001
 30
0.0
 40
3.0
 41
0.0
 71
     5
 72
     1
  1
製図
  7
CONVERTER_11
 73
     1
 44
0.59090909090909
  0
MTEXT
  5
CA
330
47
100
AcDbEntity
  8
1
 62
     2
100
AcDbMText
 10
152.5
 20
25.00000000000001
 30
0.0
 40
3.0
 41
0.0
 71
     5
 72
     1
  1
設計
  7
CONVERTER_11
 73
     1
 44
0.59090909090909
  0
MTEXT
  5
CB
330
47
100
AcDbEntity
  8
1
 62
     2
100
AcDbMText
 10
118.5
 20
25.00000000000001
 30
0.0
 40
3.0
 41
0.0
 71
     5
 72
     1
  1
検図
  7
CONVERTER_11
 73
     1
 44
0.59090909090909
  0
MTEXT
  5
CC
330
47
100
AcDbEntity
  8
1
 62
     2
100
AcDbMText
 10
175.0
 20
23.50000000000001
 30
0.0
 40
3.5
 41
0.0
 71
     5
 72
     1
  1
第三角法
  7
CONVERTER_11
 73
     1
 44
0.54545454545455
  0
MTEXT
  5
CD
330
47
100
AcDbEntity
  8
1
 62
     2
100
AcDbMText
 10
101.5
 20
25.00000000000001
 30
0.0
 40
3.0
 41
0.0
 71
     5
 72
     1
  1
承認
  7
CONVERTER_11
 73
     1
 44
0.59090909090909
  0
MTEXT
  5
CE
330
47
100
AcDbEntity
  8
1
 62
     2
100
AcDbMText
 10
29.0
 20
14.25
 30
0.0
 40
3.5
 41
0.0
 71
     5
 72
     1
  1
品番
  7
CONVERTER_11
 73
     1
 44
0.72727272727273
  0
MTEXT
  5
CF
330
47
100
AcDbEntity
  8
1
 62
     2
100
AcDbMText
 10
29.0
 20
22.75
 30
0.0
 40
3.5
 41
0.0
 71
     5
 72
     1
  1
品名
  7
CONVERTER_11
 73
     1
 44
0.72727272727273
  0
MTEXT
  5
D0
330
47
100
AcDbEntity
  8
1
 62
     2
100
AcDbMText
 10
29.0
 20
34.00000000000001
 30
0.0
 40
3.5
 41
0.0
 71
     5
 72
     1
  1
備考
  7
CONVERTER_11
 73
     1
 44
0.45454545454545
  0
MTEXT
  5
D1
330
47
100
AcDbEntity
  8
1
 62
     2
100
AcDbMText
 10
32.5
 20
282.0000000000003
 30
0.0
 40
5.0
 41
0.0
 71
     5
 72
     1
  1
図番
  7
CONVERTER_11
 73
     1
 44
0.45454545454545
  0
MTEXT
  5
D2
330
47
100
AcDbEntity
  8
1
 62
     7
100
AcDbMText
 10
171.5
 20
15.0
 30
0.0
 40
2.5
 41
0.0
 71
     5
 72
     1
  1
株式会社
  7
CONVERTER_11
 73
     1
 44
1.0
  0
MTEXT
  5
D3
330
47
100
AcDbEntity
  8
1
 62
     7
100
AcDbMText
 10
188.5
 20
15.0
 30
0.0
 40
3.0
 41
0.0
 71
     5
 72
     1
  1
三栄水栓製作所
  7
CONVERTER_11
 73
     1
 44
1.0
  0
ENDBLK
  5
49
330
47
100
AcDbEntity
  8
0
100
AcDbBlockEnd
  0
BLOCK
  5
4B
330
4A
100
AcDbEntity
  8
0
100
AcDbBlockBegin
  2
92-80
 70
     0
 10
217.9932155315835
 20
147.7863944400304
 30
0.0
  3
92-80
  1

  0
CIRCLE
  5
D4
330
4A
100
AcDbEntity
  8
1
  6
Continuous
 62
     7
100
AcDbCircle
 10
222.3057155315835
 20
152.0988944400306
 30
0.0
 40
4.312500000000085
  0
ENDBLK
  5
4C
330
4A
100
AcDbEntity
  8
0
100
AcDbBlockEnd
  0
BLOCK
  5
4E
330
4D
100
AcDbEntity
  8
0
100
AcDbBlockBegin
  2
32-1-16
 70
     0
 10
247.9240427236269
 20
547.9721018173395
 30
0.0
  3
32-1-16
  1

  0
LINE
  5
D5
330
4D
100
AcDbEntity
  8
1
  6
Continuous
 62
     7
100
AcDbLine
 10
266.0785003086819
 20
121.3913924802386
 30
0.0
 11
266.3903140845822
 21
121.3913924802386
 31
0.0
  0
LINE
  5
D6
330
4D
100
AcDbEntity
  8
1
  6
Continuous
 62
     7
100
AcDbLine
 10
267.5785003086819
 20
122.8913924802386
 30
0.0
 11
267.5785003086819
 21
137.1413924802386
 31
0.0
  0
LINE
  5
D7
330
4D
100
AcDbEntity
  8
1
  6
Continuous
 62
     7
100
AcDbLine
 10
266.0785003086819
 20
152.8913924802386
 30
0.0
 11
266.0785003086819
 21
121.3913924802386
 31
0.0
  0
LINE
  5
D8
330
4D
100
AcDbEntity
  8
1
  6
Continuous
 62
     7
100
AcDbLine
 10
267.5785003086819
 20
137.1413924802386
 30
0.0
 11
267.5785003086819
 21
151.3913924802386
 31
0.0
  0
LINE
  5
D9
330
4D
100
AcDbEntity
  8
1
  6
Continuous
 62
     7
100
AcDbLine
 10
266.3903140845822
 20
152.8913924802386
 30
0.0
 11
266.0785003086819
 21
152.8913924802386
 31
0.0
  0
LINE
  5
DA
330
4D
100
AcDbEntity
  8
1
  6
Continuous
 62
     7
100
AcDbLine
 10
282.5785003086819
 20
116.2979419238543
 30
0.0
 11
282.5785003086819
 21
157.9848430366227
 31
0.0
  0
LINE
  5
DB
330
4D
100
AcDbEntity
  8
1
  6
Continuous
 62
     7
100
AcDbLine
 10
63.5703092232585
 20
150.3388754488431
 30
0.0
 11
80.852887155963
 21
160.3169764705806
 31
0.0
  0
LINE
  5
DC
330
4D
100
AcDbEntity
  8
1
  6
Continuous
 62
     7
100
AcDbLine
 10
84.5703092232585
 20
160.3169764705806
 30
0.0
 11
101.852887155963
 21
150.3388754488432
 31
0.0
  0
LINE
  5
DD
330
4D
100
AcDbEntity
  8
1
  6
Continuous
 62
     7
100
AcDbLine
 10
103.7115981896109
 20
127.163291458501
 30
0.0
 11
103.7115981896107
 21
147.1194935019764
 31
0.0
  0
LINE
  5
DE
330
4D
100
AcDbEntity
  8
1
  6
Continuous
 62
     7
100
AcDbLine
 10
63.5703092232585
 20
123.9439095116343
 30
0.0
 11
71.32297425196273
 21
119.4679062703748
 31
0.0
  0
LINE
  5
DF
330
4D
100
AcDbEntity
  8
1
  6
Continuous
 62
     7
100
AcDbLine
 10
61.71159818961073
 20
147.1194935019762
 30
0.0
 11
61.71159818961073
 21
127.1632914585012
 31
0.0
  0
LINE
  5
E0
330
4D
100
AcDbEntity
  8
1
  6
Continuous
 62
     7
100
AcDbLine
 10
94.10022212725873
 20
119.4679062703747
 30
0.0
 11
101.852887155963
 21
123.9439095116342
 31
0.0
  0
LINE
  5
E1
330
4D
100
AcDbEntity
  8
1
  6
Continuous
 62
     7
100
AcDbLine
 10
68.05967440096424
 20
390.6413924802386
 30
0.0
 11
70.41159818961088
 21
390.6413924802386
 31
0.0
  0
LINE
  5
E2
330
4D
100
AcDbEntity
  8
1
  6
Continuous
 62
     7
100
AcDbLine
 10
65.46159818961073
 20
392.1413924802386
 30
0.0
 11
65.37456659701498
 21
392.1413924802386
 31
0.0
  0
LINE
  5
E3
330
4D
100
AcDbEntity
  8
1
  6
Continuous
 62
     7
100
AcDbLine
 10
70.41159818961088
 20
390.6413924802386
 30
0.0
 11
95.0115981896106
 21
390.6413924802386
 31
0.0
  0
LINE
  5
E4
330
4D
100
AcDbEntity
  8
1
  6
Continuous
 62
     7
100
AcDbLine
 10
95.90908115821514
 20
392.1413924802386
 30
0.0
 11
69.51411522100618
 21
392.1413924802386
 31
0.0
  0
LINE
  5
E5
330
4D
100
AcDbEntity
  8
1
  6
Continuous
 62
     7
100
AcDbLine
 10
61.71159818961073
 20
404.7837692484832
 30
0.0
 11
61.71159818961073
 21
394.0716266056693
 31
0.0
  0
LINE
  5
E6
330
4D
100
AcDbEntity
  8
1
  6
Continuous
 62
     7
100
AcDbLine
 10
103.7115981896107
 20
394.0716266056693
 30
0.0
 11
103.7115981896107
 21
400.4529175584873
 31
0.0
  0
LINE
  5
E7
330
4D
100
AcDbEntity
  8
1
  6
Continuous
 62
     7
100
AcDbLine
 10
100.0486297822065
 20
392.1413924802386
 30
0.0
 11
99.96159818961061
 21
392.1413924802386
 31
0.0
  0
LINE
  5
E8
330
4D
100
AcDbEntity
  8
1
  6
Continuous
 62
     7
100
AcDbLine
 10
95.0115981896106
 20
390.6413924802386
 30
0.0
 11
97.3635219782574
 21
390.6413924802386
 31
0.0
  0
LINE
  5
E9
330
4D
100
AcDbEntity
  8
1
  6
Continuous
 62
     7
100
AcDbLine
 10
92.2594137354684
 20
405.6413924802386
 30
0.0
 11
62.76159818961103
 21
405.6413924802386
 31
0.0
  0
ARC
  5
EA
330
4D
100
AcDbEntity
  8
1
  6
Continuous
 62
     7
100
AcDbCircle
 10
276.4526199833313
 20
122.8913924802386
 30
0.0
 40
9.000000000000087
100
AcDbArc
 50
196.6015495990209
 51
312.8947207603575
  0
ARC
  5
EB
330
4D
100
AcDbEntity
  8
1
  6
Continuous
 62
     7
100
AcDbCircle
 10
276.4526199833313
 20
151.3913924802386
 30
0.0
 40
8.99999999999994
100
AcDbArc
 50
47.10527923964156
 51
163.3984504009803
  0
ARC
  5
EC
330
4D
100
AcDbEntity
  8
1
  6
Continuous
 62
     7
100
AcDbCircle
 10
82.71159818961073
 20
137.1413924802385
 30
0.0
 40
23.25000000000013
100
AcDbArc
 50
85.4146209151611
 51
94.58537908483876
  0
ARC
  5
ED
330
4D
100
AcDbEntity
  8
1
  6
Continuous
 62
     7
100
AcDbCircle
 10
82.71159818961073
 20
137.1413924802385
 30
0.0
 40
23.25000000000003
100
AcDbArc
 50
30.00000000000028
 51
34.58537908483943
  0
ARC
  5
EE
330
4D
100
AcDbEntity
  8
1
  6
Continuous
 62
     7
100
AcDbCircle
 10
82.71159818961073
 20
137.1413924802385
 30
0.0
 40
23.25
100
AcDbArc
 50
325.4146209151614
 51
334.5853790848394
  0
ARC
  5
EF
330
4D
100
AcDbEntity
  8
1
  6
Continuous
 62
     7
100
AcDbCircle
 10
82.71159818961073
 20
137.1413924802385
 30
0.0
 40
23.24999999999999
100
AcDbArc
 50
210.0
 51
214.5853790848385
  0
ARC
  5
F0
330
4D
100
AcDbEntity
  8
1
  6
Continuous
 62
     7
100
AcDbCircle
 10
82.71159818961073
 20
137.1413924802385
 30
0.0
 40
23.25000000000014
100
AcDbArc
 50
145.4146209151607
 51
154.5853790848387
  0
ARC
  5
F1
330
4D
100
AcDbEntity
  8
1
  6
Continuous
 62
     7
100
AcDbCircle
 10
82.71159818961073
 20
137.1413924802385
 30
0.0
 40
23.24999999999988
100
AcDbArc
 50
205.4146209151604
 51
210.0
  0
ARC
  5
F2
330
4D
100
AcDbEntity
  8
1
  6
Continuous
 62
     7
100
AcDbCircle
 10
82.71159818961073
 20
137.1413924802385
 30
0.0
 40
23.25000000000012
100
AcDbArc
 50
25.41462091516178
 51
30.00000000000028
  0
ARC
  5
F3
330
4D
100
AcDbEntity
  8
1
  6
Continuous
 62
     7
100
AcDbCircle
 10
82.71159818961073
 20
137.1413924802385
 30
0.0
 40
15.74999999999999
100
AcDbArc
 50
316.3099599792353
 51
30.00000000000033
  0
ARC
  5
F4
330
4D
100
AcDbEntity
  8
0
  6
Continuous
 62
     7
100
AcDbCircle
 10
82.71159818961073
 20
137.1413924802385
 30
0.0
 40
12.60000000000004
100
AcDbArc
 50
334.670051021872
 51
29.99999999999998
  0
ARC
  5
F5
330
4D
100
AcDbEntity
  8
0
  6
Continuous
 62
     7
100
AcDbCircle
 10
82.71159818961073
 20
137.1413924802385
 30
0.0
 40
12.60000000000003
100
AcDbArc
 50
29.99999999999998
 51
205.3299489781284
  0
ARC
  5
F6
330
4D
100
AcDbEntity
  8
1
  6
Continuous
 62
     7
100
AcDbCircle
 10
82.71159818961073
 20
137.1413924802385
 30
0.0
 40
15.75000000000007
100
AcDbArc
 50
30.00000000000033
 51
223.6900400207647
  0
ARC
  5
F7
330
4D
100
AcDbEntity
  8
1
  6
Continuous
 62
     7
100
AcDbCircle
 10
66.96159818961073
 20
399.4276979270761
 30
0.0
 40
7.499999999999917
100
AcDbArc
 50
124.0557977425655
 51
134.4270040008058
  0
ARC
  5
F8
330
4D
100
AcDbEntity
  8
1
  6
Continuous
 62
     7
100
AcDbCircle
 10
66.96159818961073
 20
399.4276979270761
 30
0.0
 40
7.499999999999775
100
AcDbArc
 50
225.5729959991927
 51
254.6624423304473
  0
ARC
  5
F9
330
4D
100
AcDbEntity
  8
1
  6
Continuous
 62
     7
100
AcDbCircle
 10
98.46159818961061
 20
399.4276979270761
 30
0.0
 40
7.500000000000087
100
AcDbArc
 50
285.3375576695539
 51
314.4270040008078
  0
SPLINE
  5
FA
330
4D
100
AcDbEntity
  8
1
  6
Continuous
 62
     7
100
AcDbSpline
210
0.0
220
0.0
230
1.0
 70
    11
 71
     3
 72
    79
 73
    75
 74
    73
 42
0.000000001
 43
0.0000000001
 44
0.00000001
 40
0.0
 40
0.0
 40
0.0
 40
0.0
 40
0.4388274618111165
 40
0.8775961749153449
 40
1.324149059304371
 40
1.770601054188319
 40
2.228724842136469
 40
2.686729637753368
 40
3.158661727418175
 40
3.630477892466753
 40
4.116681629347807
 40
4.602786076279108
 40
5.10203652975473
 40
5.601210867529068
 40
6.110853596702468
 40
6.620445537126479
 40
7.136756877860015
 40
7.653042947647873
 40
8.171642466331448
 40
8.69024198500718
 40
9.206528054771434
 40
9.72283939546505
 40
10.23243133583231
 40
10.7420740649301
 40
11.24124840260989
 40
11.74049885596787
 40
12.22660330275922
 40
12.71280703947101
 40
13.18462320432224
 40
13.65655529375054
 40
14.11456008908996
 40
14.57268387669633
 40
15.01913587114202
 40
15.46568875486467
 40
15.90445746639565
 40
16.34328493678806
 40
16.77937673925405
 40
17.21546854171894
 40
17.65429601210801
 40
18.09306472363329
 40
18.53961760734813
 40
18.98606960178434
 40
19.44419338937934
 40
19.90219818470583
 40
20.3741302741197
 40
20.84594643895569
 40
21.3321501756511
 40
21.81825462242551
 40
22.31750507576571
 40
22.8166794134275
 40
23.32632214250665
 40
23.83591408285524
 40
24.35222542352974
 40
24.86851149327481
 40
25.38711101193121
 40
25.90571053059521
 40
26.4219966003634
 40
26.93830794107699
 40
27.4478998814809
 40
27.9575426106336
 40
28.45671694838707
 40
28.95596740184076
 40
29.44207184874924
 40
29.92827558560528
 40
30.40009175062591
 40
30.87202384025691
 40
31.33002863582974
 40
31.78815242371162
 40
32.2346044184756
 40
32.68115730258017
 40
33.11992601459037
 40
33.55875348568313
 40
33.99484528976298
 40
34.43093708368561
 40
34.43093708368561
 40
34.43093708368561
 40
34.43093708368561
 10
270.5225209236863
 20
118.5193657961893
 30
0.0
 10
270.5420730259048
 20
118.3742663163651
 30
0.0
 10
270.5811746067635
 20
118.084086781278
 30
0.0
 10
270.6974979983054
 20
117.6570916909995
 30
0.0
 10
270.8536579516451
 20
117.2409225494079
 30
0.0
 10
271.0545181614197
 20
116.8369432748281
 30
0.0
 10
271.2949567965695
 20
116.4508107054831
 30
0.0
 10
271.5761160769486
 20
116.0825156781415
 30
0.0
 10
271.8925776462643
 20
115.7378805993821
 30
0.0
 10
272.2453367635727
 20
115.4164409545774
 30
0.0
 10
272.6280036697274
 20
115.1234392785151
 30
0.0
 10
273.0414345626294
 20
114.8584571003618
 30
0.0
 10
273.4787114379909
 20
114.625673315097
 30
0.0
 10
273.9401464593507
 20
114.4249785059875
 30
0.0
 10
274.4189109662489
 20
114.2592604268946
 30
0.0
 10
274.9143258763319
 20
114.1287254432127
 30
0.0
 10
275.4202533615024
 20
114.0349991685524
 30
0.0
 10
275.9346751558828
 20
113.9783916005351
 30
0.0
 10
276.4526199736086
 20
113.9595028736528
 30
0.0
 10
276.9705647913476
 20
113.9783916002623
 30
0.0
 10
277.4849865857014
 20
114.0349991680085
 30
0.0
 10
277.9909140710016
 20
114.1287254423777
 30
0.0
 10
278.4863289806624
 20
114.2592604258199
 30
0.0
 10
278.9650934892006
 20
114.4249785044493
 30
0.0
 10
279.4265285046663
 20
114.6256733138742
 30
0.0
 10
279.8638054018787
 20
114.8584570965334
 30
0.0
 10
280.277236215455
 20
115.1234392826751
 30
0.0
 10
280.6599034133709
 20
115.4164409277933
 30
0.0
 10
281.0126614727733
 20
115.7378806831718
 30
0.0
 10
281.32912692792
 20
116.0825153540226
 30
0.0
 10
281.6102721135705
 20
116.4508118590643
 30
0.0
 10
281.8507625884744
 20
116.8369389913958
 30
0.0
 10
282.0514340102929
 20
117.2409380638467
 30
0.0
 10
282.208290785995
 20
117.6570341274953
 30
0.0
 10
282.3220565459802
 20
118.084297442577
 30
0.0
 10
282.3900798558722
 20
118.5176765153292
 30
0.0
 10
282.4132765048638
 20
118.9548590002265
 30
0.0
 10
282.3900798558926
 20
119.3920414851238
 30
0.0
 10
282.322056546021
 20
119.8254205578757
 30
0.0
 10
282.2082907860558
 20
120.2526838729569
 30
0.0
 10
282.0514340103738
 20
120.668779936605
 30
0.0
 10
281.8507625885749
 20
121.072779009055
 30
0.0
 10
281.6102721136907
 20
121.4589061413854
 30
0.0
 10
281.3291269280593
 20
121.8272026464257
 30
0.0
 10
281.0126614729317
 20
122.1718373172748
 30
0.0
 10
280.6599034135482
 20
122.4932770726512
 30
0.0
 10
280.2772362156507
 20
122.7862787177671
 30
0.0
 10
279.863805402093
 20
123.051260903906
 30
0.0
 10
279.4265285048987
 20
123.2840446865622
 30
0.0
 10
278.9650934894513
 20
123.4847394959835
 30
0.0
 10
278.4863289809311
 20
123.650457574609
 30
0.0
 10
277.9909140712887
 20
123.7809925580469
 30
0.0
 10
277.4849865860072
 20
123.8747188324115
 30
0.0
 10
276.9705647916715
 20
123.9313264001528
 30
0.0
 10
276.4526199739539
 20
123.950215126757
 30
0.0
 10
275.9346751562396
 20
123.9313263998701
 30
0.0
 10
275.4202533619095
 20
123.8747188318435
 30
0.0
 10
274.9143258766498
 20
123.7809925571914
 30
0.0
 10
274.4189109669956
 20
123.6504575734554
 30
0.0
 10
273.9401464586177
 20
123.4847394945404
 30
0.0
 10
273.4787114427804
 20
123.2840446847625
 30
0.0
 10
273.0414345471904
 20
123.0512609019482
 30
0.0
 10
272.6280037280054
 20
122.7862787148772
 30
0.0
 10
272.2453365510503
 20
122.4932770716024
 30
0.0
 10
271.8925784160265
 20
122.1718373079186
 30
0.0
 10
271.5761132390984
 20
121.8272026658533
 30
0.0
 10
271.2949670448087
 20
121.4589060546163
 30
0.0
 10
271.0544802802509
 20
121.0727793109537
 30
0.0
 10
270.8537953469631
 20
120.6687788210481
 30
0.0
 10
270.6969884434138
 20
120.2526879870414
 30
0.0
 10
270.5830396326167
 20
119.8254054744327
 30
0.0
 10
270.515695635546
 20
119.3920976413132
 30
0.0
 10
270.4899785687636
 20
118.9546508375948
 30
0.0
 10
270.5116734741785
 20
118.6644608090017
 30
0.0
 10
270.5225209236863
 20
118.5193657961893
 30
0.0
 11
270.5225209236863
 21
118.5193657961893
 31
0.0
 11
270.590676798761
 21
118.0858634021646
 31
0.0
 11
270.7032094353652
 21
117.6617709734733
 31
0.0
 11
270.8606823377493
 21
117.2439052496698
 31
0.0
 11
271.0589080302788
 21
116.8438728030977
 31
0.0
 11
271.3009564489552
 21
116.4549126921236
 31
0.0
 11
271.5785296354317
 21
116.0906030452109
 31
0.0
 11
271.8975436026797
 21
115.7428244002954
 31
0.0
 11
272.2460371835504
 21
115.4247635293586
 31
0.0
 11
272.6319116656242
 21
115.1289680632243
 31
0.0
 11
273.0410046339816
 21
114.8664028779317
 31
0.0
 11
273.481585247941
 21
114.6315843567886
 31
0.0
 11
273.9392476090859
 21
114.4322851278164
 31
0.0
 11
274.420793502829
 21
114.2654041414407
 31
0.0
 11
274.9135316807197
 21
114.1354309372834
 31
0.0
 11
275.42118355416
 21
114.0412663156019
 31
0.0
 11
275.9343662595551
 21
113.9847436054548
 31
0.0
 11
276.4526199833313
 21
113.9658084898968
 31
0.0
 11
276.9708737071076
 21
113.9847436054549
 31
0.0
 11
277.4840564125026
 21
114.0412663156021
 31
0.0
 11
277.9917082859429
 21
114.1354309372835
 31
0.0
 11
278.4844464638335
 21
114.2654041414408
 31
0.0
 11
278.9659923575767
 21
114.4322851278164
 31
0.0
 11
279.4236547187216
 21
114.6315843567886
 31
0.0
 11
279.864235332681
 21
114.8664028779317
 31
0.0
 11
280.2733283010385
 21
115.1289680632242
 31
0.0
 11
280.6592027831124
 21
115.4247635293585
 31
0.0
 11
281.007696363983
 21
115.7428244002954
 31
0.0
 11
281.326710331231
 21
116.0906030452109
 31
0.0
 11
281.6042835177074
 21
116.4549126921236
 31
0.0
 11
281.8463319363839
 21
116.8438728030977
 31
0.0
 11
282.0445576289133
 21
117.2439052496698
 31
0.0
 11
282.2020305312974
 21
117.6617709734731
 31
0.0
 11
282.3145631679016
 21
118.0858634021643
 31
0.0
 11
282.3827190429761
 21
118.5193657961891
 31
0.0
 11
282.4055604332266
 21
118.9548590007653
 31
0.0
 11
282.3827190429761
 21
119.3903522053417
 31
0.0
 11
282.3145631679016
 21
119.8238545993665
 31
0.0
 11
282.2020305312973
 21
120.2479470280578
 31
0.0
 11
282.0445576289133
 21
120.665812751861
 31
0.0
 11
281.8463319363838
 21
121.0658451984332
 31
0.0
 11
281.6042835177073
 21
121.4548053094074
 31
0.0
 11
281.3267103312309
 21
121.81911495632
 31
0.0
 11
281.007696363983
 21
122.1668936012355
 31
0.0
 11
280.6592027831124
 21
122.4849544721723
 31
0.0
 11
280.2733283010385
 21
122.7807499383066
 31
0.0
 11
279.864235332681
 21
123.0433151235992
 31
0.0
 11
279.4236547187217
 21
123.2781336447423
 31
0.0
 11
278.9659923575767
 21
123.4774328737145
 31
0.0
 11
278.4844464638335
 21
123.6443138600901
 31
0.0
 11
277.9917082859429
 21
123.7742870642474
 31
0.0
 11
277.4840564125026
 21
123.8684516859288
 31
0.0
 11
276.9708737071076
 21
123.924974396076
 31
0.0
 11
276.4526199833313
 21
123.9439095116341
 31
0.0
 11
275.9343662595551
 21
123.924974396076
 31
0.0
 11
275.4211835541599
 21
123.8684516859288
 31
0.0
 11
274.9135316807196
 21
123.7742870642474
 31
0.0
 11
274.420793502829
 21
123.6443138600902
 31
0.0
 11
273.9392476090859
 21
123.4774328737146
 31
0.0
 11
273.481585247941
 21
123.2781336447425
 31
0.0
 11
273.0410046339816
 21
123.0433151235993
 31
0.0
 11
272.6319116656242
 21
122.7807499383066
 31
0.0
 11
272.2460371835504
 21
122.4849544721723
 31
0.0
 11
271.8975436026798
 21
122.1668936012355
 31
0.0
 11
271.5785296354318
 21
121.81911495632
 31
0.0
 11
271.3009564489553
 21
121.4548053094074
 31
0.0
 11
271.0589080302788
 21
121.0658451984332
 31
0.0
 11
270.8606823377493
 21
120.665812751861
 31
0.0
 11
270.7032094353652
 21
120.2479470280578
 31
0.0
 11
270.5906767987611
 21
119.8238545993665
 31
0.0
 11
270.5225209236864
 21
119.3903522053416
 31
0.0
 11
270.4996795334358
 21
118.9548590007654
 31
0.0
 11
270.5225209236863
 21
118.5193657961893
 31
0.0
  0
SPLINE
  5
FB
330
4D
100
AcDbEntity
  8
1
  6
Continuous
 62
     7
100
AcDbSpline
210
0.0
220
0.0
230
1.0
 70
    11
 71
     3
 72
    79
 73
    75
 74
    73
 42
0.000000001
 43
0.0000000001
 44
0.00000001
 40
0.0
 40
0.0
 40
0.0
 40
0.0
 40
0.4388274618110604
 40
0.8775961749152612
 40
1.324149059304235
 40
1.770601054188297
 40
2.228724842136423
 40
2.6867296377533
 40
3.158661727418064
 40
3.630477892466642
 40
4.116681629347687
 40
4.602786076279041
 40
5.102036529754684
 40
5.601210867529017
 40
6.110853596702402
 40
6.620445537126431
 40
7.13675687785997
 40
7.653042947647818
 40
8.171642466331392
 40
8.690241985007125
 40
9.20652805477138
 40
9.722839395464991
 40
10.23243133583223
 40
10.74207406493001
 40
11.2412484026098
 40
11.74049885596781
 40
12.22660330275918
 40
12.71280703947098
 40
13.18462320432213
 40
13.65655529375045
 40
14.11456008908984
 40
14.57268387669629
 40
15.01913587114205
 40
15.46568875486475
 40
15.90445746639578
 40
16.34328493678808
 40
16.77937673925394
 40
17.21546854171891
 40
17.65429601210806
 40
18.09306472363346
 40
18.53961760734833
 40
18.98606960178454
 40
19.44419338937954
 40
19.90219818470595
 40
20.3741302741198
 40
20.84594643895574
 40
21.33215017565116
 40
21.8182546224256
 40
22.31750507576578
 40
22.81667941342755
 40
23.32632214250668
 40
23.83591408285528
 40
24.3522254235298
 40
24.86851149327487
 40
25.38711101193126
 40
25.90571053059527
 40
26.42199660036345
 40
26.93830794107705
 40
27.44789988148096
 40
27.95754261063365
 40
28.45671694838713
 40
28.95596740184081
 40
29.44207184874929
 40
29.92827558560535
 40
30.40009175062596
 40
30.87202384025691
 40
31.3300286358297
 40
31.78815242371154
 40
32.23460441847553
 40
32.68115730258011
 40
33.11992601459039
 40
33.55875348568328
 40
33.9948452897632
 40
34.43093708368587
 40
34.43093708368587
 40
34.43093708368587
 40
34.43093708368587
 10
270.5225209236863
 20
155.7634191642881
 30
0.0
 10
270.5420730259048
 20
155.9085186441122
 30
0.0
 10
270.5811746067635
 20
156.1986981791993
 30
0.0
 10
270.6974979983054
 20
156.6256932694778
 30
0.0
 10
270.8536579516451
 20
157.0418624110694
 30
0.0
 10
271.0545181614197
 20
157.4458416856492
 30
0.0
 10
271.2949567965695
 20
157.8319742549941
 30
0.0
 10
271.5761160769486
 20
158.2002692823357
 30
0.0
 10
271.8925776462644
 20
158.5449043610951
 30
0.0
 10
272.2453367635727
 20
158.8663440058998
 30
0.0
 10
272.6280036697274
 20
159.1593456819621
 30
0.0
 10
273.0414345626295
 20
159.4243278601155
 30
0.0
 10
273.4787114379908
 20
159.6571116453804
 30
0.0
 10
273.9401464593507
 20
159.8578064544899
 30
0.0
 10
274.418910966249
 20
160.0235245335826
 30
0.0
 10
274.9143258763319
 20
160.1540595172647
 30
0.0
 10
275.4202533615024
 20
160.247785791925
 30
0.0
 10
275.9346751558827
 20
160.3043933599422
 30
0.0
 10
276.4526199736086
 20
160.3232820868245
 30
0.0
 10
276.9705647913477
 20
160.3043933602149
 30
0.0
 10
277.4849865857014
 20
160.2477857924686
 30
0.0
 10
277.9909140710016
 20
160.1540595180995
 30
0.0
 10
278.4863289806624
 20
160.0235245346574
 30
0.0
 10
278.9650934892006
 20
159.8578064560281
 30
0.0
 10
279.4265285046663
 20
159.6571116466032
 30
0.0
 10
279.8638054018788
 20
159.4243278639439
 30
0.0
 10
280.2772362154549
 20
159.1593456778022
 30
0.0
 10
280.6599034133709
 20
158.8663440326839
 30
0.0
 10
281.0126614727733
 20
158.5449042773056
 30
0.0
 10
281.32912692792
 20
158.2002696064547
 30
0.0
 10
281.6102721135707
 20
157.831973101413
 30
0.0
 10
281.8507625884745
 20
157.4458459690815
 30
0.0
 10
282.0514340102928
 20
157.0418468966305
 30
0.0
 10
282.2082907859951
 20
156.6257508329818
 30
0.0
 10
282.3220565459802
 20
156.1984875179001
 30
0.0
 10
282.3900798558723
 20
155.7651084451481
 30
0.0
 10
282.4132765048639
 20
155.3279259602508
 30
0.0
 10
282.3900798558925
 20
154.8907434753535
 30
0.0
 10
282.322056546021
 20
154.4573644026015
 30
0.0
 10
282.2082907860558
 20
154.0301010875201
 30
0.0
 10
282.0514340103737
 20
153.6140050238721
 30
0.0
 10
281.8507625885748
 20
153.210005951422
 30
0.0
 10
281.6102721136908
 20
152.8238788190916
 30
0.0
 10
281.3291269280593
 20
152.4555823140514
 30
0.0
 10
281.0126614729317
 20
152.1109476432024
 30
0.0
 10
280.6599034135481
 20
151.789507887826
 30
0.0
 10
280.2772362156508
 20
151.4965062427101
 30
0.0
 10
279.863805402093
 20
151.2315240565711
 30
0.0
 10
279.4265285048987
 20
150.998740273915
 30
0.0
 10
278.9650934894513
 20
150.7980454644937
 30
0.0
 10
278.4863289809311
 20
150.6323273858683
 30
0.0
 10
277.9909140712887
 20
150.5017924024303
 30
0.0
 10
277.4849865860072
 20
150.4080661280657
 30
0.0
 10
276.9705647916714
 20
150.3514585603243
 30
0.0
 10
276.4526199739539
 20
150.3325698337202
 30
0.0
 10
275.9346751562396
 20
150.3514585606072
 30
0.0
 10
275.4202533619095
 20
150.4080661286337
 30
0.0
 10
274.9143258766499
 20
150.5017924032858
 30
0.0
 10
274.4189109669955
 20
150.6323273870218
 30
0.0
 10
273.9401464586177
 20
150.7980454659368
 30
0.0
 10
273.4787114427805
 20
150.9987402757147
 30
0.0
 10
273.0414345471904
 20
151.231524058529
 30
0.0
 10
272.6280037280054
 20
151.4965062455999
 30
0.0
 10
272.2453365510503
 20
151.7895078888749
 30
0.0
 10
271.8925784160266
 20
152.1109476525586
 30
0.0
 10
271.5761132390983
 20
152.4555822946237
 30
0.0
 10
271.2949670448087
 20
152.8238789058609
 30
0.0
 10
271.0544802802509
 20
153.2100056495233
 30
0.0
 10
270.853795346963
 20
153.6140061394289
 30
0.0
 10
270.6969884434138
 20
154.0300969734357
 30
0.0
 10
270.5830396326167
 20
154.4573794860444
 30
0.0
 10
270.515695635546
 20
154.890687319164
 30
0.0
 10
270.4899785687635
 20
155.3281341228825
 30
0.0
 10
270.5116734741786
 20
155.6183241514757
 30
0.0
 10
270.5225209236863
 20
155.7634191642881
 30
0.0
 11
270.5225209236863
 21
155.7634191642881
 31
0.0
 11
270.590676798761
 21
156.1969215583127
 31
0.0
 11
270.7032094353652
 21
156.621013987004
 31
0.0
 11
270.8606823377493
 21
157.0388797108074
 31
0.0
 11
271.0589080302788
 21
157.4389121573797
 31
0.0
 11
271.3009564489552
 21
157.8278722683537
 31
0.0
 11
271.5785296354317
 21
158.1921819152664
 31
0.0
 11
271.8975436026797
 21
158.5399605601818
 31
0.0
 11
272.2460371835504
 21
158.8580214311186
 31
0.0
 11
272.6319116656242
 21
159.1538168972529
 31
0.0
 11
273.0410046339816
 21
159.4163820825456
 31
0.0
 11
273.481585247941
 21
159.6512006036888
 31
0.0
 11
273.9392476090859
 21
159.850499832661
 31
0.0
 11
274.420793502829
 21
160.0173808190366
 31
0.0
 11
274.9135316807197
 21
160.147354023194
 31
0.0
 11
275.42118355416
 21
160.2415186448754
 31
0.0
 11
275.9343662595551
 21
160.2980413550225
 31
0.0
 11
276.4526199833313
 21
160.3169764705804
 31
0.0
 11
276.9708737071076
 21
160.2980413550223
 31
0.0
 11
277.4840564125026
 21
160.2415186448751
 31
0.0
 11
277.9917082859429
 21
160.1473540231938
 31
0.0
 11
278.4844464638335
 21
160.0173808190366
 31
0.0
 11
278.9659923575767
 21
159.850499832661
 31
0.0
 11
279.4236547187216
 21
159.6512006036888
 31
0.0
 11
279.864235332681
 21
159.4163820825456
 31
0.0
 11
280.2733283010385
 21
159.153816897253
 31
0.0
 11
280.6592027831124
 21
158.8580214311187
 31
0.0
 11
281.007696363983
 21
158.539960560182
 31
0.0
 11
281.326710331231
 21
158.1921819152664
 31
0.0
 11
281.6042835177074
 21
157.8278722683537
 31
0.0
 11
281.8463319363839
 21
157.4389121573796
 31
0.0
 11
282.0445576289133
 21
157.0388797108074
 31
0.0
 11
282.2020305312974
 21
156.6210139870041
 31
0.0
 11
282.3145631679016
 21
156.1969215583127
 31
0.0
 11
282.3827190429761
 21
155.7634191642881
 31
0.0
 11
282.4055604332266
 21
155.327925959712
 31
0.0
 11
282.3827190429761
 21
154.8924327551356
 31
0.0
 11
282.3145631679016
 21
154.4589303611106
 31
0.0
 11
282.2020305312973
 21
154.0348379324193
 31
0.0
 11
282.0445576289133
 21
153.616972208616
 31
0.0
 11
281.8463319363838
 21
153.2169397620438
 31
0.0
 11
281.6042835177073
 21
152.8279796510697
 31
0.0
 11
281.3267103312309
 21
152.4636700041571
 31
0.0
 11
281.007696363983
 21
152.1158913592417
 31
0.0
 11
280.6592027831124
 21
151.7978304883049
 31
0.0
 11
280.2733283010385
 21
151.5020350221706
 31
0.0
 11
279.864235332681
 21
151.239469836878
 31
0.0
 11
279.4236547187217
 21
151.0046513157348
 31
0.0
 11
278.9659923575767
 21
150.8053520867627
 31
0.0
 11
278.4844464638335
 21
150.6384711003872
 31
0.0
 11
277.9917082859429
 21
150.5084978962299
 31
0.0
 11
277.4840564125026
 21
150.4143332745484
 31
0.0
 11
276.9708737071076
 21
150.3578105644012
 31
0.0
 11
276.4526199833313
 21
150.338875448843
 31
0.0
 11
275.9343662595551
 21
150.3578105644012
 31
0.0
 11
275.4211835541599
 21
150.4143332745484
 31
0.0
 11
274.9135316807196
 21
150.5084978962298
 31
0.0
 11
274.420793502829
 21
150.638471100387
 31
0.0
 11
273.9392476090859
 21
150.8053520867625
 31
0.0
 11
273.481585247941
 21
151.0046513157347
 31
0.0
 11
273.0410046339816
 21
151.2394698368779
 31
0.0
 11
272.6319116656242
 21
151.5020350221705
 31
0.0
 11
272.2460371835504
 21
151.7978304883049
 31
0.0
 11
271.8975436026798
 21
152.1158913592417
 31
0.0
 11
271.5785296354318
 21
152.4636700041571
 31
0.0
 11
271.3009564489553
 21
152.8279796510697
 31
0.0
 11
271.0589080302788
 21
153.2169397620438
 31
0.0
 11
270.8606823377493
 21
153.616972208616
 31
0.0
 11
270.7032094353652
 21
154.0348379324193
 31
0.0
 11
270.5906767987611
 21
154.4589303611106
 31
0.0
 11
270.5225209236864
 21
154.8924327551356
 31
0.0
 11
270.4996795334358
 21
155.3279259597119
 31
0.0
 11
270.5225209236863
 21
155.7634191642881
 31
0.0
  0
SPLINE
  5
FC
330
4D
100
AcDbEntity
  8
1
  6
Continuous
 62
     7
100
AcDbSpline
210
0.0
220
0.0
230
1.0
 70
    11
 71
     3
 72
    79
 73
    75
 74
    73
 42
0.000000001
 43
0.0000000001
 44
0.00000001
 40
0.0
 40
0.0
 40
0.0
 40
0.0
 40
0.5372900547732306
 40
1.074046120312087
 40
1.648500452034676
 40
2.222235811845656
 40
2.849354134958305
 40
3.475864482689617
 40
4.162271281566055
 40
4.848249544191304
 40
5.592754487866126
 40
6.336978160847415
 40
7.132321242382959
 40
7.927487897112324
 40
8.762032337186369
 40
9.596474193798093
 40
10.45565186544868
 40
11.31478241723032
 40
12.18233967327286
 40
13.04989692931597
 40
13.90902748109896
 40
14.7682051527507
 40
15.60264700936158
 40
16.43719144943014
 40
17.23235810414633
 40
18.02770118565598
 40
18.77192485859494
 40
19.51642980220078
 40
20.202408064728
 40
20.88881486345715
 40
21.51532521099106
 40
22.14244353381359
 40
22.71617889321821
 40
23.29063322423906
 40
23.82738928769436
 40
24.36467934957828
 40
24.88823175204953
 40
25.41178415451972
 40
25.94907421640029
 40
26.48583027985042
 40
27.0602846108643
 40
27.63401997026126
 40
28.26113829307486
 40
28.88764864059976
 40
29.57405543931913
 40
30.26003370183707
 40
31.00453864543349
 40
31.74876231836365
 40
32.54410539986462
 40
33.339272054573
 40
34.17381649463418
 40
35.00825835123848
 40
35.86743602288442
 40
36.72656657466246
 40
37.59412383070169
 40
38.46168108674151
 40
39.32081163852166
 40
40.1799893101721
 40
41.01443116678506
 40
41.84897560686169
 40
42.64414226159472
 40
43.43948534313486
 40
44.18370901612087
 40
44.92821395979978
 40
45.61419222242683
 40
46.30059902129972
 40
46.9271093690175
 40
47.55422769209247
 40
48.12796305180969
 40
48.70241738324735
 40
49.23917344724253
 40
49.7764635099284
 40
50.3000159145727
 40
50.82356831022062
 40
50.82356831022062
 40
50.82356831022062
 40
50.82356831022062
 10
276.9747134966211
 20
147.0773350653874
 30
0.0
 10
277.1509849944989
 20
147.0438462009545
 30
0.0
 10
277.5033528035553
 20
146.976901764205
 30
0.0
 10
278.0180439943077
 20
146.7770487071523
 30
0.0
 10
278.5149341674359
 20
146.5128807104085
 30
0.0
 10
278.9997752190854
 20
146.1710921233283
 30
0.0
 10
279.4573200641872
 20
145.767306096615
 30
0.0
 10
279.8974951412347
 20
145.2922632583535
 30
0.0
 10
280.3043388570887
 20
144.7634807484683
 30
0.0
 10
280.6874842604148
 20
144.170101499524
 30
0.0
 10
281.033077664162
 20
143.532101541391
 30
0.0
 10
281.3484363157404
 20
142.8385218804657
 30
0.0
 10
281.6231568245449
 20
142.1097901144612
 30
0.0
 10
281.8617880356474
 20
141.3369805093855
 30
0.0
 10
282.0575465539563
 20
140.538787130904
 30
0.0
 10
282.2126791094896
 20
139.7100487158845
 30
0.0
 10
282.3234612060057
 20
138.8659579043132
 30
0.0
 10
282.3907712502307
 20
138.0062447481902
 30
0.0
 10
282.4129911111377
 20
137.141392490211
 30
0.0
 10
282.3907712502024
 20
136.276540232203
 30
0.0
 10
282.3234612059389
 20
135.4168270761679
 30
0.0
 10
282.2126791094531
 20
134.572736264284
 30
0.0
 10
282.0575465537462
 20
133.7439978504067
 30
0.0
 10
281.8617880360785
 20
132.9458044677675
 30
0.0
 10
281.6231568227917
 20
132.1729948775234
 30
0.0
 10
281.348436322104
 20
131.4442630579125
 30
0.0
 10
281.033077642442
 20
130.7506835848223
 30
0.0
 10
280.6874843398767
 20
130.1126829535112
 30
0.0
 10
280.3043385878149
 20
129.5193060295138
 30
0.0
 10
279.8974961150685
 20
128.9905152385352
 30
0.0
 10
279.4573167827775
 20
128.5155007550771
 30
0.0
 10
278.9997870796079
 20
128.1116138408554
 30
0.0
 10
278.5148940555121
 20
127.7701715490005
 30
0.0
 10
278.0181901938122
 20
127.5047621716574
 30
0.0
 10
277.5028466027056
 20
127.3092560352093
 30
0.0
 10
276.9810955855581
 20
127.1938123879825
 30
0.0
 10
276.4526199836955
 20
127.1528600819598
 30
0.0
 10
275.9241443818332
 20
127.1938123879725
 30
0.0
 10
275.4023933646869
 20
127.3092560351893
 30
0.0
 10
274.8870497735819
 20
127.5047621716278
 30
0.0
 10
274.3903459118845
 20
127.7701715489616
 30
0.0
 10
273.9054528877921
 20
128.1116138408078
 30
0.0
 10
273.4479231846269
 20
128.5155007550216
 30
0.0
 10
273.0077438523408
 20
128.9905152384719
 30
0.0
 10
272.6009013796006
 20
129.5193060294434
 30
0.0
 10
272.2177556275462
 20
130.1126829534343
 30
0.0
 10
271.872162324989
 20
130.7506835847395
 30
0.0
 10
271.5568036453367
 20
131.4442630578243
 30
0.0
 10
271.2820831446606
 20
132.1729948774306
 30
0.0
 10
271.0434519313866
 20
132.9458044676703
 30
0.0
 10
270.8476934137341
 20
133.7439978503058
 30
0.0
 10
270.6925608580445
 20
134.5727362641798
 30
0.0
 10
270.5817787615785
 20
135.4168270760601
 30
0.0
 10
270.5144687173378
 20
136.2765402320937
 30
0.0
 10
270.4922488564289
 20
137.1413924900928
 30
0.0
 10
270.5144687173616
 20
138.00624474809
 30
0.0
 10
270.5817787616327
 20
138.86595790413
 30
0.0
 10
270.6925608581346
 20
139.7100487159883
 30
0.0
 10
270.8476934138911
 20
140.5387871299428
 30
0.0
 10
271.0434519315741
 20
141.3369805122823
 30
0.0
 10
271.2820831451063
 20
142.10979010357
 30
0.0
 10
271.5568036453427
 20
142.8385219193717
 30
0.0
 10
271.8721623271596
 20
143.5321014057566
 30
0.0
 10
272.2177556227636
 20
144.1701019893428
 30
0.0
 10
272.6009013997984
 20
144.7634790780581
 30
0.0
 10
273.0077437847694
 20
145.2922692821794
 30
0.0
 10
273.4479234189752
 20
145.7672857748451
 30
0.0
 10
273.905452049604
 20
146.1711655399175
 30
0.0
 10
274.390348757095
 20
146.5126323707343
 30
0.0
 10
274.887039417091
 20
146.7779537815198
 30
0.0
 10
275.4024292391056
 20
146.9737679482161
 30
0.0
 10
275.9240115138152
 20
147.0880872600998
 30
0.0
 10
276.4531018454732
 20
147.1331355013585
 30
0.0
 10
276.8008429469581
 20
147.0959352074059
 30
0.0
 10
276.9747134966211
 20
147.0773350653874
 30
0.0
 11
276.9747134966211
 21
147.0773350653874
 31
0.0
 11
277.4992658908043
 21
146.9610363272334
 31
0.0
 11
278.0017838341784
 21
146.7724023208349
 31
0.0
 11
278.5088814953129
 21
146.502495409795
 31
0.0
 11
278.9789690341267
 21
146.1735729742736
 31
0.0
 11
279.4501016658648
 21
145.7596751194409
 31
0.0
 11
279.8769226299627
 21
145.3010477322778
 31
0.0
 11
280.2966879318463
 21
144.7579534635243
 31
0.0
 11
280.6696280547789
 21
144.1822088661334
 31
0.0
 11
281.0253608084083
 21
143.5281891270594
 31
0.0
 11
281.3340386267666
 21
142.8509986960496
 31
0.0
 11
281.6155158583925
 21
142.1071296313564
 31
0.0
 11
281.8505571643822
 21
141.3474944601938
 31
0.0
 11
282.0500096361074
 21
140.5371345808927
 31
0.0
 11
282.2037755446343
 21
139.7169826087301
 31
0.0
 11
282.3160023045256
 21
138.8651660640278
 31
0.0
 11
282.3830861906985
 21
138.0086585875744
 31
0.0
 11
282.4055604332267
 21
137.1413924802386
 31
0.0
 11
282.3830861906985
 21
136.2741263729029
 31
0.0
 11
282.3160023045257
 21
135.4176188964494
 31
0.0
 11
282.2037755446343
 21
134.5658023517471
 31
0.0
 11
282.0500096361073
 21
133.7456503795844
 31
0.0
 11
281.8505571643821
 21
132.9352905002833
 31
0.0
 11
281.6155158583923
 21
132.1756553291209
 31
0.0
 11
281.3340386267665
 21
131.4317862644276
 31
0.0
 11
281.0253608084083
 21
130.7545958334179
 31
0.0
 11
280.6696280547789
 21
130.1005760943438
 31
0.0
 11
280.2966879318463
 21
129.5248314969529
 31
0.0
 11
279.8769226299627
 21
128.9817372281994
 31
0.0
 11
279.4501016658648
 21
128.5231098410362
 31
0.0
 11
278.9789690341267
 21
128.1092119862035
 31
0.0
 11
278.5088814953129
 21
127.7802895506821
 31
0.0
 11
278.0017838341784
 21
127.5103826396422
 31
0.0
 11
277.4992658908043
 21
127.3217486332438
 31
0.0
 11
276.9747134966211
 21
127.2054498950897
 31
0.0
 11
276.4526199833313
 21
127.1663924802387
 31
0.0
 11
275.9305264700415
 21
127.2054498950898
 31
0.0
 11
275.4059740758584
 21
127.3217486332439
 31
0.0
 11
274.9034561324843
 21
127.5103826396423
 31
0.0
 11
274.3963584713498
 21
127.7802895506821
 31
0.0
 11
273.9262709325359
 21
128.1092119862035
 31
0.0
 11
273.4551383007978
 21
128.5231098410363
 31
0.0
 11
273.0283173366998
 21
128.9817372281994
 31
0.0
 11
272.6085520348162
 21
129.5248314969529
 31
0.0
 11
272.2356119118837
 21
130.1005760943438
 31
0.0
 11
271.8798791582543
 21
130.7545958334178
 31
0.0
 11
271.571201339896
 21
131.4317862644275
 31
0.0
 11
271.2897241082702
 21
132.1756553291208
 31
0.0
 11
271.0546828022805
 21
132.9352905002833
 31
0.0
 11
270.8552303305553
 21
133.7456503795844
 31
0.0
 11
270.7014644220284
 21
134.565802351747
 31
0.0
 11
270.589237662137
 21
135.4176188964495
 31
0.0
 11
270.5221537759643
 21
136.2741263729029
 31
0.0
 11
270.499679533436
 21
137.1413924802386
 31
0.0
 11
270.5221537759643
 21
138.0086585875744
 31
0.0
 11
270.589237662137
 21
138.8651660640278
 31
0.0
 11
270.7014644220284
 21
139.7169826087302
 31
0.0
 11
270.8552303305553
 21
140.5371345808928
 31
0.0
 11
271.0546828022805
 21
141.347494460194
 31
0.0
 11
271.2897241082702
 21
142.1071296313565
 31
0.0
 11
271.571201339896
 21
142.8509986960497
 31
0.0
 11
271.8798791582543
 21
143.5281891270594
 31
0.0
 11
272.2356119118837
 21
144.1822088661334
 31
0.0
 11
272.6085520348162
 21
144.7579534635242
 31
0.0
 11
273.0283173366998
 21
145.3010477322777
 31
0.0
 11
273.4551383007976
 21
145.7596751194409
 31
0.0
 11
273.9262709325358
 21
146.1735729742736
 31
0.0
 11
274.3963584713497
 21
146.502495409795
 31
0.0
 11
274.9034561324843
 21
146.7724023208349
 31
0.0
 11
275.4059740758584
 21
146.9610363272334
 31
0.0
 11
275.9305264700415
 21
147.0773350653874
 31
0.0
 11
276.4526199833313
 21
147.1163924802385
 31
0.0
 11
276.9747134966211
 21
147.0773350653874
 31
0.0
  0
SPLINE
  5
FD
330
4D
100
AcDbEntity
  8
1
  6
Continuous
 62
     7
100
AcDbSpline
210
0.0
220
0.0
230
1.0
 70
    11
 71
     3
 72
    79
 73
    75
 74
    73
 42
0.000000001
 43
0.0000000001
 44
0.00000001
 40
0.0
 40
0.0
 40
0.0
 40
0.0
 40
0.4815954072287562
 40
0.9627895080839092
 40
1.4742723016833
 40
1.985197611650734
 40
2.539333622555332
 40
3.092977755265938
 40
3.695452737286097
 40
4.297568196311746
 40
4.947677495877221
 40
5.597544583029626
 40
6.289513686137965
 40
6.981328096708404
 40
7.705670986891322
 40
8.429922881206105
 40
9.17464581460442
 40
9.919326678534855
 40
10.67098750039418
 40
11.42264832225324
 40
12.16732918618258
 40
12.91205211957789
 40
13.63630401388613
 40
14.36064690405631
 40
15.05246131460522
 40
15.74443041767774
 40
16.39429750477737
 40
17.04440680426285
 40
17.6465222631795
 40
18.24899724504196
 40
18.80264137754551
 40
19.35677738815273
 40
19.86770269770748
 40
20.37918549060282
 40
20.86037958940646
 40
21.3419750039526
 40
21.81258995361964
 40
22.28320490328541
 40
22.7648003178283
 40
23.24599441662665
 40
23.75747720951472
 40
24.26840251906126
 40
24.82253852965911
 40
25.37618266215299
 40
25.97865764400504
 40
26.5807731029117
 40
27.23088240238694
 40
27.88074948947704
 40
28.57271859254
 40
29.26453300308001
 40
29.9888758932416
 40
30.71312778754195
 40
31.45785072093003
 40
32.20253158485309
 40
32.95419240670679
 40
33.70585322856154
 40
34.45053409248851
 40
35.19525702588461
 40
35.91950892019829
 40
36.64385181038086
 40
37.33566622095184
 40
38.02763532406131
 40
38.6775024112149
 40
39.32761171078047
 40
39.92972716980375
 40
40.53220215181605
 40
41.08584628450858
 40
41.63998229537042
 40
42.15090760523823
 40
42.66239039854629
 40
43.14358449788455
 40
43.62517991322791
 40
44.09579486503748
 40
44.56640980762973
 40
44.56640980762973
 40
44.56640980762973
 40
44.56640980762973
 10
63.59447026997327
 20
399.8966215420197
 30
0.0
 10
63.6233901884174
 20
400.0548041615854
 30
0.0
 10
63.6812059181071
 20
400.3710375912017
 30
0.0
 10
63.85378676011771
 20
400.8335197670348
 30
0.0
 10
64.08236988205289
 20
401.2806245930751
 30
0.0
 10
64.37798562367644
 20
401.716606526425
 30
0.0
 10
64.7277654345978
 20
402.1287290477928
 30
0.0
 10
65.13901859838842
 20
402.5247483469165
 30
0.0
 10
65.59733303954154
 20
402.891301146802
 30
0.0
 10
66.1112596287999
 20
403.2360873804225
 30
0.0
 10
66.66430339680514
 20
403.5474186297059
 30
0.0
 10
67.26513553898033
 20
403.8312266374466
 30
0.0
 10
67.89679169717866
 20
404.0786580398638
 30
0.0
 10
68.56632906634238
 20
404.2934208695806
 30
0.0
 10
69.25812231975722
 20
404.4697007045348
 30
0.0
 10
69.97616478084599
 20
404.6093178283879
 30
0.0
 10
70.70766529595284
 20
404.7090658159845
 30
0.0
 10
71.45259173465143
 20
404.7696404402412
 30
0.0
 10
72.2020226001772
 20
404.7896544022975
 30
0.0
 10
72.95145346572671
 20
404.7696404402447
 30
0.0
 10
73.69637990435268
 20
404.7090658159839
 30
0.0
 10
74.42788041971704
 20
404.60931782844
 30
0.0
 10
75.14592287986294
 20
404.4697007044801
 30
0.0
 10
75.83771613671281
 20
404.2934208700684
 30
0.0
 10
76.50725349359587
 20
404.0786580386527
 30
0.0
 10
77.13890969625736
 20
403.8312266427407
 30
0.0
 10
77.73974168210084
 20
403.5474186126103
 30
0.0
 10
78.29278601176176
 20
403.2360874444174
 30
0.0
 10
78.80671065178356
 20
402.8913009301895
 30
0.0
 10
79.26503205857962
 20
402.5247491341239
 30
0.0
 10
79.67626122016833
 20
402.1287263773286
 30
0.0
 10
80.0261267663879
 20
401.7166162083573
 30
0.0
 10
80.32144608595218
 20
401.2805915698305
 30
0.0
 10
80.5510958359706
 20
400.8336404150562
 30
0.0
 10
80.71991790456708
 20
400.3706167081641
 30
0.0
 10
80.81974545208551
 20
399.901788407934
 30
0.0
 10
80.85495874674075
 20
399.4272173764265
 30
0.0
 10
80.81974545209654
 20
398.9526463449195
 30
0.0
 10
80.71991790458898
 20
398.4838180446902
 30
0.0
 10
80.551095836003
 20
398.0207943377998
 30
0.0
 10
80.3214460859945
 20
397.5738431830282
 30
0.0
 10
80.0261267664398
 20
397.1378185445049
 30
0.0
 10
79.67626122022936
 20
396.7257083755375
 30
0.0
 10
79.26503205864931
 20
396.3296856187474
 30
0.0
 10
78.80671065186127
 20
395.9631338226876
 30
0.0
 10
78.29278601184706
 20
395.6183473084668
 30
0.0
 10
77.73974168219294
 20
395.3070161402819
 30
0.0
 10
77.13890969635578
 20
395.023208110161
 30
0.0
 10
76.50725349370008
 20
394.7757767142597
 30
0.0
 10
75.83771613682232
 20
394.5610138828567
 30
0.0
 10
75.14592287997762
 20
394.3847340484592
 30
0.0
 10
74.42788041983648
 20
394.2451169245155
 30
0.0
 10
73.69637990447714
 20
394.1453689369897
 30
0.0
 10
72.9514534658544
 20
394.0847943127503
 30
0.0
 10
72.20202260031434
 20
394.0647803507222
 30
0.0
 10
71.45259173477608
 20
394.0847943128023
 30
0.0
 10
70.7076652961484
 20
394.1453689370995
 30
0.0
 10
69.97616478080784
 20
394.2451169246894
 30
0.0
 10
69.25812232060099
 20
394.3847340487235
 30
0.0
 10
68.56632906400266
 20
394.5610138831857
 30
0.0
 10
67.8967917062585
 20
394.7757767148385
 30
0.0
 10
67.26513550676654
 20
395.0232081104376
 30
0.0
 10
66.6643035098489
 20
395.3070161423434
 30
0.0
 10
66.11125922007272
 20
395.6183473050094
 30
0.0
 10
65.59733444176345
 20
395.9631338394271
 30
0.0
 10
65.13901352932804
 20
396.3296855645835
 30
0.0
 10
64.72778266452028
 20
396.725708567137
 30
0.0
 10
64.37792320250487
 20
397.1378178599803
 30
0.0
 10
64.08258284780436
 20
397.5738455295684
 30
0.0
 10
63.85300879004972
 20
398.0207857798732
 30
0.0
 10
63.68391998435327
 20
398.4838479165934
 30
0.0
 10
63.58506828141401
 20
398.9525356272719
 30
0.0
 10
63.54629063236473
 20
399.4276201776789
 30
0.0
 10
63.57841039394024
 20
399.7402877546696
 30
0.0
 10
63.59447026997326
 20
399.8966215420197
 30
0.0
 11
63.59447026997327
 21
399.8966215420197
 31
0.0
 11
63.69496398164329
 21
400.3676153395982
 31
0.0
 11
63.85839620604064
 21
400.82020529626
 31
0.0
 11
64.09153458310124
 21
401.2754647219597
 31
0.0
 11
64.37688753066894
 21
401.699278793646
 31
0.0
 11
64.73462879367678
 21
402.1224665854035
 31
0.0
 11
65.13263337294438
 21
402.5073226369579
 31
0.0
 11
65.6023766170787
 21
402.8845724062567
 31
0.0
 11
66.10191603837217
 21
403.2207321785362
 31
0.0
 11
66.66790954432035
 21
403.5405656548232
 31
0.0
 11
67.25525989203084
 21
403.818678581488
 31
0.0
 11
67.89926060197976
 21
404.0718274017956
 31
0.0
 11
68.55789329915484
 21
404.2835114797887
 31
0.0
 11
69.25966253856687
 21
404.4629343244031
 31
0.0
 11
69.97055990664177
 21
404.6013747032005
 31
0.0
 11
70.7084050991995
 21
404.7023535096336
 31
0.0
 11
71.45063402423565
 21
404.7627340689542
 31
0.0
 11
72.20202261013532
 21
404.7829623683867
 31
0.0
 11
72.953411196035
 21
404.7627340689539
 31
0.0
 11
73.69564012107126
 21
404.7023535096333
 31
0.0
 11
74.43348531362912
 21
404.6013747032002
 31
0.0
 11
75.14438268170412
 21
404.462934324403
 31
0.0
 11
75.84615192111619
 21
404.2835114797886
 31
0.0
 11
76.50478461829123
 21
404.0718274017954
 31
0.0
 11
77.14878532824004
 21
403.8186785814879
 31
0.0
 11
77.73613567595044
 21
403.5405656548232
 31
0.0
 11
78.30212918189864
 21
403.2207321785362
 31
0.0
 11
78.80166860319217
 21
402.8845724062568
 31
0.0
 11
79.27141184732656
 21
402.5073226369581
 31
0.0
 11
79.6694164265942
 21
402.1224665854036
 31
0.0
 11
80.027157689602
 21
401.6992787936461
 31
0.0
 11
80.31251063716965
 21
401.2754647219597
 31
0.0
 11
80.54564901423024
 21
400.8202052962599
 31
0.0
 11
80.70908123862758
 21
400.3676153395982
 31
0.0
 11
80.80957495029755
 21
399.8966215420197
 31
0.0
 11
80.84331157648758
 21
399.4272173760448
 31
0.0
 11
80.80957495029762
 21
398.9578132100701
 31
0.0
 11
80.70908123862769
 21
398.4868194124915
 31
0.0
 11
80.54564901423032
 21
398.0342294558297
 31
0.0
 11
80.31251063716967
 21
397.5789700301302
 31
0.0
 11
80.027157689602
 21
397.1551559584439
 31
0.0
 11
79.66941642659421
 21
396.7319681666863
 31
0.0
 11
79.27141184732663
 21
396.3471121151318
 31
0.0
 11
78.80166860319231
 21
395.969862345833
 31
0.0
 11
78.3021291818988
 21
395.6337025735536
 31
0.0
 11
77.73613567595055
 21
395.3138690972665
 31
0.0
 11
77.14878532824002
 21
395.0357561706018
 31
0.0
 11
76.50478461829113
 21
394.7826073502944
 31
0.0
 11
75.84615192111603
 21
394.5709232723013
 31
0.0
 11
75.144382681704
 21
394.3915004276869
 31
0.0
 11
74.43348531362918
 21
394.2530600488894
 31
0.0
 11
73.69564012107145
 21
394.1520812424561
 31
0.0
 11
72.95341119603515
 21
394.0917006831357
 31
0.0
 11
72.20202261013539
 21
394.0714723837032
 31
0.0
 11
71.45063402423581
 21
394.0917006831357
 31
0.0
 11
70.70840509919971
 21
394.1520812424562
 31
0.0
 11
69.97055990664185
 21
394.2530600488895
 31
0.0
 11
69.25966253856681
 21
394.3915004276869
 31
0.0
 11
68.55789329915484
 21
394.5709232723011
 31
0.0
 11
67.89926060197988
 21
394.7826073502942
 31
0.0
 11
67.25525989203092
 21
395.0357561706017
 31
0.0
 11
66.66790954432038
 21
395.3138690972665
 31
0.0
 11
66.10191603837217
 21
395.6337025735536
 31
0.0
 11
65.60237661707868
 21
395.969862345833
 31
0.0
 11
65.13263337294424
 21
396.3471121151318
 31
0.0
 11
64.73462879367653
 21
396.7319681666864
 31
0.0
 11
64.3768875306688
 21
397.1551559584439
 31
0.0
 11
64.09153458310121
 21
397.5789700301302
 31
0.0
 11
63.85839620604063
 21
398.0342294558297
 31
0.0
 11
63.69496398164329
 21
398.4868194124915
 31
0.0
 11
63.59447026997327
 21
398.9578132100701
 31
0.0
 11
63.56073364378321
 21
399.4272173760448
 31
0.0
 11
63.59447026997326
 21
399.8966215420197
 31
0.0
  0
SPLINE
  5
FE
330
4D
100
AcDbEntity
  8
1
  6
Continuous
 62
     7
100
AcDbSpline
210
0.0
220
0.0
230
1.0
 70
     8
 71
     3
 72
     9
 73
     5
 74
     3
 42
0.000000001
 43
0.0000000001
 44
0.00000001
 40
0.0
 40
0.0
 40
0.0
 40
0.0
 40
0.1406605826182908
 40
0.2807536377415563
 40
0.2807536377415563
 40
0.2807536377415563
 40
0.2807536377415563
 10
101.8287261092481
 20
399.8966215420197
 30
0.0
 10
101.8216049289597
 20
399.9429759197142
 30
0.0
 10
101.807391280726
 20
400.035497644273
 30
0.0
 10
101.7877565013546
 20
400.1270222435799
 30
0.0
 10
101.7779589471697
 20
400.1726920354481
 30
0.0
 11
101.8287261092481
 21
399.8966215420197
 31
0.0
 11
101.8060017909039
 21
400.0354343833333
 31
0.0
 11
101.7779589471697
 21
400.1726920354481
 31
0.0
  0
SPLINE
  5
FF
330
4D
100
AcDbEntity
  8
1
  6
Continuous
 62
     7
100
AcDbSpline
210
0.0
220
0.0
230
1.0
 70
     8
 71
     3
 72
    63
 73
    59
 74
    57
 42
0.000000001
 43
0.0000000001
 44
0.00000001
 40
0.0
 40
0.0
 40
0.0
 40
0.0
 40
0.324277667738893
 40
0.6487857886024794
 40
1.393466652363539
 40
2.13818958569219
 40
2.862441479950396
 40
3.586784370074113
 40
4.278598780577133
 40
4.970567883600913
 40
5.620434970650213
 40
6.270544270079895
 40
6.872659728938291
 40
7.475134710734575
 40
8.028778843168437
 40
8.582914853695204
 40
9.093840163164424
 40
9.60532295596111
 40
10.0865170546598
 40
10.56811246908868
 40
11.03872741863256
 40
11.50934236816917
 40
11.99093778257959
 40
12.47213188124958
 40
12.98361467401051
 40
13.49453998344284
 40
14.04867599393319
 40
14.6023201263373
 40
15.20479510811117
 40
15.80691056695872
 40
16.45701986638962
 40
17.10688695345325
 40
17.79885605650506
 40
18.4906704670484
 40
19.21501335722609
 40
19.93926525155206
 40
20.68398818497316
 40
21.42866904893258
 40
22.18032987082338
 40
22.9319906927127
 40
23.67667155666891
 40
24.42139449008687
 40
25.14564638441324
 40
25.86998927459871
 40
26.56180368516259
 40
27.25377278825473
 40
27.90363987538279
 40
28.55374917491396
 40
29.15586463389815
 40
29.75833961586536
 40
30.31198374851305
 40
30.86611975932976
 40
31.37704506916054
 40
31.88852786244479
 40
32.36972196178997
 40
32.8513173771976
 40
33.321932328499
 40
33.79254726845368
 40
33.79254726845368
 40
33.79254726845368
 40
33.79254726845368
 10
93.11822358565875
 20
404.7825826300569
 30
0.0
 10
93.01013662538752
 20
404.7810544130535
 30
0.0
 10
92.79388589121616
 20
404.7779968880272
 30
0.0
 10
92.32977946706619
 20
404.7579029498454
 30
0.0
 10
91.72680891749266
 20
404.709133377258
 30
0.0
 10
90.99531792288207
 20
404.6093002764197
 30
0.0
 10
90.27727297864085
 20
404.4697053602333
 30
0.0
 10
89.58548037514484
 20
404.2934196851711
 30
0.0
 10
88.91594285074224
 20
404.0786583515176
 30
0.0
 10
88.2842866917263
 20
403.8312265655422
 30
0.0
 10
87.6834546948655
 20
403.5474186339794
 30
0.0
 10
87.1304103680388
 20
403.2360874404849
 30
0.0
 10
86.61648572729288
 20
402.8913009327184
 30
0.0
 10
86.15816432065763
 20
402.5247491351576
 30
0.0
 10
85.74693515899688
 20
402.1287263788961
 30
0.0
 10
85.39706961275549
 20
401.7166162099535
 30
0.0
 10
85.10175029314806
 20
401.2805915715864
 30
0.0
 10
84.87210054308292
 20
400.8336404169384
 30
0.0
 10
84.70327847443194
 20
400.3706167101818
 30
0.0
 10
84.60345092685216
 20
399.9017884100817
 30
0.0
 10
84.56823763213009
 20
399.4272173787028
 30
0.0
 10
84.60345092670295
 20
398.9526463473189
 30
0.0
 10
84.70327847413638
 20
398.4838180472064
 30
0.0
 10
84.87210054264648
 20
398.0207943404258
 30
0.0
 10
85.1017502925798
 20
397.5738431857539
 30
0.0
 10
85.39706961206056
 20
397.1378185473207
 30
0.0
 10
85.74693515820157
 20
396.7257083784307
 30
0.0
 10
86.15816431971682
 20
396.3296856217055
 30
0.0
 10
86.6164857264481
 20
395.9631338256963
 30
0.0
 10
87.13041036641341
 20
395.6183473115113
 30
0.0
 10
87.68345469602917
 20
395.3070161433469
 30
0.0
 10
88.2842866818383
 20
395.0232081132311
 30
0.0
 10
88.91594288447737
 20
394.7757767173192
 30
0.0
 10
89.5854802413496
 20
394.5610138858909
 30
0.0
 10
90.27727349819932
 20
394.3847340514528
 30
0.0
 10
90.99531595835528
 20
394.2451169274559
 30
0.0
 10
91.72681647373737
 20
394.1453689398644
 30
0.0
 10
92.47174291238949
 20
394.0847943155493
 30
0.0
 10
93.22117377796312
 20
394.0647803534378
 30
0.0
 10
93.97060464353733
 20
394.0847943154288
 30
0.0
 10
94.71553108220107
 20
394.1453689396344
 30
0.0
 10
95.44703159757552
 20
394.2451169271335
 30
0.0
 10
96.16507405781236
 20
394.3847340510791
 30
0.0
 10
96.85686731443445
 20
394.56101388546
 30
0.0
 10
97.52640467219511
 20
394.7757767170386
 30
0.0
 10
98.1580608716939
 20
395.0232081125752
 30
0.0
 10
98.75889286860762
 20
395.3070161444301
 30
0.0
 10
99.3119371583669
 20
395.6183473070599
 30
0.0
 10
99.8258619366437
 20
395.9631338414555
 30
0.0
 10
100.2841828490302
 20
396.3296855666071
 30
0.0
 10
100.6954137137613
 20
396.7257085691736
 30
0.0
 10
101.045273175688
 20
397.1378178620481
 30
0.0
 10
101.3406135302053
 20
397.5738455316944
 30
0.0
 10
101.5701875879008
 20
398.0207857820852
 30
0.0
 10
101.7392763927919
 20
398.4838479189436
 30
0.0
 10
101.8381280968465
 20
398.9525356296529
 30
0.0
 10
101.8769057379558
 20
399.4276201791207
 30
0.0
 10
101.8447859851911
 20
399.7402877555458
 30
0.0
 10
101.8287261092481
 20
399.8966215420197
 30
0.0
 11
93.11822358565875
 21
404.7825826300569
 31
0.0
 11
92.7940043844226
 21
404.7764245865402
 31
0.0
 11
92.46978518318642
 21
404.762734068954
 31
0.0
 11
91.72755625815012
 21
404.7023535096333
 31
0.0
 11
90.98971106559222
 21
404.6013747032002
 31
0.0
 11
90.27881369751721
 21
404.462934324403
 31
0.0
 11
89.57704445810514
 21
404.2835114797886
 31
0.0
 11
88.9184117609301
 21
404.0718274017954
 31
0.0
 11
88.27441105098127
 21
403.8186785814879
 31
0.0
 11
87.68706070327089
 21
403.5405656548232
 31
0.0
 11
87.12106719732276
 21
403.2207321785362
 31
0.0
 11
86.62152777602927
 21
402.8845724062568
 31
0.0
 11
86.15178453189489
 21
402.5073226369581
 31
0.0
 11
85.75377995262724
 21
402.1224665854036
 31
0.0
 11
85.39603868961939
 21
401.6992787936461
 31
0.0
 11
85.11068574205169
 21
401.2754647219597
 31
0.0
 11
84.87754736499109
 21
400.8202052962599
 31
0.0
 11
84.71411514059376
 21
400.3676153395982
 31
0.0
 11
84.6136214289238
 21
399.8966215420197
 31
0.0
 11
84.57988480273376
 21
399.4272173760448
 31
0.0
 11
84.6136214289238
 21
398.9578132100701
 31
0.0
 11
84.71411514059378
 21
398.4868194124915
 31
0.0
 11
84.8775473649911
 21
398.0342294558297
 31
0.0
 11
85.11068574205167
 21
397.5789700301302
 31
0.0
 11
85.39603868961932
 21
397.1551559584439
 31
0.0
 11
85.75377995262708
 21
396.7319681666863
 31
0.0
 11
86.15178453189468
 21
396.3471121151318
 31
0.0
 11
86.62152777602901
 21
395.969862345833
 31
0.0
 11
87.1210671973225
 21
395.6337025735536
 31
0.0
 11
87.68706070327076
 21
395.3138690972665
 31
0.0
 11
88.27441105098129
 21
395.0357561706018
 31
0.0
 11
88.91841176093021
 21
394.7826073502944
 31
0.0
 11
89.57704445810528
 21
394.5709232723013
 31
0.0
 11
90.27881369751732
 21
394.3915004276869
 31
0.0
 11
90.98971106559222
 21
394.2530600488894
 31
0.0
 11
91.72755625814997
 21
394.1520812424561
 31
0.0
 11
92.46978518318625
 21
394.0917006831357
 31
0.0
 11
93.22117376908596
 21
394.0714723837032
 31
0.0
 11
93.97256235498557
 21
394.0917006831357
 31
0.0
 11
94.71479128002171
 21
394.1520812424562
 31
0.0
 11
95.45263647257953
 21
394.2530600488895
 31
0.0
 11
96.1635338406545
 21
394.3915004276869
 31
0.0
 11
96.86530308006647
 21
394.5709232723011
 31
0.0
 11
97.52393577724146
 21
394.7826073502942
 31
0.0
 11
98.16793648719042
 21
395.0357561706017
 31
0.0
 11
98.75528683490094
 21
395.3138690972665
 31
0.0
 11
99.32128034084917
 21
395.6337025735536
 31
0.0
 11
99.82081976214265
 21
395.969862345833
 31
0.0
 11
100.2905630062771
 21
396.3471121151318
 31
0.0
 11
100.6885675855448
 21
396.7319681666864
 31
0.0
 11
101.0463088485525
 21
397.1551559584439
 31
0.0
 11
101.3316617961202
 21
397.5789700301302
 31
0.0
 11
101.5648001731807
 21
398.0342294558297
 31
0.0
 11
101.728232397578
 21
398.4868194124915
 31
0.0
 11
101.8287261092481
 21
398.9578132100701
 31
0.0
 11
101.8624627354381
 21
399.4272173760448
 31
0.0
 11
101.8287261092481
 21
399.8966215420197
 31
0.0
  0
ARC
  5
100
330
4D
100
AcDbEntity
  8
1
  6
Continuous
 62
     7
100
AcDbCircle
 10
266.3903140845822
 20
119.8913924802386
 30
0.0
 40
1.499999999999973
100
AcDbArc
 50
16.60154959901553
 51
90.0
  0
ARC
  5
101
330
4D
100
AcDbEntity
  8
1
  6
Continuous
 62
     7
100
AcDbCircle
 10
266.3903140845822
 20
154.3913924802386
 30
0.0
 40
1.5
100
AcDbArc
 50
270.0
 51
343.3984504009772
  0
ARC
  5
102
330
4D
100
AcDbEntity
  8
1
  6
Continuous
 62
     7
100
AcDbCircle
 10
68.05967440096424
 20
392.1413924802386
 30
0.0
 40
1.500000000000199
100
AcDbArc
 50
222.9414028648769
 51
270.0
  0
ARC
  5
103
330
4D
100
AcDbEntity
  8
1
  6
Continuous
 62
     7
100
AcDbCircle
 10
65.37456659701498
 20
393.6413924802386
 30
0.0
 40
1.500000000000183
100
AcDbArc
 50
254.662442330451
 51
270.0
  0
ARC
  5
104
330
4D
100
AcDbEntity
  8
1
  6
Continuous
 62
     7
100
AcDbCircle
 10
68.05967440096424
 20
392.1413924802386
 30
0.0
 40
1.500000000000074
100
AcDbArc
 50
209.9999999999984
 51
222.9414028648769
  0
ARC
  5
105
330
4D
100
AcDbEntity
  8
1
  6
Continuous
 62
     7
100
AcDbCircle
 10
65.46159818961073
 20
390.6413924802386
 30
0.0
 40
1.500000000000099
100
AcDbArc
 50
29.99999999999783
 51
90.0
  0
ARC
  5
106
330
4D
100
AcDbEntity
  8
1
  6
Continuous
 62
     7
100
AcDbCircle
 10
99.96159818961061
 20
390.6413924802386
 30
0.0
 40
1.5
100
AcDbArc
 50
90.0
 51
149.9999999999995
  0
ARC
  5
107
330
4D
100
AcDbEntity
  8
1
  6
Continuous
 62
     7
100
AcDbCircle
 10
97.3635219782574
 20
392.1413924802386
 30
0.0
 40
1.499999999999981
100
AcDbArc
 50
317.0585971351153
 51
329.9999999999987
  0
ARC
  5
108
330
4D
100
AcDbEntity
  8
1
  6
Continuous
 62
     7
100
AcDbCircle
 10
100.0486297822065
 20
393.6413924802386
 30
0.0
 40
1.5
100
AcDbArc
 50
270.0
 51
285.3375576695495
  0
ARC
  5
109
330
4D
100
AcDbEntity
  8
1
  6
Continuous
 62
     7
100
AcDbCircle
 10
97.3635219782574
 20
392.1413924802386
 30
0.0
 40
1.5
100
AcDbArc
 50
270.0
 51
317.0585971351153
  0
ENDBLK
  5
4F
330
4D
100
AcDbEntity
  8
0
100
AcDbBlockEnd
  0
BLOCK
  5
51
330
50
100
AcDbEntity
  8
0
100
AcDbBlockBegin
  2
75-2
 70
     0
 10
-291.2592515503154
 20
-413.9249381873833
 30
0.0
  3
75-2
  1

  0
LINE
  5
10A
330
50
100
AcDbEntity
  8
1
  6
Continuous
 62
     7
100
AcDbLine
 10
85.0101365494743
 20
81.85539716164314
 30
0.0
 11
84.06182692809568
 21
80.90708754026467
 31
0.0
  0
LINE
  5
10B
330
50
100
AcDbEntity
  8
1
  6
Continuous
 62
     7
100
AcDbLine
 10
84.06182692809568
 20
81.92050496825385
 30
0.0
 11
84.06182692809568
 21
80.90708754026467
 31
0.0
  0
LINE
  5
10C
330
50
100
AcDbEntity
  8
1
  6
Continuous
 62
     7
100
AcDbLine
 10
81.36182688123316
 20
81.92052806279831
 30
0.0
 11
81.36182688123316
 21
80.9066301101573
 31
0.0
  0
LINE
  5
10D
330
50
100
AcDbEntity
  8
1
  6
Continuous
 62
     7
100
AcDbLine
 10
78.3487230283608
 20
79.25106648413214
 30
0.0
 11
78.3487230283608
 21
75.76351481620469
 31
0.0
  0
LINE
  5
10E
330
50
100
AcDbEntity
  8
1
  6
Continuous
 62
     7
100
AcDbLine
 10
87.07447335086067
 20
79.31574074470902
 30
0.0
 11
87.07447335086067
 21
75.76351481620469
 31
0.0
  0
LINE
  5
10F
330
50
100
AcDbEntity
  8
1
  6
Continuous
 62
     7
100
AcDbLine
 10
84.06182692809568
 20
74.15677319982295
 30
0.0
 11
84.06182692809568
 21
80.57688882595959
 31
0.0
  0
LINE
  5
110
330
50
100
AcDbEntity
  8
1
  6
Continuous
 62
     7
100
AcDbLine
 10
87.4771927072776
 20
81.39476702914146
 30
0.0
 11
87.57581135830182
 21
81.49338568016577
 31
0.0
  0
LINE
  5
111
330
50
100
AcDbEntity
  8
1
  6
Continuous
 62
     7
100
AcDbLine
 10
75.96529150213965
 20
77.52240065027493
 30
0.0
 11
73.39682601213795
 21
77.52240065027493
 31
0.0
  0
LINE
  5
112
330
50
100
AcDbEntity
  8
1
  6
Continuous
 62
     7
100
AcDbLine
 10
87.4771927072776
 20
74.79126428411284
 30
0.0
 11
87.672406551807
 21
74.59605043958345
 31
0.0
  0
LINE
  5
113
330
50
100
AcDbEntity
  8
1
  6
Continuous
 62
     7
100
AcDbLine
 10
92.02741390135827
 20
77.52240065027493
 30
0.0
 11
89.45790487708184
 21
77.52240065027493
 31
0.0
  0
LINE
  5
114
330
50
100
AcDbEntity
  8
1
  6
Continuous
 62
     7
100
AcDbLine
 10
89.45790487708184
 20
78.66363066297946
 30
0.0
 11
92.02741390135827
 21
78.66363066297946
 31
0.0
  0
LINE
  5
115
330
50
100
AcDbEntity
  8
1
  6
Continuous
 62
     7
100
AcDbLine
 10
77.94600367194404
 20
81.39476702914146
 30
0.0
 11
77.84738502092398
 21
81.49338568016148
 31
0.0
  0
LINE
  5
116
330
50
100
AcDbEntity
  8
1
  6
Continuous
 62
     7
100
AcDbLine
 10
81.36182688123316
 20
80.9066301101573
 30
0.0
 11
80.4130598297472
 21
81.85539716164314
 31
0.0
  0
LINE
  5
117
330
50
100
AcDbEntity
  8
1
  6
Continuous
 62
     7
100
AcDbLine
 10
73.39578247786318
 20
78.66363066297946
 30
0.0
 11
75.96529150213965
 21
78.66363066297946
 31
0.0
  0
LINE
  5
118
330
50
100
AcDbEntity
  8
1
  6
Continuous
 62
     7
100
AcDbLine
 10
84.06182692809568
 20
75.27894377298963
 30
0.0
 11
85.13527476963014
 21
74.20549593145526
 31
0.0
  0
LINE
  5
119
330
50
100
AcDbEntity
  8
1
  6
Continuous
 62
     7
100
AcDbLine
 10
81.36182688123316
 20
74.15677319982295
 30
0.0
 11
81.36182688123316
 21
80.57688882595959
 31
0.0
  0
LINE
  5
11A
330
50
100
AcDbEntity
  8
1
  6
Continuous
 62
     7
100
AcDbLine
 10
80.28792160959134
 20
74.20549593145526
 30
0.0
 11
81.36182688123316
 21
75.279401203097
 31
0.0
  0
LINE
  5
11B
330
50
100
AcDbEntity
  8
1
  6
Continuous
 62
     7
100
AcDbLine
 10
77.7507898274145
 20
74.59605043958345
 30
0.0
 11
77.94600367194404
 21
74.79126428411284
 31
0.0
  0
ARC
  5
11C
330
50
100
AcDbEntity
  8
1
  6
Continuous
 62
     7
100
AcDbCircle
 10
89.45790487708184
 20
74.64390871323624
 30
0.0
 40
2.878491937038689
100
AcDbArc
 50
90.0
 51
134.6296991517858
  0
ARC
  5
11D
330
50
100
AcDbEntity
  8
1
  6
Continuous
 62
     7
100
AcDbCircle
 10
88.44944323936934
 20
75.76351481620469
 30
0.0
 40
1.374969888508811
100
AcDbArc
 50
137.5005082888372
 51
225.0000000000029
  0
ARC
  5
11E
330
50
100
AcDbEntity
  8
1
  6
Continuous
 62
     7
100
AcDbCircle
 10
76.97375313985214
 20
75.76351481620469
 30
0.0
 40
1.374969888508791
100
AcDbArc
 50
315.0000000000017
 51
42.49949171116313
  0
ARC
  5
11F
330
50
100
AcDbEntity
  8
1
  6
Continuous
 62
     7
100
AcDbCircle
 10
75.96529150213965
 20
74.64390871323624
 30
0.0
 40
2.878491937038663
100
AcDbArc
 50
45.37030084821457
 51
90.0
  0
ARC
  5
120
330
50
100
AcDbEntity
  8
1
  6
Continuous
 62
     7
100
AcDbCircle
 10
89.45790487708184
 20
81.54212260001816
 30
0.0
 40
2.878491937038694
100
AcDbArc
 50
225.3703008482144
 51
270.0
  0
ARC
  5
121
330
50
100
AcDbEntity
  8
1
  6
Continuous
 62
     7
100
AcDbCircle
 10
88.44944323936934
 20
80.42251649704961
 30
0.0
 40
1.37496988850868
100
AcDbArc
 50
134.9999999999971
 51
222.4994917111601
  0
ARC
  5
122
330
50
100
AcDbEntity
  8
1
  6
Continuous
 62
     7
100
AcDbCircle
 10
75.96529150213965
 20
81.54212260001816
 30
0.0
 40
2.878491937038703
100
AcDbArc
 50
270.0
 51
314.6296991517852
  0
ARC
  5
123
330
50
100
AcDbEntity
  8
1
  6
Continuous
 62
     7
100
AcDbCircle
 10
76.97375313985214
 20
80.42251649704961
 30
0.0
 40
1.374969888508743
100
AcDbArc
 50
317.5005082888395
 51
44.99999999999832
  0
SPLINE
  5
124
330
50
100
AcDbEntity
  8
1
  6
Continuous
 62
     7
100
AcDbSpline
210
0.0
220
0.0
230
1.0
 70
     8
 71
     3
 72
    41
 73
    37
 74
    35
 42
0.000000001
 43
0.0000000001
 44
0.00000001
 40
0.0
 40
0.0
 40
0.0
 40
0.0
 40
0.1093932091308193
 40
0.2187417990714849
 40
0.3331247098592913
 40
0.4475481922497191
 40
0.5562699427245182
 40
0.6649728410691047
 40
0.7655174932339348
 40
0.8660657342493532
 40
0.9564368755897916
 40
1.046803747174279
 40
1.125704053478995
 40
1.204595940125353
 40
1.271818682515739
 40
1.339037864202049
 40
1.396129367735644
 40
1.453147503326297
 40
1.504032768299391
 40
1.554814606776679
 40
1.605596212574996
 40
1.656481679052698
 40
1.713500914220283
 40
1.770591494259793
 40
1.833345932934132
 40
1.896083296921766
 40
1.96528757497136
 40
2.03450018965456
 40
2.139006794403621
 40
2.243569098346663
 40
2.437697534099273
 40
2.631976800730736
 40
2.761449437143501
 40
2.890803490419751
 40
3.000197566341313
 40
3.10965227823541
 40
3.10965227823541
 40
3.10965227823541
 40
3.10965227823541
 10
92.02741390135827
 20
77.52240065027493
 30
0.0
 10
92.06386655151553
 20
77.52332487194629
 30
0.0
 10
92.1367569832604
 20
77.52517294859072
 30
0.0
 10
92.24769735746861
 20
77.53041946598972
 30
0.0
 10
92.35997907750948
 20
77.54079028118949
 30
0.0
 10
92.47150213789232
 20
77.55586971180857
 30
0.0
 10
92.58050732795215
 20
77.57484066633327
 30
0.0
 10
92.68409681829984
 20
77.59744315790564
 30
0.0
 10
92.78389880339193
 20
77.62411115209208
 30
0.0
 10
92.87640813493947
 20
77.65394937401967
 30
0.0
 10
92.96398842366533
 20
77.68756798583462
 30
0.0
 10
93.0427424802978
 20
77.72362095211138
 30
0.0
 10
93.11545098745137
 20
77.76321570555803
 30
0.0
 10
93.17822564038141
 20
77.80445914383422
 30
0.0
 10
93.23385183571463
 20
77.84893680404737
 30
0.0
 10
93.27897995058547
 20
77.89435171847825
 30
0.0
 10
93.31570661889184
 20
77.94258432847944
 30
0.0
 10
93.34185225767853
 20
77.99132243645604
 30
0.0
 10
93.35780658031373
 20
78.04206245476522
 30
0.0
 10
93.36348959165943
 20
78.09294733693076
 30
0.0
 10
93.35781643136387
 20
78.1438333879712
 30
0.0
 10
93.34187184310895
 20
78.19457682360107
 30
0.0
 10
93.31573750278156
 20
78.24332077718483
 30
0.0
 10
93.27992263849782
 20
78.29037343680429
 30
0.0
 10
93.23712805744462
 20
78.33385585048278
 30
0.0
 10
93.18680686122215
 20
78.37498780494006
 30
0.0
 10
93.13132736786415
 20
78.41278284810812
 30
0.0
 10
93.06108234339459
 20
78.45318024161904
 30
0.0
 10
92.97727045030318
 20
78.49320368722393
 30
0.0
 10
92.85189945091658
 20
78.54187140078942
 30
0.0
 10
92.69396878664429
 20
78.58831800206958
 30
0.0
 10
92.52456664485217
 20
78.62235324707052
 30
0.0
 10
92.37502752426415
 20
78.64385436995889
 30
0.0
 10
92.25277738871603
 20
78.65546281888606
 30
0.0
 10
92.13681438605306
 20
78.66089922112533
 30
0.0
 10
92.06388746492452
 20
78.66272001761925
 30
0.0
 10
92.02741390135827
 20
78.66363066297946
 30
0.0
 11
92.02741390135827
 21
77.52240065027493
 31
0.0
 11
92.13676111769925
 21
77.525572726135
 31
0.0
 11
92.24596801873545
 21
77.53113752592682
 31
0.0
 11
92.35987234925219
 21
77.54158998414289
 31
0.0
 11
92.47327270485974
 21
77.55685735961075
 31
0.0
 11
92.58036703695043
 21
77.57559830724392
 31
0.0
 11
92.68654964385254
 21
77.59887005303905
 31
0.0
 11
92.78365842751455
 21
77.62492981626023
 31
0.0
 11
92.879318523846
 21
77.65589907178148
 31
0.0
 11
92.96362672020494
 21
77.6884424467437
 31
0.0
 11
93.04572215996714
 21
77.7262116179615
 31
0.0
 11
93.11490067456003
 21
77.76415356693153
 31
0.0
 11
93.18070446193678
 21
77.80767128044323
 31
0.0
 11
93.23300801773124
 21
77.84989964985064
 31
0.0
 11
93.28016406081389
 21
77.89780294860296
 31
0.0
 11
93.31446242587519
 21
77.94344352229996
 31
0.0
 11
93.34107892701567
 21
77.99386801731235
 31
0.0
 11
93.3562057869453
 21
78.04245287441657
 31
0.0
 11
93.36159819315688
 21
78.09294759806994
 31
0.0
 11
93.35621559452397
 21
78.14344313412865
 31
0.0
 11
93.34109839171903
 21
78.19203120795113
 31
0.0
 11
93.31449219145337
 21
78.24246238214405
 31
0.0
 11
93.2802023987955
 21
78.28810824160836
 31
0.0
 11
93.236368549848
 21
78.33301607275482
 31
0.0
 11
93.1879608749958
 21
78.37292439128954
 31
0.0
 11
93.13086743746108
 21
78.4120341282532
 31
0.0
 11
93.07095692658629
 21
78.44669125952957
 31
0.0
 11
92.97677709708009
 21
78.49198795048102
 31
0.0
 11
92.87940439188148
 21
78.5300908603686
 31
0.0
 11
92.69336305511797
 21
78.5855387706327
 31
0.0
 11
92.50302701608528
 21
78.62448265155098
 31
0.0
 11
92.37486073985393
 21
78.64282847719716
 31
0.0
 11
92.24607840855404
 21
78.65497682631396
 31
0.0
 11
92.13682382466898
 21
78.66049949373117
 31
0.0
 11
92.02741390135827
 21
78.66363066297946
 31
0.0
  0
SPLINE
  5
125
330
50
100
AcDbEntity
  8
1
  6
Continuous
 62
     7
100
AcDbSpline
210
0.0
220
0.0
230
1.0
 70
     8
 71
     3
 72
    41
 73
    37
 74
    35
 42
0.000000001
 43
0.0000000001
 44
0.00000001
 40
0.0
 40
0.0
 40
0.0
 40
0.0
 40
0.1093932091307913
 40
0.2187417990714278
 40
0.3331247098592625
 40
0.4475481922496903
 40
0.5562699427244894
 40
0.6649728410690758
 40
0.7655174932339059
 40
0.8660657342493243
 40
0.9564368755897761
 40
1.046803747174251
 40
1.125704053478966
 40
1.204595940125325
 40
1.27181868251571
 40
1.33903786420202
 40
1.396129367735624
 40
1.453147503326284
 40
1.504032768299377
 40
1.554814606776666
 40
1.605596212574974
 40
1.656481679052663
 40
1.71350091422026
 40
1.770591494259773
 40
1.833345932934171
 40
1.896083296921858
 40
1.965287574971397
 40
2.034500189654519
 40
2.13900679440363
 40
2.243569098346728
 40
2.437697534099289
 40
2.631976800730675
 40
2.761449437143496
 40
2.890803490419845
 40
3.000197566341393
 40
3.109652278235476
 40
3.109652278235476
 40
3.109652278235476
 40
3.109652278235476
 10
73.39578247786318
 20
77.52240065027493
 30
0.0
 10
73.35932982770592
 20
77.52332487194631
 30
0.0
 10
73.28643939596108
 20
77.52517294859072
 30
0.0
 10
73.17549902175291
 20
77.53041946598975
 30
0.0
 10
73.06321730171194
 20
77.54079028118946
 30
0.0
 10
72.95169424132918
 20
77.55586971180858
 30
0.0
 10
72.84268905126932
 20
77.57484066633332
 30
0.0
 10
72.73909956092163
 20
77.59744315790562
 30
0.0
 10
72.63929757582954
 20
77.62411115209211
 30
0.0
 10
72.546788244282
 20
77.65394937401966
 30
0.0
 10
72.45920795555615
 20
77.68756798583462
 30
0.0
 10
72.38045389892366
 20
77.72362095211136
 30
0.0
 10
72.30774539177008
 20
77.76321570555804
 30
0.0
 10
72.24497073884008
 20
77.80445914383421
 30
0.0
 10
72.18934454350682
 20
77.84893680404736
 30
0.0
 10
72.14421642863603
 20
77.89435171847826
 30
0.0
 10
72.10748976032963
 20
77.94258432847943
 30
0.0
 10
72.08134412154294
 20
77.99132243645604
 30
0.0
 10
72.06538979890769
 20
78.0420624547652
 30
0.0
 10
72.05970678756206
 20
78.09294733693076
 30
0.0
 10
72.06537994785748
 20
78.14383338797121
 30
0.0
 10
72.08132453611242
 20
78.19457682360108
 30
0.0
 10
72.10745887643972
 20
78.24332077718486
 30
0.0
 10
72.14327374072352
 20
78.29037343680432
 30
0.0
 10
72.18606832177683
 20
78.33385585048276
 30
0.0
 10
72.2363895179993
 20
78.37498780494002
 30
0.0
 10
72.2918690113573
 20
78.41278284810811
 30
0.0
 10
72.36211403582676
 20
78.4531802416191
 30
0.0
 10
72.44592592891819
 20
78.49320368722394
 30
0.0
 10
72.57129692830485
 20
78.54187140078942
 30
0.0
 10
72.72922759257716
 20
78.58831800206953
 30
0.0
 10
72.89862973436917
 20
78.62235324707055
 30
0.0
 10
73.04816885495721
 20
78.64385436995889
 30
0.0
 10
73.17041899050542
 20
78.65546281888606
 30
0.0
 10
73.28638199316843
 20
78.66089922112533
 30
0.0
 10
73.35930891429693
 20
78.66272001761925
 30
0.0
 10
73.39578247786318
 20
78.66363066297946
 30
0.0
 11
73.39578247786318
 21
77.52240065027493
 31
0.0
 11
73.28643526152223
 21
77.52557272613501
 31
0.0
 11
73.17722836048605
 21
77.53113752592682
 31
0.0
 11
73.0633240299693
 21
77.54158998414289
 31
0.0
 11
72.94992367436174
 21
77.55685735961075
 31
0.0
 11
72.84282934227105
 21
77.57559830724392
 31
0.0
 11
72.73664673536894
 21
77.59887005303905
 31
0.0
 11
72.63953795170693
 21
77.62492981626023
 31
0.0
 11
72.54387785537548
 21
77.65589907178148
 31
0.0
 11
72.45956965901652
 21
77.6884424467437
 31
0.0
 11
72.37747421925434
 21
77.7262116179615
 31
0.0
 11
72.30829570466145
 21
77.76415356693153
 31
0.0
 11
72.2424919172847
 21
77.80767128044323
 31
0.0
 11
72.19018836149024
 21
77.84989964985064
 31
0.0
 11
72.14303231840759
 21
77.89780294860296
 31
0.0
 11
72.10873395334627
 21
77.94344352229996
 31
0.0
 11
72.08211745220578
 21
77.99386801731235
 31
0.0
 11
72.06699059227616
 21
78.04245287441657
 31
0.0
 11
72.06159818606457
 21
78.09294759806994
 31
0.0
 11
72.06698078469739
 21
78.14344313412865
 31
0.0
 11
72.0820979875023
 21
78.19203120795113
 31
0.0
 11
72.10870418776793
 21
78.24246238214408
 31
0.0
 11
72.14299398042584
 21
78.28810824160836
 31
0.0
 11
72.18682782937344
 21
78.3330160727548
 31
0.0
 11
72.2352355042257
 21
78.37292439128954
 31
0.0
 11
72.29232894176036
 21
78.41203412825318
 31
0.0
 11
72.35223945263505
 21
78.44669125952957
 31
0.0
 11
72.44641928214129
 21
78.49198795048105
 31
0.0
 11
72.54379198733997
 21
78.5300908603686
 31
0.0
 11
72.72983332410344
 21
78.58553877063267
 31
0.0
 11
72.92016936313604
 21
78.62448265155098
 31
0.0
 11
73.04833563936745
 21
78.64282847719716
 31
0.0
 11
73.17711797066744
 21
78.65497682631396
 31
0.0
 11
73.28637255455249
 21
78.66049949373117
 31
0.0
 11
73.39578247786318
 21
78.66363066297946
 31
0.0
  0
SPLINE
  5
126
330
50
100
AcDbEntity
  8
1
  6
Continuous
 62
     7
100
AcDbSpline
210
0.0
220
0.0
230
1.0
 70
     8
 71
     3
 72
    43
 73
    39
 74
    37
 42
0.000000001
 43
0.0000000001
 44
0.00000001
 40
0.0
 40
0.0
 40
0.0
 40
0.0
 40
0.0672836836178152
 40
0.1342844142592312
 40
0.2130376585645736
 40
0.2921298561651847
 40
0.3825730691282188
 40
0.4728568556310314
 40
0.5733715966665637
 40
0.6739519990460477
 40
0.7826752558700064
 40
0.8913779079693931
 40
1.005773569763136
 40
1.120177000896218
 40
1.237490833474322
 40
1.35480277603495
 40
1.472115480276069
 40
1.589428606417979
 40
1.703828640997469
 40
1.818227517879705
 40
1.926940936581097
 40
2.035654150954651
 40
2.136203630942285
 40
2.236746281728333
 40
2.327108509500874
 40
2.417485322538571
 40
2.496416106211441
 40
2.575274285154569
 40
2.64238827760398
 40
2.7097271415979
 40
2.786947692324941
 40
2.863451215477496
 40
2.894364473557797
 40
2.925343555946216
 40
2.958390197317502
 40
2.991251046954293
 40
3.065083836900728
 40
3.14064619162627
 40
3.14064619162627
 40
3.14064619162627
 40
3.14064619162627
 10
85.13527476961949
 20
74.20549593146589
 30
0.0
 10
85.1512758657995
 20
74.1897815932978
 30
0.0
 10
85.18321077721518
 20
74.15841901159669
 30
0.0
 10
85.2368622263794
 20
74.1117151945256
 30
0.0
 10
85.29956079212023
 20
74.07025297277022
 30
0.0
 10
85.37274469775512
 20
74.03148538451786
 30
0.0
 10
85.45156456708968
 20
73.99547237553003
 30
0.0
 10
85.53902779027223
 20
73.96158622964069
 30
0.0
 10
85.63151404167584
 20
73.93175168495003
 30
0.0
 10
85.7313428128804
 20
73.90516098944249
 30
0.0
 10
85.83492934569281
 20
73.88249396546742
 30
0.0
 10
85.94392797442245
 20
73.86351798628421
 30
0.0
 10
86.05548214204636
 20
73.8487209729737
 30
0.0
 10
86.17038505671863
 20
73.83803898476486
 30
0.0
 10
86.28657721549061
 20
73.83160302430905
 30
0.0
 10
86.40389703339949
 20
73.82947074200781
 30
0.0
 10
86.52121624034905
 20
73.83162412459893
 30
0.0
 10
86.63740604666035
 20
73.83808372680767
 30
0.0
 10
86.7523059363803
 20
73.8487953773608
 30
0.0
 10
86.86386060953703
 20
73.86361300066775
 30
0.0
 10
86.97286118219995
 20
73.88258464645126
 30
0.0
 10
87.07643332396782
 20
73.90527611814403
 30
0.0
 10
87.17622929423813
 20
73.93197554475766
 30
0.0
 10
87.26873494305488
 20
73.96181364357417
 30
0.0
 10
87.35631601157752
 20
73.99542641730719
 30
0.0
 10
87.43506933412296
 20
74.03150944868437
 30
0.0
 10
87.50774107050198
 20
74.07117810757363
 30
0.0
 10
87.57048255898098
 20
74.1123907941629
 30
0.0
 10
87.62620562216571
 20
74.15674215825993
 30
0.0
 10
87.67600543854815
 20
74.20700927859582
 30
0.0
 10
87.7193057677874
 20
74.26713520779649
 30
0.0
 10
87.74367779378619
 20
74.32452892024136
 30
0.0
 10
87.75243463203648
 20
74.36993198709283
 30
0.0
 10
87.75454850287548
 20
74.40159351257493
 30
0.0
 10
87.75242817730046
 20
74.43391621278393
 30
0.0
 10
87.74295382146964
 20
74.47971270830617
 30
0.0
 10
87.71600259599072
 20
74.53507165069911
 30
0.0
 10
87.68705029664092
 20
74.57556790139174
 30
0.0
 10
87.67240655179633
 20
74.59605043959402
 30
0.0
 11
85.13527476961949
 21
74.20549593146589
 31
0.0
 11
85.1837508711652
 21
74.15883587122158
 31
0.0
 11
85.23473436849659
 21
74.11536426330618
 31
0.0
 11
85.30009110236904
 21
74.07142600677948
 31
0.0
 11
85.3697166704664
 21
74.03390460082437
 31
0.0
 11
85.45195805024018
 21
73.99627043753738
 31
0.0
 11
85.53612030658755
 21
73.96359205464435
 31
0.0
 11
85.63173476026478
 21
73.93259061286682
 31
0.0
 11
85.72888918658083
 21
73.90656303590202
 31
0.0
 11
85.83508546540229
 21
73.8832585962821
 31
0.0
 11
85.94216612557378
 21
73.86455034247362
 31
0.0
 11
86.05556260392594
 21
73.8494637223998
 31
0.0
 11
86.16947081169808
 21
73.8388305087897
 31
0.0
 11
86.28660436194511
 21
73.8323292245176
 31
0.0
 11
86.40389670708765
 21
73.83018501898187
 31
0.0
 11
86.52118941749477
 21
73.83235080812935
 31
0.0
 11
86.63832089953635
 21
73.83887656188298
 31
0.0
 11
86.75222320892499
 21
73.84953638417511
 31
0.0
 11
86.86562052858105
 21
73.86464104936027
 31
0.0
 11
86.9727109648489
 21
73.88335590577029
 31
0.0
 11
87.07888921001219
 21
73.90669564049904
 31
0.0
 11
87.17599360147904
 21
73.93279037307693
 31
0.0
 11
87.27164688286395
 21
73.96376252782838
 31
0.0
 11
87.35594634817959
 21
73.99630376841637
 31
0.0
 11
87.43803670278643
 21
74.03410776285385
 31
0.0
 11
87.50721491984578
 21
74.07211358973362
 31
0.0
 11
87.57300299929888
 21
74.11559394120567
 31
0.0
 11
87.62527712326964
 21
74.15768555465853
 31
0.0
 11
87.67244488977792
 21
74.20574514658858
 31
0.0
 11
87.7169685172507
 21
74.26883761837323
 31
0.0
 11
87.74595104606175
 21
74.33963876244712
 31
0.0
 11
87.751797288802
 21
74.36999417309899
 31
0.0
 11
87.75384068413919
 21
74.400905790127
 31
0.0
 11
87.75166330359428
 21
74.43388062162862
 31
0.0
 11
87.74492127263397
 21
74.46604240750392
 31
0.0
 11
87.71458274833849
 21
74.53335403384976
 31
0.0
 11
87.67240655179633
 21
74.59605043959402
 31
0.0
  0
SPLINE
  5
127
330
50
100
AcDbEntity
  8
1
  6
Continuous
 62
     7
100
AcDbSpline
210
0.0
220
0.0
230
1.0
 70
     8
 71
     3
 72
    27
 73
    23
 74
    21
 42
0.000000001
 43
0.0000000001
 44
0.00000001
 40
0.0
 40
0.0
 40
0.0
 40
0.0
 40
0.0511191638316713
 40
0.1013103842445252
 40
0.2229268758430124
 40
0.3497744696060863
 40
0.5202968239673148
 40
0.6880985056029649
 40
0.8968346902125406
 40
1.106498760634687
 40
1.338339572675151
 40
1.56984499092967
 40
1.801352666597151
 40
2.033191290141926
 40
2.242846000116157
 40
2.451591154154172
 40
2.619416598246402
 40
2.789917673276556
 40
2.916723121530531
 40
3.038364445097521
 40
3.0884566793509
 40
3.139459676650483
 40
3.139459676650483
 40
3.139459676650483
 40
3.139459676650483
 10
81.36159816617939
 20
74.1565079906288
 30
0.0
 10
81.36393868619132
 20
74.139634749826
 30
0.0
 10
81.36857725372941
 20
74.10619456283773
 30
0.0
 10
81.38601125938699
 20
74.03354586740673
 30
0.0
 10
81.4438307932296
 20
73.94856310936004
 30
0.0
 10
81.55217795510283
 20
73.85972440657656
 30
0.0
 10
81.68629174347066
 20
73.78040862106089
 30
0.0
 10
81.8557401788697
 20
73.7119281503141
 30
0.0
 10
82.04371585331661
 20
73.65741784446433
 30
0.0
 10
82.25680236578464
 20
73.61644397109323
 30
0.0
 10
82.47997774867008
 20
73.5914498948698
 30
0.0
 10
82.71165525073162
 20
73.58334449929583
 30
0.0
 10
82.94333044959386
 20
73.5914944145403
 30
0.0
 10
83.16649795271644
 20
73.61653192563914
 30
0.0
 10
83.37957458653912
 20
73.65755338308999
 30
0.0
 10
83.56754631712036
 20
73.71210265365237
 30
0.0
 10
83.73699373400507
 20
73.78059421762211
 30
0.0
 10
83.871084063193
 20
73.85993078445847
 30
0.0
 10
83.97934792625149
 20
73.94886024513796
 30
0.0
 10
84.03712249648427
 20
74.0337862438677
 30
0.0
 10
84.05471059984063
 20
74.10632489046992
 30
0.0
 10
84.0594406191717
 20
74.13968012448828
 30
0.0
 10
84.06182692809568
 20
74.1565079906287
 30
0.0
 11
81.36159816617939
 21
74.1565079906288
 31
0.0
 11
81.3694559466679
 21
74.10599636146202
 31
0.0
 11
81.3821174323206
 21
74.05742840987116
 31
0.0
 11
81.44668702285523
 21
73.95436853317867
 31
0.0
 11
81.54249189739949
 21
73.87123167300211
 31
0.0
 11
81.68891827606538
 21
73.78384066399774
 31
0.0
 11
81.8438778354903
 21
73.7194594643403
 31
0.0
 11
82.04415110248814
 21
73.6606256932567
 31
0.0
 11
82.24992365447653
 21
73.6204177521696
 31
0.0
 11
82.48029909276072
 21
73.59439240819573
 31
0.0
 11
82.7116542359904
 21
73.58605242867785
 31
0.0
 11
82.94301002182063
 21
73.59443712478813
 31
0.0
 11
83.1733780574838
 21
73.62050845905623
 31
0.0
 11
83.37913279297803
 21
73.66075874453708
 31
0.0
 11
83.57940441176669
 21
73.71962993752432
 31
0.0
 11
83.73437922574973
 21
73.78403635240639
 31
0.0
 11
83.88076052820178
 21
73.87146135090161
 31
0.0
 11
83.97648243626836
 21
73.95462947871505
 31
0.0
 11
84.04109841160425
 21
74.05768958994179
 31
0.0
 11
84.05384006829313
 21
74.10613422481913
 31
0.0
 11
84.06182692809568
 21
74.1565079906287
 31
0.0
  0
SPLINE
  5
128
330
50
100
AcDbEntity
  8
1
  6
Continuous
 62
     7
100
AcDbSpline
210
0.0
220
0.0
230
1.0
 70
     8
 71
     3
 72
    43
 73
    39
 74
    37
 42
0.000000001
 43
0.0000000001
 44
0.00000001
 40
0.0
 40
0.0
 40
0.0
 40
0.0
 40
0.0672836836178152
 40
0.1342844142592096
 40
0.2130376585644812
 40
0.2921298561650173
 40
0.3825730691280572
 40
0.472856855630878
 40
0.573371596666505
 40
0.6739519990460714
 40
0.7826752558699714
 40
0.8913779079692766
 40
1.00577356976302
 40
1.120177000896088
 40
1.237490833474177
 40
1.354802776034777
 40
1.472115480275896
 40
1.589428606417807
 40
1.70382864099731
 40
1.818227517879547
 40
1.926940936581006
 40
2.035654150954647
 40
2.136203630942199
 40
2.236746281728179
 40
2.327108509500733
 40
2.417485322538443
 40
2.496416106211307
 40
2.575274285154439
 40
2.642388277603929
 40
2.709727141597889
 40
2.786947692324857
 40
2.86345121547739
 40
2.894364473557708
 40
2.925343555946131
 40
2.958390197317416
 40
2.991251046954206
 40
3.065083836900689
 40
3.140646191626259
 40
3.140646191626259
 40
3.140646191626259
 40
3.140646191626259
 10
80.28792160960182
 20
74.20549593146589
 30
0.0
 10
80.27192051342182
 20
74.1897815932978
 30
0.0
 10
80.23998560200612
 20
74.15841901159669
 30
0.0
 10
80.18633415284197
 20
74.11171519452559
 30
0.0
 10
80.12363558710118
 20
74.07025297277025
 30
0.0
 10
80.05045168146638
 20
74.03148538451782
 30
0.0
 10
79.97163181213185
 20
73.99547237553
 30
0.0
 10
79.88416858894928
 20
73.96158622964066
 30
0.0
 10
79.79168233754554
 20
73.93175168495006
 30
0.0
 10
79.69185356634097
 20
73.90516098944246
 30
0.0
 10
79.58826703352857
 20
73.88249396546745
 30
0.0
 10
79.47926840479897
 20
73.8635179862842
 30
0.0
 10
79.36771423717508
 20
73.84872097297371
 30
0.0
 10
79.25281132250284
 20
73.83803898476488
 30
0.0
 10
79.13661916373088
 20
73.831603024309
 30
0.0
 10
79.01929934582202
 20
73.82947074200786
 30
0.0
 10
78.90198013887249
 20
73.8316241245989
 30
0.0
 10
78.78579033256112
 20
73.83808372680771
 30
0.0
 10
78.67089044284123
 20
73.84879537736076
 30
0.0
 10
78.55933576968444
 20
73.86361300066775
 30
0.0
 10
78.45033519702146
 20
73.88258464645125
 30
0.0
 10
78.34676305525358
 20
73.90527611814402
 30
0.0
 10
78.24696708498332
 20
73.93197554475765
 30
0.0
 10
78.15446143616657
 20
73.96181364357415
 30
0.0
 10
78.06688036764395
 20
73.99542641730717
 30
0.0
 10
77.98812704509852
 20
74.03150944868435
 30
0.0
 10
77.91545530871952
 20
74.07117810757364
 30
0.0
 10
77.85271382024045
 20
74.11239079416292
 30
0.0
 10
77.79699075705567
 20
74.15674215825989
 30
0.0
 10
77.74719094067319
 20
74.20700927859576
 30
0.0
 10
77.703890611434
 20
74.26713520779651
 30
0.0
 10
77.6795185854354
 20
74.32452892024142
 30
0.0
 10
77.6707617471849
 20
74.3699319870928
 30
0.0
 10
77.66864787634586
 20
74.40159351257493
 30
0.0
 10
77.67076820192084
 20
74.43391621278394
 30
0.0
 10
77.68024255775165
 20
74.47971270830617
 30
0.0
 10
77.70719378323066
 20
74.53507165069911
 30
0.0
 10
77.73614608258053
 20
74.57556790139174
 30
0.0
 10
77.75078982742514
 20
74.59605043959402
 30
0.0
 11
80.28792160960182
 21
74.20549593146589
 31
0.0
 11
80.23944550805611
 21
74.15883587122158
 31
0.0
 11
80.18846201072475
 21
74.11536426330618
 31
0.0
 11
80.12310527685239
 21
74.07142600677948
 31
0.0
 11
80.0534797087551
 21
74.03390460082437
 31
0.0
 11
79.97123832898133
 21
73.99627043753736
 31
0.0
 11
79.88707607263395
 21
73.96359205464435
 31
0.0
 11
79.79146161895662
 21
73.93259061286682
 31
0.0
 11
79.69430719264048
 21
73.90656303590202
 31
0.0
 11
79.58811091381908
 21
73.88325859628212
 31
0.0
 11
79.48103025364767
 21
73.86455034247362
 31
0.0
 11
79.36763377529552
 21
73.8494637223998
 31
0.0
 11
79.25372556752339
 21
73.8388305087897
 31
0.0
 11
79.13659201727637
 21
73.8323292245176
 31
0.0
 11
79.01929967213385
 21
73.83018501898187
 31
0.0
 11
78.90200696172674
 21
73.83235080812933
 31
0.0
 11
78.78487547968516
 21
73.83887656188298
 31
0.0
 11
78.6709731702965
 21
73.84953638417511
 31
0.0
 11
78.55757585064045
 21
73.86464104936027
 31
0.0
 11
78.45048541437252
 21
73.88335590577027
 31
0.0
 11
78.34430716920915
 21
73.90669564049904
 31
0.0
 11
78.24720277774239
 21
73.93279037307693
 31
0.0
 11
78.15154949635755
 21
73.96376252782838
 31
0.0
 11
78.0672500310419
 21
73.99630376841637
 31
0.0
 11
77.98515967643503
 21
74.03410776285385
 31
0.0
 11
77.9159814593757
 21
74.07211358973363
 31
0.0
 11
77.85019337992259
 21
74.11559394120567
 31
0.0
 11
77.79791925595171
 21
74.15768555465851
 31
0.0
 11
77.75075148944339
 21
74.20574514658858
 31
0.0
 11
77.70622786197073
 21
74.26883761837323
 31
0.0
 11
77.67724533315975
 21
74.33963876244712
 31
0.0
 11
77.67139909041941
 21
74.36999417309899
 31
0.0
 11
77.66935569508215
 21
74.400905790127
 31
0.0
 11
77.67153307562702
 21
74.43388062162862
 31
0.0
 11
77.67827510658734
 21
74.46604240750392
 31
0.0
 11
77.70861363088291
 21
74.53335403384978
 31
0.0
 11
77.75078982742514
 21
74.59605043959402
 31
0.0
  0
ENDBLK
  5
52
330
50
100
AcDbEntity
  8
0
100
AcDbBlockEnd
  0
BLOCK
  5
54
330
53
100
AcDbEntity
  8
0
100
AcDbBlockBegin
  2
21-1C
 70
     0
 10
679.3139726278865
 20
620.1294526629665
 30
0.0
  3
21-1C
  1

  0
LINE
  5
129
330
53
100
AcDbEntity
  8
1
  6
Continuous
 62
     7
100
AcDbLine
 10
-276.1020079556108
 20
218.9805369108408
 30
0.0
 11
-203.5776228291378
 21
218.9805369108408
 31
0.0
  0
LINE
  5
12A
330
53
100
AcDbEntity
  8
1
  6
Continuous
 62
     7
100
AcDbLine
 10
-203.7607554794996
 20
226.4191518194563
 30
0.0
 11
-202.8349292384881
 21
219.8349698099099
 31
0.0
  0
LINE
  5
12B
330
53
100
AcDbEntity
  8
1
  6
Continuous
 62
     7
100
AcDbLine
 10
-276.1668468586782
 20
224.6581565438668
 30
0.0
 11
-276.8447090071667
 21
219.834916736561
 31
0.0
  0
LINE
  5
12C
330
53
100
AcDbEntity
  8
1
  6
Continuous
 62
     7
100
AcDbLine
 10
-270.2941556669482
 20
451.0388947233709
 30
0.0
 11
-249.853288622299
 21
445.5617809061654
 31
0.0
  0
LINE
  5
12D
330
53
100
AcDbEntity
  8
1
  6
Continuous
 62
     7
100
AcDbLine
 10
-218.0787452917043
 20
420.8923134873772
 30
0.0
 11
-233.042498519148
 21
435.8560667148208
 31
0.0
  0
LINE
  5
12E
330
53
100
AcDbEntity
  8
1
  6
Continuous
 62
     7
100
AcDbLine
 10
-203.0214518244239
 20
429.5856459239788
 30
0.0
 11
-208.4985656416297
 21
450.026512968628
 31
0.0
  0
LINE
  5
12F
330
53
100
AcDbEntity
  8
1
  6
Continuous
 62
     7
100
AcDbLine
 10
-203.0214518244239
 20
489.8788083959665
 30
0.0
 11
-208.4985656416297
 21
469.4379413513171
 31
0.0
  0
LINE
  5
130
330
53
100
AcDbEntity
  8
1
  6
Continuous
 62
     7
100
AcDbLine
 10
-218.0787452917043
 20
498.572140832568
 30
0.0
 11
-233.042498519148
 21
483.6083876051245
 31
0.0
  0
LINE
  5
131
330
53
100
AcDbEntity
  8
1
  6
Continuous
 62
     7
100
AcDbLine
 10
-270.2941556669482
 20
468.4255595965743
 30
0.0
 11
-249.853288622299
 21
473.9026734137798
 31
0.0
  0
LINE
  5
132
330
53
100
AcDbEntity
  8
1
  6
Continuous
 62
     7
100
AcDbLine
 10
-1.92529060809642
 20
235.4805369108408
 30
0.0
 11
9.71110873424541
 21
235.4805369108408
 31
0.0
  0
LINE
  5
133
330
53
100
AcDbEntity
  8
1
  6
Continuous
 62
     7
100
AcDbLine
 10
43.00055283574926
 20
218.9805369108408
 30
0.0
 11
44.51529419452714
 21
218.9805369108408
 31
0.0
  0
LINE
  5
134
330
53
100
AcDbEntity
  8
1
  6
Continuous
 62
     7
100
AcDbLine
 10
-35.19631711969601
 20
218.9805369108408
 30
0.0
 11
43.00055283574926
 21
218.9805369108408
 31
0.0
  0
LINE
  5
135
330
53
100
AcDbEntity
  8
0
  6
Continuous
 62
     7
100
AcDbLine
 10
-37.45375953003025
 20
219.8349167365608
 30
0.0
 11
-36.67163372685792
 21
225.4000309955467
 31
0.0
  0
LINE
  5
136
330
53
100
AcDbEntity
  8
1
  6
Continuous
 62
     7
100
AcDbLine
 10
-36.71105847847403
 20
218.9805369108408
 30
0.0
 11
-35.19631711969601
 21
218.9805369108408
 31
0.0
  0
LINE
  5
137
330
53
100
AcDbEntity
  8
0
  6
Continuous
 62
     7
100
AcDbLine
 10
44.47586944291101
 20
225.4000309955467
 30
0.0
 11
45.25799524608306
 21
219.8349167365608
 31
0.0
  0
ARC
  5
138
330
53
100
AcDbEntity
  8
1
  6
Continuous
 62
     7
100
AcDbCircle
 10
-229.9184907631561
 20
123.1128053977919
 30
0.0
 40
112.5000000000001
100
AcDbArc
 50
80.40850751733498
 51
87.22136103403757
  0
ARC
  5
139
330
53
100
AcDbEntity
  8
1
  6
Continuous
 62
     7
100
AcDbCircle
 10
-230.4647842610265
 20
10.48053691084097
 30
0.0
 40
225.0799857828322
100
AcDbArc
 50
91.52752544221293
 51
99.8029017937678
  0
ARC
  5
13A
330
53
100
AcDbEntity
  8
1
  6
Continuous
 62
     7
100
AcDbCircle
 10
-211.7147842610256
 20
427.2562745180562
 30
0.0
 40
8.999999999999911
100
AcDbArc
 50
225.0000000000015
 51
14.99999999999923
  0
ARC
  5
13B
330
53
100
AcDbEntity
  8
1
  6
Continuous
 62
     7
100
AcDbCircle
 10
-211.7147842610256
 20
492.208179801889
 30
0.0
 40
9.00000000000005
100
AcDbArc
 50
345.0000000000011
 51
134.9999999999987
  0
ARC
  5
13C
330
53
100
AcDbEntity
  8
1
  6
Continuous
 62
     7
100
AcDbCircle
 10
-267.9647842610253
 20
459.7322271599727
 30
0.0
 40
9.00000000000007
100
AcDbArc
 50
105.0000000000015
 51
254.9999999999988
  0
ARC
  5
13D
330
53
100
AcDbEntity
  8
0
  6
Continuous
 62
     7
100
AcDbCircle
 10
3.90211785802745
 20
10.55553691085091
 30
0.0
 40
224.9999999999897
100
AcDbArc
 50
88.47193140538941
 51
88.52058823754078
  0
ARC
  5
13E
330
53
100
AcDbEntity
  8
0
  6
Continuous
 62
     7
100
AcDbCircle
 10
3.2801565912593
 20
10.5180369108509
 30
0.0
 40
225.0549283534955
100
AcDbArc
 50
81.41316819161241
 51
88.31389961982681
  0
ARC
  5
13F
330
53
100
AcDbEntity
  8
0
  6
Continuous
 62
     7
100
AcDbCircle
 10
-27.7592211081838
 20
224.147473086906
 30
0.0
 40
9.00000000000004
100
AcDbArc
 50
98.428800022824
 51
171.9999999999992
  0
ARC
  5
140
330
53
100
AcDbEntity
  8
0
  6
Continuous
 62
     7
100
AcDbCircle
 10
4.52407912479381
 20
10.5180369108509
 30
0.0
 40
225.0549283534955
100
AcDbArc
 50
91.64214249299995
 51
98.5868318083876
  0
ARC
  5
141
330
53
100
AcDbEntity
  8
0
  6
Continuous
 62
     7
100
AcDbCircle
 10
35.56345682423691
 20
224.147473086906
 30
0.0
 40
8.999999999999988
100
AcDbArc
 50
8.00000000000079
 51
81.57119997717598
  0
ARC
  5
142
330
53
100
AcDbEntity
  8
1
  6
Continuous
 62
     7
100
AcDbCircle
 10
-203.5776228291378
 20
219.7305369108408
 30
0.0
 40
0.75
100
AcDbArc
 50
270.0
 51
8.00409437171214
  0
ARC
  5
143
330
53
100
AcDbEntity
  8
1
  6
Continuous
 62
     7
100
AcDbCircle
 10
-276.1020079556108
 20
219.7305369108408
 30
0.0
 40
0.7499999999997579
100
AcDbArc
 50
171.9999999999856
 51
270.0
  0
ARC
  5
144
330
53
100
AcDbEntity
  8
1
  6
Continuous
 62
     7
100
AcDbCircle
 10
-212.6730785672952
 20
225.1659570306291
 30
0.0
 40
8.999999999999881
100
AcDbArc
 50
8.00409437170165
 51
80.40850751733522
  0
ARC
  5
145
330
53
100
AcDbEntity
  8
1
  6
Continuous
 62
     7
100
AcDbCircle
 10
-267.2544342400041
 20
223.4055986352263
 30
0.0
 40
9.000000000000082
100
AcDbArc
 50
99.80290179376874
 51
172.0000000000006
  0
ARC
  5
146
330
53
100
AcDbEntity
  8
1
  6
Continuous
 62
     7
100
AcDbCircle
 10
-172.2763471557895
 20
459.7322271599727
 30
0.0
 40
37.50000000000011
100
AcDbArc
 50
165.0000000000003
 51
195.0000000000001
  0
ARC
  5
147
330
53
100
AcDbEntity
  8
1
  6
Continuous
 62
     7
100
AcDbCircle
 10
-259.5590028136435
 20
409.3395624203253
 30
0.0
 40
37.49999999999994
100
AcDbArc
 50
45.00000000000006
 51
75.0000000000001
  0
ARC
  5
148
330
53
100
AcDbEntity
  8
1
  6
Continuous
 62
     7
100
AcDbCircle
 10
-259.5590028136435
 20
510.1248918996199
 30
0.0
 40
37.50000000000005
100
AcDbArc
 50
284.9999999999999
 51
315.0000000000001
  0
ARC
  5
149
330
53
100
AcDbEntity
  8
0
  6
Continuous
 62
     7
100
AcDbCircle
 10
-36.71105847847403
 20
219.7305369108408
 30
0.0
 40
0.7500000000000328
100
AcDbArc
 50
172.000000000004
 51
270.0
  0
ARC
  5
14A
330
53
100
AcDbEntity
  8
0
  6
Continuous
 62
     7
100
AcDbCircle
 10
44.51529419452714
 20
219.7305369108408
 30
0.0
 40
0.75
100
AcDbArc
 50
270.0
 51
7.99999999999914
  0
ENDBLK
  5
55
330
53
100
AcDbEntity
  8
0
100
AcDbBlockEnd
  0
BLOCK
  5
57
330
56
100
AcDbEntity
  8
0
100
AcDbBlockBegin
  2
42-15
 70
     0
 10
201.9235108278674
 20
445.3514239542279
 30
0.0
  3
42-15
  1

  0
LINE
  5
14B
330
56
100
AcDbEntity
  8
1
  6
Continuous
 62
     7
100
AcDbLine
 10
306.5785003086827
 20
221.8913924802386
 30
0.0
 11
308.0785003086827
 21
222.2953757787894
 31
0.0
  0
LINE
  5
14C
330
56
100
AcDbEntity
  8
1
  6
Continuous
 62
     7
100
AcDbLine
 10
306.5785003086827
 20
217.3913924802386
 30
0.0
 11
306.5785003086827
 21
221.8913924802386
 31
0.0
  0
LINE
  5
14D
330
56
100
AcDbEntity
  8
1
  6
Continuous
 62
     2
100
AcDbLine
 10
308.0785003086827
 20
221.8913924802386
 30
0.0
 11
308.0785003086827
 21
217.3913924802386
 31
0.0
  0
LINE
  5
14E
330
56
100
AcDbEntity
  8
1
  6
Continuous
 62
     2
100
AcDbLine
 10
307.3285003086827
 20
221.8913924802386
 30
0.0
 11
307.3285003086827
 21
217.3913924802386
 31
0.0
  0
LINE
  5
14F
330
56
100
AcDbEntity
  8
1
  6
Continuous
 62
     2
100
AcDbLine
 10
308.8285003086827
 20
221.8913924802386
 30
0.0
 11
308.8285003086827
 21
217.3913924802386
 31
0.0
  0
LINE
  5
150
330
56
100
AcDbEntity
  8
1
  6
Continuous
 62
     2
100
AcDbLine
 10
310.3285003086827
 20
221.6747741277052
 30
0.0
 11
310.3285003086827
 21
217.5497734695294
 31
0.0
  0
LINE
  5
151
330
56
100
AcDbEntity
  8
1
  6
Continuous
 62
     2
100
AcDbLine
 10
309.5785003086827
 20
221.8913924802386
 30
0.0
 11
309.5785003086827
 21
217.3913924802386
 31
0.0
  0
LINE
  5
152
330
56
100
AcDbEntity
  8
1
  6
Continuous
 62
     2
100
AcDbLine
 10
311.0785003086827
 20
221.6065028675641
 30
0.0
 11
311.0785003086827
 21
217.6404649489252
 31
0.0
  0
LINE
  5
153
330
56
100
AcDbEntity
  8
1
  6
Continuous
 62
     2
100
AcDbLine
 10
311.8285003086827
 20
221.4777199561343
 30
0.0
 11
311.8285003086827
 21
217.7731015306403
 31
0.0
  0
LINE
  5
154
330
56
100
AcDbEntity
  8
1
  6
Continuous
 62
     2
100
AcDbLine
 10
312.5785003086827
 20
221.4361822207487
 30
0.0
 11
312.5785003086827
 21
217.932443200609
 31
0.0
  0
LINE
  5
155
330
56
100
AcDbEntity
  8
1
  6
Continuous
 62
     2
100
AcDbLine
 10
313.3285003086827
 20
221.1887071711739
 30
0.0
 11
313.3285003086827
 21
218.3117162662733
 31
0.0
  0
LINE
  5
156
330
56
100
AcDbEntity
  8
1
  6
Continuous
 62
     2
100
AcDbLine
 10
314.0785003086827
 20
221.1198724481131
 30
0.0
 11
314.0785003086827
 21
218.4677366620074
 31
0.0
  0
LINE
  5
157
330
56
100
AcDbEntity
  8
1
  6
Continuous
 62
     2
100
AcDbLine
 10
314.8285003086827
 20
220.8208727175718
 30
0.0
 11
314.8285003086827
 21
218.7977832228046
 31
0.0
  0
LINE
  5
158
330
56
100
AcDbEntity
  8
1
  6
Continuous
 62
     2
100
AcDbLine
 10
315.5785003086827
 20
220.7548996335084
 30
0.0
 11
315.5785003086827
 21
218.8570409975857
 31
0.0
  0
LINE
  5
159
330
56
100
AcDbEntity
  8
1
  6
Continuous
 62
     2
100
AcDbLine
 10
318.5785003086827
 20
218.8570409975857
 30
0.0
 11
318.5785003086827
 21
220.7548996335084
 31
0.0
  0
LINE
  5
15A
330
56
100
AcDbEntity
  8
1
  6
Continuous
 62
     2
100
AcDbLine
 10
319.3285003086827
 20
218.7977832228046
 30
0.0
 11
319.3285003086827
 21
220.8208727175718
 31
0.0
  0
LINE
  5
15B
330
56
100
AcDbEntity
  8
1
  6
Continuous
 62
     2
100
AcDbLine
 10
320.0785003086827
 20
218.4677366620074
 30
0.0
 11
320.0785003086827
 21
221.1198724481131
 31
0.0
  0
LINE
  5
15C
330
56
100
AcDbEntity
  8
1
  6
Continuous
 62
     7
100
AcDbLine
 10
308.8285003086827
 20
221.8913924802386
 30
0.0
 11
309.5785003086827
 21
221.8913924802386
 31
0.0
  0
LINE
  5
15D
330
56
100
AcDbEntity
  8
1
  6
Continuous
 62
     7
100
AcDbLine
 10
307.3285003086827
 20
221.8913924802386
 30
0.0
 11
308.0785003086827
 21
221.8913924802386
 31
0.0
  0
LINE
  5
15E
330
56
100
AcDbEntity
  8
1
  6
Continuous
 62
     7
100
AcDbLine
 10
306.5785003086827
 20
221.8913924802386
 30
0.0
 11
307.3285003086827
 21
221.8913924802386
 31
0.0
  0
LINE
  5
15F
330
56
100
AcDbEntity
  8
1
  6
Continuous
 62
     7
100
AcDbLine
 10
308.0785003086827
 20
221.8913924802386
 30
0.0
 11
308.8285003086827
 21
221.8913924802386
 31
0.0
  0
LINE
  5
160
330
56
100
AcDbEntity
  8
1
  6
Continuous
 62
     7
100
AcDbLine
 10
308.4535003086827
 20
222.386041060547
 30
0.0
 11
317.0785003086827
 21
222.386041060547
 31
0.0
  0
LINE
  5
161
330
56
100
AcDbEntity
  8
1
  6
Continuous
 62
     2
100
AcDbLine
 10
320.8285003086827
 20
218.3117162662733
 30
0.0
 11
320.8285003086827
 21
221.1887071711739
 31
0.0
  0
LINE
  5
162
330
56
100
AcDbEntity
  8
1
  6
Continuous
 62
     7
100
AcDbLine
 10
324.5785003086827
 20
221.8913924802386
 30
0.0
 11
325.3285003086827
 21
221.8913924802386
 31
0.0
  0
LINE
  5
163
330
56
100
AcDbEntity
  8
1
  6
Continuous
 62
     7
100
AcDbLine
 10
326.0785003086827
 20
221.8913924802386
 30
0.0
 11
326.8285003086827
 21
221.8913924802386
 31
0.0
  0
LINE
  5
164
330
56
100
AcDbEntity
  8
1
  6
Continuous
 62
     7
100
AcDbLine
 10
326.0785003086827
 20
222.2953757787894
 30
0.0
 11
327.5785003086827
 21
221.8913924802386
 31
0.0
  0
LINE
  5
165
330
56
100
AcDbEntity
  8
1
  6
Continuous
 62
     7
100
AcDbLine
 10
326.8285003086827
 20
221.8913924802386
 30
0.0
 11
327.5785003086827
 21
221.8913924802386
 31
0.0
  0
LINE
  5
166
330
56
100
AcDbEntity
  8
1
  6
Continuous
 62
     7
100
AcDbLine
 10
325.3285003086827
 20
221.8913924802386
 30
0.0
 11
326.0785003086827
 21
221.8913924802386
 31
0.0
  0
LINE
  5
167
330
56
100
AcDbEntity
  8
1
  6
Continuous
 62
     7
100
AcDbLine
 10
317.0785003086827
 20
222.386041060547
 30
0.0
 11
325.7035003086827
 21
222.386041060547
 31
0.0
  0
LINE
  5
168
330
56
100
AcDbEntity
  8
1
  6
Continuous
 62
     7
100
AcDbLine
 10
324.5785003086827
 20
221.8913924802386
 30
0.0
 11
309.5785003086827
 21
221.8913924802386
 31
0.0
  0
LINE
  5
169
330
56
100
AcDbEntity
  8
1
  6
Continuous
 62
     2
100
AcDbLine
 10
321.5785003086827
 20
217.932443200609
 30
0.0
 11
321.5785003086827
 21
221.4361822207487
 31
0.0
  0
LINE
  5
16A
330
56
100
AcDbEntity
  8
1
  6
Continuous
 62
     2
100
AcDbLine
 10
322.3285003086827
 20
217.7731015306403
 30
0.0
 11
322.3285003086827
 21
221.4777199561343
 31
0.0
  0
LINE
  5
16B
330
56
100
AcDbEntity
  8
1
  6
Continuous
 62
     2
100
AcDbLine
 10
323.8285003086827
 20
217.5497734695294
 30
0.0
 11
323.8285003086827
 21
221.6747741277052
 31
0.0
  0
LINE
  5
16C
330
56
100
AcDbEntity
  8
1
  6
Continuous
 62
     2
100
AcDbLine
 10
323.0785003086827
 20
217.6404649489252
 30
0.0
 11
323.0785003086827
 21
221.6065028675641
 31
0.0
  0
LINE
  5
16D
330
56
100
AcDbEntity
  8
1
  6
Continuous
 62
     2
100
AcDbLine
 10
324.5785003086827
 20
217.3913924802386
 30
0.0
 11
324.5785003086827
 21
221.8913924802386
 31
0.0
  0
LINE
  5
16E
330
56
100
AcDbEntity
  8
1
  6
Continuous
 62
     2
100
AcDbLine
 10
325.3285003086827
 20
217.3913924802386
 30
0.0
 11
325.3285003086827
 21
221.8913924802386
 31
0.0
  0
LINE
  5
16F
330
56
100
AcDbEntity
  8
1
  6
Continuous
 62
     2
100
AcDbLine
 10
326.0785003086827
 20
217.3913924802386
 30
0.0
 11
326.0785003086827
 21
221.8913924802386
 31
0.0
  0
LINE
  5
170
330
56
100
AcDbEntity
  8
1
  6
Continuous
 62
     2
100
AcDbLine
 10
326.8285003086827
 20
217.3913924802386
 30
0.0
 11
326.8285003086827
 21
221.8913924802386
 31
0.0
  0
LINE
  5
171
330
56
100
AcDbEntity
  8
1
  6
Continuous
 62
     7
100
AcDbLine
 10
327.5785003086827
 20
221.8913924802386
 30
0.0
 11
327.5785003086827
 21
217.3913924802386
 31
0.0
  0
LINE
  5
172
330
56
100
AcDbEntity
  8
1
  6
Continuous
 62
     7
100
AcDbLine
 10
326.8285003086827
 20
217.3913924802386
 30
0.0
 11
327.5785003086827
 21
217.3913924802386
 31
0.0
  0
LINE
  5
173
330
56
100
AcDbEntity
  8
1
  6
Continuous
 62
     7
100
AcDbLine
 10
326.0785003086827
 20
217.3913924802386
 30
0.0
 11
326.8285003086827
 21
217.3913924802386
 31
0.0
  0
LINE
  5
174
330
56
100
AcDbEntity
  8
1
  6
Continuous
 62
     7
100
AcDbLine
 10
325.3285003086827
 20
217.3913924802386
 30
0.0
 11
326.0785003086827
 21
217.3913924802386
 31
0.0
  0
LINE
  5
175
330
56
100
AcDbEntity
  8
1
  6
Continuous
 62
     7
100
AcDbLine
 10
324.5785003086827
 20
217.3913924802386
 30
0.0
 11
325.3285003086827
 21
217.3913924802386
 31
0.0
  0
LINE
  5
176
330
56
100
AcDbEntity
  8
1
  6
Continuous
 62
     7
100
AcDbLine
 10
324.5785003086827
 20
217.3913924802386
 30
0.0
 11
309.5785003086827
 21
217.3913924802386
 31
0.0
  0
LINE
  5
177
330
56
100
AcDbEntity
  8
1
  6
Continuous
 62
     7
100
AcDbLine
 10
306.5785003086827
 20
217.3913924802386
 30
0.0
 11
307.3285003086827
 21
217.3913924802386
 31
0.0
  0
LINE
  5
178
330
56
100
AcDbEntity
  8
1
  6
Continuous
 62
     7
100
AcDbLine
 10
307.3285003086827
 20
217.3913924802386
 30
0.0
 11
308.0785003086827
 21
217.3913924802386
 31
0.0
  0
LINE
  5
179
330
56
100
AcDbEntity
  8
1
  6
Continuous
 62
     7
100
AcDbLine
 10
308.0785003086827
 20
217.3913924802386
 30
0.0
 11
308.8285003086827
 21
217.3913924802386
 31
0.0
  0
LINE
  5
17A
330
56
100
AcDbEntity
  8
1
  6
Continuous
 62
     7
100
AcDbLine
 10
308.8285003086827
 20
217.3913924802386
 30
0.0
 11
309.5785003086827
 21
217.3913924802386
 31
0.0
  0
LINE
  5
17B
330
56
100
AcDbEntity
  8
1
  6
Continuous
 62
     7
100
AcDbLine
 10
93.21159818961073
 20
221.5913924802385
 30
0.0
 11
91.33659818961073
 21
222.0860410605441
 31
0.0
  0
LINE
  5
17C
330
56
100
AcDbEntity
  8
1
  6
Continuous
 62
     7
100
AcDbLine
 10
93.21159818961073
 20
221.5913924802385
 30
0.0
 11
93.21159818961073
 21
217.3913924802386
 31
0.0
  0
LINE
  5
17D
330
56
100
AcDbEntity
  8
1
  6
Continuous
 62
     2
100
AcDbLine
 10
80.46159818961073
 20
220.5208727175711
 30
0.0
 11
80.46159818961073
 21
218.7977832227924
 31
0.0
  0
LINE
  5
17E
330
56
100
AcDbEntity
  8
1
  6
Continuous
 62
     2
100
AcDbLine
 10
78.96159818961073
 20
220.8887071711674
 30
0.0
 11
78.96159818961073
 21
218.3117162662545
 31
0.0
  0
LINE
  5
17F
330
56
100
AcDbEntity
  8
1
  6
Continuous
 62
     2
100
AcDbLine
 10
77.46159818961073
 20
221.1777199561358
 30
0.0
 11
77.46159818961073
 21
217.7731015306316
 31
0.0
  0
LINE
  5
180
330
56
100
AcDbEntity
  8
1
  6
Continuous
 62
     2
100
AcDbLine
 10
75.96159818961073
 20
221.3747741277051
 30
0.0
 11
75.96159818961073
 21
217.5497734695197
 31
0.0
  0
LINE
  5
181
330
56
100
AcDbEntity
  8
1
  6
Continuous
 62
     7
100
AcDbLine
 10
72.21159818961073
 20
217.3913924802386
 30
0.0
 11
93.21159818961073
 21
217.3913924802386
 31
0.0
  0
LINE
  5
182
330
56
100
AcDbEntity
  8
1
  6
Continuous
 62
     2
100
AcDbLine
 10
74.46159818961073
 20
221.5913924802384
 30
0.0
 11
74.46159818961073
 21
217.3913924802386
 31
0.0
  0
LINE
  5
183
330
56
100
AcDbEntity
  8
1
  6
Continuous
 62
     2
100
AcDbLine
 10
72.96159818961073
 20
221.5913924802384
 30
0.0
 11
72.96159818961073
 21
217.3913924802386
 31
0.0
  0
LINE
  5
184
330
56
100
AcDbEntity
  8
1
  6
Continuous
 62
     7
100
AcDbLine
 10
72.21159818961073
 20
217.3913924802386
 30
0.0
 11
72.21159818961073
 21
221.5913924802384
 31
0.0
  0
LINE
  5
185
330
56
100
AcDbEntity
  8
1
  6
Continuous
 62
     7
100
AcDbLine
 10
72.21159818961073
 20
221.5913924802384
 30
0.0
 11
73.71159818961043
 21
221.9953757787733
 31
0.0
  0
LINE
  5
186
330
56
100
AcDbEntity
  8
1
  6
Continuous
 62
     2
100
AcDbLine
 10
73.71159818961073
 20
221.5913924802384
 30
0.0
 11
73.71159818961073
 21
217.3913924802386
 31
0.0
  0
LINE
  5
187
330
56
100
AcDbEntity
  8
1
  6
Continuous
 62
     2
100
AcDbLine
 10
75.21159818961073
 20
221.5913924802384
 30
0.0
 11
75.21159818961073
 21
217.3913924802386
 31
0.0
  0
LINE
  5
188
330
56
100
AcDbEntity
  8
1
  6
Continuous
 62
     2
100
AcDbLine
 10
76.71159818961073
 20
221.3065028675601
 30
0.0
 11
76.71159818961073
 21
217.6404649489158
 31
0.0
  0
LINE
  5
189
330
56
100
AcDbEntity
  8
1
  6
Continuous
 62
     2
100
AcDbLine
 10
78.21159818961073
 20
221.136182220747
 30
0.0
 11
78.21159818961073
 21
217.9324432005951
 31
0.0
  0
LINE
  5
18A
330
56
100
AcDbEntity
  8
1
  6
Continuous
 62
     2
100
AcDbLine
 10
79.71159818961073
 20
220.8198724480944
 30
0.0
 11
79.71159818961073
 21
218.4677366620073
 31
0.0
  0
LINE
  5
18B
330
56
100
AcDbEntity
  8
1
  6
Continuous
 62
     2
100
AcDbLine
 10
81.21159818961073
 20
220.4548996334954
 30
0.0
 11
81.21159818961073
 21
218.8570409975796
 31
0.0
  0
LINE
  5
18C
330
56
100
AcDbEntity
  8
1
  6
Continuous
 62
     7
100
AcDbLine
 10
93.21159818961073
 20
221.5913924802385
 30
0.0
 11
72.21159818961073
 21
221.5913924802384
 31
0.0
  0
ARC
  5
18D
330
56
100
AcDbEntity
  8
1
  6
Continuous
 62
     7
100
AcDbCircle
 10
317.0785003086827
 20
185.8913924802386
 30
0.0
 40
37.50000000000274
100
AcDbArc
 50
103.2970717472081
 51
103.8865403626231
  0
ARC
  5
18E
330
56
100
AcDbEntity
  8
1
  6
Continuous
 62
     7
100
AcDbCircle
 10
317.0785003086827
 20
185.8913924802386
 30
0.0
 40
37.50000000001554
100
AcDbArc
 50
76.11345963737689
 51
76.70292825279193
  0
ARC
  5
18F
330
56
100
AcDbEntity
  8
1
  6
Continuous
 62
     7
100
AcDbCircle
 10
317.0785003086827
 20
185.8913924802386
 30
0.0
 40
37.5
100
AcDbArc
 50
90.0
 51
103.2970717472081
  0
ARC
  5
190
330
56
100
AcDbEntity
  8
1
  6
Continuous
 62
     7
100
AcDbCircle
 10
317.0785003086827
 20
185.8913924802386
 30
0.0
 40
37.50000000000274
100
AcDbArc
 50
76.70292825279193
 51
90.0
  0
ARC
  5
191
330
56
100
AcDbEntity
  8
1
  6
Continuous
 62
     7
100
AcDbCircle
 10
82.71159818961073
 20
185.5913924802385
 30
0.0
 40
37.5
100
AcDbArc
 50
76.70292825279094
 51
90.0
  0
ARC
  5
192
330
56
100
AcDbEntity
  8
1
  6
Continuous
 62
     7
100
AcDbCircle
 10
82.71159818961073
 20
185.5913924802385
 30
0.0
 40
37.5
100
AcDbArc
 50
103.2970717472091
 51
103.8865403626294
  0
ARC
  5
193
330
56
100
AcDbEntity
  8
1
  6
Continuous
 62
     7
100
AcDbCircle
 10
82.71159818961073
 20
185.5913924802385
 30
0.0
 40
37.5
100
AcDbArc
 50
90.0
 51
103.2970717472091
  0
CIRCLE
  5
194
330
56
100
AcDbEntity
  8
1
  6
Continuous
 62
     7
100
AcDbCircle
 10
82.71159818961073
 20
441.6413924802391
 30
0.0
 40
10.5
  0
ENDBLK
  5
58
330
56
100
AcDbEntity
  8
0
100
AcDbBlockEnd
  0
BLOCK
  5
5A
330
59
100
AcDbEntity
  8
0
100
AcDbBlockBegin
  2
37-1-13
 70
     0
 10
259.5318343813781
 20
363.400879994145
 30
0.0
  3
37-1-13
  1

  0
LINE
  5
195
330
59
100
AcDbEntity
  8
1
  6
Continuous
 62
     7
100
AcDbLine
 10
317.0785003086827
 20
196.2859294125159
 30
0.0
 11
309.5785003086827
 21
196.2859294125159
 31
0.0
  0
LINE
  5
196
330
59
100
AcDbEntity
  8
1
  6
Continuous
 62
     7
100
AcDbLine
 10
317.0785003086827
 20
196.2859294125159
 30
0.0
 11
326.0785003086827
 21
196.2859294125159
 31
0.0
  0
LINE
  5
197
330
59
100
AcDbEntity
  8
1
  6
Continuous
 62
     7
100
AcDbLine
 10
309.5785003086827
 20
196.2859294125159
 30
0.0
 11
308.0785003086827
 21
196.2859294125159
 31
0.0
  0
LINE
  5
198
330
59
100
AcDbEntity
  8
1
  6
Continuous
 62
     7
100
AcDbLine
 10
317.0785003086827
 20
175.2859294125159
 30
0.0
 11
336.5785003086827
 21
175.2859294125159
 31
0.0
  0
LINE
  5
199
330
59
100
AcDbEntity
  8
1
  6
Continuous
 62
     7
100
AcDbLine
 10
317.0785003086827
 20
175.2859294125159
 30
0.0
 11
297.5785003086827
 21
175.2859294125159
 31
0.0
  0
LINE
  5
19A
330
59
100
AcDbEntity
  8
1
  6
Continuous
 62
     7
100
AcDbLine
 10
336.5785003086827
 20
185.8920007339332
 30
0.0
 11
336.5785003086827
 21
175.2859294125159
 31
0.0
  0
LINE
  5
19B
330
59
100
AcDbEntity
  8
1
  6
Continuous
 62
     7
100
AcDbLine
 10
297.5785003086827
 20
175.2859294125159
 30
0.0
 11
297.5785003086827
 21
185.8920007339332
 31
0.0
  0
LINE
  5
19C
330
59
100
AcDbEntity
  8
1
  6
Continuous
 62
     7
100
AcDbLine
 10
91.71146445905129
 20
196.2859294125159
 30
0.0
 11
73.71146445905129
 21
196.2859294125159
 31
0.0
  0
LINE
  5
19D
330
59
100
AcDbEntity
  8
1
  6
Continuous
 62
     7
100
AcDbLine
 10
63.10539313764419
 20
175.2859294125159
 30
0.0
 11
102.3175357804582
 21
175.2859294125159
 31
0.0
  0
LINE
  5
19E
330
59
100
AcDbEntity
  8
0
  6
Continuous
 62
     7
100
AcDbLine
 10
75.44344429070594
 20
185.8920007339232
 30
0.0
 11
69.69854024923512
 21
185.8920007339232
 31
0.0
  0
LINE
  5
19F
330
59
100
AcDbEntity
  8
0
  6
Continuous
 62
     7
100
AcDbLine
 10
95.72438866886728
 20
185.8920007339232
 30
0.0
 11
89.97948462739663
 21
185.8920007339232
 31
0.0
  0
LINE
  5
1A0
330
59
100
AcDbEntity
  8
0
  6
Continuous
 62
     7
100
AcDbLine
 10
336.0912907879384
 20
185.892000733923
 30
0.0
 11
330.3463867464677
 21
185.892000733923
 31
0.0
  0
LINE
  5
1A1
330
59
100
AcDbEntity
  8
0
  6
Continuous
 62
     7
100
AcDbLine
 10
303.8103464097771
 20
185.892000733923
 30
0.0
 11
298.0654423683062
 21
185.892000733923
 31
0.0
  0
LINE
  5
1A2
330
59
100
AcDbEntity
  8
1
  6
Continuous
 62
     7
100
AcDbLine
 10
314.0785003086816
 20
185.892000733923
 30
0.0
 11
320.0785003086817
 21
185.892000733923
 31
0.0
  0
ARC
  5
1A3
330
59
100
AcDbEntity
  8
1
  6
Continuous
 62
     7
100
AcDbCircle
 10
355.9381831163632
 20
216.3956122202075
 30
0.0
 40
36.00000000001745
100
AcDbArc
 50
213.9591925001156
 51
236.0408074999089
  0
ARC
  5
1A4
330
59
100
AcDbEntity
  8
1
  6
Continuous
 62
     7
100
AcDbCircle
 10
331.3285003086827
 20
180.5359294125159
 30
0.0
 40
7.50000000000725
100
AcDbArc
 50
45.57299599924859
 51
53.13010235415597
  0
ARC
  5
1A5
330
59
100
AcDbEntity
  8
1
  6
Continuous
 62
     7
100
AcDbCircle
 10
278.2188175010128
 20
216.3956122202075
 30
0.0
 40
36.00000000001456
100
AcDbArc
 50
303.9591925000771
 51
326.040807499875
  0
ARC
  5
1A6
330
59
100
AcDbEntity
  8
1
  6
Continuous
 62
     7
100
AcDbCircle
 10
302.8285003086827
 20
180.5359294125159
 30
0.0
 40
7.5
100
AcDbArc
 50
126.869897645844
 51
134.4270040007514
  0
ARC
  5
1A7
330
59
100
AcDbEntity
  8
1
  6
Continuous
 62
     7
100
AcDbCircle
 10
96.96146445905131
 20
180.5359294125159
 30
0.0
 40
7.499999999999821
100
AcDbArc
 50
315.5729959991929
 51
53.13010235415789
  0
ARC
  5
1A8
330
59
100
AcDbEntity
  8
1
  6
Continuous
 62
     7
100
AcDbCircle
 10
121.5711472667235
 20
216.3956122201884
 30
0.0
 40
35.99999999999992
100
AcDbArc
 50
213.9591925000978
 51
236.0408074999024
  0
ARC
  5
1A9
330
59
100
AcDbEntity
  8
1
  6
Continuous
 62
     7
100
AcDbCircle
 10
43.85178165137875
 20
216.3956122201884
 30
0.0
 40
36.00000000000026
100
AcDbArc
 50
303.9591925000978
 51
326.0408074999025
  0
ARC
  5
1AA
330
59
100
AcDbEntity
  8
1
  6
Continuous
 62
     7
100
AcDbCircle
 10
68.46146445905129
 20
180.5359294125159
 30
0.0
 40
7.499999999999915
100
AcDbArc
 50
126.8698976458431
 51
224.4270040008059
  0
SPLINE
  5
1AB
330
59
100
AcDbEntity
  8
0
  6
Continuous
 62
     7
100
AcDbSpline
210
0.0
220
0.0
230
1.0
 70
    11
 71
     3
 72
    79
 73
    75
 74
    73
 42
0.000000001
 43
0.0000000001
 44
0.00000001
 40
0.0
 40
0.0
 40
0.0
 40
0.0
 40
0.4206448018524224
 40
0.84129233583212
 40
1.264558565437543
 40
1.687832251257906
 40
2.115984947819293
 40
2.544148082483526
 40
2.978799596208729
 40
3.413462523072151
 40
3.855389847962486
 40
4.297327918536409
 40
4.746414578357802
 40
5.195510243120631
 40
5.650800745264558
 40
6.10609792413231
 40
6.565939780450419
 40
7.025785711669134
 40
7.488031813642908
 40
7.950279282573214
 40
8.412526751493022
 40
8.874772853436186
 40
9.334618784604361
 40
9.79446064085091
 40
10.24975781962611
 40
10.70504832165476
 40
11.15414398628004
 40
11.60323064593877
 40
12.0451687163264
 40
12.48709604100191
 40
12.92175896762318
 40
13.35641048107135
 40
13.78457361542123
 40
14.21272631161252
 40
14.63599999697712
 40
15.05926622591902
 40
15.47991375846866
 40
15.9005585691229
 40
16.32120337977725
 40
16.74185091232702
 40
17.16511714126883
 40
17.58839082663331
 40
18.01654352282472
 40
18.44470665717476
 40
18.87935817062283
 40
19.31402109724412
 40
19.75594842191958
 40
20.1978864923072
 40
20.64697315196596
 40
21.09606881659125
 40
21.55135931861995
 40
22.00665649739517
 40
22.4664983536417
 40
22.92634428480988
 40
23.38859038675304
 40
23.85083785567285
 40
24.3130853246031
 40
24.77533142657693
 40
25.23517735779564
 40
25.69501921411374
 40
26.15031639298153
 40
26.60560689512548
 40
27.05470255988837
 40
27.50378921970975
 40
27.94572729028362
 40
28.38765461517394
 40
28.82231754203735
 40
29.25696905576248
 40
29.68513219042686
 40
30.11328488698839
 40
30.5365585728087
 40
30.95982480241397
 40
31.38047233639375
 40
31.80111713824632
 40
31.80111713824632
 40
31.80111713824632
 40
31.80111713824632
 10
99.59895983284771
 20
185.8920007339232
 30
0.0
 10
99.7392275231783
 20
185.8880875664183
 30
0.0
 10
100.019763815073
 20
185.8802612114035
 30
0.0
 10
100.4375619233256
 20
185.8174088941531
 30
0.0
 10
100.8484914886093
 20
185.7175392268425
 30
0.0
 10
101.2504569039279
 20
185.5777528284526
 30
0.0
 10
101.6390047781989
 20
185.4003394647664
 30
0.0
 10
102.0128021946896
 20
185.1859223487799
 30
0.0
 10
102.3672180694388
 20
184.9370128057573
 30
0.0
 10
102.7014157880313
 20
184.6544334224791
 30
0.0
 10
103.0110374470924
 20
184.3416970931323
 30
0.0
 10
103.2954683322967
 20
183.9996454485029
 30
0.0
 10
103.5510067805068
 20
183.6325881518118
 30
0.0
 10
103.7770700076353
 20
183.2415560173483
 30
0.0
 10
103.9708576820857
 20
182.8312748531739
 30
0.0
 10
104.1317620818142
 20
182.4032079697211
 30
0.0
 10
104.2579656547288
 20
181.9620790941234
 30
0.0
 10
104.3489156153403
 20
181.5100051243145
 30
0.0
 10
104.4037072158393
 20
181.0513325631908
 30
0.0
 10
104.4220294707507
 20
180.5889650826419
 30
0.0
 10
104.4037072161816
 20
180.1265976020919
 30
0.0
 10
104.348915616026
 20
179.667925040951
 30
0.0
 10
104.2579656557604
 20
179.2158510711504
 30
0.0
 10
104.1317620831949
 20
178.7747221954312
 30
0.0
 10
103.9708576838206
 20
178.3466553123007
 30
0.0
 10
103.7770700097296
 20
177.9363741467649
 30
0.0
 10
103.5510067829681
 20
177.5453420171083
 30
0.0
 10
103.2954683351326
 20
177.1782847023692
 30
0.0
 10
103.0110374503135
 20
176.8362331237614
 30
0.0
 10
102.7014157916486
 20
176.5234965498304
 30
0.0
 10
102.3672180734681
 20
176.2409180645422
 30
0.0
 10
102.01280219915
 20
175.9920051979982
 30
0.0
 10
101.6390047831216
 20
175.777600307758
 30
0.0
 10
101.2504569093615
 20
175.6001416337533
 30
0.0
 10
100.8484914946811
 20
175.4605224937517
 30
0.0
 10
100.4375619303595
 20
175.3600313984108
 30
0.0
 10
100.0197638202845
 20
175.2994846323425
 30
0.0
 10
99.59895983284764
 20
175.2791518395307
 30
0.0
 10
99.17815584541083
 20
175.2994846323425
 30
0.0
 10
98.76035773533576
 20
175.3600313984107
 30
0.0
 10
98.34942817101424
 20
175.4605224937517
 30
0.0
 10
97.94746275633382
 20
175.6001416337533
 30
0.0
 10
97.55891488257362
 20
175.777600307758
 30
0.0
 10
97.18511746654518
 20
175.9920051979981
 30
0.0
 10
96.83070159222699
 20
176.2409180645421
 30
0.0
 10
96.49650387404661
 20
176.5234965498305
 30
0.0
 10
96.18688221538173
 20
176.8362331237613
 30
0.0
 10
95.90245133056267
 20
177.1782847023692
 30
0.0
 10
95.64691288272715
 20
177.5453420171084
 30
0.0
 10
95.42084965596557
 20
177.9363741467649
 30
0.0
 10
95.22706198187453
 20
178.3466553123007
 30
0.0
 10
95.06615758250013
 20
178.7747221954312
 30
0.0
 10
94.93995400993465
 20
179.2158510711504
 30
0.0
 10
94.84900404966909
 20
179.667925040951
 30
0.0
 10
94.79421244951351
 20
180.1265976020919
 30
0.0
 10
94.7758901949443
 20
180.5889650826418
 30
0.0
 10
94.7942124498558
 20
181.0513325631909
 30
0.0
 10
94.84900405035478
 20
181.5100051243145
 30
0.0
 10
94.93995401096628
 20
181.9620790941235
 30
0.0
 10
95.06615758388085
 20
182.4032079697211
 30
0.0
 10
95.22706198360943
 20
182.8312748531739
 30
0.0
 10
95.42084965805992
 20
183.2415560173483
 30
0.0
 10
95.64691288518848
 20
183.6325881518119
 30
0.0
 10
95.90245133339857
 20
183.999645448503
 30
0.0
 10
96.1868822186028
 20
184.3416970931322
 30
0.0
 10
96.49650387766394
 20
184.6544334224791
 30
0.0
 10
96.83070159625635
 20
184.9370128057574
 30
0.0
 10
97.18511747100555
 20
185.1859223487799
 30
0.0
 10
97.55891488749639
 20
185.4003394647665
 30
0.0
 10
97.94746276176737
 20
185.5777528284526
 30
0.0
 10
98.34942817708598
 20
185.7175392268424
 30
0.0
 10
98.76035774236965
 20
185.8174088941532
 30
0.0
 10
99.1781558506223
 20
185.8802612114035
 30
0.0
 10
99.45869214251711
 20
185.8880875664184
 30
0.0
 10
99.59895983284771
 20
185.8920007339232
 30
0.0
 11
99.59895983284771
 21
185.8920007339232
 31
0.0
 11
100.0191175881601
 21
185.8717641939174
 31
0.0
 11
100.4354165437201
 21
185.8114357063803
 31
0.0
 11
100.8465967273505
 21
185.7110108224117
 31
0.0
 11
101.2464579407003
 21
185.572188551347
 31
0.0
 11
101.635982727088
 21
185.3944663743217
 31
0.0
 11
102.0074409413472
 21
185.1815286725636
 31
0.0
 11
102.3632408940986
 21
184.9318722448158
 31
0.0
 11
102.695243462263
 21
184.651326072763
 31
0.0
 11
103.0062976388474
 21
184.3374071984308
 31
0.0
 11
103.2889669718942
 21
183.9976906896458
 31
0.0
 11
103.5456927349288
 21
183.6292199165844
 31
0.0
 11
103.770571481839
 21
183.2404829035714
 31
0.0
 11
103.9651400428336
 21
182.8288610912048
 31
0.0
 11
104.1254236827664
 21
182.4027100899544
 31
0.0
 11
104.2519938321296
 21
181.9606303119337
 31
0.0
 11
104.3427415701153
 21
181.5098275518031
 31
0.0
 11
104.3976131200476
 21
181.0508498052398
 31
0.0
 11
104.415922049847
 21
180.5889650732191
 31
0.0
 11
104.3976131200476
 21
180.1270803411988
 31
0.0
 11
104.3427415701153
 21
179.6681025946359
 31
0.0
 11
104.2519938321296
 21
179.2172998345053
 31
0.0
 11
104.1254236827664
 21
178.7752200564846
 31
0.0
 11
103.9651400428336
 21
178.3490690552342
 31
0.0
 11
103.770571481839
 21
177.9374472428676
 31
0.0
 11
103.5456927349287
 21
177.5487102298548
 31
0.0
 11
103.2889669718942
 21
177.1802394567935
 31
0.0
 11
103.0062976388473
 21
176.8405229480084
 31
0.0
 11
102.695243462263
 21
176.5266040736759
 31
0.0
 11
102.3632408940986
 21
176.2460579016229
 31
0.0
 11
102.0074409413472
 21
175.996401473875
 31
0.0
 11
101.635982727088
 21
175.7834637721171
 31
0.0
 11
101.2464579407003
 21
175.605741595092
 31
0.0
 11
100.8465967273504
 21
175.4669193240269
 31
0.0
 11
100.4354165437201
 21
175.3664944400583
 31
0.0
 11
100.0191175881601
 21
175.3061659525216
 31
0.0
 11
99.59895983284771
 21
175.2859294125159
 31
0.0
 11
99.17880207753517
 21
175.3061659525215
 31
0.0
 11
98.7625031219751
 21
175.3664944400583
 31
0.0
 11
98.35132293834491
 21
175.466919324027
 31
0.0
 11
97.95146172499511
 21
175.605741595092
 31
0.0
 11
97.56193693860723
 21
175.7834637721171
 31
0.0
 11
97.19047872434788
 21
175.996401473875
 31
0.0
 11
96.83467877159654
 21
176.2460579016228
 31
0.0
 11
96.5026762034322
 21
176.5266040736759
 31
0.0
 11
96.1916220268479
 21
176.8405229480083
 31
0.0
 11
95.9089526938011
 21
177.1802394567935
 31
0.0
 11
95.65222693076653
 21
177.5487102298548
 31
0.0
 11
95.42734818385621
 21
177.9374472428676
 31
0.0
 11
95.23277962286153
 21
178.3490690552342
 31
0.0
 11
95.07249598292864
 21
178.7752200564846
 31
0.0
 11
94.94592583356544
 21
179.2172998345053
 31
0.0
 11
94.85517809557979
 21
179.6681025946359
 31
0.0
 11
94.80030654564754
 21
180.1270803411988
 31
0.0
 11
94.7819976158481
 21
180.5889650732191
 31
0.0
 11
94.80030654564752
 21
181.0508498052397
 31
0.0
 11
94.85517809557979
 21
181.5098275518031
 31
0.0
 11
94.94592583356543
 21
181.9606303119337
 31
0.0
 11
95.07249598292864
 21
182.4027100899544
 31
0.0
 11
95.23277962286154
 21
182.8288610912048
 31
0.0
 11
95.42734818385621
 21
183.2404829035714
 31
0.0
 11
95.65222693076652
 21
183.6292199165844
 31
0.0
 11
95.9089526938011
 21
183.9976906896458
 31
0.0
 11
96.19162202684785
 21
184.3374071984308
 31
0.0
 11
96.5026762034322
 21
184.651326072763
 31
0.0
 11
96.8346787715966
 21
184.9318722448158
 31
0.0
 11
97.19047872434788
 21
185.1815286725636
 31
0.0
 11
97.56193693860723
 21
185.3944663743218
 31
0.0
 11
97.95146172499511
 21
185.572188551347
 31
0.0
 11
98.3513229383449
 21
185.7110108224117
 31
0.0
 11
98.7625031219751
 21
185.8114357063803
 31
0.0
 11
99.1788020775352
 21
185.8717641939174
 31
0.0
 11
99.59895983284771
 21
185.8920007339232
 31
0.0
  0
SPLINE
  5
1AC
330
59
100
AcDbEntity
  8
0
  6
Continuous
 62
     7
100
AcDbSpline
210
0.0
220
0.0
230
1.0
 70
    11
 71
     3
 72
    79
 73
    75
 74
    73
 42
0.000000001
 43
0.0000000001
 44
0.00000001
 40
0.0
 40
0.0
 40
0.0
 40
0.0
 40
0.4675050734876545
 40
0.935202906636882
 40
1.432759742651026
 40
1.930588285815505
 40
2.480377267848491
 40
3.030301637164329
 40
3.643496857905234
 40
4.256764562198974
 40
4.934936746090182
 40
5.613150184513659
 40
6.350620718135341
 40
7.088116581113875
 40
7.874057681995511
 40
8.660014139846457
 40
9.480086927856252
 40
10.30016801901619
 40
11.13783776182714
 40
11.97551013591254
 40
12.81318250999951
 40
13.65085225281484
 40
14.47093334398087
 40
15.29100613199658
 40
16.0769625898503
 40
16.86290369072797
 40
17.60039955369147
 40
18.33787008728014
 40
19.01608352564841
 40
19.69425570944876
 40
20.30752341361452
 40
20.92071863416448
 40
21.47064300322952
 40
22.02043198490141
 40
22.51826052758219
 40
23.0158173627877
 40
23.48351519373329
 40
23.95102027373565
 40
24.41852535373844
 40
24.88622318468443
 40
25.38378001988995
 40
25.88160856257073
 40
26.43139754424256
 40
26.98132191330762
 40
27.59451713385772
 40
28.20778483802353
 40
28.88595702182377
 40
29.56417046019197
 40
30.30164099378058
 40
31.03913685674403
 40
31.82507795762176
 40
32.61103441547553
 40
33.43110720349119
 40
34.2511882946572
 40
35.08885803747258
 40
35.92653041155953
 40
36.76420278564492
 40
37.60187252845591
 40
38.42195361961583
 40
39.24202640762558
 40
40.02798286547657
 40
40.81392396635827
 40
41.55141982933674
 40
42.28889036295838
 40
42.96710380138174
 40
43.6452759852729
 40
44.25854368956671
 40
44.87173891030772
 40
45.42166327962355
 40
45.97145226165652
 40
46.46928080482098
 40
46.96683764083514
 40
47.43453547398475
 40
47.90204054747285
 40
47.90204054747285
 40
47.90204054747285
 40
47.90204054747285
 10
73.0775400250524
 20
180.5889650732191
 30
0.0
 10
73.08497303713834
 20
180.4329862519446
 30
0.0
 10
73.09984211598123
 20
180.1209642961814
 30
0.0
 10
73.21626147842082
 20
179.6548531281258
 30
0.0
 10
73.40013144131237
 20
179.2017038410458
 30
0.0
 10
73.65907700831316
 20
178.7547001989545
 30
0.0
 10
73.98195311201349
 20
178.3296089794646
 30
0.0
 10
74.37689049643738
 20
177.9158858267042
 30
0.0
 10
74.82703799039923
 20
177.5297325023598
 30
0.0
 10
75.34484118536473
 20
177.1611541080819
 30
0.0
 10
75.90909350058608
 20
176.8241264241377
 30
0.0
 10
76.53355717317916
 20
176.5111916973056
 30
0.0
 10
77.19567784928972
 20
176.2328383138862
 30
0.0
 10
77.9076933753004
 20
175.984553178543
 30
0.0
 10
78.6483387116989
 20
175.7731711489244
 30
0.0
 10
79.42626381958287
 20
175.5967107478784
 30
0.0
 10
80.2234910327524
 20
175.4588198678863
 30
0.0
 10
81.0437402033098
 20
175.3592380932657
 30
0.0
 10
81.8737109592975
 20
175.2992352012794
 30
0.0
 10
82.71146444909195
 20
175.2792765089791
 30
0.0
 10
83.54921793887682
 20
175.2992352013503
 30
0.0
 10
84.37918869489147
 20
175.3592380934022
 30
0.0
 10
85.19943786534768
 20
175.4588198680772
 30
0.0
 10
85.99666507888077
 20
175.5967107481072
 30
0.0
 10
86.77459018545304
 20
175.7731711491689
 30
0.0
 10
87.5152355265916
 20
175.9845531787752
 30
0.0
 10
88.22725103594165
 20
176.2328383140716
 30
0.0
 10
88.88937177172834
 20
176.5111916974054
 30
0.0
 10
89.51383523864804
 20
176.8241264241025
 30
0.0
 10
90.07808828352702
 20
177.1611541078617
 30
0.0
 10
90.59588900314878
 20
177.5297325018877
 30
0.0
 10
91.04604522222303
 20
177.9158858259159
 30
0.0
 10
91.44095323444995
 20
178.3296089782673
 30
0.0
 10
91.7639329683224
 20
178.7547001972499
 30
0.0
 10
92.02252651456286
 20
179.2017038386417
 30
0.0
 10
92.2076556498921
 20
179.6548531244212
 30
0.0
 10
92.31964391278632
 20
180.1209642932733
 30
0.0
 10
92.3582587150853
 20
180.5889650732192
 30
0.0
 10
92.31964391278638
 20
181.0569658531654
 30
0.0
 10
92.20765564989219
 20
181.5230770220177
 30
0.0
 10
92.02252651456291
 20
181.9762263077973
 30
0.0
 10
91.76393296832242
 20
182.4232299491891
 30
0.0
 10
91.44095323444989
 20
182.8483211681717
 30
0.0
 10
91.04604522222297
 20
183.2620443205232
 30
0.0
 10
90.59588900314887
 20
183.6481976445515
 30
0.0
 10
90.07808828352708
 20
184.0167760385775
 30
0.0
 10
89.51383523864811
 20
184.3538037223367
 30
0.0
 10
88.8893717717283
 20
184.6667384490335
 30
0.0
 10
88.22725103594166
 20
184.9450918323672
 30
0.0
 10
87.5152355265915
 20
185.1933769676633
 30
0.0
 10
86.7745901854531
 20
185.40475899727
 30
0.0
 10
85.9966650788808
 20
185.5812193983319
 30
0.0
 10
85.19943786534765
 20
185.7191102783616
 30
0.0
 10
84.37918869489147
 20
185.8186920530363
 30
0.0
 10
83.54921793887681
 20
185.8786949450886
 30
0.0
 10
82.71146444909195
 20
185.8986536374601
 30
0.0
 10
81.87371095929751
 20
185.8786949451596
 30
0.0
 10
81.0437402033098
 20
185.8186920531727
 30
0.0
 10
80.22349103275242
 20
185.7191102785526
 30
0.0
 10
79.42626381958284
 20
185.5812193985606
 30
0.0
 10
78.64833871169887
 20
185.4047589975145
 30
0.0
 10
77.90769337530047
 20
185.1933769678955
 30
0.0
 10
77.19567784928975
 20
184.9450918325526
 30
0.0
 10
76.53355717317919
 20
184.6667384491332
 30
0.0
 10
75.90909350058601
 20
184.3538037223017
 30
0.0
 10
75.34484118536467
 20
184.0167760383573
 30
0.0
 10
74.82703799039922
 20
183.6481976440794
 30
0.0
 10
74.37689049643743
 20
183.2620443197348
 30
0.0
 10
73.98195311201351
 20
182.8483211669744
 30
0.0
 10
73.65907700831318
 20
182.4232299474845
 30
0.0
 10
73.4001314413123
 20
181.9762263053932
 30
0.0
 10
73.21626147842079
 20
181.5230770183132
 30
0.0
 10
73.09984211598113
 20
181.0569658502571
 30
0.0
 10
73.08497303713831
 20
180.7449438944938
 30
0.0
 10
73.0775400250524
 20
180.5889650732191
 30
0.0
 11
73.0775400250524
 21
180.5889650732191
 31
0.0
 11
73.11511304582712
 21
180.1229722963933
 31
0.0
 11
73.22390098451535
 21
179.6681025946359
 31
0.0
 11
73.4105208766071
 21
179.2068696597252
 31
0.0
 11
73.65853675921332
 21
178.7752200564846
 31
0.0
 11
73.98974754955435
 21
178.336395106391
 31
0.0
 11
74.36824116106874
 21
177.9374472428676
 31
0.0
 11
74.83267866336473
 21
177.5370646944987
 31
0.0
 11
75.3314501809584
 21
177.1802394567935
 31
0.0
 11
75.91307033483423
 21
176.8314766326098
 31
0.0
 11
76.51889720022044
 21
176.5266040736759
 31
0.0
 11
77.19840469603622
 21
176.2400166506012
 31
0.0
 11
77.89450224205183
 21
175.996401473875
 31
0.0
 11
78.65010751353714
 21
175.7801514154773
 31
0.0
 11
79.41646824334617
 21
175.605741595092
 31
0.0
 11
80.22448597250381
 21
175.4656461740218
 31
0.0
 11
81.03855103730655
 21
175.3664944400583
 31
0.0
 11
81.87403208000654
 21
175.3059797698592
 31
0.0
 11
82.71146445905129
 21
175.2859294125159
 31
0.0
 11
83.54889683809597
 21
175.3059797698592
 31
0.0
 11
84.38437788079588
 21
175.3664944400583
 31
0.0
 11
85.19844294559863
 21
175.4656461740218
 31
0.0
 11
86.00646067475626
 21
175.605741595092
 31
0.0
 11
86.77282140456529
 21
175.7801514154773
 31
0.0
 11
87.5284266760506
 21
175.996401473875
 31
0.0
 11
88.22452422206621
 21
176.2400166506011
 31
0.0
 11
88.90403171788199
 21
176.5266040736759
 31
0.0
 11
89.50985858326818
 21
176.8314766326098
 31
0.0
 11
90.09147873714404
 21
177.1802394567935
 31
0.0
 11
90.59025025473781
 21
177.5370646944987
 31
0.0
 11
91.05468775703385
 21
177.9374472428676
 31
0.0
 11
91.43318136854808
 21
178.336395106391
 31
0.0
 11
91.76439215888895
 21
178.7752200564846
 31
0.0
 11
92.01240804149515
 21
179.2068696597252
 31
0.0
 11
92.19902793358693
 21
179.6681025946359
 31
0.0
 11
92.30781587227526
 21
180.1229722963933
 31
0.0
 11
92.34538889305003
 21
180.5889650732191
 31
0.0
 11
92.30781587227531
 21
181.0549578500454
 31
0.0
 11
92.19902793358693
 21
181.5098275518031
 31
0.0
 11
92.01240804149518
 21
181.9710604867139
 31
0.0
 11
91.76439215888895
 21
182.4027100899544
 31
0.0
 11
91.43318136854808
 21
182.841535040048
 31
0.0
 11
91.05468775703385
 21
183.2404829035714
 31
0.0
 11
90.59025025473782
 21
183.6408654519406
 31
0.0
 11
90.09147873714404
 21
183.9976906896458
 31
0.0
 11
89.50985858326823
 21
184.3464535138293
 31
0.0
 11
88.90403171788199
 21
184.651326072763
 31
0.0
 11
88.2245242220662
 21
184.9379134958376
 31
0.0
 11
87.5284266760506
 21
185.1815286725636
 31
0.0
 11
86.77282140456529
 21
185.3977787309615
 31
0.0
 11
86.00646067475626
 21
185.572188551347
 31
0.0
 11
85.19844294559863
 21
185.712283972417
 31
0.0
 11
84.38437788079588
 21
185.8114357063803
 31
0.0
 11
83.54889683809594
 21
185.8719503765797
 31
0.0
 11
82.71146445905129
 21
185.8920007339232
 31
0.0
 11
81.87403208000656
 21
185.8719503765797
 31
0.0
 11
81.03855103730655
 21
185.8114357063803
 31
0.0
 11
80.2244859725038
 21
185.7122839724171
 31
0.0
 11
79.41646824334617
 21
185.572188551347
 31
0.0
 11
78.65010751353714
 21
185.3977787309615
 31
0.0
 11
77.89450224205183
 21
185.1815286725636
 31
0.0
 11
77.19840469603625
 21
184.9379134958376
 31
0.0
 11
76.51889720022044
 21
184.651326072763
 31
0.0
 11
75.9130703348342
 21
184.3464535138294
 31
0.0
 11
75.3314501809584
 21
183.9976906896458
 31
0.0
 11
74.8326786633647
 21
183.6408654519405
 31
0.0
 11
74.36824116106874
 21
183.2404829035714
 31
0.0
 11
73.98974754955437
 21
182.841535040048
 31
0.0
 11
73.65853675921332
 21
182.4027100899544
 31
0.0
 11
73.41052087660708
 21
181.9710604867139
 31
0.0
 11
73.22390098451535
 21
181.5098275518031
 31
0.0
 11
73.11511304582704
 21
181.0549578500454
 31
0.0
 11
73.0775400250524
 21
180.5889650732191
 31
0.0
  0
SPLINE
  5
1AD
330
59
100
AcDbEntity
  8
0
  6
Continuous
 62
     7
100
AcDbSpline
210
0.0
220
0.0
230
1.0
 70
    11
 71
     3
 72
    79
 73
    75
 74
    73
 42
0.000000001
 43
0.0000000001
 44
0.00000001
 40
0.0
 40
0.0
 40
0.0
 40
0.0
 40
0.4206448018524792
 40
0.8412923358321909
 40
1.264558565437531
 40
1.68783225125788
 40
2.115984947819429
 40
2.544148082483803
 40
2.978799596209035
 40
3.413462523072474
 40
3.855389847962704
 40
4.297327918536562
 40
4.746414578358019
 40
5.195510243120841
 40
5.65080074526475
 40
6.106097924132515
 40
6.565939780450639
 40
7.025785711669365
 40
7.488031813643128
 40
7.950279282573431
 40
8.412526751493237
 40
8.874772853436392
 40
9.334618784604578
 40
9.794460640851137
 40
10.24975781962633
 40
10.70504832165498
 40
11.15414398628029
 40
11.60323064593907
 40
12.0451687163266
 40
12.48709604100203
 40
12.92175896762336
 40
13.35641048107152
 40
13.78457361542159
 40
14.21272631161299
 40
14.63599999697754
 40
15.05926622591939
 40
15.47991375846908
 40
15.90055856912335
 40
16.32120337977753
 40
16.74185091232714
 40
17.16511714126893
 40
17.58839082663338
 40
18.01654352282486
 40
18.44470665717499
 40
18.87935817062305
 40
19.31402109724436
 40
19.75594842191983
 40
20.19788649230744
 40
20.64697315196616
 40
21.09606881659142
 40
21.55135931862009
 40
22.00665649739533
 40
22.46649835364192
 40
22.92634428481011
 40
23.38859038675326
 40
23.85083785567306
 40
24.31308532460333
 40
24.77533142657711
 40
25.23517735779587
 40
25.695019214114
 40
26.1503163929818
 40
26.60560689512573
 40
27.05470255988858
 40
27.50378921970993
 40
27.94572729028381
 40
28.38765461517412
 40
28.82231754203752
 40
29.25696905576267
 40
29.68513219042713
 40
30.11328488698873
 40
30.53655857280901
 40
30.95982480241427
 40
31.38047233639389
 40
31.80111713824629
 40
31.80111713824629
 40
31.80111713824629
 40
31.80111713824629
 10
65.8239690852549
 20
185.8920007339232
 30
0.0
 10
65.68370139492431
 20
185.8880875664184
 30
0.0
 10
65.40316510302961
 20
185.8802612114035
 30
0.0
 10
64.98536699477691
 20
185.8174088941531
 30
0.0
 10
64.57443742949329
 20
185.7175392268425
 30
0.0
 10
64.17247201417462
 20
185.5777528284526
 30
0.0
 10
63.7839241399036
 20
185.4003394647664
 30
0.0
 10
63.41012672341274
 20
185.1859223487798
 30
0.0
 10
63.05571084866349
 20
184.9370128057573
 30
0.0
 10
62.72151313007098
 20
184.6544334224792
 30
0.0
 10
62.41189147100997
 20
184.3416970931322
 30
0.0
 10
62.12746058580574
 20
183.9996454485029
 30
0.0
 10
61.87192213759572
 20
183.6325881518117
 30
0.0
 10
61.64585891046703
 20
183.2415560173484
 30
0.0
 10
61.45207123601675
 20
182.8312748531739
 30
0.0
 10
61.29116683628824
 20
182.4032079697211
 30
0.0
 10
61.16496326337353
 20
181.9620790941234
 30
0.0
 10
61.07401330276197
 20
181.5100051243145
 30
0.0
 10
61.019221702263
 20
181.0513325631908
 30
0.0
 10
61.00089944735173
 20
180.5889650826419
 30
0.0
 10
61.01922170192073
 20
180.1265976020919
 30
0.0
 10
61.07401330207627
 20
179.667925040951
 30
0.0
 10
61.1649632623419
 20
179.2158510711504
 30
0.0
 10
61.29116683490749
 20
178.7747221954312
 30
0.0
 10
61.45207123428179
 20
178.3466553123008
 30
0.0
 10
61.64585890837269
 20
177.9363741467649
 30
0.0
 10
61.87192213513434
 20
177.5453420171083
 30
0.0
 10
62.12746058296987
 20
177.1782847023693
 30
0.0
 10
62.41189146778888
 20
176.8362331237614
 30
0.0
 10
62.72151312645362
 20
176.5234965498303
 30
0.0
 10
63.05571084463413
 20
176.2409180645421
 30
0.0
 10
63.41012671895238
 20
175.9920051979981
 30
0.0
 10
63.78392413498086
 20
175.777600307758
 30
0.0
 10
64.1724720087411
 20
175.6001416337534
 30
0.0
 10
64.5744374234215
 20
175.4605224937517
 30
0.0
 10
64.98536698774308
 20
175.3600313984107
 30
0.0
 10
65.40316509781809
 20
175.2994846323425
 30
0.0
 10
65.82396908525489
 20
175.2791518395308
 30
0.0
 10
66.24477307269161
 20
175.2994846323424
 30
0.0
 10
66.66257118276658
 20
175.3600313984108
 30
0.0
 10
67.07350074708803
 20
175.4605224937517
 30
0.0
 10
67.47546616176842
 20
175.6001416337534
 30
0.0
 10
67.86401403552873
 20
175.7776003077579
 30
0.0
 10
68.23781145155722
 20
175.9920051979982
 30
0.0
 10
68.59222732587543
 20
176.240918064542
 30
0.0
 10
68.92642504405583
 20
176.5234965498305
 30
0.0
 10
69.23604670272069
 20
176.8362331237613
 30
0.0
 10
69.52047758753977
 20
177.1782847023693
 30
0.0
 10
69.7760160353752
 20
177.5453420171084
 30
0.0
 10
70.00207926213677
 20
177.9363741467649
 30
0.0
 10
70.1958669362277
 20
178.3466553123007
 30
0.0
 10
70.3567713356021
 20
178.7747221954312
 30
0.0
 10
70.48297490816783
 20
179.2158510711504
 30
0.0
 10
70.57392486843356
 20
179.667925040951
 30
0.0
 10
70.62871646858892
 20
180.1265976020919
 30
0.0
 10
70.6470387231579
 20
180.5889650826419
 30
0.0
 10
70.62871646824662
 20
181.0513325631908
 30
0.0
 10
70.57392486774788
 20
181.5100051243146
 30
0.0
 10
70.4829749071362
 20
181.9620790941235
 30
0.0
 10
70.3567713342214
 20
182.4032079697211
 30
0.0
 10
70.19586693449278
 20
182.8312748531739
 30
0.0
 10
70.00207926004236
 20
183.2415560173483
 30
0.0
 10
69.7760160329139
 20
183.6325881518118
 30
0.0
 10
69.52047758470385
 20
183.9996454485029
 30
0.0
 10
69.2360466994996
 20
184.3416970931323
 30
0.0
 10
68.9264250404385
 20
184.6544334224791
 30
0.0
 10
68.59222732184611
 20
184.9370128057574
 30
0.0
 10
68.23781144709682
 20
185.1859223487799
 30
0.0
 10
67.86401403060597
 20
185.4003394647664
 30
0.0
 10
67.47546615633489
 20
185.5777528284526
 30
0.0
 10
67.07350074101626
 20
185.7175392268425
 30
0.0
 10
66.66257117573274
 20
185.8174088941531
 30
0.0
 10
66.24477306748011
 20
185.8802612114035
 30
0.0
 10
65.96423677558545
 20
185.8880875664183
 30
0.0
 10
65.8239690852549
 20
185.8920007339232
 30
0.0
 11
65.8239690852549
 21
185.8920007339232
 31
0.0
 11
65.40381132994247
 21
185.8717641939174
 31
0.0
 11
64.98751237438245
 21
185.8114357063803
 31
0.0
 11
64.57633219075217
 21
185.7110108224117
 31
0.0
 11
64.17647097740235
 21
185.572188551347
 31
0.0
 11
63.78694619101447
 21
185.3944663743217
 31
0.0
 11
63.4154879767551
 21
185.1815286725636
 31
0.0
 11
63.05968802400371
 21
184.9318722448158
 31
0.0
 11
62.72768545583925
 21
184.651326072763
 31
0.0
 11
62.416631279255
 21
184.3374071984308
 31
0.0
 11
62.1339619462083
 21
183.9976906896458
 31
0.0
 11
61.87723618317371
 21
183.6292199165843
 31
0.0
 11
61.65235743626338
 21
183.2404829035714
 31
0.0
 11
61.45778887526882
 21
182.8288610912048
 31
0.0
 11
61.29750523533599
 21
182.4027100899544
 31
0.0
 11
61.17093508597269
 21
181.9606303119337
 31
0.0
 11
61.08018734798698
 21
181.5098275518031
 31
0.0
 11
61.02531579805476
 21
181.0508498052398
 31
0.0
 11
61.00700686825543
 21
180.5889650732191
 31
0.0
 11
61.0253157980548
 21
180.1270803411988
 31
0.0
 11
61.08018734798698
 21
179.6681025946359
 31
0.0
 11
61.1709350859727
 21
179.2172998345053
 31
0.0
 11
61.29750523533599
 21
178.7752200564846
 31
0.0
 11
61.4577888752688
 21
178.3490690552342
 31
0.0
 11
61.65235743626338
 21
177.9374472428676
 31
0.0
 11
61.87723618317372
 21
177.5487102298548
 31
0.0
 11
62.1339619462083
 21
177.1802394567935
 31
0.0
 11
62.41663127925502
 21
176.8405229480084
 31
0.0
 11
62.72768545583925
 21
176.5266040736759
 31
0.0
 11
63.05968802400367
 21
176.2460579016228
 31
0.0
 11
63.4154879767551
 21
175.996401473875
 31
0.0
 11
63.78694619101447
 21
175.7834637721171
 31
0.0
 11
64.17647097740235
 21
175.605741595092
 31
0.0
 11
64.5763321907522
 21
175.466919324027
 31
0.0
 11
64.98751237438245
 21
175.3664944400583
 31
0.0
 11
65.40381132994244
 21
175.3061659525216
 31
0.0
 11
65.8239690852549
 21
175.2859294125159
 31
0.0
 11
66.24412684056728
 21
175.3061659525215
 31
0.0
 11
66.66042579612719
 21
175.3664944400583
 31
0.0
 11
67.07160597975736
 21
175.466919324027
 31
0.0
 11
67.47146719310713
 21
175.605741595092
 31
0.0
 11
67.8609919794951
 21
175.7834637721171
 31
0.0
 11
68.23245019375453
 21
175.996401473875
 31
0.0
 11
68.58825014650587
 21
176.2460579016228
 31
0.0
 11
68.92025271467023
 21
176.5266040736759
 31
0.0
 11
69.23130689125455
 21
176.8405229480083
 31
0.0
 11
69.51397622430133
 21
177.1802394567935
 31
0.0
 11
69.77070198733583
 21
177.5487102298548
 31
0.0
 11
69.99558073424609
 21
177.9374472428676
 31
0.0
 11
70.19014929524072
 21
178.3490690552342
 31
0.0
 11
70.35043293517363
 21
178.7752200564846
 31
0.0
 11
70.47700308453703
 21
179.2172998345053
 31
0.0
 11
70.5677508225228
 21
179.6681025946359
 31
0.0
 11
70.6226223724549
 21
180.1270803411988
 31
0.0
 11
70.64093130225419
 21
180.5889650732191
 31
0.0
 11
70.62262237245491
 21
181.0508498052397
 31
0.0
 11
70.5677508225228
 21
181.5098275518031
 31
0.0
 11
70.47700308453705
 21
181.9606303119337
 31
0.0
 11
70.35043293517363
 21
182.4027100899544
 31
0.0
 11
70.1901492952407
 21
182.8288610912048
 31
0.0
 11
69.99558073424609
 21
183.2404829035714
 31
0.0
 11
69.77070198733587
 21
183.6292199165844
 31
0.0
 11
69.51397622430133
 21
183.9976906896458
 31
0.0
 11
69.23130689125456
 21
184.3374071984308
 31
0.0
 11
68.92025271467023
 21
184.651326072763
 31
0.0
 11
68.58825014650584
 21
184.9318722448158
 31
0.0
 11
68.23245019375453
 21
185.1815286725636
 31
0.0
 11
67.8609919794951
 21
185.3944663743218
 31
0.0
 11
67.47146719310713
 21
185.572188551347
 31
0.0
 11
67.07160597975738
 21
185.7110108224117
 31
0.0
 11
66.66042579612719
 21
185.8114357063803
 31
0.0
 11
66.24412684056726
 21
185.8717641939174
 31
0.0
 11
65.8239690852549
 21
185.8920007339232
 31
0.0
  0
SPLINE
  5
1AE
330
59
100
AcDbEntity
  8
1
  6
Continuous
 62
     7
100
AcDbSpline
210
0.0
220
0.0
230
1.0
 70
    11
 71
     3
 72
    79
 73
    75
 74
    73
 42
0.000000001
 43
0.0000000001
 44
0.00000001
 40
0.0
 40
0.0
 40
0.0
 40
0.0
 40
0.4653923412107799
 40
0.9308393160444783
 40
1.413324448889119
 40
1.895917311544427
 40
2.409058533555789
 40
2.922290205562123
 40
3.474077829927246
 40
4.025926574460752
 40
4.61862699818687
 40
5.211367172304022
 40
5.842346940839105
 40
6.473352313258707
 40
7.136178192118226
 40
7.799020013375479
 40
8.484531244993164
 40
9.17005122000042
 40
9.867334558615063
 40
10.56462068578277
 40
11.26190681294832
 40
11.95919015155615
 40
12.64471012655123
 40
13.33022135814937
 40
13.99306317937831
 40
14.6558890581968
 40
15.286894430561
 40
15.91787419901895
 40
16.51061437303658
 40
17.10331479662777
 40
17.65516354099295
 40
18.20695116513442
 40
18.72018283686503
 40
19.23332405850837
 40
19.71591692068152
 40
20.19840205274238
 40
20.66384902553444
 40
21.12924137435096
 40
21.5946337231784
 40
22.06008069598133
 40
22.54256582804219
 40
23.02515869021534
 40
23.53829991185868
 40
24.05153158358923
 40
24.60331920773057
 40
25.15516795209589
 40
25.74786837568748
 40
26.34060854970486
 40
26.97158831815778
 40
27.60259369051775
 40
28.26541956933657
 40
28.92826139056508
 40
29.61377262216269
 40
30.29929259715821
 40
30.99657593576728
 40
31.69386206293296
 40
32.39114819010075
 40
33.08843152871668
 40
33.77395150372433
 40
34.45946273534153
 40
35.12230455659831
 40
35.78513043545821
 40
36.41613580787359
 40
37.04711557640363
 40
37.63985575052068
 40
38.23255617424706
 40
38.78440491878072
 40
39.33619254314571
 40
39.84942421515191
 40
40.36256543716335
 40
40.84515829981866
 40
41.32764343266331
 40
41.79309040750786
 40
42.25848274872958
 40
42.25848274872958
 40
42.25848274872958
 40
42.25848274872958
 10
315.6717236066728
 20
180.5889650732354
 30
0.0
 10
315.6656738190472
 20
180.7442003474105
 30
0.0
 10
315.6535735418655
 20
181.0546891196797
 30
0.0
 10
315.5575975750718
 20
181.5179624223434
 30
0.0
 10
315.4054663802999
 20
181.9709127923992
 30
0.0
 10
315.1918326301229
 20
182.4162772762881
 30
0.0
 10
314.9231787709051
 20
182.8427544386336
 30
0.0
 10
314.5962233690722
 20
183.256006007924
 30
0.0
 10
314.2208001379835
 20
183.643915038805
 30
0.0
 10
313.7911068952979
 20
184.0125518731211
 30
0.0
 10
313.3203607668431
 20
184.3510197633232
 30
0.0
 10
312.80148951928
 20
184.6641772650795
 30
0.0
 10
312.2493113310462
 20
184.9435084174337
 30
0.0
 10
311.6572704286654
 20
185.1920352129138
 30
0.0
 10
311.0399406287001
 20
185.403996872152
 30
0.0
 10
310.3928020793016
 20
185.5806661049815
 30
0.0
 10
309.7286410362307
 20
185.7188435574146
 30
0.0
 10
309.0460540383359
 20
185.8185724484814
 30
0.0
 10
308.35490338521
 20
185.8786587838216
 30
0.0
 10
307.6575201220599
 20
185.898671719741
 30
0.0
 10
306.9601368589156
 20
185.8786587839001
 30
0.0
 10
306.2689862057724
 20
185.8185724486425
 30
0.0
 10
305.58639920794
 20
185.7188435576673
 30
0.0
 10
304.9222381646383
 20
185.5806661053377
 30
0.0
 10
304.2750996160696
 20
185.4039968726299
 30
0.0
 10
303.6577698130662
 20
185.1920352135334
 30
0.0
 10
303.0657289214808
 20
184.9435084182227
 30
0.0
 10
302.513550694146
 20
184.664177266066
 30
0.0
 10
301.9946795840047
 20
184.351019764545
 30
0.0
 10
301.5239329610883
 20
184.0125518746147
 30
0.0
 10
301.0942414423717
 20
183.6439150406204
 30
0.0
 10
300.7188120237571
 20
183.2560060101089
 30
0.0
 10
300.3918781767434
 20
182.8427544412584
 30
0.0
 10
300.1231467061327
 20
182.4162772794337
 30
0.0
 10
299.9097861790489
 20
181.9709127962481
 30
0.0
 10
299.7566607009874
 20
181.5179624274169
 30
0.0
 10
299.6642708410962
 20
181.0546891236283
 30
0.0
 10
299.6328401359038
 20
180.5889650732318
 30
0.0
 10
299.6642708410943
 20
180.1232410228315
 30
0.0
 10
299.7566607009862
 20
179.6599677190355
 30
0.0
 10
299.909786179049
 20
179.207017350201
 30
0.0
 10
300.1231467061327
 20
178.7616528670153
 30
0.0
 10
300.3918781767433
 20
178.3351757051907
 30
0.0
 10
300.7188120237571
 20
177.9219241363401
 30
0.0
 10
301.094241442372
 20
177.5340151058291
 30
0.0
 10
301.5239329610887
 20
177.1653782718346
 30
0.0
 10
301.9946795840034
 20
176.8269103819019
 30
0.0
 10
302.513550694144
 20
176.5137528803823
 30
0.0
 10
303.0657289214813
 20
176.2344217282374
 30
0.0
 10
303.6577698130685
 20
175.9858949329391
 30
0.0
 10
304.2750996160702
 20
175.7739332738429
 30
0.0
 10
304.9222381646379
 20
175.5972640411322
 30
0.0
 10
305.5863992079404
 20
175.4590865888064
 30
0.0
 10
306.2689862057729
 20
175.3593576978308
 30
0.0
 10
306.960136858915
 20
175.2992713625572
 30
0.0
 10
307.6575201220599
 20
175.279258426704
 30
0.0
 10
308.3549033852104
 20
175.2992713626356
 30
0.0
 10
309.0460540383354
 20
175.359357697992
 30
0.0
 10
309.7286410362304
 20
175.4590865890591
 30
0.0
 10
310.3928020793016
 20
175.5972640414884
 30
0.0
 10
311.0399406286996
 20
175.7739332743209
 30
0.0
 10
311.657270428663
 20
175.9858949335587
 30
0.0
 10
312.2493113310458
 20
176.2344217290264
 30
0.0
 10
312.801489519282
 20
176.5137528813689
 30
0.0
 10
313.3203607668446
 20
176.8269103831236
 30
0.0
 10
313.7911068952975
 20
177.1653782733283
 30
0.0
 10
314.2208001379832
 20
177.5340151076444
 30
0.0
 10
314.5962233690722
 20
177.921924138525
 30
0.0
 10
314.9231787709051
 20
178.3351757078154
 30
0.0
 10
315.1918326301229
 20
178.7616528701608
 30
0.0
 10
315.4054663803
 20
179.2070173540497
 30
0.0
 10
315.5575975750728
 20
179.659967724109
 30
0.0
 10
315.6535735418675
 20
180.1232410267801
 30
0.0
 10
315.6656738190479
 20
180.4337297990566
 30
0.0
 10
315.6717236066728
 20
180.5889650732354
 30
0.0
 11
315.6717236066728
 21
180.5889650732354
 31
0.0
 11
315.6407979668675
 21
181.053328770436
 31
0.0
 11
315.5499698477657
 21
181.5098275518106
 31
0.0
 11
315.3962695148172
 21
181.967176554702
 31
0.0
 11
315.1884079974266
 21
182.402710089955
 31
0.0
 11
314.9157199308925
 21
182.8373997859925
 31
0.0
 11
314.5980239295101
 21
183.2404829035734
 31
0.0
 11
314.2149891640978
 21
183.6376654192319
 31
0.0
 11
313.7967561651607
 21
183.9976906896557
 31
0.0
 11
313.316018273722
 21
184.3443675881392
 31
0.0
 11
312.8089508199488
 21
184.6513260727663
 31
0.0
 11
312.2462052341854
 21
184.936725571657
 31
0.0
 11
311.6646218594402
 21
185.1815286725763
 31
0.0
 11
311.0378673727478
 21
185.3972065784523
 31
0.0
 11
310.3985391400242
 21
185.5721885513634
 31
0.0
 11
309.7274541908894
 21
185.7120836539134
 31
0.0
 11
309.0491719444731
 21
185.8114357063971
 31
0.0
 11
308.3545171246542
 21
185.8719231895434
 31
0.0
 11
307.6575201122073
 21
185.8920007339332
 31
0.0
 11
306.9605230997605
 21
185.8719231895434
 31
0.0
 11
306.2658682799415
 21
185.8114357063971
 31
0.0
 11
305.5875860335252
 21
185.7120836539134
 31
0.0
 11
304.9165010843904
 21
185.5721885513634
 31
0.0
 11
304.2771728516669
 21
185.3972065784523
 31
0.0
 11
303.6504183649744
 21
185.1815286725763
 31
0.0
 11
303.0688349902292
 21
184.9367255716569
 31
0.0
 11
302.5060894044658
 21
184.6513260727663
 31
0.0
 11
301.9990219506925
 21
184.3443675881392
 31
0.0
 11
301.5182840592539
 21
183.9976906896557
 31
0.0
 11
301.1000510603167
 21
183.637665419232
 31
0.0
 11
300.7170162949047
 21
183.2404829035734
 31
0.0
 11
300.3993202935226
 21
182.8373997859925
 31
0.0
 11
300.1266322269881
 21
182.402710089955
 31
0.0
 11
299.9187707095961
 21
181.9671765547021
 31
0.0
 11
299.765070376649
 21
181.5098275518106
 31
0.0
 11
299.6742422575535
 21
181.0533287704361
 31
0.0
 11
299.6433166177525
 21
180.5889650732354
 31
0.0
 11
299.6742422575521
 21
180.1246013760237
 31
0.0
 11
299.765070376649
 21
179.6681025946384
 31
0.0
 11
299.9187707095961
 21
179.2107535917469
 31
0.0
 11
300.1266322269881
 21
178.775220056494
 31
0.0
 11
300.3993202935226
 21
178.3405303604565
 31
0.0
 11
300.7170162949047
 21
177.9374472428757
 31
0.0
 11
301.100051060317
 21
177.5402647272175
 31
0.0
 11
301.5182840592539
 21
177.1802394567933
 31
0.0
 11
301.9990219506918
 21
176.833562558308
 31
0.0
 11
302.5060894044658
 21
176.5266040736827
 31
0.0
 11
303.0688349902293
 21
176.2412045748033
 31
0.0
 11
303.6504183649744
 21
175.9964014738947
 31
0.0
 11
304.2771728516677
 21
175.7807235680201
 31
0.0
 11
304.9165010843904
 21
175.6057415951076
 31
0.0
 11
305.587586033525
 21
175.4658464925597
 31
0.0
 11
306.2658682799415
 21
175.3664944400737
 31
0.0
 11
306.9605230997606
 21
175.3060069569145
 31
0.0
 11
307.6575201122073
 21
175.2859294125159
 31
0.0
 11
308.354517124654
 21
175.3060069569144
 31
0.0
 11
309.0491719444731
 21
175.3664944400737
 31
0.0
 11
309.7274541908895
 21
175.4658464925597
 31
0.0
 11
310.3985391400242
 21
175.6057415951076
 31
0.0
 11
311.0378673727469
 21
175.7807235680201
 31
0.0
 11
311.6646218594402
 21
175.9964014738947
 31
0.0
 11
312.2462052341854
 21
176.2412045748033
 31
0.0
 11
312.8089508199488
 21
176.5266040736827
 31
0.0
 11
313.3160182737229
 21
176.833562558308
 31
0.0
 11
313.7967561651607
 21
177.1802394567933
 31
0.0
 11
314.2149891640976
 21
177.5402647272175
 31
0.0
 11
314.5980239295101
 21
177.9374472428757
 31
0.0
 11
314.9157199308925
 21
178.3405303604564
 31
0.0
 11
315.1884079974266
 21
178.775220056494
 31
0.0
 11
315.3962695148173
 21
179.210753591747
 31
0.0
 11
315.5499698477657
 21
179.6681025946384
 31
0.0
 11
315.640797966869
 21
180.1246013760238
 31
0.0
 11
315.6717236066728
 21
180.5889650732354
 31
0.0
  0
SPLINE
  5
1AF
330
59
100
AcDbEntity
  8
1
  6
Continuous
 62
     7
100
AcDbSpline
210
0.0
220
0.0
230
1.0
 70
    11
 71
     3
 72
    79
 73
    75
 74
    73
 42
0.000000001
 43
0.0000000001
 44
0.00000001
 40
0.0
 40
0.0
 40
0.0
 40
0.0
 40
0.4653923412104757
 40
0.9308393160429153
 40
1.413324448887541
 40
1.895917311543163
 40
2.409058533557564
 40
2.922290205567103
 40
3.474077829928436
 40
4.025926574457562
 40
4.618626998183594
 40
5.211367172301197
 40
5.842346940841224
 40
6.47335231326572
 40
7.136178192125111
 40
7.799020013382304
 40
8.484531245000001
 40
9.17005122000725
 40
9.867334558621954
 40
10.56462068578961
 40
11.26190681294976
 40
11.95919015155202
 40
12.64471012654715
 40
13.33022135814536
 40
13.99306317937425
 40
14.65588905819264
 40
15.28689443056177
 40
15.91787419902459
 40
16.51061437304257
 40
17.10331479663373
 40
17.65516354099452
 40
18.20695116513243
 40
18.72018283686646
 40
19.23332405851257
 40
19.71591692068558
 40
20.19840205274672
 40
20.66384902553889
 40
21.12924137435525
 40
21.59463372318252
 40
22.06008069598557
 40
22.54256582804674
 40
23.02515869021972
 40
23.53829991186588
 40
24.05153158359979
 40
24.60331920773749
 40
25.15516795209852
 40
25.74786837569002
 40
26.34060854970781
 40
26.97158831816564
 40
27.60259369053049
 40
28.26541956934934
 40
28.92826139057768
 40
29.61377262217536
 40
30.29929259717093
 40
30.99657593577459
 40
31.69386206293472
 40
32.39114819010245
 40
33.08843152871844
 40
33.77395150372612
 40
34.4594627353433
 40
35.12230455659991
 40
35.78513043545978
 40
36.41613580788007
 40
37.04711557641505
 40
37.63985575053245
 40
38.23255617425883
 40
38.78440491878808
 40
39.33619254314931
 40
39.84942421515876
 40
40.36256543717318
 40
40.8451582998288
 40
41.32764343267343
 40
41.79309040751674
 40
42.25848274873812
 40
42.25848274873812
 40
42.25848274873812
 40
42.25848274873812
 10
318.4852770107031
 20
180.5889650732354
 30
0.0
 10
318.4913267983276
 20
180.7442003474104
 30
0.0
 10
318.503427075507
 20
181.054689119679
 30
0.0
 10
318.5994030422922
 20
181.5179624223439
 30
0.0
 10
318.7515342370624
 20
181.9709127924004
 30
0.0
 10
318.9651679872424
 20
182.4162772762893
 30
0.0
 10
319.2338218464665
 20
182.8427544386334
 30
0.0
 10
319.5607772483036
 20
183.2560060079213
 30
0.0
 10
319.936200479388
 20
183.6439150388036
 30
0.0
 10
320.3658937220677
 20
184.0125518731226
 30
0.0
 10
320.8366398505209
 20
184.351019763325
 30
0.0
 10
321.3555110980868
 20
184.6641772650802
 30
0.0
 10
321.9076892863247
 20
184.9435084174337
 30
0.0
 10
322.4997301887095
 20
185.1920352129128
 30
0.0
 10
323.1170599886762
 20
185.4039968721516
 30
0.0
 10
323.7641985380745
 20
185.5806661049816
 30
0.0
 10
324.4283595811454
 20
185.7188435574148
 30
0.0
 10
325.1109465790402
 20
185.8185724484813
 30
0.0
 10
325.802097232166
 20
185.8786587838216
 30
0.0
 10
326.4994804953144
 20
185.8986717197411
 30
0.0
 10
327.196863758455
 20
185.8786587838998
 30
0.0
 10
327.8880144115945
 20
185.8185724486422
 30
0.0
 10
328.5706014094252
 20
185.7188435576673
 30
0.0
 10
329.234762452727
 20
185.5806661053379
 30
0.0
 10
329.8819010012954
 20
185.4039968726293
 30
0.0
 10
330.4992308043003
 20
185.1920352135325
 30
0.0
 10
331.0912716958897
 20
184.9435084182227
 30
0.0
 10
331.6434499232285
 20
184.6641772660668
 30
0.0
 10
332.1623210333725
 20
184.3510197645468
 30
0.0
 10
332.6330676562873
 20
184.0125518746163
 30
0.0
 10
333.062759174998
 20
183.6439150406189
 30
0.0
 10
333.4381885936086
 20
183.2560060101063
 30
0.0
 10
333.765122440627
 20
182.8427544412583
 30
0.0
 10
334.0338539112438
 20
182.4162772794351
 30
0.0
 10
334.2472144383283
 20
181.9709127962485
 30
0.0
 10
334.4003399163886
 20
181.5179624274168
 30
0.0
 10
334.4927297762798
 20
181.0546891236282
 30
0.0
 10
334.5241604814722
 20
180.5889650732318
 30
0.0
 10
334.4927297762818
 20
180.1232410228316
 30
0.0
 10
334.4003399163898
 20
179.6599677190355
 30
0.0
 10
334.2472144383285
 20
179.2070173502005
 30
0.0
 10
334.0338539112437
 20
178.7616528670139
 30
0.0
 10
333.7651224406269
 20
178.3351757051907
 30
0.0
 10
333.4381885936087
 20
177.9219241363428
 30
0.0
 10
333.0627591749976
 20
177.5340151058306
 30
0.0
 10
332.6330676562869
 20
177.165378271833
 30
0.0
 10
332.1623210333739
 20
176.8269103819001
 30
0.0
 10
331.6434499232306
 20
176.5137528803815
 30
0.0
 10
331.0912716958891
 20
176.2344217282374
 30
0.0
 10
330.499230804298
 20
175.98589493294
 30
0.0
 10
329.8819010012946
 20
175.7739332738435
 30
0.0
 10
329.2347624527273
 20
175.597264041132
 30
0.0
 10
328.5706014094247
 20
175.4590865888063
 30
0.0
 10
327.888014411594
 20
175.3593576978311
 30
0.0
 10
327.1968637584554
 20
175.2992713625575
 30
0.0
 10
326.4994804953145
 20
175.279258426704
 30
0.0
 10
325.8020972321656
 20
175.2992713626356
 30
0.0
 10
325.1109465790407
 20
175.359357697992
 30
0.0
 10
324.4283595811457
 20
175.4590865890589
 30
0.0
 10
323.7641985380743
 20
175.5972640414883
 30
0.0
 10
323.1170599886768
 20
175.7739332743213
 30
0.0
 10
322.4997301887118
 20
175.9858949335596
 30
0.0
 10
321.9076892863252
 20
176.2344217290265
 30
0.0
 10
321.3555110980847
 20
176.5137528813681
 30
0.0
 10
320.8366398505196
 20
176.826910383122
 30
0.0
 10
320.365893722068
 20
177.1653782733266
 30
0.0
 10
319.9362004793886
 20
177.5340151076459
 30
0.0
 10
319.5607772483036
 20
177.9219241385277
 30
0.0
 10
319.2338218464666
 20
178.3351757078156
 30
0.0
 10
318.9651679872422
 20
178.7616528701597
 30
0.0
 10
318.7515342370625
 20
179.2070173540486
 30
0.0
 10
318.5994030422911
 20
179.6599677241085
 30
0.0
 10
318.503427075505
 20
180.1232410267806
 30
0.0
 10
318.491326798327
 20
180.4337297990568
 30
0.0
 10
318.4852770107031
 20
180.5889650732354
 30
0.0
 11
318.4852770107031
 21
180.5889650732354
 31
0.0
 11
318.5162026505042
 21
181.053328770436
 31
0.0
 11
318.6070307695995
 21
181.5098275518106
 31
0.0
 11
318.7607311025458
 21
181.9671765547027
 31
0.0
 11
318.9685926199386
 21
182.402710089955
 31
0.0
 11
319.2412806864788
 21
182.8373997859923
 31
0.0
 11
319.5589766878661
 21
183.2404829035734
 31
0.0
 11
319.9420114532738
 21
183.637665419231
 31
0.0
 11
320.3602444522044
 21
183.9976906896557
 31
0.0
 11
320.8409823436421
 21
184.3443675881404
 31
0.0
 11
321.3480497974166
 21
184.6513260727663
 31
0.0
 11
321.9107953831855
 21
184.9367255716569
 31
0.0
 11
322.492378757936
 21
185.1815286725763
 31
0.0
 11
323.1191332446285
 21
185.3972065784519
 31
0.0
 11
323.7584614773519
 21
185.5721885513634
 31
0.0
 11
324.4295464264866
 21
185.7120836539134
 31
0.0
 11
325.107828672903
 21
185.8114357063971
 31
0.0
 11
325.8024834927219
 21
185.8719231895435
 31
0.0
 11
326.4994805051688
 21
185.8920007339332
 31
0.0
 11
327.1964775176102
 21
185.8719231895432
 31
0.0
 11
327.8911323374236
 21
185.8114357063971
 31
0.0
 11
328.56941458384
 21
185.7120836539135
 31
0.0
 11
329.2404995329748
 21
185.5721885513634
 31
0.0
 11
329.8798277656982
 21
185.3972065784518
 31
0.0
 11
330.5065822523907
 21
185.1815286725763
 31
0.0
 11
331.0881656271412
 21
184.9367255716569
 31
0.0
 11
331.6509112129101
 21
184.6513260727663
 31
0.0
 11
332.1579786666845
 21
184.3443675881404
 31
0.0
 11
332.6387165581222
 21
183.9976906896557
 31
0.0
 11
333.0569495570529
 21
183.6376654192311
 31
0.0
 11
333.4399843224607
 21
183.2404829035734
 31
0.0
 11
333.757680323848
 21
182.8373997859923
 31
0.0
 11
334.0303683903881
 21
182.402710089955
 31
0.0
 11
334.2382299077809
 21
181.9671765547027
 31
0.0
 11
334.3919302407272
 21
181.5098275518106
 31
0.0
 11
334.4827583598225
 21
181.053328770436
 31
0.0
 11
334.5136839996236
 21
180.5889650732354
 31
0.0
 11
334.4827583598239
 21
180.1246013760238
 31
0.0
 11
334.3919302407272
 21
179.6681025946384
 31
0.0
 11
334.2382299077809
 21
179.2107535917463
 31
0.0
 11
334.0303683903881
 21
178.775220056494
 31
0.0
 11
333.7576803238479
 21
178.3405303604567
 31
0.0
 11
333.4399843224607
 21
177.9374472428757
 31
0.0
 11
333.0569495570527
 21
177.5402647272184
 31
0.0
 11
332.6387165581222
 21
177.1802394567933
 31
0.0
 11
332.1579786666853
 21
176.8335625583069
 31
0.0
 11
331.6509112129101
 21
176.5266040736827
 31
0.0
 11
331.0881656271411
 21
176.2412045748033
 31
0.0
 11
330.5065822523907
 21
175.9964014738947
 31
0.0
 11
329.8798277656973
 21
175.7807235680204
 31
0.0
 11
329.2404995329748
 21
175.6057415951076
 31
0.0
 11
328.5694145838401
 21
175.4658464925596
 31
0.0
 11
327.8911323374236
 21
175.3664944400737
 31
0.0
 11
327.1964775176099
 21
175.3060069569147
 31
0.0
 11
326.4994805051688
 21
175.2859294125159
 31
0.0
 11
325.8024834927221
 21
175.3060069569144
 31
0.0
 11
325.107828672903
 21
175.3664944400737
 31
0.0
 11
324.4295464264865
 21
175.4658464925596
 31
0.0
 11
323.7584614773519
 21
175.6057415951076
 31
0.0
 11
323.1191332446294
 21
175.7807235680204
 31
0.0
 11
322.492378757936
 21
175.9964014738947
 31
0.0
 11
321.9107953831856
 21
176.2412045748034
 31
0.0
 11
321.3480497974166
 21
176.5266040736827
 31
0.0
 11
320.8409823436413
 21
176.8335625583069
 31
0.0
 11
320.3602444522044
 21
177.1802394567933
 31
0.0
 11
319.9420114532741
 21
177.5402647272184
 31
0.0
 11
319.5589766878661
 21
177.9374472428757
 31
0.0
 11
319.2412806864788
 21
178.3405303604567
 31
0.0
 11
318.9685926199386
 21
178.775220056494
 31
0.0
 11
318.7607311025458
 21
179.2107535917463
 31
0.0
 11
318.6070307695995
 21
179.6681025946384
 31
0.0
 11
318.5162026505028
 21
180.1246013760238
 31
0.0
 11
318.4852770107031
 21
180.5889650732354
 31
0.0
  0
ENDBLK
  5
5B
330
59
100
AcDbEntity
  8
0
100
AcDbBlockEnd
  0
BLOCK
  5
5D
330
5C
100
AcDbEntity
  8
0
100
AcDbBlockBegin
  2
36-54-M11
 70
     0
 10
68.46159818961073
 20
112.3913924802386
 30
0.0
  3
36-54-M11
  1

  0
LINE
  5
1B0
330
5C
100
AcDbEntity
  8
1
  6
Continuous
 62
     7
100
AcDbLine
 10
324.2035003086831
 20
200.8913924802456
 30
0.0
 11
324.2035003086831
 21
196.2859294125159
 31
0.0
  0
LINE
  5
1B1
330
5C
100
AcDbEntity
  8
1
  6
Continuous
 62
     7
100
AcDbLine
 10
309.9535003086831
 20
196.2859294125159
 30
0.0
 11
309.9535003086831
 21
200.8913924802456
 31
0.0
  0
LINE
  5
1B2
330
5C
100
AcDbEntity
  8
1
  6
Continuous
 62
     7
100
AcDbLine
 10
75.58659818961073
 20
200.8913924802386
 30
0.0
 11
75.58659818961073
 21
196.2859294125159
 31
0.0
  0
LINE
  5
1B3
330
5C
100
AcDbEntity
  8
1
  6
Continuous
 62
     7
100
AcDbLine
 10
89.83659818961073
 20
200.8913924802386
 30
0.0
 11
89.83659818961073
 21
196.2859294125159
 31
0.0
  0
ENDBLK
  5
5E
330
5C
100
AcDbEntity
  8
0
100
AcDbBlockEnd
  0
BLOCK
  5
64
330
5F
100
AcDbEntity
  8
0
100
AcDbBlockBegin
  2
R10AK-13
 70
     0
 10
82.71159818961073
 20
305.7859294125159
 30
0.0
  3
R10AK-13
  1

  0
INSERT
  5
60
330
5F
100
AcDbEntity
  8
0
100
AcDbBlockReference
  2
21-1C
 10
992.4903550785228
 20
602.0403082323644
 30
0.0
  0
INSERT
  5
61
330
5F
100
AcDbEntity
  8
0
100
AcDbBlockReference
  2
42-15
 10
201.9235108278674
 20
445.3514239542279
 30
0.0
  0
INSERT
  5
62
330
5F
100
AcDbEntity
  8
1
100
AcDbBlockReference
  2
37-1-13
 10
259.5318343813781
 20
363.400879994145
 30
0.0
  0
INSERT
  5
63
330
5F
100
AcDbEntity
  8
1
100
AcDbBlockReference
  2
36-54-M11
 10
68.46159818961073
 20
112.3913924802386
 30
0.0
  0
LINE
  5
1B4
330
5F
100
AcDbEntity
  8
1
  6
PHANTOM
 62
     4
100
AcDbLine
 10
82.71159818961073
 20
83.82146077543216
 30
0.0
 11
82.71159818961073
 21
199.3913924802386
 31
0.0
  0
ENDBLK
  5
65
330
5F
100
AcDbEntity
  8
0
100
AcDbBlockEnd
  0
BLOCK
  5
67
330
66
100
AcDbEntity
  8
0
100
AcDbBlockBegin
  2
35-22
 70
     0
 10
-26.74585678517687
 20
159.9646125080394
 30
0.0
  3
35-22
  1

  0
LINE
  5
1B5
330
66
100
AcDbEntity
  8
1
  6
Continuous
 62
     7
100
AcDbLine
 10
313.5277961531656
 20
130.9913924802385
 30
0.0
 11
309.9770919976494
 21
137.1413924802386
 31
0.0
  0
LINE
  5
1B6
330
66
100
AcDbEntity
  8
1
  6
Continuous
 62
     7
100
AcDbLine
 10
320.6292044641982
 20
130.9913924802385
 30
0.0
 11
313.5277961531656
 21
130.9913924802385
 31
0.0
  0
LINE
  5
1B7
330
66
100
AcDbEntity
  8
1
  6
Continuous
 62
     7
100
AcDbLine
 10
324.1799086197142
 20
137.1413924802386
 30
0.0
 11
320.6292044641982
 21
130.9913924802385
 31
0.0
  0
LINE
  5
1B8
330
66
100
AcDbEntity
  8
1
  6
Continuous
 62
     7
100
AcDbLine
 10
320.6292044641982
 20
143.2913924802384
 30
0.0
 11
324.1799086197142
 21
137.1413924802386
 31
0.0
  0
LINE
  5
1B9
330
66
100
AcDbEntity
  8
1
  6
Continuous
 62
     7
100
AcDbLine
 10
313.5277961531658
 20
143.2913924802384
 30
0.0
 11
320.6292044641982
 21
143.2913924802384
 31
0.0
  0
LINE
  5
1BA
330
66
100
AcDbEntity
  8
1
  6
Continuous
 62
     7
100
AcDbLine
 10
309.9770919976494
 20
137.1413924802386
 30
0.0
 11
313.5277961531658
 21
143.2913924802384
 31
0.0
  0
LINE
  5
1BB
330
66
100
AcDbEntity
  8
1
  6
Continuous
 62
     7
100
AcDbLine
 10
129.2115981896108
 20
124.2413924802386
 30
0.0
 11
127.7115981896107
 21
124.2413924802385
 31
0.0
  0
LINE
  5
1BC
330
66
100
AcDbEntity
  8
1
  6
Continuous
 62
     7
100
AcDbLine
 10
127.7115981896107
 20
150.0413924802385
 30
0.0
 11
129.2115981896108
 21
150.0413924802385
 31
0.0
  0
LINE
  5
1BD
330
66
100
AcDbEntity
  8
1
  6
Continuous
 62
     7
100
AcDbLine
 10
127.7115981896107
 20
454.5413924802384
 30
0.0
 11
129.2115981896108
 21
454.5413924802384
 31
0.0
  0
LINE
  5
1BE
330
66
100
AcDbEntity
  8
1
  6
Continuous
 62
     7
100
AcDbLine
 10
129.2115981896108
 20
428.7413924802386
 30
0.0
 11
127.7115981896107
 21
428.7413924802386
 31
0.0
  0
CIRCLE
  5
1BF
330
66
100
AcDbEntity
  8
1
  6
Continuous
 62
     7
100
AcDbCircle
 10
317.0785003086819
 20
137.1413924802386
 30
0.0
 40
8.514805770653993
  0
ENDBLK
  5
68
330
66
100
AcDbEntity
  8
0
100
AcDbBlockEnd
  0
BLOCK
  5
6A
330
69
100
AcDbEntity
  8
0
100
AcDbBlockBegin
  2
32-26
 70
     0
 10
-145.4384018103891
 20
408.2146365725786
 30
0.0
  3
32-26
  1

  0
LINE
  5
1C0
330
69
100
AcDbEntity
  8
1
  6
Continuous
 62
     7
100
AcDbLine
 10
317.0785003086819
 20
155.1413924802387
 30
0.0
 11
325.5055772040236
 21
155.1413924802387
 31
0.0
  0
LINE
  5
1C1
330
69
100
AcDbEntity
  8
1
  6
Continuous
 62
     7
100
AcDbLine
 10
328.4534191291309
 20
153.4394551512494
 30
0.0
 11
336.8804960244726
 21
138.843329809228
 31
0.0
  0
LINE
  5
1C2
330
69
100
AcDbEntity
  8
1
  6
Continuous
 62
     7
100
AcDbLine
 10
336.8804960244726
 20
135.4394551512494
 30
0.0
 11
328.4534191291309
 21
120.843329809228
 31
0.0
  0
LINE
  5
1C3
330
69
100
AcDbEntity
  8
1
  6
Continuous
 62
     7
100
AcDbLine
 10
325.5055772040236
 20
119.1413924802387
 30
0.0
 11
317.0785003086819
 21
119.1413924802387
 31
0.0
  0
LINE
  5
1C4
330
69
100
AcDbEntity
  8
1
  6
Continuous
 62
     7
100
AcDbLine
 10
308.6514234133402
 20
155.1413924802387
 30
0.0
 11
317.0785003086819
 21
155.1413924802387
 31
0.0
  0
LINE
  5
1C5
330
69
100
AcDbEntity
  8
1
  6
Continuous
 62
     7
100
AcDbLine
 10
297.2765045928912
 20
138.843329809228
 30
0.0
 11
305.7035814882329
 21
153.4394551512494
 31
0.0
  0
LINE
  5
1C6
330
69
100
AcDbEntity
  8
1
  6
Continuous
 62
     7
100
AcDbLine
 10
305.7035814882329
 20
120.843329809228
 30
0.0
 11
297.2765045928912
 21
135.4394551512494
 31
0.0
  0
LINE
  5
1C7
330
69
100
AcDbEntity
  8
1
  6
Continuous
 62
     7
100
AcDbLine
 10
317.0785003086819
 20
119.1413924802387
 30
0.0
 11
308.6514234133402
 21
119.1413924802387
 31
0.0
  0
LINE
  5
1C8
330
69
100
AcDbEntity
  8
1
  6
Continuous
 62
     7
100
AcDbLine
 10
129.2115981896108
 20
154.1817570127053
 30
0.0
 11
129.2115981896108
 21
120.1010279477719
 31
0.0
  0
LINE
  5
1C9
330
69
100
AcDbEntity
  8
1
  6
Continuous
 62
     7
100
AcDbLine
 10
147.6798214875933
 20
119.1413924802386
 30
0.0
 11
130.9933748916283
 21
119.1413924802386
 31
0.0
  0
LINE
  5
1CA
330
69
100
AcDbEntity
  8
1
  6
Continuous
 62
     7
100
AcDbLine
 10
149.4615981896108
 20
121.6163924802386
 30
0.0
 11
149.4615981896108
 21
120.1010279477719
 31
0.0
  0
LINE
  5
1CB
330
69
100
AcDbEntity
  8
1
  6
Continuous
 62
     7
100
AcDbLine
 10
130.9933748916283
 20
155.1413924802386
 30
0.0
 11
147.6798214875934
 21
155.1413924802386
 31
0.0
  0
LINE
  5
1CC
330
69
100
AcDbEntity
  8
1
  6
Continuous
 62
     7
100
AcDbLine
 10
149.4615981896108
 20
154.1817570127053
 30
0.0
 11
149.4615981896108
 21
152.6663924802387
 31
0.0
  0
LINE
  5
1CD
330
69
100
AcDbEntity
  8
1
  6
Continuous
 62
     7
100
AcDbLine
 10
129.2115981896108
 20
458.6817570127053
 30
0.0
 11
129.2115981896108
 21
424.601027947772
 31
0.0
  0
LINE
  5
1CE
330
69
100
AcDbEntity
  8
1
  6
Continuous
 62
     7
100
AcDbLine
 10
149.4615981896108
 20
458.6817570127053
 30
0.0
 11
149.4615981896108
 21
424.601027947772
 31
0.0
  0
LINE
  5
1CF
330
69
100
AcDbEntity
  8
1
  6
Continuous
 62
     7
100
AcDbLine
 10
149.4615981896108
 20
121.6163924802386
 30
0.0
 11
149.4615981896108
 21
152.6663924802387
 31
0.0
  0
ARC
  5
1D0
330
69
100
AcDbEntity
  8
1
  6
Continuous
 62
     7
100
AcDbCircle
 10
317.0785003086819
 20
137.1413924802387
 30
0.0
 40
19.87499999999995
100
AcDbArc
 50
55.08762784151183
 51
64.91237215848807
  0
ARC
  5
1D1
330
69
100
AcDbEntity
  8
1
  6
Continuous
 62
     7
100
AcDbCircle
 10
317.0785003086819
 20
137.1413924802387
 30
0.0
 40
19.875
100
AcDbArc
 50
0.0
 51
4.91237215848847
  0
ARC
  5
1D2
330
69
100
AcDbEntity
  8
1
  6
Continuous
 62
     7
100
AcDbCircle
 10
317.0785003086819
 20
137.1413924802387
 30
0.0
 40
19.87500000000004
100
AcDbArc
 50
355.0876278415116
 51
0.0
  0
ARC
  5
1D3
330
69
100
AcDbEntity
  8
1
  6
Continuous
 62
     7
100
AcDbCircle
 10
317.0785003086819
 20
137.1413924802387
 30
0.0
 40
19.87500000000005
100
AcDbArc
 50
295.087627841512
 51
304.9123721584882
  0
ARC
  5
1D4
330
69
100
AcDbEntity
  8
1
  6
Continuous
 62
     7
100
AcDbCircle
 10
317.0785003086819
 20
137.1413924802387
 30
0.0
 40
19.87500000000005
100
AcDbArc
 50
115.0876278415119
 51
124.9123721584882
  0
ARC
  5
1D5
330
69
100
AcDbEntity
  8
1
  6
Continuous
 62
     7
100
AcDbCircle
 10
317.0785003086819
 20
137.1413924802387
 30
0.0
 40
19.87500000000004
100
AcDbArc
 50
175.0876278415116
 51
180.0
  0
ARC
  5
1D6
330
69
100
AcDbEntity
  8
1
  6
Continuous
 62
     7
100
AcDbCircle
 10
317.0785003086819
 20
137.1413924802387
 30
0.0
 40
19.875
100
AcDbArc
 50
180.0
 51
184.9123721584884
  0
ARC
  5
1D7
330
69
100
AcDbEntity
  8
1
  6
Continuous
 62
     7
100
AcDbCircle
 10
317.0785003086819
 20
137.1413924802387
 30
0.0
 40
19.87499999999994
100
AcDbArc
 50
235.0876278415118
 51
244.9123721584881
  0
ARC
  5
1D8
330
69
100
AcDbEntity
  8
1
  6
Continuous
 62
     7
100
AcDbCircle
 10
139.3365981896108
 20
136.7663924802386
 30
0.0
 40
19.49999999999996
100
AcDbArc
 50
295.3316750167127
 51
301.2806671520485
  0
ARC
  5
1D9
330
69
100
AcDbEntity
  8
1
  6
Continuous
 62
     7
100
AcDbCircle
 10
139.3365981896108
 20
136.7663924802386
 30
0.0
 40
19.49999999999998
100
AcDbArc
 50
238.7193328479515
 51
244.6683249832873
  0
ARC
  5
1DA
330
69
100
AcDbEntity
  8
1
  6
Continuous
 62
     7
100
AcDbCircle
 10
139.3365981896108
 20
137.5163924802386
 30
0.0
 40
19.49999999999997
100
AcDbArc
 50
58.71933284795151
 51
64.6683249832871
  0
ARC
  5
1DB
330
69
100
AcDbEntity
  8
1
  6
Continuous
 62
     7
100
AcDbCircle
 10
139.3365981896108
 20
137.5163924802386
 30
0.0
 40
19.49999999999996
100
AcDbArc
 50
115.3316750167127
 51
121.2806671520485
  0
ARC
  5
1DC
330
69
100
AcDbEntity
  8
1
  6
Continuous
 62
     7
100
AcDbCircle
 10
139.3365981896108
 20
442.0163924802385
 30
0.0
 40
19.50000000000007
100
AcDbArc
 50
58.71933284795168
 51
121.2806671520483
  0
ARC
  5
1DD
330
69
100
AcDbEntity
  8
1
  6
Continuous
 62
     7
100
AcDbCircle
 10
138.9296096997937
 20
441.6180730138107
 30
0.0
 40
9.498147731245837
100
AcDbArc
 50
0.1406704114231
 51
38.10483270602272
  0
ARC
  5
1DE
330
69
100
AcDbEntity
  8
1
  6
Continuous
 62
     7
100
AcDbCircle
 10
139.6370597664965
 20
441.5649916029055
 30
0.0
 40
9.358213197258605
100
AcDbArc
 50
91.83989603134378
 51
179.5322294588925
  0
ARC
  5
1DF
330
69
100
AcDbEntity
  8
1
  6
Continuous
 62
     7
100
AcDbCircle
 10
139.3361866443736
 20
441.9369254414252
 30
0.0
 40
8.981454705881905
100
AcDbArc
 50
38.10483270602289
 51
89.99737461180281
  0
ARC
  5
1E0
330
69
100
AcDbEntity
  8
1
  6
Continuous
 62
     7
100
AcDbCircle
 10
139.3365981896108
 20
441.2663924802385
 30
0.0
 40
19.49999999999978
100
AcDbArc
 50
238.7193328479511
 51
301.2806671520489
  0
ARC
  5
1E1
330
69
100
AcDbEntity
  8
1
  6
Continuous
 62
     7
100
AcDbCircle
 10
138.9296096997937
 20
441.6647119466665
 30
0.0
 40
9.498147731245776
100
AcDbArc
 50
321.8951672939768
 51
359.8593295885755
  0
ARC
  5
1E2
330
69
100
AcDbEntity
  8
1
  6
Continuous
 62
     7
100
AcDbCircle
 10
139.6370597664965
 20
441.7177933575716
 30
0.0
 40
9.358213197258715
100
AcDbArc
 50
180.4677705411082
 51
268.1601039686562
  0
ARC
  5
1E3
330
69
100
AcDbEntity
  8
1
  6
Continuous
 62
     7
100
AcDbCircle
 10
139.3361866443736
 20
441.3458595190522
 30
0.0
 40
8.98145470588247
100
AcDbArc
 50
270.0026253881972
 51
321.8951672939754
  0
CIRCLE
  5
1E4
330
69
100
AcDbEntity
  8
1
  6
Continuous
 62
     7
100
AcDbCircle
 10
317.0785003086819
 20
137.1413924802387
 30
0.0
 40
17.04036453246681
  0
CIRCLE
  5
1E5
330
69
100
AcDbEntity
  8
1
  6
Continuous
 62
     7
100
AcDbCircle
 10
317.0785003086819
 20
137.1413924802387
 30
0.0
 40
15.52499999999998
  0
CIRCLE
  5
1E6
330
69
100
AcDbEntity
  8
1
  6
Continuous
 62
     2
100
AcDbCircle
 10
317.0785003086819
 20
137.1413924802387
 30
0.0
 40
15.28199999999998
  0
CIRCLE
  5
1E7
330
69
100
AcDbEntity
  8
1
  6
Continuous
 62
     7
100
AcDbCircle
 10
317.0785003086819
 20
137.1413924802387
 30
0.0
 40
13.78199999999998
  0
SPLINE
  5
1E8
330
69
100
AcDbEntity
  8
1
  6
Continuous
 62
     7
100
AcDbSpline
210
0.0
220
0.0
230
1.0
 70
    11
 71
     3
 72
    79
 73
    75
 74
    73
 42
0.000000001
 43
0.0000000001
 44
0.00000001
 40
0.0
 40
0.0
 40
0.0
 40
0.0
 40
0.4098780834325902
 40
0.8200304575466413
 40
1.262098017869044
 40
1.704491380271416
 40
2.201651885884839
 40
2.698930993733
 40
3.261864228819285
 40
3.82486118926653
 40
4.454341851187648
 40
5.083856441582698
 40
5.7735171793633
 40
6.463199253842802
 40
7.201753562344322
 40
7.940320676192163
 40
8.713173098657467
 40
9.48603247265754
 40
10.27653048701794
 40
11.06703069678421
 40
11.85753090655349
 40
12.64802892092259
 40
13.42088829493586
 40
14.19374071741682
 40
14.93230783127937
 40
15.6708621397913
 40
16.3605442142713
 40
17.05020495203607
 40
17.67971954239284
 40
18.30920020424035
 40
18.87219716457554
 40
19.43513039948451
 40
19.93240950709277
 40
20.42957001234947
 40
20.87196337427017
 40
21.31403093378277
 40
21.72418330569312
 40
22.13406139512174
 40
22.54393948455042
 40
22.95409185646073
 40
23.39615941597328
 40
23.83855277789403
 40
24.3357132831507
 40
24.83299239075878
 40
25.39592562566789
 40
25.95892258600314
 40
26.58840324785057
 40
27.21791783820733
 40
27.90757857597216
 40
28.59726065045206
 40
29.33581495896395
 40
30.07438207282651
 40
30.8472344953075
 40
31.62009386932078
 40
32.41059188368989
 40
33.20109209345917
 40
33.99159230322542
 40
34.78209031758585
 40
35.55494969158596
 40
36.32780211405125
 40
37.0663692278991
 40
37.80492353640059
 40
38.49460561088011
 40
39.18426634866084
 40
39.81378093905577
 40
40.44326160097673
 40
41.00625856142398
 40
41.56919179651047
 40
42.06647090435859
 40
42.56363140997183
 40
43.0060247723742
 40
43.4480923326966
 40
43.85824470681059
 40
44.26812279024325
 40
44.26812279024325
 40
44.26812279024325
 40
44.26812279024325
 10
130.2433314498742
 20
426.7794381056159
 30
0.0
 10
130.250429133141
 20
426.6426696842202
 30
0.0
 10
130.2646292386758
 20
426.3690413150765
 30
0.0
 10
130.3750138968267
 20
425.960111592563
 30
0.0
 10
130.5489476651125
 20
425.5637307269201
 30
0.0
 10
130.794276845941
 20
425.1722503214738
 30
0.0
 10
131.098870213269
 20
424.801072129801
 30
0.0
 10
131.4722939110598
 20
424.4391683720198
 30
0.0
 10
131.8966252258488
 20
424.1020932958887
 30
0.0
 10
132.3857334999972
 20
423.7797970424724
 30
0.0
 10
132.9176758800563
 20
423.4855006646881
 30
0.0
 10
133.5072811078186
 20
423.2118818479844
 30
0.0
 10
134.1316609165761
 20
422.9687187752044
 30
0.0
 10
134.8037908331937
 20
422.7516295321381
 30
0.0
 10
135.5023973980163
 20
422.5669086030023
 30
0.0
 10
136.236651809774
 20
422.4126238251736
 30
0.0
 10
136.9887762422297
 20
422.2920942898265
 30
0.0
 10
137.7629010183409
 20
422.2050330635631
 30
0.0
 10
138.5460321349174
 20
422.1525726847705
 30
0.0
 10
139.3365981796295
 20
422.1351300655399
 30
0.0
 10
140.1271642243317
 20
422.152572684899
 30
0.0
 10
140.9102953409379
 20
422.2050330638142
 30
0.0
 10
141.6844201169427
 20
422.2920942901884
 30
0.0
 10
142.436544549786
 20
422.412623825628
 30
0.0
 10
143.1707989601568
 20
422.5669086035256
 30
0.0
 10
143.8694055299864
 20
422.7516295327
 30
0.0
 10
144.5415354290893
 20
422.9687187757671
 30
0.0
 10
145.1659153003662
 20
423.2118818485061
 30
0.0
 10
145.7555203141561
 20
423.4855006651158
 30
0.0
 10
146.2874634494239
 20
423.7797970427512
 30
0.0
 10
146.7765691877768
 20
424.1020932959458
 30
0.0
 10
147.2009093766442
 20
424.4391683717849
 30
0.0
 10
147.5743036182976
 20
424.8010721291735
 30
0.0
 10
147.8789999893666
 20
425.1722503203476
 30
0.0
 10
148.1239849431446
 20
425.5637307251031
 30
0.0
 10
148.2991397431447
 20
425.9601115894351
 30
0.0
 10
148.4052803543818
 20
426.369041312645
 30
0.0
 10
148.4421530903268
 20
426.779438105616
 30
0.0
 10
148.4052803543819
 20
427.1898348985868
 30
0.0
 10
148.2991397431446
 20
427.5987646217968
 30
0.0
 10
148.1239849431446
 20
427.9951454861288
 30
0.0
 10
147.8789999893667
 20
428.3866258908841
 30
0.0
 10
147.5743036182977
 20
428.7578040820583
 30
0.0
 10
147.2009093766441
 20
429.1197078394465
 30
0.0
 10
146.7765691877769
 20
429.4567829152859
 30
0.0
 10
146.287463449424
 20
429.7790791684806
 30
0.0
 10
145.7555203141561
 20
430.073375546116
 30
0.0
 10
145.1659153003662
 20
430.3469943627255
 30
0.0
 10
144.5415354290893
 20
430.5901574354646
 30
0.0
 10
143.8694055299863
 20
430.8072466785314
 30
0.0
 10
143.1707989601569
 20
430.991967607706
 30
0.0
 10
142.4365445497859
 20
431.1462523856035
 30
0.0
 10
141.6844201169428
 20
431.2667819210432
 30
0.0
 10
140.9102953409379
 20
431.3538431474175
 30
0.0
 10
140.1271642243317
 20
431.4063035263326
 30
0.0
 10
139.3365981796295
 20
431.4237461456921
 30
0.0
 10
138.5460321349174
 20
431.406303526461
 30
0.0
 10
137.7629010183409
 20
431.3538431476687
 30
0.0
 10
136.9887762422297
 20
431.2667819214047
 30
0.0
 10
136.236651809774
 20
431.1462523860579
 30
0.0
 10
135.5023973980163
 20
430.9919676082291
 30
0.0
 10
134.8037908331937
 20
430.8072466790931
 30
0.0
 10
134.1316609165759
 20
430.5901574360275
 30
0.0
 10
133.5072811078186
 20
430.3469943632472
 30
0.0
 10
132.9176758800561
 20
430.0733755465437
 30
0.0
 10
132.3857334999972
 20
429.7790791687594
 30
0.0
 10
131.8966252258487
 20
429.4567829153431
 30
0.0
 10
131.4722939110599
 20
429.1197078392117
 30
0.0
 10
131.0988702132691
 20
428.7578040814305
 30
0.0
 10
130.794276845941
 20
428.3866258897579
 30
0.0
 10
130.5489476651125
 20
427.9951454843118
 30
0.0
 10
130.3750138968267
 20
427.5987646186688
 30
0.0
 10
130.2646292386759
 20
427.1898348961553
 30
0.0
 10
130.250429133141
 20
426.9162065270118
 30
0.0
 10
130.2433314498742
 20
426.7794381056159
 30
0.0
 11
130.2433314498742
 21
426.7794381056159
 31
0.0
 11
130.2789950727771
 21
426.3711145154456
 31
0.0
 11
130.3814786041101
 21
425.9739721051221
 31
0.0
 11
130.5584521884969
 21
425.5688744901053
 31
0.0
 11
130.7917225354424
 21
425.1929797814676
 31
0.0
 11
131.105751945128
 21
424.8075526185509
 31
0.0
 11
131.4615981896108
 21
424.4601911912056
 31
0.0
 11
131.9014534440412
 21
424.1088776814063
 31
0.0
 11
132.3707517338369
 21
423.7978717448431
 31
0.0
 11
132.9210064684941
 21
423.4921502528663
 31
0.0
 11
133.4915589977335
 21
423.2261456836067
 31
0.0
 11
134.1339107619873
 21
422.9751155177258
 31
0.0
 11
134.7899648197424
 21
422.7623846145604
 31
0.0
 11
135.5038429195721
 21
422.5730686744024
 31
0.0
 11
136.2265177959874
 21
422.4206796831126
 31
0.0
 11
136.9895847057919
 21
422.2980837693044
 31
0.0
 11
137.7575689912161
 21
422.2114134206948
 31
0.0
 11
138.5462923806269
 21
422.1584745341723
 31
0.0
 11
139.3365981896108
 21
422.140944276796
 31
0.0
 11
140.1269039985946
 21
422.1584745341723
 31
0.0
 11
140.9156273880053
 21
422.2114134206948
 31
0.0
 11
141.6836116734295
 21
422.2980837693044
 31
0.0
 11
142.4466785832339
 21
422.4206796831126
 31
0.0
 11
143.1693534596492
 21
422.5730686744024
 31
0.0
 11
143.883231559479
 21
422.7623846145604
 31
0.0
 11
144.5392856172342
 21
422.9751155177257
 31
0.0
 11
145.1816373814881
 21
423.2261456836067
 31
0.0
 11
145.7521899107274
 21
423.4921502528663
 31
0.0
 11
146.3024446453845
 21
423.7978717448431
 31
0.0
 11
146.7717429351804
 21
424.1088776814062
 31
0.0
 11
147.2115981896108
 21
424.4601911912056
 31
0.0
 11
147.5674444340935
 21
424.807552618551
 31
0.0
 11
147.8814738437791
 21
425.1929797814676
 31
0.0
 11
148.1147441907247
 21
425.5688744901053
 31
0.0
 11
148.2917177751115
 21
425.9739721051221
 31
0.0
 11
148.3942013064444
 21
426.3711145154456
 31
0.0
 11
148.4298649293472
 21
426.7794381056159
 31
0.0
 11
148.3942013064444
 21
427.1877616957863
 31
0.0
 11
148.2917177751115
 21
427.5849041061097
 31
0.0
 11
148.1147441907247
 21
427.9900017211265
 31
0.0
 11
147.8814738437791
 21
428.3658964297642
 31
0.0
 11
147.5674444340935
 21
428.7513235926807
 31
0.0
 11
147.2115981896108
 21
429.0986850200259
 31
0.0
 11
146.7717429351804
 21
429.4499985298255
 31
0.0
 11
146.3024446453845
 21
429.7610044663887
 31
0.0
 11
145.7521899107275
 21
430.0667259583655
 31
0.0
 11
145.1816373814881
 21
430.3327305276249
 31
0.0
 11
144.5392856172342
 21
430.583760693506
 31
0.0
 11
143.883231559479
 21
430.7964915966711
 31
0.0
 11
143.1693534596493
 21
430.9858075368291
 31
0.0
 11
142.4466785832339
 21
431.1381965281188
 31
0.0
 11
141.6836116734295
 21
431.2607924419271
 31
0.0
 11
140.9156273880053
 21
431.3474627905368
 31
0.0
 11
140.1269039985946
 21
431.4004016770594
 31
0.0
 11
139.3365981896108
 21
431.4179319344357
 31
0.0
 11
138.5462923806269
 21
431.4004016770594
 31
0.0
 11
137.7575689912161
 21
431.3474627905368
 31
0.0
 11
136.9895847057918
 21
431.2607924419272
 31
0.0
 11
136.2265177959874
 21
431.1381965281188
 31
0.0
 11
135.5038429195721
 21
430.985807536829
 31
0.0
 11
134.7899648197424
 21
430.7964915966711
 31
0.0
 11
134.1339107619872
 21
430.5837606935059
 31
0.0
 11
133.4915589977333
 21
430.3327305276249
 31
0.0
 11
132.9210064684939
 21
430.0667259583655
 31
0.0
 11
132.3707517338369
 21
429.7610044663887
 31
0.0
 11
131.9014534440412
 21
429.4499985298255
 31
0.0
 11
131.4615981896108
 21
429.0986850200259
 31
0.0
 11
131.105751945128
 21
428.7513235926806
 31
0.0
 11
130.7917225354424
 21
428.3658964297642
 31
0.0
 11
130.5584521884969
 21
427.9900017211265
 31
0.0
 11
130.3814786041101
 21
427.5849041061097
 31
0.0
 11
130.2789950727771
 21
427.1877616957863
 31
0.0
 11
130.2433314498742
 21
426.7794381056159
 31
0.0
  0
SPLINE
  5
1E9
330
69
100
AcDbEntity
  8
1
  6
Continuous
 62
     7
100
AcDbSpline
210
0.0
220
0.0
230
1.0
 70
    11
 71
     3
 72
    79
 73
    75
 74
    73
 42
0.000000001
 43
0.0000000001
 44
0.00000001
 40
0.0
 40
0.0
 40
0.0
 40
0.0
 40
0.4098780834325902
 40
0.8200304575465862
 40
1.262098017868937
 40
1.704491380271309
 40
2.201651885884635
 40
2.698930993732716
 40
3.261864228819258
 40
3.824861189266582
 40
4.454341851187678
 40
5.083856441582756
 40
5.773517179363337
 40
6.463199253842786
 40
7.201753562344263
 40
7.940320676192091
 40
8.71317309865745
 40
9.486032472657548
 40
10.27653048701791
 40
11.06703069678421
 40
11.85753090655348
 40
12.64802892092257
 40
13.42088829493586
 40
14.19374071741689
 40
14.93230783127944
 40
15.67086213979133
 40
16.3605442142713
 40
17.05020495203598
 40
17.67971954239279
 40
18.30920020424028
 40
18.87219716457562
 40
19.43513039948477
 40
19.93240950709289
 40
20.42957001234956
 40
20.87196337427031
 40
21.31403093378281
 40
21.72418330569311
 40
22.13406139512173
 40
22.54393948455041
 40
22.95409185646071
 40
23.39615941597316
 40
23.83855277789386
 40
24.33571328315051
 40
24.83299239075865
 40
25.3959256256678
 40
25.95892258600301
 40
26.58840324785052
 40
27.21791783820735
 40
27.90757857597205
 40
28.59726065045197
 40
29.33581495896388
 40
30.07438207282646
 40
30.84723449530744
 40
31.62009386932072
 40
32.41059188368984
 40
33.20109209345912
 40
33.99159230322537
 40
34.78209031758581
 40
35.55494969158593
 40
36.32780211405121
 40
37.06636922789909
 40
37.80492353640058
 40
38.49460561088009
 40
39.18426634866073
 40
39.8137809390557
 40
40.44326160097678
 40
41.00625856142401
 40
41.56919179651052
 40
42.06647090435862
 40
42.56363140997193
 40
43.00602477237425
 40
43.44809233269655
 40
43.85824470681054
 40
44.26812279024319
 40
44.26812279024319
 40
44.26812279024319
 40
44.26812279024319
 10
130.2433314498742
 20
456.5033468548613
 30
0.0
 10
130.250429133141
 20
456.6401152762572
 30
0.0
 10
130.2646292386759
 20
456.9137436454008
 30
0.0
 10
130.3750138968267
 20
457.3226733679142
 30
0.0
 10
130.5489476651125
 20
457.719054233557
 30
0.0
 10
130.7942768459409
 20
458.1105346390032
 30
0.0
 10
131.0988702132692
 20
458.481712830676
 30
0.0
 10
131.4722939110599
 20
458.8436165884571
 30
0.0
 10
131.8966252258488
 20
459.1806916645887
 30
0.0
 10
132.3857334999972
 20
459.502987918005
 30
0.0
 10
132.9176758800562
 20
459.7972842957894
 30
0.0
 10
133.5072811078187
 20
460.070903112493
 30
0.0
 10
134.131660916576
 20
460.314066185273
 30
0.0
 10
134.8037908331937
 20
460.531155428339
 30
0.0
 10
135.5023973980164
 20
460.7158763574748
 30
0.0
 10
136.236651809774
 20
460.8701611353033
 30
0.0
 10
136.9887762422297
 20
460.9906906706507
 30
0.0
 10
137.7629010183408
 20
461.0777518969147
 30
0.0
 10
138.5460321349174
 20
461.1302122757069
 30
0.0
 10
139.3365981796294
 20
461.1476548949373
 30
0.0
 10
140.1271642243318
 20
461.1302122755785
 30
0.0
 10
140.9102953409378
 20
461.0777518966636
 30
0.0
 10
141.6844201169428
 20
460.990690670289
 30
0.0
 10
142.4365445497859
 20
460.870161134849
 30
0.0
 10
143.1707989601568
 20
460.7158763569515
 30
0.0
 10
143.8694055299863
 20
460.531155427777
 30
0.0
 10
144.5415354290893
 20
460.3140661847103
 30
0.0
 10
145.1659153003662
 20
460.0709031119712
 30
0.0
 10
145.7555203141561
 20
459.7972842953616
 30
0.0
 10
146.287463449424
 20
459.5029879177263
 30
0.0
 10
146.7765691877768
 20
459.1806916645314
 30
0.0
 10
147.2009093766441
 20
458.8436165886916
 30
0.0
 10
147.5743036182977
 20
458.4817128313038
 30
0.0
 10
147.8789999893667
 20
458.1105346401295
 30
0.0
 10
148.1239849431446
 20
457.7190542353738
 30
0.0
 10
148.2991397431447
 20
457.3226733710423
 30
0.0
 10
148.4052803543818
 20
456.9137436478321
 30
0.0
 10
148.4421530903268
 20
456.5033468548613
 30
0.0
 10
148.4052803543819
 20
456.0929500618904
 30
0.0
 10
148.2991397431447
 20
455.6840203386805
 30
0.0
 10
148.1239849431446
 20
455.2876394743486
 30
0.0
 10
147.8789999893667
 20
454.8961590695935
 30
0.0
 10
147.5743036182977
 20
454.5249808784189
 30
0.0
 10
147.2009093766441
 20
454.163077121031
 30
0.0
 10
146.7765691877768
 20
453.8260020451914
 30
0.0
 10
146.287463449424
 20
453.5037057919967
 30
0.0
 10
145.7555203141561
 20
453.2094094143611
 30
0.0
 10
145.1659153003663
 20
452.9357905977517
 30
0.0
 10
144.5415354290893
 20
452.6926275250126
 30
0.0
 10
143.8694055299863
 20
452.4755382819459
 30
0.0
 10
143.1707989601568
 20
452.2908173527713
 30
0.0
 10
142.4365445497859
 20
452.1365325748739
 30
0.0
 10
141.6844201169428
 20
452.0160030394341
 30
0.0
 10
140.9102953409379
 20
451.9289418130599
 30
0.0
 10
140.1271642243317
 20
451.8764814341442
 30
0.0
 10
139.3365981796295
 20
451.8590388147851
 30
0.0
 10
138.5460321349174
 20
451.8764814340159
 30
0.0
 10
137.7629010183408
 20
451.9289418128085
 30
0.0
 10
136.9887762422297
 20
452.0160030390724
 30
0.0
 10
136.236651809774
 20
452.1365325744192
 30
0.0
 10
135.5023973980164
 20
452.2908173522484
 30
0.0
 10
134.8037908331937
 20
452.475538281384
 30
0.0
 10
134.1316609165759
 20
452.6926275244498
 30
0.0
 10
133.5072811078185
 20
452.9357905972298
 30
0.0
 10
132.9176758800561
 20
453.2094094139334
 30
0.0
 10
132.3857334999973
 20
453.5037057917179
 30
0.0
 10
131.8966252258487
 20
453.8260020451343
 30
0.0
 10
131.4722939110599
 20
454.1630771212655
 30
0.0
 10
131.0988702132691
 20
454.5249808790468
 30
0.0
 10
130.794276845941
 20
454.8961590707196
 30
0.0
 10
130.5489476651126
 20
455.2876394761656
 30
0.0
 10
130.3750138968266
 20
455.6840203418084
 30
0.0
 10
130.2646292386759
 20
456.0929500643218
 30
0.0
 10
130.250429133141
 20
456.3665784334656
 30
0.0
 10
130.2433314498742
 20
456.5033468548613
 30
0.0
 11
130.2433314498742
 21
456.5033468548613
 31
0.0
 11
130.2789950727771
 21
456.9116704450316
 31
0.0
 11
130.3814786041101
 21
457.3088128553551
 31
0.0
 11
130.5584521884969
 21
457.7139104703718
 31
0.0
 11
130.7917225354424
 21
458.0898051790095
 31
0.0
 11
131.1057519451281
 21
458.475232341926
 31
0.0
 11
131.4615981896108
 21
458.8225937692713
 31
0.0
 11
131.9014534440412
 21
459.1739072790709
 31
0.0
 11
132.3707517338369
 21
459.4849132156343
 31
0.0
 11
132.921006468494
 21
459.7906347076112
 31
0.0
 11
133.4915589977335
 21
460.0566392768707
 31
0.0
 11
134.1339107619873
 21
460.3076694427516
 31
0.0
 11
134.7899648197424
 21
460.5204003459168
 31
0.0
 11
135.5038429195721
 21
460.7097162860747
 31
0.0
 11
136.2265177959874
 21
460.8621052773644
 31
0.0
 11
136.9895847057919
 21
460.984701191173
 31
0.0
 11
137.7575689912161
 21
461.0713715397828
 31
0.0
 11
138.5462923806269
 21
461.1243104263051
 31
0.0
 11
139.3365981896108
 21
461.1418406836812
 31
0.0
 11
140.1269039985946
 21
461.1243104263052
 31
0.0
 11
140.9156273880053
 21
461.0713715397828
 31
0.0
 11
141.6836116734295
 21
460.984701191173
 31
0.0
 11
142.4466785832339
 21
460.8621052773644
 31
0.0
 11
143.1693534596492
 21
460.7097162860746
 31
0.0
 11
143.883231559479
 21
460.5204003459167
 31
0.0
 11
144.5392856172342
 21
460.3076694427515
 31
0.0
 11
145.1816373814881
 21
460.0566392768707
 31
0.0
 11
145.7521899107275
 21
459.7906347076112
 31
0.0
 11
146.3024446453845
 21
459.4849132156343
 31
0.0
 11
146.7717429351804
 21
459.1739072790709
 31
0.0
 11
147.2115981896108
 21
458.8225937692713
 31
0.0
 11
147.5674444340935
 21
458.475232341926
 31
0.0
 11
147.8814738437791
 21
458.0898051790095
 31
0.0
 11
148.1147441907247
 21
457.7139104703718
 31
0.0
 11
148.2917177751115
 21
457.3088128553551
 31
0.0
 11
148.3942013064444
 21
456.9116704450316
 31
0.0
 11
148.4298649293472
 21
456.5033468548613
 31
0.0
 11
148.3942013064444
 21
456.095023264691
 31
0.0
 11
148.2917177751115
 21
455.6978808543675
 31
0.0
 11
148.1147441907247
 21
455.2927832393509
 31
0.0
 11
147.8814738437791
 21
454.9168885307132
 31
0.0
 11
147.5674444340935
 21
454.5314613677967
 31
0.0
 11
147.2115981896108
 21
454.1840999404514
 31
0.0
 11
146.7717429351803
 21
453.8327864306518
 31
0.0
 11
146.3024446453845
 21
453.5217804940886
 31
0.0
 11
145.7521899107275
 21
453.2160590021117
 31
0.0
 11
145.1816373814881
 21
452.9500544328521
 31
0.0
 11
144.5392856172342
 21
452.6990242669713
 31
0.0
 11
143.883231559479
 21
452.4862933638062
 31
0.0
 11
143.1693534596493
 21
452.2969774236482
 31
0.0
 11
142.4466785832339
 21
452.1445884323584
 31
0.0
 11
141.6836116734295
 21
452.0219925185501
 31
0.0
 11
140.9156273880053
 21
451.9353221699404
 31
0.0
 11
140.1269039985946
 21
451.8823832834177
 31
0.0
 11
139.3365981896108
 21
451.8648530260413
 31
0.0
 11
138.5462923806269
 21
451.8823832834177
 31
0.0
 11
137.7575689912161
 21
451.9353221699404
 31
0.0
 11
136.9895847057918
 21
452.0219925185501
 31
0.0
 11
136.2265177959874
 21
452.1445884323584
 31
0.0
 11
135.5038429195721
 21
452.2969774236483
 31
0.0
 11
134.7899648197424
 21
452.4862933638062
 31
0.0
 11
134.1339107619872
 21
452.6990242669713
 31
0.0
 11
133.4915589977333
 21
452.9500544328521
 31
0.0
 11
132.9210064684939
 21
453.2160590021116
 31
0.0
 11
132.3707517338369
 21
453.5217804940886
 31
0.0
 11
131.9014534440412
 21
453.8327864306518
 31
0.0
 11
131.4615981896108
 21
454.1840999404514
 31
0.0
 11
131.105751945128
 21
454.5314613677967
 31
0.0
 11
130.7917225354424
 21
454.9168885307132
 31
0.0
 11
130.5584521884969
 21
455.2927832393509
 31
0.0
 11
130.3814786041101
 21
455.6978808543675
 31
0.0
 11
130.2789950727771
 21
456.095023264691
 31
0.0
 11
130.2433314498742
 21
456.5033468548613
 31
0.0
  0
SPLINE
  5
1EA
330
69
100
AcDbEntity
  8
1
  6
Continuous
 62
     7
100
AcDbSpline
210
0.0
220
0.0
230
1.0
 70
    11
 71
     3
 72
    79
 73
    75
 74
    73
 42
0.000000001
 43
0.0000000001
 44
0.00000001
 40
0.0
 40
0.0
 40
0.0
 40
0.0
 40
0.6434283900449153
 40
1.286737457083511
 40
1.944649987436294
 40
2.602362621623382
 40
3.281845472089493
 40
3.961100638983612
 40
4.666152226443178
 40
5.37099026901828
 40
6.102291730142987
 40
6.833416622612472
 40
7.588572901834384
 40
8.343597690453564
 40
9.117666662906663
 40
9.89164973194337
 40
10.67781657417329
 40
11.46394121463144
 40
12.25425369609409
 40
13.04456617755011
 40
13.8306908179881
 40
14.61685766018365
 40
15.39084072917122
 40
16.16490970155804
 40
16.91993449009358
 40
17.67509076920953
 40
18.40621566155155
 40
19.13751712251934
 40
19.84235516490938
 40
20.5474067521427
 40
21.22666191876815
 40
21.90614476889735
 40
22.56385740264712
 40
23.22176993232302
 40
23.86507899770927
 40
24.50850739620481
 40
25.14678640867813
 40
25.78506542115039
 40
26.42849381964263
 40
27.07180288502307
 40
27.72971541469088
 40
28.38742804843103
 40
29.06691089854881
 40
29.74616606516167
 40
30.45121765238093
 40
31.15605569475611
 40
31.88735715570807
 40
32.61848204803405
 40
33.3736383271333
 40
34.12866311565197
 40
34.90273208802153
 40
35.67671515699184
 40
36.46288199916992
 40
37.24900663959048
 40
38.03931912102902
 40
38.82963160247419
 40
39.61575624291482
 40
40.40192308512711
 40
41.1759061541462
 40
41.94997512658107
 40
42.70499991518192
 40
43.46015619438443
 40
44.19128108683377
 40
44.9225825479359
 40
45.62742059048566
 40
46.33247217791374
 40
47.01172734476599
 40
47.69121019516724
 40
48.3489228292343
 40
49.00683535929588
 40
49.65014442516979
 40
50.29357282438404
 40
50.9318518385602
 40
51.57013084263578
 40
51.57013084263578
 40
51.57013084263578
 40
51.57013084263578
 10
148.3928469959545
 20
128.7787176385574
 30
0.0
 10
148.3629835505933
 20
128.9913220819752
 30
0.0
 10
148.3032622043596
 20
129.4164915425256
 30
0.0
 10
148.1254894364484
 20
130.0417834422275
 30
0.0
 10
147.8872061406139
 20
130.6507015118584
 30
0.0
 10
147.5804437623473
 20
131.2421280354267
 30
0.0
 10
147.213775404014
 20
131.8067014328788
 30
0.0
 10
146.7846557619072
 20
132.3456642572921
 30
0.0
 10
146.3023231118711
 20
132.8492929054285
 30
0.0
 10
145.7642161602175
 20
133.319509794918
 30
0.0
 10
145.1811940824385
 20
133.747551599868
 30
0.0
 10
144.5507988133207
 20
134.1350660260137
 30
0.0
 10
143.8846931845394
 20
134.475095130193
 30
0.0
 10
143.1813176278887
 20
134.7685328769964
 30
0.0
 10
142.4520405752276
 20
135.0105959102826
 30
0.0
 10
141.6970421833662
 20
135.2014275009844
 30
0.0
 10
140.9263495096667
 20
135.3383320062316
 30
0.0
 10
140.1425249179928
 20
135.4210925692773
 30
0.0
 10
139.3534436342926
 20
135.448660829246
 30
0.0
 10
138.5643623505733
 20
135.4210925695136
 30
0.0
 10
137.7805377589477
 20
135.3383320067
 30
0.0
 10
137.0098450850484
 20
135.2014275017163
 30
0.0
 10
136.2548466938796
 20
135.0105959111883
 30
0.0
 10
135.525569638604
 20
134.768532878447
 30
0.0
 10
134.8221940914005
 20
134.4750951308822
 30
0.0
 10
134.1560884278045
 20
134.1350660307991
 30
0.0
 10
133.5256932845335
 20
133.7475515911865
 30
0.0
 10
132.9426707456307
 20
133.3195098370271
 30
0.0
 10
132.4045654554073
 20
132.8492927660618
 30
0.0
 10
131.9222267261
 20
132.3456647836285
 30
0.0
 10
131.4931289829595
 20
131.8066995629964
 30
0.0
 10
131.1263803800427
 20
131.242134948088
 30
0.0
 10
130.8199083749144
 20
130.6506766464004
 30
0.0
 10
130.5805564838176
 20
130.041875526074
 30
0.0
 10
130.4066879698362
 20
129.4161563388427
 30
0.0
 10
130.3028760538378
 20
128.7816671015876
 30
0.0
 10
130.2673472987887
 20
128.1413924807541
 30
0.0
 10
130.3028760538191
 20
127.5011178599205
 30
0.0
 10
130.4066879697987
 20
126.8666286226658
 30
0.0
 10
130.5805564837617
 20
126.2409094354353
 30
0.0
 10
130.8199083748402
 20
125.6321083151102
 30
0.0
 10
131.1263803799506
 20
125.040650013424
 30
0.0
 10
131.4931289828495
 20
124.4760853985174
 30
0.0
 10
131.9222267259725
 20
123.9371201778875
 30
0.0
 10
132.4045654552626
 20
123.4334921954569
 30
0.0
 10
132.942670745469
 20
122.9632751244948
 30
0.0
 10
133.5256932843554
 20
122.5352333703393
 30
0.0
 10
134.15608842761
 20
122.1477189307308
 30
0.0
 10
134.8221940911898
 20
121.8076898306523
 30
0.0
 10
135.5255696383772
 20
121.5142520830928
 30
0.0
 10
136.2548466936368
 20
121.2721890503575
 30
0.0
 10
137.0098450847894
 20
121.081357459836
 30
0.0
 10
137.7805377586721
 20
120.9444529548597
 30
0.0
 10
138.564362350282
 20
120.8616923920539
 30
0.0
 10
139.3534436339807
 20
120.8341241323304
 30
0.0
 10
140.142524917676
 20
120.8616923923061
 30
0.0
 10
140.9263495092833
 20
120.944452955367
 30
0.0
 10
141.6970421831412
 20
121.0813574606012
 30
0.0
 10
142.452040574328
 20
121.2721890513952
 30
0.0
 10
143.1813176293795
 20
121.5142520843857
 30
0.0
 10
143.8846931772148
 20
121.8076898323075
 30
0.0
 10
144.5507988382699
 20
122.1477189324143
 30
0.0
 10
145.1811939904785
 20
122.5352333733258
 30
0.0
 10
145.7642164963364
 20
122.9632751242066
 30
0.0
 10
146.3023219052762
 20
123.4334922085262
 30
0.0
 10
146.7846601997779
 20
123.9371201437566
 30
0.0
 10
147.2137595087067
 20
124.4760855361639
 30
0.0
 10
147.5805023735028
 20
125.0406495235267
 30
0.0
 10
147.8869951419094
 20
125.6321100980596
 30
0.0
 10
148.1262706216962
 20
126.2409028563886
 30
0.0
 10
148.3004183135222
 20
126.8666525978526
 30
0.0
 10
148.4031958130945
 20
127.5010286284977
 30
0.0
 10
148.442556121347
 20
128.1417225772826
 30
0.0
 10
148.4094167021564
 20
128.5663859524357
 30
0.0
 10
148.3928469959545
 20
128.7787176385574
 30
0.0
 11
148.3928469959545
 21
128.7787176385574
 31
0.0
 11
148.2887771068188
 21
129.4136739853978
 31
0.0
 11
148.1172121851427
 21
130.0336836881253
 31
0.0
 11
147.8766147855989
 21
130.6460249232651
 31
0.0
 11
147.574706741366
 21
131.2303514087353
 31
0.0
 11
147.204868823954
 21
131.8003661968423
 31
0.0
 11
146.7823711314629
 21
132.332233926081
 31
0.0
 11
146.2950683768887
 21
132.8417766291171
 31
0.0
 11
145.7647435295924
 21
133.3060526488445
 31
0.0
 11
145.1755666263471
 21
133.7392643795743
 31
0.0
 11
144.55298212285
 21
134.1225816689514
 31
0.0
 11
143.8806028022557
 21
134.4663360220066
 31
0.0
 11
143.1839274006336
 21
134.7573786583682
 31
0.0
 11
142.4493834703499
 21
135.001567086816
 31
0.0
 11
141.6990527473447
 21
135.19144493511
 31
0.0
 11
140.9250431661425
 21
135.3291673807873
 31
0.0
 11
140.1432713935782
 21
135.4117800068333
 31
0.0
 11
139.3534436245215
 21
135.4394551512495
 31
0.0
 11
138.5636158554648
 21
135.4117800068333
 31
0.0
 11
137.7818440829005
 21
135.3291673807874
 31
0.0
 11
137.0078345016983
 21
135.19144493511
 31
0.0
 11
136.2575037786931
 21
135.0015670868161
 31
0.0
 11
135.5229598484093
 21
134.7573786583682
 31
0.0
 11
134.8262844467871
 21
134.4663360220066
 31
0.0
 11
134.1539051261929
 21
134.1225816689515
 31
0.0
 11
133.5313206226959
 21
133.7392643795745
 31
0.0
 11
132.9421437194506
 21
133.3060526488446
 31
0.0
 11
132.4118188721543
 21
132.8417766291171
 31
0.0
 11
131.9245161175801
 21
132.332233926081
 31
0.0
 11
131.502018425089
 21
131.8003661968423
 31
0.0
 11
131.132180507677
 21
131.2303514087353
 31
0.0
 11
130.8302724634441
 21
130.6460249232651
 31
0.0
 11
130.5896750639003
 21
130.0336836881252
 31
0.0
 11
130.4181101422242
 21
129.4136739853977
 31
0.0
 11
130.3140402530885
 21
128.7787176385574
 31
0.0
 11
130.2791584445499
 21
128.1413924802389
 31
0.0
 11
130.3140402530885
 21
127.5040673219203
 31
0.0
 11
130.4181101422242
 21
126.8691109750797
 31
0.0
 11
130.5896750639003
 21
126.2491012723523
 31
0.0
 11
130.8302724634441
 21
125.6367600372126
 31
0.0
 11
131.132180507677
 21
125.0524335517424
 31
0.0
 11
131.502018425089
 21
124.4824187636353
 31
0.0
 11
131.92451611758
 21
123.9505510343966
 31
0.0
 11
132.4118188721542
 21
123.4410083313604
 31
0.0
 11
132.9421437194505
 21
122.9767323116331
 31
0.0
 11
133.5313206226958
 21
122.5435205809033
 31
0.0
 11
134.1539051261929
 21
122.1602032915262
 31
0.0
 11
134.8262844467871
 21
121.8164489384709
 31
0.0
 11
135.5229598484093
 21
121.5254063021093
 31
0.0
 11
136.2575037786931
 21
121.2812178736614
 31
0.0
 11
137.0078345016983
 21
121.0913400253674
 31
0.0
 11
137.7818440829005
 21
120.9536175796902
 31
0.0
 11
138.5636158554648
 21
120.8710049536443
 31
0.0
 11
139.3534436245215
 21
120.8433298092282
 31
0.0
 11
140.1432713935782
 21
120.8710049536443
 31
0.0
 11
140.9250431661425
 21
120.9536175796901
 31
0.0
 11
141.6990527473447
 21
121.0913400253675
 31
0.0
 11
142.4493834703499
 21
121.2812178736616
 31
0.0
 11
143.1839274006336
 21
121.5254063021094
 31
0.0
 11
143.8806028022557
 21
121.8164489384709
 31
0.0
 11
144.55298212285
 21
122.1602032915261
 31
0.0
 11
145.1755666263471
 21
122.5435205809033
 31
0.0
 11
145.7647435295923
 21
122.9767323116331
 31
0.0
 11
146.2950683768887
 21
123.4410083313604
 31
0.0
 11
146.7823711314628
 21
123.9505510343966
 31
0.0
 11
147.2048688239539
 21
124.4824187636353
 31
0.0
 11
147.574706741366
 21
125.0524335517424
 31
0.0
 11
147.8766147855989
 21
125.6367600372126
 31
0.0
 11
148.1172121851427
 21
126.2491012723524
 31
0.0
 11
148.2887771068188
 21
126.8691109750798
 31
0.0
 11
148.3928469959545
 21
127.5040673219202
 31
0.0
 11
148.427728804493
 21
128.1413924802388
 31
0.0
 11
148.3928469959545
 21
128.7787176385574
 31
0.0
  0
SPLINE
  5
1EB
330
69
100
AcDbEntity
  8
1
  6
Continuous
 62
     7
100
AcDbSpline
210
0.0
220
0.0
230
1.0
 70
    11
 71
     3
 72
    79
 73
    75
 74
    73
 42
0.000000001
 43
0.0000000001
 44
0.00000001
 40
0.0
 40
0.0
 40
0.0
 40
0.0
 40
0.6434283900448872
 40
1.286737457083538
 40
1.944649987436373
 40
2.602362621623437
 40
3.281845472089548
 40
3.961100638983622
 40
4.666152226443168
 40
5.370990269018269
 40
6.10229173014301
 40
6.833416622612495
 40
7.588572901834421
 40
8.343597690453612
 40
9.11766666290671
 40
9.891649731943417
 40
10.67781657417332
 40
11.46394121463147
 40
12.25425369609412
 40
13.04456617755014
 40
13.83069081798812
 40
14.61685766018367
 40
15.39084072917123
 40
16.16490970155806
 40
16.9199344900936
 40
17.67509076920958
 40
18.4062156615516
 40
19.13751712251941
 40
19.84235516490944
 40
20.54740675214276
 40
21.22666191876821
 40
21.90614476889739
 40
22.56385740264719
 40
23.22176993232311
 40
23.86507899770936
 40
24.50850739620494
 40
25.1467864086782
 40
25.78506542115047
 40
26.42849381964275
 40
27.07180288502311
 40
27.7297154146909
 40
28.38742804843101
 40
29.06691089854878
 40
29.74616606516169
 40
30.45121765238095
 40
31.15605569475616
 40
31.88735715570811
 40
32.61848204803411
 40
33.37363832713336
 40
34.12866311565202
 40
34.90273208802157
 40
35.67671515699188
 40
36.46288199916997
 40
37.24900663959053
 40
38.03931912102907
 40
38.82963160247424
 40
39.61575624291486
 40
40.40192308512715
 40
41.17590615414625
 40
41.94997512658112
 40
42.70499991518196
 40
43.46015619438447
 40
44.1912810868338
 40
44.92258254793602
 40
45.62742059048575
 40
46.33247217791384
 40
47.0117273447661
 40
47.69121019516731
 40
48.34892282923435
 40
49.00683535929591
 40
49.65014442516981
 40
50.29357282438412
 40
50.93185183856032
 40
51.57013084263584
 40
51.57013084263584
 40
51.57013084263584
 40
51.57013084263584
 10
148.3928469959545
 20
145.5040673219202
 30
0.0
 10
148.3629835505934
 20
145.2914628785023
 30
0.0
 10
148.3032622043597
 20
144.8662934179519
 30
0.0
 10
148.1254894364483
 20
144.24100151825
 30
0.0
 10
147.887206140614
 20
143.6320834486191
 30
0.0
 10
147.5804437623472
 20
143.0406569250508
 30
0.0
 10
147.2137754040141
 20
142.4760835275988
 30
0.0
 10
146.7846557619072
 20
141.9371207031855
 30
0.0
 10
146.302323111871
 20
141.4334920550491
 30
0.0
 10
145.7642161602175
 20
140.9632751655597
 30
0.0
 10
145.1811940824385
 20
140.5352333606095
 30
0.0
 10
144.5507988133207
 20
140.1477189344639
 30
0.0
 10
143.8846931845394
 20
139.8076898302845
 30
0.0
 10
143.1813176278887
 20
139.5142520834811
 30
0.0
 10
142.4520405752276
 20
139.2721890501949
 30
0.0
 10
141.6970421833663
 20
139.0813574594931
 30
0.0
 10
140.9263495096666
 20
138.9444529542461
 30
0.0
 10
140.1425249179928
 20
138.8616923912002
 30
0.0
 10
139.3534436342927
 20
138.8341241312316
 30
0.0
 10
138.5643623505733
 20
138.8616923909641
 30
0.0
 10
137.7805377589476
 20
138.9444529537776
 30
0.0
 10
137.0098450850484
 20
139.0813574587612
 30
0.0
 10
136.2548466938796
 20
139.2721890492892
 30
0.0
 10
135.5255696386041
 20
139.5142520820305
 30
0.0
 10
134.8221940914005
 20
139.8076898295953
 30
0.0
 10
134.1560884278045
 20
140.1477189296784
 30
0.0
 10
133.5256932845335
 20
140.5352333692911
 30
0.0
 10
132.9426707456307
 20
140.9632751234505
 30
0.0
 10
132.4045654554073
 20
141.4334921944158
 30
0.0
 10
131.9222267261
 20
141.9371201768491
 30
0.0
 10
131.4931289829595
 20
142.4760853974811
 30
0.0
 10
131.1263803800428
 20
143.0406500123896
 30
0.0
 10
130.8199083749144
 20
143.6321083140773
 30
0.0
 10
130.5805564838176
 20
144.2409094344036
 30
0.0
 10
130.4066879698361
 20
144.8666286216349
 30
0.0
 10
130.3028760538379
 20
145.50111785889
 30
0.0
 10
130.2673472987887
 20
146.1413924797236
 30
0.0
 10
130.3028760538191
 20
146.7816671005571
 30
0.0
 10
130.4066879697986
 20
147.4161563378118
 30
0.0
 10
130.5805564837617
 20
148.0418755250423
 30
0.0
 10
130.8199083748402
 20
148.6506766453673
 30
0.0
 10
131.1263803799505
 20
149.2421349470534
 30
0.0
 10
131.4931289828495
 20
149.8066995619601
 30
0.0
 10
131.9222267259725
 20
150.34566478259
 30
0.0
 10
132.4045654552626
 20
150.8492927650206
 30
0.0
 10
132.942670745469
 20
151.3195098359827
 30
0.0
 10
133.5256932843554
 20
151.7475515901382
 30
0.0
 10
134.15608842761
 20
152.1350660297468
 30
0.0
 10
134.8221940911898
 20
152.4750951298253
 30
0.0
 10
135.5255696383772
 20
152.7685328773848
 30
0.0
 10
136.2548466936368
 20
153.0105959101201
 30
0.0
 10
137.0098450847894
 20
153.2014275006415
 30
0.0
 10
137.7805377586721
 20
153.338332005618
 30
0.0
 10
138.564362350282
 20
153.4210925684236
 30
0.0
 10
139.3534436339807
 20
153.4486608281472
 30
0.0
 10
140.142524917676
 20
153.4210925681716
 30
0.0
 10
140.9263495092833
 20
153.3383320051107
 30
0.0
 10
141.6970421831412
 20
153.2014274998763
 30
0.0
 10
142.4520405743279
 20
153.0105959090824
 30
0.0
 10
143.1813176293796
 20
152.7685328760919
 30
0.0
 10
143.8846931772148
 20
152.4750951281701
 30
0.0
 10
144.5507988382698
 20
152.1350660280633
 30
0.0
 10
145.1811939904786
 20
151.7475515871518
 30
0.0
 10
145.7642164963364
 20
151.319509836271
 30
0.0
 10
146.3023219052763
 20
150.8492927519513
 30
0.0
 10
146.7846601997778
 20
150.3456648167209
 30
0.0
 10
147.2137595087067
 20
149.8066994243135
 30
0.0
 10
147.5805023735028
 20
149.2421354369509
 30
0.0
 10
147.8869951419094
 20
148.650674862418
 30
0.0
 10
148.1262706216963
 20
148.041882104089
 30
0.0
 10
148.3004183135222
 20
147.4161323626249
 30
0.0
 10
148.4031958130946
 20
146.7817563319799
 30
0.0
 10
148.442556121347
 20
146.1410623831949
 30
0.0
 10
148.4094167021565
 20
145.7163990080418
 30
0.0
 10
148.3928469959545
 20
145.5040673219202
 30
0.0
 11
148.3928469959545
 21
145.5040673219202
 31
0.0
 11
148.2887771068188
 21
144.8691109750798
 31
0.0
 11
148.1172121851427
 21
144.2491012723523
 31
0.0
 11
147.8766147855989
 21
143.6367600372124
 31
0.0
 11
147.574706741366
 21
143.0524335517422
 31
0.0
 11
147.204868823954
 21
142.4824187636353
 31
0.0
 11
146.7823711314629
 21
141.9505510343966
 31
0.0
 11
146.2950683768887
 21
141.4410083313605
 31
0.0
 11
145.7647435295924
 21
140.9767323116331
 31
0.0
 11
145.1755666263471
 21
140.5435205809032
 31
0.0
 11
144.55298212285
 21
140.1602032915262
 31
0.0
 11
143.8806028022557
 21
139.8164489384709
 31
0.0
 11
143.1839274006336
 21
139.5254063021093
 31
0.0
 11
142.4493834703499
 21
139.2812178736615
 31
0.0
 11
141.6990527473447
 21
139.0913400253675
 31
0.0
 11
140.9250431661425
 21
138.9536175796903
 31
0.0
 11
140.1432713935782
 21
138.8710049536443
 31
0.0
 11
139.3534436245215
 21
138.8433298092281
 31
0.0
 11
138.5636158554648
 21
138.8710049536443
 31
0.0
 11
137.7818440829005
 21
138.9536175796901
 31
0.0
 11
137.0078345016983
 21
139.0913400253675
 31
0.0
 11
136.2575037786931
 21
139.2812178736614
 31
0.0
 11
135.5229598484093
 21
139.5254063021093
 31
0.0
 11
134.8262844467871
 21
139.8164489384709
 31
0.0
 11
134.1539051261929
 21
140.160203291526
 31
0.0
 11
133.5313206226959
 21
140.5435205809031
 31
0.0
 11
132.9421437194506
 21
140.976732311633
 31
0.0
 11
132.4118188721543
 21
141.4410083313605
 31
0.0
 11
131.9245161175801
 21
141.9505510343966
 31
0.0
 11
131.502018425089
 21
142.4824187636353
 31
0.0
 11
131.132180507677
 21
143.0524335517422
 31
0.0
 11
130.8302724634441
 21
143.6367600372125
 31
0.0
 11
130.5896750639003
 21
144.2491012723524
 31
0.0
 11
130.4181101422242
 21
144.8691109750799
 31
0.0
 11
130.3140402530885
 21
145.5040673219203
 31
0.0
 11
130.2791584445499
 21
146.1413924802387
 31
0.0
 11
130.3140402530885
 21
146.7787176385573
 31
0.0
 11
130.4181101422242
 21
147.4136739853979
 31
0.0
 11
130.5896750639003
 21
148.0336836881253
 31
0.0
 11
130.8302724634441
 21
148.6460249232649
 31
0.0
 11
131.132180507677
 21
149.2303514087351
 31
0.0
 11
131.502018425089
 21
149.8003661968421
 31
0.0
 11
131.92451611758
 21
150.3322339260809
 31
0.0
 11
132.4118188721542
 21
150.8417766291171
 31
0.0
 11
132.9421437194505
 21
151.3060526488445
 31
0.0
 11
133.5313206226958
 21
151.7392643795743
 31
0.0
 11
134.1539051261929
 21
152.1225816689514
 31
0.0
 11
134.8262844467871
 21
152.4663360220067
 31
0.0
 11
135.5229598484093
 21
152.7573786583682
 31
0.0
 11
136.2575037786931
 21
153.0015670868161
 31
0.0
 11
137.0078345016983
 21
153.1914449351101
 31
0.0
 11
137.7818440829005
 21
153.3291673807874
 31
0.0
 11
138.5636158554648
 21
153.4117800068332
 31
0.0
 11
139.3534436245215
 21
153.4394551512494
 31
0.0
 11
140.1432713935782
 21
153.4117800068333
 31
0.0
 11
140.9250431661425
 21
153.3291673807875
 31
0.0
 11
141.6990527473447
 21
153.1914449351101
 31
0.0
 11
142.4493834703499
 21
153.001567086816
 31
0.0
 11
143.1839274006336
 21
152.7573786583682
 31
0.0
 11
143.8806028022557
 21
152.4663360220067
 31
0.0
 11
144.55298212285
 21
152.1225816689515
 31
0.0
 11
145.1755666263471
 21
151.7392643795743
 31
0.0
 11
145.7647435295923
 21
151.3060526488444
 31
0.0
 11
146.2950683768887
 21
150.8417766291171
 31
0.0
 11
146.7823711314628
 21
150.332233926081
 31
0.0
 11
147.2048688239539
 21
149.8003661968422
 31
0.0
 11
147.574706741366
 21
149.2303514087352
 31
0.0
 11
147.8766147855989
 21
148.646024923265
 31
0.0
 11
148.1172121851427
 21
148.0336836881252
 31
0.0
 11
148.2887771068188
 21
147.4136739853978
 31
0.0
 11
148.3928469959545
 21
146.7787176385573
 31
0.0
 11
148.427728804493
 21
146.1413924802387
 31
0.0
 11
148.3928469959545
 21
145.5040673219202
 31
0.0
  0
ENDBLK
  5
6B
330
69
100
AcDbEntity
  8
0
100
AcDbBlockEnd
  0
BLOCK
  5
6D
330
6C
100
AcDbEntity
  8
0
100
AcDbBlockBegin
  2
B320-0
 70
     0
 10
12.0135635435439
 20
85.54012490911468
 30
0.0
  3
B320-0
  1

  0
LINE
  5
1EC
330
6C
100
AcDbEntity
  8
1
  6
Continuous
 62
     7
100
AcDbLine
 10
286.9188528173648
 20
116.1632759313854
 30
0.0
 11
286.9188528173652
 21
158.1195090290915
 31
0.0
  0
LINE
  5
1ED
330
6C
100
AcDbEntity
  8
1
  6
Continuous
 62
     2
100
AcDbLine
 10
282.5785003086819
 20
118.8608924802382
 30
0.0
 11
283.3285003086821
 21
118.8608924802382
 31
0.0
  0
LINE
  5
1EE
330
6C
100
AcDbEntity
  8
1
  6
Continuous
 62
     7
100
AcDbLine
 10
282.5785003086819
 20
156.6413924802382
 30
0.0
 11
283.3285003086821
 21
156.6413924802382
 31
0.0
  0
LINE
  5
1EF
330
6C
100
AcDbEntity
  8
1
  6
Continuous
 62
     2
100
AcDbLine
 10
300.2035003086817
 20
175.2859294125159
 30
0.0
 11
300.2035003086817
 21
173.1413924802383
 31
0.0
  0
LINE
  5
1F0
330
6C
100
AcDbEntity
  8
1
  6
Continuous
 62
     2
100
AcDbLine
 10
333.9535003086821
 20
175.2859294125159
 30
0.0
 11
333.9535003086821
 21
173.1413924802383
 31
0.0
  0
LINE
  5
1F1
330
6C
100
AcDbEntity
  8
1
  6
Continuous
 62
     7
100
AcDbLine
 10
335.0785003086821
 20
175.2859294125159
 30
0.0
 11
335.0785003086821
 21
173.1413924802383
 31
0.0
  0
LINE
  5
1F2
330
6C
100
AcDbEntity
  8
1
  6
Continuous
 62
     7
100
AcDbLine
 10
297.1613179693799
 20
169.2756529824221
 30
0.0
 11
296.8060320413302
 21
162.4963936260733
 31
0.0
  0
LINE
  5
1F3
330
6C
100
AcDbEntity
  8
1
  6
Continuous
 62
     7
100
AcDbLine
 10
315.6178702072697
 20
114.4901249091157
 30
0.0
 11
303.5391304100963
 21
114.4901249091167
 31
0.0
  0
LINE
  5
1F4
330
6C
100
AcDbEntity
  8
1
  6
Continuous
 62
     7
100
AcDbLine
 10
303.5391304100963
 20
114.4901249091167
 30
0.0
 11
303.4225819374839
 21
115.8222800468861
 31
0.0
  0
LINE
  5
1F5
330
6C
100
AcDbEntity
  8
1
  6
Continuous
 62
     7
100
AcDbLine
 10
338.6797678798056
 20
137.1413924802382
 30
0.0
 11
336.9956826479835
 21
169.2756529824221
 31
0.0
  0
LINE
  5
1F6
330
6C
100
AcDbEntity
  8
1
  6
Continuous
 62
     7
100
AcDbLine
 10
285.4407362685114
 20
117.6413924802385
 30
0.0
 11
286.9188528173648
 21
116.1632759313854
 31
0.0
  0
LINE
  5
1F7
330
6C
100
AcDbEntity
  8
1
  6
Continuous
 62
     7
100
AcDbLine
 10
283.3285003086821
 20
117.6413924802385
 30
0.0
 11
282.5785003086819
 21
117.6413924802385
 31
0.0
  0
LINE
  5
1F8
330
6C
100
AcDbEntity
  8
1
  6
Continuous
 62
     7
100
AcDbLine
 10
285.4407362685114
 20
117.6413924802385
 30
0.0
 11
283.3285003086821
 21
117.6413924802385
 31
0.0
  0
LINE
  5
1F9
330
6C
100
AcDbEntity
  8
1
  6
Continuous
 62
     2
100
AcDbLine
 10
283.3285003086821
 20
155.4218924802388
 30
0.0
 11
282.5785003086819
 21
155.4218924802388
 31
0.0
  0
LINE
  5
1FA
330
6C
100
AcDbEntity
  8
1
  6
Continuous
 62
     7
100
AcDbLine
 10
283.3285003086821
 20
156.6413924802382
 30
0.0
 11
285.4407362685114
 21
156.6413924802382
 31
0.0
  0
LINE
  5
1FB
330
6C
100
AcDbEntity
  8
1
  6
Continuous
 62
     7
100
AcDbLine
 10
299.0785003086821
 20
173.1413924802383
 30
0.0
 11
299.0785003086821
 21
175.2859294125159
 31
0.0
  0
LINE
  5
1FC
330
6C
100
AcDbEntity
  8
1
  6
Continuous
 62
     2
100
AcDbLine
 10
283.3285003086821
 20
155.4218924802388
 30
0.0
 11
285.4407362685114
 21
156.6413924802382
 31
0.0
  0
LINE
  5
1FD
330
6C
100
AcDbEntity
  8
1
  6
Continuous
 62
     7
100
AcDbLine
 10
283.3285003086821
 20
155.4218924802388
 30
0.0
 11
283.3285003086821
 21
156.6413924802382
 31
0.0
  0
LINE
  5
1FE
330
6C
100
AcDbEntity
  8
1
  6
Continuous
 62
     7
100
AcDbLine
 10
299.0785003086817
 20
171.1928353217237
 30
0.0
 11
299.0785003086821
 21
173.1413924802383
 31
0.0
  0
LINE
  5
1FF
330
6C
100
AcDbEntity
  8
1
  6
Continuous
 62
     7
100
AcDbLine
 10
335.0785003086821
 20
173.1413924802383
 30
0.0
 11
335.0785003086819
 21
171.1928353217236
 31
0.0
  0
LINE
  5
200
330
6C
100
AcDbEntity
  8
1
  6
Continuous
 62
     7
100
AcDbLine
 10
335.0785003086821
 20
173.1413924802383
 30
0.0
 11
299.0785003086821
 21
173.1413924802383
 31
0.0
  0
LINE
  5
201
330
6C
100
AcDbEntity
  8
1
  6
Continuous
 62
     7
100
AcDbLine
 10
283.3285003086821
 20
117.6413924802385
 30
0.0
 11
283.3285003086821
 21
118.8608924802382
 31
0.0
  0
LINE
  5
202
330
6C
100
AcDbEntity
  8
1
  6
Continuous
 62
     2
100
AcDbLine
 10
285.4407362685114
 20
117.6413924802385
 30
0.0
 11
283.3285003086821
 21
118.8608924802382
 31
0.0
  0
LINE
  5
203
330
6C
100
AcDbEntity
  8
1
  6
Continuous
 62
     7
100
AcDbLine
 10
292.4051571587153
 20
158.2328656643039
 30
0.0
 11
286.9188528173652
 21
158.1195090290915
 31
0.0
  0
LINE
  5
204
330
6C
100
AcDbEntity
  8
1
  6
Continuous
 62
     7
100
AcDbLine
 10
286.9188528173652
 20
158.1195090290915
 30
0.0
 11
285.4407362685114
 21
156.6413924802382
 31
0.0
  0
LINE
  5
205
330
6C
100
AcDbEntity
  8
1
  6
Continuous
 62
     7
100
AcDbLine
 10
317.078500308672
 20
115.5401249091145
 30
0.0
 11
286.9188528173648
 21
116.1632759313854
 31
0.0
  0
LINE
  5
206
330
6C
100
AcDbEntity
  8
1
  6
Continuous
 62
     7
100
AcDbLine
 10
317.078500308672
 20
115.5401249091145
 30
0.0
 11
315.7097333039718
 21
115.5401249091145
 31
0.0
  0
LINE
  5
207
330
6C
100
AcDbEntity
  8
1
  6
Continuous
 62
     7
100
AcDbLine
 10
315.7097333039718
 20
115.5401249091145
 30
0.0
 11
315.6178702072697
 21
114.4901249091157
 31
0.0
  0
LINE
  5
208
330
6C
100
AcDbEntity
  8
1
  6
Continuous
 62
     7
100
AcDbLine
 10
126.6567136184809
 20
152.5962770513684
 30
0.0
 11
126.6567136184806
 21
121.6865079091087
 31
0.0
  0
LINE
  5
209
330
6C
100
AcDbEntity
  8
1
  6
Continuous
 62
     7
100
AcDbLine
 10
55.35556274720353
 20
154.0163924802386
 30
0.0
 11
55.35556274720353
 21
120.2663924802386
 31
0.0
  0
LINE
  5
20A
330
6C
100
AcDbEntity
  8
1
  6
Continuous
 62
     7
100
AcDbLine
 10
39.4545981896107
 20
121.3913924802386
 30
0.0
 11
39.4545981896107
 21
152.8913924802386
 31
0.0
  0
LINE
  5
20B
330
6C
100
AcDbEntity
  8
1
  6
Continuous
 62
     7
100
AcDbLine
 10
51.2115981896109
 20
151.1483924802388
 30
0.0
 11
51.2115981896109
 21
123.1343924802392
 31
0.0
  0
LINE
  5
20C
330
6C
100
AcDbEntity
  8
1
  6
Continuous
 62
     7
100
AcDbLine
 10
99.58659818961091
 20
173.1413924802386
 30
0.0
 11
65.83659818961043
 21
173.1413924802386
 31
0.0
  0
LINE
  5
20D
330
6C
100
AcDbEntity
  8
1
  6
Continuous
 62
     7
100
AcDbLine
 10
100.7115981896109
 20
175.2859294125159
 30
0.0
 11
100.7115981896109
 21
171.1928353217236
 31
0.0
  0
LINE
  5
20E
330
6C
100
AcDbEntity
  8
1
  6
Continuous
 62
     7
100
AcDbLine
 10
86.41906122678509
 20
411.4817449889222
 30
0.0
 11
61.73348164075755
 21
411.4817449889222
 31
0.0
  0
LINE
  5
20F
330
6C
100
AcDbEntity
  8
1
  6
Continuous
 62
     7
100
AcDbLine
 10
90.0094137354684
 20
407.8913924802386
 30
0.0
 11
64.4310981896103
 21
407.8913924802386
 31
0.0
  0
LINE
  5
210
330
6C
100
AcDbEntity
  8
1
  6
Continuous
 62
     7
100
AcDbLine
 10
63.21159818961073
 20
405.6413924802386
 30
0.0
 11
63.21159818961073
 21
410.003628440068
 31
0.0
  0
LINE
  5
211
330
6C
100
AcDbEntity
  8
1
  6
Continuous
 62
     7
100
AcDbLine
 10
57.05531387001328
 20
154.0163924802386
 30
0.0
 11
55.35556274720353
 21
154.0163924802386
 31
0.0
  0
LINE
  5
212
330
6C
100
AcDbEntity
  8
1
  6
Continuous
 62
     7
100
AcDbLine
 10
55.35556274720353
 20
120.2663924802386
 30
0.0
 11
57.05531387001253
 21
120.2663924802386
 31
0.0
  0
LINE
  5
213
330
6C
100
AcDbEntity
  8
1
  6
Continuous
 62
     7
100
AcDbLine
 10
55.35556274720353
 20
120.2663924802386
 30
0.0
 11
54.23056274720353
 21
121.3913924802386
 31
0.0
  0
LINE
  5
214
330
6C
100
AcDbEntity
  8
1
  6
Continuous
 62
     7
100
AcDbLine
 10
127.7115981896109
 20
122.7413924802387
 30
0.0
 11
126.6567136184806
 21
121.6865079091087
 31
0.0
  0
LINE
  5
215
330
6C
100
AcDbEntity
  8
1
  6
Continuous
 62
     7
100
AcDbLine
 10
126.6567136184809
 20
152.5962770513684
 30
0.0
 11
127.7115981896107
 21
151.5413924802387
 31
0.0
  0
LINE
  5
216
330
6C
100
AcDbEntity
  8
1
  6
Continuous
 62
     2
100
AcDbLine
 10
51.2115981896109
 20
151.1483924802388
 30
0.0
 11
54.23056274720353
 21
152.8913924802387
 31
0.0
  0
LINE
  5
217
330
6C
100
AcDbEntity
  8
1
  6
Continuous
 62
     2
100
AcDbLine
 10
37.7115981896109
 20
151.148392480239
 30
0.0
 11
51.2115981896109
 21
151.1483924802388
 31
0.0
  0
LINE
  5
218
330
6C
100
AcDbEntity
  8
1
  6
Continuous
 62
     7
100
AcDbLine
 10
37.7115981896109
 20
123.1343924802392
 30
0.0
 11
37.7115981896109
 21
151.148392480239
 31
0.0
  0
LINE
  5
219
330
6C
100
AcDbEntity
  8
1
  6
Continuous
 62
     7
100
AcDbLine
 10
127.7115981896109
 20
122.7413924802387
 30
0.0
 11
127.7115981896107
 21
151.5413924802387
 31
0.0
  0
LINE
  5
21A
330
6C
100
AcDbEntity
  8
1
  6
Continuous
 62
     2
100
AcDbLine
 10
54.23056274720353
 20
121.3913924802386
 30
0.0
 11
51.2115981896109
 21
123.1343924802392
 31
0.0
  0
LINE
  5
21B
330
6C
100
AcDbEntity
  8
1
  6
Continuous
 62
     7
100
AcDbLine
 10
39.4545981896107
 20
152.8913924802386
 30
0.0
 11
51.21159818961039
 21
152.8913924802386
 31
0.0
  0
LINE
  5
21C
330
6C
100
AcDbEntity
  8
1
  6
Continuous
 62
     7
100
AcDbLine
 10
37.7115981896109
 20
151.148392480239
 30
0.0
 11
39.4545981896107
 21
152.8913924802386
 31
0.0
  0
LINE
  5
21D
330
6C
100
AcDbEntity
  8
1
  6
Continuous
 62
     7
100
AcDbLine
 10
39.4545981896107
 20
121.3913924802386
 30
0.0
 11
51.2115981896109
 21
121.3913924802386
 31
0.0
  0
LINE
  5
21E
330
6C
100
AcDbEntity
  8
1
  6
Continuous
 62
     7
100
AcDbLine
 10
37.7115981896109
 20
123.1343924802392
 30
0.0
 11
39.4545981896107
 21
121.3913924802386
 31
0.0
  0
LINE
  5
21F
330
6C
100
AcDbEntity
  8
1
  6
Continuous
 62
     7
100
AcDbLine
 10
51.2115981896109
 20
151.1483924802388
 30
0.0
 11
51.21159818961039
 21
152.8913924802386
 31
0.0
  0
LINE
  5
220
330
6C
100
AcDbEntity
  8
1
  6
Continuous
 62
     7
100
AcDbLine
 10
51.21159818961039
 20
152.8913924802386
 30
0.0
 11
54.23056274720353
 21
152.8913924802387
 31
0.0
  0
LINE
  5
221
330
6C
100
AcDbEntity
  8
1
  6
Continuous
 62
     2
100
AcDbLine
 10
51.2115981896109
 20
123.1343924802392
 30
0.0
 11
37.7115981896109
 21
123.1343924802392
 31
0.0
  0
LINE
  5
222
330
6C
100
AcDbEntity
  8
1
  6
Continuous
 62
     7
100
AcDbLine
 10
51.2115981896109
 20
121.3913924802386
 30
0.0
 11
51.2115981896109
 21
123.1343924802392
 31
0.0
  0
LINE
  5
223
330
6C
100
AcDbEntity
  8
1
  6
Continuous
 62
     7
100
AcDbLine
 10
64.71159818961088
 20
173.1413924802386
 30
0.0
 11
64.71159818961073
 21
175.2859294125159
 31
0.0
  0
LINE
  5
224
330
6C
100
AcDbEntity
  8
1
  6
Continuous
 62
     7
100
AcDbLine
 10
64.71159818961088
 20
173.1413924802386
 30
0.0
 11
65.83659818961043
 21
173.1413924802386
 31
0.0
  0
LINE
  5
225
330
6C
100
AcDbEntity
  8
1
  6
Continuous
 62
     7
100
AcDbLine
 10
64.71159818961073
 20
171.1928353217237
 30
0.0
 11
64.71159818961088
 21
173.1413924802386
 31
0.0
  0
LINE
  5
226
330
6C
100
AcDbEntity
  8
1
  6
Continuous
 62
     7
100
AcDbLine
 10
100.7115981896109
 20
173.1413924802386
 30
0.0
 11
99.58659818961091
 21
173.1413924802386
 31
0.0
  0
LINE
  5
227
330
6C
100
AcDbEntity
  8
1
  6
Continuous
 62
     2
100
AcDbLine
 10
65.83659818961043
 20
173.1413924802386
 30
0.0
 11
65.83659818961043
 21
175.2859294125159
 31
0.0
  0
LINE
  5
228
330
6C
100
AcDbEntity
  8
1
  6
Continuous
 62
     7
100
AcDbLine
 10
54.23056274720353
 20
121.3913924802386
 30
0.0
 11
51.2115981896109
 21
121.3913924802386
 31
0.0
  0
LINE
  5
229
330
6C
100
AcDbEntity
  8
1
  6
Continuous
 62
     7
100
AcDbLine
 10
54.23056274720353
 20
152.8913924802387
 30
0.0
 11
55.35556274720353
 21
154.0163924802386
 31
0.0
  0
LINE
  5
22A
330
6C
100
AcDbEntity
  8
1
  6
Continuous
 62
     2
100
AcDbLine
 10
99.58659818961091
 20
173.1413924802386
 30
0.0
 11
99.58659818961091
 21
175.2859294125159
 31
0.0
  0
LINE
  5
22B
330
6C
100
AcDbEntity
  8
1
  6
Continuous
 62
     7
100
AcDbLine
 10
103.0560362955529
 20
161.123127298534
 30
0.0
 11
102.6287805289124
 21
169.2756529824221
 31
0.0
  0
LINE
  5
22C
330
6C
100
AcDbEntity
  8
1
  6
Continuous
 62
     7
100
AcDbLine
 10
62.79441585030891
 20
169.2756529824221
 30
0.0
 11
62.23163806416373
 21
158.5372131201668
 31
0.0
  0
LINE
  5
22D
330
6C
100
AcDbEntity
  8
1
  6
Continuous
 62
     7
100
AcDbLine
 10
54.23056274720338
 20
457.3913924802388
 30
0.0
 11
54.23056274720338
 21
453.3771926228328
 31
0.0
  0
LINE
  5
22E
330
6C
100
AcDbEntity
  8
1
  6
Continuous
 62
     7
100
AcDbLine
 10
39.45459818961053
 20
427.634392480239
 30
0.0
 11
39.45459818961053
 21
434.72521087453
 31
0.0
  0
LINE
  5
22F
330
6C
100
AcDbEntity
  8
1
  6
Continuous
 62
     7
100
AcDbLine
 10
51.2115981896109
 20
455.6483924802389
 30
0.0
 11
51.2115981896109
 21
452.5682635076479
 31
0.0
  0
LINE
  5
230
330
6C
100
AcDbEntity
  8
1
  6
Continuous
 62
     7
100
AcDbLine
 10
63.21159818961073
 20
410.003628440068
 30
0.0
 11
87.89717777563888
 21
410.003628440068
 31
0.0
  0
LINE
  5
231
330
6C
100
AcDbEntity
  8
1
  6
Continuous
 62
     2
100
AcDbLine
 10
64.4310981896103
 20
407.8913924802386
 30
0.0
 11
63.21159818961073
 21
410.003628440068
 31
0.0
  0
LINE
  5
232
330
6C
100
AcDbEntity
  8
1
  6
Continuous
 62
     7
100
AcDbLine
 10
64.4310981896103
 20
407.8913924802386
 30
0.0
 11
63.21159818961073
 21
407.8913924802386
 31
0.0
  0
LINE
  5
233
330
6C
100
AcDbEntity
  8
1
  6
Continuous
 62
     7
100
AcDbLine
 10
54.23056274720338
 20
425.8913924802385
 30
0.0
 11
51.21159818961073
 21
425.8913924802385
 31
0.0
  0
LINE
  5
234
330
6C
100
AcDbEntity
  8
1
  6
Continuous
 62
     7
100
AcDbLine
 10
51.21159818961073
 20
425.8913924802385
 30
0.0
 11
51.21159818961073
 21
427.634392480239
 31
0.0
  0
LINE
  5
235
330
6C
100
AcDbEntity
  8
1
  6
Continuous
 62
     2
100
AcDbLine
 10
51.21159818961073
 20
427.634392480239
 30
0.0
 11
39.45459818961053
 21
427.634392480239
 31
0.0
  0
LINE
  5
236
330
6C
100
AcDbEntity
  8
1
  6
Continuous
 62
     7
100
AcDbLine
 10
51.21159818961056
 20
457.3913924802385
 30
0.0
 11
54.23056274720338
 21
457.3913924802388
 31
0.0
  0
LINE
  5
237
330
6C
100
AcDbEntity
  8
1
  6
Continuous
 62
     7
100
AcDbLine
 10
51.2115981896109
 20
455.6483924802389
 30
0.0
 11
51.21159818961056
 21
457.3913924802385
 31
0.0
  0
LINE
  5
238
330
6C
100
AcDbEntity
  8
1
  6
Continuous
 62
     7
100
AcDbLine
 10
37.71159818961073
 20
427.634392480239
 30
0.0
 11
39.45459818961053
 21
425.8913924802385
 31
0.0
  0
LINE
  5
239
330
6C
100
AcDbEntity
  8
1
  6
Continuous
 62
     7
100
AcDbLine
 10
37.7115981896109
 20
455.6483924802389
 30
0.0
 11
39.4545981896107
 21
457.3913924802385
 31
0.0
  0
LINE
  5
23A
330
6C
100
AcDbEntity
  8
1
  6
Continuous
 62
     7
100
AcDbLine
 10
39.4545981896107
 20
457.3913924802385
 30
0.0
 11
51.21159818961056
 21
457.3913924802385
 31
0.0
  0
LINE
  5
23B
330
6C
100
AcDbEntity
  8
1
  6
Continuous
 62
     7
100
AcDbLine
 10
39.4545981896107
 20
457.3913924802385
 30
0.0
 11
39.4545981896107
 21
455.6483924802389
 31
0.0
  0
LINE
  5
23C
330
6C
100
AcDbEntity
  8
1
  6
Continuous
 62
     7
100
AcDbLine
 10
39.45459818961053
 20
425.8913924802385
 30
0.0
 11
39.45459818961053
 21
427.634392480239
 31
0.0
  0
LINE
  5
23D
330
6C
100
AcDbEntity
  8
1
  6
Continuous
 62
     2
100
AcDbLine
 10
39.45459818961053
 20
427.634392480239
 30
0.0
 11
37.71159818961073
 21
427.634392480239
 31
0.0
  0
LINE
  5
23E
330
6C
100
AcDbEntity
  8
1
  6
Continuous
 62
     7
100
AcDbLine
 10
37.71159818961073
 20
427.634392480239
 30
0.0
 11
37.7115981896109
 21
436.6681455438374
 31
0.0
  0
LINE
  5
23F
330
6C
100
AcDbEntity
  8
1
  6
Continuous
 62
     2
100
AcDbLine
 10
54.23056274720338
 20
425.8913924802385
 30
0.0
 11
51.21159818961073
 21
427.634392480239
 31
0.0
  0
LINE
  5
240
330
6C
100
AcDbEntity
  8
1
  6
Continuous
 62
     7
100
AcDbLine
 10
54.23056274720338
 20
457.3913924802388
 30
0.0
 11
55.35556274720353
 21
458.5163924802388
 31
0.0
  0
LINE
  5
241
330
6C
100
AcDbEntity
  8
1
  6
Continuous
 62
     2
100
AcDbLine
 10
37.7115981896109
 20
455.6483924802389
 30
0.0
 11
39.4545981896107
 21
455.6483924802389
 31
0.0
  0
LINE
  5
242
330
6C
100
AcDbEntity
  8
1
  6
Continuous
 62
     2
100
AcDbLine
 10
39.4545981896107
 20
455.6483924802389
 30
0.0
 11
51.2115981896109
 21
455.6483924802389
 31
0.0
  0
LINE
  5
243
330
6C
100
AcDbEntity
  8
1
  6
Continuous
 62
     2
100
AcDbLine
 10
51.2115981896109
 20
455.6483924802389
 30
0.0
 11
54.23056274720338
 21
457.3913924802388
 31
0.0
  0
LINE
  5
244
330
6C
100
AcDbEntity
  8
1
  6
Continuous
 62
     7
100
AcDbLine
 10
127.7115981896107
 20
427.2413924802386
 30
0.0
 11
126.6567136184806
 21
426.1865079091085
 31
0.0
  0
LINE
  5
245
330
6C
100
AcDbEntity
  8
1
  6
Continuous
 62
     7
100
AcDbLine
 10
127.7115981896107
 20
427.2413924802386
 30
0.0
 11
127.7115981896107
 21
456.0413924802389
 31
0.0
  0
LINE
  5
246
330
6C
100
AcDbEntity
  8
1
  6
Continuous
 62
     7
100
AcDbLine
 10
126.6567136184806
 20
457.0962770513685
 30
0.0
 11
127.7115981896107
 21
456.0413924802389
 31
0.0
  0
LINE
  5
247
330
6C
100
AcDbEntity
  8
1
  6
Continuous
 62
     7
100
AcDbLine
 10
126.6567136184806
 20
426.1865079091085
 30
0.0
 11
126.6567136184806
 21
457.0962770513685
 31
0.0
  0
LINE
  5
248
330
6C
100
AcDbEntity
  8
1
  6
Continuous
 62
     7
100
AcDbLine
 10
39.45459818961053
 20
425.8913924802385
 30
0.0
 11
51.21159818961073
 21
425.8913924802385
 31
0.0
  0
LINE
  5
249
330
6C
100
AcDbEntity
  8
1
  6
Continuous
 62
     7
100
AcDbLine
 10
61.52898449635858
 20
421.3791239029095
 30
0.0
 11
61.73348164075755
 21
411.4817449889222
 31
0.0
  0
LINE
  5
24A
330
6C
100
AcDbEntity
  8
1
  6
Continuous
 62
     7
100
AcDbLine
 10
61.73348164075755
 20
411.4817449889222
 30
0.0
 11
63.21159818961073
 21
410.003628440068
 31
0.0
  0
LINE
  5
24B
330
6C
100
AcDbEntity
  8
1
  6
Continuous
 62
     7
100
AcDbLine
 10
55.35556274720353
 20
424.7663924802385
 30
0.0
 11
54.23056274720338
 21
425.8913924802385
 31
0.0
  0
LINE
  5
24C
330
6C
100
AcDbEntity
  8
1
  6
Continuous
 62
     7
100
AcDbLine
 10
55.35556274720353
 20
424.7663924802385
 30
0.0
 11
55.35556274720353
 21
429.6075299944227
 31
0.0
  0
LINE
  5
24D
330
6C
100
AcDbEntity
  8
1
  6
Continuous
 62
     7
100
AcDbLine
 10
55.35556274720353
 20
424.7663924802385
 30
0.0
 11
57.05531387001328
 21
424.7663924802385
 31
0.0
  0
LINE
  5
24E
330
6C
100
AcDbEntity
  8
1
  6
Continuous
 62
     7
100
AcDbLine
 10
57.05531387001343
 20
458.5163924802385
 30
0.0
 11
55.35556274720353
 21
458.5163924802388
 31
0.0
  0
LINE
  5
24F
330
6C
100
AcDbEntity
  8
1
  6
Continuous
 62
     7
100
AcDbLine
 10
37.7115981896109
 20
446.6180199149039
 30
0.0
 11
37.7115981896109
 21
455.6483924802389
 31
0.0
  0
LINE
  5
250
330
6C
100
AcDbEntity
  8
1
  6
Continuous
 62
     7
100
AcDbLine
 10
39.4545981896107
 20
448.5609545842114
 30
0.0
 11
39.4545981896107
 21
455.6483924802389
 31
0.0
  0
LINE
  5
251
330
6C
100
AcDbEntity
  8
1
  6
Continuous
 62
     7
100
AcDbLine
 10
55.35556274720353
 20
453.6786354643181
 30
0.0
 11
55.35556274720353
 21
458.5163924802388
 31
0.0
  0
LINE
  5
252
330
6C
100
AcDbEntity
  8
1
  6
Continuous
 62
     7
100
AcDbLine
 10
54.23056274720338
 20
429.9089728359078
 30
0.0
 11
54.23056274720338
 21
425.8913924802385
 31
0.0
  0
LINE
  5
253
330
6C
100
AcDbEntity
  8
1
  6
Continuous
 62
     7
100
AcDbLine
 10
51.21159818961073
 20
430.7179019510929
 30
0.0
 11
51.21159818961073
 21
427.634392480239
 31
0.0
  0
LINE
  5
254
330
6C
100
AcDbEntity
  8
1
  6
Continuous
 62
     2
100
AcDbLine
 10
64.4310981896103
 20
407.8913924802386
 30
0.0
 11
64.4310981896103
 21
405.6413924802386
 31
0.0
  0
LINE
  5
255
330
6C
100
AcDbEntity
  8
1
  6
Continuous
 62
     7
100
AcDbLine
 10
54.23056274720353
 20
152.8913924802387
 30
0.0
 11
54.23056274720353
 21
121.3913924802386
 31
0.0
  0
LINE
  5
256
330
6C
100
AcDbEntity
  8
1
  6
Continuous
 62
     7
100
AcDbLine
 10
100.7115981896109
 20
171.1928353217236
 30
0.0
 11
99.58659818961091
 21
173.1413924802386
 31
0.0
  0
LINE
  5
257
330
6C
100
AcDbEntity
  8
1
  6
Continuous
 62
     7
100
AcDbLine
 10
100.7115981896109
 20
171.1928353217236
 30
0.0
 11
102.6287805289124
 21
169.2756529824221
 31
0.0
  0
LINE
  5
258
330
6C
100
AcDbEntity
  8
1
  6
Continuous
 62
     7
100
AcDbLine
 10
102.6287805289124
 20
169.2756529824221
 30
0.0
 11
62.79441585030891
 21
169.2756529824221
 31
0.0
  0
LINE
  5
259
330
6C
100
AcDbEntity
  8
1
  6
Continuous
 62
     7
100
AcDbLine
 10
64.71159818961073
 20
171.1928353217237
 30
0.0
 11
100.7115981896109
 21
171.1928353217236
 31
0.0
  0
LINE
  5
25A
330
6C
100
AcDbEntity
  8
1
  6
Continuous
 62
     7
100
AcDbLine
 10
62.79441585030891
 20
169.2756529824221
 30
0.0
 11
64.71159818961073
 21
171.1928353217237
 31
0.0
  0
LINE
  5
25B
330
6C
100
AcDbEntity
  8
1
  6
Continuous
 62
     7
100
AcDbLine
 10
65.83659818961043
 20
173.1413924802386
 30
0.0
 11
64.71159818961073
 21
171.1928353217237
 31
0.0
  0
LINE
  5
25C
330
6C
100
AcDbEntity
  8
1
  6
Continuous
 62
     7
100
AcDbLine
 10
297.1613179693799
 20
169.2756529824221
 30
0.0
 11
299.0785003086817
 21
171.1928353217237
 31
0.0
  0
LINE
  5
25D
330
6C
100
AcDbEntity
  8
1
  6
Continuous
 62
     7
100
AcDbLine
 10
299.0785003086817
 20
171.1928353217237
 30
0.0
 11
335.0785003086819
 21
171.1928353217236
 31
0.0
  0
LINE
  5
25E
330
6C
100
AcDbEntity
  8
1
  6
Continuous
 62
     7
100
AcDbLine
 10
336.9956826479835
 20
169.2756529824221
 30
0.0
 11
297.1613179693799
 21
169.2756529824221
 31
0.0
  0
LINE
  5
25F
330
6C
100
AcDbEntity
  8
1
  6
Continuous
 62
     7
100
AcDbLine
 10
335.0785003086819
 20
171.1928353217236
 30
0.0
 11
336.9956826479835
 21
169.2756529824221
 31
0.0
  0
LINE
  5
260
330
6C
100
AcDbEntity
  8
1
  6
Continuous
 62
     7
100
AcDbLine
 10
335.0785003086819
 20
171.1928353217236
 30
0.0
 11
333.9535003086821
 21
173.1413924802383
 31
0.0
  0
LINE
  5
261
330
6C
100
AcDbEntity
  8
1
  6
Continuous
 62
     7
100
AcDbLine
 10
300.2035003086817
 20
173.1413924802383
 30
0.0
 11
299.0785003086817
 21
171.1928353217237
 31
0.0
  0
LINE
  5
262
330
6C
100
AcDbEntity
  8
1
  6
Continuous
 62
     7
100
AcDbLine
 10
285.4407362685114
 20
156.6413924802382
 30
0.0
 11
285.4407362685114
 21
117.6413924802385
 31
0.0
  0
LINE
  5
263
330
6C
100
AcDbEntity
  8
1
  6
Continuous
 62
     7
100
AcDbLine
 10
283.3285003086821
 20
155.4218924802388
 30
0.0
 11
283.3285003086821
 21
118.8608924802382
 31
0.0
  0
ARC
  5
264
330
6C
100
AcDbEntity
  8
1
  6
Continuous
 62
     7
100
AcDbCircle
 10
317.6797678797975
 20
137.1413924802386
 30
0.0
 40
21.00000000000841
100
AcDbArc
 50
323.5443418859972
 51
359.9999999999989
  0
ARC
  5
265
330
6C
100
AcDbEntity
  8
1
  6
Continuous
 62
     7
100
AcDbCircle
 10
316.4718087407964
 20
138.0337893249253
 30
0.0
 40
22.50184466904117
100
AcDbArc
 50
271.5449879650778
 51
323.5443418859762
  0
ARC
  5
266
330
6C
100
AcDbEntity
  8
1
  6
Continuous
 62
     7
100
AcDbCircle
 10
82.71159818960834
 20
183.040124909106
 30
0.0
 40
67.49999999999143
100
AcDbArc
 50
249.1245744053821
 51
260.2865738915584
  0
ARC
  5
267
330
6C
100
AcDbEntity
  8
1
  6
Continuous
 62
     7
100
AcDbCircle
 10
82.71159818961104
 20
303.0711255048483
 30
0.0
 40
160.1715345465142
100
AcDbArc
 50
74.07595342883326
 51
81.14996041219322
  0
ARC
  5
268
330
6C
100
AcDbEntity
  8
1
  6
Continuous
 62
     7
100
AcDbCircle
 10
82.71159818960834
 20
91.2426600513712
 30
0.0
 40
67.49999999999103
100
AcDbArc
 50
110.2952707767012
 51
110.8754255946174
  0
ARC
  5
269
330
6C
100
AcDbEntity
  8
1
  6
Continuous
 62
     7
100
AcDbCircle
 10
82.71159818961104
 20
-1.42887449515167
 30
0.0
 40
160.1715345465141
100
AcDbArc
 50
74.07595342883315
 51
81.32466676716966
  0
ARC
  5
26A
330
6C
100
AcDbEntity
  8
1
  6
Continuous
 62
     7
100
AcDbCircle
 10
82.71159818961104
 20
275.7116594556289
 30
0.0
 40
160.1715345465142
100
AcDbArc
 50
274.0773234449277
 51
285.9240465711667
  0
ARC
  5
26B
330
6C
100
AcDbEntity
  8
1
  6
Continuous
 62
     7
100
AcDbCircle
 10
82.71159818961104
 20
580.2116594556286
 30
0.0
 40
160.171534546514
100
AcDbArc
 50
278.9450514701951
 51
285.9240465711667
  0
ARC
  5
26C
330
6C
100
AcDbEntity
  8
1
  6
Continuous
 62
     7
100
AcDbCircle
 10
82.71159818960834
 20
487.540124909106
 30
0.0
 40
67.49999999999139
100
AcDbArc
 50
249.1245744053829
 51
249.9398342485325
  0
ARC
  5
26D
330
6C
100
AcDbEntity
  8
1
  6
Continuous
 62
     7
100
AcDbCircle
 10
82.71159818960834
 20
395.7426600513713
 30
0.0
 40
67.49999999999095
100
AcDbArc
 50
94.5232400861165
 51
110.8754255946173
  0
ARC
  5
26E
330
6C
100
AcDbEntity
  8
1
  6
Continuous
 62
     7
100
AcDbCircle
 10
292.3121991349347
 20
162.7319054291665
 30
0.0
 40
4.500000000000014
100
AcDbArc
 50
271.1836625121499
 51
357.0000000000009
  0
ARC
  5
26F
330
6C
100
AcDbEntity
  8
1
  6
Continuous
 62
     7
100
AcDbCircle
 10
108.3159087079533
 20
417.5428745803982
 30
0.0
 40
4.499999999999798
100
AcDbArc
 50
98.94505147019476
 51
102.3068419562261
  0
ARC
  5
270
330
6C
100
AcDbEntity
  8
1
  6
Continuous
 62
     7
100
AcDbCircle
 10
57.73780515776818
 20
158.7727249232601
 30
0.0
 40
4.500000000000034
100
AcDbArc
 50
290.2952707767006
 51
356.9999999999991
  0
ARC
  5
271
330
6C
100
AcDbEntity
  8
1
  6
Continuous
 62
     7
100
AcDbCircle
 10
57.05531387001328
 20
158.5163924802386
 30
0.0
 40
4.5
100
AcDbArc
 50
270.0
 51
290.8754255946166
  0
ARC
  5
272
330
6C
100
AcDbEntity
  8
1
  6
Continuous
 62
     7
100
AcDbCircle
 10
57.05531387001253
 20
115.7663924802386
 30
0.0
 40
4.500000000000118
100
AcDbArc
 50
69.12457440538168
 51
90.0
  0
ARC
  5
273
330
6C
100
AcDbEntity
  8
1
  6
Continuous
 62
     7
100
AcDbCircle
 10
107.5498692019485
 20
161.3586391016273
 30
0.0
 40
4.500000000000016
100
AcDbArc
 50
183.0000000000005
 51
261.3246667671679
  0
ARC
  5
274
330
6C
100
AcDbEntity
  8
1
  6
Continuous
 62
     7
100
AcDbCircle
 10
57.05531387001328
 20
420.2663924802385
 30
0.0
 40
4.499999999999994
100
AcDbArc
 50
69.12457440537874
 51
90.0
  0
ARC
  5
275
330
6C
100
AcDbEntity
  8
1
  6
Continuous
 62
     7
100
AcDbCircle
 10
58.52962465311703
 20
421.3171518870558
 30
0.0
 40
2.999999999999824
100
AcDbArc
 50
1.1836625121493
 51
69.93983424853316
  0
ARC
  5
276
330
6C
100
AcDbEntity
  8
1
  6
Continuous
 62
     7
100
AcDbCircle
 10
57.05531387001343
 20
463.0163924802385
 30
0.0
 40
4.5
100
AcDbArc
 50
270.0
 51
290.875425594617
  0
ENDBLK
  5
6E
330
6C
100
AcDbEntity
  8
0
100
AcDbBlockEnd
  0
BLOCK
  5
70
330
6F
100
AcDbEntity
  8
0
100
AcDbBlockBegin
  2
62-1B-M2
 70
     0
 10
-350.9384018103891
 20
423.5896365725786
 30
0.0
  3
62-1B-M2
  1

  0
LINE
  5
277
330
6F
100
AcDbEntity
  8
1
  6
Continuous
 62
     7
100
AcDbLine
 10
218.4878845481217
 20
78.93067448138652
 30
0.0
 11
197.0083899953531
 21
88.94672728464104
 31
0.0
  0
LINE
  5
278
330
6F
100
AcDbEntity
  8
1
  6
Continuous
 62
     7
100
AcDbLine
 10
266.0785003086819
 20
148.9913924802389
 30
0.0
 11
261.2251215343191
 21
148.9913924802388
 31
0.0
  0
LINE
  5
279
330
6F
100
AcDbEntity
  8
1
  6
Continuous
 62
     7
100
AcDbLine
 10
266.0785003086819
 20
125.1413924802387
 30
0.0
 11
258.0751215343187
 21
125.1413924802387
 31
0.0
  0
LINE
  5
27A
330
6F
100
AcDbEntity
  8
1
  6
Continuous
 62
     7
100
AcDbLine
 10
204.5785003086822
 20
77.14139248023868
 30
0.0
 11
214.9000988670045
 21
72.3283520280915
 31
0.0
  0
LINE
  5
27B
330
6F
100
AcDbEntity
  8
1
  6
Continuous
 62
     7
100
AcDbLine
 10
197.0083899953531
 20
88.94672728464104
 30
0.0
 11
209.7015238412858
 21
116.1672406601974
 31
0.0
  0
LINE
  5
27C
330
6F
100
AcDbEntity
  8
1
  6
Continuous
 62
     7
100
AcDbLine
 10
194.25690175036
 20
81.9544329323862
 30
0.0
 11
204.5785003086822
 21
77.14139248023868
 31
0.0
  0
LINE
  5
27D
330
6F
100
AcDbEntity
  8
1
  6
Continuous
 62
     7
100
AcDbLine
 10
218.4878845481217
 20
78.93067448138652
 30
0.0
 11
231.1810183940543
 21
106.1511878569431
 31
0.0
  0
LINE
  5
27E
330
6F
100
AcDbEntity
  8
1
  6
Continuous
 62
     7
100
AcDbLine
 10
94.10022212725873
 20
84.81341767277102
 30
0.0
 11
94.10022212725873
 21
137.1413924802387
 31
0.0
  0
LINE
  5
27F
330
6F
100
AcDbEntity
  8
1
  6
Continuous
 62
     7
100
AcDbLine
 10
71.32297425196273
 20
84.81341767277102
 30
0.0
 11
71.32297425196273
 21
137.1413924802387
 31
0.0
  0
LINE
  5
280
330
6F
100
AcDbEntity
  8
1
  6
Continuous
 62
     7
100
AcDbLine
 10
94.10022212725873
 20
334.8348444215375
 30
0.0
 11
94.10022212725873
 21
390.6413924802386
 31
0.0
  0
LINE
  5
281
330
6F
100
AcDbEntity
  8
1
  6
Continuous
 62
     7
100
AcDbLine
 10
71.32297425196258
 20
334.8348444215375
 30
0.0
 11
71.32297425196258
 21
390.6413924802386
 31
0.0
  0
ARC
  5
282
330
6F
100
AcDbEntity
  8
1
  6
Continuous
 62
     7
100
AcDbCircle
 10
261.2251215343191
 20
92.14139248023868
 30
0.0
 40
56.85000000000012
100
AcDbArc
 50
90.0
 51
154.9999999999999
  0
ARC
  5
283
330
6F
100
AcDbEntity
  8
1
  6
Continuous
 62
     7
100
AcDbCircle
 10
207.4712065882725
 20
81.1189592163208
 30
0.0
 40
13.24068988684201
100
AcDbArc
 50
154.9999999999997
 51
176.3822927462784
  0
ARC
  5
284
330
6F
100
AcDbEntity
  8
1
  6
Continuous
 62
     7
100
AcDbCircle
 10
208.1925487526535
 20
80.36882512130879
 30
0.0
 40
10.39529780259112
100
AcDbArc
 50
337.0673366472499
 51
352.0478368977884
  0
ARC
  5
285
330
6F
100
AcDbEntity
  8
1
  6
Continuous
 62
     7
100
AcDbCircle
 10
205.7660974490095
 20
81.91406466594928
 30
0.0
 40
13.24068988684204
100
AcDbArc
 50
313.617707253721
 51
334.9999999999996
  0
ARC
  5
286
330
6F
100
AcDbEntity
  8
1
  6
Continuous
 62
     7
100
AcDbCircle
 10
204.7277915883229
 20
81.98446792068356
 30
0.0
 40
10.39529780259125
100
AcDbArc
 50
137.952163102212
 51
152.9326633527496
  0
ARC
  5
287
330
6F
100
AcDbEntity
  8
1
  6
Continuous
 62
     7
100
AcDbCircle
 10
261.2251215343191
 20
92.14139248023868
 30
0.0
 40
33.15000000000005
100
AcDbArc
 50
95.45262198781317
 51
154.9999999999995
  0
ARC
  5
288
330
6F
100
AcDbEntity
  8
1
  6
Continuous
 62
     7
100
AcDbCircle
 10
84.39969433562968
 20
80.97740507650488
 30
0.0
 40
10.61190385398106
100
AcDbArc
 50
331.6276735836263
 51
23.91928013364745
  0
ARC
  5
289
330
6F
100
AcDbEntity
  8
1
  6
Continuous
 62
     7
100
AcDbCircle
 10
81.02350204359178
 20
80.97740507650488
 30
0.0
 40
10.61190385398102
100
AcDbArc
 50
156.0807198663525
 51
208.3723264163737
  0
ARC
  5
28A
330
6F
100
AcDbEntity
  8
1
  6
Continuous
 62
     7
100
AcDbCircle
 10
82.71159818961073
 20
137.1413924802387
 30
0.0
 40
11.38862393764801
100
AcDbArc
 50
0.0
 51
180.0
  0
ARC
  5
28B
330
6F
100
AcDbEntity
  8
1
  6
Continuous
 62
     7
100
AcDbCircle
 10
83.39150888622254
 20
331.8015894294887
 30
0.0
 40
11.62017742763886
100
AcDbArc
 50
294.509782632423
 51
22.84449443887565
  0
ARC
  5
28C
330
6F
100
AcDbEntity
  8
1
  6
Continuous
 62
     7
100
AcDbCircle
 10
82.0316874929988
 20
331.8015894294887
 30
0.0
 40
11.62017742763895
100
AcDbArc
 50
157.1555055611244
 51
245.4902173675769
  0
SPLINE
  5
28D
330
6F
100
AcDbEntity
  8
1
  6
Continuous
 62
     7
100
AcDbSpline
210
0.0
220
0.0
230
1.0
 70
     8
 71
     3
 72
    19
 73
    15
 74
    13
 42
0.000000001
 43
0.0000000001
 44
0.00000001
 40
0.0
 40
0.0
 40
0.0
 40
0.0
 40
0.869164379754817
 40
1.736670813713938
 40
2.723305967935939
 40
3.711815259932863
 40
4.70501338681
 40
5.697136052192265
 40
6.689258717574603
 40
7.682456844451804
 40
8.670966136448762
 40
9.657601290670849
 40
10.52510772462992
 40
11.39427210438466
 40
11.39427210438466
 40
11.39427210438466
 40
11.39427210438466
 10
88.21212325428179
 20
321.2285009230839
 30
0.0
 10
87.94766283993343
 20
321.1101877854691
 30
0.0
 10
87.41924646811142
 20
320.8737872079035
 30
0.0
 10
86.5740717198203
 20
320.5403660964035
 30
0.0
 10
85.66169955956653
 20
320.2785557263107
 30
0.0
 10
84.68954361888409
 20
320.0893464252354
 30
0.0
 10
83.70432885118764
 20
319.9719002269367
 30
0.0
 10
82.7115981896107
 20
319.9312481262364
 30
0.0
 10
81.71886752803373
 20
319.9719002269367
 30
0.0
 10
80.73365276033724
 20
320.0893464252352
 30
0.0
 10
79.76149681965467
 20
320.2785557263106
 30
0.0
 10
78.84912465940091
 20
320.5403660964036
 30
0.0
 10
78.00394991110986
 20
320.8737872079034
 30
0.0
 10
77.47553353928787
 20
321.1101877854693
 30
0.0
 10
77.21107312493955
 20
321.2285009230839
 30
0.0
 11
88.21212325428179
 21
321.2285009230839
 31
0.0
 11
87.41609763260611
 21
320.8795167829493
 31
0.0
 11
86.60673698104725
 21
320.5672624802687
 31
0.0
 11
85.65907302457337
 21
320.2927047367442
 31
0.0
 11
84.68921198251724
 21
320.1016021965231
 31
0.0
 11
83.70291809166288
 21
319.9846967582187
 31
0.0
 11
82.71159818961073
 21
319.9447939219163
 31
0.0
 11
81.7202782875585
 21
319.9846967582188
 31
0.0
 11
80.73398439670407
 21
320.1016021965231
 31
0.0
 11
79.76412335464788
 21
320.2927047367441
 31
0.0
 11
78.81645939817395
 21
320.5672624802687
 31
0.0
 11
78.00709874661514
 21
320.8795167829493
 31
0.0
 11
77.21107312493955
 21
321.2285009230839
 31
0.0
  0
SPLINE
  5
28E
330
6F
100
AcDbEntity
  8
1
  6
Continuous
 62
     7
100
AcDbSpline
210
0.0
220
0.0
230
1.0
 70
     8
 71
     3
 72
    43
 73
    39
 74
    37
 42
0.000000001
 43
0.0000000001
 44
0.00000001
 40
0.0
 40
0.0
 40
0.0
 40
0.0
 40
0.902277579736931
 40
1.801487105939796
 40
2.707591568389824
 40
3.616166092447442
 40
4.534519079656761
 40
5.451814336506757
 40
6.383762032265095
 40
7.316130974214784
 40
8.264302659011948
 40
9.212365932479337
 40
10.17616656712567
 40
11.14002819054901
 40
12.11746588782435
 40
13.09490582179484
 40
14.08231852844683
 40
15.06974371989741
 40
16.06243139201184
 40
17.05512080160189
 40
18.04781021119187
 40
19.04049788330624
 40
20.02792307475676
 40
21.0153357814087
 40
21.99277571537935
 40
22.9702134126548
 40
23.93407503607807
 40
24.89787567072435
 40
25.84593894419179
 40
26.79411062898901
 40
27.72647957093871
 40
28.65842726669704
 40
29.57572252354704
 40
30.49407551075628
 40
31.40265003481388
 40
32.30875449726392
 40
33.20796402346673
 40
34.11024160320372
 40
34.11024160320372
 40
34.11024160320372
 40
34.11024160320372
 10
71.32297425196258
 20
333.3348444215375
 30
0.0
 10
71.3397574248188
 20
333.0345600861375
 30
0.0
 10
71.37326671476177
 20
332.435012486019
 30
0.0
 10
71.47824912343529
 20
331.5371251490011
 30
0.0
 10
71.69261145883739
 20
330.6559699026437
 30
0.0
 10
71.9986627101359
 20
329.7965988824986
 30
0.0
 10
72.38021005952905
 20
328.9639306532323
 30
0.0
 10
72.83924017462519
 20
328.1622001763066
 30
0.0
 10
73.3736520345949
 20
327.4028725599476
 30
0.0
 10
73.9808519515636
 20
326.6869859857608
 30
0.0
 10
74.65251217228956
 20
326.023539066611
 30
0.0
 10
75.38705406954122
 20
325.4140016482646
 30
0.0
 10
76.1752921055157
 20
324.8664827377276
 30
0.0
 10
77.01508787630044
 20
324.3821018657134
 30
0.0
 10
77.89616979887492
 20
323.9668807699364
 30
0.0
 10
78.81547516813177
 20
323.6221050817335
 30
0.0
 10
79.76279595299107
 20
323.351694981755
 30
0.0
 10
80.73364797175275
 20
323.1568185351404
 30
0.0
 10
81.71865176625593
 20
323.0394173921246
 30
0.0
 10
82.7115981896107
 20
323.0001601023088
 30
0.0
 10
83.70454461296546
 20
323.0394173921244
 30
0.0
 10
84.68954840746855
 20
323.1568185351405
 30
0.0
 10
85.66040042623018
 20
323.351694981755
 30
0.0
 10
86.60772121108953
 20
323.6221050817335
 30
0.0
 10
87.52702658034639
 20
323.9668807699365
 30
0.0
 10
88.40810850292101
 20
324.3821018657134
 30
0.0
 10
89.24790427370574
 20
324.8664827377276
 30
0.0
 10
90.03614230968014
 20
325.4140016482646
 30
0.0
 10
90.77068420693183
 20
326.0235390666108
 30
0.0
 10
91.44234442765787
 20
326.6869859857608
 30
0.0
 10
92.04954434462664
 20
327.4028725599476
 30
0.0
 10
92.5839562045963
 20
328.1622001763066
 30
0.0
 10
93.04298631969232
 20
328.9639306532324
 30
0.0
 10
93.42453366908543
 20
329.7965988824985
 30
0.0
 10
93.73058492038395
 20
330.6559699026438
 30
0.0
 10
93.944947255786
 20
331.5371251490011
 30
0.0
 10
94.04992966445957
 20
332.435012486019
 30
0.0
 10
94.0834389544025
 20
333.0345600861376
 30
0.0
 10
94.10022212725873
 20
333.3348444215375
 30
0.0
 11
71.32297425196258
 21
333.3348444215375
 31
0.0
 11
71.38243984873716
 21
332.4345285420225
 31
0.0
 11
71.49599303967449
 21
331.5425176412753
 31
0.0
 11
71.7073445333974
 21
330.6614070661521
 31
0.0
 11
72.00979231449705
 21
329.8046498032699
 31
0.0
 11
72.39268034388782
 21
328.9699229213131
 31
0.0
 11
72.84876054546
 21
328.1740451423763
 31
0.0
 11
73.38464531566297
 21
327.4115793912979
 31
0.0
 11
73.9874061074037
 21
326.7002487560894
 31
0.0
 11
74.66172467023169
 21
326.033672413634
 31
0.0
 11
75.391131831111
 21
325.4280412018297
 31
0.0
 11
76.18249200032548
 21
324.8778950881218
 31
0.0
 11
77.01728622078674
 21
324.3960778623654
 31
0.0
 11
77.90133720978616
 21
323.9791386565945
 31
0.0
 11
78.81645939817395
 21
323.6357144215674
 31
0.0
 11
79.76589282044378
 21
323.3644948974318
 31
0.0
 11
80.73398439670407
 21
323.170054137822
 31
0.0
 11
81.71968425344083
 21
323.0524760484677
 31
0.0
 11
82.71159818961073
 21
323.0132458632152
 31
0.0
 11
83.70351212578055
 21
323.0524760484676
 31
0.0
 11
84.68921198251724
 21
323.170054137822
 31
0.0
 11
85.65730355877746
 21
323.3644948974319
 31
0.0
 11
86.60673698104725
 21
323.6357144215674
 31
0.0
 11
87.52185916943519
 21
323.9791386565946
 31
0.0
 11
88.40591015843475
 21
324.3960778623654
 31
0.0
 11
89.24070437889594
 21
324.8778950881218
 31
0.0
 11
90.03206454811036
 21
325.4280412018297
 31
0.0
 11
90.76147170898972
 21
326.033672413634
 31
0.0
 11
91.4357902718178
 21
326.7002487560894
 31
0.0
 11
92.03855106355854
 21
327.4115793912979
 31
0.0
 11
92.5744358337615
 21
328.1740451423763
 31
0.0
 11
93.03051603533359
 21
328.9699229213131
 31
0.0
 11
93.41340406472429
 21
329.8046498032699
 31
0.0
 11
93.7158518458239
 21
330.6614070661521
 31
0.0
 11
93.92720333954684
 21
331.5425176412753
 31
0.0
 11
94.04075653048416
 21
332.4345285420224
 31
0.0
 11
94.10022212725873
 21
333.3348444215375
 31
0.0
  0
SPLINE
  5
28F
330
6F
100
AcDbEntity
  8
1
  6
Continuous
 62
     7
100
AcDbSpline
210
0.0
220
0.0
230
1.0
 70
     8
 71
     3
 72
    41
 73
    37
 74
    35
 42
0.000000001
 43
0.0000000001
 44
0.00000001
 40
0.0
 40
0.0
 40
0.0
 40
0.0
 40
0.1504743064991841
 40
0.3009986793934021
 40
0.7017575732538693
 40
1.103272505348539
 40
1.504183667583788
 40
1.905183867490063
 40
2.35481892582581
 40
2.805328430246989
 40
3.335658519343137
 40
3.865885959928129
 40
4.488190240331811
 40
5.110640430624501
 40
6.614433191621487
 40
8.121831811530729
 40
9.882563238009372
 40
11.64131836156119
 40
12.56669267516284
 40
13.49225028648299
 40
15.31996663368125
 40
17.14752667272877
 40
18.79653863010055
 40
20.44826032398068
 40
21.78601777089512
 40
23.11748205812164
 40
23.64770600858517
 40
24.17799554280439
 40
24.62848584224146
 40
25.07815242235367
 40
25.47916275642266
 40
25.88006100078144
 40
26.28157221778966
 40
26.68233524755759
 40
26.83285997048222
 40
26.98333392379652
 40
26.98333392379652
 40
26.98333392379652
 40
26.98333392379652
 10
72.35601541313908
 20
79.14473340563637
 30
0.0
 10
72.33277829208714
 20
79.10028025570328
 30
0.0
 10
72.2862963267313
 20
79.01135916096587
 30
0.0
 10
72.18585276502937
 20
78.80000092893432
 30
0.0
 10
72.08950071417105
 20
78.49491517427442
 30
0.0
 10
72.04705462998604
 20
78.0931755202304
 30
0.0
 10
72.09184237332934
 20
77.69160532769307
 30
0.0
 10
72.21725256269704
 20
77.29125980762112
 30
0.0
 10
72.4234594101377
 20
76.90690420322268
 30
0.0
 10
72.71320965979825
 20
76.52642919324168
 30
0.0
 10
73.069162071997
 20
76.16806178708715
 30
0.0
 10
73.50796167679442
 20
75.81718999696494
 30
0.0
 10
74.0033408526299
 20
75.4921214204336
 30
0.0
 10
74.80843554066034
 20
75.0534295874401
 30
0.0
 10
75.93159584153203
 20
74.58919470685001
 30
0.0
 10
77.46329726287657
 20
74.15261047414663
 30
0.0
 10
79.11021238130968
 20
73.83258262526306
 30
0.0
 10
80.58443621651259
 20
73.6700819323888
 30
0.0
 10
81.78605018661936
 20
73.60356549194306
 30
0.0
 10
83.01228933782117
 20
73.58102008187127
 30
0.0
 10
84.53976455479874
 20
73.63512743037762
 30
0.0
 10
86.29860510616834
 20
73.83230179824164
 30
0.0
 10
87.97935395441272
 20
74.15440326840468
 30
0.0
 10
89.46664001406172
 20
74.58687187401235
 30
0.0
 10
90.80464945498241
 20
75.12701368168112
 30
0.0
 10
91.73029361459484
 20
75.66958716463812
 30
0.0
 10
92.35366324679659
 20
76.16844211680382
 30
0.0
 10
92.71004563005394
 20
76.52637769445712
 30
0.0
 10
92.99982093615397
 20
76.90684639900238
 30
0.0
 10
93.20592732175876
 20
77.29126154500926
 30
0.0
 10
93.33133647701159
 20
77.69161152248657
 30
0.0
 10
93.37614525580354
 20
78.09317821004825
 30
0.0
 10
93.33369813097467
 20
78.49491465105383
 30
0.0
 10
93.23734406639387
 20
78.79999974751355
 30
0.0
 10
93.1368999135417
 20
79.01135922284581
 30
0.0
 10
93.09041800462302
 20
79.10028034557959
 30
0.0
 10
93.06718096608223
 20
79.14473340563637
 30
0.0
 11
72.35601541313908
 21
79.14473340563637
 31
0.0
 11
72.28715366555159
 21
79.01094035985128
 31
0.0
 11
72.22339562003069
 21
78.87458604577753
 31
0.0
 11
72.10275917076622
 21
78.49241522264974
 31
0.0
 11
72.06159818961075
 21
78.09301565662713
 31
0.0
 11
72.10446382546212
 21
77.69440269076486
 31
0.0
 11
72.22339562003069
 21
77.31144526747676
 31
0.0
 11
72.43321986736498
 21
76.91377018598553
 31
0.0
 11
72.70387177824074
 21
76.55362249910694
 31
0.0
 11
73.07586441490054
 21
76.17563905857017
 31
0.0
 11
73.48842763930634
 21
75.8425734128579
 31
0.0
 11
74.00760185663773
 21
75.49946883814643
 31
0.0
 11
74.55322487039354
 21
75.19990287540705
 31
0.0
 11
75.93940427863932
 21
74.61689402884402
 31
0.0
 11
77.38659818961075
 21
74.1951353509196
 31
0.0
 11
79.11442549932673
 21
73.85633165816378
 31
0.0
 11
80.86224509745793
 21
73.66050971788695
 31
0.0
 11
81.78619907099976
 21
73.60925866381939
 31
0.0
 11
82.71159818961073
 21
73.59213116908865
 31
0.0
 11
84.53811614118914
 21
73.65830658683797
 31
0.0
 11
86.35411271602919
 21
73.86356771667748
 31
0.0
 11
87.97261641535611
 21
74.17929894616859
 31
0.0
 11
89.55728623277233
 21
74.64513810582788
 31
0.0
 11
90.79295917312531
 21
75.15768797700547
 31
0.0
 11
91.93476873991497
 21
75.8425734128579
 31
0.0
 11
92.34708491889442
 21
76.1759392868372
 31
0.0
 11
92.71932460098074
 21
76.55362249910694
 31
0.0
 11
92.99002833091004
 21
76.91370721155664
 31
0.0
 11
93.1998007591908
 21
77.31144526747676
 31
0.0
 11
93.31872082484345
 21
77.69441694462961
 31
0.0
 11
93.36159818961075
 21
78.09301565662713
 31
0.0
 11
93.32044004140525
 21
78.49241177983494
 31
0.0
 11
93.1998007591908
 21
78.87458604577753
 31
0.0
 11
93.13604248405814
 21
79.01094063889272
 31
0.0
 11
93.06718096608223
 21
79.14473340563637
 31
0.0
  0
SPLINE
  5
290
330
6F
100
AcDbEntity
  8
1
  6
Continuous
 62
     7
100
AcDbSpline
210
0.0
220
0.0
230
1.0
 70
    11
 71
     3
 72
    79
 73
    75
 74
    73
 42
0.000000001
 43
0.0000000001
 44
0.00000001
 40
0.0
 40
0.0
 40
0.0
 40
0.0
 40
0.4283589150342628
 40
0.8575890149483368
 40
1.338562484009877
 40
1.820155800553173
 40
2.38719479815543
 40
2.954262327945908
 40
3.619776453207723
 40
4.285366292173301
 40
5.047700579306311
 40
5.810054776031068
 40
6.658247007253251
 40
7.506460616782593
 40
8.423559199856228
 40
9.340668465459286
 40
10.30573994086615
 40
11.27081789816308
 40
12.26047053747033
 40
13.2501250802407
 40
14.23977962301756
 40
15.22943226234385
 40
16.19451021967028
 40
17.15958169511557
 40
18.07669096076039
 40
18.99378954387689
 40
19.84200315344128
 40
20.6901953846864
 40
21.45254958141118
 40
22.21488386851066
 40
22.88047370740069
 40
23.54598783251822
 40
24.11305536209582
 40
24.68009435935518
 40
25.16168767542451
 40
25.64266114368577
 40
26.0718912415477
 40
26.50025016122126
 40
26.92860908089507
 40
27.35783917875725
 40
27.83881264701851
 40
28.32040596308784
 40
28.88744496034719
 40
29.45451248992481
 40
30.12002661504234
 40
30.78561645393237
 40
31.54795074103186
 40
32.31030493775663
 40
33.15849716900174
 40
34.00671077856614
 40
34.92380936168264
 40
35.84091862732747
 40
36.80599010277275
 40
37.7710680600992
 40
38.76072069942538
 40
39.75037524220219
 40
40.74002978497262
 40
41.72968242427994
 40
42.69476038157685
 40
43.65983185698373
 40
44.5769411225868
 40
45.49403970566043
 40
46.34225331518978
 40
47.19044554641195
 40
47.95279974313671
 40
48.71513403026972
 40
49.38072386923528
 40
50.04623799449711
 40
50.61330552428758
 40
51.18034452188985
 40
51.66193783843314
 40
52.14291130749469
 40
52.57214140740877
 40
53.00050032244302
 40
53.00050032244302
 40
53.00050032244302
 40
53.00050032244302
 10
71.32297425196273
 20
77.14139248023868
 30
0.0
 10
71.33219327660304
 20
76.99841171133237
 30
0.0
 10
71.35065006306294
 20
76.7121593818532
 30
0.0
 10
71.49076749165894
 20
76.28414069636673
 30
0.0
 10
71.70963081191033
 20
75.87300261150484
 30
0.0
 10
72.01989898032636
 20
75.46611888358605
 30
0.0
 10
72.40041171539757
 20
75.08299668920198
 30
0.0
 10
72.86968252021946
 20
74.70777232045704
 30
0.0
 10
73.39920469579423
 20
74.3598284102121
 30
0.0
 10
74.01254772054021
 20
74.02577549293251
 30
0.0
 10
74.67687513955983
 20
73.7215692285048
 30
0.0
 10
75.41567264333493
 20
73.43792515432415
 30
0.0
 10
76.19609564769925
 20
73.18628500532303
 30
0.0
 10
77.03801374639006
 20
72.96121442107555
 30
0.0
 10
77.91176302079992
 20
72.76989975692099
 30
0.0
 10
78.8313065296314
 20
72.60994042382575
 30
0.0
 10
79.77239698113942
 20
72.4850403211685
 30
0.0
 10
80.74170293209903
 20
72.39478635909181
 30
0.0
 10
81.72188687206506
 20
72.34039832397156
 30
0.0
 10
82.7115981796175
 20
72.32232887406721
 30
0.0
 10
83.70130948715472
 20
72.34039832422917
 30
0.0
 10
84.68149342717517
 20
72.39478635959958
 30
0.0
 10
85.65079937796253
 20
72.48504032191333
 30
0.0
 10
86.59188983013176
 20
72.60994042478538
 30
0.0
 10
87.51143333665031
 20
72.76989975806902
 30
0.0
 10
88.38518261942252
 20
72.96121442237514
 30
0.0
 10
89.22710068917019
 20
73.18628500673313
 30
0.0
 10
90.0075237961712
 20
73.43792515579412
 30
0.0
 10
90.74632095374555
 20
73.72156922997576
 30
0.0
 10
91.41064958142582
 20
74.02577549433964
 30
0.0
 10
92.0239886377617
 20
74.35982841147259
 30
0.0
 10
92.55352447255791
 20
74.70777232148811
 30
0.0
 10
93.02275142441721
 20
75.08299668988623
 30
0.0
 10
93.40341408603823
 20
75.46611888379866
 30
0.0
 10
93.7132024353682
 20
75.87300261106107
 30
0.0
 10
93.93372771278896
 20
76.2841406946223
 30
0.0
 10
94.06827754816584
 20
76.71215938065177
 30
0.0
 10
94.11617817642727
 20
77.14139248023852
 30
0.0
 10
94.06827754816592
 20
77.57062557982533
 30
0.0
 10
93.933727712789
 20
77.99864426585498
 30
0.0
 10
93.71320243536819
 20
78.4097823494163
 30
0.0
 10
93.40341408603825
 20
78.81666607667869
 30
0.0
 10
93.02275142441722
 20
79.19978827059114
 30
0.0
 10
92.5535244725579
 20
79.57501263898924
 30
0.0
 10
92.02398863776172
 20
79.92295654900481
 30
0.0
 10
91.41064958142582
 20
80.25700946613772
 30
0.0
 10
90.74632095374555
 20
80.56121573050163
 30
0.0
 10
90.00752379617123
 20
80.84485980468321
 30
0.0
 10
89.22710068917019
 20
81.09649995374426
 30
0.0
 10
88.38518261942255
 20
81.32157053810221
 30
0.0
 10
87.51143333665027
 20
81.51288520240834
 30
0.0
 10
86.59188983013183
 20
81.67284453569198
 30
0.0
 10
85.65079937796249
 20
81.79774463856408
 30
0.0
 10
84.68149342717525
 20
81.88799860087784
 30
0.0
 10
83.70130948715476
 20
81.94238663624795
 30
0.0
 10
82.71159817961757
 20
81.96045608640969
 30
0.0
 10
81.72188687206513
 20
81.94238663650559
 30
0.0
 10
80.74170293209906
 20
81.88799860138558
 30
0.0
 10
79.7723969811394
 20
81.79774463930895
 30
0.0
 10
78.83130652963142
 20
81.6728445366516
 30
0.0
 10
77.91176302079992
 20
81.5128852035563
 30
0.0
 10
77.03801374639008
 20
81.32157053940185
 30
0.0
 10
76.19609564769924
 20
81.09649995515431
 30
0.0
 10
75.41567264333494
 20
80.84485980615318
 30
0.0
 10
74.67687513955981
 20
80.56121573197261
 30
0.0
 10
74.01254772054024
 20
80.25700946754482
 30
0.0
 10
73.39920469579423
 20
79.92295655026527
 30
0.0
 10
72.86968252021947
 20
79.57501264002033
 30
0.0
 10
72.40041171539754
 20
79.1997882712754
 30
0.0
 10
72.01989898032639
 20
78.81666607689132
 30
0.0
 10
71.7096308119103
 20
78.40978234897247
 30
0.0
 10
71.49076749165896
 20
77.99864426411065
 30
0.0
 10
71.35065006306296
 20
77.57062557862412
 30
0.0
 10
71.33219327660304
 20
77.28437324914502
 30
0.0
 10
71.32297425196273
 20
77.14139248023868
 30
0.0
 11
71.32297425196273
 21
77.14139248023868
 31
0.0
 11
71.36842349987023
 21
76.71545148665967
 31
0.0
 11
71.49599303967449
 21
76.30561677668608
 31
0.0
 11
71.72048997713053
 21
75.88025034368968
 31
0.0
 11
72.00979231449719
 21
75.49523569496304
 31
0.0
 11
72.40756409354432
 21
75.09111834039568
 31
0.0
 11
72.84876054546
 21
74.734872254165
 31
0.0
 11
73.40384831566796
 21
74.3677392835316
 31
0.0
 11
73.9874061074037
 21
74.04762971267826
 31
0.0
 11
74.67993485678437
 21
73.72894884319932
 31
0.0
 11
75.39113183111115
 21
73.45438958736439
 31
0.0
 11
76.19809750845944
 21
73.19316849957076
 31
0.0
 11
77.01728622078674
 21
72.97317717923696
 31
0.0
 11
77.91302578370532
 21
72.77640206255107
 31
0.0
 11
78.81645939817425
 21
72.61861388381179
 31
0.0
 11
79.77309524717757
 21
72.49129222386733
 31
0.0
 11
80.73398439670407
 21
72.40147292740252
 31
0.0
 11
81.72211055421499
 21
72.34652710541151
 31
0.0
 11
82.71159818961058
 21
72.32835202809102
 31
0.0
 11
83.70108582500625
 21
72.34652710541151
 31
0.0
 11
84.68921198251724
 21
72.40147292740252
 31
0.0
 11
85.65010113204382
 21
72.49129222386732
 31
0.0
 11
86.60673698104725
 21
72.61861388381179
 31
0.0
 11
87.51017059551617
 21
72.77640206255109
 31
0.0
 11
88.40591015843475
 21
72.97317717923696
 31
0.0
 11
89.22509887076205
 21
73.19316849957076
 31
0.0
 11
90.03206454811036
 21
73.45438958736439
 31
0.0
 11
90.74326152243714
 21
73.72894884319932
 31
0.0
 11
91.4357902718178
 21
74.04762971267826
 31
0.0
 11
92.01934806355354
 21
74.3677392835316
 31
0.0
 11
92.5744358337615
 21
74.734872254165
 31
0.0
 11
93.01563228567719
 21
75.09111834039565
 31
0.0
 11
93.41340406472429
 21
75.49523569496304
 31
0.0
 11
93.70270640209085
 21
75.88025034368968
 31
0.0
 11
93.92720333954684
 21
76.30561677668608
 31
0.0
 11
94.05477287935115
 21
76.71545148665956
 31
0.0
 11
94.10022212725873
 21
77.14139248023842
 31
0.0
 11
94.0547728793512
 21
77.56733347381754
 31
0.0
 11
93.92720333954684
 21
77.97716818379128
 31
0.0
 11
93.70270640209085
 21
78.40253461678768
 31
0.0
 11
93.41340406472429
 21
78.78754926551431
 31
0.0
 11
93.0156322856772
 21
79.19166662008169
 31
0.0
 11
92.5744358337615
 21
79.54791270631236
 31
0.0
 11
92.01934806355354
 21
79.91504567694575
 31
0.0
 11
91.4357902718178
 21
80.2351552477991
 31
0.0
 11
90.74326152243714
 21
80.55383611727805
 31
0.0
 11
90.03206454811036
 21
80.82839537311297
 31
0.0
 11
89.22509887076207
 21
81.0896164609066
 31
0.0
 11
88.40591015843475
 21
81.3096077812404
 31
0.0
 11
87.51017059551617
 21
81.50638289792626
 31
0.0
 11
86.60673698104725
 21
81.66417107666557
 31
0.0
 11
85.65010113204383
 21
81.79149273661008
 31
0.0
 11
84.68921198251724
 21
81.88131203307483
 31
0.0
 11
83.70108582500633
 21
81.93625785506562
 31
0.0
 11
82.71159818961073
 21
81.95443293238598
 31
0.0
 11
81.72211055421506
 21
81.93625785506563
 31
0.0
 11
80.73398439670407
 21
81.88131203307483
 31
0.0
 11
79.77309524717758
 21
81.79149273661008
 31
0.0
 11
78.81645939817425
 21
81.66417107666557
 31
0.0
 11
77.91302578370532
 21
81.50638289792626
 31
0.0
 11
77.01728622078674
 21
81.3096077812404
 31
0.0
 11
76.19809750845943
 21
81.0896164609066
 31
0.0
 11
75.39113183111115
 21
80.82839537311297
 31
0.0
 11
74.67993485678437
 21
80.55383611727804
 31
0.0
 11
73.9874061074037
 21
80.2351552477991
 31
0.0
 11
73.40384831566797
 21
79.91504567694575
 31
0.0
 11
72.84876054546
 21
79.54791270631236
 31
0.0
 11
72.40756409354432
 21
79.19166662008169
 31
0.0
 11
72.00979231449719
 21
78.78754926551431
 31
0.0
 11
71.72048997713054
 21
78.40253461678768
 31
0.0
 11
71.49599303967449
 21
77.97716818379128
 31
0.0
 11
71.36842349987023
 21
77.56733347381767
 31
0.0
 11
71.32297425196273
 21
77.14139248023868
 31
0.0
  0
SPLINE
  5
291
330
6F
100
AcDbEntity
  8
1
  6
Continuous
 62
     7
100
AcDbSpline
210
0.0
220
0.0
230
1.0
 70
     8
 71
     3
 72
    33
 73
    29
 74
    27
 42
0.000000001
 43
0.0000000001
 44
0.00000001
 40
0.0
 40
0.0
 40
0.0
 40
0.0
 40
0.4306177368450043
 40
0.8548891643730715
 40
1.333213117846646
 40
1.818268817730762
 40
2.386705898022376
 40
2.952233315577319
 40
3.617115662681898
 40
4.283347872186171
 40
5.891983227920969
 40
7.503354616657662
 40
9.385972216901088
 40
11.26693555099142
 40
12.25659473670212
 40
13.2462378994957
 40
15.19992223522139
 40
17.15501173906119
 40
18.92102928107519
 40
20.68475811616258
 40
21.44722420334568
 40
22.20945189639967
 40
23.23165989415331
 40
24.25809724380211
 40
24.74308109077207
 40
25.22006515641174
 40
25.84401845068374
 40
26.48410481540263
 40
26.48410481540263
 40
26.48410481540263
 40
26.48410481540263
 10
71.32297425196273
 20
84.81341767277102
 30
0.0
 10
71.34135414620452
 20
84.95574995604458
 30
0.0
 10
71.37784307252439
 20
85.23831687159577
 30
0.0
 10
71.48474134186462
 20
85.67251189123785
 30
0.0
 10
71.70444997964013
 20
86.08467139108656
 30
0.0
 10
72.02045637156967
 20
86.48726400716205
 30
0.0
 10
72.40184237587526
 20
86.87090870288831
 30
0.0
 10
72.8696540461399
 20
87.24754477996086
 30
0.0
 10
73.39898028743002
 20
87.59500776393558
 30
0.0
 10
74.26043194681074
 20
88.06355252969786
 30
0.0
 10
75.4616184939033
 20
88.56007040694364
 30
0.0
 10
77.09940309542013
 20
89.02718599143348
 30
0.0
 10
78.8603609087457
 20
89.36935411221336
 30
0.0
 10
80.4368672536655
 20
89.54309289934227
 30
0.0
 10
81.72189416183191
 20
89.61423919997907
 30
0.0
 10
83.03291587807333
 20
89.63834931683192
 30
0.0
 10
84.66628082344388
 20
89.58032579414801
 30
0.0
 10
86.54797645655579
 20
89.36929419004323
 30
0.0
 10
88.34568167750997
 20
89.02614233622224
 30
0.0
 10
89.72244797803243
 20
88.62601376929842
 30
0.0
 10
90.74640183121124
 20
88.23332786846589
 30
0.0
 10
91.51887905664522
 20
87.87973991332484
 30
0.0
 10
92.33484386556239
 20
87.4148040729441
 30
0.0
 10
93.00484478700528
 20
86.89394112127923
 30
0.0
 10
93.47116243328138
 20
86.42171511009461
 30
0.0
 10
93.7829999675117
 20
85.98942234671262
 30
0.0
 10
93.98022241559096
 20
85.43642320247315
 30
0.0
 10
94.0598833212406
 20
85.02284569460281
 30
0.0
 10
94.10022212725873
 20
84.81341767277102
 30
0.0
 11
71.32297425196273
 21
84.81341767277102
 31
0.0
 11
71.38624759259176
 21
85.23936147703535
 31
0.0
 11
71.49599303967449
 21
85.64919337632362
 31
0.0
 11
71.7147751143406
 21
86.07454993708397
 31
0.0
 11
72.00979231449719
 21
86.45957445804667
 31
0.0
 11
72.40950789768333
 21
86.86373799625754
 31
0.0
 11
72.84876054546
 21
87.21993789884472
 31
0.0
 11
73.40323631562251
 21
87.58685090605339
 31
0.0
 11
73.9874061074037
 21
87.90718044033143
 31
0.0
 11
75.47032154353526
 21
88.53061408777583
 31
0.0
 11
77.01728622078674
 21
88.98163297377275
 31
0.0
 11
78.8647139146492
 21
89.34393110845
 31
0.0
 11
80.73398439670407
 21
89.55333722560708
 31
0.0
 11
81.72212433568744
 21
89.60815294096989
 31
0.0
 11
82.71159818961073
 21
89.62645812491833
 31
0.0
 11
84.66399697948567
 21
89.55559600767756
 31
0.0
 11
86.60673698104725
 21
89.33619626919791
 31
0.0
 11
88.34024671063021
 21
88.99891008621444
 31
0.0
 11
90.03206454811036
 21
88.50042056564531
 31
0.0
 11
90.74339493870727
 21
88.22589623460556
 31
0.0
 11
91.4357902718178
 21
87.90718044033143
 31
0.0
 11
92.32043361471185
 21
87.39501313945969
 31
0.0
 11
93.1271686647969
 21
86.76038554159676
 31
0.0
 11
93.46377414839442
 21
86.41123503261713
 31
0.0
 11
93.73687713825268
 21
86.02017422812558
 31
0.0
 11
93.9629154561428
 21
85.43860359543956
 31
0.0
 11
94.10022212725873
 21
84.81341767277102
 31
0.0
  0
ENDBLK
  5
71
330
6F
100
AcDbEntity
  8
0
100
AcDbBlockEnd
  0
BLOCK
  5
2B0
330
2A9
100
AcDbEntity
  8
0
100
AcDbBlockBegin
  2
*D14
 70
     1
 10
0.0
 20
0.0
 30
0.0
  3
*D14
  1

  0
LINE
  5
2AA
330
2A9
100
AcDbEntity
  8
1
  6
Continuous
 62
     2
100
AcDbLine
 10
160.9123992046497
 20
108.113060453433
 30
0.0
 11
160.9123992046497
 21
148.1130604534331
 31
0.0
  0
LINE
  5
2AB
330
2A9
100
AcDbEntity
  8
1
  6
Continuous
 62
     2
100
AcDbLine
 10
148.9123992046497
 20
148.1130604534331
 30
0.0
 11
162.4123992046497
 21
148.1130604534331
 31
0.0
  0
LINE
  5
2AC
330
2A9
100
AcDbEntity
  8
1
  6
Continuous
 62
     2
100
AcDbLine
 10
112.1340080316929
 20
108.113060453433
 30
0.0
 11
162.4123992046497
 21
108.113060453433
 31
0.0
  0
SOLID
  5
2AD
330
2A9
100
AcDbEntity
  8
1
 62
     2
100
AcDbTrace
 10
160.2212235923159
 20
113.363060453433
 30
0.0
 11
161.6035748169835
 21
113.363060453433
 31
0.0
 12
160.9123992046497
 22
108.113060453433
 32
0.0
 13
160.9123992046497
 23
108.113060453433
 33
0.0
  0
SOLID
  5
2AE
330
2A9
100
AcDbEntity
  8
1
 62
     2
100
AcDbTrace
 10
161.6035748169835
 20
142.8630604534331
 30
0.0
 11
160.2212235923159
 21
142.8630604534331
 31
0.0
 12
160.9123992046497
 22
148.1130604534331
 32
0.0
 13
160.9123992046497
 23
148.1130604534331
 33
0.0
  0
MTEXT
  5
2AF
330
2A9
100
AcDbEntity
  8
1
 62
     7
100
AcDbMText
 10
159.4123992046497
 20
124.1755604534331
 30
0.0
 40
5.25
 41
0.0
 71
     7
 72
     1
  1
40
  7
CONVERTER_12
 11
0.0
 21
1.0
 31
0.0
 73
     1
 44
0.60024009603842
  0
ENDBLK
  5
2B1
330
2A9
100
AcDbEntity
  8
0
100
AcDbBlockEnd
  0
BLOCK
  5
2BB
330
2B4
100
AcDbEntity
  8
0
100
AcDbBlockBegin
  2
*D15
 70
     1
 10
0.0
 20
0.0
 30
0.0
  3
*D15
  1

  0
LINE
  5
2B5
330
2B4
100
AcDbEntity
  8
1
  6
Continuous
 62
     2
100
AcDbLine
 10
56.41239920464982
 20
148.1130604534331
 30
0.0
 11
56.41239920464982
 21
205.413060453433
 31
0.0
  0
LINE
  5
2B6
330
2B4
100
AcDbEntity
  8
1
  6
Continuous
 62
     2
100
AcDbLine
 10
101.4123992046497
 20
205.413060453433
 30
0.0
 11
54.91239920464982
 21
205.413060453433
 31
0.0
  0
LINE
  5
2B7
330
2B4
100
AcDbEntity
  8
1
  6
Continuous
 62
     2
100
AcDbLine
 10
68.41239920464986
 20
148.1130604534331
 30
0.0
 11
54.91239920464982
 21
148.1130604534331
 31
0.0
  0
SOLID
  5
2B8
330
2B4
100
AcDbEntity
  8
1
 62
     2
100
AcDbTrace
 10
55.72122359231599
 20
153.3630604534331
 30
0.0
 11
57.10357481698365
 21
153.3630604534331
 31
0.0
 12
56.41239920464982
 22
148.1130604534331
 32
0.0
 13
56.41239920464982
 23
148.1130604534331
 33
0.0
  0
SOLID
  5
2B9
330
2B4
100
AcDbEntity
  8
1
 62
     2
100
AcDbTrace
 10
57.10357481698365
 20
200.163060453433
 30
0.0
 11
55.72122359231599
 21
200.163060453433
 31
0.0
 12
56.41239920464982
 22
205.413060453433
 32
0.0
 13
56.41239920464982
 23
205.413060453433
 33
0.0
  0
MTEXT
  5
2BA
330
2B4
100
AcDbEntity
  8
1
 62
     7
100
AcDbMText
 10
54.91239920464982
 20
162.5880604534331
 30
0.0
 40
5.25
 41
0.0
 71
     7
 72
     1
  1
58リフト5
  7
CONVERTER_11
 11
0.0
 21
1.0
 31
0.0
 73
     1
 44
0.45454545454545
  0
ENDBLK
  5
2BC
330
2B4
100
AcDbEntity
  8
0
100
AcDbBlockEnd
  0
BLOCK
  5
2C6
330
2BF
100
AcDbEntity
  8
0
100
AcDbBlockBegin
  2
*D16
 70
     1
 10
0.0
 20
0.0
 30
0.0
  3
*D16
  1

  0
LINE
  5
2C0
330
2BF
100
AcDbEntity
  8
1
  6
Continuous
 62
     2
100
AcDbLine
 10
160.9123992046498
 20
276.1130604534333
 30
0.0
 11
160.9123992046498
 21
351.1130604534333
 31
0.0
  0
LINE
  5
2C1
330
2BF
100
AcDbEntity
  8
1
  6
Continuous
 62
     2
100
AcDbLine
 10
148.9123992046497
 20
351.1130604534333
 30
0.0
 11
162.4123992046498
 21
351.1130604534333
 31
0.0
  0
LINE
  5
2C2
330
2BF
100
AcDbEntity
  8
1
  6
Continuous
 62
     2
100
AcDbLine
 10
112.4067273242278
 20
276.1130604534333
 30
0.0
 11
162.4123992046498
 21
276.1130604534333
 31
0.0
  0
SOLID
  5
2C3
330
2BF
100
AcDbEntity
  8
1
 62
     2
100
AcDbTrace
 10
160.221223592316
 20
281.3630604534333
 30
0.0
 11
161.6035748169836
 21
281.3630604534333
 31
0.0
 12
160.9123992046498
 22
276.1130604534333
 32
0.0
 13
160.9123992046498
 23
276.1130604534333
 33
0.0
  0
SOLID
  5
2C4
330
2BF
100
AcDbEntity
  8
1
 62
     2
100
AcDbTrace
 10
161.6035748169836
 20
345.8630604534333
 30
0.0
 11
160.221223592316
 21
345.8630604534333
 31
0.0
 12
160.9123992046498
 22
351.1130604534333
 32
0.0
 13
160.9123992046498
 23
351.1130604534333
 33
0.0
  0
MTEXT
  5
2C5
330
2BF
100
AcDbEntity
  8
1
 62
     7
100
AcDbMText
 10
159.4123992046498
 20
309.6755604534332
 30
0.0
 40
5.25
 41
0.0
 71
     7
 72
     1
  1
75
  7
CONVERTER_12
 11
0.0
 21
1.0
 31
0.0
 73
     1
 44
0.60024009603842
  0
ENDBLK
  5
2C7
330
2BF
100
AcDbEntity
  8
0
100
AcDbBlockEnd
  0
BLOCK
  5
2D1
330
2CA
100
AcDbEntity
  8
0
100
AcDbBlockBegin
  2
*D17
 70
     1
 10
0.0
 20
0.0
 30
0.0
  3
*D17
  1

  0
LINE
  5
2CB
330
2CA
100
AcDbEntity
  8
1
  6
Continuous
 62
     2
100
AcDbLine
 10
71.41239920464983
 20
89.90436681866808
 30
0.0
 11
101.4123992046496
 21
89.90436681866808
 31
0.0
  0
LINE
  5
2CC
330
2CA
100
AcDbEntity
  8
1
  6
Continuous
 62
     2
100
AcDbLine
 10
101.4123992046496
 20
101.9043668186681
 30
0.0
 11
101.4123992046496
 21
88.40436681866808
 31
0.0
  0
LINE
  5
2CD
330
2CA
100
AcDbEntity
  8
1
  6
Continuous
 62
     2
100
AcDbLine
 10
71.41239920464983
 20
138.7750604534335
 30
0.0
 11
71.41239920464983
 21
88.40436681866808
 31
0.0
  0
SOLID
  5
2CE
330
2CA
100
AcDbEntity
  8
1
 62
     2
100
AcDbTrace
 10
76.66239920464983
 20
90.5955424310019
 30
0.0
 11
76.66239920464983
 21
89.21319120633426
 31
0.0
 12
71.41239920464983
 22
89.90436681866808
 32
0.0
 13
71.41239920464983
 23
89.90436681866808
 33
0.0
  0
SOLID
  5
2CF
330
2CA
100
AcDbEntity
  8
1
 62
     2
100
AcDbTrace
 10
96.1623992046496
 20
89.21319120633426
 30
0.0
 11
96.1623992046496
 21
90.5955424310019
 31
0.0
 12
101.4123992046496
 22
89.90436681866808
 32
0.0
 13
101.4123992046496
 23
89.90436681866808
 33
0.0
  0
MTEXT
  5
2D0
330
2CA
100
AcDbEntity
  8
1
 62
     7
100
AcDbMText
 10
82.47489920464972
 20
91.40436681866808
 30
0.0
 40
5.25
 41
0.0
 71
     7
 72
     1
  1
30
  7
CONVERTER_12
 11
0.9999999999970619
 21
2.424068405545306E-6
 31
0.0
 73
     1
 44
0.60024009603842
  0
ENDBLK
  5
2D2
330
2CA
100
AcDbEntity
  8
0
100
AcDbBlockEnd
  0
BLOCK
  5
2DC
330
2D5
100
AcDbEntity
  8
0
100
AcDbBlockBegin
  2
*D18
 70
     1
 10
0.0
 20
0.0
 30
0.0
  3
*D18
  1

  0
LINE
  5
2D6
330
2D5
100
AcDbEntity
  8
1
  6
Continuous
 62
     2
100
AcDbLine
 10
145.9123992046498
 20
89.90436681866808
 30
0.0
 11
101.4123992046496
 21
89.90436681866808
 31
0.0
  0
LINE
  5
2D7
330
2D5
100
AcDbEntity
  8
1
  6
Continuous
 62
     2
100
AcDbLine
 10
101.4123992046496
 20
101.9043668186681
 30
0.0
 11
101.4123992046496
 21
88.40436681866808
 31
0.0
  0
LINE
  5
2D8
330
2D5
100
AcDbEntity
  8
1
  6
Continuous
 62
     2
100
AcDbLine
 10
145.9123992046498
 20
136.7528174317887
 30
0.0
 11
145.9123992046498
 21
88.40436681866808
 31
0.0
  0
SOLID
  5
2D9
330
2D5
100
AcDbEntity
  8
1
 62
     2
100
AcDbTrace
 10
140.6623992046498
 20
89.21319120633426
 30
0.0
 11
140.6623992046498
 21
90.5955424310019
 31
0.0
 12
145.9123992046498
 22
89.90436681866808
 32
0.0
 13
145.9123992046498
 23
89.90436681866808
 33
0.0
  0
SOLID
  5
2DA
330
2D5
100
AcDbEntity
  8
1
 62
     2
100
AcDbTrace
 10
106.6623992046496
 20
90.5955424310019
 30
0.0
 11
106.6623992046496
 21
89.21319120633426
 31
0.0
 12
101.4123992046496
 22
89.90436681866808
 32
0.0
 13
101.4123992046496
 23
89.90436681866808
 33
0.0
  0
MTEXT
  5
2DB
330
2D5
100
AcDbEntity
  8
1
 62
     7
100
AcDbMText
 10
119.7248992046497
 20
91.40436681866808
 30
0.0
 40
5.25
 41
0.0
 71
     7
 72
     1
  1
45
  7
CONVERTER_12
 11
0.9999999999970619
 21
2.424068405545306E-6
 31
0.0
 73
     1
 44
0.60024009603842
  0
ENDBLK
  5
2DD
330
2D5
100
AcDbEntity
  8
0
100
AcDbBlockEnd
  0
BLOCK
  5
2E7
330
2E0
100
AcDbEntity
  8
0
100
AcDbBlockBegin
  2
*D19
 70
     1
 10
0.0
 20
0.0
 30
0.0
  3
*D19
  1

  0
LINE
  5
2E1
330
2E0
100
AcDbEntity
  8
1
  6
Continuous
 62
     2
100
AcDbLine
 10
145.9123992046497
 20
77.90436681866808
 30
0.0
 11
71.41239920464983
 21
77.90436681866808
 31
0.0
  0
LINE
  5
2E2
330
2E0
100
AcDbEntity
  8
1
  6
Continuous
 62
     2
100
AcDbLine
 10
71.41239920464983
 20
138.7750604534335
 30
0.0
 11
71.41239920464983
 21
76.40436681866808
 31
0.0
  0
LINE
  5
2E3
330
2E0
100
AcDbEntity
  8
1
  6
Continuous
 62
     2
100
AcDbLine
 10
145.9123992046497
 20
136.7528174317887
 30
0.0
 11
145.9123992046497
 21
76.40436681866808
 31
0.0
  0
SOLID
  5
2E4
330
2E0
100
AcDbEntity
  8
1
 62
     2
100
AcDbTrace
 10
140.6623992046497
 20
77.21319120633426
 30
0.0
 11
140.6623992046497
 21
78.5955424310019
 31
0.0
 12
145.9123992046497
 22
77.90436681866808
 32
0.0
 13
145.9123992046497
 23
77.90436681866808
 33
0.0
  0
SOLID
  5
2E5
330
2E0
100
AcDbEntity
  8
1
 62
     2
100
AcDbTrace
 10
76.66239920464983
 20
78.5955424310019
 30
0.0
 11
76.66239920464983
 21
77.21319120633426
 31
0.0
 12
71.41239920464983
 22
77.90436681866808
 32
0.0
 13
71.41239920464983
 23
77.90436681866808
 33
0.0
  0
MTEXT
  5
2E6
330
2E0
100
AcDbEntity
  8
1
 62
     7
100
AcDbMText
 10
104.7248992046498
 20
79.40436681866808
 30
0.0
 40
5.25
 41
0.0
 71
     7
 72
     1
  1
75
  7
CONVERTER_12
 11
0.9999999999970619
 21
2.424068405545306E-6
 31
0.0
 73
     1
 44
0.60024009603842
  0
ENDBLK
  5
2E8
330
2E0
100
AcDbEntity
  8
0
100
AcDbBlockEnd
  0
BLOCK
  5
2F2
330
2EB
100
AcDbEntity
  8
0
100
AcDbBlockBegin
  2
*D20
 70
     1
 10
0.0
 20
0.0
 30
0.0
  3
*D20
  1

  0
LINE
  5
2EC
330
2EB
100
AcDbEntity
  8
1
  6
Continuous
 62
     2
100
AcDbLine
 10
172.9123992046497
 20
160.1130604534331
 30
0.0
 11
172.9123992046497
 21
136.1130604534332
 31
0.0
  0
LINE
  5
2ED
330
2EB
100
AcDbEntity
  8
1
  6
Continuous
 62
     2
100
AcDbLine
 10
144.7245480699714
 20
136.1130604534332
 30
0.0
 11
174.4123992046497
 21
136.1130604534332
 31
0.0
  0
LINE
  5
2EE
330
2EB
100
AcDbEntity
  8
1
  6
Continuous
 62
     2
100
AcDbLine
 10
144.7245480699715
 20
160.1130604534331
 30
0.0
 11
174.4123992046497
 21
160.1130604534331
 31
0.0
  0
SOLID
  5
2EF
330
2EB
100
AcDbEntity
  8
1
 62
     2
100
AcDbTrace
 10
173.6035748169835
 20
154.8630604534331
 30
0.0
 11
172.2212235923159
 21
154.8630604534331
 31
0.0
 12
172.9123992046497
 22
160.1130604534331
 32
0.0
 13
172.9123992046497
 23
160.1130604534331
 33
0.0
  0
SOLID
  5
2F0
330
2EB
100
AcDbEntity
  8
1
 62
     2
100
AcDbTrace
 10
172.2212235923159
 20
141.3630604534332
 30
0.0
 11
173.6035748169835
 21
141.3630604534332
 31
0.0
 12
172.9123992046497
 22
136.1130604534332
 32
0.0
 13
172.9123992046497
 23
136.1130604534332
 33
0.0
  0
MTEXT
  5
2F1
330
2EB
100
AcDbEntity
  8
1
 62
     7
100
AcDbMText
 10
171.4123992046497
 20
144.1755604534332
 30
0.0
 40
5.25
 41
0.0
 71
     7
 72
     1
  1
24
  7
CONVERTER_12
 11
0.0
 21
1.0
 31
0.0
 73
     1
 44
0.60024009603842
  0
ENDBLK
  5
2F3
330
2EB
100
AcDbEntity
  8
0
100
AcDbBlockEnd
  0
BLOCK
  5
2FE
330
2F6
100
AcDbEntity
  8
0
100
AcDbBlockBegin
  2
*D21
 70
     1
 10
0.0
 20
0.0
 30
0.0
  3
*D21
  1

  0
LINE
  5
2F7
330
2F6
100
AcDbEntity
  8
1
  6
Continuous
 62
     2
100
AcDbLine
 10
168.886002837553
 20
97.98391339415745
 30
0.0
 11
183.749450544954
 21
91.05297390160993
 31
0.0
  0
LINE
  5
2F8
330
2F6
100
AcDbEntity
  8
1
  6
Continuous
 62
     2
100
AcDbLine
 10
183.749450544954
 20
91.05297390160993
 30
0.0
 11
202.3912825232462
 21
82.3601448880934
 31
0.0
  0
LINE
  5
2F9
330
2F6
100
AcDbEntity
  8
1
  6
Continuous
 62
     2
100
AcDbLine
 10
191.4488256110371
 20
107.5643370144237
 30
0.0
 11
183.1155231523429
 21
89.69351222105497
 31
0.0
  0
LINE
  5
2FA
330
2F6
100
AcDbEntity
  8
1
  6
Continuous
 62
     2
100
AcDbLine
 10
176.585377903636
 20
114.4952765069712
 30
0.0
 11
168.2520754449419
 21
96.6244517136025
 31
0.0
  0
SOLID
  5
2FB
330
2F6
100
AcDbEntity
  8
1
 62
     2
100
AcDbTrace
 10
173.9362221553374
 20
96.39158535968669
 30
0.0
 11
173.3520152836532
 21
95.13874968035074
 31
0.0
 12
168.886002837553
 22
97.98391339415745
 32
0.0
 13
168.886002837553
 23
97.98391339415745
 33
0.0
  0
SOLID
  5
2FC
330
2F6
100
AcDbEntity
  8
1
 62
     2
100
AcDbTrace
 10
178.6992312271695
 20
92.6453019360807
 30
0.0
 11
179.2834380988537
 21
93.89813761541664
 31
0.0
 12
183.749450544954
 22
91.05297390160993
 32
0.0
 13
183.749450544954
 23
91.05297390160993
 33
0.0
  0
MTEXT
  5
2FD
330
2F6
100
AcDbEntity
  8
1
 62
     7
100
AcDbMText
 10
187.6880455693195
 20
91.45071716527615
 30
0.0
 40
5.25
 41
0.0
 71
     7
 72
     1
  1
\C7;{\Fgdt;n}\C7;16,5
  7
CONVERTER_12
 11
0.9063077870366482
 21
-0.4226182617407033
 31
0.0
 73
     1
 44
0.60024009603842
  0
ENDBLK
  5
2FF
330
2F6
100
AcDbEntity
  8
0
100
AcDbBlockEnd
  0
ENDSEC
  0
SECTION
  2
ENTITIES
  0
INSERT
  5
72
330
1F
100
AcDbEntity
  8
1
100
AcDbBlockReference
  2
開示A4
 10
0.0
 20
0.0
 30
0.0
 41
1.5
 42
1.5
 43
1.5
  0
INSERT
  5
73
330
1F
100
AcDbEntity
  8
1
100
AcDbBlockReference
  2
92-80
 10
251.9070006173638
 20
142.3630604534331
 30
0.0
 41
1.33333333333334
 42
1.33333333333334
 43
1.33333333333334
  0
INSERT
  5
74
330
1F
100
AcDbEntity
  8
0
100
AcDbBlockReference
  2
32-1-16
 10
211.5540288939938
 20
422.0002000115004
 30
0.0
 41
0.66666666666666
 42
0.66666666666666
 43
0.66666666666666
  0
INSERT
  5
75
330
1F
100
AcDbEntity
  8
0
100
AcDbBlockReference
  2
75-2
 10
-147.9015006219677
 20
-219.2644933249815
 30
0.0
 41
0.66666666666666
 42
0.66666666666666
 43
0.66666666666666
  0
INSERT
  5
76
330
1F
100
AcDbEntity
  8
1
100
AcDbBlockReference
  2
R10AK-13
 10
101.4123992046497
 20
260.542751741618
 30
0.0
 41
0.66666666666666
 42
0.66666666666666
 43
0.66666666666666
  0
INSERT
  5
77
330
1F
100
AcDbEntity
  8
1
100
AcDbBlockReference
  2
35-22
 10
28.44076255479131
 20
163.328540471967
 30
0.0
 41
0.66666666666666
 42
0.66666666666666
 43
0.66666666666666
  0
INSERT
  5
78
330
1F
100
AcDbEntity
  8
1
100
AcDbBlockReference
  2
32-26
 10
-50.68760079535019
 20
328.8285565149931
 30
0.0
 41
0.66666666666666
 42
0.66666666666666
 43
0.66666666666666
  0
INSERT
  5
79
330
1F
100
AcDbEntity
  8
1
100
AcDbBlockReference
  2
B320-0
 10
54.28037610727182
 20
113.7122154060172
 30
0.0
 41
0.66666666666666
 42
0.66666666666666
 43
0.66666666666666
  0
INSERT
  5
7A
330
1F
100
AcDbEntity
  8
1
100
AcDbBlockReference
  2
62-1B-M2
 10
-187.6876007953502
 20
339.0785565149931
 30
0.0
 41
0.66666666666666
 42
0.66666666666666
 43
0.66666666666666
  0
LINE
  5
292
330
1F
100
AcDbEntity
  8
1
  6
DASH_CENTER
 62
     2
100
AcDbLine
 10
112.1340080316929
 20
108.113060453433
 30
0.0
 11
90.69079037760643
 21
108.113060453433
 31
0.0
  0
LINE
  5
293
330
1F
100
AcDbEntity
  8
1
  6
DASH_CENTER
 62
     2
100
AcDbLine
 10
101.4123992046497
 20
209.613060453433
 30
0.0
 11
101.4123992046496
 21
101.9043668186681
 31
0.0
  0
LINE
  5
294
330
1F
100
AcDbEntity
  8
1
  6
DASH_CENTER
 62
     2
100
AcDbLine
 10
117.0249794909332
 20
324.0712781603419
 30
0.0
 11
87.83811113574484
 21
374.6244170653527
 31
0.0
  0
LINE
  5
295
330
1F
100
AcDbEntity
  8
1
  6
DASH_CENTER
 62
     2
100
AcDbLine
 10
117.0249794909332
 20
378.1548427465241
 30
0.0
 11
87.47168163222624
 21
326.9670293240271
 31
0.0
  0
LINE
  5
296
330
1F
100
AcDbEntity
  8
1
  6
DASH_CENTER
 62
     2
100
AcDbLine
 10
148.9123992046497
 20
148.1130604534332
 30
0.0
 11
68.41239920464986
 21
148.1130604534332
 31
0.0
  0
LINE
  5
297
330
1F
100
AcDbEntity
  8
1
  6
DASH_CENTER
 62
     2
100
AcDbLine
 10
101.4123992046497
 20
266.9819947478848
 30
0.0
 11
101.4123992046497
 21
374.7501037550371
 31
0.0
  0
LINE
  5
298
330
1F
100
AcDbEntity
  8
1
  6
DASH_CENTER
 62
     2
100
AcDbLine
 10
148.9123992046497
 20
351.1130604534332
 30
0.0
 11
68.41239920464962
 21
351.1130604534332
 31
0.0
  0
LINE
  5
299
330
1F
100
AcDbEntity
  8
1
  6
DASH_CENTER
 62
     2
100
AcDbLine
 10
112.4067273242278
 20
276.1130604534332
 30
0.0
 11
90.41807108507165
 21
276.1130604534332
 31
0.0
  0
LINE
  5
29A
330
1F
100
AcDbEntity
  8
1
  6
DASH_CENTER
 62
     2
100
AcDbLine
 10
220.4214147677886
 20
148.1130604534332
 30
0.0
 11
272.9078443122824
 21
148.1130604534332
 31
0.0
  0
LINE
  5
29B
330
1F
100
AcDbEntity
  8
1
  6
DASH_CENTER
 62
     2
100
AcDbLine
 10
193.2321811566893
 20
130.7916083056541
 30
0.0
 11
181.8117640938827
 21
106.3004448793599
 31
0.0
  0
LINE
  5
29C
330
1F
100
AcDbEntity
  8
1
  6
DASH_CENTER
 62
     2
100
AcDbLine
 10
257.6570006173638
 20
208.6130604534349
 30
0.0
 11
257.6570006173638
 21
130.7122154060168
 31
0.0
  0
ARC
  5
29D
330
1F
100
AcDbEntity
  8
1
  6
DASH_CENTER
 62
     2
100
AcDbCircle
 10
220.4214147677886
 20
118.1130604534331
 30
0.0
 40
30.0000000000001
100
AcDbArc
 50
90.0
 51
154.9999999999998
  0
SOLID
  5
29E
330
1F
100
AcDbEntity
  8
1
 62
     2
100
AcDbTrace
 10
268.6266454611464
 20
157.88525615816
 30
0.0
 11
269.8237967386611
 21
157.1940805458262
 31
0.0
 12
266.6002210999038
 22
152.9930349821248
 32
0.0
 13
266.6002210999038
 23
152.9930349821248
 33
0.0
  0
LEADER
  5
29F
330
1F
100
AcDbEntity
  8
1
  6
Continuous
 62
     2
100
AcDbLeader
  3
Standard
 71
     0
 76
     3
 10
266.6002210999038
 20
152.9930349821248
 30
0.0
 10
273.9945305081711
 20
165.8003545641292
 30
0.0
 10
293.5386201185145
 20
165.8003545641292
 30
0.0
  0
SOLID
  5
2A0
330
1F
100
AcDbEntity
  8
1
 62
     2
100
AcDbTrace
 10
75.4732963626045
 20
335.720839277398
 30
0.0
 11
74.2761450850898
 21
336.4120148897318
 31
0.0
 12
77.49972072384719
 22
340.6130604534332
 32
0.0
 13
77.49972072384719
 23
340.6130604534332
 33
0.0
  0
LEADER
  5
2A1
330
1F
100
AcDbEntity
  8
1
  6
Continuous
 62
     2
100
AcDbLeader
  3
Standard
 71
     0
 76
     3
 10
77.49972072384719
 20
340.6130604534332
 30
0.0
 10
67.48237740706088
 20
323.2625128718986
 30
0.0
 10
48.78636760364925
 20
323.2625128718986
 30
0.0
  0
MTEXT
  5
2A3
330
1F
100
AcDbEntity
  8
1
 62
     7
100
AcDbMText
 10
85.5
 20
21.375
 30
0.0
 40
5.25
 41
0.0
 71
     5
 72
     1
  1
B320-13
  7
CONVERTER_12
 73
     1
 44
0.7202881152461
  0
MTEXT
  5
2A4
330
1F
100
AcDbEntity
  8
1
 62
     7
100
AcDbMText
 10
85.5
 20
34.12500000000001
 30
0.0
 40
5.25
 41
0.0
 71
     5
 72
     1
  1
アングル分岐バルブ
  7
CONVERTER_11
 73
     1
 44
0.54545454545455
  0
MTEXT
  5
2A5
330
1F
100
AcDbEntity
  8
1
 62
     7
100
AcDbMText
 10
58.13437250535507
 20
327.7625128718986
 30
0.0
 40
5.25
 41
0.0
 71
     5
 72
     1
  1
G1/2
  7
CONVERTER_12
 73
     1
 44
0.7202881152461
  0
MTEXT
  5
2A6
330
1F
100
AcDbEntity
  8
1
 62
     7
100
AcDbMText
 10
283.8973308321936
 20
170.3003545641292
 30
0.0
 40
5.25
 41
0.0
 71
     5
 72
     1
  1
G1/2
  7
CONVERTER_12
 73
     1
 44
0.7202881152461
  0
MTEXT
  5
2A7
330
1F
100
AcDbEntity
  8
1
 62
     7
100
AcDbMText
 10
127.875
 20
25.5
 30
0.0
 40
5.25
 41
0.0
 71
     5
 72
     1
  1
1
  7
CONVERTER_12
 73
     1
 44
0.7202881152461
  0
MTEXT
  5
2A8
330
1F
100
AcDbEntity
  8
1
 62
     7
100
AcDbMText
 10
140.625
 20
25.5
 30
0.0
 40
5.25
 41
0.0
 71
     5
 72
     1
  1
1,5
  7
CONVERTER_12
 73
     1
 44
0.7202881152461
  0
DIMENSION
  5
2B3
330
1F
100
AcDbEntity
  8
1
100
AcDbDimension
  2
*D14
 10
160.9123992046497
 20
108.113060453433
 30
0.0
 11
156.7873992046497
 21
128.1130604534331
 31
0.0
 70
    32
  1
<>
 71
     5
 42
-1.0
 53
90.0
  3
ME10_DIM_10
100
AcDbAlignedDimension
 13
148.9123992046497
 23
148.1130604534332
 33
0.0
 14
112.1340080316929
 24
108.113060453433
 34
0.0
 50
90.0
100
AcDbRotatedDimension
  0
DIMENSION
  5
2BE
330
1F
100
AcDbEntity
  8
1
100
AcDbDimension
  2
*D15
 10
56.41239920464982
 20
148.1130604534331
 30
0.0
 11
52.28739920464982
 21
176.7630604534331
 31
0.0
 70
    32
  1
58リフト5
 71
     5
 42
-1.0
 53
90.0
  3
ME10_DIM_11
100
AcDbAlignedDimension
 13
101.4123992046497
 23
205.4130604534331
 33
0.0
 14
68.41239920464986
 24
148.1130604534332
 34
0.0
 50
90.0
100
AcDbRotatedDimension
  0
DIMENSION
  5
2C9
330
1F
100
AcDbEntity
  8
1
100
AcDbDimension
  2
*D16
 10
160.9123992046498
 20
276.1130604534333
 30
0.0
 11
156.7873992046498
 21
313.6130604534332
 31
0.0
 70
    32
  1
<>
 71
     5
 42
-1.0
 53
90.0
  3
ME10_DIM_12
100
AcDbAlignedDimension
 13
148.9123992046497
 23
351.1130604534332
 33
0.0
 14
112.4067273242278
 24
276.1130604534332
 34
0.0
 50
90.0
100
AcDbRotatedDimension
  0
DIMENSION
  5
2D4
330
1F
100
AcDbEntity
  8
1
100
AcDbDimension
  2
*D17
 10
71.41239920464983
 20
89.90436681866808
 30
0.0
 11
86.41239920464972
 21
94.02936681866808
 31
0.0
 70
    32
  1
<>
 71
     5
 42
-1.0
 53
0.00013888888889
  3
ME10_DIM_13
100
AcDbAlignedDimension
 13
101.4123992046496
 23
101.9043668186681
 33
0.0
 14
71.41239920464983
 24
138.7750604534335
 34
0.0
100
AcDbRotatedDimension
  0
DIMENSION
  5
2DF
330
1F
100
AcDbEntity
  8
1
100
AcDbDimension
  2
*D18
 10
145.9123992046498
 20
89.90436681866808
 30
0.0
 11
123.6623992046497
 21
94.02936681866808
 31
0.0
 70
    32
  1
45
 71
     5
 42
-1.0
 53
0.00013888888889
  3
ME10_DIM_14
100
AcDbAlignedDimension
 13
101.4123992046496
 23
101.9043668186681
 33
0.0
 14
145.9123992046498
 24
136.7528174317887
 34
0.0
100
AcDbRotatedDimension
  0
DIMENSION
  5
2EA
330
1F
100
AcDbEntity
  8
1
100
AcDbDimension
  2
*D19
 10
145.9123992046497
 20
77.90436681866808
 30
0.0
 11
108.6623992046498
 21
82.02936681866808
 31
0.0
 70
    32
  1
75
 71
     5
 42
-1.0
 53
0.00013888888889
  3
ME10_DIM_15
100
AcDbAlignedDimension
 13
71.41239920464983
 23
138.7750604534335
 33
0.0
 14
145.9123992046498
 24
136.7528174317887
 34
0.0
100
AcDbRotatedDimension
  0
DIMENSION
  5
2F5
330
1F
100
AcDbEntity
  8
1
100
AcDbDimension
  2
*D20
 10
172.9123992046497
 20
160.1130604534331
 30
0.0
 11
168.7873992046497
 21
148.1130604534332
 31
0.0
 70
    32
  1
<>
 71
     5
 42
-1.0
 53
90.0
  3
ME10_DIM_16
100
AcDbAlignedDimension
 13
144.7245480699714
 23
136.1130604534331
 33
0.0
 14
144.7245480699715
 24
160.1130604534331
 34
0.0
 50
90.0
100
AcDbRotatedDimension
  0
DIMENSION
  5
301
330
1F
100
AcDbEntity
  8
1
100
AcDbDimension
  2
*D21
 10
168.886002837553
 20
97.98391339415745
 30
0.0
 11
195.5619586620887
 21
90.38578152401982
 31
0.0
 70
    33
  1
{\Fgdt;n}16,5
 71
     5
 42
-1.0
 53
-25.00000000000028
  3
ME10_DIM_17
100
AcDbAlignedDimension
 13
191.448825611037
 23
107.5643370144236
 33
0.0
 14
176.585377903636
 24
114.4952765069712
 34
0.0
  0
ENDSEC
  0
SECTION
  2
OBJECTS
  0
DICTIONARY
  5
C
330
0
100
AcDbDictionary
281
     1
  3
ACAD_GROUP
350
D
  3
ACAD_LAYOUT
350
1A
  3
ACAD_MATERIAL
350
3B
  3
ACAD_MLEADERSTYLE
350
304
  3
ACAD_MLINESTYLE
350
17
  3
ACAD_PLOTSETTINGS
350
19
  3
ACAD_PLOTSTYLENAME
350
E
  3
ACAD_VISUALSTYLE
350
2A
  3
AcDbVariableDictionary
350
302
  0
DICTIONARY
  5
D
102
{ACAD_REACTORS
330
C
102
}
330
C
100
AcDbDictionary
281
     1
  0
DICTIONARY
  5
1A
102
{ACAD_REACTORS
330
C
102
}
330
C
100
AcDbDictionary
281
     1
  3
Layout1
350
1E
  3
Layout2
350
26
  3
Model
350
22
  0
DICTIONARY
  5
3B
102
{ACAD_REACTORS
330
C
102
}
330
C
100
AcDbDictionary
281
     1
  3
ByBlock
350
3D
  3
ByLayer
350
3C
  3
Global
350
3E
  0
DICTIONARY
  5
304
102
{ACAD_REACTORS
330
C
102
}
330
C
100
AcDbDictionary
281
     1
  0
DICTIONARY
  5
17
102
{ACAD_REACTORS
330
C
102
}
330
C
100
AcDbDictionary
281
     1
  3
Standard
350
18
  0
DICTIONARY
  5
19
102
{ACAD_REACTORS
330
C
102
}
330
C
100
AcDbDictionary
281
     1
  0
ACDBDICTIONARYWDFLT
  5
E
102
{ACAD_REACTORS
330
C
102
}
330
C
100
AcDbDictionary
281
     1
  3
Normal
350
F
100
AcDbDictionaryWithDefault
340
F
  0
DICTIONARY
  5
2A
102
{ACAD_REACTORS
330
C
102
}
330
C
100
AcDbDictionary
281
     1
  3
2dWireframe
350
2F
  3
3D Hidden
350
31
  3
3dWireframe
350
30
  3
Basic
350
32
  3
Brighten
350
36
  3
ColorChange
350
3A
  3
Conceptual
350
34
  3
Dim
350
35
  3
Facepattern
350
39
  3
Flat
350
2B
  3
FlatWithEdges
350
2C
  3
Gouraud
350
2D
  3
GouraudWithEdges
350
2E
  3
Linepattern
350
38
  3
Realistic
350
33
  3
Thicken
350
37
  0
DICTIONARY
  5
302
102
{ACAD_REACTORS
330
C
102
}
330
C
100
AcDbDictionary
281
     1
  3
DIMASSOC
350
305
  3
HIDETEXT
350
306
  0
LAYOUT
  5
1E
102
{ACAD_REACTORS
330
1A
102
}
330
1A
100
AcDbPlotSettings
  1

  2
none_device
  4

  6

 40
0.0
 41
0.0
 42
0.0
 43
0.0
 44
0.0
 45
0.0
 46
0.0
 47
0.0
 48
0.0
 49
0.0
140
0.0
141
0.0
142
1.0
143
1.0
 70
   688
 72
     0
 73
     0
 74
     5
  7

 75
    16
147
1.0
148
0.0
149
0.0
100
AcDbLayout
  1
Layout1
 70
     1
 71
     1
 10
0.0
 20
0.0
 11
12.0
 21
9.0
 12
0.0
 22
0.0
 32
0.0
 14
1.00000000000000E+20
 24
1.00000000000000E+20
 34
1.00000000000000E+20
 15
-1.00000000000000E+20
 25
-1.00000000000000E+20
 35
-1.00000000000000E+20
146
0.0
 13
0.0
 23
0.0
 33
0.0
 16
1.0
 26
0.0
 36
0.0
 17
0.0
 27
1.0
 37
0.0
 76
     0
330
1B
  0
LAYOUT
  5
26
102
{ACAD_REACTORS
330
1A
102
}
330
1A
100
AcDbPlotSettings
  1

  2
none_device
  4

  6

 40
0.0
 41
0.0
 42
0.0
 43
0.0
 44
0.0
 45
0.0
 46
0.0
 47
0.0
 48
0.0
 49
0.0
140
0.0
141
0.0
142
1.0
143
1.0
 70
   688
 72
     0
 73
     0
 74
     5
  7

 75
    16
147
1.0
148
0.0
149
0.0
100
AcDbLayout
  1
Layout2
 70
     1
 71
     2
 10
0.0
 20
0.0
 11
0.0
 21
0.0
 12
0.0
 22
0.0
 32
0.0
 14
0.0
 24
0.0
 34
0.0
 15
0.0
 25
0.0
 35
0.0
146
0.0
 13
0.0
 23
0.0
 33
0.0
 16
1.0
 26
0.0
 36
0.0
 17
0.0
 27
1.0
 37
0.0
 76
     0
330
23
  0
LAYOUT
  5
22
102
{ACAD_REACTORS
330
1A
102
}
330
1A
100
AcDbPlotSettings
  1

  2
none_device
  4

  6

 40
0.0
 41
0.0
 42
0.0
 43
0.0
 44
0.0
 45
0.0
 46
0.0
 47
0.0
 48
0.0
 49
0.0
140
0.0
141
0.0
142
1.0
143
1.0
 70
  1712
 72
     0
 73
     0
 74
     0
  7

 75
     0
147
1.0
148
0.0
149
0.0
100
AcDbLayout
  1
Model
 70
     1
 71
     0
 10
0.0
 20
0.0
 11
12.0
 21
9.0
 12
0.0
 22
0.0
 32
0.0
 14
0.0
 24
0.0
 34
0.0
 15
315.0
 25
445.5
 35
0.0
146
0.0
 13
0.0
 23
0.0
 33
0.0
 16
1.0
 26
0.0
 36
0.0
 17
0.0
 27
1.0
 37
0.0
 76
     0
330
1F
331
29
  0
MATERIAL
  5
3D
102
{ACAD_REACTORS
330
3B
102
}
102
{ACAD_XDICTIONARY
360
329
102
}
330
3B
100
AcDbMaterial
  1
ByBlock
  0
MATERIAL
  5
3C
102
{ACAD_REACTORS
330
3B
102
}
102
{ACAD_XDICTIONARY
360
327
102
}
330
3B
100
AcDbMaterial
  1
ByLayer
  0
MATERIAL
  5
3E
102
{ACAD_REACTORS
330
3B
102
}
102
{ACAD_XDICTIONARY
360
32B
102
}
330
3B
100
AcDbMaterial
  1
Global
  0
MLINESTYLE
  5
18
102
{ACAD_REACTORS
330
17
102
}
330
17
100
AcDbMlineStyle
  2
Standard
 70
     0
  3

 62
   256
 51
90.0
 52
90.0
 71
     2
 49
0.5
 62
   256
  6
BYLAYER
 49
-0.5
 62
   256
  6
BYLAYER
  0
ACDBPLACEHOLDER
  5
F
102
{ACAD_REACTORS
330
E
102
}
330
E
  0
VISUALSTYLE
  5
2F
102
{ACAD_REACTORS
330
2A
102
}
102
{ACAD_XDICTIONARY
360
30F
102
}
330
2A
100
AcDbVisualStyle
  2
2dWireframe
 70
     4
 71
     0
 72
     2
 73
     0
 90
        0
 40
-0.6
 41
-30.0
 62
     5
 63
     7
 74
     1
 91
        4
 64
     7
 65
   257
 75
     1
175
     1
 42
1.0
 92
        0
 66
   257
 43
1.0
 76
     1
 77
     6
 78
     2
 67
     7
 79
     5
170
     0
171
     0
290
     0
174
     0
 93
        1
 44
0.0
173
     0
291
     0
 45
0.0
1001
ACAD
1000
AcDbSavedByObjectVersion
1070
     0
  0
VISUALSTYLE
  5
31
102
{ACAD_REACTORS
330
2A
102
}
102
{ACAD_XDICTIONARY
360
313
102
}
330
2A
100
AcDbVisualStyle
  2
3D Hidden
 70
     6
 71
     1
 72
     2
 73
     2
 90
        0
 40
-0.6
 41
-30.0
 62
     5
 63
     7
 74
     2
 91
        2
 64
     7
 65
   257
 75
     2
175
     1
 42
40.0
 92
        0
 66
   257
 43
1.0
 76
     1
 77
     6
 78
     2
 67
     7
 79
     3
170
     0
171
     0
290
     0
174
     0
 93
        1
 44
0.0
173
     0
291
     0
 45
0.0
1001
ACAD
1000
AcDbSavedByObjectVersion
1070
     0
  0
VISUALSTYLE
  5
30
102
{ACAD_REACTORS
330
2A
102
}
102
{ACAD_XDICTIONARY
360
311
102
}
330
2A
100
AcDbVisualStyle
  2
3dWireframe
 70
     5
 71
     0
 72
     2
 73
     0
 90
        0
 40
-0.6
 41
-30.0
 62
     5
 63
     7
 74
     1
 91
        4
 64
     7
 65
   257
 75
     1
175
     1
 42
1.0
 92
        0
 66
   257
 43
1.0
 76
     1
 77
     6
 78
     2
 67
     7
 79
     5
170
     0
171
     0
290
     0
174
     0
 93
        1
 44
0.0
173
     0
291
     0
 45
0.0
1001
ACAD
1000
AcDbSavedByObjectVersion
1070
     0
  0
VISUALSTYLE
  5
32
102
{ACAD_REACTORS
330
2A
102
}
102
{ACAD_XDICTIONARY
360
315
102
}
330
2A
100
AcDbVisualStyle
  2
Basic
 70
     7
 71
     1
 72
     0
 73
     1
 90
        0
 40
-0.6
 41
-30.0
 62
     5
 63
     7
 74
     0
 91
        4
 64
     7
 65
   257
 75
     1
175
     1
 42
1.0
 92
        8
 66
     7
 43
1.0
 76
     1
 77
     6
 78
     2
 67
     7
 79
     5
170
     0
171
     0
290
     0
174
     0
 93
        1
 44
0.0
173
     0
291
     1
 45
0.0
1001
ACAD
1000
AcDbSavedByObjectVersion
1070
     0
  0
VISUALSTYLE
  5
36
102
{ACAD_REACTORS
330
2A
102
}
102
{ACAD_XDICTIONARY
360
31D
102
}
330
2A
100
AcDbVisualStyle
  2
Brighten
 70
    12
 71
     2
 72
     2
 73
     0
 90
        0
 40
-0.6
 41
-30.0
 62
     5
 63
     7
 74
     1
 91
        4
 64
     7
 65
   257
 75
     1
175
     1
 42
1.0
 92
        8
 66
     7
 43
1.0
 76
     1
 77
     6
 78
     2
 67
     7
 79
     5
170
     0
171
     0
290
     0
174
     0
 93
        1
 44
50.0
173
     0
291
     1
 45
0.0
1001
ACAD
1000
AcDbSavedByObjectVersion
1070
     0
  0
VISUALSTYLE
  5
3A
102
{ACAD_REACTORS
330
2A
102
}
102
{ACAD_XDICTIONARY
360
325
102
}
330
2A
100
AcDbVisualStyle
  2
ColorChange
 70
    16
 71
     2
 72
     2
 73
     3
 90
        0
 40
-0.6
 41
-30.0
 62
     5
 63
     8
 74
     1
 91
        4
 64
     7
 65
   257
 75
     1
175
     1
 42
1.0
 92
        8
 66
     8
 43
1.0
 76
     1
 77
     6
 78
     2
 67
     7
 79
     5
170
     0
171
     0
290
     0
174
     0
 93
        1
 44
0.0
173
     0
291
     1
 45
0.0
1001
ACAD
1000
AcDbSavedByObjectVersion
1070
     0
  0
VISUALSTYLE
  5
34
102
{ACAD_REACTORS
330
2A
102
}
102
{ACAD_XDICTIONARY
360
319
102
}
330
2A
100
AcDbVisualStyle
  2
Conceptual
 70
     9
 71
     3
 72
     2
 73
     0
 90
        0
 40
-0.6
 41
-30.0
 62
     5
 63
     7
 74
     2
 91
        2
 64
     7
 65
   257
 75
     1
175
     1
 42
40.0
 92
        8
 66
     7
 43
1.0
 76
     1
 77
     6
 78
     2
 67
     7
 79
     3
170
     0
171
     0
290
     0
174
     0
 93
        1
 44
0.0
173
     0
291
     0
 45
0.0
1001
ACAD
1000
AcDbSavedByObjectVersion
1070
     0
  0
VISUALSTYLE
  5
35
102
{ACAD_REACTORS
330
2A
102
}
102
{ACAD_XDICTIONARY
360
31B
102
}
330
2A
100
AcDbVisualStyle
  2
Dim
 70
    11
 71
     2
 72
     2
 73
     0
 90
        0
 40
-0.6
 41
-30.0
 62
     5
 63
     7
 74
     1
 91
        4
 64
     7
 65
   257
 75
     1
175
     1
 42
1.0
 92
        8
 66
     7
 43
1.0
 76
     1
 77
     6
 78
     2
 67
     7
 79
     5
170
     0
171
     0
290
     0
174
     0
 93
        1
 44
-50.0
173
     0
291
     1
 45
0.0
1001
ACAD
1000
AcDbSavedByObjectVersion
1070
     0
  0
VISUALSTYLE
  5
39
102
{ACAD_REACTORS
330
2A
102
}
102
{ACAD_XDICTIONARY
360
323
102
}
330
2A
100
AcDbVisualStyle
  2
Facepattern
 70
    15
 71
     2
 72
     2
 73
     0
 90
        0
 40
-0.6
 41
-30.0
 62
     5
 63
     7
 74
     1
 91
        4
 64
     7
 65
   257
 75
     1
175
     1
 42
1.0
 92
        8
 66
     7
 43
1.0
 76
     1
 77
     6
 78
     2
 67
     7
 79
     5
170
     0
171
     0
290
     0
174
     0
 93
        1
 44
0.0
173
     0
291
     1
 45
0.0
1001
ACAD
1000
AcDbSavedByObjectVersion
1070
     0
  0
VISUALSTYLE
  5
2B
102
{ACAD_REACTORS
330
2A
102
}
102
{ACAD_XDICTIONARY
360
307
102
}
330
2A
100
AcDbVisualStyle
  2
Flat
 70
     0
 71
     2
 72
     1
 73
     1
 90
        2
 40
-0.6
 41
30.0
 62
     5
 63
     7
 74
     0
 91
        4
 64
     7
 65
   257
 75
     1
175
     1
 42
1.0
 92
        8
 66
     7
 43
1.0
 76
     1
 77
     6
 78
     2
 67
     7
 79
     5
170
     0
171
     0
290
     0
174
     0
 93
       13
 44
0.0
173
     0
291
     1
 45
0.0
1001
ACAD
1000
AcDbSavedByObjectVersion
1070
     0
  0
VISUALSTYLE
  5
2C
102
{ACAD_REACTORS
330
2A
102
}
102
{ACAD_XDICTIONARY
360
309
102
}
330
2A
100
AcDbVisualStyle
  2
FlatWithEdges
 70
     1
 71
     2
 72
     1
 73
     1
 90
        2
 40
-0.6
 41
30.0
 62
     5
 63
     7
 74
     1
 91
        4
 64
     7
 65
   257
 75
     1
175
     1
 42
1.0
 92
        0
 66
   257
 43
1.0
 76
     1
 77
     6
 78
     2
 67
     7
 79
     5
170
     0
171
     0
290
     0
174
     0
 93
       13
 44
0.0
173
     0
291
     1
 45
0.0
1001
ACAD
1000
AcDbSavedByObjectVersion
1070
     0
  0
VISUALSTYLE
  5
2D
102
{ACAD_REACTORS
330
2A
102
}
102
{ACAD_XDICTIONARY
360
30B
102
}
330
2A
100
AcDbVisualStyle
  2
Gouraud
 70
     2
 71
     2
 72
     2
 73
     1
 90
        2
 40
-0.6
 41
30.0
 62
     5
 63
     7
 74
     0
 91
        4
 64
     7
 65
   257
 75
     1
175
     1
 42
1.0
 92
        0
 66
     7
 43
1.0
 76
     1
 77
     6
 78
     2
 67
     7
 79
     5
170
     0
171
     0
290
     0
174
     0
 93
       13
 44
0.0
173
     0
291
     1
 45
0.0
1001
ACAD
1000
AcDbSavedByObjectVersion
1070
     0
  0
VISUALSTYLE
  5
2E
102
{ACAD_REACTORS
330
2A
102
}
102
{ACAD_XDICTIONARY
360
30D
102
}
330
2A
100
AcDbVisualStyle
  2
GouraudWithEdges
 70
     3
 71
     2
 72
     2
 73
     1
 90
        2
 40
-0.6
 41
30.0
 62
     5
 63
     7
 74
     1
 91
        4
 64
     7
 65
   257
 75
     1
175
     1
 42
1.0
 92
        0
 66
   257
 43
1.0
 76
     1
 77
     6
 78
     2
 67
     7
 79
     5
170
     0
171
     0
290
     0
174
     0
 93
       13
 44
0.0
173
     0
291
     1
 45
0.0
1001
ACAD
1000
AcDbSavedByObjectVersion
1070
     0
  0
VISUALSTYLE
  5
38
102
{ACAD_REACTORS
330
2A
102
}
102
{ACAD_XDICTIONARY
360
321
102
}
330
2A
100
AcDbVisualStyle
  2
Linepattern
 70
    14
 71
     2
 72
     2
 73
     0
 90
        0
 40
-0.6
 41
-30.0
 62
     5
 63
     7
 74
     1
 91
        4
 64
     7
 65
   257
 75
     7
175
     7
 42
1.0
 92
        8
 66
     7
 43
1.0
 76
     1
 77
     6
 78
     2
 67
     7
 79
     5
170
     0
171
     0
290
     0
174
     0
 93
        1
 44
0.0
173
     0
291
     1
 45
0.0
1001
ACAD
1000
AcDbSavedByObjectVersion
1070
     0
  0
VISUALSTYLE
  5
33
102
{ACAD_REACTORS
330
2A
102
}
102
{ACAD_XDICTIONARY
360
317
102
}
330
2A
100
AcDbVisualStyle
  2
Realistic
 70
     8
 71
     2
 72
     2
 73
     0
 90
        0
 40
-0.6
 41
-30.0
 62
     5
 63
     7
 74
     1
 91
        0
 64
     7
 65
   257
 75
     1
175
     1
 42
1.0
 92
        8
 66
     8
 43
1.0
 76
     1
 77
     6
 78
     2
 67
     7
 79
     5
170
     0
171
     0
290
     0
174
     0
 93
       13
 44
0.0
173
     0
291
     0
 45
0.0
1001
ACAD
1000
AcDbSavedByObjectVersion
1070
     0
  0
VISUALSTYLE
  5
37
102
{ACAD_REACTORS
330
2A
102
}
102
{ACAD_XDICTIONARY
360
31F
102
}
330
2A
100
AcDbVisualStyle
  2
Thicken
 70
    13
 71
     2
 72
     2
 73
     0
 90
        0
 40
-0.6
 41
-30.0
 62
     5
 63
     7
 74
     1
 91
        4
 64
     7
 65
   257
 75
     1
175
     1
 42
1.0
 92
       12
 66
     7
 43
1.0
 76
     1
 77
     6
 78
     2
 67
     7
 79
     5
170
     0
171
     0
290
     0
174
     0
 93
        1
 44
0.0
173
     0
291
     1
 45
0.0
1001
ACAD
1000
AcDbSavedByObjectVersion
1070
     0
  0
DICTIONARYVAR
  5
305
102
{ACAD_REACTORS
330
302
102
}
330
302
100
DictionaryVariables
280
     0
  1
2
  0
DICTIONARYVAR
  5
306
102
{ACAD_REACTORS
330
302
102
}
330
302
100
DictionaryVariables
280
     0
  1
1
  0
DICTIONARY
  5
329
330
3D
100
AcDbDictionary
280
     1
281
     1
  3
ACAD_XREC_ROUNDTRIP
360
32A
  0
DICTIONARY
  5
327
330
3C
100
AcDbDictionary
280
     1
281
     1
  3
ACAD_XREC_ROUNDTRIP
360
328
  0
DICTIONARY
  5
32B
330
3E
100
AcDbDictionary
280
     1
281
     1
  3
ACAD_XREC_ROUNDTRIP
360
32C
  0
DICTIONARY
  5
30F
330
2F
100
AcDbDictionary
280
     1
281
     1
  3
ACAD_XREC_ROUNDTRIP
360
310
  0
DICTIONARY
  5
313
330
31
100
AcDbDictionary
280
     1
281
     1
  3
ACAD_XREC_ROUNDTRIP
360
314
  0
DICTIONARY
  5
311
330
30
100
AcDbDictionary
280
     1
281
     1
  3
ACAD_XREC_ROUNDTRIP
360
312
  0
DICTIONARY
  5
315
330
32
100
AcDbDictionary
280
     1
281
     1
  3
ACAD_XREC_ROUNDTRIP
360
316
  0
DICTIONARY
  5
31D
330
36
100
AcDbDictionary
280
     1
281
     1
  3
ACAD_XREC_ROUNDTRIP
360
31E
  0
DICTIONARY
  5
325
330
3A
100
AcDbDictionary
280
     1
281
     1
  3
ACAD_XREC_ROUNDTRIP
360
326
  0
DICTIONARY
  5
319
330
34
100
AcDbDictionary
280
     1
281
     1
  3
ACAD_XREC_ROUNDTRIP
360
31A
  0
DICTIONARY
  5
31B
330
35
100
AcDbDictionary
280
     1
281
     1
  3
ACAD_XREC_ROUNDTRIP
360
31C
  0
DICTIONARY
  5
323
330
39
100
AcDbDictionary
280
     1
281
     1
  3
ACAD_XREC_ROUNDTRIP
360
324
  0
DICTIONARY
  5
307
330
2B
100
AcDbDictionary
280
     1
281
     1
  3
ACAD_XREC_ROUNDTRIP
360
308
  0
DICTIONARY
  5
309
330
2C
100
AcDbDictionary
280
     1
281
     1
  3
ACAD_XREC_ROUNDTRIP
360
30A
  0
DICTIONARY
  5
30B
330
2D
100
AcDbDictionary
280
     1
281
     1
  3
ACAD_XREC_ROUNDTRIP
360
30C
  0
DICTIONARY
  5
30D
330
2E
100
AcDbDictionary
280
     1
281
     1
  3
ACAD_XREC_ROUNDTRIP
360
30E
  0
DICTIONARY
  5
321
330
38
100
AcDbDictionary
280
     1
281
     1
  3
ACAD_XREC_ROUNDTRIP
360
322
  0
DICTIONARY
  5
317
330
33
100
AcDbDictionary
280
     1
281
     1
  3
ACAD_XREC_ROUNDTRIP
360
318
  0
DICTIONARY
  5
31F
330
37
100
AcDbDictionary
280
     1
281
     1
  3
ACAD_XREC_ROUNDTRIP
360
320
  0
XRECORD
  5
32A
102
{ACAD_REACTORS
330
329
102
}
330
329
100
AcDbXrecord
280
     1
102
MATERIAL
148
0.0
149
0.0
149
0.0
 93
        0
 94
      127
282
     0
 72
     1
 77
     1
171
     1
175
     1
179
     1
273
     0
  0
XRECORD
  5
328
102
{ACAD_REACTORS
330
327
102
}
330
327
100
AcDbXrecord
280
     1
102
MATERIAL
148
0.0
149
0.0
149
0.0
 93
        0
 94
      127
282
     0
 72
     1
 77
     1
171
     1
175
     1
179
     1
273
     0
  0
XRECORD
  5
32C
102
{ACAD_REACTORS
330
32B
102
}
330
32B
100
AcDbXrecord
280
     1
102
MATERIAL
148
0.0
149
0.0
149
0.0
 93
        0
 94
      127
282
     0
 72
     1
 77
     1
171
     1
175
     1
179
     1
273
     0
  0
XRECORD
  5
310
102
{ACAD_REACTORS
330
30F
102
}
330
30F
100
AcDbXrecord
280
     1
102
RTVSPropertyOp0
 70
     1
102
RTVSPropertyOp1
 70
     1
102
RTVSPropertyOp2
 70
     1
102
RTVSPropertyOp3
 70
     1
102
RTVSPropertyOp4
 70
     1
102
RTVSPropertyOp5
 70
     1
102
RTVSPropertyOp6
 70
     1
102
RTVSPropertyOp7
 70
     1
102
RTVSPropertyOp8
 70
     1
102
RTVSPropertyOp9
 70
     1
102
RTVSPropertyOp10
 70
     1
102
RTVSPropertyOp11
 70
     1
102
RTVSPropertyOp12
 70
     1
102
RTVSPropertyOp13
 70
     1
102
RTVSPropertyOp14
 70
     1
102
RTVSPropertyOp15
 70
     1
102
RTVSPropertyOp16
 70
     1
102
RTVSPropertyOp17
 70
     1
102
RTVSPropertyOp18
 70
     1
102
RTVSPropertyOp19
 70
     1
102
RTVSPropertyOp20
 70
     1
102
RTVSPropertyOp21
 70
     1
102
RTVSPropertyOp22
 70
     1
102
RTVSPropertyOp23
 70
     1
102
RTVSPropertyOp24
 70
     1
102
RTVSPropertyOp25
 70
     1
102
RTVSPropertyOp26
 70
     1
102
RTVSPropertyOp27
 70
     1
102
RTVSPropertyOp28
 70
     1
102
RTVSPropertyOp29
 70
     1
102
RTVSPropertyOp30
 70
     1
102
RTVSPropertyOp31
 70
     1
102
RTVSPropertyOp32
 70
     1
  0
XRECORD
  5
314
102
{ACAD_REACTORS
330
313
102
}
330
313
100
AcDbXrecord
280
     1
102
RTVSPropertyOp0
 70
     1
102
RTVSPropertyOp1
 70
     1
102
RTVSPropertyOp2
 70
     1
102
RTVSPropertyOp3
 70
     1
102
RTVSPropertyOp4
 70
     1
102
RTVSPropertyOp5
 70
     1
102
RTVSPropertyOp6
 70
     1
102
RTVSPropertyOp7
 70
     1
102
RTVSPropertyOp8
 70
     1
102
RTVSPropertyOp9
 70
     1
102
RTVSPropertyOp10
 70
     1
102
RTVSPropertyOp11
 70
     1
102
RTVSPropertyOp12
 70
     1
102
RTVSPropertyOp13
 70
     1
102
RTVSPropertyOp14
 70
     1
102
RTVSPropertyOp15
 70
     1
102
RTVSPropertyOp16
 70
     1
102
RTVSPropertyOp17
 70
     1
102
RTVSPropertyOp18
 70
     1
102
RTVSPropertyOp19
 70
     1
102
RTVSPropertyOp20
 70
     1
102
RTVSPropertyOp21
 70
     1
102
RTVSPropertyOp22
 70
     1
102
RTVSPropertyOp23
 70
     1
102
RTVSPropertyOp24
 70
     1
102
RTVSPropertyOp25
 70
     1
102
RTVSPropertyOp26
 70
     1
102
RTVSPropertyOp27
 70
     1
102
RTVSPropertyOp28
 70
     1
102
RTVSPropertyOp29
 70
     1
102
RTVSPropertyOp30
 70
     1
102
RTVSPropertyOp31
 70
     1
102
RTVSPropertyOp32
 70
     1
  0
XRECORD
  5
312
102
{ACAD_REACTORS
330
311
102
}
330
311
100
AcDbXrecord
280
     1
102
RTVSPropertyOp0
 70
     1
102
RTVSPropertyOp1
 70
     1
102
RTVSPropertyOp2
 70
     1
102
RTVSPropertyOp3
 70
     1
102
RTVSPropertyOp4
 70
     1
102
RTVSPropertyOp5
 70
     1
102
RTVSPropertyOp6
 70
     1
102
RTVSPropertyOp7
 70
     1
102
RTVSPropertyOp8
 70
     1
102
RTVSPropertyOp9
 70
     1
102
RTVSPropertyOp10
 70
     1
102
RTVSPropertyOp11
 70
     1
102
RTVSPropertyOp12
 70
     1
102
RTVSPropertyOp13
 70
     1
102
RTVSPropertyOp14
 70
     1
102
RTVSPropertyOp15
 70
     1
102
RTVSPropertyOp16
 70
     1
102
RTVSPropertyOp17
 70
     1
102
RTVSPropertyOp18
 70
     1
102
RTVSPropertyOp19
 70
     1
102
RTVSPropertyOp20
 70
     1
102
RTVSPropertyOp21
 70
     1
102
RTVSPropertyOp22
 70
     1
102
RTVSPropertyOp23
 70
     1
102
RTVSPropertyOp24
 70
     1
102
RTVSPropertyOp25
 70
     1
102
RTVSPropertyOp26
 70
     1
102
RTVSPropertyOp27
 70
     1
102
RTVSPropertyOp28
 70
     1
102
RTVSPropertyOp29
 70
     1
102
RTVSPropertyOp30
 70
     1
102
RTVSPropertyOp31
 70
     1
102
RTVSPropertyOp32
 70
     1
  0
XRECORD
  5
316
102
{ACAD_REACTORS
330
315
102
}
330
315
100
AcDbXrecord
280
     1
102
RTVSPropertyOp0
 70
     1
102
RTVSPropertyOp1
 70
     1
102
RTVSPropertyOp2
 70
     1
102
RTVSPropertyOp3
 70
     1
102
RTVSPropertyOp4
 70
     1
102
RTVSPropertyOp5
 70
     1
102
RTVSPropertyOp6
 70
     1
102
RTVSPropertyOp7
 70
     1
102
RTVSPropertyOp8
 70
     1
102
RTVSPropertyOp9
 70
     1
102
RTVSPropertyOp10
 70
     1
102
RTVSPropertyOp11
 70
     1
102
RTVSPropertyOp12
 70
     1
102
RTVSPropertyOp13
 70
     1
102
RTVSPropertyOp14
 70
     1
102
RTVSPropertyOp15
 70
     1
102
RTVSPropertyOp16
 70
     1
102
RTVSPropertyOp17
 70
     1
102
RTVSPropertyOp18
 70
     1
102
RTVSPropertyOp19
 70
     1
102
RTVSPropertyOp20
 70
     1
102
RTVSPropertyOp21
 70
     1
102
RTVSPropertyOp22
 70
     1
102
RTVSPropertyOp23
 70
     1
102
RTVSPropertyOp24
 70
     1
102
RTVSPropertyOp25
 70
     1
102
RTVSPropertyOp26
 70
     1
102
RTVSPropertyOp27
 70
     1
102
RTVSPropertyOp28
 70
     1
102
RTVSPropertyOp29
 70
     1
102
RTVSPropertyOp30
 70
     1
102
RTVSPropertyOp31
 70
     1
102
RTVSPropertyOp32
 70
     1
  0
XRECORD
  5
31E
102
{ACAD_REACTORS
330
31D
102
}
330
31D
100
AcDbXrecord
280
     1
102
RTVSPropertyOp0
 70
     1
102
RTVSPropertyOp1
 70
     1
102
RTVSPropertyOp2
 70
     1
102
RTVSPropertyOp3
 70
     1
102
RTVSPropertyOp4
 70
     1
102
RTVSPropertyOp5
 70
     1
102
RTVSPropertyOp6
 70
     1
102
RTVSPropertyOp7
 70
     1
102
RTVSPropertyOp8
 70
     1
102
RTVSPropertyOp9
 70
     1
102
RTVSPropertyOp10
 70
     1
102
RTVSPropertyOp11
 70
     1
102
RTVSPropertyOp12
 70
     1
102
RTVSPropertyOp13
 70
     1
102
RTVSPropertyOp14
 70
     1
102
RTVSPropertyOp15
 70
     1
102
RTVSPropertyOp16
 70
     1
102
RTVSPropertyOp17
 70
     1
102
RTVSPropertyOp18
 70
     1
102
RTVSPropertyOp19
 70
     1
102
RTVSPropertyOp20
 70
     1
102
RTVSPropertyOp21
 70
     1
102
RTVSPropertyOp22
 70
     1
102
RTVSPropertyOp23
 70
     1
102
RTVSPropertyOp24
 70
     1
102
RTVSPropertyOp25
 70
     1
102
RTVSPropertyOp26
 70
     1
102
RTVSPropertyOp27
 70
     1
102
RTVSPropertyOp28
 70
     1
102
RTVSPropertyOp29
 70
     1
102
RTVSPropertyOp30
 70
     1
102
RTVSPropertyOp31
 70
     1
102
RTVSPropertyOp32
 70
     1
  0
XRECORD
  5
326
102
{ACAD_REACTORS
330
325
102
}
330
325
100
AcDbXrecord
280
     1
102
RTVSPropertyOp0
 70
     1
102
RTVSPropertyOp1
 70
     1
102
RTVSPropertyOp2
 70
     1
102
RTVSPropertyOp3
 70
     1
102
RTVSPropertyOp4
 70
     1
102
RTVSPropertyOp5
 70
     1
102
RTVSPropertyOp6
 70
     1
102
RTVSPropertyOp7
 70
     1
102
RTVSPropertyOp8
 70
     1
102
RTVSPropertyOp9
 70
     1
102
RTVSPropertyOp10
 70
     1
102
RTVSPropertyOp11
 70
     1
102
RTVSPropertyOp12
 70
     1
102
RTVSPropertyOp13
 70
     1
102
RTVSPropertyOp14
 70
     1
102
RTVSPropertyOp15
 70
     1
102
RTVSPropertyOp16
 70
     1
102
RTVSPropertyOp17
 70
     1
102
RTVSPropertyOp18
 70
     1
102
RTVSPropertyOp19
 70
     1
102
RTVSPropertyOp20
 70
     1
102
RTVSPropertyOp21
 70
     1
102
RTVSPropertyOp22
 70
     1
102
RTVSPropertyOp23
 70
     1
102
RTVSPropertyOp24
 70
     1
102
RTVSPropertyOp25
 70
     1
102
RTVSPropertyOp26
 70
     1
102
RTVSPropertyOp27
 70
     1
102
RTVSPropertyOp28
 70
     1
102
RTVSPropertyOp29
 70
     1
102
RTVSPropertyOp30
 70
     1
102
RTVSPropertyOp31
 70
     1
102
RTVSPropertyOp32
 70
     1
  0
XRECORD
  5
31A
102
{ACAD_REACTORS
330
319
102
}
330
319
100
AcDbXrecord
280
     1
102
RTVSPropertyOp0
 70
     1
102
RTVSPropertyOp1
 70
     1
102
RTVSPropertyOp2
 70
     1
102
RTVSPropertyOp3
 70
     1
102
RTVSPropertyOp4
 70
     1
102
RTVSPropertyOp5
 70
     1
102
RTVSPropertyOp6
 70
     1
102
RTVSPropertyOp7
 70
     1
102
RTVSPropertyOp8
 70
     1
102
RTVSPropertyOp9
 70
     1
102
RTVSPropertyOp10
 70
     1
102
RTVSPropertyOp11
 70
     1
102
RTVSPropertyOp12
 70
     1
102
RTVSPropertyOp13
 70
     1
102
RTVSPropertyOp14
 70
     1
102
RTVSPropertyOp15
 70
     1
102
RTVSPropertyOp16
 70
     1
102
RTVSPropertyOp17
 70
     1
102
RTVSPropertyOp18
 70
     1
102
RTVSPropertyOp19
 70
     1
102
RTVSPropertyOp20
 70
     1
102
RTVSPropertyOp21
 70
     1
102
RTVSPropertyOp22
 70
     1
102
RTVSPropertyOp23
 70
     1
102
RTVSPropertyOp24
 70
     1
102
RTVSPropertyOp25
 70
     1
102
RTVSPropertyOp26
 70
     1
102
RTVSPropertyOp27
 70
     1
102
RTVSPropertyOp28
 70
     1
102
RTVSPropertyOp29
 70
     1
102
RTVSPropertyOp30
 70
     1
102
RTVSPropertyOp31
 70
     1
102
RTVSPropertyOp32
 70
     1
  0
XRECORD
  5
31C
102
{ACAD_REACTORS
330
31B
102
}
330
31B
100
AcDbXrecord
280
     1
102
RTVSPropertyOp0
 70
     1
102
RTVSPropertyOp1
 70
     1
102
RTVSPropertyOp2
 70
     1
102
RTVSPropertyOp3
 70
     1
102
RTVSPropertyOp4
 70
     1
102
RTVSPropertyOp5
 70
     1
102
RTVSPropertyOp6
 70
     1
102
RTVSPropertyOp7
 70
     1
102
RTVSPropertyOp8
 70
     1
102
RTVSPropertyOp9
 70
     1
102
RTVSPropertyOp10
 70
     1
102
RTVSPropertyOp11
 70
     1
102
RTVSPropertyOp12
 70
     1
102
RTVSPropertyOp13
 70
     1
102
RTVSPropertyOp14
 70
     1
102
RTVSPropertyOp15
 70
     1
102
RTVSPropertyOp16
 70
     1
102
RTVSPropertyOp17
 70
     1
102
RTVSPropertyOp18
 70
     1
102
RTVSPropertyOp19
 70
     1
102
RTVSPropertyOp20
 70
     1
102
RTVSPropertyOp21
 70
     1
102
RTVSPropertyOp22
 70
     1
102
RTVSPropertyOp23
 70
     1
102
RTVSPropertyOp24
 70
     1
102
RTVSPropertyOp25
 70
     1
102
RTVSPropertyOp26
 70
     1
102
RTVSPropertyOp27
 70
     1
102
RTVSPropertyOp28
 70
     1
102
RTVSPropertyOp29
 70
     1
102
RTVSPropertyOp30
 70
     1
102
RTVSPropertyOp31
 70
     1
102
RTVSPropertyOp32
 70
     1
  0
XRECORD
  5
324
102
{ACAD_REACTORS
330
323
102
}
330
323
100
AcDbXrecord
280
     1
102
RTVSPropertyOp0
 70
     1
102
RTVSPropertyOp1
 70
     1
102
RTVSPropertyOp2
 70
     1
102
RTVSPropertyOp3
 70
     1
102
RTVSPropertyOp4
 70
     1
102
RTVSPropertyOp5
 70
     1
102
RTVSPropertyOp6
 70
     1
102
RTVSPropertyOp7
 70
     1
102
RTVSPropertyOp8
 70
     1
102
RTVSPropertyOp9
 70
     1
102
RTVSPropertyOp10
 70
     1
102
RTVSPropertyOp11
 70
     1
102
RTVSPropertyOp12
 70
     1
102
RTVSPropertyOp13
 70
     1
102
RTVSPropertyOp14
 70
     1
102
RTVSPropertyOp15
 70
     1
102
RTVSPropertyOp16
 70
     1
102
RTVSPropertyOp17
 70
     1
102
RTVSPropertyOp18
 70
     1
102
RTVSPropertyOp19
 70
     1
102
RTVSPropertyOp20
 70
     1
102
RTVSPropertyOp21
 70
     1
102
RTVSPropertyOp22
 70
     1
102
RTVSPropertyOp23
 70
     1
102
RTVSPropertyOp24
 70
     1
102
RTVSPropertyOp25
 70
     1
102
RTVSPropertyOp26
 70
     1
102
RTVSPropertyOp27
 70
     1
102
RTVSPropertyOp28
 70
     1
102
RTVSPropertyOp29
 70
     1
102
RTVSPropertyOp30
 70
     1
102
RTVSPropertyOp31
 70
     1
102
RTVSPropertyOp32
 70
     1
  0
XRECORD
  5
308
102
{ACAD_REACTORS
330
307
102
}
330
307
100
AcDbXrecord
280
     1
102
RTVSPropertyOp0
 70
     1
102
RTVSPropertyOp1
 70
     1
102
RTVSPropertyOp2
 70
     1
102
RTVSPropertyOp3
 70
     1
102
RTVSPropertyOp4
 70
     1
102
RTVSPropertyOp5
 70
     1
102
RTVSPropertyOp6
 70
     1
102
RTVSPropertyOp7
 70
     1
102
RTVSPropertyOp8
 70
     1
102
RTVSPropertyOp9
 70
     1
102
RTVSPropertyOp10
 70
     1
102
RTVSPropertyOp11
 70
     1
102
RTVSPropertyOp12
 70
     1
102
RTVSPropertyOp13
 70
     1
102
RTVSPropertyOp14
 70
     1
102
RTVSPropertyOp15
 70
     1
102
RTVSPropertyOp16
 70
     1
102
RTVSPropertyOp17
 70
     1
102
RTVSPropertyOp18
 70
     1
102
RTVSPropertyOp19
 70
     1
102
RTVSPropertyOp20
 70
     1
102
RTVSPropertyOp21
 70
     1
102
RTVSPropertyOp22
 70
     1
102
RTVSPropertyOp23
 70
     1
102
RTVSPropertyOp24
 70
     1
102
RTVSPropertyOp25
 70
     1
102
RTVSPropertyOp26
 70
     1
102
RTVSPropertyOp27
 70
     1
102
RTVSPropertyOp28
 70
     1
102
RTVSPropertyOp29
 70
     1
102
RTVSPropertyOp30
 70
     1
102
RTVSPropertyOp31
 70
     1
102
RTVSPropertyOp32
 70
     1
  0
XRECORD
  5
30A
102
{ACAD_REACTORS
330
309
102
}
330
309
100
AcDbXrecord
280
     1
102
RTVSPropertyOp0
 70
     1
102
RTVSPropertyOp1
 70
     1
102
RTVSPropertyOp2
 70
     1
102
RTVSPropertyOp3
 70
     1
102
RTVSPropertyOp4
 70
     1
102
RTVSPropertyOp5
 70
     1
102
RTVSPropertyOp6
 70
     1
102
RTVSPropertyOp7
 70
     1
102
RTVSPropertyOp8
 70
     1
102
RTVSPropertyOp9
 70
     1
102
RTVSPropertyOp10
 70
     1
102
RTVSPropertyOp11
 70
     1
102
RTVSPropertyOp12
 70
     1
102
RTVSPropertyOp13
 70
     1
102
RTVSPropertyOp14
 70
     1
102
RTVSPropertyOp15
 70
     1
102
RTVSPropertyOp16
 70
     1
102
RTVSPropertyOp17
 70
     1
102
RTVSPropertyOp18
 70
     1
102
RTVSPropertyOp19
 70
     1
102
RTVSPropertyOp20
 70
     1
102
RTVSPropertyOp21
 70
     1
102
RTVSPropertyOp22
 70
     1
102
RTVSPropertyOp23
 70
     1
102
RTVSPropertyOp24
 70
     1
102
RTVSPropertyOp25
 70
     1
102
RTVSPropertyOp26
 70
     1
102
RTVSPropertyOp27
 70
     1
102
RTVSPropertyOp28
 70
     1
102
RTVSPropertyOp29
 70
     1
102
RTVSPropertyOp30
 70
     1
102
RTVSPropertyOp31
 70
     1
102
RTVSPropertyOp32
 70
     1
  0
XRECORD
  5
30C
102
{ACAD_REACTORS
330
30B
102
}
330
30B
100
AcDbXrecord
280
     1
102
RTVSPropertyOp0
 70
     1
102
RTVSPropertyOp1
 70
     1
102
RTVSPropertyOp2
 70
     1
102
RTVSPropertyOp3
 70
     1
102
RTVSPropertyOp4
 70
     1
102
RTVSPropertyOp5
 70
     1
102
RTVSPropertyOp6
 70
     1
102
RTVSPropertyOp7
 70
     1
102
RTVSPropertyOp8
 70
     1
102
RTVSPropertyOp9
 70
     1
102
RTVSPropertyOp10
 70
     1
102
RTVSPropertyOp11
 70
     1
102
RTVSPropertyOp12
 70
     1
102
RTVSPropertyOp13
 70
     1
102
RTVSPropertyOp14
 70
     1
102
RTVSPropertyOp15
 70
     1
102
RTVSPropertyOp16
 70
     1
102
RTVSPropertyOp17
 70
     1
102
RTVSPropertyOp18
 70
     1
102
RTVSPropertyOp19
 70
     1
102
RTVSPropertyOp20
 70
     1
102
RTVSPropertyOp21
 70
     1
102
RTVSPropertyOp22
 70
     1
102
RTVSPropertyOp23
 70
     1
102
RTVSPropertyOp24
 70
     1
102
RTVSPropertyOp25
 70
     1
102
RTVSPropertyOp26
 70
     1
102
RTVSPropertyOp27
 70
     1
102
RTVSPropertyOp28
 70
     1
102
RTVSPropertyOp29
 70
     1
102
RTVSPropertyOp30
 70
     1
102
RTVSPropertyOp31
 70
     1
102
RTVSPropertyOp32
 70
     1
  0
XRECORD
  5
30E
102
{ACAD_REACTORS
330
30D
102
}
330
30D
100
AcDbXrecord
280
     1
102
RTVSPropertyOp0
 70
     1
102
RTVSPropertyOp1
 70
     1
102
RTVSPropertyOp2
 70
     1
102
RTVSPropertyOp3
 70
     1
102
RTVSPropertyOp4
 70
     1
102
RTVSPropertyOp5
 70
     1
102
RTVSPropertyOp6
 70
     1
102
RTVSPropertyOp7
 70
     1
102
RTVSPropertyOp8
 70
     1
102
RTVSPropertyOp9
 70
     1
102
RTVSPropertyOp10
 70
     1
102
RTVSPropertyOp11
 70
     1
102
RTVSPropertyOp12
 70
     1
102
RTVSPropertyOp13
 70
     1
102
RTVSPropertyOp14
 70
     1
102
RTVSPropertyOp15
 70
     1
102
RTVSPropertyOp16
 70
     1
102
RTVSPropertyOp17
 70
     1
102
RTVSPropertyOp18
 70
     1
102
RTVSPropertyOp19
 70
     1
102
RTVSPropertyOp20
 70
     1
102
RTVSPropertyOp21
 70
     1
102
RTVSPropertyOp22
 70
     1
102
RTVSPropertyOp23
 70
     1
102
RTVSPropertyOp24
 70
     1
102
RTVSPropertyOp25
 70
     1
102
RTVSPropertyOp26
 70
     1
102
RTVSPropertyOp27
 70
     1
102
RTVSPropertyOp28
 70
     1
102
RTVSPropertyOp29
 70
     1
102
RTVSPropertyOp30
 70
     1
102
RTVSPropertyOp31
 70
     1
102
RTVSPropertyOp32
 70
     1
  0
XRECORD
  5
322
102
{ACAD_REACTORS
330
321
102
}
330
321
100
AcDbXrecord
280
     1
102
RTVSPropertyOp0
 70
     1
102
RTVSPropertyOp1
 70
     1
102
RTVSPropertyOp2
 70
     1
102
RTVSPropertyOp3
 70
     1
102
RTVSPropertyOp4
 70
     1
102
RTVSPropertyOp5
 70
     1
102
RTVSPropertyOp6
 70
     1
102
RTVSPropertyOp7
 70
     1
102
RTVSPropertyOp8
 70
     1
102
RTVSPropertyOp9
 70
     1
102
RTVSPropertyOp10
 70
     1
102
RTVSPropertyOp11
 70
     1
102
RTVSPropertyOp12
 70
     1
102
RTVSPropertyOp13
 70
     1
102
RTVSPropertyOp14
 70
     1
102
RTVSPropertyOp15
 70
     1
102
RTVSPropertyOp16
 70
     1
102
RTVSPropertyOp17
 70
     1
102
RTVSPropertyOp18
 70
     1
102
RTVSPropertyOp19
 70
     1
102
RTVSPropertyOp20
 70
     1
102
RTVSPropertyOp21
 70
     1
102
RTVSPropertyOp22
 70
     1
102
RTVSPropertyOp23
 70
     1
102
RTVSPropertyOp24
 70
     1
102
RTVSPropertyOp25
 70
     1
102
RTVSPropertyOp26
 70
     1
102
RTVSPropertyOp27
 70
     1
102
RTVSPropertyOp28
 70
     1
102
RTVSPropertyOp29
 70
     1
102
RTVSPropertyOp30
 70
     1
102
RTVSPropertyOp31
 70
     1
102
RTVSPropertyOp32
 70
     1
  0
XRECORD
  5
318
102
{ACAD_REACTORS
330
317
102
}
330
317
100
AcDbXrecord
280
     1
102
RTVSPropertyOp0
 70
     1
102
RTVSPropertyOp1
 70
     1
102
RTVSPropertyOp2
 70
     1
102
RTVSPropertyOp3
 70
     1
102
RTVSPropertyOp4
 70
     1
102
RTVSPropertyOp5
 70
     1
102
RTVSPropertyOp6
 70
     1
102
RTVSPropertyOp7
 70
     1
102
RTVSPropertyOp8
 70
     1
102
RTVSPropertyOp9
 70
     1
102
RTVSPropertyOp10
 70
     1
102
RTVSPropertyOp11
 70
     1
102
RTVSPropertyOp12
 70
     1
102
RTVSPropertyOp13
 70
     1
102
RTVSPropertyOp14
 70
     1
102
RTVSPropertyOp15
 70
     1
102
RTVSPropertyOp16
 70
     1
102
RTVSPropertyOp17
 70
     1
102
RTVSPropertyOp18
 70
     1
102
RTVSPropertyOp19
 70
     1
102
RTVSPropertyOp20
 70
     1
102
RTVSPropertyOp21
 70
     1
102
RTVSPropertyOp22
 70
     1
102
RTVSPropertyOp23
 70
     1
102
RTVSPropertyOp24
 70
     1
102
RTVSPropertyOp25
 70
     1
102
RTVSPropertyOp26
 70
     1
102
RTVSPropertyOp27
 70
     1
102
RTVSPropertyOp28
 70
     1
102
RTVSPropertyOp29
 70
     1
102
RTVSPropertyOp30
 70
     1
102
RTVSPropertyOp31
 70
     1
102
RTVSPropertyOp32
 70
     1
  0
XRECORD
  5
320
102
{ACAD_REACTORS
330
31F
102
}
330
31F
100
AcDbXrecord
280
     1
102
RTVSPropertyOp0
 70
     1
102
RTVSPropertyOp1
 70
     1
102
RTVSPropertyOp2
 70
     1
102
RTVSPropertyOp3
 70
     1
102
RTVSPropertyOp4
 70
     1
102
RTVSPropertyOp5
 70
     1
102
RTVSPropertyOp6
 70
     1
102
RTVSPropertyOp7
 70
     1
102
RTVSPropertyOp8
 70
     1
102
RTVSPropertyOp9
 70
     1
102
RTVSPropertyOp10
 70
     1
102
RTVSPropertyOp11
 70
     1
102
RTVSPropertyOp12
 70
     1
102
RTVSPropertyOp13
 70
     1
102
RTVSPropertyOp14
 70
     1
102
RTVSPropertyOp15
 70
     1
102
RTVSPropertyOp16
 70
     1
102
RTVSPropertyOp17
 70
     1
102
RTVSPropertyOp18
 70
     1
102
RTVSPropertyOp19
 70
     1
102
RTVSPropertyOp20
 70
     1
102
RTVSPropertyOp21
 70
     1
102
RTVSPropertyOp22
 70
     1
102
RTVSPropertyOp23
 70
     1
102
RTVSPropertyOp24
 70
     1
102
RTVSPropertyOp25
 70
     1
102
RTVSPropertyOp26
 70
     1
102
RTVSPropertyOp27
 70
     1
102
RTVSPropertyOp28
 70
     1
102
RTVSPropertyOp29
 70
     1
102
RTVSPropertyOp30
 70
     1
102
RTVSPropertyOp31
 70
     1
102
RTVSPropertyOp32
 70
     1
  0
ENDSEC
  0
EOF
