  0
SECTION
  2
HEADER
  9
$ACADVER
  1
AC1015
  9
$ACADMAINTVER
 70
     6
  9
$DWGCODEPAGE
  3
DOS932
  9
$INSBASE
 10
0.0
 20
0.0
 30
0.0
  9
$EXTMIN
 10
0.0
 20
0.0
 30
0.0
  9
$EXTMAX
 10
420.0
 20
594.0
 30
0.0
  9
$LIMMIN
 10
0.0
 20
0.0
  9
$LIMMAX
 10
12.0
 20
9.0
  9
$ORTHOMODE
 70
     0
  9
$REGENMODE
 70
     1
  9
$FILLMODE
 70
     1
  9
$QTEXTMODE
 70
     0
  9
$MIRRTEXT
 70
     1
  9
$LTSCALE
 40
1.0
  9
$ATTMODE
 70
     1
  9
$TEXTSIZE
 40
0.2
  9
$TRACEWID
 40
0.05
  9
$TEXTSTYLE
  7
Standard
  9
$CLAYER
  8
0
  9
$CELTYPE
  6
ByLayer
  9
$CECOLOR
 62
   256
  9
$CELTSCALE
 40
1.0
  9
$DISPSILH
 70
     0
  9
$DIMSCALE
 40
1.0
  9
$DIMASZ
 40
0.18
  9
$DIMEXO
 40
0.0625
  9
$DIMDLI
 40
0.38
  9
$DIMRND
 40
0.0
  9
$DIMDLE
 40
0.0
  9
$DIMEXE
 40
0.18
  9
$DIMTP
 40
0.0
  9
$DIMTM
 40
0.0
  9
$DIMTXT
 40
0.18
  9
$DIMCEN
 40
0.09
  9
$DIMTSZ
 40
0.0
  9
$DIMTOL
 70
     0
  9
$DIMLIM
 70
     0
  9
$DIMTIH
 70
     1
  9
$DIMTOH
 70
     1
  9
$DIMSE1
 70
     0
  9
$DIMSE2
 70
     0
  9
$DIMTAD
 70
     0
  9
$DIMZIN
 70
     0
  9
$DIMBLK
  1

  9
$DIMASO
 70
     1
  9
$DIMSHO
 70
     1
  9
$DIMPOST
  1

  9
$DIMAPOST
  1

  9
$DIMALT
 70
     0
  9
$DIMALTD
 70
     2
  9
$DIMALTF
 40
25.4
  9
$DIMLFAC
 40
1.0
  9
$DIMTOFL
 70
     0
  9
$DIMTVP
 40
0.0
  9
$DIMTIX
 70
     0
  9
$DIMSOXD
 70
     0
  9
$DIMSAH
 70
     0
  9
$DIMBLK1
  1

  9
$DIMBLK2
  1

  9
$DIMSTYLE
  2
Standard
  9
$DIMCLRD
 70
     0
  9
$DIMCLRE
 70
     0
  9
$DIMCLRT
 70
     0
  9
$DIMTFAC
 40
1.0
  9
$DIMGAP
 40
0.09
  9
$DIMJUST
 70
     0
  9
$DIMSD1
 70
     0
  9
$DIMSD2
 70
     0
  9
$DIMTOLJ
 70
     1
  9
$DIMTZIN
 70
     0
  9
$DIMALTZ
 70
     0
  9
$DIMALTTZ
 70
     0
  9
$DIMUPT
 70
     0
  9
$DIMDEC
 70
     4
  9
$DIMTDEC
 70
     4
  9
$DIMALTU
 70
     2
  9
$DIMALTTD
 70
     2
  9
$DIMTXSTY
  7
Standard
  9
$DIMAUNIT
 70
     0
  9
$DIMADEC
 70
     0
  9
$DIMALTRND
 40
0.0
  9
$DIMAZIN
 70
     0
  9
$DIMDSEP
 70
    46
  9
$DIMATFIT
 70
     3
  9
$DIMFRAC
 70
     0
  9
$DIMLDRBLK
  1

  9
$DIMLUNIT
 70
     2
  9
$DIMLWD
 70
    -2
  9
$DIMLWE
 70
    -2
  9
$DIMTMOVE
 70
     0
  9
$LUNITS
 70
     2
  9
$LUPREC
 70
     4
  9
$SKETCHINC
 40
0.1
  9
$FILLETRAD
 40
0.5
  9
$AUNITS
 70
     0
  9
$AUPREC
 70
     0
  9
$MENU
  1
.
  9
$ELEVATION
 40
0.0
  9
$PELEVATION
 40
0.0
  9
$THICKNESS
 40
0.0
  9
$LIMCHECK
 70
     0
  9
$CHAMFERA
 40
0.5
  9
$CHAMFERB
 40
0.5
  9
$CHAMFERC
 40
1.0
  9
$CHAMFERD
 40
0.0
  9
$SKPOLY
 70
     0
  9
$TDCREATE
 40
2456134.666248553
  9
$TDUCREATE
 40
2456134.291248553
  9
$TDUPDATE
 40
2456134.666248565
  9
$TDUUPDATE
 40
2456134.291248565
  9
$TDINDWG
 40
0.0000000116
  9
$TDUSRTIMER
 40
0.0000000116
  9
$USRTIMER
 70
     1
  9
$ANGBASE
 50
0.0
  9
$ANGDIR
 70
     0
  9
$PDMODE
 70
     0
  9
$PDSIZE
 40
0.0
  9
$PLINEWID
 40
0.0
  9
$SPLFRAME
 70
     0
  9
$SPLINETYPE
 70
     6
  9
$SPLINESEGS
 70
     8
  9
$HANDSEED
  5
3BE
  9
$SURFTAB1
 70
     6
  9
$SURFTAB2
 70
     6
  9
$SURFTYPE
 70
     6
  9
$SURFU
 70
     6
  9
$SURFV
 70
     6
  9
$UCSBASE
  2

  9
$UCSNAME
  2

  9
$UCSORG
 10
0.0
 20
0.0
 30
0.0
  9
$UCSXDIR
 10
1.0
 20
0.0
 30
0.0
  9
$UCSYDIR
 10
0.0
 20
1.0
 30
0.0
  9
$UCSORTHOREF
  2

  9
$UCSORTHOVIEW
 70
     0
  9
$UCSORGTOP
 10
0.0
 20
0.0
 30
0.0
  9
$UCSORGBOTTOM
 10
0.0
 20
0.0
 30
0.0
  9
$UCSORGLEFT
 10
0.0
 20
0.0
 30
0.0
  9
$UCSORGRIGHT
 10
0.0
 20
0.0
 30
0.0
  9
$UCSORGFRONT
 10
0.0
 20
0.0
 30
0.0
  9
$UCSORGBACK
 10
0.0
 20
0.0
 30
0.0
  9
$PUCSBASE
  2

  9
$PUCSNAME
  2

  9
$PUCSORG
 10
0.0
 20
0.0
 30
0.0
  9
$PUCSXDIR
 10
1.0
 20
0.0
 30
0.0
  9
$PUCSYDIR
 10
0.0
 20
1.0
 30
0.0
  9
$PUCSORTHOREF
  2

  9
$PUCSORTHOVIEW
 70
     0
  9
$PUCSORGTOP
 10
0.0
 20
0.0
 30
0.0
  9
$PUCSORGBOTTOM
 10
0.0
 20
0.0
 30
0.0
  9
$PUCSORGLEFT
 10
0.0
 20
0.0
 30
0.0
  9
$PUCSORGRIGHT
 10
0.0
 20
0.0
 30
0.0
  9
$PUCSORGFRONT
 10
0.0
 20
0.0
 30
0.0
  9
$PUCSORGBACK
 10
0.0
 20
0.0
 30
0.0
  9
$USERI1
 70
     0
  9
$USERI2
 70
     0
  9
$USERI3
 70
     0
  9
$USERI4
 70
     0
  9
$USERI5
 70
     0
  9
$USERR1
 40
13.2
  9
$USERR2
 40
0.0
  9
$USERR3
 40
0.0
  9
$USERR4
 40
0.0
  9
$USERR5
 40
0.0
  9
$WORLDVIEW
 70
     1
  9
$SHADEDGE
 70
     3
  9
$SHADEDIF
 70
    70
  9
$TILEMODE
 70
     1
  9
$MAXACTVP
 70
    64
  9
$PINSBASE
 10
0.0
 20
0.0
 30
0.0
  9
$PLIMCHECK
 70
     0
  9
$PEXTMIN
 10
1.00000000000000E+20
 20
1.00000000000000E+20
 30
1.00000000000000E+20
  9
$PEXTMAX
 10
-1.00000000000000E+20
 20
-1.00000000000000E+20
 30
-1.00000000000000E+20
  9
$PLIMMIN
 10
0.0
 20
0.0
  9
$PLIMMAX
 10
12.0
 20
9.0
  9
$UNITMODE
 70
     0
  9
$VISRETAIN
 70
     1
  9
$PLINEGEN
 70
     0
  9
$PSLTSCALE
 70
     1
  9
$TREEDEPTH
 70
  3020
  9
$CMLSTYLE
  2
Standard
  9
$CMLJUST
 70
     0
  9
$CMLSCALE
 40
1.0
  9
$PROXYGRAPHICS
 70
     1
  9
$MEASUREMENT
 70
     1
  9
$CELWEIGHT
370
    -1
  9
$ENDCAPS
280
     0
  9
$JOINSTYLE
280
     0
  9
$LWDISPLAY
290
     0
  9
$INSUNITS
 70
     1
  9
$HYPERLINKBASE
  1

  9
$STYLESHEET
  1

  9
$XEDIT
290
     1
  9
$CEPSNTYPE
380
     0
  9
$PSTYLEMODE
290
     0
  9
$FINGERPRINTGUID
  2
{FAEB1C30-E019-11D5-929B-00C0DF256EC4}
  9
$VERSIONGUID
  2
{FAEB1C32-E019-11D5-929B-00C0DF256EC4}
  9
$EXTNAMES
290
     1
  9
$PSVPSCALE
 40
0.0
  9
$OLESTARTUP
290
     0
  0
ENDSEC
  0
SECTION
  2
CLASSES
  0
CLASS
  1
ACDBDICTIONARYWDFLT
  2
AcDbDictionaryWithDefault
  3
ObjectDBX Classes
 90
        0
280
     0
281
     0
  0
CLASS
  1
TABLESTYLE
  2
AcDbTableStyle
  3
ObjectDBX Classes
 90
     2047
280
     0
281
     0
  0
CLASS
  1
DICTIONARYVAR
  2
AcDbDictionaryVar
  3
ObjectDBX Classes
 90
        0
280
     0
281
     0
  0
CLASS
  1

  2
exOdDbSpline
  3

 90
        0
280
     0
281
     1
  0
CLASS
  1

  2
exOdDbCircle
  3

 90
        0
280
     0
281
     1
  0
CLASS
  1
ACDBPLACEHOLDER
  2
AcDbPlaceHolder
  3
ObjectDBX Classes
 90
        0
280
     0
281
     0
  0
CLASS
  1
LAYOUT
  2
AcDbLayout
  3
ObjectDBX Classes
 90
        0
280
     0
281
     0
  0
ENDSEC
  0
SECTION
  2
TABLES
  0
TABLE
  2
VPORT
  5
8
330
0
100
AcDbSymbolTable
 70
     2
  0
VPORT
  5
29
330
8
100
AcDbSymbolTableRecord
100
AcDbViewportTableRecord
  2
*Active
 70
     0
 10
0.0
 20
0.0
 11
1.0
 21
1.0
 12
210.0
 22
297.0
 13
0.0
 23
0.0
 14
0.5
 24
0.5
 15
0.5
 25
0.5
 16
0.0
 26
0.0
 36
1.0
 17
0.0
 27
0.0
 37
0.0
 40
653.4000000000001
 41
1.60267857142857
 42
50.0
 43
0.0
 44
0.0
 50
0.0
 51
0.0
 71
     0
 72
   100
 73
     1
 74
     3
 75
     0
 76
     0
 77
     0
 78
     0
281
     0
 65
     1
110
0.0
120
0.0
130
0.0
111
1.0
121
0.0
131
0.0
112
0.0
122
1.0
132
0.0
 79
     0
146
0.0
  0
ENDTAB
  0
TABLE
  2
LTYPE
  5
5
330
0
100
AcDbSymbolTable
 70
     8
  0
LTYPE
  5
14
330
5
100
AcDbSymbolTableRecord
100
AcDbLinetypeTableRecord
  2
ByBlock
 70
     0
  3

 72
    65
 73
     0
 40
0.0
  0
LTYPE
  5
15
330
5
100
AcDbSymbolTableRecord
100
AcDbLinetypeTableRecord
  2
ByLayer
 70
     0
  3

 72
    65
 73
     0
 40
0.0
  0
LTYPE
  5
16
330
5
100
AcDbSymbolTableRecord
100
AcDbLinetypeTableRecord
  2
Continuous
 70
     0
  3
Solid line
 72
    65
 73
     0
 40
0.0
  0
LTYPE
  5
2E
330
5
100
AcDbSymbolTableRecord
100
AcDbLinetypeTableRecord
  2
DASHED
 70
     0
  3
Dashed
 72
    65
 73
     2
 40
15.0
 49
7.0
 74
     0
 49
-8.0
 74
     0
  0
LTYPE
  5
2F
330
5
100
AcDbSymbolTableRecord
100
AcDbLinetypeTableRecord
  2
DOTTED
 70
     0
  3
Dotted
 72
    65
 73
     2
 40
1.0
 49
0.0
 74
     0
 49
-1.0
 74
     0
  0
LTYPE
  5
30
330
5
100
AcDbSymbolTableRecord
100
AcDbLinetypeTableRecord
  2
DOT_CENTER
 70
     0
  3
Dot_Center
 72
    65
 73
     4
 40
14.0
 49
12.0
 74
     0
 49
-1.0
 74
     0
 49
0.0
 74
     0
 49
-1.0
 74
     0
  0
LTYPE
  5
31
330
5
100
AcDbSymbolTableRecord
100
AcDbLinetypeTableRecord
  2
LONG_DASHED
 70
     0
  3
Long_Dashed
 72
    65
 73
     2
 40
15.0
 49
10.0
 74
     0
 49
-5.0
 74
     0
  0
LTYPE
  5
32
330
5
100
AcDbSymbolTableRecord
100
AcDbLinetypeTableRecord
  2
DASH_CENTER
 70
     0
  3
Dash_Center
 72
    65
 73
     4
 40
14.0
 49
11.0
 74
     0
 49
-1.0
 74
     0
 49
1.0
 74
     0
 49
-1.0
 74
     0
  0
LTYPE
  5
33
330
5
100
AcDbSymbolTableRecord
100
AcDbLinetypeTableRecord
  2
PHANTOM
 70
     0
  3
Phantom
 72
    65
 73
     6
 40
13.0
 49
10.0
 74
     0
 49
-1.0
 74
     0
 49
0.0
 74
     0
 49
-1.0
 74
     0
 49
0.0
 74
     0
 49
-1.0
 74
     0
  0
LTYPE
  5
34
330
5
100
AcDbSymbolTableRecord
100
AcDbLinetypeTableRecord
  2
CENTER_DASH_DASH
 70
     0
  3
Center_Dash_Dash
 72
    65
 73
     6
 40
14.0
 49
9.0
 74
     0
 49
-1.0
 74
     0
 49
1.0
 74
     0
 49
-1.0
 74
     0
 49
1.0
 74
     0
 49
-1.0
 74
     0
  0
ENDTAB
  0
TABLE
  2
LAYER
  5
2
330
0
100
AcDbSymbolTable
 70
     3
  0
LAYER
  5
10
330
2
100
AcDbSymbolTableRecord
100
AcDbLayerTableRecord
  2
0
 70
     0
 62
     7
  6
Continuous
370
    -3
390
F
  0
LAYER
  5
35
330
2
100
AcDbSymbolTableRecord
100
AcDbLayerTableRecord
  2
1
 70
     0
 62
     7
  6
Continuous
370
    -3
390
F
  0
LAYER
  5
36
330
2
100
AcDbSymbolTableRecord
100
AcDbLayerTableRecord
  2
6
 70
     0
 62
     7
  6
Continuous
370
    -3
390
F
  0
ENDTAB
  0
TABLE
  2
STYLE
  5
3
330
0
100
AcDbSymbolTable
 70
     3
  0
STYLE
  5
11
330
3
100
AcDbSymbolTableRecord
100
AcDbTextStyleTableRecord
  2
Standard
 70
     0
 40
0.0
 41
1.0
 50
0.0
 71
     0
 42
0.2
  3
txt
  4

  0
STYLE
  5
27B
330
3
100
AcDbSymbolTableRecord
100
AcDbTextStyleTableRecord
  2
CONVERTER_1
 70
     0
 40
0.0
 41
0.89
 50
0.0
 71
     0
 42
0.2
  3
msmincho.ttc
  4

1001
ACAD
1000
MS Mincho
1071
    32785
  0
STYLE
  5
350
330
3
100
AcDbSymbolTableRecord
100
AcDbTextStyleTableRecord
  2
CONVERTER_2
 70
     0
 40
0.0
 41
0.9
 50
0.0
 71
     0
 42
0.2
  3
txt.shx
  4

  0
ENDTAB
  0
TABLE
  2
VIEW
  5
6
330
0
100
AcDbSymbolTable
 70
     0
  0
ENDTAB
  0
TABLE
  2
UCS
  5
7
330
0
100
AcDbSymbolTable
 70
     0
  0
ENDTAB
  0
TABLE
  2
APPID
  5
9
330
0
100
AcDbSymbolTable
 70
     1
  0
APPID
  5
12
330
9
100
AcDbSymbolTableRecord
100
AcDbRegAppTableRecord
  2
ACAD
 70
     0
  0
ENDTAB
  0
TABLE
  2
DIMSTYLE
  5
A
330
0
100
AcDbSymbolTable
 70
    10
100
AcDbDimStyleTable
  0
DIMSTYLE
105
27
330
A
100
AcDbSymbolTableRecord
100
AcDbDimStyleTableRecord
  2
Standard
 70
     0
340
11
  0
DIMSTYLE
105
362
102
{ACAD_REACTORS
330
363
102
}
330
A
100
AcDbSymbolTableRecord
100
AcDbDimStyleTableRecord
  2
ME10_DIM_0
 70
     0
 41
7.0
 42
0.0
 44
2.0
 73
     0
 74
     0
 77
     1
 78
     8
140
7.0
147
0.625
172
     1
173
     1
176
     2
177
     2
178
     7
271
     2
340
350
  0
DIMSTYLE
105
36D
102
{ACAD_REACTORS
330
36E
102
}
330
A
100
AcDbSymbolTableRecord
100
AcDbDimStyleTableRecord
  2
ME10_DIM_1
 70
     0
 41
7.0
 42
0.0
 44
2.0
 73
     0
 74
     0
 77
     1
 78
     8
140
7.0
147
0.625
172
     1
173
     1
176
     2
177
     2
178
     7
271
     2
340
350
  0
DIMSTYLE
105
37A
102
{ACAD_REACTORS
330
37B
102
}
330
A
100
AcDbSymbolTableRecord
100
AcDbDimStyleTableRecord
  2
ME10_DIM_2
 70
     0
 41
7.0
 42
0.0
 44
2.0
 73
     0
 74
     0
 77
     1
 78
     8
140
7.0
147
0.625
172
     1
173
     1
176
     2
177
     2
178
     7
271
     2
340
350
  0
DIMSTYLE
105
385
102
{ACAD_REACTORS
330
386
102
}
330
A
100
AcDbSymbolTableRecord
100
AcDbDimStyleTableRecord
  2
ME10_DIM_3
 70
     0
 41
7.0
 42
0.0
 44
2.0
 73
     0
 74
     0
 77
     1
 78
     8
140
7.0
147
0.625
172
     1
173
     1
176
     2
177
     2
178
     7
271
     2
340
27B
  0
DIMSTYLE
105
390
102
{ACAD_REACTORS
330
391
102
}
330
A
100
AcDbSymbolTableRecord
100
AcDbDimStyleTableRecord
  2
ME10_DIM_4
 70
     0
  3
{\Fgdt;n}<>
 41
7.0
 42
0.0
 44
2.0
 73
     0
 74
     0
 77
     1
 78
     8
140
7.0
147
0.625
172
     1
173
     1
176
     2
177
     2
178
     7
271
     2
340
350
  0
DIMSTYLE
105
39B
102
{ACAD_REACTORS
330
39C
102
}
330
A
100
AcDbSymbolTableRecord
100
AcDbDimStyleTableRecord
  2
ME10_DIM_5
 70
     0
 41
7.0
 42
0.0
 44
2.0
 73
     0
 74
     0
 77
     1
 78
     8
140
7.0
147
0.625
172
     1
173
     1
176
     2
177
     2
178
     7
271
     2
340
350
  0
DIMSTYLE
105
3A6
102
{ACAD_REACTORS
330
3A7
102
}
330
A
100
AcDbSymbolTableRecord
100
AcDbDimStyleTableRecord
  2
ME10_DIM_6
 70
     0
 41
7.0
 42
0.0
 44
2.0
 73
     0
 74
     0
 77
     1
 78
     8
140
7.0
147
0.625
172
     1
173
     1
176
     2
177
     2
178
     7
271
     2
340
350
  0
DIMSTYLE
105
3B1
102
{ACAD_REACTORS
330
3B2
102
}
330
A
100
AcDbSymbolTableRecord
100
AcDbDimStyleTableRecord
  2
ME10_DIM_7
 70
     0
  3
{\Fgdt;n}<>
 41
7.0
 42
0.0
 44
2.0
 73
     0
 74
     0
 77
     1
 78
     8
140
7.0
147
0.625
172
     1
173
     1
176
     2
177
     2
178
     7
271
     2
340
350
  0
DIMSTYLE
105
3BC
102
{ACAD_REACTORS
330
3BD
102
}
330
A
100
AcDbSymbolTableRecord
100
AcDbDimStyleTableRecord
  2
ME10_DIM_8
 70
     0
 41
7.0
 42
0.0
 44
2.0
 73
     0
 74
     0
 77
     1
 78
     8
140
7.0
147
0.625
172
     1
173
     1
176
     2
177
     2
178
     7
271
     2
340
350
  0
ENDTAB
  0
TABLE
  2
BLOCK_RECORD
  5
1
330
0
100
AcDbSymbolTable
 70
    21
  0
BLOCK_RECORD
  5
1F
330
1
100
AcDbSymbolTableRecord
100
AcDbBlockTableRecord
  2
*Model_Space
340
22
  0
BLOCK_RECORD
  5
1B
330
1
100
AcDbSymbolTableRecord
100
AcDbBlockTableRecord
  2
*Paper_Space
340
1E
  0
BLOCK_RECORD
  5
23
330
1
100
AcDbSymbolTableRecord
100
AcDbBlockTableRecord
  2
*Paper_Space0
340
26
  0
BLOCK_RECORD
  5
37
330
1
100
AcDbSymbolTableRecord
100
AcDbBlockTableRecord
  2
B41-25-13-H1
340
0
102
{BLKREFS
331
3B
102
}
  0
BLOCK_RECORD
  5
3A
330
1
100
AcDbSymbolTableRecord
100
AcDbBlockTableRecord
  2
B41-25-13
340
0
102
{BLKREFS
331
5B
102
}
  0
BLOCK_RECORD
  5
3E
330
1
100
AcDbSymbolTableRecord
100
AcDbBlockTableRecord
  2
B41-25-13-H2
340
0
102
{BLKREFS
331
5C
102
}
  0
BLOCK_RECORD
  5
41
330
1
100
AcDbSymbolTableRecord
100
AcDbBlockTableRecord
  2
84-9
340
0
102
{BLKREFS
331
5D
102
}
  0
BLOCK_RECORD
  5
44
330
1
100
AcDbSymbolTableRecord
100
AcDbBlockTableRecord
  2
36-1A-13-M11
340
0
102
{BLKREFS
331
4B
102
}
  0
BLOCK_RECORD
  5
47
330
1
100
AcDbSymbolTableRecord
100
AcDbBlockTableRecord
  2
37-1-13
340
0
102
{BLKREFS
331
4C
102
}
  0
BLOCK_RECORD
  5
4A
330
1
100
AcDbSymbolTableRecord
100
AcDbBlockTableRecord
  2
R10A-13
340
0
102
{BLKREFS
331
5E
102
}
  0
BLOCK_RECORD
  5
4F
330
1
100
AcDbSymbolTableRecord
100
AcDbBlockTableRecord
  2
28-1A-28-13
340
0
102
{BLKREFS
331
5F
102
}
  0
BLOCK_RECORD
  5
52
330
1
100
AcDbSymbolTableRecord
100
AcDbBlockTableRecord
  2
B41J-0-M11
340
0
102
{BLKREFS
331
60
102
}
  0
BLOCK_RECORD
  5
55
330
1
100
AcDbSymbolTableRecord
100
AcDbBlockTableRecord
  2
_J__A4
340
0
102
{BLKREFS
331
61
102
}
  0
BLOCK_RECORD
  5
58
330
1
100
AcDbSymbolTableRecord
100
AcDbBlockTableRecord
  2
81-2
340
0
102
{BLKREFS
331
62
102
}
  0
BLOCK_RECORD
  5
359
330
1
100
AcDbSymbolTableRecord
100
AcDbBlockTableRecord
  2
*D012
340
0
  0
BLOCK_RECORD
  5
364
330
1
100
AcDbSymbolTableRecord
100
AcDbBlockTableRecord
  2
*D113
340
0
  0
BLOCK_RECORD
  5
36F
330
1
100
AcDbSymbolTableRecord
100
AcDbBlockTableRecord
  2
*D214
340
0
  0
BLOCK_RECORD
  5
37C
330
1
100
AcDbSymbolTableRecord
100
AcDbBlockTableRecord
  2
*D315
340
0
  0
BLOCK_RECORD
  5
387
330
1
100
AcDbSymbolTableRecord
100
AcDbBlockTableRecord
  2
*D416
340
0
  0
BLOCK_RECORD
  5
392
330
1
100
AcDbSymbolTableRecord
100
AcDbBlockTableRecord
  2
*D517
340
0
  0
BLOCK_RECORD
  5
39D
330
1
100
AcDbSymbolTableRecord
100
AcDbBlockTableRecord
  2
*D618
340
0
  0
BLOCK_RECORD
  5
3A8
330
1
100
AcDbSymbolTableRecord
100
AcDbBlockTableRecord
  2
*D719
340
0
  0
BLOCK_RECORD
  5
3B3
330
1
100
AcDbSymbolTableRecord
100
AcDbBlockTableRecord
  2
*D820
340
0
  0
ENDTAB
  0
ENDSEC
  0
SECTION
  2
BLOCKS
  0
BLOCK
  5
20
330
1F
100
AcDbEntity
  8
0
100
AcDbBlockBegin
  2
*Model_Space
 70
     0
 71
     0
 10
0.0
 20
0.0
 30
0.0
  3
*Model_Space
  1

  0
ENDBLK
  5
21
330
1F
100
AcDbEntity
  8
0
100
AcDbBlockEnd
  0
BLOCK
  5
1C
330
1B
100
AcDbEntity
 67
     1
  8
0
100
AcDbBlockBegin
  2
*Paper_Space
 70
     0
 71
     0
 10
0.0
 20
0.0
 30
0.0
  3
*Paper_Space
  1

  0
ENDBLK
  5
1D
330
1B
100
AcDbEntity
 67
     1
  8
0
100
AcDbBlockEnd
  0
BLOCK
  5
24
330
23
100
AcDbEntity
  8
0
100
AcDbBlockBegin
  2
*Paper_Space0
 70
     0
 71
     0
 10
0.0
 20
0.0
 30
0.0
  3
*Paper_Space0
  1

  0
ENDBLK
  5
25
330
23
100
AcDbEntity
  8
0
100
AcDbBlockEnd
  0
BLOCK
  5
38
330
37
100
AcDbEntity
  8
0
100
AcDbBlockBegin
  2
B41-25-13-H1
 70
     0
 71
     0
 10
320.6374366311535
 20
333.3703308431158
 30
0.0
  3
B41-25-13-H1
  1

  0
LINE
  5
63
330
37
100
AcDbEntity
  8
1
  6
Continuous
 62
     7
100
AcDbLine
 10
374.8206267292908
 20
226.2325519009429
 30
0.0
 11
374.5256267292908
 21
226.2325519009429
 31
0.0
  0
LINE
  5
64
330
37
100
AcDbEntity
  8
1
  6
Continuous
 62
     7
100
AcDbLine
 10
375.3606267292908
 20
225.6925519009429
 30
0.0
 11
374.8206267292908
 21
226.2325519009429
 31
0.0
  0
LINE
  5
65
330
37
100
AcDbEntity
  8
1
  6
Continuous
 62
     7
100
AcDbLine
 10
375.8206267292908
 20
225.2325519009431
 30
0.0
 11
389.3206267292908
 21
225.2325519009431
 31
0.0
  0
LINE
  5
66
330
37
100
AcDbEntity
  8
1
  6
Continuous
 62
     7
100
AcDbLine
 10
375.8206267292908
 20
225.2325519009431
 30
0.0
 11
375.3606267292908
 21
225.6925519009429
 31
0.0
  0
LINE
  5
67
330
37
100
AcDbEntity
  8
1
  6
Continuous
 62
     7
100
AcDbLine
 10
375.8206267292908
 20
225.2325519009431
 30
0.0
 11
378.3275731497252
 21
225.2325519009431
 31
0.0
  0
LINE
  5
68
330
37
100
AcDbEntity
  8
1
  6
Continuous
 62
     7
100
AcDbLine
 10
389.3206267292908
 20
224.3575244327665
 30
0.0
 11
389.3206267292908
 21
223.5286822727788
 31
0.0
  0
LINE
  5
69
330
37
100
AcDbEntity
  8
1
  6
Continuous
 62
     7
100
AcDbLine
 10
386.0549797600378
 20
225.2325519009431
 30
0.0
 11
387.9521481407601
 21
225.2325519009431
 31
0.0
  0
LINE
  5
6A
330
37
100
AcDbEntity
  8
1
  6
Continuous
 62
     2
100
AcDbLine
 10
389.3206267292908
 20
224.3575244327665
 30
0.0
 11
386.0549797600378
 21
225.2325519009431
 31
0.0
  0
LINE
  5
6B
330
37
100
AcDbEntity
  8
1
  6
Continuous
 62
     7
100
AcDbLine
 10
389.3206267292908
 20
223.3222482523565
 30
0.0
 11
389.3206267292908
 21
222.4934060923688
 31
0.0
  0
LINE
  5
6C
330
37
100
AcDbEntity
  8
1
  6
Continuous
 62
     7
100
AcDbLine
 10
382.1912764548815
 20
225.2325519009431
 30
0.0
 11
384.088444835604
 21
225.2325519009431
 31
0.0
  0
LINE
  5
6D
330
37
100
AcDbEntity
  8
1
  6
Continuous
 62
     2
100
AcDbLine
 10
389.3206267292908
 20
223.3222482523565
 30
0.0
 11
382.1912764548815
 21
225.2325519009431
 31
0.0
  0
LINE
  5
6E
330
37
100
AcDbEntity
  8
1
  6
Continuous
 62
     7
100
AcDbLine
 10
389.3206267292908
 20
222.2869720719463
 30
0.0
 11
389.3206267292908
 21
221.4581299119587
 31
0.0
  0
LINE
  5
6F
330
37
100
AcDbEntity
  8
1
  6
Continuous
 62
     7
100
AcDbLine
 10
378.3275731497252
 20
225.2325519009431
 30
0.0
 11
380.2247415304473
 21
225.2325519009431
 31
0.0
  0
LINE
  5
70
330
37
100
AcDbEntity
  8
1
  6
Continuous
 62
     2
100
AcDbLine
 10
378.3275731497252
 20
225.2325519009431
 30
0.0
 11
389.3206267292908
 21
222.2869720719463
 31
0.0
  0
LINE
  5
71
330
37
100
AcDbEntity
  8
1
  6
Continuous
 62
     7
100
AcDbLine
 10
389.3206267292908
 20
221.2516958915362
 30
0.0
 11
389.3206267292908
 21
221.232551900943
 31
0.0
  0
LINE
  5
72
330
37
100
AcDbEntity
  8
1
  6
Continuous
 62
     2
100
AcDbLine
 10
389.3206267292908
 20
221.2516958915362
 30
0.0
 11
377.8206267292908
 21
224.3331116044942
 31
0.0
  0
LINE
  5
73
330
37
100
AcDbEntity
  8
1
  6
Continuous
 62
     2
100
AcDbLine
 10
377.8206267292908
 20
223.2978354240842
 30
0.0
 11
385.5283697696878
 21
221.2325519009431
 31
0.0
  0
LINE
  5
74
330
37
100
AcDbEntity
  8
1
  6
Continuous
 62
     7
100
AcDbLine
 10
389.3206267292908
 20
221.4581299119587
 30
0.0
 11
389.3206267292908
 21
221.2516958915362
 31
0.0
  0
LINE
  5
75
330
37
100
AcDbEntity
  8
1
  6
Continuous
 62
     7
100
AcDbLine
 10
389.3206267292908
 20
222.4934060923688
 30
0.0
 11
389.3206267292908
 21
222.2869720719463
 31
0.0
  0
LINE
  5
76
330
37
100
AcDbEntity
  8
1
  6
Continuous
 62
     2
100
AcDbLine
 10
389.3206267292908
 20
222.4934060923688
 30
0.0
 11
384.6150548259539
 21
221.2325519009431
 31
0.0
  0
LINE
  5
77
330
37
100
AcDbEntity
  8
1
  6
Continuous
 62
     7
100
AcDbLine
 10
389.3206267292908
 20
223.5286822727788
 30
0.0
 11
389.3206267292908
 21
223.3222482523565
 31
0.0
  0
LINE
  5
78
330
37
100
AcDbEntity
  8
1
  6
Continuous
 62
     7
100
AcDbLine
 10
389.3206267292908
 20
224.5639584531891
 30
0.0
 11
389.3206267292908
 21
224.3575244327665
 31
0.0
  0
LINE
  5
79
330
37
100
AcDbEntity
  8
1
  6
Continuous
 62
     2
100
AcDbLine
 10
389.3206267292908
 20
224.5639584531891
 30
0.0
 11
377.8206267292908
 21
221.4825427402311
 31
0.0
  0
LINE
  5
7A
330
37
100
AcDbEntity
  8
1
  6
Continuous
 62
     7
100
AcDbLine
 10
387.9521481407601
 20
225.2325519009431
 30
0.0
 11
389.3206267292908
 21
225.2325519009431
 31
0.0
  0
LINE
  5
7B
330
37
100
AcDbEntity
  8
1
  6
Continuous
 62
     2
100
AcDbLine
 10
377.8206267292908
 20
222.5178189206413
 30
0.0
 11
387.9521481407601
 21
225.2325519009431
 31
0.0
  0
LINE
  5
7C
330
37
100
AcDbEntity
  8
1
  6
Continuous
 62
     7
100
AcDbLine
 10
384.088444835604
 20
225.2325519009431
 30
0.0
 11
386.0549797600378
 21
225.2325519009431
 31
0.0
  0
LINE
  5
7D
330
37
100
AcDbEntity
  8
1
  6
Continuous
 62
     2
100
AcDbLine
 10
384.088444835604
 20
225.2325519009431
 30
0.0
 11
377.8206267292908
 21
223.5530951010513
 31
0.0
  0
LINE
  5
7E
330
37
100
AcDbEntity
  8
1
  6
Continuous
 62
     7
100
AcDbLine
 10
380.2247415304473
 20
225.2325519009431
 30
0.0
 11
382.1912764548815
 21
225.2325519009431
 31
0.0
  0
LINE
  5
7F
330
37
100
AcDbEntity
  8
1
  6
Continuous
 62
     2
100
AcDbLine
 10
380.2247415304473
 20
225.2325519009431
 30
0.0
 11
377.8206267292908
 21
224.5883712814615
 31
0.0
  0
LINE
  5
80
330
37
100
AcDbEntity
  8
1
  6
Continuous
 62
     7
100
AcDbLine
 10
389.3206267292908
 20
225.2325519009431
 30
0.0
 11
389.3206267292908
 21
224.5639584531891
 31
0.0
  0
LINE
  5
81
330
37
100
AcDbEntity
  8
1
  6
Continuous
 62
     7
100
AcDbLine
 10
389.8206267292908
 20
224.7325519009431
 30
0.0
 11
389.3206267292908
 21
225.2325519009431
 31
0.0
  0
LINE
  5
82
330
37
100
AcDbEntity
  8
1
  6
Continuous
 62
     7
100
AcDbLine
 10
389.8206267292908
 20
224.7325519009431
 30
0.0
 11
389.8206267292908
 21
221.2325519008713
 31
0.0
  0
LINE
  5
83
330
37
100
AcDbEntity
  8
1
  6
Continuous
 62
     2
100
AcDbLine
 10
388.4787581311103
 20
221.2325519009431
 30
0.0
 11
389.3206267292908
 21
221.4581299119587
 31
0.0
  0
LINE
  5
84
330
37
100
AcDbEntity
  8
1
  6
Continuous
 62
     2
100
AcDbLine
 10
381.6646664645314
 20
221.2325519009431
 30
0.0
 11
377.8206267292908
 21
222.262559243674
 31
0.0
  0
LINE
  5
85
330
37
100
AcDbEntity
  8
1
  6
Continuous
 62
     2
100
AcDbLine
 10
380.7513515207975
 20
221.2325519009431
 30
0.0
 11
389.3206267292908
 21
223.5286822727788
 31
0.0
  0
LINE
  5
86
330
37
100
AcDbEntity
  8
1
  6
Continuous
 62
     7
100
AcDbLine
 10
375.8206267292908
 20
225.2325519009431
 30
0.0
 11
375.8206267292908
 21
221.2325519009431
 31
0.0
  0
LINE
  5
87
330
37
100
AcDbEntity
  8
1
  6
Continuous
 62
     7
100
AcDbLine
 10
374.8206267292908
 20
226.2325519009429
 30
0.0
 11
374.8206267292908
 21
221.2325519009431
 31
0.0
  0
LINE
  5
88
330
37
100
AcDbEntity
  8
1
  6
Continuous
 62
     2
100
AcDbLine
 10
375.3606267292908
 20
225.6925519009429
 30
0.0
 11
374.5247598719322
 21
225.6925519009429
 31
0.0
  0
LINE
  5
89
330
37
100
AcDbEntity
  8
1
  6
Continuous
 62
     2
100
AcDbLine
 10
374.5247598719322
 20
216.7725519008716
 30
0.0
 11
375.3606267292908
 21
216.7725519008716
 31
0.0
  0
LINE
  5
8A
330
37
100
AcDbEntity
  8
1
  6
Continuous
 62
     7
100
AcDbLine
 10
374.8206267292908
 20
221.2325519008714
 30
0.0
 11
374.8206267292908
 21
216.2325519008715
 31
0.0
  0
LINE
  5
8B
330
37
100
AcDbEntity
  8
1
  6
Continuous
 62
     7
100
AcDbLine
 10
375.8206267292908
 20
221.2325519008714
 30
0.0
 11
375.8206267292908
 21
217.2325519008714
 31
0.0
  0
LINE
  5
8C
330
37
100
AcDbEntity
  8
1
  6
Continuous
 62
     2
100
AcDbLine
 10
389.3206267292908
 20
218.9364215290357
 30
0.0
 11
380.7513515207975
 21
221.2325519008714
 31
0.0
  0
LINE
  5
8D
330
37
100
AcDbEntity
  8
1
  6
Continuous
 62
     2
100
AcDbLine
 10
377.8206267292908
 20
220.2025445581404
 30
0.0
 11
381.6646664645314
 21
221.2325519008714
 31
0.0
  0
LINE
  5
8E
330
37
100
AcDbEntity
  8
1
  6
Continuous
 62
     2
100
AcDbLine
 10
389.3206267292908
 20
221.0069738898558
 30
0.0
 11
388.4787581311103
 21
221.2325519008714
 31
0.0
  0
LINE
  5
8F
330
37
100
AcDbEntity
  8
1
  6
Continuous
 62
     7
100
AcDbLine
 10
389.8206267292908
 20
221.2325519008713
 30
0.0
 11
389.8206267292908
 21
217.7325519008714
 31
0.0
  0
LINE
  5
90
330
37
100
AcDbEntity
  8
1
  6
Continuous
 62
     7
100
AcDbLine
 10
389.3206267292908
 20
217.2325519008714
 30
0.0
 11
389.8206267292908
 21
217.7325519008714
 31
0.0
  0
LINE
  5
91
330
37
100
AcDbEntity
  8
1
  6
Continuous
 62
     7
100
AcDbLine
 10
389.3206267292908
 20
217.9011453486253
 30
0.0
 11
389.3206267292908
 21
217.2325519008714
 31
0.0
  0
LINE
  5
92
330
37
100
AcDbEntity
  8
1
  6
Continuous
 62
     2
100
AcDbLine
 10
377.8206267292908
 20
217.8767325203529
 30
0.0
 11
380.2247415304473
 21
217.2325519008714
 31
0.0
  0
LINE
  5
93
330
37
100
AcDbEntity
  8
1
  6
Continuous
 62
     7
100
AcDbLine
 10
382.1912764548815
 20
217.2325519008714
 30
0.0
 11
380.2247415304473
 21
217.2325519008714
 31
0.0
  0
LINE
  5
94
330
37
100
AcDbEntity
  8
1
  6
Continuous
 62
     2
100
AcDbLine
 10
377.8206267292908
 20
218.9120087007632
 30
0.0
 11
384.088444835604
 21
217.2325519008714
 31
0.0
  0
LINE
  5
95
330
37
100
AcDbEntity
  8
1
  6
Continuous
 62
     7
100
AcDbLine
 10
386.0549797600378
 20
217.2325519008714
 30
0.0
 11
384.088444835604
 21
217.2325519008714
 31
0.0
  0
LINE
  5
96
330
37
100
AcDbEntity
  8
1
  6
Continuous
 62
     2
100
AcDbLine
 10
387.9521481407601
 20
217.2325519008714
 30
0.0
 11
377.8206267292908
 21
219.9472848811731
 31
0.0
  0
LINE
  5
97
330
37
100
AcDbEntity
  8
1
  6
Continuous
 62
     7
100
AcDbLine
 10
389.3206267292908
 20
217.2325519008714
 30
0.0
 11
387.9521481407601
 21
217.2325519008714
 31
0.0
  0
LINE
  5
98
330
37
100
AcDbEntity
  8
1
  6
Continuous
 62
     2
100
AcDbLine
 10
377.8206267292908
 20
220.9825610615833
 30
0.0
 11
389.3206267292908
 21
217.9011453486253
 31
0.0
  0
LINE
  5
99
330
37
100
AcDbEntity
  8
1
  6
Continuous
 62
     7
100
AcDbLine
 10
389.3206267292908
 20
218.1075793690478
 30
0.0
 11
389.3206267292908
 21
217.9011453486253
 31
0.0
  0
LINE
  5
9A
330
37
100
AcDbEntity
  8
1
  6
Continuous
 62
     7
100
AcDbLine
 10
389.3206267292908
 20
219.1428555494579
 30
0.0
 11
389.3206267292908
 21
218.9364215290357
 31
0.0
  0
LINE
  5
9B
330
37
100
AcDbEntity
  8
1
  6
Continuous
 62
     2
100
AcDbLine
 10
384.6150548259539
 20
221.2325519008714
 30
0.0
 11
389.3206267292908
 21
219.9716977094456
 31
0.0
  0
LINE
  5
9C
330
37
100
AcDbEntity
  8
1
  6
Continuous
 62
     7
100
AcDbLine
 10
389.3206267292908
 20
220.1781317298681
 30
0.0
 11
389.3206267292908
 21
219.9716977094456
 31
0.0
  0
LINE
  5
9D
330
37
100
AcDbEntity
  8
1
  6
Continuous
 62
     7
100
AcDbLine
 10
389.3206267292908
 20
221.2134079102782
 30
0.0
 11
389.3206267292908
 21
221.0069738898558
 31
0.0
  0
LINE
  5
9E
330
37
100
AcDbEntity
  8
1
  6
Continuous
 62
     2
100
AcDbLine
 10
385.5283697696878
 20
221.2325519008714
 30
0.0
 11
377.8206267292908
 21
219.1672683777302
 31
0.0
  0
LINE
  5
9F
330
37
100
AcDbEntity
  8
1
  6
Continuous
 62
     2
100
AcDbLine
 10
377.8206267292908
 20
218.1319921973202
 30
0.0
 11
389.3206267292908
 21
221.2134079102782
 31
0.0
  0
LINE
  5
A0
330
37
100
AcDbEntity
  8
1
  6
Continuous
 62
     7
100
AcDbLine
 10
389.3206267292908
 20
221.2325519008714
 30
0.0
 11
389.3206267292908
 21
221.2134079102782
 31
0.0
  0
LINE
  5
A1
330
37
100
AcDbEntity
  8
1
  6
Continuous
 62
     2
100
AcDbLine
 10
389.3206267292908
 20
220.1781317298681
 30
0.0
 11
378.3275731497252
 21
217.2325519008714
 31
0.0
  0
LINE
  5
A2
330
37
100
AcDbEntity
  8
1
  6
Continuous
 62
     7
100
AcDbLine
 10
380.2247415304473
 20
217.2325519008714
 30
0.0
 11
378.3275731497252
 21
217.2325519008714
 31
0.0
  0
LINE
  5
A3
330
37
100
AcDbEntity
  8
1
  6
Continuous
 62
     7
100
AcDbLine
 10
389.3206267292908
 20
221.0069738898558
 30
0.0
 11
389.3206267292908
 21
220.1781317298681
 31
0.0
  0
LINE
  5
A4
330
37
100
AcDbEntity
  8
1
  6
Continuous
 62
     2
100
AcDbLine
 10
382.1912764548815
 20
217.2325519008714
 30
0.0
 11
389.3206267292908
 21
219.1428555494579
 31
0.0
  0
LINE
  5
A5
330
37
100
AcDbEntity
  8
1
  6
Continuous
 62
     7
100
AcDbLine
 10
384.088444835604
 20
217.2325519008714
 30
0.0
 11
382.1912764548815
 21
217.2325519008714
 31
0.0
  0
LINE
  5
A6
330
37
100
AcDbEntity
  8
1
  6
Continuous
 62
     7
100
AcDbLine
 10
389.3206267292908
 20
219.9716977094456
 30
0.0
 11
389.3206267292908
 21
219.1428555494579
 31
0.0
  0
LINE
  5
A7
330
37
100
AcDbEntity
  8
1
  6
Continuous
 62
     2
100
AcDbLine
 10
386.0549797600378
 20
217.2325519008714
 30
0.0
 11
389.3206267292908
 21
218.1075793690478
 31
0.0
  0
LINE
  5
A8
330
37
100
AcDbEntity
  8
1
  6
Continuous
 62
     7
100
AcDbLine
 10
387.9521481407601
 20
217.2325519008714
 30
0.0
 11
386.0549797600378
 21
217.2325519008714
 31
0.0
  0
LINE
  5
A9
330
37
100
AcDbEntity
  8
1
  6
Continuous
 62
     7
100
AcDbLine
 10
389.3206267292908
 20
218.9364215290357
 30
0.0
 11
389.3206267292908
 21
218.1075793690478
 31
0.0
  0
LINE
  5
AA
330
37
100
AcDbEntity
  8
1
  6
Continuous
 62
     7
100
AcDbLine
 10
378.3275731497252
 20
217.2325519008714
 30
0.0
 11
375.8206267292908
 21
217.2325519008714
 31
0.0
  0
LINE
  5
AB
330
37
100
AcDbEntity
  8
1
  6
Continuous
 62
     7
100
AcDbLine
 10
375.3606267292908
 20
216.7725519008716
 30
0.0
 11
375.8206267292908
 21
217.2325519008714
 31
0.0
  0
LINE
  5
AC
330
37
100
AcDbEntity
  8
1
  6
Continuous
 62
     7
100
AcDbLine
 10
389.3206267292908
 20
217.2325519008714
 30
0.0
 11
375.8206267292908
 21
217.2325519008714
 31
0.0
  0
LINE
  5
AD
330
37
100
AcDbEntity
  8
1
  6
Continuous
 62
     7
100
AcDbLine
 10
374.8206267292908
 20
216.2325519008715
 30
0.0
 11
375.3606267292908
 21
216.7725519008716
 31
0.0
  0
LINE
  5
AE
330
37
100
AcDbEntity
  8
1
  6
Continuous
 62
     7
100
AcDbLine
 10
374.5256267292908
 20
216.2325519008715
 30
0.0
 11
374.8206267292908
 21
216.2325519008715
 31
0.0
  0
LINE
  5
AF
330
37
100
AcDbEntity
  8
1
  6
Continuous
 62
     7
100
AcDbLine
 10
167.9004738834555
 20
436.7375519008714
 30
0.0
 11
167.9004738834555
 21
437.0325519008714
 31
0.0
  0
LINE
  5
B0
330
37
100
AcDbEntity
  8
1
  6
Continuous
 62
     7
100
AcDbLine
 10
167.9004738834555
 20
437.0325519008714
 30
0.0
 11
167.3604738834554
 21
437.5725519008714
 31
0.0
  0
LINE
  5
B1
330
37
100
AcDbEntity
  8
1
  6
Continuous
 62
     7
100
AcDbLine
 10
166.9004738834556
 20
451.5325519008714
 30
0.0
 11
166.9004738834556
 21
438.0325519008714
 31
0.0
  0
LINE
  5
B2
330
37
100
AcDbEntity
  8
1
  6
Continuous
 62
     7
100
AcDbLine
 10
167.3604738834554
 20
437.5725519008714
 30
0.0
 11
166.9004738834556
 21
438.0325519008714
 31
0.0
  0
LINE
  5
B3
330
37
100
AcDbEntity
  8
1
  6
Continuous
 62
     7
100
AcDbLine
 10
166.9004738834556
 20
440.5394983213058
 30
0.0
 11
166.9004738834556
 21
438.0325519008714
 31
0.0
  0
LINE
  5
B4
330
37
100
AcDbEntity
  8
1
  6
Continuous
 62
     7
100
AcDbLine
 10
165.1966042552913
 20
451.5325519008714
 30
0.0
 11
166.0254464152791
 21
451.5325519008714
 31
0.0
  0
LINE
  5
B5
330
37
100
AcDbEntity
  8
1
  6
Continuous
 62
     7
100
AcDbLine
 10
166.9004738834556
 20
450.1640733123407
 30
0.0
 11
166.9004738834556
 21
448.2669049316184
 31
0.0
  0
LINE
  5
B6
330
37
100
AcDbEntity
  8
1
  6
Continuous
 62
     2
100
AcDbLine
 10
166.9004738834556
 20
448.2669049316184
 30
0.0
 11
166.0254464152791
 21
451.5325519008714
 31
0.0
  0
LINE
  5
B7
330
37
100
AcDbEntity
  8
1
  6
Continuous
 62
     7
100
AcDbLine
 10
164.1613280748813
 20
451.5325519008714
 30
0.0
 11
164.9901702348691
 21
451.5325519008714
 31
0.0
  0
LINE
  5
B8
330
37
100
AcDbEntity
  8
1
  6
Continuous
 62
     7
100
AcDbLine
 10
166.9004738834556
 20
446.3003700071846
 30
0.0
 11
166.9004738834556
 21
444.4032016264621
 31
0.0
  0
LINE
  5
B9
330
37
100
AcDbEntity
  8
1
  6
Continuous
 62
     2
100
AcDbLine
 10
166.9004738834556
 20
444.4032016264621
 30
0.0
 11
164.9901702348691
 21
451.5325519008714
 31
0.0
  0
LINE
  5
BA
330
37
100
AcDbEntity
  8
1
  6
Continuous
 62
     7
100
AcDbLine
 10
163.1260518944712
 20
451.5325519008714
 30
0.0
 11
163.9548940544588
 21
451.5325519008714
 31
0.0
  0
LINE
  5
BB
330
37
100
AcDbEntity
  8
1
  6
Continuous
 62
     7
100
AcDbLine
 10
166.9004738834556
 20
442.4366667020279
 30
0.0
 11
166.9004738834556
 21
440.5394983213058
 31
0.0
  0
LINE
  5
BC
330
37
100
AcDbEntity
  8
1
  6
Continuous
 62
     2
100
AcDbLine
 10
163.9548940544588
 20
451.5325519008714
 30
0.0
 11
166.9004738834556
 21
440.5394983213058
 31
0.0
  0
LINE
  5
BD
330
37
100
AcDbEntity
  8
1
  6
Continuous
 62
     7
100
AcDbLine
 10
162.9004738834556
 20
451.5325519008714
 30
0.0
 11
162.9196178740488
 21
451.5325519008714
 31
0.0
  0
LINE
  5
BE
330
37
100
AcDbEntity
  8
1
  6
Continuous
 62
     2
100
AcDbLine
 10
166.0010335870068
 20
440.0325519008714
 30
0.0
 11
162.9196178740488
 21
451.5325519008714
 31
0.0
  0
LINE
  5
BF
330
37
100
AcDbEntity
  8
1
  6
Continuous
 62
     2
100
AcDbLine
 10
162.9004738834556
 20
447.7402949412684
 30
0.0
 11
164.9657574065967
 21
440.0325519008714
 31
0.0
  0
LINE
  5
C0
330
37
100
AcDbEntity
  8
1
  6
Continuous
 62
     7
100
AcDbLine
 10
162.9196178740488
 20
451.5325519008714
 30
0.0
 11
163.1260518944712
 21
451.5325519008714
 31
0.0
  0
LINE
  5
C1
330
37
100
AcDbEntity
  8
1
  6
Continuous
 62
     7
100
AcDbLine
 10
163.9548940544588
 20
451.5325519008714
 30
0.0
 11
164.1613280748813
 21
451.5325519008714
 31
0.0
  0
LINE
  5
C2
330
37
100
AcDbEntity
  8
1
  6
Continuous
 62
     2
100
AcDbLine
 10
162.9004738834556
 20
446.8269799975345
 30
0.0
 11
164.1613280748813
 21
451.5325519008714
 31
0.0
  0
LINE
  5
C3
330
37
100
AcDbEntity
  8
1
  6
Continuous
 62
     7
100
AcDbLine
 10
164.9901702348691
 20
451.5325519008714
 30
0.0
 11
165.1966042552913
 21
451.5325519008714
 31
0.0
  0
LINE
  5
C4
330
37
100
AcDbEntity
  8
1
  6
Continuous
 62
     7
100
AcDbLine
 10
166.0254464152791
 20
451.5325519008714
 30
0.0
 11
166.2318804357017
 21
451.5325519008714
 31
0.0
  0
LINE
  5
C5
330
37
100
AcDbEntity
  8
1
  6
Continuous
 62
     2
100
AcDbLine
 10
163.1504647227437
 20
440.0325519008714
 30
0.0
 11
166.2318804357017
 21
451.5325519008714
 31
0.0
  0
LINE
  5
C6
330
37
100
AcDbEntity
  8
1
  6
Continuous
 62
     7
100
AcDbLine
 10
166.9004738834556
 20
451.5325519008714
 30
0.0
 11
166.9004738834556
 21
450.1640733123407
 31
0.0
  0
LINE
  5
C7
330
37
100
AcDbEntity
  8
1
  6
Continuous
 62
     2
100
AcDbLine
 10
166.9004738834556
 20
450.1640733123407
 30
0.0
 11
164.1857409031538
 21
440.0325519008714
 31
0.0
  0
LINE
  5
C8
330
37
100
AcDbEntity
  8
1
  6
Continuous
 62
     7
100
AcDbLine
 10
166.9004738834556
 20
448.2669049316184
 30
0.0
 11
166.9004738834556
 21
446.3003700071846
 31
0.0
  0
LINE
  5
C9
330
37
100
AcDbEntity
  8
1
  6
Continuous
 62
     2
100
AcDbLine
 10
165.2210170835638
 20
440.0325519008714
 30
0.0
 11
166.9004738834556
 21
446.3003700071846
 31
0.0
  0
LINE
  5
CA
330
37
100
AcDbEntity
  8
1
  6
Continuous
 62
     7
100
AcDbLine
 10
166.9004738834556
 20
444.4032016264621
 30
0.0
 11
166.9004738834556
 21
442.4366667020279
 31
0.0
  0
LINE
  5
CB
330
37
100
AcDbEntity
  8
1
  6
Continuous
 62
     2
100
AcDbLine
 10
166.256293263974
 20
440.0325519008714
 30
0.0
 11
166.9004738834556
 21
442.4366667020279
 31
0.0
  0
LINE
  5
CC
330
37
100
AcDbEntity
  8
1
  6
Continuous
 62
     7
100
AcDbLine
 10
166.2318804357017
 20
451.5325519008714
 30
0.0
 11
166.9004738834556
 21
451.5325519008714
 31
0.0
  0
LINE
  5
CD
330
37
100
AcDbEntity
  8
1
  6
Continuous
 62
     7
100
AcDbLine
 10
166.9004738834556
 20
451.5325519008714
 30
0.0
 11
166.4004738834556
 21
452.0325519008714
 31
0.0
  0
LINE
  5
CE
330
37
100
AcDbEntity
  8
1
  6
Continuous
 62
     7
100
AcDbLine
 10
162.9004738834556
 20
452.0325519008714
 30
0.0
 11
166.4004738834556
 21
452.0325519008714
 31
0.0
  0
LINE
  5
CF
330
37
100
AcDbEntity
  8
1
  6
Continuous
 62
     2
100
AcDbLine
 10
163.1260518944712
 20
451.5325519008714
 30
0.0
 11
162.9004738834556
 21
450.6906833026909
 31
0.0
  0
LINE
  5
D0
330
37
100
AcDbEntity
  8
1
  6
Continuous
 62
     2
100
AcDbLine
 10
163.9304812261865
 20
440.0325519008714
 30
0.0
 11
162.9004738834556
 21
443.876591636112
 31
0.0
  0
LINE
  5
D1
330
37
100
AcDbEntity
  8
1
  6
Continuous
 62
     2
100
AcDbLine
 10
165.1966042552913
 20
451.5325519008714
 30
0.0
 11
162.9004738834556
 21
442.9632766923781
 31
0.0
  0
LINE
  5
D2
330
37
100
AcDbEntity
  8
1
  6
Continuous
 62
     7
100
AcDbLine
 10
162.9004738834556
 20
438.0325519008714
 30
0.0
 11
166.9004738834556
 21
438.0325519008714
 31
0.0
  0
LINE
  5
D3
330
37
100
AcDbEntity
  8
1
  6
Continuous
 62
     7
100
AcDbLine
 10
162.9004738834556
 20
437.0325519008714
 30
0.0
 11
167.9004738834555
 21
437.0325519008714
 31
0.0
  0
LINE
  5
D4
330
37
100
AcDbEntity
  8
1
  6
Continuous
 62
     2
100
AcDbLine
 10
167.3604738834554
 20
436.7366850435128
 30
0.0
 11
167.3604738834554
 21
437.5725519008714
 31
0.0
  0
LINE
  5
D5
330
37
100
AcDbEntity
  8
1
  6
Continuous
 62
     2
100
AcDbLine
 10
158.440473883384
 20
437.5725519008714
 30
0.0
 11
158.440473883384
 21
436.7366850435128
 31
0.0
  0
LINE
  5
D6
330
37
100
AcDbEntity
  8
1
  6
Continuous
 62
     7
100
AcDbLine
 10
157.9004738833841
 20
437.0325519008714
 30
0.0
 11
162.9004738833838
 21
437.0325519008714
 31
0.0
  0
LINE
  5
D7
330
37
100
AcDbEntity
  8
1
  6
Continuous
 62
     7
100
AcDbLine
 10
158.9004738833838
 20
438.0325519008714
 30
0.0
 11
162.9004738833838
 21
438.0325519008714
 31
0.0
  0
LINE
  5
D8
330
37
100
AcDbEntity
  8
1
  6
Continuous
 62
     2
100
AcDbLine
 10
162.9004738833838
 20
442.9632766923781
 30
0.0
 11
160.6043435115481
 21
451.5325519008714
 31
0.0
  0
LINE
  5
D9
330
37
100
AcDbEntity
  8
1
  6
Continuous
 62
     2
100
AcDbLine
 10
162.9004738833838
 20
443.876591636112
 30
0.0
 11
161.870466540653
 21
440.0325519008714
 31
0.0
  0
LINE
  5
DA
330
37
100
AcDbEntity
  8
1
  6
Continuous
 62
     2
100
AcDbLine
 10
162.9004738833838
 20
450.6906833026909
 30
0.0
 11
162.6748958723682
 21
451.5325519008714
 31
0.0
  0
LINE
  5
DB
330
37
100
AcDbEntity
  8
1
  6
Continuous
 62
     7
100
AcDbLine
 10
159.4004738833838
 20
452.0325519008714
 30
0.0
 11
162.9004738834556
 21
452.0325519008714
 31
0.0
  0
LINE
  5
DC
330
37
100
AcDbEntity
  8
1
  6
Continuous
 62
     7
100
AcDbLine
 10
159.4004738833838
 20
452.0325519008714
 30
0.0
 11
158.9004738833838
 21
451.5325519008714
 31
0.0
  0
LINE
  5
DD
330
37
100
AcDbEntity
  8
1
  6
Continuous
 62
     7
100
AcDbLine
 10
158.9004738833838
 20
451.5325519008714
 30
0.0
 11
159.5690673311378
 21
451.5325519008714
 31
0.0
  0
LINE
  5
DE
330
37
100
AcDbEntity
  8
1
  6
Continuous
 62
     2
100
AcDbLine
 10
158.9004738833838
 20
442.4366667020279
 30
0.0
 11
159.5446545028655
 21
440.0325519008714
 31
0.0
  0
LINE
  5
DF
330
37
100
AcDbEntity
  8
1
  6
Continuous
 62
     7
100
AcDbLine
 10
158.9004738833838
 20
442.4366667020279
 30
0.0
 11
158.9004738833838
 21
444.4032016264621
 31
0.0
  0
LINE
  5
E0
330
37
100
AcDbEntity
  8
1
  6
Continuous
 62
     2
100
AcDbLine
 10
158.9004738833838
 20
446.3003700071846
 30
0.0
 11
160.5799306832756
 21
440.0325519008714
 31
0.0
  0
LINE
  5
E1
330
37
100
AcDbEntity
  8
1
  6
Continuous
 62
     7
100
AcDbLine
 10
158.9004738833838
 20
446.3003700071846
 30
0.0
 11
158.9004738833838
 21
448.2669049316184
 31
0.0
  0
LINE
  5
E2
330
37
100
AcDbEntity
  8
1
  6
Continuous
 62
     2
100
AcDbLine
 10
161.6152068636857
 20
440.0325519008714
 30
0.0
 11
158.9004738833838
 21
450.1640733123407
 31
0.0
  0
LINE
  5
E3
330
37
100
AcDbEntity
  8
1
  6
Continuous
 62
     7
100
AcDbLine
 10
158.9004738833838
 20
450.1640733123407
 30
0.0
 11
158.9004738833838
 21
451.5325519008714
 31
0.0
  0
LINE
  5
E4
330
37
100
AcDbEntity
  8
1
  6
Continuous
 62
     2
100
AcDbLine
 10
159.5690673311378
 20
451.5325519008714
 30
0.0
 11
162.6504830440958
 21
440.0325519008714
 31
0.0
  0
LINE
  5
E5
330
37
100
AcDbEntity
  8
1
  6
Continuous
 62
     7
100
AcDbLine
 10
159.5690673311378
 20
451.5325519008714
 30
0.0
 11
159.7755013515605
 21
451.5325519008714
 31
0.0
  0
LINE
  5
E6
330
37
100
AcDbEntity
  8
1
  6
Continuous
 62
     7
100
AcDbLine
 10
160.6043435115481
 20
451.5325519008714
 30
0.0
 11
160.8107775319704
 21
451.5325519008714
 31
0.0
  0
LINE
  5
E7
330
37
100
AcDbEntity
  8
1
  6
Continuous
 62
     2
100
AcDbLine
 10
161.6396196919582
 20
451.5325519008714
 30
0.0
 11
162.9004738833838
 21
446.8269799975345
 31
0.0
  0
LINE
  5
E8
330
37
100
AcDbEntity
  8
1
  6
Continuous
 62
     7
100
AcDbLine
 10
161.6396196919582
 20
451.5325519008714
 30
0.0
 11
161.8460537123807
 21
451.5325519008714
 31
0.0
  0
LINE
  5
E9
330
37
100
AcDbEntity
  8
1
  6
Continuous
 62
     7
100
AcDbLine
 10
162.6748958723682
 20
451.5325519008714
 30
0.0
 11
162.8813298927908
 21
451.5325519008714
 31
0.0
  0
LINE
  5
EA
330
37
100
AcDbEntity
  8
1
  6
Continuous
 62
     2
100
AcDbLine
 10
160.8351903602428
 20
440.0325519008714
 30
0.0
 11
162.9004738833838
 21
447.7402949412684
 31
0.0
  0
LINE
  5
EB
330
37
100
AcDbEntity
  8
1
  6
Continuous
 62
     2
100
AcDbLine
 10
162.8813298927908
 20
451.5325519008714
 30
0.0
 11
159.7999141798327
 21
440.0325519008714
 31
0.0
  0
LINE
  5
EC
330
37
100
AcDbEntity
  8
1
  6
Continuous
 62
     7
100
AcDbLine
 10
162.8813298927908
 20
451.5325519008714
 30
0.0
 11
162.9004738833839
 21
451.5325519008714
 31
0.0
  0
LINE
  5
ED
330
37
100
AcDbEntity
  8
1
  6
Continuous
 62
     2
100
AcDbLine
 10
158.9004738833838
 20
440.5394983213058
 30
0.0
 11
161.8460537123807
 21
451.5325519008714
 31
0.0
  0
LINE
  5
EE
330
37
100
AcDbEntity
  8
1
  6
Continuous
 62
     7
100
AcDbLine
 10
158.9004738833838
 20
440.5394983213058
 30
0.0
 11
158.9004738833838
 21
442.4366667020279
 31
0.0
  0
LINE
  5
EF
330
37
100
AcDbEntity
  8
1
  6
Continuous
 62
     7
100
AcDbLine
 10
161.8460537123807
 20
451.5325519008714
 30
0.0
 11
162.6748958723682
 21
451.5325519008714
 31
0.0
  0
LINE
  5
F0
330
37
100
AcDbEntity
  8
1
  6
Continuous
 62
     2
100
AcDbLine
 10
160.8107775319704
 20
451.5325519008714
 30
0.0
 11
158.9004738833838
 21
444.4032016264621
 31
0.0
  0
LINE
  5
F1
330
37
100
AcDbEntity
  8
1
  6
Continuous
 62
     7
100
AcDbLine
 10
158.9004738833838
 20
444.4032016264621
 30
0.0
 11
158.9004738833838
 21
446.3003700071846
 31
0.0
  0
LINE
  5
F2
330
37
100
AcDbEntity
  8
1
  6
Continuous
 62
     7
100
AcDbLine
 10
160.8107775319704
 20
451.5325519008714
 30
0.0
 11
161.6396196919582
 21
451.5325519008714
 31
0.0
  0
LINE
  5
F3
330
37
100
AcDbEntity
  8
1
  6
Continuous
 62
     2
100
AcDbLine
 10
159.7755013515605
 20
451.5325519008714
 30
0.0
 11
158.9004738833838
 21
448.2669049316184
 31
0.0
  0
LINE
  5
F4
330
37
100
AcDbEntity
  8
1
  6
Continuous
 62
     7
100
AcDbLine
 10
158.9004738833838
 20
448.2669049316184
 30
0.0
 11
158.9004738833838
 21
450.1640733123407
 31
0.0
  0
LINE
  5
F5
330
37
100
AcDbEntity
  8
1
  6
Continuous
 62
     7
100
AcDbLine
 10
159.7755013515605
 20
451.5325519008714
 30
0.0
 11
160.6043435115481
 21
451.5325519008714
 31
0.0
  0
LINE
  5
F6
330
37
100
AcDbEntity
  8
1
  6
Continuous
 62
     7
100
AcDbLine
 10
158.9004738833838
 20
438.0325519008714
 30
0.0
 11
158.9004738833838
 21
440.5394983213058
 31
0.0
  0
LINE
  5
F7
330
37
100
AcDbEntity
  8
1
  6
Continuous
 62
     7
100
AcDbLine
 10
158.9004738833838
 20
438.0325519008714
 30
0.0
 11
158.440473883384
 21
437.5725519008714
 31
0.0
  0
LINE
  5
F8
330
37
100
AcDbEntity
  8
1
  6
Continuous
 62
     7
100
AcDbLine
 10
158.9004738833838
 20
438.0325519008714
 30
0.0
 11
158.9004738833838
 21
451.5325519008714
 31
0.0
  0
LINE
  5
F9
330
37
100
AcDbEntity
  8
1
  6
Continuous
 62
     7
100
AcDbLine
 10
158.440473883384
 20
437.5725519008714
 30
0.0
 11
157.9004738833841
 21
437.0325519008714
 31
0.0
  0
LINE
  5
FA
330
37
100
AcDbEntity
  8
1
  6
Continuous
 62
     7
100
AcDbLine
 10
157.9004738833841
 20
437.0325519008714
 30
0.0
 11
157.9004738833841
 21
436.7375519008714
 31
0.0
  0
ENDBLK
  5
39
330
37
100
AcDbEntity
  8
0
100
AcDbBlockEnd
  0
BLOCK
  5
3C
330
3A
100
AcDbEntity
  8
0
100
AcDbBlockBegin
  2
B41-25-13
 70
     0
 71
     0
 10
217.1474976976288
 20
187.2293058085826
 30
0.0
  3
B41-25-13
  1

  0
INSERT
  5
3B
330
3A
100
AcDbEntity
  8
0
100
AcDbBlockReference
  2
B41-25-13-H1
 10
320.6374366311535
 20
333.3703308431158
 30
0.0
  0
ENDBLK
  5
3D
330
3A
100
AcDbEntity
  8
0
100
AcDbBlockEnd
  0
BLOCK
  5
3F
330
3E
100
AcDbEntity
  8
0
100
AcDbBlockBegin
  2
B41-25-13-H2
 70
     0
 71
     0
 10
317.7777615219407
 20
341.5841840989783
 30
0.0
  3
B41-25-13-H2
  1

  0
LINE
  5
FB
330
3E
100
AcDbEntity
  8
1
  6
Continuous
 62
     7
100
AcDbLine
 10
174.4004738833838
 20
413.7366850435128
 30
0.0
 11
162.9004738833839
 21
413.7366850435128
 31
0.0
  0
LINE
  5
FC
330
3E
100
AcDbEntity
  8
0
  6
Continuous
 62
     7
100
AcDbLine
 10
163.1504738833837
 20
424.7366850435128
 30
0.0
 11
162.9004738833839
 21
424.7366850435128
 31
0.0
  0
LINE
  5
FD
330
3E
100
AcDbEntity
  8
1
  6
Continuous
 62
     7
100
AcDbLine
 10
162.9004738833839
 20
436.7366850435128
 30
0.0
 11
168.4004738833837
 21
436.7366850435128
 31
0.0
  0
LINE
  5
FE
330
3E
100
AcDbEntity
  8
1
  6
Continuous
 62
     7
100
AcDbLine
 10
162.9004738833839
 20
425.7366850435128
 30
0.0
 11
169.4004738833837
 21
425.7366850435128
 31
0.0
  0
LINE
  5
FF
330
3E
100
AcDbEntity
  8
1
  6
Continuous
 62
     7
100
AcDbLine
 10
169.4004738833837
 20
435.7366850435128
 30
0.0
 11
169.4004738833837
 21
425.7366850435128
 31
0.0
  0
LINE
  5
100
330
3E
100
AcDbEntity
  8
1
  6
Continuous
 62
     7
100
AcDbLine
 10
169.4004738833837
 20
425.7366850435128
 30
0.0
 11
171.9004738833837
 21
425.7366850435128
 31
0.0
  0
LINE
  5
101
330
3E
100
AcDbEntity
  8
1
  6
Continuous
 62
     7
100
AcDbLine
 10
174.4004738833838
 20
424.7366850435128
 30
0.0
 11
171.9004738833837
 21
424.7366850435128
 31
0.0
  0
LINE
  5
102
330
3E
100
AcDbEntity
  8
1
  6
Continuous
 62
     7
100
AcDbLine
 10
171.9004738833837
 20
425.7366850435128
 30
0.0
 11
171.9004738833837
 21
424.7366850435128
 31
0.0
  0
LINE
  5
103
330
3E
100
AcDbEntity
  8
1
  6
Continuous
 62
     7
100
AcDbLine
 10
171.9004738833837
 20
424.7366850435128
 30
0.0
 11
163.1504738833837
 21
424.7366850435128
 31
0.0
  0
LINE
  5
104
330
3E
100
AcDbEntity
  8
0
  6
Continuous
 62
     7
100
AcDbLine
 10
163.1504738833837
 20
424.7366850435128
 30
0.0
 11
162.9004738833839
 21
424.7366850435128
 31
0.0
  0
LINE
  5
105
330
3E
100
AcDbEntity
  8
1
  6
Continuous
 62
     7
100
AcDbLine
 10
174.4004738833838
 20
413.7366850435128
 30
0.0
 11
174.4004738833838
 21
424.7366850435128
 31
0.0
  0
LINE
  5
106
330
3E
100
AcDbEntity
  8
1
  6
Continuous
 62
     7
100
AcDbLine
 10
151.4004738833838
 20
424.7366850435128
 30
0.0
 11
151.4004738833838
 21
413.7366850435128
 31
0.0
  0
LINE
  5
107
330
3E
100
AcDbEntity
  8
0
  6
Continuous
 62
     7
100
AcDbLine
 10
162.9004738833839
 20
424.7366850435128
 30
0.0
 11
162.6504738833837
 21
424.7366850435128
 31
0.0
  0
LINE
  5
108
330
3E
100
AcDbEntity
  8
1
  6
Continuous
 62
     7
100
AcDbLine
 10
162.6504738833837
 20
424.7366850435128
 30
0.0
 11
153.9004738833839
 21
424.7366850435128
 31
0.0
  0
LINE
  5
109
330
3E
100
AcDbEntity
  8
1
  6
Continuous
 62
     7
100
AcDbLine
 10
153.9004738833839
 20
424.7366850435128
 30
0.0
 11
153.9004738833839
 21
425.7366850435128
 31
0.0
  0
LINE
  5
10A
330
3E
100
AcDbEntity
  8
1
  6
Continuous
 62
     7
100
AcDbLine
 10
153.9004738833839
 20
424.7366850435128
 30
0.0
 11
151.4004738833838
 21
424.7366850435128
 31
0.0
  0
LINE
  5
10B
330
3E
100
AcDbEntity
  8
1
  6
Continuous
 62
     7
100
AcDbLine
 10
153.9004738833839
 20
425.7366850435128
 30
0.0
 11
156.4004738833839
 21
425.7366850435128
 31
0.0
  0
LINE
  5
10C
330
3E
100
AcDbEntity
  8
1
  6
Continuous
 62
     7
100
AcDbLine
 10
156.4004738833839
 20
425.7366850435128
 30
0.0
 11
156.4004738833839
 21
435.7366850435128
 31
0.0
  0
LINE
  5
10D
330
3E
100
AcDbEntity
  8
1
  6
Continuous
 62
     7
100
AcDbLine
 10
156.4004738833839
 20
425.7366850435128
 30
0.0
 11
162.9004738833839
 21
425.7366850435128
 31
0.0
  0
LINE
  5
10E
330
3E
100
AcDbEntity
  8
1
  6
Continuous
 62
     7
100
AcDbLine
 10
157.4004738833839
 20
436.7366850435128
 30
0.0
 11
162.9004738833839
 21
436.7366850435128
 31
0.0
  0
LINE
  5
10F
330
3E
100
AcDbEntity
  8
0
  6
Continuous
 62
     7
100
AcDbLine
 10
162.9004738833839
 20
424.7366850435128
 30
0.0
 11
162.6504738833837
 21
424.7366850435128
 31
0.0
  0
LINE
  5
110
330
3E
100
AcDbEntity
  8
1
  6
Continuous
 62
     7
100
AcDbLine
 10
162.9004738833839
 20
413.7366850435128
 30
0.0
 11
151.4004738833838
 21
413.7366850435128
 31
0.0
  0
LINE
  5
111
330
3E
100
AcDbEntity
  8
1
  6
Continuous
 62
     7
100
AcDbLine
 10
351.5247598719321
 20
232.7325519008714
 30
0.0
 11
351.5247598719321
 21
209.7325519008714
 31
0.0
  0
LINE
  5
112
330
3E
100
AcDbEntity
  8
1
  6
Continuous
 62
     7
100
AcDbLine
 10
362.5247598719321
 20
230.2325519008715
 30
0.0
 11
362.5247598719321
 21
232.7325519008714
 31
0.0
  0
LINE
  5
113
330
3E
100
AcDbEntity
  8
1
  6
Continuous
 62
     7
100
AcDbLine
 10
362.5247598719321
 20
230.2325519008715
 30
0.0
 11
363.5247598719321
 21
230.2325519008713
 31
0.0
  0
LINE
  5
114
330
3E
100
AcDbEntity
  8
1
  6
Continuous
 62
     7
100
AcDbLine
 10
363.5247598719321
 20
230.2325519008713
 30
0.0
 11
363.5247598719321
 21
227.7325519008713
 31
0.0
  0
LINE
  5
115
330
3E
100
AcDbEntity
  8
1
  6
Continuous
 62
     7
100
AcDbLine
 10
363.5247598719321
 20
227.7325519008713
 30
0.0
 11
373.5247598719321
 21
227.7325519008713
 31
0.0
  0
LINE
  5
116
330
3E
100
AcDbEntity
  8
1
  6
Continuous
 62
     7
100
AcDbLine
 10
374.5247598719321
 20
226.7325519008713
 30
0.0
 11
374.5247598719321
 21
215.7325519008713
 31
0.0
  0
LINE
  5
117
330
3E
100
AcDbEntity
  8
1
  6
Continuous
 62
     7
100
AcDbLine
 10
373.5247598719321
 20
214.7325519008713
 30
0.0
 11
363.5247598719321
 21
214.7325519008713
 31
0.0
  0
LINE
  5
118
330
3E
100
AcDbEntity
  8
1
  6
Continuous
 62
     7
100
AcDbLine
 10
363.5247598719321
 20
227.7325519008713
 30
0.0
 11
363.5247598719321
 21
212.2325519008713
 31
0.0
  0
LINE
  5
119
330
3E
100
AcDbEntity
  8
1
  6
Continuous
 62
     7
100
AcDbLine
 10
363.5247598719321
 20
212.2325519008713
 30
0.0
 11
362.5247598719321
 21
212.2325519008713
 31
0.0
  0
LINE
  5
11A
330
3E
100
AcDbEntity
  8
1
  6
Continuous
 62
     7
100
AcDbLine
 10
363.5247598719321
 20
227.7325519008713
 30
0.0
 11
373.5247598719321
 21
227.7325519008713
 31
0.0
  0
LINE
  5
11B
330
3E
100
AcDbEntity
  8
1
  6
Continuous
 62
     7
100
AcDbLine
 10
362.5247598719321
 20
209.7325519008714
 30
0.0
 11
362.5247598719321
 21
230.2325519008715
 31
0.0
  0
LINE
  5
11C
330
3E
100
AcDbEntity
  8
1
  6
Continuous
 62
     7
100
AcDbLine
 10
351.5247598719321
 20
231.7100519008714
 30
0.0
 11
351.5247598719321
 21
231.7125519008714
 31
0.0
  0
ARC
  5
11D
330
3E
100
AcDbEntity
  8
1
  6
Continuous
 62
     7
100
AcDbCircle
 10
357.0247598719321
 20
223.399218567538
 30
0.0
 40
10.83333333333342
100
AcDbArc
 50
59.4897625938847
 51
120.5102374061153
  0
ARC
  5
11E
330
3E
100
AcDbEntity
  8
1
  6
Continuous
 62
     7
100
AcDbCircle
 10
357.0247598719321
 20
219.0658852342048
 30
0.0
 40
10.83333333333339
100
AcDbArc
 50
-120.5102374061154
 51
-59.48976259388462
  0
SPLINE
  5
11F
330
3E
100
AcDbEntity
  8
1
  6
Continuous
 62
     7
100
AcDbSpline
210
0.0
220
0.0
230
1.0
 70
    11
 71
     3
 72
    79
 73
    75
 74
    73
 42
0.0000000001
 43
0.0000000001
 44
0.00000001
 40
0.0
 40
0.0
 40
0.0
 40
0.0
 40
0.2759636402069843
 40
0.5515379688193425
 40
0.8510690739231314
 40
1.150110858449202
 40
1.482521986005788
 40
1.814556731454776
 40
2.183472698126906
 40
2.55214250454575
 40
2.956424680011769
 40
3.360553356205599
 40
3.795521897353091
 40
4.230397440195659
 40
4.688892831318928
 40
5.147335320570345
 40
5.620563020003026
 40
6.093766713794422
 40
6.571998916514155
 40
7.050231119233888
 40
7.523434813025235
 40
7.996662512457852
 40
8.455105001709157
 40
8.91360039283248
 40
9.34847593567515
 40
9.78344447682257
 40
10.18757315301638
 40
10.59185532848242
 40
10.96052513490128
 40
11.32944110157352
 40
11.66147584702257
 40
11.9938869745792
 40
12.29292875910522
 40
12.59245986420899
 40
12.86803419282128
 40
13.14399783302822
 40
13.41112511054709
 40
13.67825238806589
 40
13.95421602827286
 40
14.22979035688519
 40
14.52932146198904
 40
14.82836324651506
 40
15.16077437407173
 40
15.49280911952073
 40
15.86172508619293
 40
16.23039489261182
 40
16.63467706807784
 40
17.03880574427163
 40
17.47377428541908
 40
17.9086498282617
 40
18.36714521938506
 40
18.82558770863635
 40
19.29881540806892
 40
19.77201910186032
 40
20.25025130458005
 40
20.72848350729989
 40
21.20168720109135
 40
21.67491490052386
 40
22.13335738977522
 40
22.59185278089841
 40
23.02672832374107
 40
23.46169686488858
 40
23.86582554108236
 40
24.27010771654838
 40
24.63877752296719
 40
25.0076934896394
 40
25.33972823508841
 40
25.67213936264506
 40
25.97118114717114
 40
26.27071225227496
 40
26.54628658088729
 40
26.82225022109425
 40
27.08937749861309
 40
27.35650477613192
 40
27.35650477613192
 40
27.35650477613192
 40
27.35650477613192
 10
362.5030776837111
 20
211.0453018652686
 30
0.0
 10
362.4844765221546
 20
210.955013706612
 30
0.0
 10
362.4473004403531
 20
210.7745647619738
 30
0.0
 10
362.336335009993
 20
210.5117989396123
 30
0.0
 10
362.1903199461244
 20
210.2589422665119
 30
0.0
 10
362.0012647337064
 20
210.0118534829756
 30
0.0
 10
361.7786495307885
 20
209.7795358332487
 30
0.0
 10
361.5164122802308
 20
209.5554451501387
 30
0.0
 10
361.2252046998673
 20
209.3489409358979
 30
0.0
 10
360.8979175336553
 20
209.1539558935489
 30
0.0
 10
360.5466086171992
 20
208.9784651163932
 30
0.0
 10
360.1641879638428
 20
208.8179925300802
 30
0.0
 10
359.7628409566071
 20
208.6784153759616
 30
0.0
 10
359.3368080677451
 20
208.5569885483587
 30
0.0
 10
358.8970997027836
 20
208.4574873431691
 30
0.0
 10
358.440287432429
 20
208.3785485383555
 30
0.0
 10
357.9751990460505
 20
208.3222261883717
 30
0.0
 10
357.5013651278268
 20
208.287971720415
 30
0.0
 10
357.0247598719351
 20
208.2766825244476
 30
0.0
 10
356.5481546160254
 20
208.2879717204134
 30
0.0
 10
356.074320697855
 20
208.3222261883784
 30
0.0
 10
355.6092323112841
 20
208.3785485383308
 30
0.0
 10
355.1524200416249
 20
208.4574873432582
 30
0.0
 10
354.7127116741299
 20
208.556988548033
 30
0.0
 10
354.2866787942581
 20
208.678415377108
 30
0.0
 10
353.8853317546256
 20
208.8179925259214
 30
0.0
 10
353.5029112140195
 20
208.9784651306975
 30
0.0
 10
353.1516018954224
 20
209.153955842002
 30
0.0
 10
352.8243161046698
 20
209.3489411095852
 30
0.0
 10
352.533103657751
 20
209.5554445269178
 30
0.0
 10
352.2708828540485
 20
209.7795379032337
 30
0.0
 10
352.0482096167519
 20
210.0118460497136
 30
0.0
 10
351.8593505255396
 20
210.2589669484945
 30
0.0
 10
351.7126382886211
 20
210.5117094580963
 30
0.0
 10
351.6040794158567
 20
210.7748693591362
 30
0.0
 10
351.5401595551093
 20
211.0412845309542
 30
0.0
 10
351.5171853106431
 20
211.3115477386799
 30
0.0
 10
351.5401595551093
 20
211.5818109464059
 30
0.0
 10
351.6040794158564
 20
211.8482261182239
 30
0.0
 10
351.712638288621
 20
212.1113860192638
 30
0.0
 10
351.8593505255396
 20
212.3641285288655
 30
0.0
 10
352.0482096167519
 20
212.6112494276465
 30
0.0
 10
352.2708828540485
 20
212.8435575741264
 30
0.0
 10
352.5331036577511
 20
213.0676509504423
 30
0.0
 10
352.8243161046698
 20
213.2741543677748
 30
0.0
 10
353.1516018954223
 20
213.4691396353581
 30
0.0
 10
353.5029112140196
 20
213.6446303466624
 30
0.0
 10
353.8853317546256
 20
213.8051029514387
 30
0.0
 10
354.286678794258
 20
213.9446801002521
 30
0.0
 10
354.7127116741299
 20
214.0661069293272
 30
0.0
 10
355.1524200416249
 20
214.1656081341019
 30
0.0
 10
355.6092323112842
 20
214.2445469390291
 30
0.0
 10
356.0743206978549
 20
214.3008692889816
 30
0.0
 10
356.548154616026
 20
214.3351237569468
 30
0.0
 10
357.0247598719325
 20
214.3464129529118
 30
0.0
 10
357.5013651278372
 20
214.335123756947
 30
0.0
 10
357.9751990460125
 20
214.3008692889812
 30
0.0
 10
358.4402874325695
 20
214.244546939031
 30
0.0
 10
358.8970997022779
 20
214.1656081340956
 30
0.0
 10
359.3368080695936
 20
214.0661069293501
 30
0.0
 10
359.7628409501008
 20
213.9446801001713
 30
0.0
 10
360.1641879874452
 20
213.8051029517324
 30
0.0
 10
360.5466085360139
 20
213.6446303456522
 30
0.0
 10
360.8979178262109
 20
213.4691396389986
 30
0.0
 10
361.2252037141019
 20
213.2741543555085
 30
0.0
 10
361.5164158173312
 20
213.0676509944559
 30
0.0
 10
361.7786377825555
 20
212.8435574279384
 30
0.0
 10
362.0013069213061
 20
212.6112499526038
 30
0.0
 10
362.190179863133
 20
212.3641267857567
 30
0.0
 10
362.3368428637884
 20
212.1113923386926
 30
0.0
 10
362.4455716942176
 20
211.8482046067412
 30
0.0
 10
362.508874437525
 20
211.5818904891531
 30
0.0
 10
362.5340830453628
 20
211.3112613999018
 30
0.0
 10
362.5134128042617
 20
211.1339550434797
 30
0.0
 10
362.5030776837111
 20
211.0453018652686
 30
0.0
 11
362.5030776837111
 21
211.0453018652686
 31
0.0
 11
362.4385780825584
 21
210.776981660723
 31
0.0
 11
362.3346185685247
 21
210.5217687495448
 31
0.0
 11
362.1848372744953
 21
210.2623762922844
 31
0.0
 11
362.0040783864549
 21
210.0241490619204
 31
0.0
 11
361.7747843122359
 21
209.7834804406764
 31
0.0
 11
361.5228647445269
 21
209.5671852636828
 31
0.0
 11
361.222485917741
 21
209.3530088156677
 31
0.0
 11
360.9060440877178
 21
209.1638475237064
 31
0.0
 11
360.5447214084658
 21
208.9824915233708
 31
0.0
 11
360.1722192519685
 21
208.8257684225623
 31
0.0
 11
359.7615740132787
 21
208.6823525248057
 31
0.0
 11
359.3434210034772
 21
208.5629171943689
 31
0.0
 11
358.8963191002013
 21
208.4613400721001
 31
0.0
 11
358.4445930554256
 21
208.3831537790412
 31
0.0
 11
357.974826688315
 21
208.3260222129667
 31
0.0
 11
357.5028553646127
 21
208.2918929671425
 31
0.0
 11
357.0247598719321
 21
208.2804588254345
 31
0.0
 11
356.5466643792514
 21
208.2918929671425
 31
0.0
 11
356.0746930555492
 21
208.3260222129668
 31
0.0
 11
355.6049266884387
 21
208.3831537790412
 31
0.0
 11
355.1532006436631
 21
208.4613400721001
 31
0.0
 11
354.7060987403872
 21
208.5629171943689
 31
0.0
 11
354.2879457305855
 21
208.6823525248056
 31
0.0
 11
353.8773004918958
 21
208.8257684225623
 31
0.0
 11
353.5047983353985
 21
208.9824915233707
 31
0.0
 11
353.1434756561465
 21
209.1638475237064
 31
0.0
 11
352.8270338261233
 21
209.3530088156677
 31
0.0
 11
352.5266549993373
 21
209.5671852636829
 31
0.0
 11
352.2747354316282
 21
209.7834804406764
 31
0.0
 11
352.0454413574092
 21
210.0241490619204
 31
0.0
 11
351.8646824693689
 21
210.2623762922846
 31
0.0
 11
351.7149011753395
 21
210.5217687495449
 31
0.0
 11
351.610941661306
 21
210.776981660723
 31
0.0
 11
351.5464420601531
 21
211.0453018652686
 31
0.0
 11
351.5247598719321
 21
211.31154773868
 31
0.0
 11
351.546442060153
 21
211.5777936120913
 31
0.0
 11
351.6109416613058
 21
211.846113816637
 31
0.0
 11
351.7149011753394
 21
212.1013267278152
 31
0.0
 11
351.864682469369
 21
212.3607191850755
 31
0.0
 11
352.0454413574092
 21
212.5989464154396
 31
0.0
 11
352.2747354316283
 21
212.8396150366837
 31
0.0
 11
352.5266549993373
 21
213.0559102136773
 31
0.0
 11
352.8270338261233
 21
213.2700866616924
 31
0.0
 11
353.1434756561466
 21
213.4592479536537
 31
0.0
 11
353.5047983353985
 21
213.6406039539893
 31
0.0
 11
353.8773004918958
 21
213.7973270547978
 31
0.0
 11
354.2879457305855
 21
213.9407429525545
 31
0.0
 11
354.7060987403871
 21
214.0601782829913
 31
0.0
 11
355.1532006436631
 21
214.16175540526
 31
0.0
 11
355.6049266884387
 21
214.2399416983188
 31
0.0
 11
356.0746930555491
 21
214.2970732643933
 31
0.0
 11
356.5466643792514
 21
214.3312025102175
 31
0.0
 11
357.0247598719321
 21
214.3426366519255
 31
0.0
 11
357.5028553646129
 21
214.3312025102175
 31
0.0
 11
357.9748266883152
 21
214.2970732643933
 31
0.0
 11
358.4445930554256
 21
214.2399416983189
 31
0.0
 11
358.8963191002013
 21
214.1617554052599
 31
0.0
 11
359.343421003477
 21
214.0601782829913
 31
0.0
 11
359.7615740132787
 21
213.9407429525545
 31
0.0
 11
360.1722192519685
 21
213.7973270547978
 31
0.0
 11
360.5447214084658
 21
213.6406039539893
 31
0.0
 11
360.9060440877177
 21
213.4592479536537
 31
0.0
 11
361.2224859177409
 21
213.2700866616924
 31
0.0
 11
361.5228647445268
 21
213.0559102136772
 31
0.0
 11
361.7747843122359
 21
212.8396150366837
 31
0.0
 11
362.0040783864549
 21
212.5989464154396
 31
0.0
 11
362.1848372744952
 21
212.3607191850755
 31
0.0
 11
362.3346185685248
 21
212.1013267278152
 31
0.0
 11
362.4385780825584
 21
211.846113816637
 31
0.0
 11
362.5030776837111
 21
211.5777936120913
 31
0.0
 11
362.5247598719321
 21
211.31154773868
 31
0.0
 11
362.5030776837111
 21
211.0453018652686
 31
0.0
  0
SPLINE
  5
120
330
3E
100
AcDbEntity
  8
1
  6
Continuous
 62
     7
100
AcDbSpline
210
0.0
220
0.0
230
1.0
 70
     8
 71
     3
 72
    45
 73
    41
 74
    39
 42
0.0000000001
 43
0.0000000001
 44
0.00000001
 40
0.0
 40
0.0
 40
0.0
 40
0.0
 40
0.101179244619278
 40
0.2024560625292956
 40
0.7319030661654178
 40
1.261350069807745
 40
1.789344970290037
 40
2.317358241711252
 40
2.841168092333174
 40
3.365013916029728
 40
3.882354157103828
 40
4.399746080952644
 40
4.909045416020899
 40
5.418408490919977
 40
5.919017434711961
 40
6.419696074481685
 40
6.912008131686076
 40
7.404387041699961
 40
7.889839842150684
 40
8.375346021621844
 40
8.856278226483116
 40
9.337240252922923
 40
9.816603639054257
 40
10.29596702517472
 40
10.77692905162107
 40
11.25786125651922
 40
11.74336743597503
 40
12.22882023646423
 40
12.72119914630672
 40
13.21351120177344
 40
13.71418984408402
 40
14.21479880666888
 40
14.72416185810435
 40
15.23346103565801
 40
15.75085314273766
 40
16.26819455688326
 40
16.83312759427587
 40
17.39832166750309
 40
17.78428893065529
 40
18.16949384685504
 40
18.16949384685504
 40
18.16949384685504
 40
18.16949384685504
 10
362.5228063120118
 20
221.2708398822369
 30
0.0
 10
362.521838762046
 20
221.2371264998145
 30
0.0
 10
362.519902729047
 20
221.1696672231074
 30
0.0
 10
362.5082653748553
 20
220.9259711515886
 30
0.0
 10
362.4721644739637
 20
220.5404854778863
 30
0.0
 10
362.3810998293075
 20
220.0188768606866
 30
0.0
 10
362.2495078364053
 20
219.5064688674043
 30
0.0
 10
362.0783073309142
 20
219.0078804038459
 30
0.0
 10
361.868584552201
 20
218.5257370183483
 30
0.0
 10
361.6223574008498
 20
218.0651872363223
 30
0.0
 10
361.3407424410619
 20
217.6279225664696
 30
0.0
 10
361.0268569349646
 20
217.2192834226279
 30
0.0
 10
360.6817564462551
 20
216.8402222322874
 30
0.0
 10
360.3095830331412
 20
216.4958506211579
 30
0.0
 10
359.911360088936
 20
216.1866197101917
 30
0.0
 10
359.4920182868844
 20
215.9170132971803
 30
0.0
 10
359.0527135345438
 20
215.6871746249923
 30
0.0
 10
358.5987891402752
 20
215.5006619545384
 30
0.0
 10
358.1317858014083
 20
215.3573876723616
 30
0.0
 10
357.6570090952893
 20
215.2598466745681
 30
0.0
 10
357.1766359612917
 20
215.2076451990059
 30
0.0
 10
356.69550082347
 20
215.2022567040957
 30
0.0
 10
356.2165673018017
 20
215.2427738574487
 30
0.0
 10
355.743875042228
 20
215.3298427131245
 30
0.0
 10
355.2811508520701
 20
215.4617759560548
 30
0.0
 10
354.8314926883098
 20
215.6386682329076
 30
0.0
 10
354.3991761228048
 20
215.8578246939833
 30
0.0
 10
353.9864049380946
 20
216.1190517725924
 30
0.0
 10
353.5976401575665
 20
216.4185451446083
 30
0.0
 10
353.2343911612607
 20
216.75598348738
 30
0.0
 10
352.9008751996721
 20
217.1265267628331
 30
0.0
 10
352.5981700272342
 20
217.529732292892
 30
0.0
 10
352.3298497479222
 20
217.959975873528
 30
0.0
 10
352.0967873169475
 20
218.4165521272661
 30
0.0
 10
351.9016141225628
 20
218.8934418004818
 30
0.0
 10
351.7410447051014
 20
219.4025153291858
 30
0.0
 10
351.6202198502026
 20
219.9389722766136
 30
0.0
 10
351.5530310264951
 20
220.4404324277202
 30
0.0
 10
351.5238567177613
 20
220.8852811876937
 30
0.0
 10
351.5257569179012
 20
221.142405044498
 30
0.0
 10
351.5267060787441
 20
221.2708398822233
 30
0.0
 11
362.5228063120118
 21
221.2708398822369
 31
0.0
 11
362.5195832100213
 21
221.1697119871966
 31
0.0
 11
362.5148258778618
 21
221.0685469653921
 31
0.0
 11
362.4652105153514
 21
220.5414298574718
 31
0.0
 11
362.3742265979579
 21
220.0198590986657
 31
0.0
 11
362.2428124622444
 21
219.5084796506333
 31
0.0
 11
362.0712958994928
 21
219.0090999519081
 31
0.0
 11
361.8622427466059
 21
218.5288151000997
 31
0.0
 11
361.615178930788
 21
218.0668909527359
 31
0.0
 11
361.3349054905877
 21
217.6320487701536
 31
0.0
 11
361.0196379908033
 21
217.2218039573362
 31
0.0
 11
360.6766013170114
 21
216.8453578746965
 31
0.0
 11
360.3026496600769
 21
216.4995097861568
 31
0.0
 11
359.9070862989501
 21
216.1926890861729
 31
0.0
 11
359.4858837421116
 21
215.9220093742727
 31
0.0
 11
359.0495316732724
 21
215.6940443908024
 31
0.0
 11
358.5940786173522
 21
215.506962844734
 31
0.0
 11
358.1298926788366
 21
215.3648507905307
 31
0.0
 11
357.6543228643152
 21
215.2671287263858
 31
0.0
 11
357.1761785887213
 21
215.2154195648234
 31
0.0
 11
356.6952478864148
 21
215.2099304432093
 31
0.0
 11
356.2176063570909
 21
215.2505238592813
 31
0.0
 11
355.7461403741486
 21
215.3371788238313
 31
0.0
 11
355.2836399056698
 21
215.469155289689
 31
0.0
 11
354.8360022071329
 21
215.6449855389545
 31
0.0
 11
354.4029682372059
 21
215.8645255835455
 31
0.0
 11
353.9926088126312
 21
216.1238893515732
 31
0.0
 11
353.6025192050342
 21
216.4243341699718
 31
0.0
 11
353.2416250599442
 21
216.7591872362525
 31
0.0
 11
352.906596840518
 21
217.1312560404462
 31
0.0
 11
352.605822214793
 21
217.5314359474133
 31
0.0
 11
352.3361761544748
 21
217.9635721763071
 31
0.0
 11
352.1044129407808
 21
218.4170823360996
 31
0.0
 11
351.9083413926779
 21
218.895883485318
 31
0.0
 11
351.752507966736
 21
219.3891968564619
 31
0.0
 11
351.6284350303465
 21
219.9403368052892
 31
0.0
 11
351.5526400623031
 21
220.5004256047045
 31
0.0
 11
351.5285332691414
 21
220.8856392996177
 31
0.0
 11
351.5267060787441
 21
221.2708398822233
 31
0.0
  0
SPLINE
  5
121
330
3E
100
AcDbEntity
  8
1
  6
Continuous
 62
     7
100
AcDbSpline
210
0.0
220
0.0
230
1.0
 70
     8
 71
     3
 72
    45
 73
    41
 74
    39
 42
0.0000000001
 43
0.0000000001
 44
0.00000001
 40
0.0
 40
0.0
 40
0.0
 40
0.0
 40
0.1011792446192496
 40
0.2024560625292956
 40
0.7319030661654461
 40
1.261350069807717
 40
1.789344970290037
 40
2.317358241711252
 40
2.841168092333148
 40
3.365013916029727
 40
3.882354157103779
 40
4.399746080952641
 40
4.909045416020874
 40
5.418408490919972
 40
5.919017434711956
 40
6.41969607448168
 40
6.912008131686044
 40
7.40438704169995
 40
7.889839842150673
 40
8.375346021621828
 40
8.856278226483104
 40
9.337240252922911
 40
9.81660363905425
 40
10.29596702517471
 40
10.77692905162106
 40
11.25786125651923
 40
11.74336743597504
 40
12.22882023646421
 40
12.72119914630666
 40
13.21351120177342
 40
13.71418984408399
 40
14.21479880666886
 40
14.72416185810434
 40
15.23346103565799
 40
15.75085314273762
 40
16.26819455688325
 40
16.83312759427585
 40
17.39832166750308
 40
17.78428893065522
 40
18.16949384685503
 40
18.16949384685503
 40
18.16949384685503
 40
18.16949384685503
 10
362.5228063120118
 20
221.2325519008355
 30
0.0
 10
362.5218387620459
 20
221.2662652832579
 30
0.0
 10
362.519902729047
 20
221.333724559965
 30
0.0
 10
362.5082653748553
 20
221.577420631484
 30
0.0
 10
362.4721644739639
 20
221.9629063051859
 30
0.0
 10
362.3810998293075
 20
222.4845149223858
 30
0.0
 10
362.2495078364052
 20
222.9969229156681
 30
0.0
 10
362.0783073309142
 20
223.4955113792265
 30
0.0
 10
361.868584552201
 20
223.9776547647241
 30
0.0
 10
361.6223574008499
 20
224.4382045467501
 30
0.0
 10
361.3407424410617
 20
224.8754692166028
 30
0.0
 10
361.0268569349647
 20
225.2841083604446
 30
0.0
 10
360.6817564462551
 20
225.663169550785
 30
0.0
 10
360.3095830331411
 20
226.0075411619145
 30
0.0
 10
359.911360088936
 20
226.3167720728807
 30
0.0
 10
359.4920182868846
 20
226.5863784858921
 30
0.0
 10
359.0527135345437
 20
226.81621715808
 30
0.0
 10
358.5987891402752
 20
227.002729828534
 30
0.0
 10
358.1317858014083
 20
227.1460041107108
 30
0.0
 10
357.6570090952894
 20
227.2435451085042
 30
0.0
 10
357.1766359612916
 20
227.2957465840665
 30
0.0
 10
356.69550082347
 20
227.3011350789769
 30
0.0
 10
356.2165673018017
 20
227.2606179256236
 30
0.0
 10
355.743875042228
 20
227.1735490699479
 30
0.0
 10
355.2811508520702
 20
227.0416158270176
 30
0.0
 10
354.8314926883099
 20
226.8647235501648
 30
0.0
 10
354.3991761228047
 20
226.645567089089
 30
0.0
 10
353.9864049380947
 20
226.3843400104799
 30
0.0
 10
353.5976401575666
 20
226.0848466384643
 30
0.0
 10
353.2343911612607
 20
225.7474082956925
 30
0.0
 10
352.9008751996721
 20
225.3768650202394
 30
0.0
 10
352.5981700272344
 20
224.9736594901804
 30
0.0
 10
352.3298497479223
 20
224.5434159095444
 30
0.0
 10
352.0967873169476
 20
224.0868396558062
 30
0.0
 10
351.9016141225627
 20
223.6099499825907
 30
0.0
 10
351.7410447051014
 20
223.1008764538865
 30
0.0
 10
351.6202198502027
 20
222.5644195064589
 30
0.0
 10
351.5530310264951
 20
222.0629593553521
 30
0.0
 10
351.5238567177614
 20
221.6181105953787
 30
0.0
 10
351.5257569179013
 20
221.3609867385744
 30
0.0
 10
351.5267060787441
 20
221.2325519008491
 30
0.0
 11
362.5228063120118
 21
221.2325519008355
 31
0.0
 11
362.5195832100213
 21
221.3336797958758
 31
0.0
 11
362.5148258778618
 21
221.4348448176803
 31
0.0
 11
362.4652105153514
 21
221.9619619256006
 31
0.0
 11
362.3742265979579
 21
222.4835326844066
 31
0.0
 11
362.2428124622444
 21
222.9949121324391
 31
0.0
 11
362.0712958994928
 21
223.4942918311643
 31
0.0
 11
361.8622427466059
 21
223.9745766829726
 31
0.0
 11
361.615178930788
 21
224.4365008303365
 31
0.0
 11
361.3349054905877
 21
224.8713430129187
 31
0.0
 11
361.0196379908033
 21
225.2815878257362
 31
0.0
 11
360.6766013170114
 21
225.6580339083759
 31
0.0
 11
360.3026496600769
 21
226.0038819969157
 31
0.0
 11
359.9070862989501
 21
226.3107026968995
 31
0.0
 11
359.4858837421116
 21
226.5813824087997
 31
0.0
 11
359.0495316732724
 21
226.80934739227
 31
0.0
 11
358.5940786173522
 21
226.9964289383385
 31
0.0
 11
358.1298926788366
 21
227.1385409925417
 31
0.0
 11
357.6543228643152
 21
227.2362630566866
 31
0.0
 11
357.1761785887213
 21
227.287972218249
 31
0.0
 11
356.6952478864148
 21
227.2934613398631
 31
0.0
 11
356.2176063570909
 21
227.252867923791
 31
0.0
 11
355.7461403741486
 21
227.1662129592411
 31
0.0
 11
355.2836399056698
 21
227.0342364933834
 31
0.0
 11
354.8360022071329
 21
226.8584062441179
 31
0.0
 11
354.4029682372059
 21
226.6388661995269
 31
0.0
 11
353.9926088126312
 21
226.3795024314993
 31
0.0
 11
353.6025192050342
 21
226.0790576131007
 31
0.0
 11
353.2416250599442
 21
225.7442045468199
 31
0.0
 11
352.906596840518
 21
225.3721357426263
 31
0.0
 11
352.605822214793
 21
224.9719558356591
 31
0.0
 11
352.3361761544748
 21
224.5398196067653
 31
0.0
 11
352.1044129407808
 21
224.0863094469728
 31
0.0
 11
351.9083413926779
 21
223.6075082977544
 31
0.0
 11
351.752507966736
 21
223.1141949266105
 31
0.0
 11
351.6284350303465
 21
222.5630549777832
 31
0.0
 11
351.5526400623031
 21
222.0029661783679
 31
0.0
 11
351.5285332691414
 21
221.6177524834548
 31
0.0
 11
351.5267060787441
 21
221.2325519008491
 31
0.0
  0
SPLINE
  5
122
330
3E
100
AcDbEntity
  8
1
  6
Continuous
 62
     7
100
AcDbSpline
210
0.0
220
0.0
230
1.0
 70
    11
 71
     3
 72
    79
 73
    75
 74
    73
 42
0.0000000001
 43
0.0000000001
 44
0.00000001
 40
0.0
 40
0.0
 40
0.0
 40
0.0
 40
0.275963640206929
 40
0.55153796881934
 40
0.8510690739231536
 40
1.150110858449201
 40
1.482521986005808
 40
1.814556731454815
 40
2.183472698126977
 40
2.552142504545807
 40
2.956424680011851
 40
3.36055335620567
 40
3.795521897353162
 40
4.230397440195715
 40
4.688892831318983
 40
5.1473353205704
 40
5.620563020003081
 40
6.093766713794482
 40
6.571998916514215
 40
7.050231119233947
 40
7.52343481302529
 40
7.996662512457918
 40
8.455105001709223
 40
8.913600392832533
 40
9.348475935675211
 40
9.783444476822639
 40
10.18757315301645
 40
10.59185532848249
 40
10.96052513490137
 40
11.32944110157356
 40
11.66147584702265
 40
11.99388697457931
 40
12.29292875910529
 40
12.59245986420905
 40
12.86803419282137
 40
13.14399783302834
 40
13.41112511054718
 40
13.67825238806601
 40
13.95421602827295
 40
14.22979035688531
 40
14.52932146198908
 40
14.82836324651513
 40
15.16077437407175
 40
15.4928091195208
 40
15.86172508619302
 40
16.23039489261193
 40
16.63467706807795
 40
17.03880574427174
 40
17.47377428541919
 40
17.9086498282618
 40
18.36714521938515
 40
18.82558770863646
 40
19.29881540806902
 40
19.77201910186042
 40
20.25025130458015
 40
20.7284835073
 40
21.20168720109146
 40
21.67491490052396
 40
22.13335738977532
 40
22.59185278089851
 40
23.02672832374119
 40
23.46169686488868
 40
23.86582554108247
 40
24.27010771654848
 40
24.6387775229673
 40
25.00769348963952
 40
25.33972823508855
 40
25.67213936264519
 40
25.97118114717121
 40
26.27071225227505
 40
26.54628658088737
 40
26.82225022109435
 40
27.08937749861316
 40
27.35650477613202
 40
27.35650477613202
 40
27.35650477613202
 40
27.35650477613202
 10
362.5030776837111
 20
231.4580899178038
 30
0.0
 10
362.4844765221546
 20
231.5483780764604
 30
0.0
 10
362.4473004403532
 20
231.7288270210987
 30
0.0
 10
362.3363350099929
 20
231.9915928434602
 30
0.0
 10
362.1903199461247
 20
232.2444495165606
 30
0.0
 10
362.0012647337062
 20
232.4915383000967
 30
0.0
 10
361.7786495307886
 20
232.7238559498238
 30
0.0
 10
361.516412280231
 20
232.9479466329337
 30
0.0
 10
361.2252046998674
 20
233.1544508471746
 30
0.0
 10
360.8979175336554
 20
233.3494358895235
 30
0.0
 10
360.5466086171993
 20
233.5249266666794
 30
0.0
 10
360.1641879638426
 20
233.6853992529924
 30
0.0
 10
359.7628409566073
 20
233.8249764071109
 30
0.0
 10
359.336808067745
 20
233.9464032347138
 30
0.0
 10
358.8970997027838
 20
234.0459044399034
 30
0.0
 10
358.4402874324289
 20
234.1248432447168
 30
0.0
 10
357.9751990460504
 20
234.1811655947009
 30
0.0
 10
357.5013651278269
 20
234.2154200626575
 30
0.0
 10
357.0247598719351
 20
234.2267092586248
 30
0.0
 10
356.5481546160254
 20
234.2154200626592
 30
0.0
 10
356.074320697855
 20
234.1811655946942
 30
0.0
 10
355.6092323112843
 20
234.1248432447417
 30
0.0
 10
355.1524200416248
 20
234.0459044398142
 30
0.0
 10
354.7127116741299
 20
233.9464032350396
 30
0.0
 10
354.286678794258
 20
233.8249764059645
 30
0.0
 10
353.8853317546256
 20
233.6853992571511
 30
0.0
 10
353.5029112140196
 20
233.5249266523749
 30
0.0
 10
353.1516018954222
 20
233.3494359410706
 30
0.0
 10
352.82431610467
 20
233.1544506734873
 30
0.0
 10
352.5331036577509
 20
232.9479472561546
 30
0.0
 10
352.2708828540485
 20
232.7238538798387
 30
0.0
 10
352.0482096167518
 20
232.4915457333589
 30
0.0
 10
351.8593505255396
 20
232.244424834578
 30
0.0
 10
351.7126382886211
 20
231.9916823249762
 30
0.0
 10
351.6040794158566
 20
231.7285224239363
 30
0.0
 10
351.5401595551093
 20
231.4621072521182
 30
0.0
 10
351.5171853106432
 20
231.1918440443924
 30
0.0
 10
351.5401595551091
 20
230.9215808366666
 30
0.0
 10
351.6040794158565
 20
230.6551656648485
 30
0.0
 10
351.7126382886208
 20
230.3920057638086
 30
0.0
 10
351.8593505255399
 20
230.139263254207
 30
0.0
 10
352.0482096167518
 20
229.8921423554259
 30
0.0
 10
352.2708828540485
 20
229.6598342089461
 30
0.0
 10
352.5331036577511
 20
229.4357408326302
 30
0.0
 10
352.8243161046698
 20
229.2292374152976
 30
0.0
 10
353.1516018954222
 20
229.0342521477143
 30
0.0
 10
353.5029112140196
 20
228.8587614364099
 30
0.0
 10
353.8853317546257
 20
228.6982888316338
 30
0.0
 10
354.286678794258
 20
228.5587116828202
 30
0.0
 10
354.71271167413
 20
228.4372848537452
 30
0.0
 10
355.1524200416249
 20
228.3377836489706
 30
0.0
 10
355.6092323112842
 20
228.2588448440431
 30
0.0
 10
356.0743206978548
 20
228.2025224940908
 30
0.0
 10
356.5481546160261
 20
228.1682680261255
 30
0.0
 10
357.0247598719324
 20
228.1569788301607
 30
0.0
 10
357.5013651278373
 20
228.1682680261254
 30
0.0
 10
357.9751990460125
 20
228.2025224940913
 30
0.0
 10
358.4402874325695
 20
228.2588448440414
 30
0.0
 10
358.897099702278
 20
228.3377836489769
 30
0.0
 10
359.3368080695938
 20
228.4372848537222
 30
0.0
 10
359.7628409501006
 20
228.5587116829012
 30
0.0
 10
360.1641879874452
 20
228.6982888313401
 30
0.0
 10
360.5466085360139
 20
228.8587614374203
 30
0.0
 10
360.8979178262108
 20
229.0342521440738
 30
0.0
 10
361.2252037141019
 20
229.2292374275639
 30
0.0
 10
361.5164158173313
 20
229.4357407886166
 30
0.0
 10
361.7786377825556
 20
229.6598343551341
 30
0.0
 10
362.0013069213061
 20
229.8921418304687
 30
0.0
 10
362.1901798631331
 20
230.1392649973157
 30
0.0
 10
362.3368428637886
 20
230.3919994443798
 30
0.0
 10
362.4455716942176
 20
230.6551871763313
 30
0.0
 10
362.5088744375249
 20
230.9215012939193
 30
0.0
 10
362.5340830453627
 20
231.1921303831707
 30
0.0
 10
362.5134128042617
 20
231.3694367395927
 30
0.0
 10
362.5030776837111
 20
231.4580899178038
 30
0.0
 11
362.5030776837111
 21
231.4580899178038
 31
0.0
 11
362.4385780825584
 21
231.7264101223494
 31
0.0
 11
362.3346185685247
 21
231.9816230335276
 31
0.0
 11
362.1848372744953
 21
232.241015490788
 31
0.0
 11
362.0040783864549
 21
232.4792427211521
 31
0.0
 11
361.7747843122359
 21
232.7199113423961
 31
0.0
 11
361.5228647445269
 21
232.9362065193897
 31
0.0
 11
361.222485917741
 21
233.1503829674048
 31
0.0
 11
360.9060440877178
 21
233.3395442593661
 31
0.0
 11
360.5447214084658
 21
233.5209002597017
 31
0.0
 11
360.1722192519685
 21
233.6776233605102
 31
0.0
 11
359.7615740132787
 21
233.8210392582669
 31
0.0
 11
359.3434210034772
 21
233.9404745887036
 31
0.0
 11
358.8963191002013
 21
234.0420517109723
 31
0.0
 11
358.4445930554256
 21
234.1202380040313
 31
0.0
 11
357.974826688315
 21
234.1773695701057
 31
0.0
 11
357.5028553646127
 21
234.21149881593
 31
0.0
 11
357.0247598719321
 21
234.222932957638
 31
0.0
 11
356.5466643792514
 21
234.21149881593
 31
0.0
 11
356.0746930555492
 21
234.1773695701058
 31
0.0
 11
355.6049266884387
 21
234.1202380040313
 31
0.0
 11
355.1532006436631
 21
234.0420517109723
 31
0.0
 11
354.7060987403872
 21
233.9404745887036
 31
0.0
 11
354.2879457305855
 21
233.8210392582669
 31
0.0
 11
353.8773004918958
 21
233.6776233605102
 31
0.0
 11
353.5047983353985
 21
233.5209002597018
 31
0.0
 11
353.1434756561465
 21
233.3395442593661
 31
0.0
 11
352.8270338261233
 21
233.1503829674048
 31
0.0
 11
352.5266549993373
 21
232.9362065193897
 31
0.0
 11
352.2747354316282
 21
232.719911342396
 31
0.0
 11
352.0454413574092
 21
232.479242721152
 31
0.0
 11
351.8646824693689
 21
232.2410154907879
 31
0.0
 11
351.7149011753395
 21
231.9816230335276
 31
0.0
 11
351.610941661306
 21
231.7264101223494
 31
0.0
 11
351.5464420601531
 21
231.4580899178038
 31
0.0
 11
351.5247598719321
 21
231.1918440443924
 31
0.0
 11
351.546442060153
 21
230.9255981709811
 31
0.0
 11
351.6109416613058
 21
230.6572779664355
 31
0.0
 11
351.7149011753394
 21
230.4020650552573
 31
0.0
 11
351.864682469369
 21
230.142672597997
 31
0.0
 11
352.0454413574092
 21
229.9044453676328
 31
0.0
 11
352.2747354316283
 21
229.6637767463888
 31
0.0
 11
352.5266549993373
 21
229.4474815693952
 31
0.0
 11
352.8270338261233
 21
229.23330512138
 31
0.0
 11
353.1434756561466
 21
229.0441438294187
 31
0.0
 11
353.5047983353985
 21
228.8627878290831
 31
0.0
 11
353.8773004918958
 21
228.7060647282746
 31
0.0
 11
354.2879457305855
 21
228.5626488305179
 31
0.0
 11
354.7060987403871
 21
228.4432135000811
 31
0.0
 11
355.1532006436631
 21
228.3416363778125
 31
0.0
 11
355.6049266884387
 21
228.2634500847535
 31
0.0
 11
356.0746930555491
 21
228.2063185186792
 31
0.0
 11
356.5466643792514
 21
228.1721892728549
 31
0.0
 11
357.0247598719321
 21
228.1607551311469
 31
0.0
 11
357.5028553646129
 21
228.1721892728549
 31
0.0
 11
357.9748266883152
 21
228.2063185186792
 31
0.0
 11
358.4445930554256
 21
228.2634500847535
 31
0.0
 11
358.8963191002013
 21
228.3416363778125
 31
0.0
 11
359.343421003477
 21
228.4432135000811
 31
0.0
 11
359.7615740132787
 21
228.5626488305179
 31
0.0
 11
360.1722192519685
 21
228.7060647282746
 31
0.0
 11
360.5447214084658
 21
228.8627878290831
 31
0.0
 11
360.9060440877177
 21
229.0441438294187
 31
0.0
 11
361.2224859177409
 21
229.23330512138
 31
0.0
 11
361.5228647445268
 21
229.4474815693952
 31
0.0
 11
361.7747843122359
 21
229.6637767463888
 31
0.0
 11
362.0040783864549
 21
229.9044453676328
 31
0.0
 11
362.1848372744952
 21
230.1426725979969
 31
0.0
 11
362.3346185685248
 21
230.4020650552573
 31
0.0
 11
362.4385780825584
 21
230.6572779664354
 31
0.0
 11
362.5030776837111
 21
230.9255981709811
 31
0.0
 11
362.5247598719321
 21
231.1918440443924
 31
0.0
 11
362.5030776837111
 21
231.4580899178038
 31
0.0
  0
SPLINE
  5
123
330
3E
100
AcDbEntity
  8
1
  6
Continuous
 62
     7
100
AcDbSpline
210
0.0
220
0.0
230
1.0
 70
    11
 71
     3
 72
    79
 73
    75
 74
    73
 42
0.0000000001
 43
0.0000000001
 44
0.00000001
 40
0.0
 40
0.0
 40
0.0
 40
0.0
 40
0.4588751779003764
 40
0.9177391734413567
 40
1.37851272923249
 40
1.839265714035731
 40
2.302929211933791
 40
2.766565879535384
 40
3.233748304548322
 40
3.700901393799567
 40
4.171798771241019
 40
4.642667994882277
 40
5.117029036471761
 40
5.591366244295785
 40
6.068531294154292
 40
6.545679187007353
 40
7.024663909352353
 40
7.503639681366262
 40
7.983251748455113
 40
8.462863815544077
 40
8.941839587557979
 40
9.420824309903042
 40
9.89797220275611
 40
10.37513725261452
 40
10.84947446043853
 40
11.32383550202802
 40
11.7947047256694
 40
12.26560210311079
 40
12.73275519236202
 40
13.19993761737501
 40
13.66357428497661
 40
14.12723778287466
 40
14.58799076767783
 40
15.04876432346901
 40
15.50762831901002
 40
15.96650349691037
 40
16.4247136481037
 40
16.88292379929706
 40
17.34179897719746
 40
17.80066297273848
 40
18.26143652852968
 40
18.72218951333285
 40
19.18585301123089
 40
19.6494896788325
 40
20.11667210384541
 40
20.58382519309671
 40
21.0547225705381
 40
21.52559179417942
 40
21.99995283576887
 40
22.47429004359288
 40
22.95145509345145
 40
23.42860298630445
 40
23.9075877086494
 40
24.3865634806633
 40
24.86617554775221
 40
25.34578761484124
 40
25.82476338685514
 40
26.30374810920016
 40
26.78089600205318
 40
27.25806105191175
 40
27.73239825973569
 40
28.20675930132518
 40
28.67762852496643
 40
29.14852590240793
 40
29.61567899165921
 40
30.08286141667213
 40
30.54649808427378
 40
31.01016158217175
 40
31.47091456697492
 40
31.93168812276608
 40
32.39055211830712
 40
32.84942729620754
 40
33.30763744740087
 40
33.76584759859423
 40
33.76584759859423
 40
33.76584759859423
 40
33.76584759859423
 10
169.1082025629505
 20
424.7156850778196
 30
0.0
 10
169.2602108038863
 20
424.6977173144762
 30
0.0
 10
169.5642235814588
 20
424.6617822256468
 30
0.0
 10
170.0121601939716
 20
424.5550882392637
 30
0.0
 10
170.4497399589503
 20
424.4112318497352
 30
0.0
 10
170.8737473947869
 20
424.2267360428109
 30
0.0
 10
171.280486271659
 20
424.0049271612741
 30
0.0
 10
171.6674408986106
 20
423.7462683241916
 30
0.0
 10
172.0310587016446
 20
423.453873641398
 30
0.0
 10
172.3691761404971
 20
423.1288438404699
 30
0.0
 10
172.6786925148208
 20
422.7748404679536
 30
0.0
 10
172.9577253698651
 20
422.3933776867469
 30
0.0
 10
173.2038157706925
 20
421.9885375260337
 30
0.0
 10
173.4153431237337
 20
421.5622799181717
 30
0.0
 10
173.5906028720058
 20
421.1188764323455
 30
0.0
 10
173.7282694156496
 20
420.6607899736592
 30
0.0
 10
173.8274213615122
 20
420.1922380546614
 30
0.0
 10
173.8871132931728
 20
419.7162205550086
 30
0.0
 10
173.9071586127614
 20
419.2366850435143
 30
0.0
 10
173.8871132931733
 20
418.7571495320115
 30
0.0
 10
173.8274213615105
 20
418.2811320323839
 30
0.0
 10
173.7282694156562
 20
417.8125801132939
 30
0.0
 10
173.5906028719811
 20
417.3544936549496
 30
0.0
 10
173.4153431238257
 20
416.9110901678511
 30
0.0
 10
173.2038157703515
 20
416.4848325647103
 30
0.0
 10
172.9577253711345
 20
416.0799923864426
 30
0.0
 10
172.678692510122
 20
415.6985296702882
 30
0.0
 10
172.3691761579798
 20
415.3445260559977
 30
0.0
 10
172.0310586369723
 20
415.0194971505377
 30
0.0
 10
171.667441139278
 20
414.7270991396283
 30
0.0
 10
171.2804853810249
 20
414.4684526334118
 30
0.0
 10
170.8737507109199
 20
414.2465978993
 30
0.0
 10
170.4497276689938
 20
414.0622721943522
 30
0.0
 10
170.0122059923176
 20
413.9177826586984
 30
0.0
 10
169.5640534440042
 20
413.8134423116807
 30
0.0
 10
169.1090575398785
 20
413.7507932337112
 30
0.0
 10
168.6504738833842
 20
413.7296360637083
 30
0.0
 10
168.1918902268899
 20
413.7507932337113
 30
0.0
 10
167.7368943227641
 20
413.8134423116805
 30
0.0
 10
167.2887417744507
 20
413.9177826586985
 30
0.0
 10
166.8512200977745
 20
414.0622721943521
 30
0.0
 10
166.4271970558485
 20
414.2465978992999
 30
0.0
 10
166.0204623857433
 20
414.4684526334116
 30
0.0
 10
165.6335066274904
 20
414.7270991396282
 30
0.0
 10
165.2698891297959
 20
415.0194971505376
 30
0.0
 10
164.9317716087885
 20
415.3445260559976
 30
0.0
 10
164.6222552566463
 20
415.6985296702881
 30
0.0
 10
164.3432223956338
 20
416.0799923864425
 30
0.0
 10
164.0971319964169
 20
416.4848325647103
 30
0.0
 10
163.8856046429426
 20
416.9110901678509
 30
0.0
 10
163.7103448947873
 20
417.3544936549498
 30
0.0
 10
163.572678351112
 20
417.8125801132939
 30
0.0
 10
163.4735264052579
 20
418.2811320323838
 30
0.0
 10
163.413834473595
 20
418.7571495320117
 30
0.0
 10
163.3937891540069
 20
419.2366850435128
 30
0.0
 10
163.4138344735949
 20
419.7162205550136
 30
0.0
 10
163.4735264052579
 20
420.1922380546433
 30
0.0
 10
163.5726783511116
 20
420.6607899737264
 30
0.0
 10
163.7103448947891
 20
421.1188764320954
 30
0.0
 10
163.8856046429361
 20
421.5622799191027
 30
0.0
 10
164.0971319964414
 20
421.9885375225823
 30
0.0
 10
164.3432223955428
 20
422.3933776995905
 30
0.0
 10
164.6222552569835
 20
422.7748404204119
 30
0.0
 10
164.9317716075341
 20
423.1288440173566
 30
0.0
 10
165.2698891344359
 20
423.4538729870614
 30
0.0
 10
165.6335066102238
 20
423.7462707591974
 30
0.0
 10
166.0204624496413
 20
424.004918150083
 30
0.0
 10
166.427196817935
 20
424.2267695945353
 30
0.0
 10
166.8512209795084
 20
424.4111075033248
 30
0.0
 10
167.288738488682
 20
424.5555516143738
 30
0.0
 10
167.736906529151
 20
424.6600608215223
 30
0.0
 10
168.1918446923555
 20
424.7220805397242
 30
0.0
 10
168.6506435479881
 20
424.74558331968
 30
0.0
 10
168.9556828912963
 20
424.7256511584397
 30
0.0
 10
169.1082025629505
 20
424.7156850778196
 30
0.0
 11
169.1082025629505
 21
424.7156850778196
 31
0.0
 11
169.5627770448725
 21
424.6530075756484
 31
0.0
 11
170.0097206748735
 21
424.5490962769106
 31
0.0
 11
170.4472360086562
 21
424.4045535412873
 31
0.0
 11
170.869854430907
 21
424.2210134034992
 31
0.0
 11
171.2768916968357
 21
423.9989672294084
 31
0.0
 11
171.6624419457529
 21
423.741460015714
 31
0.0
 11
172.0265133445459
 21
423.4486948626957
 31
0.0
 11
172.36340606036
 21
423.125066515933
 31
0.0
 11
172.6733670081717
 21
422.7705689123968
 31
0.0
 11
172.9514820418692
 21
422.3906085805147
 31
0.0
 11
173.1978889289705
 21
421.9852666954758
 31
0.0
 11
173.4088523324184
 21
421.5604252790249
 31
0.0
 11
173.5842523051097
 21
421.1166670854258
 31
0.0
 11
173.7216737261448
 21
420.6597366041764
 31
0.0
 11
173.8208197153828
 21
420.191125425204
 31
0.0
 11
173.8804849981264
 21
419.7158803892368
 31
0.0
 11
173.9004738833842
 21
419.2366850435129
 31
0.0
 11
173.8804849981264
 21
418.757489697789
 31
0.0
 11
173.8208197153829
 21
418.2822446618218
 31
0.0
 11
173.7216737261448
 21
417.8136334828493
 31
0.0
 11
173.5842523051097
 21
417.3567030015999
 31
0.0
 11
173.4088523324184
 21
416.9129448080009
 31
0.0
 11
173.1978889289706
 21
416.48810339155
 31
0.0
 11
172.9514820418693
 21
416.0827615065111
 31
0.0
 11
172.6733670081717
 21
415.7028011746289
 31
0.0
 11
172.36340606036
 21
415.3483035710927
 31
0.0
 11
172.0265133445459
 21
415.0246752243301
 31
0.0
 11
171.6624419457529
 21
414.7319100713116
 31
0.0
 11
171.2768916968357
 21
414.4744028576172
 31
0.0
 11
170.869854430907
 21
414.2523566835264
 31
0.0
 11
170.4472360086562
 21
414.0688165457385
 31
0.0
 11
170.0097206748735
 21
413.9242738101151
 31
0.0
 11
169.5627770448725
 21
413.8203625113773
 31
0.0
 11
169.1082025629505
 21
413.7576850092062
 31
0.0
 11
168.6504738833842
 21
413.7366850435129
 31
0.0
 11
168.1927452038179
 21
413.7576850092062
 31
0.0
 11
167.7381707218958
 21
413.8203625113773
 31
0.0
 11
167.2912270918948
 21
413.9242738101151
 31
0.0
 11
166.8537117581121
 21
414.0688165457385
 31
0.0
 11
166.4310933358613
 21
414.2523566835264
 31
0.0
 11
166.0240560699326
 21
414.4744028576172
 31
0.0
 11
165.6385058210154
 21
414.7319100713116
 31
0.0
 11
165.2744344222224
 21
415.0246752243299
 31
0.0
 11
164.9375417064083
 21
415.3483035710927
 31
0.0
 11
164.6275807585966
 21
415.7028011746289
 31
0.0
 11
164.3494657248991
 21
416.082761506511
 31
0.0
 11
164.1030588377977
 21
416.4881033915499
 31
0.0
 11
163.8920954343499
 21
416.9129448080008
 31
0.0
 11
163.7166954616586
 21
417.3567030016
 31
0.0
 11
163.5792740406235
 21
417.8136334828493
 31
0.0
 11
163.4801280513854
 21
418.2822446618217
 31
0.0
 11
163.4204627686419
 21
418.7574896977889
 31
0.0
 11
163.400473883384
 21
419.2366850435128
 31
0.0
 11
163.4204627686419
 21
419.7158803892368
 31
0.0
 11
163.4801280513854
 21
420.191125425204
 31
0.0
 11
163.5792740406235
 21
420.6597366041764
 31
0.0
 11
163.7166954616587
 21
421.1166670854257
 31
0.0
 11
163.89209543435
 21
421.5604252790249
 31
0.0
 11
164.1030588377978
 21
421.9852666954757
 31
0.0
 11
164.3494657248991
 21
422.3906085805147
 31
0.0
 11
164.6275807585966
 21
422.7705689123968
 31
0.0
 11
164.9375417064083
 21
423.125066515933
 31
0.0
 11
165.2744344222224
 21
423.4486948626957
 31
0.0
 11
165.6385058210154
 21
423.7414600157141
 31
0.0
 11
166.0240560699326
 21
423.9989672294086
 31
0.0
 11
166.4310933358613
 21
424.2210134034992
 31
0.0
 11
166.8537117581121
 21
424.4045535412872
 31
0.0
 11
167.2912270918948
 21
424.5490962769105
 31
0.0
 11
167.7381707218958
 21
424.6530075756483
 31
0.0
 11
168.1927452038179
 21
424.7156850778196
 31
0.0
 11
168.6504738833842
 21
424.7366850435129
 31
0.0
 11
169.1082025629505
 21
424.7156850778196
 31
0.0
  0
SPLINE
  5
124
330
3E
100
AcDbEntity
  8
1
  6
Continuous
 62
     7
100
AcDbSpline
210
0.0
220
0.0
230
1.0
 70
    11
 71
     3
 72
    79
 73
    75
 74
    73
 42
0.0000000001
 43
0.0000000001
 44
0.00000001
 40
0.0
 40
0.0
 40
0.0
 40
0.0
 40
0.4588751779003201
 40
0.9177391734413003
 40
1.378512729232461
 40
1.839265714035702
 40
2.302929211933762
 40
2.766565879535355
 40
3.233748304548271
 40
3.700901393799557
 40
4.171798771241027
 40
4.642667994882302
 40
5.117029036471742
 40
5.59136624429574
 40
6.068531294154258
 40
6.545679187007326
 40
7.024663909352332
 40
7.503639681366245
 40
7.983251748455099
 40
8.462863815544067
 40
8.941839587557983
 40
9.420824309903038
 40
9.897972202756106
 40
10.37513725261454
 40
10.84947446043853
 40
11.32383550202797
 40
11.7947047256693
 40
12.26560210311071
 40
12.73275519236199
 40
13.19993761737494
 40
13.66357428497654
 40
14.12723778287457
 40
14.58799076767772
 40
15.04876432346892
 40
15.50762831900998
 40
15.96650349691033
 40
16.42471364810369
 40
16.88292379929705
 40
17.34179897719742
 40
17.80066297273838
 40
18.26143652852954
 40
18.72218951333276
 40
19.18585301123084
 40
19.64948967883244
 40
20.11667210384534
 40
20.58382519309664
 40
21.05472257053803
 40
21.52559179417935
 40
21.9999528357688
 40
22.4742900435928
 40
22.95145509345135
 40
23.42860298630437
 40
23.90758770864932
 40
24.38656348066323
 40
24.86617554775214
 40
25.34578761484117
 40
25.82476338685508
 40
26.30374810920009
 40
26.78089600205309
 40
27.25806105191165
 40
27.7323982597356
 40
28.2067593013251
 40
28.67762852496641
 40
29.14852590240785
 40
29.61567899165911
 40
30.08286141667205
 40
30.54649808427367
 40
31.0101615821717
 40
31.47091456697484
 40
31.93168812276601
 40
32.39055211830701
 40
32.84942729620743
 40
33.30763744740079
 40
33.76584759859412
 40
33.76584759859412
 40
33.76584759859412
 40
33.76584759859412
 10
156.6927452038174
 20
424.7156850778196
 30
0.0
 10
156.5407369628817
 20
424.6977173144762
 30
0.0
 10
156.2367241853091
 20
424.661782225647
 30
0.0
 10
155.7887875727964
 20
424.5550882392637
 30
0.0
 10
155.3512078078177
 20
424.4112318497352
 30
0.0
 10
154.9272003719811
 20
424.2267360428108
 30
0.0
 10
154.520461495109
 20
424.004927161274
 30
0.0
 10
154.1335068681573
 20
423.7462683241917
 30
0.0
 10
153.7698890651234
 20
423.453873641398
 30
0.0
 10
153.4317716262709
 20
423.1288438404698
 30
0.0
 10
153.1222552519471
 20
422.7748404679537
 30
0.0
 10
152.8432223969028
 20
422.3933776867471
 30
0.0
 10
152.5971319960754
 20
421.9885375260335
 30
0.0
 10
152.3856046430343
 20
421.5622799181718
 30
0.0
 10
152.2103448947622
 20
421.1188764323454
 30
0.0
 10
152.0726783511184
 20
420.6607899736592
 30
0.0
 10
151.9735264052557
 20
420.1922380546613
 30
0.0
 10
151.9138344735951
 20
419.7162205550087
 30
0.0
 10
151.8937891540064
 20
419.2366850435143
 30
0.0
 10
151.9138344735946
 20
418.7571495320115
 30
0.0
 10
151.9735264052575
 20
418.2811320323839
 30
0.0
 10
152.0726783511117
 20
417.8125801132941
 30
0.0
 10
152.2103448947869
 20
417.3544936549495
 30
0.0
 10
152.3856046429424
 20
416.9110901678511
 30
0.0
 10
152.5971319964166
 20
416.4848325647103
 30
0.0
 10
152.8432223956334
 20
416.0799923864425
 30
0.0
 10
153.1222552566458
 20
415.6985296702882
 30
0.0
 10
153.4317716087879
 20
415.3445260559976
 30
0.0
 10
153.7698891297957
 20
415.0194971505379
 30
0.0
 10
154.13350662749
 20
414.7270991396281
 30
0.0
 10
154.520462385743
 20
414.4684526334119
 30
0.0
 10
154.927197055848
 20
414.2465978993
 30
0.0
 10
155.351220097774
 20
414.062272194352
 30
0.0
 10
155.7887417744503
 20
413.9177826586986
 30
0.0
 10
156.2368943227637
 20
413.8134423116805
 30
0.0
 10
156.6918902268894
 20
413.7507932337112
 30
0.0
 10
157.1504738833837
 20
413.7296360637083
 30
0.0
 10
157.6090575398781
 20
413.7507932337112
 30
0.0
 10
158.0640534440038
 20
413.8134423116804
 30
0.0
 10
158.5122059923172
 20
413.9177826586986
 30
0.0
 10
158.9497276689933
 20
414.0622721943521
 30
0.0
 10
159.3737507109194
 20
414.2465978993
 30
0.0
 10
159.7804853810245
 20
414.4684526334117
 30
0.0
 10
160.1674411392775
 20
414.727099139628
 30
0.0
 10
160.531058636972
 20
415.0194971505376
 30
0.0
 10
160.8691761579794
 20
415.3445260559977
 30
0.0
 10
161.1786925101216
 20
415.6985296702881
 30
0.0
 10
161.457725371134
 20
416.0799923864425
 30
0.0
 10
161.703815770351
 20
416.4848325647101
 30
0.0
 10
161.9153431238252
 20
416.9110901678508
 30
0.0
 10
162.0906028719805
 20
417.3544936549497
 30
0.0
 10
162.2282694156558
 20
417.8125801132938
 30
0.0
 10
162.32742136151
 20
418.2811320323838
 30
0.0
 10
162.3871132931729
 20
418.7571495320116
 30
0.0
 10
162.4071586127611
 20
419.2366850435129
 30
0.0
 10
162.387113293173
 20
419.7162205550136
 30
0.0
 10
162.3274213615099
 20
420.1922380546432
 30
0.0
 10
162.2282694156562
 20
420.6607899737265
 30
0.0
 10
162.0906028719788
 20
421.1188764320953
 30
0.0
 10
161.9153431238318
 20
421.5622799191027
 30
0.0
 10
161.7038157703265
 20
421.9885375225824
 30
0.0
 10
161.4577253712251
 20
422.3933776995903
 30
0.0
 10
161.1786925097844
 20
422.774840420412
 30
0.0
 10
160.8691761592338
 20
423.1288440173565
 30
0.0
 10
160.531058632332
 20
423.4538729870614
 30
0.0
 10
160.167441156544
 20
423.7462707591976
 30
0.0
 10
159.7804853171266
 20
424.004918150083
 30
0.0
 10
159.3737509488329
 20
424.2267695945352
 30
0.0
 10
158.9497267872595
 20
424.4111075033247
 30
0.0
 10
158.512209278086
 20
424.5555516143738
 30
0.0
 10
158.0640412376168
 20
424.6600608215223
 30
0.0
 10
157.6091030744125
 20
424.7220805397242
 30
0.0
 10
157.1503042187798
 20
424.74558331968
 30
0.0
 10
156.8452648754715
 20
424.7256511584397
 30
0.0
 10
156.6927452038174
 20
424.7156850778196
 30
0.0
 11
156.6927452038174
 21
424.7156850778196
 31
0.0
 11
156.2381707218954
 21
424.6530075756484
 31
0.0
 11
155.7912270918945
 21
424.5490962769106
 31
0.0
 11
155.3537117581118
 21
424.4045535412873
 31
0.0
 11
154.9310933358609
 21
424.2210134034992
 31
0.0
 11
154.5240560699322
 21
423.9989672294084
 31
0.0
 11
154.1385058210151
 21
423.741460015714
 31
0.0
 11
153.7744344222221
 21
423.4486948626957
 31
0.0
 11
153.4375417064079
 21
423.125066515933
 31
0.0
 11
153.1275807585961
 21
422.7705689123968
 31
0.0
 11
152.8494657248986
 21
422.3906085805147
 31
0.0
 11
152.6030588377974
 21
421.9852666954758
 31
0.0
 11
152.3920954343496
 21
421.5604252790249
 31
0.0
 11
152.2166954616583
 21
421.1166670854258
 31
0.0
 11
152.0792740406232
 21
420.6597366041764
 31
0.0
 11
151.9801280513851
 21
420.191125425204
 31
0.0
 11
151.9204627686415
 21
419.7158803892368
 31
0.0
 11
151.9004738833836
 21
419.2366850435129
 31
0.0
 11
151.9204627686415
 21
418.757489697789
 31
0.0
 11
151.9801280513851
 21
418.2822446618218
 31
0.0
 11
152.0792740406232
 21
417.8136334828493
 31
0.0
 11
152.2166954616583
 21
417.3567030015999
 31
0.0
 11
152.3920954343496
 21
416.9129448080009
 31
0.0
 11
152.6030588377974
 21
416.48810339155
 31
0.0
 11
152.8494657248986
 21
416.0827615065111
 31
0.0
 11
153.1275807585961
 21
415.7028011746289
 31
0.0
 11
153.4375417064078
 21
415.3483035710927
 31
0.0
 11
153.774434422222
 21
415.0246752243301
 31
0.0
 11
154.138505821015
 21
414.7319100713116
 31
0.0
 11
154.5240560699322
 21
414.4744028576172
 31
0.0
 11
154.9310933358608
 21
414.2523566835264
 31
0.0
 11
155.3537117581116
 21
414.0688165457385
 31
0.0
 11
155.7912270918943
 21
413.9242738101151
 31
0.0
 11
156.2381707218954
 21
413.8203625113773
 31
0.0
 11
156.6927452038174
 21
413.7576850092062
 31
0.0
 11
157.1504738833837
 21
413.7366850435129
 31
0.0
 11
157.6082025629501
 21
413.7576850092062
 31
0.0
 11
158.0627770448721
 21
413.8203625113773
 31
0.0
 11
158.5097206748731
 21
413.9242738101151
 31
0.0
 11
158.9472360086557
 21
414.0688165457385
 31
0.0
 11
159.3698544309066
 21
414.2523566835264
 31
0.0
 11
159.7768916968353
 21
414.4744028576172
 31
0.0
 11
160.1624419457525
 21
414.7319100713116
 31
0.0
 11
160.5265133445455
 21
415.0246752243299
 31
0.0
 11
160.8634060603596
 21
415.3483035710927
 31
0.0
 11
161.1733670081713
 21
415.7028011746289
 31
0.0
 11
161.4514820418688
 21
416.082761506511
 31
0.0
 11
161.6978889289701
 21
416.4881033915499
 31
0.0
 11
161.908852332418
 21
416.9129448080008
 31
0.0
 11
162.0842523051092
 21
417.3567030016
 31
0.0
 11
162.2216737261443
 21
417.8136334828493
 31
0.0
 11
162.3208197153824
 21
418.2822446618217
 31
0.0
 11
162.380484998126
 21
418.7574896977889
 31
0.0
 11
162.4004738833839
 21
419.2366850435128
 31
0.0
 11
162.380484998126
 21
419.7158803892368
 31
0.0
 11
162.3208197153824
 21
420.191125425204
 31
0.0
 11
162.2216737261443
 21
420.6597366041764
 31
0.0
 11
162.0842523051092
 21
421.1166670854257
 31
0.0
 11
161.908852332418
 21
421.5604252790249
 31
0.0
 11
161.6978889289701
 21
421.9852666954757
 31
0.0
 11
161.4514820418688
 21
422.3906085805147
 31
0.0
 11
161.1733670081712
 21
422.7705689123968
 31
0.0
 11
160.8634060603596
 21
423.125066515933
 31
0.0
 11
160.5265133445455
 21
423.4486948626957
 31
0.0
 11
160.1624419457525
 21
423.7414600157141
 31
0.0
 11
159.7768916968353
 21
423.9989672294086
 31
0.0
 11
159.3698544309066
 21
424.2210134034992
 31
0.0
 11
158.9472360086558
 21
424.4045535412872
 31
0.0
 11
158.5097206748731
 21
424.5490962769105
 31
0.0
 11
158.0627770448721
 21
424.6530075756483
 31
0.0
 11
157.60820256295
 21
424.7156850778196
 31
0.0
 11
157.1504738833837
 21
424.7366850435129
 31
0.0
 11
156.6927452038174
 21
424.7156850778196
 31
0.0
  0
ARC
  5
125
330
3E
100
AcDbEntity
  8
1
  6
Continuous
 62
     7
100
AcDbCircle
 10
168.4004738833837
 20
435.7366850435128
 30
0.0
 40
1.0
100
AcDbArc
 50
0.0
 51
90.0
  0
ARC
  5
126
330
3E
100
AcDbEntity
  8
1
  6
Continuous
 62
     7
100
AcDbCircle
 10
157.4004738833839
 20
435.7366850435128
 30
0.0
 40
1.0
100
AcDbArc
 50
90.0
 51
180.0
  0
ARC
  5
127
330
3E
100
AcDbEntity
  8
1
  6
Continuous
 62
     7
100
AcDbCircle
 10
373.5247598719321
 20
226.7325519008713
 30
0.0
 40
1.0
100
AcDbArc
 50
0.0
 51
90.0
  0
ARC
  5
128
330
3E
100
AcDbEntity
  8
1
  6
Continuous
 62
     7
100
AcDbCircle
 10
373.5247598719321
 20
215.7325519008713
 30
0.0
 40
1.0
100
AcDbArc
 50
-90.0
 51
0.0
  0
ARC
  5
129
330
3E
100
AcDbEntity
  8
1
  6
Continuous
 62
     7
100
AcDbCircle
 10
373.5247598719321
 20
226.7325519008713
 30
0.0
 40
1.0
100
AcDbArc
 50
0.0
 51
90.0
  0
ENDBLK
  5
40
330
3E
100
AcDbEntity
  8
0
100
AcDbBlockEnd
  0
BLOCK
  5
42
330
41
100
AcDbEntity
  8
0
100
AcDbBlockBegin
  2
84-9
 70
     0
 71
     0
 10
95.59005247482764
 20
148.5460412831939
 30
0.0
  3
84-9
  1

  0
LINE
  5
12A
330
41
100
AcDbEntity
  8
1
  6
Continuous
 62
     7
100
AcDbLine
 10
319.0247598719332
 20
304.7779960161864
 30
0.0
 11
319.0247598719332
 21
303.7325519008714
 31
0.0
  0
LINE
  5
12B
330
41
100
AcDbEntity
  8
1
  6
Continuous
 62
     7
100
AcDbLine
 10
339.0247598719332
 20
303.7325519008714
 30
0.0
 11
339.0247598719332
 21
304.7779960161864
 31
0.0
  0
LINE
  5
12C
330
41
100
AcDbEntity
  8
1
  6
Continuous
 62
     7
100
AcDbLine
 10
172.900473883385
 20
303.7325519008714
 30
0.0
 11
172.900473883385
 21
304.7779960161864
 31
0.0
  0
LINE
  5
12D
330
41
100
AcDbEntity
  8
1
  6
Continuous
 62
     7
100
AcDbLine
 10
152.900473883385
 20
304.7779960161864
 30
0.0
 11
152.900473883385
 21
303.7325519008714
 31
0.0
  0
ARC
  5
12E
330
41
100
AcDbEntity
  8
1
  6
Continuous
 62
     7
100
AcDbCircle
 10
329.0247598719332
 20
205.7325519008714
 30
0.0
 40
99.99999999999997
100
AcDbArc
 50
90.0
 51
95.47879696761785
  0
ARC
  5
12F
330
41
100
AcDbEntity
  8
1
  6
Continuous
 62
     7
100
AcDbCircle
 10
329.0247598719332
 20
205.7325519008714
 30
0.0
 40
100.0
100
AcDbArc
 50
84.52120303238215
 51
90.0
  0
ARC
  5
130
330
41
100
AcDbEntity
  8
1
  6
Continuous
 62
     7
100
AcDbCircle
 10
162.900473883385
 20
205.7325519008714
 30
0.0
 40
100.0
100
AcDbArc
 50
84.52120303238215
 51
90.0
  0
ARC
  5
131
330
41
100
AcDbEntity
  8
1
  6
Continuous
 62
     7
100
AcDbCircle
 10
162.900473883385
 20
205.7325519008714
 30
0.0
 40
99.99999999999997
100
AcDbArc
 50
90.0
 51
95.47879696761784
  0
CIRCLE
  5
132
330
41
100
AcDbEntity
  8
1
  6
Continuous
 62
     7
100
AcDbCircle
 10
162.9004738833845
 20
391.2325519008713
 30
0.0
 40
7.0
  0
CIRCLE
  5
133
330
41
100
AcDbEntity
  8
1
  6
Continuous
 62
     7
100
AcDbCircle
 10
162.9004738833845
 20
391.2325519008713
 30
0.0
 40
9.0
  0
CIRCLE
  5
134
330
41
100
AcDbEntity
  8
1
  6
Continuous
 62
     7
100
AcDbCircle
 10
162.9004738833845
 20
391.2325519008713
 30
0.0
 40
10.0
  0
ARC
  5
135
330
41
100
AcDbEntity
  8
1
  6
Continuous
 62
     7
100
AcDbCircle
 10
338.5247598719332
 20
304.7779960161864
 30
0.0
 40
0.5
100
AcDbArc
 50
0.0
 51
84.52120303237464
  0
ARC
  5
136
330
41
100
AcDbEntity
  8
1
  6
Continuous
 62
     7
100
AcDbCircle
 10
319.5247598719332
 20
304.7779960161864
 30
0.0
 40
0.5000000000000664
100
AcDbArc
 50
95.47879696762537
 51
180.0
  0
ARC
  5
137
330
41
100
AcDbEntity
  8
1
  6
Continuous
 62
     7
100
AcDbCircle
 10
153.400473883385
 20
304.7779960161864
 30
0.0
 40
0.5000000000000637
100
AcDbArc
 50
95.47879696762212
 51
180.0
  0
ARC
  5
138
330
41
100
AcDbEntity
  8
1
  6
Continuous
 62
     7
100
AcDbCircle
 10
172.400473883385
 20
304.7779960161864
 30
0.0
 40
0.5
100
AcDbArc
 50
0.0
 51
84.52120303237464
  0
ENDBLK
  5
43
330
41
100
AcDbEntity
  8
0
100
AcDbBlockEnd
  0
BLOCK
  5
45
330
44
100
AcDbEntity
  8
0
100
AcDbBlockBegin
  2
36-1A-13-M11
 70
     0
 71
     0
 10
-53.20741606893199
 20
123.4634258914352
 30
0.0
  3
36-1A-13-M11
  1

  0
LINE
  5
139
330
44
100
AcDbEntity
  8
1
  6
Continuous
 62
     7
100
AcDbLine
 10
333.774759871932
 20
260.7325519008715
 30
0.0
 11
333.774759871932
 21
255.2325519008714
 31
0.0
  0
LINE
  5
13A
330
44
100
AcDbEntity
  8
1
  6
Continuous
 62
     7
100
AcDbLine
 10
324.274759871932
 20
255.2325519008714
 30
0.0
 11
324.274759871932
 21
260.7325519008715
 31
0.0
  0
LINE
  5
13B
330
44
100
AcDbEntity
  8
1
  6
Continuous
 62
     7
100
AcDbLine
 10
167.6504738833838
 20
260.7325519008714
 30
0.0
 11
167.6504738833838
 21
255.2325519008714
 31
0.0
  0
LINE
  5
13C
330
44
100
AcDbEntity
  8
1
  6
Continuous
 62
     7
100
AcDbLine
 10
158.1504738833838
 20
255.2325519008714
 30
0.0
 11
158.1504738833838
 21
260.7325519008714
 31
0.0
  0
ENDBLK
  5
46
330
44
100
AcDbEntity
  8
0
100
AcDbBlockEnd
  0
BLOCK
  5
48
330
47
100
AcDbEntity
  8
0
100
AcDbBlockBegin
  2
37-1-13
 70
     0
 71
     0
 10
71.09924366661278
 20
104.2368460107269
 30
0.0
  3
37-1-13
  1

  0
LINE
  5
13D
330
47
100
AcDbEntity
  8
1
  6
Continuous
 62
     7
100
AcDbLine
 10
170.9474959879152
 20
403.2947007661931
 30
0.0
 11
171.1940422209345
 21
402.867670164189
 31
0.0
  0
LINE
  5
13E
330
47
100
AcDbEntity
  8
1
  6
Continuous
 62
     7
100
AcDbLine
 10
171.1940422209344
 20
379.5974336375537
 30
0.0
 11
170.9474959879152
 21
379.1704030355496
 31
0.0
  0
LINE
  5
13F
330
47
100
AcDbEntity
  8
1
  6
Continuous
 62
     7
100
AcDbLine
 10
154.3621783726616
 20
380.0213135354783
 30
0.0
 11
151.1409136781173
 21
385.6007076510576
 31
0.0
  0
LINE
  5
140
330
47
100
AcDbEntity
  8
1
  6
Continuous
 62
     7
100
AcDbLine
 10
151.140913678117
 20
396.8643961506851
 30
0.0
 11
154.3621783726615
 21
402.4437902662648
 31
0.0
  0
LINE
  5
141
330
47
100
AcDbEntity
  8
1
  6
Continuous
 62
     7
100
AcDbLine
 10
164.5110445881644
 20
404.2325519008714
 30
0.0
 11
169.3230901727164
 21
404.2325519008714
 31
0.0
  0
LINE
  5
142
330
47
100
AcDbEntity
  8
1
  6
Continuous
 62
     7
100
AcDbLine
 10
316.5247598719321
 20
248.7325519008715
 30
0.0
 11
341.5247598719319
 21
248.7325519008715
 31
0.0
  0
LINE
  5
143
330
47
100
AcDbEntity
  8
1
  6
Continuous
 62
     7
100
AcDbLine
 10
162.9004738833838
 20
248.7325519008714
 30
0.0
 11
175.4004738833837
 21
248.7325519008715
 31
0.0
  0
LINE
  5
144
330
47
100
AcDbEntity
  8
1
  6
Continuous
 62
     7
100
AcDbLine
 10
150.4004738833839
 20
248.7325519008715
 30
0.0
 11
162.9004738833838
 21
248.7325519008714
 31
0.0
  0
LINE
  5
145
330
47
100
AcDbEntity
  8
1
  6
Continuous
 62
     7
100
AcDbLine
 10
316.024759871932
 20
241.2325519008714
 30
0.0
 11
342.024759871932
 21
241.2325519008714
 31
0.0
  0
LINE
  5
146
330
47
100
AcDbEntity
  8
1
  6
Continuous
 62
     7
100
AcDbLine
 10
316.024759871932
 20
248.3032661151429
 30
0.0
 11
316.024759871932
 21
241.2325519008714
 31
0.0
  0
LINE
  5
147
330
47
100
AcDbEntity
  8
1
  6
Continuous
 62
     7
100
AcDbLine
 10
342.024759871932
 20
241.2325519008714
 30
0.0
 11
342.024759871932
 21
248.3032661151428
 31
0.0
  0
LINE
  5
148
330
47
100
AcDbEntity
  8
1
  6
Continuous
 62
     7
100
AcDbLine
 10
169.3230901727164
 20
378.2325519008714
 30
0.0
 11
164.5110445881646
 21
378.2325519008714
 31
0.0
  0
LINE
  5
149
330
47
100
AcDbEntity
  8
1
  6
Continuous
 62
     7
100
AcDbLine
 10
323.024759871932
 20
255.2325519008714
 30
0.0
 11
335.024759871932
 21
255.2325519008714
 31
0.0
  0
LINE
  5
14A
330
47
100
AcDbEntity
  8
1
  6
Continuous
 62
     7
100
AcDbLine
 10
149.8297596691124
 20
241.2325519008714
 30
0.0
 11
175.9711880976553
 21
241.2325519008714
 31
0.0
  0
LINE
  5
14B
330
47
100
AcDbEntity
  8
1
  6
Continuous
 62
     7
100
AcDbLine
 10
156.9004738833839
 20
255.2325519008714
 30
0.0
 11
168.9004738833838
 21
255.2325519008714
 31
0.0
  0
ARC
  5
14C
330
47
100
AcDbEntity
  8
1
  6
Continuous
 62
     7
100
AcDbCircle
 10
319.524759871932
 20
244.7325519008714
 30
0.0
 40
5.000000000000034
100
AcDbArc
 50
126.8698976458429
 51
134.4270040008053
  0
ARC
  5
14D
330
47
100
AcDbEntity
  8
1
  6
Continuous
 62
     7
100
AcDbCircle
 10
162.9004738833838
 20
391.2325519008714
 30
0.0
 40
14.50000000000002
100
AcDbArc
 50
-63.70844472527048
 51
-56.29155527472947
  0
ARC
  5
14E
330
47
100
AcDbEntity
  8
1
  6
Continuous
 62
     7
100
AcDbCircle
 10
162.9004738833838
 20
391.2325519008714
 30
0.0
 40
14.49999999999997
100
AcDbArc
 50
56.29155527472934
 51
63.70844472527048
  0
ARC
  5
14F
330
47
100
AcDbEntity
  8
1
  6
Continuous
 62
     7
100
AcDbCircle
 10
303.118304666817
 20
268.6390071059864
 30
0.0
 40
24.0000000000001
100
AcDbArc
 50
-56.04080749990217
 51
-33.95919250009752
  0
ARC
  5
150
330
47
100
AcDbEntity
  8
1
  6
Continuous
 62
     7
100
AcDbCircle
 10
354.931215077047
 20
268.6390071059864
 30
0.0
 40
24.0000000000001
100
AcDbArc
 50
-146.0408074999024
 51
-123.9591925000978
  0
ARC
  5
151
330
47
100
AcDbEntity
  8
1
  6
Continuous
 62
     7
100
AcDbCircle
 10
338.524759871932
 20
244.7325519008714
 30
0.0
 40
4.999999999999975
100
AcDbArc
 50
45.57299599919402
 51
53.13010235415761
  0
ARC
  5
152
330
47
100
AcDbEntity
  8
1
  6
Continuous
 62
     7
100
AcDbCircle
 10
153.4004738833838
 20
244.7325519008714
 30
0.0
 40
5.0
100
AcDbArc
 50
126.8698976458424
 51
-135.572995999194
  0
ARC
  5
153
330
47
100
AcDbEntity
  8
1
  6
Continuous
 62
     7
100
AcDbCircle
 10
136.9940186782688
 20
268.6390071059863
 30
0.0
 40
24.00000000000002
100
AcDbArc
 50
-56.04080749990196
 51
-33.95919250009718
  0
ARC
  5
154
330
47
100
AcDbEntity
  8
1
  6
Continuous
 62
     7
100
AcDbCircle
 10
188.8069290884987
 20
268.6390071059863
 30
0.0
 40
23.99999999999996
100
AcDbArc
 50
-146.0408074999025
 51
-123.9591925000978
  0
ARC
  5
155
330
47
100
AcDbEntity
  8
1
  6
Continuous
 62
     7
100
AcDbCircle
 10
172.4004738833838
 20
244.7325519008714
 30
0.0
 40
5.000000000000057
100
AcDbArc
 50
-44.42700400080507
 51
53.13010235415734
  0
SPLINE
  5
156
330
47
100
AcDbEntity
  8
1
  6
Continuous
 62
     7
100
AcDbSpline
210
0.0
220
0.0
230
1.0
 70
    11
 71
     3
 72
    79
 73
    75
 74
    73
 42
0.0000000001
 43
0.0000000001
 44
0.00000001
 40
0.0
 40
0.0
 40
0.0
 40
0.0
 40
0.2803981145478758
 40
0.5607977859032138
 40
0.8427454841467965
 40
1.124697473048595
 40
1.409536451638168
 40
1.69438150088594
 40
1.983071310125274
 40
2.27176784342296
 40
2.564776142200904
 40
2.857790854546483
 40
3.155055698552832
 40
3.452325978930874
 40
3.75328482738973
 40
4.05424774288278
 40
4.357919806975688
 40
4.661594368328897
 40
4.966700748943443
 40
5.271807969839362
 40
5.576915190735367
 40
5.882021571349937
 40
6.185696132703141
 40
6.489368196796084
 40
6.790331112289055
 40
7.09128996074786
 40
7.388560241125954
 40
7.685825085132271
 40
7.97883979747785
 40
8.271848096255795
 40
8.560544629553485
 40
8.849234438792811
 40
9.134079488040566
 40
9.418918466630148
 40
9.700870455531936
 40
9.982818153775526
 40
10.26321782513086
 40
10.54361593967874
 40
10.82401405422667
 40
11.10441372558195
 40
11.38636142382551
 40
11.6683134127273
 40
11.95315239131683
 40
12.23799744056456
 40
12.52668724980391
 40
12.81538378310156
 40
13.10839208187954
 40
13.40140679422516
 40
13.69867163823155
 40
13.99594191860957
 40
14.29690076706833
 40
14.59786368256131
 40
14.90153574665423
 40
15.20521030800746
 40
15.51031668862201
 40
15.81542390951804
 40
16.12053113041396
 40
16.4256375110285
 40
16.7293120723817
 40
17.03298413647462
 40
17.33394705196765
 40
17.6349059004265
 40
17.93217618080459
 40
18.2294410248109
 40
18.52245573715651
 40
18.8154640359345
 40
19.10416056923222
 40
19.39285037847149
 40
19.67769542771923
 40
19.96253440630876
 40
20.24448639521053
 40
20.52643409345411
 40
20.80683376480942
 40
21.08723187935733
 40
21.08723187935733
 40
21.08723187935733
 40
21.08723187935733
 10
151.6421436341861
 20
248.2325519008714
 30
0.0
 10
151.5486430911326
 20
248.2299705149822
 30
0.0
 10
151.3616414858982
 20
248.2248077288715
 30
0.0
 10
151.0831570726582
 20
248.1833353788226
 30
0.0
 10
150.8092148762558
 20
248.1174352184299
 30
0.0
 10
150.5412867109203
 20
248.025203109196
 30
0.0
 10
150.2822409233599
 20
247.9081209198371
 30
0.0
 10
150.0330816292072
 20
247.7666446382576
 30
0.0
 10
149.7967716090293
 20
247.6023622922646
 30
0.0
 10
149.5739966151114
 20
247.4159021440482
 30
0.0
 10
149.3675405828133
 20
247.2094776691111
 30
0.0
 10
149.1779278391728
 20
246.9837599746745
 30
0.0
 10
149.0075286632472
 20
246.7414691763257
 30
0.0
 10
148.8568158556394
 20
246.4834116834858
 30
0.0
 10
148.7275927191139
 20
246.2125844800037
 30
0.0
 10
148.6203130459294
 20
245.9300676265072
 30
0.0
 10
148.5361585423743
 20
245.6388796559139
 30
0.0
 10
148.4755152685431
 20
245.3405008829993
 30
0.0
 10
148.4389815062717
 20
245.037739911119
 30
0.0
 10
148.4267624755352
 20
244.7325519008712
 30
0.0
 10
148.4389815062718
 20
244.4273638906248
 30
0.0
 10
148.475515268543
 20
244.1246029187399
 30
0.0
 10
148.5361585423743
 20
243.8262241458421
 30
0.0
 10
148.6203130459294
 20
243.5350361751862
 30
0.0
 10
148.7275927191139
 20
243.2525193219213
 30
0.0
 10
148.8568158556394
 20
242.9816921175797
 30
0.0
 10
149.0075286632473
 20
242.7236346279106
 30
0.0
 10
149.1779278391728
 20
242.481343817815
 30
0.0
 10
149.3675405828133
 20
242.2556261666171
 30
0.0
 10
149.5739966151114
 20
242.0492015315905
 30
0.0
 10
149.7967716090293
 20
241.8627419724134
 30
0.0
 10
150.0330816292072
 20
241.6984574447023
 30
0.0
 10
150.28224092336
 20
241.5569892016326
 30
0.0
 10
150.5412867109203
 20
241.4398771980307
 30
0.0
 10
150.8092148762559
 20
241.3477552795581
 30
0.0
 10
151.0831570726582
 20
241.2814455139903
 30
0.0
 10
151.3616414858982
 20
241.2414938488945
 30
0.0
 10
151.6421436341861
 20
241.2280809392717
 30
0.0
 10
151.922645782474
 20
241.2414938488944
 30
0.0
 10
152.2011301957141
 20
241.2814455139904
 30
0.0
 10
152.4750723921164
 20
241.3477552795579
 30
0.0
 10
152.7430005574519
 20
241.4398771980308
 30
0.0
 10
153.0020463450122
 20
241.5569892016325
 30
0.0
 10
153.251205639165
 20
241.6984574447024
 30
0.0
 10
153.4875156593427
 20
241.8627419724135
 30
0.0
 10
153.7102906532608
 20
242.0492015315907
 30
0.0
 10
153.9167466855589
 20
242.2556261666171
 30
0.0
 10
154.1063594291994
 20
242.481343817815
 30
0.0
 10
154.276758605125
 20
242.7236346279106
 30
0.0
 10
154.4274714127328
 20
242.9816921175797
 30
0.0
 10
154.5566945492583
 20
243.2525193219213
 30
0.0
 10
154.6639742224427
 20
243.5350361751862
 30
0.0
 10
154.7481287259978
 20
243.826224145842
 30
0.0
 10
154.8087719998291
 20
244.1246029187399
 30
0.0
 10
154.8453057621003
 20
244.4273638906248
 30
0.0
 10
154.857524792837
 20
244.7325519008711
 30
0.0
 10
154.8453057621003
 20
245.037739911119
 30
0.0
 10
154.808771999829
 20
245.3405008829992
 30
0.0
 10
154.7481287259979
 20
245.638879655914
 30
0.0
 10
154.6639742224427
 20
245.9300676265071
 30
0.0
 10
154.5566945492583
 20
246.2125844800038
 30
0.0
 10
154.4274714127328
 20
246.4834116834857
 30
0.0
 10
154.276758605125
 20
246.7414691763258
 30
0.0
 10
154.1063594291993
 20
246.9837599746745
 30
0.0
 10
153.9167466855589
 20
247.209477669111
 30
0.0
 10
153.7102906532607
 20
247.4159021440482
 30
0.0
 10
153.4875156593428
 20
247.6023622922647
 30
0.0
 10
153.2512056391649
 20
247.7666446382576
 30
0.0
 10
153.0020463450122
 20
247.908120919837
 30
0.0
 10
152.7430005574519
 20
248.025203109196
 30
0.0
 10
152.4750723921164
 20
248.1174352184299
 30
0.0
 10
152.2011301957141
 20
248.1833353788225
 30
0.0
 10
151.922645782474
 20
248.2248077288715
 30
0.0
 10
151.7356441772396
 20
248.2299705149822
 30
0.0
 10
151.6421436341861
 20
248.2325519008714
 30
0.0
 11
151.6421436341861
 21
248.2325519008714
 31
0.0
 11
151.3620636353165
 21
248.2191991155733
 31
0.0
 11
151.0845058269379
 21
248.1793790364141
 31
0.0
 11
150.8104544225589
 21
248.1131194536902
 31
0.0
 11
150.5438115622844
 21
248.0214760736221
 31
0.0
 11
150.2842231377484
 21
247.904228073337
 31
0.0
 11
150.0364895618529
 21
247.7636408141169
 31
0.0
 11
149.7993890772439
 21
247.5989436187649
 31
0.0
 11
149.5779545479091
 21
247.4137074517878
 31
0.0
 11
149.3706711585994
 21
247.2066145748726
 31
0.0
 11
149.1821388748218
 21
246.9823085347743
 31
0.0
 11
149.0110503282482
 21
246.7392137040735
 31
0.0
 11
148.8610692015252
 21
246.4825519008714
 31
0.0
 11
148.7313924216509
 21
246.2109636809003
 31
0.0
 11
148.6245010675735
 21
245.9296224025112
 31
0.0
 11
148.5401350062433
 21
245.6379049189658
 31
0.0
 11
148.4796224760075
 21
245.3403205227056
 31
0.0
 11
148.4430435274445
 21
245.0374147881714
 31
0.0
 11
148.4308354895198
 21
244.7325519008714
 31
0.0
 11
148.4430435274445
 21
244.4276890135714
 31
0.0
 11
148.4796224760075
 21
244.1247832790371
 31
0.0
 11
148.5401350062433
 21
243.8271988827769
 31
0.0
 11
148.6245010675735
 21
243.5354813992315
 31
0.0
 11
148.7313924216509
 21
243.2541401208425
 31
0.0
 11
148.8610692015252
 21
242.9825519008714
 31
0.0
 11
149.0110503282482
 21
242.7258900976693
 31
0.0
 11
149.1821388748218
 21
242.4827952669685
 31
0.0
 11
149.3706711585994
 21
242.2584892268702
 31
0.0
 11
149.5779545479091
 21
242.051396349955
 31
0.0
 11
149.7993890772439
 21
241.866160182978
 31
0.0
 11
150.0364895618529
 21
241.7014629876259
 31
0.0
 11
150.2842231377484
 21
241.5608757284059
 31
0.0
 11
150.5438115622844
 21
241.4436277281207
 31
0.0
 11
150.8104544225589
 21
241.3519843480526
 31
0.0
 11
151.0845058269379
 21
241.2857247653287
 31
0.0
 11
151.3620636353165
 21
241.2459046861696
 31
0.0
 11
151.6421436341861
 21
241.2325519008714
 31
0.0
 11
151.9222236330558
 21
241.2459046861696
 31
0.0
 11
152.1997814414343
 21
241.2857247653287
 31
0.0
 11
152.4738328458133
 21
241.3519843480526
 31
0.0
 11
152.7404757060878
 21
241.4436277281207
 31
0.0
 11
153.0000641306237
 21
241.5608757284059
 31
0.0
 11
153.2477977065192
 21
241.7014629876259
 31
0.0
 11
153.4848981911282
 21
241.866160182978
 31
0.0
 11
153.706332720463
 21
242.051396349955
 31
0.0
 11
153.9136161097728
 21
242.2584892268702
 31
0.0
 11
154.1021483935504
 21
242.4827952669685
 31
0.0
 11
154.2732369401241
 21
242.7258900976693
 31
0.0
 11
154.423218066847
 21
242.9825519008714
 31
0.0
 11
154.5528948467213
 21
243.2541401208425
 31
0.0
 11
154.6597862007986
 21
243.5354813992315
 31
0.0
 11
154.7441522621288
 21
243.8271988827769
 31
0.0
 11
154.8046647923646
 21
244.1247832790371
 31
0.0
 11
154.8412437409276
 21
244.4276890135714
 31
0.0
 11
154.8534517788523
 21
244.7325519008714
 31
0.0
 11
154.8412437409276
 21
245.0374147881714
 31
0.0
 11
154.8046647923646
 21
245.3403205227056
 31
0.0
 11
154.7441522621289
 21
245.6379049189658
 31
0.0
 11
154.6597862007986
 21
245.9296224025112
 31
0.0
 11
154.5528948467213
 21
246.2109636809003
 31
0.0
 11
154.423218066847
 21
246.4825519008714
 31
0.0
 11
154.273236940124
 21
246.7392137040736
 31
0.0
 11
154.1021483935504
 21
246.9823085347743
 31
0.0
 11
153.9136161097728
 21
247.2066145748726
 31
0.0
 11
153.706332720463
 21
247.4137074517878
 31
0.0
 11
153.4848981911281
 21
247.5989436187649
 31
0.0
 11
153.2477977065192
 21
247.7636408141169
 31
0.0
 11
153.0000641306238
 21
247.904228073337
 31
0.0
 11
152.7404757060878
 21
248.0214760736221
 31
0.0
 11
152.4738328458133
 21
248.1131194536902
 31
0.0
 11
152.1997814414343
 21
248.1793790364141
 31
0.0
 11
151.9222236330557
 21
248.2191991155733
 31
0.0
 11
151.6421436341861
 21
248.2325519008714
 31
0.0
  0
SPLINE
  5
157
330
47
100
AcDbEntity
  8
1
  6
Continuous
 62
     7
100
AcDbSpline
210
0.0
220
0.0
230
1.0
 70
     8
 71
     3
 72
    29
 73
    25
 74
    23
 42
0.0000000001
 43
0.0000000001
 44
0.00000001
 40
0.0
 40
0.0
 40
0.0
 40
0.0
 40
0.6069077131759072
 40
1.212222625822736
 40
1.842666707826727
 40
2.474631900595299
 40
3.102420172365325
 40
3.729333891456381
 40
4.27104293983313
 40
4.812985328221141
 40
5.340107980728348
 40
5.866248927280138
 40
6.263874837343273
 40
6.661485236222354
 40
7.280966497568946
 40
7.902596738528104
 40
8.549168915178745
 40
9.195896772489133
 40
9.72241597417921
 40
10.24911841725699
 40
11.07897537274007
 40
11.90732207846629
 40
12.67331709995021
 40
13.4419127118582
 40
13.4419127118582
 40
13.4419127118582
 40
13.4419127118582
 10
162.9004738833838
 20
248.2325519008714
 30
0.0
 10
162.6984140538264
 20
248.2226765274091
 30
0.0
 10
162.2948246911576
 20
248.2029516979341
 30
0.0
 10
161.6831191408189
 20
248.1391613438809
 30
0.0
 10
161.0737020789291
 20
248.0049780465639
 30
0.0
 10
160.4752959034238
 20
247.8045224258793
 30
0.0
 10
159.9007333715281
 20
247.5459613090613
 30
0.0
 10
159.3858355738565
 20
247.2370319192899
 30
0.0
 10
158.9368166998584
 20
246.8832149947152
 30
0.0
 10
158.5628750973673
 20
246.4951903265521
 30
0.0
 10
158.2559091959072
 20
246.0582599227894
 30
0.0
 10
158.0486005383733
 20
245.6180459556892
 30
0.0
 10
157.9326979501026
 20
245.1913368350045
 30
0.0
 10
157.8819947452081
 20
244.7204213925024
 30
0.0
 10
157.9424510684859
 20
244.1714467994583
 30
0.0
 10
158.1553983002327
 20
243.5737007332383
 30
0.0
 10
158.5026352375788
 20
243.0320984872398
 30
0.0
 10
158.9239929634115
 20
242.5914905191022
 30
0.0
 10
159.3714064536685
 20
242.2416165954653
 30
0.0
 10
159.907242839591
 20
241.9127062124761
 30
0.0
 10
160.5721338895044
 20
241.608967590849
 30
0.0
 10
161.3517949509784
 20
241.3841977255063
 30
0.0
 10
162.1342005692879
 20
241.2798109200968
 30
0.0
 10
162.6447610386505
 20
241.2483884413479
 30
0.0
 10
162.9004738833838
 20
241.2326505769583
 30
0.0
 11
162.9004738833838
 21
248.2325519008714
 31
0.0
 11
162.2945878616256
 21
248.1973510351091
 31
0.0
 11
161.6931450421441
 21
248.1289940430249
 31
0.0
 11
161.077253830403
 21
247.9943175572006
 31
0.0
 11
160.4777923688544
 21
247.7942526652555
 31
0.0
 11
159.9060935955343
 21
247.5348714270051
 31
0.0
 11
159.3695283785212
 21
247.2106514722271
 31
0.0
 11
158.9450958397421
 21
246.8740423322461
 31
0.0
 11
158.5703468644616
 21
246.4825519008714
 31
0.0
 11
158.2687909785016
 21
246.0502067396528
 31
0.0
 11
158.0467706646679
 21
245.5732043540366
 31
0.0
 11
157.9430099475248
 21
245.1893553239069
 31
0.0
 11
157.9012518497041
 21
244.7939437780927
 31
0.0
 11
157.9658454613254
 21
244.1778393238828
 31
0.0
 11
158.1734636314767
 21
243.591905153606
 31
0.0
 11
158.5188362323317
 21
243.0453035196921
 31
0.0
 11
158.9631103589346
 21
242.5753275396117
 31
0.0
 11
159.3769807777093
 21
242.2498528920405
 31
0.0
 11
159.8250196249335
 21
241.9729473938608
 31
0.0
 11
160.579780331571
 21
241.6279853056834
 31
0.0
 11
161.3759366419591
 21
241.3993078159371
 31
0.0
 11
162.1339457725587
 21
241.2889876869225
 31
0.0
 11
162.9004738833838
 21
241.2326505769583
 31
0.0
  0
SPLINE
  5
158
330
47
100
AcDbEntity
  8
1
  6
Continuous
 62
     7
100
AcDbSpline
210
0.0
220
0.0
230
1.0
 70
     8
 71
     3
 72
    29
 73
    25
 74
    23
 42
0.0000000001
 43
0.0000000001
 44
0.00000001
 40
0.0
 40
0.0
 40
0.0
 40
0.0
 40
0.6069077131759356
 40
1.212222625822736
 40
1.842666707826755
 40
2.474631900595327
 40
3.102420172365353
 40
3.729333891456409
 40
4.271042939833181
 40
4.812985328221172
 40
5.340107980728411
 40
5.866248927280165
 40
6.2638748373433
 40
6.66148523622238
 40
7.280966497568976
 40
7.902596738528123
 40
8.54916891517875
 40
9.195896772489139
 40
9.722415974179194
 40
10.24911841725703
 40
11.07897537274017
 40
11.90732207846632
 40
12.67331709995024
 40
13.44191271185824
 40
13.44191271185824
 40
13.44191271185824
 40
13.44191271185824
 10
162.9004738833838
 20
248.2325519008714
 30
0.0
 10
163.1025337129413
 20
248.2226765274091
 30
0.0
 10
163.5061230756101
 20
248.202951697934
 30
0.0
 10
164.1178286259486
 20
248.139161343881
 30
0.0
 10
164.7272456878386
 20
248.0049780465638
 30
0.0
 10
165.3256518633439
 20
247.8045224258794
 30
0.0
 10
165.9002143952395
 20
247.5459613090612
 30
0.0
 10
166.4151121929111
 20
247.23703191929
 30
0.0
 10
166.8641310669093
 20
246.8832149947151
 30
0.0
 10
167.2380726694004
 20
246.4951903265522
 30
0.0
 10
167.5450385708604
 20
246.0582599227893
 30
0.0
 10
167.7523472283943
 20
245.6180459556892
 30
0.0
 10
167.868249816665
 20
245.1913368350045
 30
0.0
 10
167.9189530215596
 20
244.7204213925024
 30
0.0
 10
167.8584966982815
 20
244.1714467994582
 30
0.0
 10
167.645549466535
 20
243.5737007332384
 30
0.0
 10
167.2983125291887
 20
243.0320984872398
 30
0.0
 10
166.8769548033562
 20
242.5914905191022
 30
0.0
 10
166.4295413130992
 20
242.2416165954653
 30
0.0
 10
165.8937049271765
 20
241.9127062124761
 30
0.0
 10
165.2288138772632
 20
241.608967590849
 30
0.0
 10
164.4491528157892
 20
241.3841977255062
 30
0.0
 10
163.6667471974797
 20
241.2798109200969
 30
0.0
 10
163.1561867281171
 20
241.2483884413479
 30
0.0
 10
162.9004738833838
 20
241.2326505769583
 30
0.0
 11
162.9004738833838
 21
248.2325519008714
 31
0.0
 11
163.506359905142
 21
248.1973510351091
 31
0.0
 11
164.1078027246235
 21
248.1289940430249
 31
0.0
 11
164.7236939363646
 21
247.9943175572006
 31
0.0
 11
165.3231553979132
 21
247.7942526652555
 31
0.0
 11
165.8948541712333
 21
247.5348714270051
 31
0.0
 11
166.4314193882464
 21
247.2106514722271
 31
0.0
 11
166.8558519270255
 21
246.8740423322461
 31
0.0
 11
167.230600902306
 21
246.4825519008714
 31
0.0
 11
167.532156788266
 21
246.0502067396528
 31
0.0
 11
167.7541771020997
 21
245.5732043540366
 31
0.0
 11
167.8579378192428
 21
245.1893553239069
 31
0.0
 11
167.8996959170635
 21
244.7939437780927
 31
0.0
 11
167.8351023054422
 21
244.1778393238828
 31
0.0
 11
167.6274841352909
 21
243.591905153606
 31
0.0
 11
167.2821115344359
 21
243.0453035196921
 31
0.0
 11
166.837837407833
 21
242.5753275396117
 31
0.0
 11
166.4239669890583
 21
242.2498528920405
 31
0.0
 11
165.9759281418341
 21
241.9729473938608
 31
0.0
 11
165.2211674351966
 21
241.6279853056834
 31
0.0
 11
164.4250111248085
 21
241.3993078159371
 31
0.0
 11
163.6670019942089
 21
241.2889876869225
 31
0.0
 11
162.9004738833838
 21
241.2326505769583
 31
0.0
  0
SPLINE
  5
159
330
47
100
AcDbEntity
  8
1
  6
Continuous
 62
     7
100
AcDbSpline
210
0.0
220
0.0
230
1.0
 70
    11
 71
     3
 72
    79
 73
    75
 74
    73
 42
0.0000000001
 43
0.0000000001
 44
0.00000001
 40
0.0
 40
0.0
 40
0.0
 40
0.0
 40
0.2803981145479042
 40
0.5607977859032141
 40
0.842745484146769
 40
1.124697473048567
 40
1.40953645163814
 40
1.694381500885913
 40
1.983071310125246
 40
2.271767843422932
 40
2.564776142200876
 40
2.857790854546455
 40
3.155055698552821
 40
3.452325978930849
 40
3.75328482738973
 40
4.05424774288276
 40
4.357919806975676
 40
4.661594368328879
 40
4.966700748943425
 40
5.271807969839345
 40
5.57691519073535
 40
5.882021571349924
 40
6.185696132703128
 40
6.489368196796071
 40
6.790331112289041
 40
7.091289960747846
 40
7.388560241125955
 40
7.685825085132255
 40
7.978839797477835
 40
8.271848096255779
 40
8.560544629553425
 40
8.849234438792797
 40
9.134079488040527
 40
9.418918466630135
 40
9.700870455531897
 40
9.982818153775487
 40
10.26321782513083
 40
10.5436159396787
 40
10.8240140542266
 40
11.10441372558191
 40
11.38636142382547
 40
11.66831341272727
 40
11.95315239131682
 40
12.23799744056453
 40
12.52668724980385
 40
12.81538378310154
 40
13.1083920818795
 40
13.40140679422512
 40
13.69867163823151
 40
13.99594191860955
 40
14.29690076706832
 40
14.59786368256129
 40
14.90153574665419
 40
15.20521030800744
 40
15.51031668862204
 40
15.81542390951802
 40
16.12053113041394
 40
16.42563751102848
 40
16.72931207238168
 40
17.03298413647461
 40
17.33394705196763
 40
17.63490590042648
 40
17.93217618080452
 40
18.22944102481088
 40
18.5224557371565
 40
18.81546403593446
 40
19.10416056923215
 40
19.39285037847148
 40
19.67769542771921
 40
19.96253440630874
 40
20.24448639521051
 40
20.52643409345409
 40
20.80683376480943
 40
21.0872318793573
 40
21.0872318793573
 40
21.0872318793573
 40
21.0872318793573
 10
174.1588041325815
 20
248.2325519008714
 30
0.0
 10
174.252304675635
 20
248.2299705149822
 30
0.0
 10
174.4393062808694
 20
248.2248077288715
 30
0.0
 10
174.7177906941095
 20
248.1833353788226
 30
0.0
 10
174.9917328905118
 20
248.1174352184299
 30
0.0
 10
175.2596610558473
 20
248.0252031091959
 30
0.0
 10
175.5187068434076
 20
247.9081209198371
 30
0.0
 10
175.7678661375604
 20
247.7666446382576
 30
0.0
 10
176.0041761577383
 20
247.6023622922646
 30
0.0
 10
176.2269511516562
 20
247.4159021440482
 30
0.0
 10
176.4334071839543
 20
247.2094776691111
 30
0.0
 10
176.6230199275947
 20
246.9837599746745
 30
0.0
 10
176.7934191035204
 20
246.7414691763258
 30
0.0
 10
176.9441319111282
 20
246.4834116834857
 30
0.0
 10
177.0733550476538
 20
246.2125844800038
 30
0.0
 10
177.1806347208382
 20
245.9300676265072
 30
0.0
 10
177.2647892243933
 20
245.6388796559139
 30
0.0
 10
177.3254324982245
 20
245.3405008829992
 30
0.0
 10
177.3619662604958
 20
245.0377399111191
 30
0.0
 10
177.3741852912325
 20
244.7325519008711
 30
0.0
 10
177.3619662604958
 20
244.4273638906248
 30
0.0
 10
177.3254324982246
 20
244.12460291874
 30
0.0
 10
177.2647892243933
 20
243.826224145842
 30
0.0
 10
177.1806347208382
 20
243.5350361751863
 30
0.0
 10
177.0733550476536
 20
243.2525193219212
 30
0.0
 10
176.9441319111283
 20
242.9816921175797
 30
0.0
 10
176.7934191035203
 20
242.7236346279106
 30
0.0
 10
176.6230199275948
 20
242.481343817815
 30
0.0
 10
176.4334071839543
 20
242.2556261666171
 30
0.0
 10
176.2269511516562
 20
242.0492015315906
 30
0.0
 10
176.0041761577382
 20
241.8627419724134
 30
0.0
 10
175.7678661375605
 20
241.6984574447024
 30
0.0
 10
175.5187068434076
 20
241.5569892016325
 30
0.0
 10
175.2596610558473
 20
241.4398771980309
 30
0.0
 10
174.9917328905118
 20
241.347755279558
 30
0.0
 10
174.7177906941095
 20
241.2814455139903
 30
0.0
 10
174.4393062808694
 20
241.2414938488945
 30
0.0
 10
174.1588041325816
 20
241.2280809392716
 30
0.0
 10
173.8783019842936
 20
241.2414938488945
 30
0.0
 10
173.5998175710535
 20
241.2814455139904
 30
0.0
 10
173.3258753746512
 20
241.3477552795579
 30
0.0
 10
173.0579472093157
 20
241.4398771980308
 30
0.0
 10
172.7989014217555
 20
241.5569892016325
 30
0.0
 10
172.5497421276027
 20
241.6984574447024
 30
0.0
 10
172.3134321074249
 20
241.8627419724135
 30
0.0
 10
172.0906571135068
 20
242.0492015315905
 30
0.0
 10
171.8842010812087
 20
242.2556261666172
 30
0.0
 10
171.6945883375682
 20
242.481343817815
 30
0.0
 10
171.5241891616426
 20
242.7236346279106
 30
0.0
 10
171.3734763540348
 20
242.9816921175798
 30
0.0
 10
171.2442532175093
 20
243.2525193219213
 30
0.0
 10
171.136973544325
 20
243.5350361751862
 30
0.0
 10
171.0528190407698
 20
243.8262241458421
 30
0.0
 10
170.9921757669385
 20
244.1246029187398
 30
0.0
 10
170.9556420046673
 20
244.4273638906249
 30
0.0
 10
170.9434229739306
 20
244.732551900871
 30
0.0
 10
170.9556420046674
 20
245.0377399111191
 30
0.0
 10
170.9921757669385
 20
245.3405008829991
 30
0.0
 10
171.0528190407697
 20
245.638879655914
 30
0.0
 10
171.136973544325
 20
245.9300676265071
 30
0.0
 10
171.2442532175093
 20
246.2125844800038
 30
0.0
 10
171.3734763540347
 20
246.4834116834858
 30
0.0
 10
171.5241891616426
 20
246.7414691763258
 30
0.0
 10
171.6945883375683
 20
246.9837599746745
 30
0.0
 10
171.8842010812087
 20
247.2094776691111
 30
0.0
 10
172.0906571135069
 20
247.4159021440481
 30
0.0
 10
172.3134321074248
 20
247.6023622922646
 30
0.0
 10
172.5497421276027
 20
247.7666446382576
 30
0.0
 10
172.7989014217554
 20
247.908120919837
 30
0.0
 10
173.0579472093158
 20
248.025203109196
 30
0.0
 10
173.3258753746513
 20
248.1174352184299
 30
0.0
 10
173.5998175710536
 20
248.1833353788226
 30
0.0
 10
173.8783019842936
 20
248.2248077288715
 30
0.0
 10
174.065303589528
 20
248.2299705149821
 30
0.0
 10
174.1588041325815
 20
248.2325519008714
 30
0.0
 11
174.1588041325815
 21
248.2325519008714
 31
0.0
 11
174.4388841314511
 21
248.2191991155733
 31
0.0
 11
174.7164419398297
 21
248.1793790364141
 31
0.0
 11
174.9904933442087
 21
248.1131194536902
 31
0.0
 11
175.2571362044832
 21
248.0214760736221
 31
0.0
 11
175.5167246290192
 21
247.904228073337
 31
0.0
 11
175.7644582049147
 21
247.7636408141169
 31
0.0
 11
176.0015586895237
 21
247.5989436187649
 31
0.0
 11
176.2229932188585
 21
247.4137074517878
 31
0.0
 11
176.4302766081682
 21
247.2066145748726
 31
0.0
 11
176.6188088919458
 21
246.9823085347743
 31
0.0
 11
176.7898974385195
 21
246.7392137040735
 31
0.0
 11
176.9398785652424
 21
246.4825519008714
 31
0.0
 11
177.0695553451168
 21
246.2109636809003
 31
0.0
 11
177.1764466991941
 21
245.9296224025112
 31
0.0
 11
177.2608127605243
 21
245.6379049189658
 31
0.0
 11
177.3213252907601
 21
245.3403205227056
 31
0.0
 11
177.3579042393231
 21
245.0374147881714
 31
0.0
 11
177.3701122772478
 21
244.7325519008714
 31
0.0
 11
177.3579042393231
 21
244.4276890135714
 31
0.0
 11
177.3213252907601
 21
244.1247832790371
 31
0.0
 11
177.2608127605243
 21
243.8271988827769
 31
0.0
 11
177.1764466991941
 21
243.5354813992315
 31
0.0
 11
177.0695553451167
 21
243.2541401208425
 31
0.0
 11
176.9398785652424
 21
242.9825519008714
 31
0.0
 11
176.7898974385194
 21
242.7258900976693
 31
0.0
 11
176.6188088919458
 21
242.4827952669685
 31
0.0
 11
176.4302766081682
 21
242.2584892268702
 31
0.0
 11
176.2229932188585
 21
242.051396349955
 31
0.0
 11
176.0015586895237
 21
241.866160182978
 31
0.0
 11
175.7644582049147
 21
241.7014629876259
 31
0.0
 11
175.5167246290192
 21
241.5608757284059
 31
0.0
 11
175.2571362044832
 21
241.4436277281207
 31
0.0
 11
174.9904933442087
 21
241.3519843480526
 31
0.0
 11
174.7164419398297
 21
241.2857247653287
 31
0.0
 11
174.4388841314511
 21
241.2459046861696
 31
0.0
 11
174.1588041325815
 21
241.2325519008714
 31
0.0
 11
173.8787241337119
 21
241.2459046861696
 31
0.0
 11
173.6011663253333
 21
241.2857247653287
 31
0.0
 11
173.3271149209543
 21
241.3519843480526
 31
0.0
 11
173.0604720606798
 21
241.4436277281207
 31
0.0
 11
172.8008836361439
 21
241.5608757284059
 31
0.0
 11
172.5531500602484
 21
241.7014629876259
 31
0.0
 11
172.3160495756395
 21
241.866160182978
 31
0.0
 11
172.0946150463046
 21
242.051396349955
 31
0.0
 11
171.8873316569948
 21
242.2584892268702
 31
0.0
 11
171.6987993732172
 21
242.4827952669685
 31
0.0
 11
171.5277108266436
 21
242.7258900976693
 31
0.0
 11
171.3777296999206
 21
242.9825519008714
 31
0.0
 11
171.2480529200463
 21
243.2541401208425
 31
0.0
 11
171.141161565969
 21
243.5354813992315
 31
0.0
 11
171.0567955046387
 21
243.8271988827769
 31
0.0
 11
170.996282974403
 21
244.1247832790371
 31
0.0
 11
170.95970402584
 21
244.4276890135714
 31
0.0
 11
170.9474959879153
 21
244.7325519008714
 31
0.0
 11
170.95970402584
 21
245.0374147881714
 31
0.0
 11
170.996282974403
 21
245.3403205227056
 31
0.0
 11
171.0567955046387
 21
245.6379049189658
 31
0.0
 11
171.141161565969
 21
245.9296224025112
 31
0.0
 11
171.2480529200463
 21
246.2109636809003
 31
0.0
 11
171.3777296999206
 21
246.4825519008714
 31
0.0
 11
171.5277108266436
 21
246.7392137040735
 31
0.0
 11
171.6987993732172
 21
246.9823085347743
 31
0.0
 11
171.8873316569948
 21
247.2066145748726
 31
0.0
 11
172.0946150463046
 21
247.4137074517878
 31
0.0
 11
172.3160495756395
 21
247.5989436187649
 31
0.0
 11
172.5531500602484
 21
247.7636408141169
 31
0.0
 11
172.8008836361439
 21
247.904228073337
 31
0.0
 11
173.0604720606798
 21
248.0214760736221
 31
0.0
 11
173.3271149209543
 21
248.1131194536902
 31
0.0
 11
173.6011663253333
 21
248.1793790364141
 31
0.0
 11
173.8787241337119
 21
248.2191991155733
 31
0.0
 11
174.1588041325815
 21
248.2325519008714
 31
0.0
  0
SPLINE
  5
15A
330
47
100
AcDbEntity
  8
1
  6
Continuous
 62
     7
100
AcDbSpline
210
0.0
220
0.0
230
1.0
 70
    11
 71
     3
 72
    79
 73
    75
 74
    73
 42
0.0000000001
 43
0.0000000001
 44
0.00000001
 40
0.0
 40
0.0
 40
0.0
 40
0.0
 40
0.3142773867009421
 40
0.6283112411575017
 40
0.9612293766542863
 40
1.29380503803968
 40
1.653399990663198
 40
2.012687710360575
 40
2.402596358667029
 40
2.792277135713487
 40
3.212125602383282
 40
3.631818889113213
 40
4.078023830870243
 40
4.524128916246213
 40
4.990742665932618
 40
5.457297388873154
 40
5.936768753151341
 40
6.416212753073416
 40
6.900062536488069
 40
7.383912319902724
 40
7.863356319824796
 40
8.342827684102991
 40
8.809382407043517
 40
9.275996156729928
 40
9.722101242105845
 40
10.16830618386297
 40
10.58799947059275
 40
11.00784793726265
 40
11.39752871430905
 40
11.78743736261547
 40
12.14672508231289
 40
12.5063200349365
 40
12.83889569632187
 40
13.1718138318186
 40
13.4858476862751
 40
13.80012507297608
 40
14.10756996787587
 40
14.41501486277569
 40
14.72929224947665
 40
15.04332610393314
 40
15.37624423942985
 40
15.70881990081531
 40
16.06841485343889
 40
16.42770257313632
 40
16.81761122144272
 40
17.20729199848915
 40
17.62714046515913
 40
18.04683375188887
 40
18.49303869364602
 40
18.93914377902193
 40
19.40575752870833
 40
19.8723122516488
 40
20.35178361592699
 40
20.83122761584912
 40
21.31507739926377
 40
21.79892718267843
 40
22.27837118260044
 40
22.75784254687863
 40
23.22439726981911
 40
23.69101101950556
 40
24.13711610488148
 40
24.58332104663856
 40
25.00301433336832
 40
25.42286280003821
 40
25.81254357708457
 40
26.2024522253911
 40
26.5617399450885
 40
26.92133489771214
 40
27.25391055909749
 40
27.58682869459433
 40
27.90086254905087
 40
28.21513993575179
 40
28.52258483065159
 40
28.83002972555132
 40
28.83002972555132
 40
28.83002972555132
 40
28.83002972555132
 10
329.9843020546417
 20
245.0392306608716
 30
0.0
 10
330.0028945272404
 20
245.1425022155719
 30
0.0
 10
330.0400650652078
 20
245.3489653002727
 30
0.0
 10
330.1510113284206
 20
245.6510501327641
 30
0.0
 10
330.2980761712037
 20
245.94324502581
 30
0.0
 10
330.4882307234539
 20
246.2280993918078
 30
0.0
 10
330.713365451978
 20
246.4975403145631
 30
0.0
 10
330.9780015220886
 20
246.7563376713206
 30
0.0
 10
331.2730617477689
 20
246.9960153356464
 30
0.0
 10
331.6038277953302
 20
247.2213535773296
 30
0.0
 10
331.9598951172949
 20
247.4249170982604
 30
0.0
 10
332.3466281894779
 20
247.6104093659742
 30
0.0
 10
332.753301647148
 20
247.772179478694
 30
0.0
 10
333.1842778429066
 20
247.9125470393611
 30
0.0
 10
333.6296515272564
 20
248.0277900977465
 30
0.0
 10
334.0918644771459
 20
248.1190434359645
 30
0.0
 10
334.5627830698447
 20
248.184250977696
 30
0.0
 10
335.0423146341283
 20
248.2238414451274
 30
0.0
 10
335.5247598719295
 20
248.2369270480984
 30
0.0
 10
336.0072051097459
 20
248.2238414451286
 30
0.0
 10
336.4867366739845
 20
248.1842509776911
 30
0.0
 10
336.9576552668466
 20
248.1190434359828
 30
0.0
 10
337.4198682161424
 20
248.0277900976806
 30
0.0
 10
337.8652419026629
 20
247.9125470396029
 30
0.0
 10
338.2962180906606
 20
247.7721794778356
 30
0.0
 10
338.7028915764569
 20
247.6104093691025
 30
0.0
 10
339.0896245496091
 20
247.4249170873521
 30
0.0
 10
339.4456922277203
 20
247.2213536169018
 30
0.0
 10
339.7764570367813
 20
246.9960151996725
 30
0.0
 10
340.0715216941189
 20
246.7563381634927
 30
0.0
 10
340.3361424544655
 20
246.4975386367198
 30
0.0
 10
340.5613319542489
 20
246.2281054772772
 30
0.0
 10
340.7512965964698
 20
245.9432241933125
 30
0.0
 10
340.8990458131707
 20
245.6511263038552
 30
0.0
 10
341.0075744098445
 20
245.348698789792
 30
0.0
 10
341.0717859372185
 20
245.0424640978484
 30
0.0
 10
341.0943870403562
 20
244.7325519008714
 30
0.0
 10
341.0717859372184
 20
244.4226397038945
 30
0.0
 10
341.0075744098446
 20
244.1164050119509
 30
0.0
 10
340.8990458131706
 20
243.8139774978877
 30
0.0
 10
340.7512965964698
 20
243.5218796084304
 30
0.0
 10
340.5613319542488
 20
243.2369983244657
 30
0.0
 10
340.3361424544655
 20
242.967565165023
 30
0.0
 10
340.0715216941191
 20
242.7087656382501
 30
0.0
 10
339.7764570367813
 20
242.4690886020702
 30
0.0
 10
339.4456922277204
 20
242.243750184841
 30
0.0
 10
339.0896245496088
 20
242.0401867143908
 30
0.0
 10
338.702891576457
 20
241.8546944326402
 30
0.0
 10
338.2962180906603
 20
241.6929243239071
 30
0.0
 10
337.8652419026629
 20
241.5525567621399
 30
0.0
 10
337.4198682161423
 20
241.4373137040623
 30
0.0
 10
336.9576552668465
 20
241.34606036576
 30
0.0
 10
336.4867366739846
 20
241.2808528240519
 30
0.0
 10
336.0072051097452
 20
241.2412623566141
 30
0.0
 10
335.5247598719317
 20
241.2281767536449
 30
0.0
 10
335.0423146341195
 20
241.2412623566141
 30
0.0
 10
334.5627830698768
 20
241.2808528240522
 30
0.0
 10
334.0918644770268
 20
241.3460603657588
 30
0.0
 10
333.6296515276886
 20
241.437313704067
 30
0.0
 10
333.1842778413222
 20
241.5525567621227
 30
0.0
 10
332.7533016527735
 20
241.692924323968
 30
0.0
 10
332.3466281689742
 20
241.8546944324182
 30
0.0
 10
331.9598951887908
 20
242.0401867151653
 30
0.0
 10
331.6038275359668
 20
242.2437501820313
 30
0.0
 10
331.2730626389687
 20
242.4690886117249
 30
0.0
 10
330.9779982962917
 20
242.7087656033043
 30
0.0
 10
330.7133764489066
 20
242.9675652841549
 30
0.0
 10
330.4881908380447
 20
243.2369978923794
 30
0.0
 10
330.2982127116505
 20
243.5218810875992
 30
0.0
 10
330.1505120875189
 20
243.8139720895152
 30
0.0
 10
330.0418118293815
 20
244.116423934982
 30
0.0
 10
329.9782288714936
 20
244.4225695330926
 30
0.0
 10
329.9533295517373
 20
244.7328074807343
 30
0.0
 10
329.9739778870069
 20
244.9370896008259
 30
0.0
 10
329.9843020546417
 20
245.0392306608716
 30
0.0
 11
329.9843020546417
 21
245.0392306608716
 31
0.0
 11
330.0489238018744
 21
245.3467925336324
 31
0.0
 11
330.1541237693157
 21
245.6426814124285
 31
0.0
 11
330.3040169517885
 21
245.9399464772962
 31
0.0
 11
330.4877913822538
 21
246.2171350940414
 31
0.0
 11
330.7178478911954
 21
246.4935089941223
 31
0.0
 11
330.9742097342763
 21
246.7452355738423
 31
0.0
 11
331.2763750565341
 21
246.991659744834
 31
0.0
 11
331.5981161012826
 21
247.2115092572822
 31
0.0
 11
331.9622740346924
 21
247.4204631624854
 31
0.0
 11
332.3405210806717
 21
247.6023192240673
 31
0.0
 11
332.7549349861837
 21
247.767727703193
 31
0.0
 11
333.1790293793156
 21
247.9061245706157
 31
0.0
 11
333.6306723493433
 21
248.0233722529848
 31
0.0
 11
334.0883657737953
 21
248.1138710856377
 31
0.0
 11
334.5632738950169
 21
248.1798640061715
 31
0.0
 11
335.0410907696299
 21
248.2193302372604
 31
0.0
 11
335.524759871932
 21
248.2325519008714
 31
0.0
 11
336.0084289742342
 21
248.2193302372603
 31
0.0
 11
336.4862458488472
 21
248.1798640061715
 31
0.0
 11
336.9611539700687
 21
248.1138710856376
 31
0.0
 11
337.4188473945207
 21
248.0233722529848
 31
0.0
 11
337.8704903645485
 21
247.9061245706157
 31
0.0
 11
338.2945847576802
 21
247.7677277031929
 31
0.0
 11
338.7089986631924
 21
247.6023192240673
 31
0.0
 11
339.0872457091716
 21
247.4204631624855
 31
0.0
 11
339.4514036425815
 21
247.2115092572822
 31
0.0
 11
339.7731446873298
 21
246.991659744834
 31
0.0
 11
340.0753100095877
 21
246.7452355738423
 31
0.0
 11
340.3316718526687
 21
246.4935089941223
 31
0.0
 11
340.5617283616103
 21
246.2171350940414
 31
0.0
 11
340.7455027920756
 21
245.9399464772963
 31
0.0
 11
340.8953959745484
 21
245.6426814124285
 31
0.0
 11
341.0005959419896
 21
245.3467925336325
 31
0.0
 11
341.0652176892223
 21
245.0392306608716
 31
0.0
 11
341.0869087372536
 21
244.7325519008714
 31
0.0
 11
341.0652176892223
 21
244.4258731408712
 31
0.0
 11
341.0005959419896
 21
244.1183112681104
 31
0.0
 11
340.8953959745484
 21
243.8224223893143
 31
0.0
 11
340.7455027920755
 21
243.5251573244467
 31
0.0
 11
340.5617283616103
 21
243.2479687077014
 31
0.0
 11
340.3316718526687
 21
242.9715948076205
 31
0.0
 11
340.0753100095877
 21
242.7198682279005
 31
0.0
 11
339.7731446873299
 21
242.4734440569088
 31
0.0
 11
339.4514036425815
 21
242.2535945444606
 31
0.0
 11
339.0872457091715
 21
242.0446406392573
 31
0.0
 11
338.7089986631924
 21
241.8627845776755
 31
0.0
 11
338.2945847576802
 21
241.6973760985498
 31
0.0
 11
337.8704903645484
 21
241.5589792311271
 31
0.0
 11
337.4188473945206
 21
241.4417315487581
 31
0.0
 11
336.9611539700687
 21
241.3512327161051
 31
0.0
 11
336.4862458488472
 21
241.2852397955713
 31
0.0
 11
336.0084289742341
 21
241.2457735644825
 31
0.0
 11
335.524759871932
 21
241.2325519008714
 31
0.0
 11
335.0410907696298
 21
241.2457735644825
 31
0.0
 11
334.5632738950169
 21
241.2852397955713
 31
0.0
 11
334.0883657737953
 21
241.3512327161052
 31
0.0
 11
333.6306723493434
 21
241.4417315487581
 31
0.0
 11
333.1790293793156
 21
241.5589792311271
 31
0.0
 11
332.7549349861838
 21
241.6973760985499
 31
0.0
 11
332.3405210806717
 21
241.8627845776755
 31
0.0
 11
331.9622740346925
 21
242.0446406392574
 31
0.0
 11
331.5981161012827
 21
242.2535945444607
 31
0.0
 11
331.2763750565343
 21
242.4734440569089
 31
0.0
 11
330.9742097342763
 21
242.7198682279005
 31
0.0
 11
330.7178478911954
 21
242.9715948076205
 31
0.0
 11
330.4877913822537
 21
243.2479687077014
 31
0.0
 11
330.3040169517885
 21
243.5251573244466
 31
0.0
 11
330.1541237693156
 21
243.8224223893143
 31
0.0
 11
330.0489238018744
 21
244.1183112681104
 31
0.0
 11
329.9843020546417
 21
244.4258731408713
 31
0.0
 11
329.9626110066104
 21
244.7325519008714
 31
0.0
 11
329.9843020546417
 21
245.0392306608716
 31
0.0
  0
SPLINE
  5
15B
330
47
100
AcDbEntity
  8
1
  6
Continuous
 62
     7
100
AcDbSpline
210
0.0
220
0.0
230
1.0
 70
    11
 71
     3
 72
    79
 73
    75
 74
    73
 42
0.0000000001
 43
0.0000000001
 44
0.00000001
 40
0.0
 40
0.0
 40
0.0
 40
0.0
 40
0.3142773867009538
 40
0.6283112411574754
 40
0.9612293766542855
 40
1.293805038039648
 40
1.653399990663129
 40
2.012687710360588
 40
2.402596358667041
 40
2.792277135713452
 40
3.212125602383297
 40
3.631818889113074
 40
4.078023830870157
 40
4.524128916246127
 40
4.990742665932586
 40
5.457297388873123
 40
5.936768753151423
 40
6.416212753073384
 40
6.90006253648798
 40
7.383912319902692
 40
7.863356319824764
 40
8.342827684102959
 40
8.809382407043485
 40
9.275996156729841
 40
9.722101242105811
 40
10.16830618386288
 40
10.58799947059271
 40
11.00784793726261
 40
11.39752871430901
 40
11.78743736261544
 40
12.14672508231285
 40
12.50632003493639
 40
12.83889569632176
 40
13.17181383181857
 40
13.4858476862751
 40
13.80012507297607
 40
14.10756996787586
 40
14.41501486277568
 40
14.72929224947661
 40
15.04332610393316
 40
15.3762442394299
 40
15.70881990081535
 40
16.06841485343886
 40
16.42770257313629
 40
16.81761122144274
 40
17.20729199848917
 40
17.62714046515905
 40
18.04683375188889
 40
18.49303869364599
 40
18.93914377902189
 40
19.4057575287084
 40
19.87231225164888
 40
20.35178361592707
 40
20.83122761584903
 40
21.31507739926379
 40
21.79892718267845
 40
22.27837118260046
 40
22.75784254687871
 40
23.22439726981919
 40
23.69101101950558
 40
24.13711610488145
 40
24.58332104663858
 40
25.0030143333684
 40
25.42286280003824
 40
25.81254357708465
 40
26.20245222539113
 40
26.56173994508857
 40
26.92133489771217
 40
27.25391055909753
 40
27.58682869459431
 40
27.90086254905086
 40
28.21513993575178
 40
28.52258483065158
 40
28.83002972555132
 40
28.83002972555132
 40
28.83002972555132
 40
28.83002972555132
 10
328.0652176892223
 20
245.0392306608716
 30
0.0
 10
328.0466252166235
 20
245.1425022155718
 30
0.0
 10
328.009454678656
 20
245.3489653002726
 30
0.0
 10
327.8985084154436
 20
245.6510501327643
 30
0.0
 10
327.7514435726603
 20
245.9432450258099
 30
0.0
 10
327.5612890204102
 20
246.2280993918078
 30
0.0
 10
327.336154291886
 20
246.4975403145632
 30
0.0
 10
327.0715182217756
 20
246.7563376713206
 30
0.0
 10
326.776457996095
 20
246.9960153356464
 30
0.0
 10
326.4456919485338
 20
247.2213535773297
 30
0.0
 10
326.0896246265692
 20
247.4249170982604
 30
0.0
 10
325.7028915543862
 20
247.6104093659743
 30
0.0
 10
325.2962180967161
 20
247.7721794786939
 30
0.0
 10
324.8652419009575
 20
247.9125470393611
 30
0.0
 10
324.4198682166075
 20
248.0277900977464
 30
0.0
 10
323.9576552667181
 20
248.1190434359647
 30
0.0
 10
323.4867366740193
 20
248.1842509776958
 30
0.0
 10
323.0072051097358
 20
248.2238414451275
 30
0.0
 10
322.5247598719346
 20
248.2369270480984
 30
0.0
 10
322.0423146341182
 20
248.2238414451286
 30
0.0
 10
321.5627830698795
 20
248.184250977691
 30
0.0
 10
321.0918644770176
 20
248.1190434359828
 30
0.0
 10
320.6296515277217
 20
248.0277900976806
 30
0.0
 10
320.1842778412013
 20
247.9125470396029
 30
0.0
 10
319.7533016532035
 20
247.7721794778357
 30
0.0
 10
319.3466281674071
 20
247.6104093691026
 30
0.0
 10
318.959895194255
 20
247.4249170873521
 30
0.0
 10
318.6038275161437
 20
247.2213536169018
 30
0.0
 10
318.2730627070827
 20
246.9960151996726
 30
0.0
 10
317.977998049745
 20
246.7563381634927
 30
0.0
 10
317.7133772893985
 20
246.4975386367198
 30
0.0
 10
317.4881877896154
 20
246.2281054772771
 30
0.0
 10
317.2982231473943
 20
245.9432241933126
 30
0.0
 10
317.1504739306934
 20
245.6511263038552
 30
0.0
 10
317.0419453340193
 20
245.3486987897921
 30
0.0
 10
316.9777338066455
 20
245.0424640978482
 30
0.0
 10
316.9551327035078
 20
244.7325519008714
 30
0.0
 10
316.9777338066456
 20
244.4226397038946
 30
0.0
 10
317.0419453340193
 20
244.1164050119508
 30
0.0
 10
317.1504739306935
 20
243.8139774978878
 30
0.0
 10
317.2982231473943
 20
243.5218796084303
 30
0.0
 10
317.4881877896153
 20
243.2369983244658
 30
0.0
 10
317.7133772893985
 20
242.9675651650231
 30
0.0
 10
317.977998049745
 20
242.70876563825
 30
0.0
 10
318.2730627070826
 20
242.4690886020703
 30
0.0
 10
318.6038275161437
 20
242.243750184841
 30
0.0
 10
318.9598951942551
 20
242.0401867143907
 30
0.0
 10
319.346628167407
 20
241.8546944326403
 30
0.0
 10
319.7533016532036
 20
241.6929243239071
 30
0.0
 10
320.1842778412012
 20
241.5525567621399
 30
0.0
 10
320.6296515277217
 20
241.4373137040623
 30
0.0
 10
321.0918644770177
 20
241.3460603657601
 30
0.0
 10
321.5627830698794
 20
241.2808528240519
 30
0.0
 10
322.042314634119
 20
241.2412623566141
 30
0.0
 10
322.5247598719321
 20
241.2281767536449
 30
0.0
 10
323.0072051097446
 20
241.2412623566141
 30
0.0
 10
323.4867366739872
 20
241.2808528240522
 30
0.0
 10
323.9576552668374
 20
241.3460603657588
 30
0.0
 10
324.4198682161755
 20
241.437313704067
 30
0.0
 10
324.8652419025419
 20
241.5525567621227
 30
0.0
 10
325.2962180910905
 20
241.6929243239682
 30
0.0
 10
325.7028915748898
 20
241.854694432418
 30
0.0
 10
326.0896245550734
 20
242.0401867151654
 30
0.0
 10
326.4456922078972
 20
242.2437501820313
 30
0.0
 10
326.7764571048954
 20
242.4690886117248
 30
0.0
 10
327.0715214475724
 20
242.7087656033044
 30
0.0
 10
327.3361432949575
 20
242.9675652841549
 30
0.0
 10
327.5613289058194
 20
243.2369978923794
 30
0.0
 10
327.7513070322134
 20
243.5218810875991
 30
0.0
 10
327.8990076563451
 20
243.8139720895154
 30
0.0
 10
328.0077079144825
 20
244.116423934982
 30
0.0
 10
328.0712908723703
 20
244.4225695330925
 30
0.0
 10
328.0961901921268
 20
244.7328074807344
 30
0.0
 10
328.0755418568572
 20
244.9370896008259
 30
0.0
 10
328.0652176892223
 20
245.0392306608716
 30
0.0
 11
328.0652176892223
 21
245.0392306608716
 31
0.0
 11
328.0005959419896
 21
245.3467925336324
 31
0.0
 11
327.8953959745484
 21
245.6426814124285
 31
0.0
 11
327.7455027920755
 21
245.9399464772962
 31
0.0
 11
327.5617283616102
 21
246.2171350940414
 31
0.0
 11
327.3316718526687
 21
246.4935089941223
 31
0.0
 11
327.0753100095877
 21
246.7452355738423
 31
0.0
 11
326.7731446873299
 21
246.991659744834
 31
0.0
 11
326.4514036425815
 21
247.2115092572822
 31
0.0
 11
326.0872457091716
 21
247.4204631624854
 31
0.0
 11
325.7089986631925
 21
247.6023192240673
 31
0.0
 11
325.2945847576804
 21
247.767727703193
 31
0.0
 11
324.8704903645485
 21
247.9061245706157
 31
0.0
 11
324.4188473945207
 21
248.0233722529848
 31
0.0
 11
323.9611539700687
 21
248.1138710856377
 31
0.0
 11
323.486245848847
 21
248.1798640061715
 31
0.0
 11
323.0084289742342
 21
248.2193302372604
 31
0.0
 11
322.5247598719321
 21
248.2325519008714
 31
0.0
 11
322.0410907696299
 21
248.2193302372603
 31
0.0
 11
321.5632738950169
 21
248.1798640061715
 31
0.0
 11
321.0883657737953
 21
248.1138710856376
 31
0.0
 11
320.6306723493433
 21
248.0233722529848
 31
0.0
 11
320.1790293793156
 21
247.9061245706157
 31
0.0
 11
319.7549349861838
 21
247.7677277031929
 31
0.0
 11
319.3405210806717
 21
247.6023192240673
 31
0.0
 11
318.9622740346924
 21
247.4204631624855
 31
0.0
 11
318.5981161012826
 21
247.2115092572822
 31
0.0
 11
318.2763750565342
 21
246.991659744834
 31
0.0
 11
317.9742097342763
 21
246.7452355738423
 31
0.0
 11
317.7178478911954
 21
246.4935089941223
 31
0.0
 11
317.4877913822538
 21
246.2171350940414
 31
0.0
 11
317.3040169517886
 21
245.9399464772963
 31
0.0
 11
317.1541237693156
 21
245.6426814124285
 31
0.0
 11
317.0489238018743
 21
245.3467925336325
 31
0.0
 11
316.9843020546416
 21
245.0392306608716
 31
0.0
 11
316.9626110066104
 21
244.7325519008714
 31
0.0
 11
316.9843020546417
 21
244.4258731408712
 31
0.0
 11
317.0489238018743
 21
244.1183112681104
 31
0.0
 11
317.1541237693157
 21
243.8224223893143
 31
0.0
 11
317.3040169517886
 21
243.5251573244467
 31
0.0
 11
317.4877913822538
 21
243.2479687077014
 31
0.0
 11
317.7178478911953
 21
242.9715948076205
 31
0.0
 11
317.9742097342763
 21
242.7198682279005
 31
0.0
 11
318.2763750565342
 21
242.4734440569088
 31
0.0
 11
318.5981161012826
 21
242.2535945444606
 31
0.0
 11
318.9622740346924
 21
242.0446406392573
 31
0.0
 11
319.3405210806717
 21
241.8627845776755
 31
0.0
 11
319.7549349861838
 21
241.6973760985498
 31
0.0
 11
320.1790293793156
 21
241.5589792311271
 31
0.0
 11
320.6306723493435
 21
241.4417315487581
 31
0.0
 11
321.0883657737954
 21
241.3512327161051
 31
0.0
 11
321.563273895017
 21
241.2852397955713
 31
0.0
 11
322.0410907696298
 21
241.2457735644825
 31
0.0
 11
322.5247598719321
 21
241.2325519008714
 31
0.0
 11
323.0084289742342
 21
241.2457735644825
 31
0.0
 11
323.4862458488472
 21
241.2852397955713
 31
0.0
 11
323.9611539700688
 21
241.3512327161052
 31
0.0
 11
324.4188473945207
 21
241.4417315487581
 31
0.0
 11
324.8704903645485
 21
241.5589792311271
 31
0.0
 11
325.2945847576802
 21
241.6973760985499
 31
0.0
 11
325.7089986631924
 21
241.8627845776755
 31
0.0
 11
326.0872457091716
 21
242.0446406392574
 31
0.0
 11
326.4514036425813
 21
242.2535945444607
 31
0.0
 11
326.7731446873298
 21
242.4734440569089
 31
0.0
 11
327.0753100095877
 21
242.7198682279005
 31
0.0
 11
327.3316718526687
 21
242.9715948076205
 31
0.0
 11
327.5617283616103
 21
243.2479687077014
 31
0.0
 11
327.7455027920755
 21
243.5251573244466
 31
0.0
 11
327.8953959745484
 21
243.8224223893143
 31
0.0
 11
328.0005959419896
 21
244.1183112681104
 31
0.0
 11
328.0652176892223
 21
244.4258731408713
 31
0.0
 11
328.0869087372537
 21
244.7325519008714
 31
0.0
 11
328.0652176892223
 21
245.0392306608716
 31
0.0
  0
ENDBLK
  5
49
330
47
100
AcDbEntity
  8
0
100
AcDbBlockEnd
  0
BLOCK
  5
4D
330
4A
100
AcDbEntity
  8
0
100
AcDbBlockBegin
  2
R10A-13
 70
     0
 71
     0
 10
207.9004738833838
 20
221.7325519008714
 30
0.0
  3
R10A-13
  1

  0
INSERT
  5
4B
330
4A
100
AcDbEntity
  8
0
100
AcDbBlockReference
  2
36-1A-13-M11
 10
-53.20741606893199
 20
123.4634258914352
 30
0.0
  0
INSERT
  5
4C
330
4A
100
AcDbEntity
  8
0
100
AcDbBlockReference
  2
37-1-13
 10
71.09924366661278
 20
104.2368460107269
 30
0.0
  0
LINE
  5
15C
330
4A
100
AcDbEntity
  8
1
  6
PHANTOM
 62
     4
100
AcDbLine
 10
162.9004738833838
 20
238.7325519008714
 30
0.0
 11
162.9004738833838
 21
276.5325519008714
 31
0.0
  0
ENDBLK
  5
4E
330
4A
100
AcDbEntity
  8
0
100
AcDbBlockEnd
  0
BLOCK
  5
50
330
4F
100
AcDbEntity
  8
0
100
AcDbBlockBegin
  2
28-1A-28-13
 70
     0
 71
     0
 10
499.3370886390551
 20
223.1621116650338
 30
0.0
  3
28-1A-28-13
  1

  0
LINE
  5
15D
330
4F
100
AcDbEntity
  8
1
  6
Continuous
 62
     7
100
AcDbLine
 10
134.9469597861635
 20
238.4825519008715
 30
0.0
 11
132.9004738833838
 21
238.4825519008715
 31
0.0
  0
LINE
  5
15E
330
4F
100
AcDbEntity
  8
1
  6
Continuous
 62
     7
100
AcDbLine
 10
136.4004738833838
 20
227.9825519008714
 30
0.0
 11
135.9458279238879
 21
237.5301170502868
 31
0.0
  0
LINE
  5
15F
330
4F
100
AcDbEntity
  8
1
  6
Continuous
 62
     7
100
AcDbLine
 10
139.9004738833838
 20
226.9825519008714
 30
0.0
 11
136.4004738833838
 21
227.9825519008714
 31
0.0
  0
LINE
  5
160
330
4F
100
AcDbEntity
  8
1
  6
Continuous
 62
     7
100
AcDbLine
 10
132.9004738833838
 20
225.9325519008714
 30
0.0
 11
132.9004738833838
 21
225.9825519008714
 31
0.0
  0
LINE
  5
161
330
4F
100
AcDbEntity
  8
1
  6
Continuous
 62
     7
100
AcDbLine
 10
135.9458279238879
 20
228.4462636424766
 30
0.0
 11
135.9458279238879
 21
202.0188401592659
 31
0.0
  0
LINE
  5
162
330
4F
100
AcDbEntity
  8
1
  6
Continuous
 62
     7
100
AcDbLine
 10
139.9004738833838
 20
226.9825519008714
 30
0.0
 11
139.9004738833838
 21
203.4825519008712
 31
0.0
  0
LINE
  5
163
330
4F
100
AcDbEntity
  8
1
  6
Continuous
 62
     7
100
AcDbLine
 10
132.9004738833838
 20
191.9825519008712
 30
0.0
 11
134.9469597861635
 21
191.9825519008712
 31
0.0
  0
LINE
  5
164
330
4F
100
AcDbEntity
  8
1
  6
Continuous
 62
     7
100
AcDbLine
 10
135.9458279238879
 20
192.9349867514557
 30
0.0
 11
136.4004738833838
 21
202.4825519008712
 31
0.0
  0
LINE
  5
165
330
4F
100
AcDbEntity
  8
1
  6
Continuous
 62
     7
100
AcDbLine
 10
136.4004738833838
 20
202.4825519008712
 30
0.0
 11
139.9004738833838
 21
203.4825519008712
 31
0.0
  0
LINE
  5
166
330
4F
100
AcDbEntity
  8
1
  6
Continuous
 62
     7
100
AcDbLine
 10
132.9004738833838
 20
191.9825519008712
 30
0.0
 11
132.9004738833838
 21
204.4825519008712
 31
0.0
  0
LINE
  5
167
330
4F
100
AcDbEntity
  8
1
  6
Continuous
 62
     7
100
AcDbLine
 10
132.9004738833838
 20
225.9825519008714
 30
0.0
 11
132.9004738833838
 21
238.4825519008715
 31
0.0
  0
LINE
  5
168
330
4F
100
AcDbEntity
  8
1
  6
Continuous
 62
     7
100
AcDbLine
 10
132.9004738833838
 20
204.4825519008712
 30
0.0
 11
132.9004738833838
 21
204.5325519008711
 31
0.0
  0
LINE
  5
169
330
4F
100
AcDbEntity
  8
1
  6
Continuous
 62
     7
100
AcDbLine
 10
132.9004738833838
 20
204.4825519008712
 30
0.0
 11
132.9004738833838
 21
225.9825519008714
 31
0.0
  0
LINE
  5
16A
330
4F
100
AcDbEntity
  8
1
  6
Continuous
 62
     7
100
AcDbLine
 10
132.9004738833838
 20
380.4825519008712
 30
0.0
 11
132.9004738833838
 21
401.9825519008714
 31
0.0
  0
LINE
  5
16B
330
4F
100
AcDbEntity
  8
1
  6
Continuous
 62
     7
100
AcDbLine
 10
132.9004738833838
 20
380.4825519008712
 30
0.0
 11
132.9004738833838
 21
380.5325519008711
 31
0.0
  0
LINE
  5
16C
330
4F
100
AcDbEntity
  8
1
  6
Continuous
 62
     7
100
AcDbLine
 10
132.9004738833838
 20
401.9825519008714
 30
0.0
 11
132.9004738833838
 21
414.4825519008715
 31
0.0
  0
LINE
  5
16D
330
4F
100
AcDbEntity
  8
1
  6
Continuous
 62
     7
100
AcDbLine
 10
132.9004738833838
 20
367.9825519008712
 30
0.0
 11
132.9004738833838
 21
380.4825519008712
 31
0.0
  0
LINE
  5
16E
330
4F
100
AcDbEntity
  8
1
  6
Continuous
 62
     7
100
AcDbLine
 10
136.4004738833838
 20
378.4825519008712
 30
0.0
 11
139.9004738833838
 21
379.4825519008712
 31
0.0
  0
LINE
  5
16F
330
4F
100
AcDbEntity
  8
1
  6
Continuous
 62
     7
100
AcDbLine
 10
135.9458279238879
 20
368.9349867514557
 30
0.0
 11
136.4004738833838
 21
378.4825519008712
 31
0.0
  0
LINE
  5
170
330
4F
100
AcDbEntity
  8
1
  6
Continuous
 62
     7
100
AcDbLine
 10
132.9004738833838
 20
367.9825519008712
 30
0.0
 11
134.9469597861635
 21
367.9825519008712
 31
0.0
  0
LINE
  5
171
330
4F
100
AcDbEntity
  8
1
  6
Continuous
 62
     7
100
AcDbLine
 10
139.9004738833838
 20
402.9825519008714
 30
0.0
 11
139.9004738833838
 21
379.4825519008712
 31
0.0
  0
LINE
  5
172
330
4F
100
AcDbEntity
  8
1
  6
Continuous
 62
     7
100
AcDbLine
 10
135.9458279238879
 20
404.4462636424766
 30
0.0
 11
135.9458279238879
 21
378.0188401592659
 31
0.0
  0
LINE
  5
173
330
4F
100
AcDbEntity
  8
1
  6
Continuous
 62
     7
100
AcDbLine
 10
132.9004738833838
 20
401.9325519008714
 30
0.0
 11
132.9004738833838
 21
401.9825519008714
 31
0.0
  0
LINE
  5
174
330
4F
100
AcDbEntity
  8
1
  6
Continuous
 62
     7
100
AcDbLine
 10
139.9004738833838
 20
402.9825519008714
 30
0.0
 11
136.4004738833838
 21
403.9825519008714
 31
0.0
  0
LINE
  5
175
330
4F
100
AcDbEntity
  8
1
  6
Continuous
 62
     7
100
AcDbLine
 10
136.4004738833838
 20
403.9825519008714
 30
0.0
 11
135.9458279238879
 21
413.5301170502868
 31
0.0
  0
LINE
  5
176
330
4F
100
AcDbEntity
  8
1
  6
Continuous
 62
     7
100
AcDbLine
 10
134.9469597861635
 20
414.4825519008715
 30
0.0
 11
132.9004738833838
 21
414.4825519008715
 31
0.0
  0
ARC
  5
177
330
4F
100
AcDbEntity
  8
1
  6
Continuous
 62
     7
100
AcDbCircle
 10
329.0247598719294
 20
215.2325519008683
 30
0.0
 40
23.25057362286089
100
AcDbArc
 50
45.12860790534359
 51
57.47282408579578
  0
ARC
  5
178
330
4F
100
AcDbEntity
  8
1
  6
Continuous
 62
     7
100
AcDbCircle
 10
329.0247598719305
 20
215.2325519008733
 30
0.0
 40
23.25057362285444
100
AcDbArc
 50
122.5271759142007
 51
134.871392094658
  0
ARC
  5
179
330
4F
100
AcDbEntity
  8
1
  6
Continuous
 62
     7
100
AcDbCircle
 10
329.024759871932
 20
215.2319782780147
 30
0.0
 40
23.25000000000007
100
AcDbArc
 50
-168.8980144087531
 51
-13.68209167392604
  0
ARC
  5
17A
330
4F
100
AcDbEntity
  8
1
  6
Continuous
 62
     7
100
AcDbCircle
 10
134.9469597861635
 20
237.4825519008715
 30
0.0
 40
0.9999999999999563
100
AcDbArc
 50
2.72631099389813
 51
90.0
  0
ARC
  5
17B
330
4F
100
AcDbEntity
  8
1
  6
Continuous
 62
     7
100
AcDbCircle
 10
134.9469597861635
 20
192.9825519008712
 30
0.0
 40
1.0
100
AcDbArc
 50
-90.0
 51
-2.72631099390789
  0
ARC
  5
17C
330
4F
100
AcDbEntity
  8
1
  6
Continuous
 62
     7
100
AcDbCircle
 10
134.9469597861635
 20
368.9825519008712
 30
0.0
 40
1.0
100
AcDbArc
 50
-90.0
 51
-2.72631099390952
  0
ARC
  5
17D
330
4F
100
AcDbEntity
  8
1
  6
Continuous
 62
     7
100
AcDbCircle
 10
134.9469597861635
 20
413.4825519008715
 30
0.0
 40
0.9999999999999548
100
AcDbArc
 50
2.72631099389651
 51
90.0
  0
ENDBLK
  5
51
330
4F
100
AcDbEntity
  8
0
100
AcDbBlockEnd
  0
BLOCK
  5
53
330
52
100
AcDbEntity
  8
0
100
AcDbBlockBegin
  2
B41J-0-M11
 70
     0
 71
     0
 10
38.02475987193202
 20
102.870330843116
 30
0.0
  3
B41J-0-M11
  1

  0
LINE
  5
17E
330
52
100
AcDbEntity
  8
1
  6
Continuous
 62
     7
100
AcDbLine
 10
302.1867598719323
 20
231.7100519008716
 30
0.0
 11
302.1867598719323
 21
210.7550519008715
 31
0.0
  0
LINE
  5
17F
330
52
100
AcDbEntity
  8
1
  6
Continuous
 62
     7
100
AcDbLine
 10
118.9004738833838
 20
225.7319782780145
 30
0.0
 11
118.9004738833838
 21
204.7319782780144
 31
0.0
  0
LINE
  5
180
330
52
100
AcDbEntity
  8
1
  6
Continuous
 62
     7
100
AcDbLine
 10
163.3190305293048
 20
405.2199088624764
 30
0.0
 11
174.5134570558366
 21
405.2199088624764
 31
0.0
  0
LINE
  5
181
330
52
100
AcDbEntity
  8
1
  6
Continuous
 62
     7
100
AcDbLine
 10
153.7587754027643
 20
375.2325519008714
 30
0.0
 11
152.4229738833838
 21
375.2325519008714
 31
0.0
  0
LINE
  5
182
330
52
100
AcDbEntity
  8
1
  6
Continuous
 62
     7
100
AcDbLine
 10
154.3227035466545
 20
377.2451949392663
 30
0.0
 11
152.4229738833838
 21
377.2451949392664
 31
0.0
  0
LINE
  5
183
330
52
100
AcDbEntity
  8
1
  6
Continuous
 62
     7
100
AcDbLine
 10
152.4229738833839
 20
407.2325519008713
 30
0.0
 11
152.4229738833837
 21
405.2199088624764
 31
0.0
  0
LINE
  5
184
330
52
100
AcDbEntity
  8
1
  6
Continuous
 62
     2
100
AcDbLine
 10
152.4229738833839
 20
407.2325519008713
 30
0.0
 11
153.5849738833837
 21
407.2325519008714
 31
0.0
  0
LINE
  5
185
330
52
100
AcDbEntity
  8
1
  6
Continuous
 62
     7
100
AcDbLine
 10
152.4229738833837
 20
405.2199088624764
 30
0.0
 11
154.3227035466542
 21
405.2199088624764
 31
0.0
  0
LINE
  5
186
330
52
100
AcDbEntity
  8
1
  6
Continuous
 62
     2
100
AcDbLine
 10
152.4229738833837
 20
405.2199088624764
 30
0.0
 11
153.5849738833837
 21
407.2325519008714
 31
0.0
  0
LINE
  5
187
330
52
100
AcDbEntity
  8
1
  6
Continuous
 62
     7
100
AcDbLine
 10
152.4229738833837
 20
413.7366850435128
 30
0.0
 11
152.4229738833839
 21
407.2325519008713
 31
0.0
  0
LINE
  5
188
330
52
100
AcDbEntity
  8
1
  6
Continuous
 62
     2
100
AcDbLine
 10
153.5849738833837
 20
407.2325519008714
 30
0.0
 11
153.5849738833837
 21
413.7366850435128
 31
0.0
  0
LINE
  5
189
330
52
100
AcDbEntity
  8
1
  6
Continuous
 62
     7
100
AcDbLine
 10
152.4229738833838
 20
377.2451949392664
 30
0.0
 11
151.2874907109309
 21
377.2451949392663
 31
0.0
  0
LINE
  5
18A
330
52
100
AcDbEntity
  8
1
  6
Continuous
 62
     2
100
AcDbLine
 10
153.5849738833838
 20
375.2325519008714
 30
0.0
 11
152.4229738833838
 21
377.2451949392664
 31
0.0
  0
LINE
  5
18B
330
52
100
AcDbEntity
  8
1
  6
Continuous
 62
     2
100
AcDbLine
 10
153.5849738833839
 20
363.2325519008714
 30
0.0
 11
153.5849738833838
 21
375.2325519008714
 31
0.0
  0
LINE
  5
18C
330
52
100
AcDbEntity
  8
1
  6
Continuous
 62
     7
100
AcDbLine
 10
152.4229738833838
 20
377.2451949392664
 30
0.0
 11
152.4229738833838
 21
364.3945519008714
 31
0.0
  0
LINE
  5
18D
330
52
100
AcDbEntity
  8
1
  6
Continuous
 62
     7
100
AcDbLine
 10
147.9004738833838
 20
387.2077218610679
 30
0.0
 11
147.9004738833838
 21
379.2825519008714
 31
0.0
  0
LINE
  5
18E
330
52
100
AcDbEntity
  8
1
  6
Continuous
 62
     7
100
AcDbLine
 10
147.9004738833838
 20
379.2825519008714
 30
0.0
 11
147.9004738833838
 21
378.8865224120216
 31
0.0
  0
LINE
  5
18F
330
52
100
AcDbEntity
  8
1
  6
Continuous
 62
     7
100
AcDbLine
 10
147.9004738833838
 20
403.1825519008714
 30
0.0
 11
147.9004738833838
 21
395.2573819406749
 31
0.0
  0
LINE
  5
190
330
52
100
AcDbEntity
  8
1
  6
Continuous
 62
     7
100
AcDbLine
 10
151.2874907109309
 20
405.2199088624763
 30
0.0
 11
152.4229738833837
 21
405.2199088624764
 31
0.0
  0
LINE
  5
191
330
52
100
AcDbEntity
  8
1
  6
Continuous
 62
     7
100
AcDbLine
 10
151.2874907109309
 20
405.2199088624763
 30
0.0
 11
151.0178859743512
 21
400.0755440321424
 31
0.0
  0
LINE
  5
192
330
52
100
AcDbEntity
  8
1
  6
Continuous
 62
     7
100
AcDbLine
 10
151.0178859743512
 20
382.3895597696002
 30
0.0
 11
151.2874907109309
 21
377.2451949392663
 31
0.0
  0
LINE
  5
193
330
52
100
AcDbEntity
  8
1
  6
Continuous
 62
     7
100
AcDbLine
 10
147.9004738833838
 20
378.8865224120216
 30
0.0
 11
151.2014723830075
 21
378.8865224120216
 31
0.0
  0
LINE
  5
194
330
52
100
AcDbEntity
  8
1
  6
Continuous
 62
     7
100
AcDbLine
 10
151.2014723830075
 20
403.578581389721
 30
0.0
 11
147.9004738833838
 21
403.578581389721
 31
0.0
  0
LINE
  5
195
330
52
100
AcDbEntity
  8
1
  6
Continuous
 62
     7
100
AcDbLine
 10
175.8623410328346
 20
378.0325519008714
 30
0.0
 11
185.228892322431
 21
378.0325519008714
 31
0.0
  0
LINE
  5
196
330
52
100
AcDbEntity
  8
1
  6
Continuous
 62
     7
100
AcDbLine
 10
174.5596351220577
 20
378.1263249328073
 30
0.0
 11
174.5134570558366
 21
377.2451949392664
 31
0.0
  0
LINE
  5
197
330
52
100
AcDbEntity
  8
1
  6
Continuous
 62
     7
100
AcDbLine
 10
171.7673830587555
 20
202.8859487891648
 30
0.0
 11
171.7673830587555
 21
215.2325519008714
 31
0.0
  0
LINE
  5
198
330
52
100
AcDbEntity
  8
1
  6
Continuous
 62
     7
100
AcDbLine
 10
173.2465033722335
 20
202.0319782780145
 30
0.0
 11
173.2465033722335
 21
219.5779582752774
 31
0.0
  0
LINE
  5
199
330
52
100
AcDbEntity
  8
1
  6
Continuous
 62
     7
100
AcDbLine
 10
319.6439283522853
 20
213.7325519008714
 30
0.0
 11
338.4055913915789
 21
213.7325519008714
 31
0.0
  0
LINE
  5
19A
330
52
100
AcDbEntity
  8
1
  6
Continuous
 62
     2
100
AcDbLine
 10
351.5247598719321
 20
211.9170519008714
 30
0.0
 11
345.0247598719321
 21
211.9170519008714
 31
0.0
  0
LINE
  5
19B
330
52
100
AcDbEntity
  8
1
  6
Continuous
 62
     7
100
AcDbLine
 10
351.5247598719321
 20
231.7100519008716
 30
0.0
 11
343.0121168335371
 21
231.7100519008716
 31
0.0
  0
LINE
  5
19C
330
52
100
AcDbEntity
  8
1
  6
Continuous
 62
     7
100
AcDbLine
 10
317.0247598719321
 20
241.2325519008714
 30
0.0
 11
317.0247598719321
 21
239.7325519008714
 31
0.0
  0
LINE
  5
19D
330
52
100
AcDbEntity
  8
1
  6
Continuous
 62
     2
100
AcDbLine
 10
340.2117598719321
 20
241.2325519008714
 30
0.0
 11
340.2117598719321
 21
239.7325519008714
 31
0.0
  0
LINE
  5
19E
330
52
100
AcDbEntity
  8
1
  6
Continuous
 62
     7
100
AcDbLine
 10
140.5044443945342
 20
227.1819782780145
 30
0.0
 11
140.5044443945342
 21
203.2819782780145
 31
0.0
  0
LINE
  5
19F
330
52
100
AcDbEntity
  8
1
  6
Continuous
 62
     7
100
AcDbLine
 10
132.9004738833838
 20
225.7319782780145
 30
0.0
 11
118.9004738833838
 21
225.7319782780145
 31
0.0
  0
LINE
  5
1A0
330
52
100
AcDbEntity
  8
1
  6
Continuous
 62
     2
100
AcDbLine
 10
132.9004738833838
 20
224.7319782780145
 30
0.0
 11
117.9004738833838
 21
224.7319782780145
 31
0.0
  0
LINE
  5
1A1
330
52
100
AcDbEntity
  8
1
  6
Continuous
 62
     7
100
AcDbLine
 10
132.9004738833838
 20
204.7319782780144
 30
0.0
 11
118.9004738833838
 21
204.7319782780144
 31
0.0
  0
LINE
  5
1A2
330
52
100
AcDbEntity
  8
1
  6
Continuous
 62
     2
100
AcDbLine
 10
132.9004738833838
 20
205.7319782780145
 30
0.0
 11
117.9004738833838
 21
205.7319782780144
 31
0.0
  0
LINE
  5
1A3
330
52
100
AcDbEntity
  8
1
  6
Continuous
 62
     2
100
AcDbLine
 10
174.0874738833838
 20
241.2325519008714
 30
0.0
 11
174.0874738833838
 21
239.7319782780145
 31
0.0
  0
LINE
  5
1A4
330
52
100
AcDbEntity
  8
1
  6
Continuous
 62
     7
100
AcDbLine
 10
150.9004738833838
 20
241.2325519008714
 30
0.0
 11
150.9004738833838
 21
239.7319782780145
 31
0.0
  0
LINE
  5
1A5
330
52
100
AcDbEntity
  8
1
  6
Continuous
 62
     7
100
AcDbLine
 10
147.9004738833838
 20
202.8859487891648
 30
0.0
 11
171.7673830587555
 21
202.8859487891648
 31
0.0
  0
LINE
  5
1A6
330
52
100
AcDbEntity
  8
1
  6
Continuous
 62
     7
100
AcDbLine
 10
147.9004738833838
 20
203.2819782780145
 30
0.0
 11
147.9004738833838
 21
202.8859487891648
 31
0.0
  0
LINE
  5
1A7
330
52
100
AcDbEntity
  8
1
  6
Continuous
 62
     7
100
AcDbLine
 10
147.9004738833838
 20
203.2819782780145
 30
0.0
 11
147.9004738833838
 21
228.1625637758879
 31
0.0
  0
LINE
  5
1A8
330
52
100
AcDbEntity
  8
1
  6
Continuous
 62
     7
100
AcDbLine
 10
140.5044443945342
 20
203.2819782780145
 30
0.0
 11
147.9004738833838
 21
203.2819782780145
 31
0.0
  0
LINE
  5
1A9
330
52
100
AcDbEntity
  8
1
  6
Continuous
 62
     7
100
AcDbLine
 10
140.5044443945342
 20
227.1819782780145
 30
0.0
 11
147.9004738833838
 21
227.1819782780145
 31
0.0
  0
LINE
  5
1AA
330
52
100
AcDbEntity
  8
1
  6
Continuous
 62
     7
100
AcDbLine
 10
147.9004738833838
 20
403.578581389721
 30
0.0
 11
147.9004738833838
 21
403.1825519008714
 31
0.0
  0
LINE
  5
1AB
330
52
100
AcDbEntity
  8
1
  6
Continuous
 62
     7
100
AcDbLine
 10
140.5044443945342
 20
379.2825519008714
 30
0.0
 11
147.9004738833838
 21
379.2825519008714
 31
0.0
  0
LINE
  5
1AC
330
52
100
AcDbEntity
  8
1
  6
Continuous
 62
     7
100
AcDbLine
 10
140.5044443945342
 20
403.1825519008714
 30
0.0
 11
139.9004738833838
 21
402.5785813897211
 31
0.0
  0
LINE
  5
1AD
330
52
100
AcDbEntity
  8
1
  6
Continuous
 62
     7
100
AcDbLine
 10
140.5044443945342
 20
403.1825519008714
 30
0.0
 11
147.9004738833838
 21
403.1825519008714
 31
0.0
  0
LINE
  5
1AE
330
52
100
AcDbEntity
  8
1
  6
Continuous
 62
     7
100
AcDbLine
 10
191.4004738833838
 20
199.2319782780145
 30
0.0
 11
191.4004738833838
 21
231.2319782780145
 31
0.0
  0
LINE
  5
1AF
330
52
100
AcDbEntity
  8
1
  6
Continuous
 62
     7
100
AcDbLine
 10
345.0247598719321
 20
210.7550519008715
 30
0.0
 11
351.5247598719321
 21
210.7550519008715
 31
0.0
  0
LINE
  5
1B0
330
52
100
AcDbEntity
  8
1
  6
Continuous
 62
     7
100
AcDbLine
 10
313.0247598719321
 20
210.7550519008715
 30
0.0
 11
313.6646284223766
 21
210.7550519008715
 31
0.0
  0
LINE
  5
1B1
330
52
100
AcDbEntity
  8
1
  6
Continuous
 62
     2
100
AcDbLine
 10
345.0247598719321
 20
230.5480519008715
 30
0.0
 11
351.5247598719321
 21
230.5480519008715
 31
0.0
  0
LINE
  5
1B2
330
52
100
AcDbEntity
  8
1
  6
Continuous
 62
     7
100
AcDbLine
 10
343.0121168335371
 20
231.7100519008716
 30
0.0
 11
343.0121168335371
 21
223.0001441678652
 31
0.0
  0
LINE
  5
1B3
330
52
100
AcDbEntity
  8
1
  6
Continuous
 62
     7
100
AcDbLine
 10
345.0247598719321
 20
231.7100519008716
 30
0.0
 11
345.0247598719321
 21
210.7550519008715
 31
0.0
  0
LINE
  5
1B4
330
52
100
AcDbEntity
  8
1
  6
Continuous
 62
     7
100
AcDbLine
 10
345.0247598719321
 20
211.9170519008714
 30
0.0
 11
345.0247598719321
 21
210.7550519008715
 31
0.0
  0
LINE
  5
1B5
330
52
100
AcDbEntity
  8
1
  6
Continuous
 62
     7
100
AcDbLine
 10
344.3848913214875
 20
210.7550519008715
 30
0.0
 11
345.0247598719321
 21
210.7550519008715
 31
0.0
  0
LINE
  5
1B6
330
52
100
AcDbEntity
  8
1
  6
Continuous
 62
     2
100
AcDbLine
 10
345.0247598719321
 20
211.9170519008714
 30
0.0
 11
344.6263980754741
 21
211.6870576104516
 31
0.0
  0
LINE
  5
1B7
330
52
100
AcDbEntity
  8
1
  6
Continuous
 62
     2
100
AcDbLine
 10
343.0121168335371
 20
231.7100519008716
 30
0.0
 11
345.0247598719321
 21
230.5480519008715
 31
0.0
  0
LINE
  5
1B8
330
52
100
AcDbEntity
  8
1
  6
Continuous
 62
     7
100
AcDbLine
 10
343.0121168335371
 20
233.1055617157244
 30
0.0
 11
343.0121168335371
 21
231.7100519008716
 31
0.0
  0
LINE
  5
1B9
330
52
100
AcDbEntity
  8
1
  6
Continuous
 62
     7
100
AcDbLine
 10
301.0247598719321
 20
230.5480519008715
 30
0.0
 11
301.0247598719321
 21
211.9170519008714
 31
0.0
  0
LINE
  5
1BA
330
52
100
AcDbEntity
  8
1
  6
Continuous
 62
     7
100
AcDbLine
 10
315.0374029103273
 20
231.7100519008716
 30
0.0
 11
302.1867598719323
 21
231.7100519008716
 31
0.0
  0
LINE
  5
1BB
330
52
100
AcDbEntity
  8
1
  6
Continuous
 62
     7
100
AcDbLine
 10
301.0247598719321
 20
230.5480519008715
 30
0.0
 11
302.1867598719323
 21
231.7100519008716
 31
0.0
  0
LINE
  5
1BC
330
52
100
AcDbEntity
  8
1
  6
Continuous
 62
     7
100
AcDbLine
 10
313.0247598719321
 20
230.5480519008715
 30
0.0
 11
313.0247598719321
 21
231.7100519008716
 31
0.0
  0
LINE
  5
1BD
330
52
100
AcDbEntity
  8
1
  6
Continuous
 62
     7
100
AcDbLine
 10
313.0247598719321
 20
210.7550519008715
 30
0.0
 11
313.0247598719321
 21
230.5480519008715
 31
0.0
  0
LINE
  5
1BE
330
52
100
AcDbEntity
  8
1
  6
Continuous
 62
     7
100
AcDbLine
 10
302.1867598719323
 20
210.7550519008715
 30
0.0
 11
301.0247598719321
 21
211.9170519008714
 31
0.0
  0
LINE
  5
1BF
330
52
100
AcDbEntity
  8
1
  6
Continuous
 62
     7
100
AcDbLine
 10
302.1867598719323
 20
210.7550519008715
 30
0.0
 11
313.0247598719321
 21
210.7550519008715
 31
0.0
  0
LINE
  5
1C0
330
52
100
AcDbEntity
  8
1
  6
Continuous
 62
     2
100
AcDbLine
 10
301.0247598719321
 20
230.5480519008715
 30
0.0
 11
313.0247598719321
 21
230.5480519008715
 31
0.0
  0
LINE
  5
1C1
330
52
100
AcDbEntity
  8
1
  6
Continuous
 62
     2
100
AcDbLine
 10
313.0247598719321
 20
211.9170519008714
 30
0.0
 11
301.0247598719321
 21
211.9170519008714
 31
0.0
  0
LINE
  5
1C2
330
52
100
AcDbEntity
  8
1
  6
Continuous
 62
     2
100
AcDbLine
 10
313.42312166839
 20
211.6870576104516
 30
0.0
 11
313.0247598719321
 21
211.9170519008714
 31
0.0
  0
LINE
  5
1C3
330
52
100
AcDbEntity
  8
1
  6
Continuous
 62
     2
100
AcDbLine
 10
313.0247598719321
 20
230.5480519008715
 30
0.0
 11
315.0374029103273
 21
231.7100519008716
 31
0.0
  0
LINE
  5
1C4
330
52
100
AcDbEntity
  8
1
  6
Continuous
 62
     7
100
AcDbLine
 10
315.0374029103273
 20
223.0001441678656
 30
0.0
 11
315.0374029103273
 21
233.1055617157244
 31
0.0
  0
LINE
  5
1C5
330
52
100
AcDbEntity
  8
1
  6
Continuous
 62
     7
100
AcDbLine
 10
341.0247598719321
 20
239.7325519008714
 30
0.0
 11
341.0247598719321
 21
241.2325519008714
 31
0.0
  0
LINE
  5
1C6
330
52
100
AcDbEntity
  8
1
  6
Continuous
 62
     7
100
AcDbLine
 10
317.8377598719322
 20
239.7325519008714
 30
0.0
 11
341.0247598719321
 21
239.7325519008714
 31
0.0
  0
LINE
  5
1C7
330
52
100
AcDbEntity
  8
1
  6
Continuous
 62
     7
100
AcDbLine
 10
341.0247598719321
 20
238.3243945943179
 30
0.0
 11
341.0247598719321
 21
239.7325519008714
 31
0.0
  0
LINE
  5
1C8
330
52
100
AcDbEntity
  8
1
  6
Continuous
 62
     2
100
AcDbLine
 10
341.0247598719321
 20
238.3243945943179
 30
0.0
 11
340.2117598719321
 21
239.7325519008714
 31
0.0
  0
LINE
  5
1C9
330
52
100
AcDbEntity
  8
1
  6
Continuous
 62
     2
100
AcDbLine
 10
317.8377598719322
 20
239.7325519008714
 30
0.0
 11
317.0247598719321
 21
238.3243945943179
 31
0.0
  0
LINE
  5
1CA
330
52
100
AcDbEntity
  8
1
  6
Continuous
 62
     7
100
AcDbLine
 10
317.0247598719321
 20
239.7325519008714
 30
0.0
 11
317.0247598719321
 21
238.3243945943179
 31
0.0
  0
LINE
  5
1CB
330
52
100
AcDbEntity
  8
1
  6
Continuous
 62
     7
100
AcDbLine
 10
317.0247598719321
 20
239.7325519008714
 30
0.0
 11
317.8377598719322
 21
239.7325519008714
 31
0.0
  0
LINE
  5
1CC
330
52
100
AcDbEntity
  8
1
  6
Continuous
 62
     2
100
AcDbLine
 10
317.8377598719322
 20
239.7325519008714
 30
0.0
 11
317.8377598719322
 21
241.2325519008714
 31
0.0
  0
LINE
  5
1CD
330
52
100
AcDbEntity
  8
1
  6
Continuous
 62
     7
100
AcDbLine
 10
316.6747598719322
 20
238.3243945943179
 30
0.0
 11
341.0247598719321
 21
238.3243945943179
 31
0.0
  0
LINE
  5
1CE
330
52
100
AcDbEntity
  8
1
  6
Continuous
 62
     7
100
AcDbLine
 10
341.0247598719321
 20
238.3243945943179
 30
0.0
 11
341.3747598719324
 21
238.3243945943179
 31
0.0
  0
LINE
  5
1CF
330
52
100
AcDbEntity
  8
1
  6
Continuous
 62
     7
100
AcDbLine
 10
316.6747598719322
 20
238.3243945943179
 30
0.0
 11
316.6747598719322
 21
235.7782390157204
 31
0.0
  0
LINE
  5
1D0
330
52
100
AcDbEntity
  8
1
  6
Continuous
 62
     7
100
AcDbLine
 10
341.3747598719324
 20
238.3243945943179
 30
0.0
 11
341.3747598719324
 21
235.7782390157204
 31
0.0
  0
LINE
  5
1D1
330
52
100
AcDbEntity
  8
1
  6
Continuous
 62
     7
100
AcDbLine
 10
153.4156430889739
 20
364.3945519008714
 30
0.0
 11
153.5849738833839
 21
364.3945519008714
 31
0.0
  0
LINE
  5
1D2
330
52
100
AcDbEntity
  8
1
  6
Continuous
 62
     7
100
AcDbLine
 10
191.4004738833838
 20
396.1059490732759
 30
0.0
 11
191.4004738833838
 21
407.2325519008715
 31
0.0
  0
LINE
  5
1D3
330
52
100
AcDbEntity
  8
1
  6
Continuous
 62
     7
100
AcDbLine
 10
186.4350387693245
 20
391.2325519008713
 30
0.0
 11
187.2735632378533
 21
407.2325519008715
 31
0.0
  0
LINE
  5
1D4
330
52
100
AcDbEntity
  8
1
  6
Continuous
 62
     7
100
AcDbLine
 10
166.7873956331744
 20
405.2199088624764
 30
0.0
 11
174.5134570558366
 21
405.2199088624764
 31
0.0
  0
LINE
  5
1D5
330
52
100
AcDbEntity
  8
1
  6
Continuous
 62
     7
100
AcDbLine
 10
161.8036344009842
 20
407.2325519008714
 30
0.0
 11
172.2159738833839
 21
407.2325519008714
 31
0.0
  0
LINE
  5
1D6
330
52
100
AcDbEntity
  8
1
  6
Continuous
 62
     2
100
AcDbLine
 10
172.2159738833839
 20
413.7366850435128
 30
0.0
 11
172.2159738833839
 21
407.2325519008714
 31
0.0
  0
LINE
  5
1D7
330
52
100
AcDbEntity
  8
1
  6
Continuous
 62
     7
100
AcDbLine
 10
132.9004738833838
 20
380.7325519008715
 30
0.0
 11
118.9004738833838
 21
380.7325519008713
 31
0.0
  0
LINE
  5
1D8
330
52
100
AcDbEntity
  8
1
  6
Continuous
 62
     2
100
AcDbLine
 10
132.9004738833838
 20
381.7325519008715
 30
0.0
 11
117.9004738833838
 21
381.7325519008713
 31
0.0
  0
LINE
  5
1D9
330
52
100
AcDbEntity
  8
1
  6
Continuous
 62
     7
100
AcDbLine
 10
175.2465033722335
 20
238.323820971461
 30
0.0
 11
175.2465033722335
 21
233.4319782780145
 31
0.0
  0
LINE
  5
1DA
330
52
100
AcDbEntity
  8
1
  6
Continuous
 62
     7
100
AcDbLine
 10
174.9004738833838
 20
238.323820971461
 30
0.0
 11
175.2465033722335
 21
238.323820971461
 31
0.0
  0
LINE
  5
1DB
330
52
100
AcDbEntity
  8
1
  6
Continuous
 62
     7
100
AcDbLine
 10
150.5544443945341
 20
238.323820971461
 30
0.0
 11
174.9004738833838
 21
238.323820971461
 31
0.0
  0
LINE
  5
1DC
330
52
100
AcDbEntity
  8
1
  6
Continuous
 62
     7
100
AcDbLine
 10
139.9004738833838
 20
203.8859487891648
 30
0.0
 11
139.9004738833838
 21
226.5780077668641
 31
0.0
  0
LINE
  5
1DD
330
52
100
AcDbEntity
  8
1
  6
Continuous
 62
     7
100
AcDbLine
 10
139.9004738833838
 20
203.8859487891648
 30
0.0
 11
140.5044443945342
 21
203.2819782780145
 31
0.0
  0
LINE
  5
1DE
330
52
100
AcDbEntity
  8
1
  6
Continuous
 62
     7
100
AcDbLine
 10
139.9004738833838
 20
226.5780077668641
 30
0.0
 11
140.5044443945342
 21
227.1819782780145
 31
0.0
  0
LINE
  5
1DF
330
52
100
AcDbEntity
  8
1
  6
Continuous
 62
     7
100
AcDbLine
 10
150.5544443945341
 20
232.5780077668641
 30
0.0
 11
150.5544443945341
 21
238.323820971461
 31
0.0
  0
LINE
  5
1E0
330
52
100
AcDbEntity
  8
1
  6
Continuous
 62
     7
100
AcDbLine
 10
171.7673830587555
 20
202.8859487891648
 30
0.0
 11
173.2465033722335
 21
202.0319782780145
 31
0.0
  0
LINE
  5
1E1
330
52
100
AcDbEntity
  8
1
  6
Continuous
 62
     7
100
AcDbLine
 10
191.4004738833838
 20
231.2319782780145
 30
0.0
 11
186.4350387693246
 21
231.2319782780145
 31
0.0
  0
LINE
  5
1E2
330
52
100
AcDbEntity
  8
1
  6
Continuous
 62
     7
100
AcDbLine
 10
186.4350387693246
 20
231.2319782780145
 30
0.0
 11
186.4350387693246
 21
200.0319782780145
 31
0.0
  0
LINE
  5
1E3
330
52
100
AcDbEntity
  8
1
  6
Continuous
 62
     2
100
AcDbLine
 10
151.7134738833838
 20
239.7319782780145
 30
0.0
 11
151.7134738833838
 21
241.2325519008714
 31
0.0
  0
LINE
  5
1E4
330
52
100
AcDbEntity
  8
1
  6
Continuous
 62
     7
100
AcDbLine
 10
150.9004738833838
 20
239.7319782780145
 30
0.0
 11
174.9004738833838
 21
239.7319782780145
 31
0.0
  0
LINE
  5
1E5
330
52
100
AcDbEntity
  8
1
  6
Continuous
 62
     7
100
AcDbLine
 10
150.9004738833838
 20
239.7319782780145
 30
0.0
 11
150.9004738833838
 21
238.323820971461
 31
0.0
  0
LINE
  5
1E6
330
52
100
AcDbEntity
  8
1
  6
Continuous
 62
     2
100
AcDbLine
 10
151.7134738833838
 20
239.7319782780145
 30
0.0
 11
150.9004738833838
 21
238.323820971461
 31
0.0
  0
LINE
  5
1E7
330
52
100
AcDbEntity
  8
1
  6
Continuous
 62
     2
100
AcDbLine
 10
174.9004738833838
 20
238.323820971461
 30
0.0
 11
174.0874738833838
 21
239.7319782780145
 31
0.0
  0
LINE
  5
1E8
330
52
100
AcDbEntity
  8
1
  6
Continuous
 62
     7
100
AcDbLine
 10
174.9004738833838
 20
238.323820971461
 30
0.0
 11
174.9004738833838
 21
239.7319782780145
 31
0.0
  0
LINE
  5
1E9
330
52
100
AcDbEntity
  8
1
  6
Continuous
 62
     7
100
AcDbLine
 10
174.0874738833838
 20
239.7319782780145
 30
0.0
 11
174.9004738833838
 21
239.7319782780145
 31
0.0
  0
LINE
  5
1EA
330
52
100
AcDbEntity
  8
1
  6
Continuous
 62
     7
100
AcDbLine
 10
174.9004738833838
 20
239.7319782780145
 30
0.0
 11
174.9004738833838
 21
241.2325519008714
 31
0.0
  0
LINE
  5
1EB
330
52
100
AcDbEntity
  8
1
  6
Continuous
 62
     7
100
AcDbLine
 10
184.4350387693246
 20
228.4319782780145
 30
0.0
 11
180.2465033722335
 21
228.4319782780145
 31
0.0
  0
LINE
  5
1EC
330
52
100
AcDbEntity
  8
1
  6
Continuous
 62
     7
100
AcDbLine
 10
173.2465033722335
 20
202.0319782780145
 30
0.0
 11
184.4350387693246
 21
202.0319782780145
 31
0.0
  0
LINE
  5
1ED
330
52
100
AcDbEntity
  8
1
  6
Continuous
 62
     7
100
AcDbLine
 10
186.4350387693246
 20
200.0319782780145
 30
0.0
 11
186.4350387693246
 21
199.2319782780145
 31
0.0
  0
LINE
  5
1EE
330
52
100
AcDbEntity
  8
1
  6
Continuous
 62
     7
100
AcDbLine
 10
117.9004738833838
 20
224.7319782780145
 30
0.0
 11
117.9004738833838
 21
205.7319782780144
 31
0.0
  0
LINE
  5
1EF
330
52
100
AcDbEntity
  8
1
  6
Continuous
 62
     7
100
AcDbLine
 10
117.9004738833838
 20
205.7319782780144
 30
0.0
 11
118.9004738833838
 21
204.7319782780144
 31
0.0
  0
LINE
  5
1F0
330
52
100
AcDbEntity
  8
1
  6
Continuous
 62
     7
100
AcDbLine
 10
118.9004738833838
 20
225.7319782780145
 30
0.0
 11
117.9004738833838
 21
224.7319782780145
 31
0.0
  0
LINE
  5
1F1
330
52
100
AcDbEntity
  8
1
  6
Continuous
 62
     7
100
AcDbLine
 10
186.4350387693246
 20
199.2319782780145
 30
0.0
 11
191.4004738833838
 21
199.2319782780145
 31
0.0
  0
LINE
  5
1F2
330
52
100
AcDbEntity
  8
1
  6
Continuous
 62
     7
100
AcDbLine
 10
139.9004738833838
 20
379.8865224120217
 30
0.0
 11
139.9004738833838
 21
380.7325519008713
 31
0.0
  0
LINE
  5
1F3
330
52
100
AcDbEntity
  8
1
  6
Continuous
 62
     7
100
AcDbLine
 10
139.9004738833838
 20
379.8865224120217
 30
0.0
 11
140.5044443945342
 21
379.2825519008714
 31
0.0
  0
LINE
  5
1F4
330
52
100
AcDbEntity
  8
1
  6
Continuous
 62
     7
100
AcDbLine
 10
191.4004738833838
 20
375.2325519008714
 30
0.0
 11
191.4004738833838
 21
396.1059490732759
 31
0.0
  0
LINE
  5
1F5
330
52
100
AcDbEntity
  8
1
  6
Continuous
 62
     7
100
AcDbLine
 10
117.9004738833838
 20
381.7325519008713
 30
0.0
 11
118.9004738833838
 21
380.7325519008713
 31
0.0
  0
LINE
  5
1F6
330
52
100
AcDbEntity
  8
1
  6
Continuous
 62
     7
100
AcDbLine
 10
117.9004738833838
 20
400.7325519008715
 30
0.0
 11
117.9004738833838
 21
381.7325519008713
 31
0.0
  0
LINE
  5
1F7
330
52
100
AcDbEntity
  8
1
  6
Continuous
 62
     7
100
AcDbLine
 10
139.9004738833838
 20
401.7325519008715
 30
0.0
 11
139.9004738833838
 21
402.5785813897211
 31
0.0
  0
LINE
  5
1F8
330
52
100
AcDbEntity
  8
1
  6
Continuous
 62
     2
100
AcDbLine
 10
117.9004738833838
 20
400.7325519008715
 30
0.0
 11
132.9004738833838
 21
400.7325519008715
 31
0.0
  0
LINE
  5
1F9
330
52
100
AcDbEntity
  8
1
  6
Continuous
 62
     7
100
AcDbLine
 10
118.9004738833838
 20
401.7325519008715
 30
0.0
 11
132.9004738833838
 21
401.7325519008715
 31
0.0
  0
LINE
  5
1FA
330
52
100
AcDbEntity
  8
1
  6
Continuous
 62
     7
100
AcDbLine
 10
118.9004738833838
 20
401.7325519008715
 30
0.0
 11
117.9004738833838
 21
400.7325519008715
 31
0.0
  0
LINE
  5
1FB
330
52
100
AcDbEntity
  8
1
  6
Continuous
 62
     7
100
AcDbLine
 10
191.4004738833838
 20
407.2325519008715
 30
0.0
 11
187.2735632378533
 21
407.2325519008715
 31
0.0
  0
LINE
  5
1FC
330
52
100
AcDbEntity
  8
1
  6
Continuous
 62
     7
100
AcDbLine
 10
139.9004738833838
 20
401.7325519008715
 30
0.0
 11
139.9004738833838
 21
380.7325519008713
 31
0.0
  0
LINE
  5
1FD
330
52
100
AcDbEntity
  8
1
  6
Continuous
 62
     7
100
AcDbLine
 10
140.5044443945342
 20
379.2825519008714
 30
0.0
 11
140.5044443945342
 21
403.1825519008714
 31
0.0
  0
LINE
  5
1FE
330
52
100
AcDbEntity
  8
1
  6
Continuous
 62
     2
100
AcDbLine
 10
153.5849738833839
 20
363.2325519008714
 30
0.0
 11
153.5849738833839
 21
364.4967462339001
 31
0.0
  0
LINE
  5
1FF
330
52
100
AcDbEntity
  8
1
  6
Continuous
 62
     2
100
AcDbLine
 10
173.3779738833839
 20
377.2451949392664
 30
0.0
 11
172.2159738833839
 21
375.2325519008714
 31
0.0
  0
LINE
  5
200
330
52
100
AcDbEntity
  8
1
  6
Continuous
 62
     2
100
AcDbLine
 10
172.2159738833839
 20
375.2325519008714
 30
0.0
 11
172.2159738833839
 21
363.2325519008714
 31
0.0
  0
LINE
  5
201
330
52
100
AcDbEntity
  8
1
  6
Continuous
 62
     7
100
AcDbLine
 10
173.3779738833839
 20
364.3945519008714
 30
0.0
 11
173.3779738833839
 21
375.2325519008714
 31
0.0
  0
LINE
  5
202
330
52
100
AcDbEntity
  8
1
  6
Continuous
 62
     7
100
AcDbLine
 10
173.3779738833839
 20
364.3945519008714
 30
0.0
 11
172.2159738833839
 21
363.2325519008714
 31
0.0
  0
LINE
  5
203
330
52
100
AcDbEntity
  8
1
  6
Continuous
 62
     7
100
AcDbLine
 10
172.2159738833839
 20
364.3945519008714
 30
0.0
 11
173.3779738833839
 21
364.3945519008714
 31
0.0
  0
LINE
  5
204
330
52
100
AcDbEntity
  8
1
  6
Continuous
 62
     7
100
AcDbLine
 10
173.3779738833839
 20
375.2325519008714
 30
0.0
 11
172.2159738833839
 21
375.2325519008714
 31
0.0
  0
LINE
  5
205
330
52
100
AcDbEntity
  8
1
  6
Continuous
 62
     7
100
AcDbLine
 10
153.5849738833839
 20
363.2325519008714
 30
0.0
 11
152.4229738833838
 21
364.3945519008714
 31
0.0
  0
LINE
  5
206
330
52
100
AcDbEntity
  8
1
  6
Continuous
 62
     7
100
AcDbLine
 10
153.5849738833839
 20
363.2325519008714
 30
0.0
 11
172.2159738833839
 21
363.2325519008714
 31
0.0
  0
LINE
  5
207
330
52
100
AcDbEntity
  8
1
  6
Continuous
 62
     7
100
AcDbLine
 10
174.5134570558366
 20
377.2451949392664
 30
0.0
 11
163.319030529305
 21
377.2451949392664
 31
0.0
  0
LINE
  5
208
330
52
100
AcDbEntity
  8
1
  6
Continuous
 62
     7
100
AcDbLine
 10
174.5547206856974
 20
378.0325519008714
 30
0.0
 11
174.6888341709637
 21
378.0325519008714
 31
0.0
  0
LINE
  5
209
330
52
100
AcDbEntity
  8
1
  6
Continuous
 62
     7
100
AcDbLine
 10
172.2159738833839
 20
375.2325519008714
 30
0.0
 11
161.8036344009843
 21
375.2325519008714
 31
0.0
  0
LINE
  5
20A
330
52
100
AcDbEntity
  8
1
  6
Continuous
 62
     7
100
AcDbLine
 10
152.4229738833838
 20
364.3945519008714
 30
0.0
 11
172.2159738833839
 21
364.3945519008714
 31
0.0
  0
LINE
  5
20B
330
52
100
AcDbEntity
  8
1
  6
Continuous
 62
     2
100
AcDbLine
 10
172.2159738833839
 20
407.2325519008714
 30
0.0
 11
173.3779738833839
 21
405.2199088624764
 31
0.0
  0
LINE
  5
20C
330
52
100
AcDbEntity
  8
1
  6
Continuous
 62
     7
100
AcDbLine
 10
173.3779738833839
 20
405.2199088624764
 30
0.0
 11
173.3779738833839
 21
407.2325519008714
 31
0.0
  0
LINE
  5
20D
330
52
100
AcDbEntity
  8
1
  6
Continuous
 62
     7
100
AcDbLine
 10
172.2159738833839
 20
407.2325519008714
 30
0.0
 11
173.3779738833839
 21
407.2325519008714
 31
0.0
  0
LINE
  5
20E
330
52
100
AcDbEntity
  8
1
  6
Continuous
 62
     7
100
AcDbLine
 10
174.5134570558366
 20
405.2199088624764
 30
0.0
 11
174.5596351220577
 21
404.3387788689353
 31
0.0
  0
LINE
  5
20F
330
52
100
AcDbEntity
  8
1
  6
Continuous
 62
     7
100
AcDbLine
 10
185.228892322431
 20
404.4325519008715
 30
0.0
 11
175.8623410328347
 21
404.4325519008714
 31
0.0
  0
LINE
  5
210
330
52
100
AcDbEntity
  8
1
  6
Continuous
 62
     7
100
AcDbLine
 10
118.9004738833838
 20
380.7325519008713
 30
0.0
 11
118.9004738833838
 21
401.7325519008715
 31
0.0
  0
LINE
  5
211
330
52
100
AcDbEntity
  8
1
  6
Continuous
 62
     7
100
AcDbLine
 10
187.2735632378533
 20
375.2325519008714
 30
0.0
 11
186.4350387693245
 21
391.2325519008713
 31
0.0
  0
LINE
  5
212
330
52
100
AcDbEntity
  8
1
  6
Continuous
 62
     7
100
AcDbLine
 10
187.2735632378533
 20
375.2325519008714
 30
0.0
 11
191.4004738833838
 21
375.2325519008714
 31
0.0
  0
LINE
  5
213
330
52
100
AcDbEntity
  8
1
  6
Continuous
 62
     7
100
AcDbLine
 10
173.3779738833839
 20
407.2325519008714
 30
0.0
 11
173.3779738833839
 21
413.7366850435128
 31
0.0
  0
LINE
  5
214
330
52
100
AcDbEntity
  8
1
  6
Continuous
 62
     7
100
AcDbLine
 10
173.3779738833839
 20
375.2325519008714
 30
0.0
 11
173.3779738833839
 21
377.2451949392664
 31
0.0
  0
ARC
  5
215
330
52
100
AcDbEntity
  8
1
  6
Continuous
 62
     7
100
AcDbCircle
 10
162.9004738833838
 20
221.2325519008714
 30
0.0
 40
10.47750000000018
100
AcDbArc
 50
-9.08611319134715
 51
0.0
  0
ARC
  5
216
330
52
100
AcDbEntity
  8
1
  6
Continuous
 62
     7
100
AcDbCircle
 10
162.9004738833838
 20
221.2325519008714
 30
0.0
 40
10.47750000000019
100
AcDbArc
 50
0.0
 51
-9.08611319134715
  0
ARC
  5
217
330
52
100
AcDbEntity
  8
1
  6
Continuous
 62
     7
100
AcDbCircle
 10
329.0247598719321
 20
215.2325519008714
 30
0.0
 40
9.499999999999988
100
AcDbArc
 50
-9.08472028739109
 51
-170.9152797126089
  0
ARC
  5
218
330
52
100
AcDbEntity
  8
1
  6
Continuous
 62
     7
100
AcDbCircle
 10
329.0247598719321
 20
215.2325519008714
 30
0.0
 40
9.499999999999933
100
AcDbArc
 50
-170.9152797126089
 51
-9.08472028739109
  0
ARC
  5
219
330
52
100
AcDbEntity
  8
1
  6
Continuous
 62
     7
100
AcDbCircle
 10
329.0247598719321
 20
215.2325519008714
 30
0.0
 40
15.9994263771431
100
AcDbArc
 50
-167.1968953039873
 51
-163.748521772839
  0
ARC
  5
21A
330
52
100
AcDbEntity
  8
1
  6
Continuous
 62
     7
100
AcDbCircle
 10
329.0247598719321
 20
215.2325519008714
 30
0.0
 40
15.9994263771431
100
AcDbArc
 50
150.9552931568248
 51
-167.1968953039873
  0
ARC
  5
21B
330
52
100
AcDbEntity
  8
1
  6
Continuous
 62
     7
100
AcDbCircle
 10
329.0247598719321
 20
215.2325519008714
 30
0.0
 40
15.99942637714309
100
AcDbArc
 50
-163.748521772839
 51
-16.25147822716111
  0
ARC
  5
21C
330
52
100
AcDbEntity
  8
1
  6
Continuous
 62
     7
100
AcDbCircle
 10
329.0247598719321
 20
215.2325519008714
 30
0.0
 40
15.99942637714304
100
AcDbArc
 50
-16.25147822716111
 51
-12.80310469601275
  0
ARC
  5
21D
330
52
100
AcDbEntity
  8
1
  6
Continuous
 62
     7
100
AcDbCircle
 10
329.0247598719321
 20
215.2325519008714
 30
0.0
 40
15.99942637714309
100
AcDbArc
 50
29.04470684317349
 51
150.9552931568248
  0
ARC
  5
21E
330
52
100
AcDbEntity
  8
1
  6
Continuous
 62
     7
100
AcDbCircle
 10
329.0247598719321
 20
215.2325519008714
 30
0.0
 40
15.9994263771431
100
AcDbArc
 50
-12.80310469601275
 51
0.0
  0
ARC
  5
21F
330
52
100
AcDbEntity
  8
1
  6
Continuous
 62
     7
100
AcDbCircle
 10
329.0247598719321
 20
215.2325519008714
 30
0.0
 40
15.99942637714304
100
AcDbArc
 50
0.0
 51
29.04470684317349
  0
CIRCLE
  5
220
330
52
100
AcDbEntity
  8
1
  6
Continuous
 62
     7
100
AcDbCircle
 10
329.0247598719321
 20
215.2325519008714
 30
0.0
 40
13.57735026918965
  0
CIRCLE
  5
221
330
52
100
AcDbEntity
  8
1
  6
Continuous
 62
     7
100
AcDbCircle
 10
329.0247598719321
 20
215.2325519008714
 30
0.0
 40
12.42264973081035
  0
CIRCLE
  5
222
330
52
100
AcDbEntity
  8
1
  6
Continuous
 62
     2
100
AcDbCircle
 10
329.0247598719321
 20
215.2325519008714
 30
0.0
 40
10.7999999999999
  0
CIRCLE
  5
223
330
52
100
AcDbEntity
  8
1
  6
Continuous
 62
     2
100
AcDbCircle
 10
162.9004738833838
 20
221.2325519008714
 30
0.0
 40
9.3155000000001
  0
CIRCLE
  5
224
330
52
100
AcDbEntity
  8
1
  6
Continuous
 62
     7
100
AcDbCircle
 10
162.9004738833838
 20
221.2325519008714
 30
0.0
 40
7.0
  0
CIRCLE
  5
225
330
52
100
AcDbEntity
  8
1
  6
Continuous
 62
     7
100
AcDbCircle
 10
162.9004738833838
 20
221.2325519008714
 30
0.0
 40
6.5
  0
ARC
  5
226
330
52
100
AcDbEntity
  8
1
  6
Continuous
 62
     7
100
AcDbCircle
 10
148.0219973700874
 20
400.2325519008713
 30
0.0
 40
3.000000000000072
100
AcDbArc
 50
-41.81031489577737
 51
-3.00000000000117
  0
ARC
  5
227
330
52
100
AcDbEntity
  8
1
  6
Continuous
 62
     7
100
AcDbCircle
 10
148.0219973700874
 20
382.2325519008713
 30
0.0
 40
3.000000000000082
100
AcDbArc
 50
3.00000000000226
 51
41.81031489577737
  0
ARC
  5
228
330
52
100
AcDbEntity
  8
1
  6
Continuous
 62
     7
100
AcDbCircle
 10
313.6747598719322
 20
235.7782390157204
 30
0.0
 40
3.000000000000064
100
AcDbArc
 50
-62.9856047354352
 51
0.0
  0
ARC
  5
229
330
52
100
AcDbEntity
  8
1
  6
Continuous
 62
     7
100
AcDbCircle
 10
344.3747598719324
 20
235.7782390157204
 30
0.0
 40
3.0
100
AcDbArc
 50
180.0
 51
-117.0143952645687
  0
ARC
  5
22A
330
52
100
AcDbEntity
  8
1
  6
Continuous
 62
     7
100
AcDbCircle
 10
180.2465033722335
 20
233.4319782780145
 30
0.0
 40
5.0
100
AcDbArc
 50
180.0
 51
-90.0
  0
ARC
  5
22B
330
52
100
AcDbEntity
  8
1
  6
Continuous
 62
     7
100
AcDbCircle
 10
145.5544443945341
 20
232.5780077668641
 30
0.0
 40
5.00000000000002
100
AcDbArc
 50
-62.01723801858298
 51
0.0
  0
ARC
  5
22C
330
52
100
AcDbEntity
  8
1
  6
Continuous
 62
     7
100
AcDbCircle
 10
184.4350387693246
 20
230.4319782780145
 30
0.0
 40
2.0
100
AcDbArc
 50
-90.0
 51
0.0
  0
ARC
  5
22D
330
52
100
AcDbEntity
  8
1
  6
Continuous
 62
     7
100
AcDbCircle
 10
184.4350387693246
 20
200.0319782780145
 30
0.0
 40
2.0
100
AcDbArc
 50
0.0
 51
90.0
  0
ARC
  5
22E
330
52
100
AcDbEntity
  8
1
  6
Continuous
 62
     7
100
AcDbCircle
 10
185.228892322431
 20
376.0325519008714
 30
0.0
 40
1.999999999999961
100
AcDbArc
 50
2.99999999999751
 51
90.0
  0
ARC
  5
22F
330
52
100
AcDbEntity
  8
1
  6
Continuous
 62
     7
100
AcDbCircle
 10
185.228892322431
 20
406.4325519008715
 30
0.0
 40
2.0
100
AcDbArc
 50
-90.0
 51
-3.00000000000063
  0
ENDBLK
  5
54
330
52
100
AcDbEntity
  8
0
100
AcDbBlockEnd
  0
BLOCK
  5
56
330
55
100
AcDbEntity
  8
0
100
AcDbBlockBegin
  2
_J__A4
 70
     0
 71
     0
 10
0.0
 20
0.0
 30
0.0
  3
_J__A4
  1

  0
POINT
  5
230
330
55
100
AcDbEntity
  8
1
 62
     4
100
AcDbPoint
 10
34.0
 20
34.00000000000001
 30
0.0
  0
POINT
  5
231
330
55
100
AcDbEntity
  8
1
 62
     4
100
AcDbPoint
 10
57.0
 20
12.25
 30
0.0
  0
POINT
  5
232
330
55
100
AcDbEntity
  8
1
 62
     4
100
AcDbPoint
 10
57.0
 20
20.75000000000001
 30
0.0
  0
POINT
  5
233
330
55
100
AcDbEntity
  8
1
 62
     4
100
AcDbPoint
 10
57.0
 20
24.75000000000001
 30
0.0
  0
POINT
  5
234
330
55
100
AcDbEntity
  8
1
 62
     4
100
AcDbPoint
 10
57.0
 20
16.25
 30
0.0
  0
POINT
  5
235
330
55
100
AcDbEntity
  8
1
 62
     4
100
AcDbPoint
 10
157.5
 20
19.00000000000001
 30
0.0
  0
POINT
  5
236
330
55
100
AcDbEntity
  8
1
 62
     4
100
AcDbPoint
 10
47.5
 20
282.0000000000003
 30
0.0
  0
POINT
  5
237
330
55
100
AcDbEntity
  8
1
 62
     4
100
AcDbPoint
 10
57.0
 20
22.75000000000001
 30
0.0
  0
POINT
  5
238
330
55
100
AcDbEntity
  8
1
 62
     4
100
AcDbPoint
 10
57.0
 20
14.25
 30
0.0
  0
POINT
  5
239
330
55
100
AcDbEntity
  8
1
 62
     4
100
AcDbPoint
 10
157.5
 20
12.5
 30
0.0
  0
POINT
  5
23A
330
55
100
AcDbEntity
  8
1
 62
     4
100
AcDbPoint
 10
163.25
 20
12.5
 30
0.0
  0
POINT
  5
23B
330
55
100
AcDbEntity
  8
1
 62
     4
100
AcDbPoint
 10
151.75
 20
12.5
 30
0.0
  0
POINT
  5
23C
330
55
100
AcDbEntity
  8
1
 62
     4
100
AcDbPoint
 10
134.75
 20
12.5
 30
0.0
  0
POINT
  5
23D
330
55
100
AcDbEntity
  8
1
 62
     4
100
AcDbPoint
 10
146.25
 20
12.5
 30
0.0
  0
POINT
  5
23E
330
55
100
AcDbEntity
  8
1
 62
     4
100
AcDbPoint
 10
140.5
 20
12.5
 30
0.0
  0
POINT
  5
23F
330
55
100
AcDbEntity
  8
1
 62
     4
100
AcDbPoint
 10
140.5
 20
19.00000000000001
 30
0.0
  0
POINT
  5
240
330
55
100
AcDbEntity
  8
1
 62
     4
100
AcDbPoint
 10
117.75
 20
12.5
 30
0.0
  0
POINT
  5
241
330
55
100
AcDbEntity
  8
1
 62
     4
100
AcDbPoint
 10
129.25
 20
12.5
 30
0.0
  0
POINT
  5
242
330
55
100
AcDbEntity
  8
1
 62
     4
100
AcDbPoint
 10
123.5
 20
12.5
 30
0.0
  0
POINT
  5
243
330
55
100
AcDbEntity
  8
1
 62
     4
100
AcDbPoint
 10
123.5
 20
19.00000000000001
 30
0.0
  0
POINT
  5
244
330
55
100
AcDbEntity
  8
1
 62
     4
100
AcDbPoint
 10
100.75
 20
12.5
 30
0.0
  0
POINT
  5
245
330
55
100
AcDbEntity
  8
1
 62
     4
100
AcDbPoint
 10
112.25
 20
12.5
 30
0.0
  0
POINT
  5
246
330
55
100
AcDbEntity
  8
1
 62
     4
100
AcDbPoint
 10
106.5
 20
12.5
 30
0.0
  0
POINT
  5
247
330
55
100
AcDbEntity
  8
1
 62
     4
100
AcDbPoint
 10
106.5
 20
19.00000000000001
 30
0.0
  0
POINT
  5
248
330
55
100
AcDbEntity
  8
1
 62
     4
100
AcDbPoint
 10
85.25
 20
17.0
 30
0.0
  0
POINT
  5
249
330
55
100
AcDbEntity
  8
1
 62
     4
100
AcDbPoint
 10
93.75
 20
17.0
 30
0.0
  0
LINE
  5
24A
330
55
100
AcDbEntity
  8
1
  6
Continuous
 62
     2
100
AcDbLine
 10
81.0
 20
27.00000000000001
 30
0.0
 11
81.0
 21
10.0
 31
0.0
  0
LINE
  5
24B
330
55
100
AcDbEntity
  8
1
  6
DOT_CENTER
 62
     2
100
AcDbLine
 10
187.0
 20
26.50000000000001
 30
0.0
 11
187.0
 21
20.50000000000001
 31
0.0
  0
LINE
  5
24C
330
55
100
AcDbEntity
  8
1
  6
DOT_CENTER
 62
     2
100
AcDbLine
 10
184.0
 20
23.50000000000001
 30
0.0
 11
197.0
 21
23.50000000000001
 31
0.0
  0
LINE
  5
24D
330
55
100
AcDbEntity
  8
1
  6
Continuous
 62
     7
100
AcDbLine
 10
196.0
 20
21.50000000000001
 30
0.0
 11
191.0
 21
22.30000000000001
 31
0.0
  0
LINE
  5
24E
330
55
100
AcDbEntity
  8
1
  6
Continuous
 62
     7
100
AcDbLine
 10
196.0
 20
25.50000000000001
 30
0.0
 11
196.0
 21
21.50000000000001
 31
0.0
  0
LINE
  5
24F
330
55
100
AcDbEntity
  8
1
  6
Continuous
 62
     7
100
AcDbLine
 10
191.0
 20
24.70000000000001
 30
0.0
 11
196.0
 21
25.50000000000001
 31
0.0
  0
LINE
  5
250
330
55
100
AcDbEntity
  8
1
  6
Continuous
 62
     7
100
AcDbLine
 10
191.0
 20
24.70000000000001
 30
0.0
 11
191.0
 21
22.30000000000001
 31
0.0
  0
LINE
  5
251
330
55
100
AcDbEntity
  8
1
  6
Continuous
 62
     2
100
AcDbLine
 10
33.0
 20
27.0
 30
0.0
 11
33.0
 21
10.0
 31
0.0
  0
LINE
  5
252
330
55
100
AcDbEntity
  8
1
  6
Continuous
 62
     2
100
AcDbLine
 10
25.0
 20
18.50000000000001
 30
0.0
 11
81.0
 21
18.50000000000001
 31
0.0
  0
LINE
  5
253
330
55
100
AcDbEntity
  8
1
  6
Continuous
 62
     7
100
AcDbLine
 10
200.0
 20
287.0000000000003
 30
0.0
 11
105.0
 21
287.0000000000003
 31
0.0
  0
LINE
  5
254
330
55
100
AcDbEntity
  8
1
  6
Continuous
 62
     7
100
AcDbLine
 10
200.0
 20
10.0
 30
0.0
 11
200.0
 21
148.5
 31
0.0
  0
LINE
  5
255
330
55
100
AcDbEntity
  8
1
  6
Continuous
 62
     7
100
AcDbLine
 10
25.0
 20
10.0
 30
0.0
 11
105.0
 21
10.0
 31
0.0
  0
LINE
  5
256
330
55
100
AcDbEntity
  8
1
  6
PHANTOM
 62
     4
100
AcDbLine
 10
0.0
 20
297.0
 30
0.0
 11
0.0
 21
0.0
 31
0.0
  0
LINE
  5
257
330
55
100
AcDbEntity
  8
1
  6
PHANTOM
 62
     4
100
AcDbLine
 10
210.0
 20
297.0
 30
0.0
 11
0.0
 21
297.0
 31
0.0
  0
LINE
  5
258
330
55
100
AcDbEntity
  8
1
  6
PHANTOM
 62
     4
100
AcDbLine
 10
210.0
 20
0.0
 30
0.0
 11
210.0
 21
297.0
 31
0.0
  0
LINE
  5
259
330
55
100
AcDbEntity
  8
1
  6
PHANTOM
 62
     4
100
AcDbLine
 10
0.0
 20
0.0
 30
0.0
 11
210.0
 21
0.0
 31
0.0
  0
LINE
  5
25A
330
55
100
AcDbEntity
  8
1
  6
Continuous
 62
     7
100
AcDbLine
 10
25.0
 20
41.0
 30
0.0
 11
200.0
 21
41.0
 31
0.0
  0
LINE
  5
25B
330
55
100
AcDbEntity
  8
1
  6
Continuous
 62
     7
100
AcDbLine
 10
200.0
 20
27.00000000000001
 30
0.0
 11
25.0
 21
27.00000000000001
 31
0.0
  0
LINE
  5
25C
330
55
100
AcDbEntity
  8
1
  6
Continuous
 62
     2
100
AcDbLine
 10
33.0
 20
41.00000000000001
 30
0.0
 11
33.0
 21
27.0
 31
0.0
  0
LINE
  5
25D
330
55
100
AcDbEntity
  8
1
  6
Continuous
 62
     2
100
AcDbLine
 10
55.0
 20
287.0000000000003
 30
0.0
 11
55.0
 21
277.0000000000003
 31
0.0
  0
LINE
  5
25E
330
55
100
AcDbEntity
  8
1
  6
Continuous
 62
     2
100
AcDbLine
 10
40.0
 20
287.0000000000003
 30
0.0
 11
40.0
 21
277.0000000000003
 31
0.0
  0
LINE
  5
25F
330
55
100
AcDbEntity
  8
1
  6
Continuous
 62
     7
100
AcDbLine
 10
25.0
 20
10.0
 30
0.0
 11
25.0
 21
148.5
 31
0.0
  0
LINE
  5
260
330
55
100
AcDbEntity
  8
1
  6
Continuous
 62
     2
100
AcDbLine
 10
55.0
 20
277.0000000000003
 30
0.0
 11
25.0
 21
277.0000000000003
 31
0.0
  0
LINE
  5
261
330
55
100
AcDbEntity
  8
1
  6
Continuous
 62
     2
100
AcDbLine
 10
166.0
 20
27.00000000000001
 30
0.0
 11
166.0
 21
10.0
 31
0.0
  0
LINE
  5
262
330
55
100
AcDbEntity
  8
1
  6
Continuous
 62
     2
100
AcDbLine
 10
132.0
 20
27.00000000000001
 30
0.0
 11
132.0
 21
9.99999999999999
 31
0.0
  0
LINE
  5
263
330
55
100
AcDbEntity
  8
1
  6
Continuous
 62
     2
100
AcDbLine
 10
149.0
 20
27.00000000000001
 30
0.0
 11
149.0
 21
10.0
 31
0.0
  0
LINE
  5
264
330
55
100
AcDbEntity
  8
1
  6
Continuous
 62
     2
100
AcDbLine
 10
115.0
 20
27.00000000000001
 30
0.0
 11
115.0
 21
9.99999999999999
 31
0.0
  0
LINE
  5
265
330
55
100
AcDbEntity
  8
1
  6
Continuous
 62
     2
100
AcDbLine
 10
98.0
 20
27.00000000000001
 30
0.0
 11
98.0
 21
9.99999999999999
 31
0.0
  0
LINE
  5
266
330
55
100
AcDbEntity
  8
1
  6
Continuous
 62
     2
100
AcDbLine
 10
166.0
 20
20.00000000000001
 30
0.0
 11
200.0
 21
20.00000000000001
 31
0.0
  0
LINE
  5
267
330
55
100
AcDbEntity
  8
1
  6
Continuous
 62
     2
100
AcDbLine
 10
105.0
 20
287.0000000000003
 30
0.0
 11
105.0
 21
292.0000000000003
 31
0.0
  0
LINE
  5
268
330
55
100
AcDbEntity
  8
1
  6
Continuous
 62
     7
100
AcDbLine
 10
105.0
 20
287.0000000000003
 30
0.0
 11
25.0
 21
287.0000000000003
 31
0.0
  0
LINE
  5
269
330
55
100
AcDbEntity
  8
1
  6
Continuous
 62
     2
100
AcDbLine
 10
25.0
 20
148.5
 30
0.0
 11
20.0
 21
148.5
 31
0.0
  0
LINE
  5
26A
330
55
100
AcDbEntity
  8
1
  6
Continuous
 62
     7
100
AcDbLine
 10
25.0
 20
148.5
 30
0.0
 11
25.0
 21
287.0000000000003
 31
0.0
  0
LINE
  5
26B
330
55
100
AcDbEntity
  8
1
  6
Continuous
 62
     2
100
AcDbLine
 10
200.0
 20
148.5
 30
0.0
 11
205.0
 21
148.5
 31
0.0
  0
LINE
  5
26C
330
55
100
AcDbEntity
  8
1
  6
Continuous
 62
     7
100
AcDbLine
 10
200.0
 20
148.5
 30
0.0
 11
200.0
 21
287.0000000000003
 31
0.0
  0
LINE
  5
26D
330
55
100
AcDbEntity
  8
1
  6
Continuous
 62
     2
100
AcDbLine
 10
105.0
 20
10.0
 30
0.0
 11
105.0
 21
5.0
 31
0.0
  0
LINE
  5
26E
330
55
100
AcDbEntity
  8
1
  6
Continuous
 62
     7
100
AcDbLine
 10
105.0
 20
10.0
 30
0.0
 11
200.0
 21
10.0
 31
0.0
  0
CIRCLE
  5
26F
330
55
100
AcDbEntity
  8
1
  6
DOT_CENTER
 62
     7
100
AcDbCircle
 10
89.5
 20
18.0
 30
0.0
 40
0.1000000000000227
  0
CIRCLE
  5
270
330
55
100
AcDbEntity
  8
1
  6
DOT_CENTER
 62
     7
100
AcDbCircle
 10
89.5
 20
16.0
 30
0.0
 40
0.1000000000000227
  0
CIRCLE
  5
271
330
55
100
AcDbEntity
  8
1
  6
Continuous
 62
     7
100
AcDbCircle
 10
187.0
 20
23.50000000000001
 30
0.0
 40
2.0
  0
CIRCLE
  5
272
330
55
100
AcDbEntity
  8
1
  6
Continuous
 62
     7
100
AcDbCircle
 10
187.0
 20
23.50000000000001
 30
0.0
 40
1.200000000000102
  0
CIRCLE
  5
273
330
55
100
AcDbEntity
  8
1
  6
Continuous
 62
     7
100
AcDbCircle
 10
154.5
 20
12.5
 30
0.0
 40
0.3000000000000114
  0
CIRCLE
  5
274
330
55
100
AcDbEntity
  8
1
  6
Continuous
 62
     7
100
AcDbCircle
 10
160.5
 20
12.5
 30
0.0
 40
0.3000000000000114
  0
CIRCLE
  5
275
330
55
100
AcDbEntity
  8
1
  6
Continuous
 62
     7
100
AcDbCircle
 10
143.5
 20
12.5
 30
0.0
 40
0.3000000000000114
  0
CIRCLE
  5
276
330
55
100
AcDbEntity
  8
1
  6
Continuous
 62
     7
100
AcDbCircle
 10
137.5
 20
12.5
 30
0.0
 40
0.3000000000000114
  0
CIRCLE
  5
277
330
55
100
AcDbEntity
  8
1
  6
Continuous
 62
     7
100
AcDbCircle
 10
126.5
 20
12.5
 30
0.0
 40
0.2999999999999972
  0
CIRCLE
  5
278
330
55
100
AcDbEntity
  8
1
  6
Continuous
 62
     7
100
AcDbCircle
 10
120.5
 20
12.5
 30
0.0
 40
0.2999999999999972
  0
CIRCLE
  5
279
330
55
100
AcDbEntity
  8
1
  6
Continuous
 62
     7
100
AcDbCircle
 10
109.5
 20
12.5
 30
0.0
 40
0.2999999999999972
  0
CIRCLE
  5
27A
330
55
100
AcDbEntity
  8
1
  6
Continuous
 62
     7
100
AcDbCircle
 10
103.5
 20
12.5
 30
0.0
 40
0.2999999999999972
  0
MTEXT
  5
27C
330
55
100
AcDbEntity
  8
1
 62
   250
100
AcDbMText
 10
25.0
 20
5.0
 30
0.0
 40
3.5
 41
0.0
 71
     4
 72
     1
  1
備考欄の文字列 原点位置=4
  7
CONVERTER_1
 73
     1
 44
0.7202881152461
  0
MTEXT
  5
27D
330
55
100
AcDbEntity
  8
1
 62
     2
100
AcDbMText
 10
89.5
 20
24.00000000000001
 30
0.0
 40
3.5
 41
0.0
 71
     5
 72
     1
  1
尺度
  7
CONVERTER_1
 73
     1
 44
0.7202881152461
  0
MTEXT
  5
27E
330
55
100
AcDbEntity
  8
1
 62
     2
100
AcDbMText
 10
135.5
 20
25.00000000000001
 30
0.0
 40
3.0
 41
0.0
 71
     5
 72
     1
  1
製図
  7
CONVERTER_1
 73
     1
 44
0.78031212484994
  0
MTEXT
  5
27F
330
55
100
AcDbEntity
  8
1
 62
     2
100
AcDbMText
 10
152.5
 20
25.00000000000001
 30
0.0
 40
3.0
 41
0.0
 71
     5
 72
     1
  1
設計
  7
CONVERTER_1
 73
     1
 44
0.78031212484994
  0
MTEXT
  5
280
330
55
100
AcDbEntity
  8
1
 62
     2
100
AcDbMText
 10
118.5
 20
25.00000000000001
 30
0.0
 40
3.0
 41
0.0
 71
     5
 72
     1
  1
検図
  7
CONVERTER_1
 73
     1
 44
0.78031212484994
  0
MTEXT
  5
281
330
55
100
AcDbEntity
  8
1
 62
     2
100
AcDbMText
 10
175.0
 20
23.50000000000001
 30
0.0
 40
3.5
 41
0.0
 71
     5
 72
     1
  1
第三角法
  7
CONVERTER_1
 73
     1
 44
0.7202881152461
  0
MTEXT
  5
282
330
55
100
AcDbEntity
  8
1
 62
     2
100
AcDbMText
 10
101.5
 20
25.00000000000001
 30
0.0
 40
3.0
 41
0.0
 71
     5
 72
     1
  1
承認
  7
CONVERTER_1
 73
     1
 44
0.78031212484994
  0
MTEXT
  5
283
330
55
100
AcDbEntity
  8
1
 62
     2
100
AcDbMText
 10
29.0
 20
14.25
 30
0.0
 40
3.5
 41
0.0
 71
     5
 72
     1
  1
品番
  7
CONVERTER_1
 73
     1
 44
0.96038415366146
  0
MTEXT
  5
284
330
55
100
AcDbEntity
  8
1
 62
     2
100
AcDbMText
 10
29.0
 20
22.75
 30
0.0
 40
3.5
 41
0.0
 71
     5
 72
     1
  1
品名
  7
CONVERTER_1
 73
     1
 44
0.96038415366146
  0
MTEXT
  5
285
330
55
100
AcDbEntity
  8
1
 62
     2
100
AcDbMText
 10
29.0
 20
34.00000000000001
 30
0.0
 40
3.5
 41
0.0
 71
     5
 72
     1
  1
備考
  7
CONVERTER_1
 73
     1
 44
0.60024009603842
  0
MTEXT
  5
286
330
55
100
AcDbEntity
  8
1
 62
     2
100
AcDbMText
 10
32.5
 20
282.0000000000003
 30
0.0
 40
5.0
 41
0.0
 71
     5
 72
     1
  1
図番
  7
CONVERTER_1
 73
     1
 44
0.60024009603842
  0
MTEXT
  5
287
330
55
100
AcDbEntity
  8
1
 62
     7
100
AcDbMText
 10
171.5
 20
15.0
 30
0.0
 40
2.5
 41
0.0
 71
     5
 72
     1
  1
株式会社
  7
CONVERTER_1
 73
     1
 44
1.32052821128451
  0
MTEXT
  5
288
330
55
100
AcDbEntity
  8
1
 62
     7
100
AcDbMText
 10
188.5
 20
15.0
 30
0.0
 40
3.0
 41
0.0
 71
     5
 72
     1
  1
三栄水栓製作所
  7
CONVERTER_1
 73
     1
 44
1.32052821128451
  0
ENDBLK
  5
57
330
55
100
AcDbEntity
  8
0
100
AcDbBlockEnd
  0
BLOCK
  5
59
330
58
100
AcDbEntity
  8
0
100
AcDbBlockBegin
  2
81-2
 70
     0
 71
     0
 10
691.3316107051969
 20
65.935165421558
 30
0.0
  3
81-2
  1

  0
LINE
  5
289
330
58
100
AcDbEntity
  8
1
  6
Continuous
 62
     7
100
AcDbLine
 10
502.749345589771
 20
148.3662759504357
 30
0.0
 11
502.4606704551762
 21
148.3662759504357
 31
0.0
  0
LINE
  5
28A
330
58
100
AcDbEntity
  8
1
  6
Continuous
 62
     7
100
AcDbLine
 10
502.4606704551762
 20
148.3662759504357
 30
0.0
 11
497.6719953205815
 21
148.3662759504357
 31
0.0
  0
LINE
  5
28B
330
58
100
AcDbEntity
  8
1
  6
Continuous
 62
     7
100
AcDbLine
 10
497.6719953205815
 20
126.8662759504357
 30
0.0
 11
501.6719953205815
 21
126.8662759504357
 31
0.0
  0
LINE
  5
28C
330
58
100
AcDbEntity
  8
1
  6
Continuous
 62
     7
100
AcDbLine
 10
493.6719953205815
 20
126.8662759504357
 30
0.0
 11
497.6719953205815
 21
126.8662759504357
 31
0.0
  0
LINE
  5
28D
330
58
100
AcDbEntity
  8
1
  6
Continuous
 62
     7
100
AcDbLine
 10
497.6719953205815
 20
148.3662759504357
 30
0.0
 11
492.8833201859866
 21
148.3662759504357
 31
0.0
  0
LINE
  5
28E
330
58
100
AcDbEntity
  8
1
  6
Continuous
 62
     7
100
AcDbLine
 10
492.8833201859866
 20
148.3662759504357
 30
0.0
 11
492.5946450513917
 21
148.3662759504357
 31
0.0
  0
LINE
  5
28F
330
58
100
AcDbEntity
  8
1
  6
Continuous
 62
     7
100
AcDbLine
 10
492.8833201859866
 20
148.3662759504357
 30
0.0
 11
491.6719953205815
 21
148.3662759504357
 31
0.0
  0
LINE
  5
290
330
58
100
AcDbEntity
  8
1
  6
Continuous
 62
     7
100
AcDbLine
 10
502.749345589771
 20
148.3662759504357
 30
0.0
 11
502.4606704551762
 21
148.3662759504357
 31
0.0
  0
LINE
  5
291
330
58
100
AcDbEntity
  8
1
  6
Continuous
 62
     7
100
AcDbLine
 10
502.749345589771
 20
148.3662759504357
 30
0.0
 11
502.4606704551762
 21
148.3662759504357
 31
0.0
  0
LINE
  5
292
330
58
100
AcDbEntity
  8
1
  6
Continuous
 62
     7
100
AcDbLine
 10
503.6719953205815
 20
148.3662759504357
 30
0.0
 11
502.4606704551762
 21
148.3662759504357
 31
0.0
  0
LINE
  5
293
330
58
100
AcDbEntity
  8
1
  6
Continuous
 62
     7
100
AcDbLine
 10
420.4543154570388
 20
185.5523974747881
 30
0.0
 11
420.835809075711
 21
185.2752261366601
 31
0.0
  0
LINE
  5
294
330
58
100
AcDbEntity
  8
1
  6
Continuous
 62
     7
100
AcDbLine
 10
422.6585101531356
 20
188.586211203694
 30
0.0
 11
423.0400037718077
 21
188.3090398655662
 31
0.0
  0
LINE
  5
295
330
58
100
AcDbEntity
  8
1
  6
Continuous
 62
     7
100
AcDbLine
 10
422.6585101531356
 20
195.6463406971773
 30
0.0
 11
423.0400037718077
 21
195.9235120353052
 31
0.0
  0
LINE
  5
296
330
58
100
AcDbEntity
  8
1
  6
Continuous
 62
     7
100
AcDbLine
 10
413.739733296374
 20
183.3706974788138
 30
0.0
 11
413.5940157005325
 21
182.9222248330156
 31
0.0
  0
LINE
  5
297
330
58
100
AcDbEntity
  8
1
  6
Continuous
 62
     7
100
AcDbLine
 10
406.0234313647226
 20
190.2412759504356
 30
0.0
 11
405.5518793190615
 21
190.2412759504356
 31
0.0
  0
LINE
  5
298
330
58
100
AcDbEntity
  8
1
  6
Continuous
 62
     7
100
AcDbLine
 10
410.0275537644256
 20
184.0810385619217
 30
0.0
 11
410.1732713602673
 21
184.5295112077199
 31
0.0
  0
LINE
  5
299
330
58
100
AcDbEntity
  8
1
  6
Continuous
 62
     7
100
AcDbLine
 10
410.1732713602671
 20
199.7030406931514
 30
0.0
 11
410.0275537644256
 21
200.1515133389497
 31
0.0
  0
LINE
  5
29A
330
58
100
AcDbEntity
  8
1
  6
Continuous
 62
     7
100
AcDbLine
 10
405.5518793190615
 20
193.9912759504356
 30
0.0
 11
406.0234313647226
 21
193.9912759504356
 31
0.0
  0
LINE
  5
29B
330
58
100
AcDbEntity
  8
1
  6
Continuous
 62
     7
100
AcDbLine
 10
420.4543154570388
 20
198.6801544260833
 30
0.0
 11
420.835809075711
 21
198.9573257642113
 31
0.0
  0
LINE
  5
29C
330
58
100
AcDbEntity
  8
1
  6
Continuous
 62
     7
100
AcDbLine
 10
413.5940157005325
 20
201.3103270678558
 30
0.0
 11
413.739733296374
 21
200.8618544220574
 31
0.0
  0
LINE
  5
29D
330
58
100
AcDbEntity
  8
1
  6
Continuous
 62
     7
100
AcDbLine
 10
420.6098523263074
 20
148.3662759504357
 30
0.0
 11
419.3985274609021
 21
148.3662759504357
 31
0.0
  0
LINE
  5
29E
330
58
100
AcDbEntity
  8
1
  6
Continuous
 62
     7
100
AcDbLine
 10
419.6872025954969
 20
148.3662759504357
 30
0.0
 11
419.3985274609021
 21
148.3662759504357
 31
0.0
  0
LINE
  5
29F
330
58
100
AcDbEntity
  8
1
  6
Continuous
 62
     7
100
AcDbLine
 10
419.6872025954969
 20
148.3662759504357
 30
0.0
 11
419.3985274609021
 21
148.3662759504357
 31
0.0
  0
LINE
  5
2A0
330
58
100
AcDbEntity
  8
1
  6
Continuous
 62
     7
100
AcDbLine
 10
409.8211771917125
 20
148.3662759504357
 30
0.0
 11
408.6098523263074
 21
148.3662759504357
 31
0.0
  0
LINE
  5
2A1
330
58
100
AcDbEntity
  8
1
  6
Continuous
 62
     7
100
AcDbLine
 10
409.8211771917125
 20
148.3662759504357
 30
0.0
 11
409.5325020571176
 21
148.3662759504357
 31
0.0
  0
LINE
  5
2A2
330
58
100
AcDbEntity
  8
1
  6
Continuous
 62
     7
100
AcDbLine
 10
414.6098523263074
 20
148.3662759504357
 30
0.0
 11
409.8211771917125
 21
148.3662759504357
 31
0.0
  0
LINE
  5
2A3
330
58
100
AcDbEntity
  8
1
  6
Continuous
 62
     7
100
AcDbLine
 10
410.6098523263074
 20
126.8662759504357
 30
0.0
 11
414.6098523263074
 21
126.8662759504357
 31
0.0
  0
LINE
  5
2A4
330
58
100
AcDbEntity
  8
1
  6
Continuous
 62
     7
100
AcDbLine
 10
414.6098523263074
 20
126.8662759504357
 30
0.0
 11
418.6098523263074
 21
126.8662759504357
 31
0.0
  0
LINE
  5
2A5
330
58
100
AcDbEntity
  8
1
  6
Continuous
 62
     7
100
AcDbLine
 10
419.3985274609021
 20
148.3662759504357
 30
0.0
 11
414.6098523263074
 21
148.3662759504357
 31
0.0
  0
LINE
  5
2A6
330
58
100
AcDbEntity
  8
1
  6
Continuous
 62
     7
100
AcDbLine
 10
419.6872025954969
 20
148.3662759504357
 30
0.0
 11
419.3985274609021
 21
148.3662759504357
 31
0.0
  0
LINE
  5
2A7
330
58
100
AcDbEntity
  8
6
  6
Continuous
 62
     7
100
AcDbLine
 10
410.3558554063075
 20
134.8219204554357
 30
0.0
 11
410.3836175463075
 21
136.3148453954357
 31
0.0
  0
LINE
  5
2A8
330
58
100
AcDbEntity
  8
6
  6
Continuous
 62
     7
100
AcDbLine
 10
410.3836175463075
 20
136.3148453954357
 30
0.0
 11
410.3868313563074
 21
137.1290548054357
 31
0.0
  0
LINE
  5
2A9
330
58
100
AcDbEntity
  8
6
  6
Continuous
 62
     7
100
AcDbLine
 10
410.3676304713075
 20
139.5026350904357
 30
0.0
 11
410.2729007263075
 21
144.6929872554357
 31
0.0
  0
LINE
  5
2AA
330
58
100
AcDbEntity
  8
6
  6
Continuous
 62
     7
100
AcDbLine
 10
410.3868313563074
 20
137.1290548054357
 30
0.0
 11
410.3676304713075
 21
139.5026350904357
 31
0.0
  0
LINE
  5
2AB
330
58
100
AcDbEntity
  8
6
  6
Continuous
 62
     7
100
AcDbLine
 10
406.3944820213075
 20
144.6929872554357
 30
0.0
 11
406.5565885463074
 21
142.8940293354357
 31
0.0
  0
LINE
  5
2AC
330
58
100
AcDbEntity
  8
6
  6
Continuous
 62
     7
100
AcDbLine
 10
406.5565885463074
 20
142.8940293354357
 30
0.0
 11
406.7281968513074
 21
141.3538909254357
 31
0.0
  0
LINE
  5
2AD
330
58
100
AcDbEntity
  8
6
  6
Continuous
 62
     7
100
AcDbLine
 10
406.7281968513074
 20
141.3538909254357
 30
0.0
 11
406.9301547913074
 21
139.8254127854357
 31
0.0
  0
LINE
  5
2AE
330
58
100
AcDbEntity
  8
6
  6
Continuous
 62
     7
100
AcDbLine
 10
406.9301547913074
 20
139.8254127854357
 30
0.0
 11
407.1636652413075
 21
138.3122056304357
 31
0.0
  0
LINE
  5
2AF
330
58
100
AcDbEntity
  8
6
  6
Continuous
 62
     7
100
AcDbLine
 10
407.4377635363074
 20
136.7814513254357
 30
0.0
 11
407.6971359763074
 21
135.5187213854357
 31
0.0
  0
LINE
  5
2B0
330
58
100
AcDbEntity
  8
6
  6
Continuous
 62
     7
100
AcDbLine
 10
407.1636652413075
 20
138.3122056304357
 30
0.0
 11
407.4377635363074
 21
136.7814513254357
 31
0.0
  0
LINE
  5
2B1
330
58
100
AcDbEntity
  8
6
  6
Continuous
 62
     7
100
AcDbLine
 10
408.5486872463075
 20
132.3658769854357
 30
0.0
 11
408.6556023113075
 21
132.0703547954357
 31
0.0
  0
LINE
  5
2B2
330
58
100
AcDbEntity
  8
6
  6
Continuous
 62
     7
100
AcDbLine
 10
419.9429600163074
 20
142.2429810954357
 30
0.0
 11
420.0728574913075
 21
143.7129312854357
 31
0.0
  0
LINE
  5
2B3
330
58
100
AcDbEntity
  8
6
  6
Continuous
 62
     7
100
AcDbLine
 10
420.0728574913075
 20
143.7129312854357
 30
0.0
 11
420.1448391363074
 21
144.6929872554357
 31
0.0
  0
LINE
  5
2B4
330
58
100
AcDbEntity
  8
6
  6
Continuous
 62
     7
100
AcDbLine
 10
419.5980053363074
 20
139.3400957204357
 30
0.0
 11
419.7849219313075
 21
140.7796556754357
 31
0.0
  0
LINE
  5
2B5
330
58
100
AcDbEntity
  8
6
  6
Continuous
 62
     7
100
AcDbLine
 10
419.7849219313075
 20
140.7796556754357
 30
0.0
 11
419.9429600163074
 21
142.2429810954357
 31
0.0
  0
LINE
  5
2B6
330
58
100
AcDbEntity
  8
6
  6
Continuous
 62
     7
100
AcDbLine
 10
414.1707708563075
 20
139.0523292904357
 30
0.0
 11
414.3024010563074
 21
137.6464865404357
 31
0.0
  0
LINE
  5
2B7
330
58
100
AcDbEntity
  8
6
  6
Continuous
 62
     7
100
AcDbLine
 10
414.0442050563074
 20
140.8090315254357
 30
0.0
 11
414.1707708563075
 21
139.0523292904357
 31
0.0
  0
LINE
  5
2B8
330
58
100
AcDbEntity
  8
6
  6
Continuous
 62
     7
100
AcDbLine
 10
414.3024010563074
 20
137.6464865404357
 30
0.0
 11
414.4262337613075
 21
136.5744932854357
 31
0.0
  0
LINE
  5
2B9
330
58
100
AcDbEntity
  8
6
  6
Continuous
 62
     7
100
AcDbLine
 10
413.9497912613074
 20
142.5734031104357
 30
0.0
 11
414.0442050563074
 21
140.8090315254357
 31
0.0
  0
LINE
  5
2BA
330
58
100
AcDbEntity
  8
6
  6
Continuous
 62
     7
100
AcDbLine
 10
413.8694258463074
 20
144.6929872554357
 30
0.0
 11
413.9497912613074
 21
142.5734031104357
 31
0.0
  0
LINE
  5
2BB
330
58
100
AcDbEntity
  8
6
  6
Continuous
 62
     7
100
AcDbLine
 10
491.3352019355815
 20
144.1782145354357
 30
0.0
 11
491.3134283105815
 21
144.6929872554357
 31
0.0
  0
LINE
  5
2BC
330
58
100
AcDbEntity
  8
6
  6
Continuous
 62
     7
100
AcDbLine
 10
491.4622997405815
 20
141.6051755954357
 30
0.0
 11
491.3352019355815
 21
144.1782145354357
 31
0.0
  0
LINE
  5
2BD
330
58
100
AcDbEntity
  8
6
  6
Continuous
 62
     7
100
AcDbLine
 10
491.7218872855815
 20
137.2218479054357
 30
0.0
 11
491.4622997405815
 21
141.6051755954357
 31
0.0
  0
LINE
  5
2BE
330
58
100
AcDbEntity
  8
6
  6
Continuous
 62
     7
100
AcDbLine
 10
489.2744229305815
 20
144.6929872554357
 30
0.0
 11
489.4021605255815
 21
143.1256533554357
 31
0.0
  0
LINE
  5
2BF
330
58
100
AcDbEntity
  8
6
  6
Continuous
 62
     7
100
AcDbLine
 10
489.2228450605815
 20
144.9256896904357
 30
0.0
 11
489.2744229305815
 21
144.6929872554357
 31
0.0
  0
LINE
  5
2C0
330
58
100
AcDbEntity
  8
6
  6
Continuous
 62
     7
100
AcDbLine
 10
489.4021605255815
 20
143.1256533554357
 30
0.0
 11
489.5566311605815
 21
141.5598088754357
 31
0.0
  0
LINE
  5
2C1
330
58
100
AcDbEntity
  8
6
  6
Continuous
 62
     7
100
AcDbLine
 10
489.5566311605815
 20
141.5598088754357
 30
0.0
 11
489.7378451555815
 21
139.9965107554357
 31
0.0
  0
LINE
  5
2C2
330
58
100
AcDbEntity
  8
6
  6
Continuous
 62
     7
100
AcDbLine
 10
489.7378451555815
 20
139.9965107554357
 30
0.0
 11
489.9451247705815
 21
138.4437137654357
 31
0.0
  0
LINE
  5
2C3
330
58
100
AcDbEntity
  8
6
  6
Continuous
 62
     7
100
AcDbLine
 10
489.9451247705815
 20
138.4437137654357
 30
0.0
 11
490.1847066355815
 21
136.8680245954357
 31
0.0
  0
LINE
  5
2C4
330
58
100
AcDbEntity
  8
6
  6
Continuous
 62
     7
100
AcDbLine
 10
490.1847066355815
 20
136.8680245954357
 30
0.0
 11
490.4560183705815
 21
135.2936065504357
 31
0.0
  0
LINE
  5
2C5
330
58
100
AcDbEntity
  8
6
  6
Continuous
 62
     7
100
AcDbLine
 10
490.4560183705815
 20
135.2936065504357
 30
0.0
 11
490.7061312605815
 21
134.0075817504357
 31
0.0
  0
LINE
  5
2C6
330
58
100
AcDbEntity
  8
6
  6
Continuous
 62
     7
100
AcDbLine
 10
491.8778420655815
 20
134.4320030504357
 30
0.0
 11
491.7218872855815
 21
137.2218479054357
 31
0.0
  0
LINE
  5
2C7
330
58
100
AcDbEntity
  8
6
  6
Continuous
 62
     7
100
AcDbLine
 10
500.9158362505815
 20
143.7121646054357
 30
0.0
 11
500.9711753255815
 21
144.6929872554357
 31
0.0
  0
LINE
  5
2C8
330
58
100
AcDbEntity
  8
6
  6
Continuous
 62
     7
100
AcDbLine
 10
500.6888232155815
 20
140.7766667004357
 30
0.0
 11
500.8145222755815
 21
142.2410869304357
 31
0.0
  0
LINE
  5
2C9
330
58
100
AcDbEntity
  8
6
  6
Continuous
 62
     7
100
AcDbLine
 10
500.8145222755815
 20
142.2410869304357
 30
0.0
 11
500.9158362505815
 21
143.7121646054357
 31
0.0
  0
LINE
  5
2CA
330
58
100
AcDbEntity
  8
6
  6
Continuous
 62
     7
100
AcDbLine
 10
500.5370856405815
 20
139.3365053554357
 30
0.0
 11
500.6888232155815
 21
140.7766667004357
 31
0.0
  0
LINE
  5
2CB
330
58
100
AcDbEntity
  8
6
  6
Continuous
 62
     7
100
AcDbLine
 10
494.7603394405815
 20
139.7481998054357
 30
0.0
 11
494.9303315055815
 21
138.3454323904357
 31
0.0
  0
LINE
  5
2CC
330
58
100
AcDbEntity
  8
6
  6
Continuous
 62
     7
100
AcDbLine
 10
494.9303315055815
 20
138.3454323904357
 30
0.0
 11
495.0825639105815
 21
137.2860644054357
 31
0.0
  0
LINE
  5
2CD
330
58
100
AcDbEntity
  8
6
  6
Continuous
 62
     7
100
AcDbLine
 10
494.6198345055815
 20
141.1587012154357
 30
0.0
 11
494.7603394405815
 21
139.7481998054357
 31
0.0
  0
LINE
  5
2CE
330
58
100
AcDbEntity
  8
6
  6
Continuous
 62
     7
100
AcDbLine
 10
494.4797099955815
 20
142.9226882604357
 30
0.0
 11
494.6198345055815
 21
141.1587012154357
 31
0.0
  0
LINE
  5
2CF
330
58
100
AcDbEntity
  8
6
  6
Continuous
 62
     7
100
AcDbLine
 10
494.3728153105815
 20
144.6929872554357
 30
0.0
 11
494.4797099955815
 21
142.9226882604357
 31
0.0
  0
LINE
  5
2D0
330
58
100
AcDbEntity
  8
6
  6
Continuous
 62
     7
100
AcDbLine
 10
505.0580433755815
 20
147.7874535954357
 30
0.0
 11
504.8879722655815
 21
147.9097301554357
 31
0.0
  0
LINE
  5
2D1
330
58
100
AcDbEntity
  8
6
  6
Continuous
 62
     7
100
AcDbLine
 10
504.0305623305815
 20
144.6929872554357
 30
0.0
 11
503.9051194155815
 21
142.0388369804357
 31
0.0
  0
LINE
  5
2D2
330
58
100
AcDbEntity
  8
6
  6
Continuous
 62
     7
100
AcDbLine
 10
503.9051194155815
 20
142.0388369804357
 30
0.0
 11
503.6387340955815
 21
137.5054148104357
 31
0.0
  0
LINE
  5
2D3
330
58
100
AcDbEntity
  8
6
  6
Continuous
 62
     7
100
AcDbLine
 10
503.6387340955815
 20
137.5054148104357
 30
0.0
 11
503.4862693005815
 21
134.8448558804357
 31
0.0
  0
LINE
  5
2D4
330
58
100
AcDbEntity
  8
6
  6
Continuous
 62
     7
100
AcDbLine
 10
503.4862693005815
 20
134.8448558804357
 30
0.0
 11
503.4228622055815
 21
133.3621358604357
 31
0.0
  0
LINE
  5
2D5
330
58
100
AcDbEntity
  8
6
  6
Continuous
 62
     7
100
AcDbLine
 10
505.1478427355815
 20
136.7960981104357
 30
0.0
 11
505.4014731705815
 21
138.4614095454357
 31
0.0
  0
LINE
  5
2D6
330
58
100
AcDbEntity
  8
6
  6
Continuous
 62
     7
100
AcDbLine
 10
504.8879722655815
 20
135.2936065504357
 30
0.0
 11
505.1478427355815
 21
136.7960981104357
 31
0.0
  0
LINE
  5
2D7
330
58
100
AcDbEntity
  8
6
  6
Continuous
 62
     7
100
AcDbLine
 10
505.4014731705815
 20
138.4614095454357
 30
0.0
 11
505.6404493705815
 21
140.2751458504357
 31
0.0
  0
LINE
  5
2D8
330
58
100
AcDbEntity
  8
6
  6
Continuous
 62
     7
100
AcDbLine
 10
505.6404493705815
 20
140.2751458504357
 30
0.0
 11
505.8498588355815
 21
142.1618507604357
 31
0.0
  0
LINE
  5
2D9
330
58
100
AcDbEntity
  8
6
  6
Continuous
 62
     7
100
AcDbLine
 10
505.8498588355815
 20
142.1618507604357
 30
0.0
 11
506.0212016005815
 21
144.0602793204357
 31
0.0
  0
LINE
  5
2DA
330
58
100
AcDbEntity
  8
6
  6
Continuous
 62
     7
100
AcDbLine
 10
506.0212016005815
 20
144.0602793204357
 30
0.0
 11
506.0695677105815
 21
144.6929872554357
 31
0.0
  0
ARC
  5
2DB
330
58
100
AcDbEntity
  8
1
  6
Continuous
 62
     7
100
AcDbCircle
 10
500.9769418659481
 20
133.6954600868707
 30
0.0
 40
9.999999999999986
100
AcDbArc
 50
-163.5013890328296
 51
-136.9278787297806
  0
ARC
  5
2DC
330
58
100
AcDbEntity
  8
1
  6
Continuous
 62
     7
100
AcDbCircle
 10
577.6830714680423
 20
156.4148280681048
 30
0.0
 40
90.00000000000001
100
AcDbArc
 50
-172.5163841627991
 51
-163.5013890328292
  0
ARC
  5
2DD
330
58
100
AcDbEntity
  8
1
  6
Continuous
 62
     7
100
AcDbCircle
 10
491.6719953205815
 20
145.1162759504357
 30
0.0
 40
3.25
100
AcDbArc
 50
90.0
 51
-172.5163841627994
  0
ARC
  5
2DE
330
58
100
AcDbEntity
  8
1
  6
Continuous
 62
     7
100
AcDbCircle
 10
503.6719953205815
 20
145.1162759504357
 30
0.0
 40
3.24999999999991
100
AcDbArc
 50
-7.4836158372011
 51
90.0
  0
ARC
  5
2DF
330
58
100
AcDbEntity
  8
1
  6
Continuous
 62
     7
100
AcDbCircle
 10
417.6609191731205
 20
156.4148280681048
 30
0.0
 40
90.00000000000021
100
AcDbArc
 50
-16.49861096717078
 51
-7.48361583720091
  0
ARC
  5
2E0
330
58
100
AcDbEntity
  8
1
  6
Continuous
 62
     7
100
AcDbCircle
 10
494.3670487752148
 20
133.6954600868707
 30
0.0
 40
10.00000000000001
100
AcDbArc
 50
-43.07212127021898
 51
-16.49861096717026
  0
ARC
  5
2E1
330
58
100
AcDbEntity
  8
1
  6
Continuous
 62
     7
100
AcDbCircle
 10
414.6098523263077
 20
192.1162759504356
 30
0.0
 40
9.250000000000018
100
AcDbArc
 50
168.3049495974162
 51
-168.3049495974162
  0
ARC
  5
2E2
330
58
100
AcDbEntity
  8
1
  6
Continuous
 62
     7
100
AcDbCircle
 10
425.2232523182559
 20
192.1162759504356
 30
0.0
 40
4.363399991948311
100
AcDbArc
 50
126.0000000000002
 51
-126.0000000000008
  0
ARC
  5
2E3
330
58
100
AcDbEntity
  8
1
  6
Continuous
 62
     7
100
AcDbCircle
 10
417.8895732919186
 20
182.0223327280464
 30
0.0
 40
4.363399991948234
100
AcDbArc
 50
54.0000000000019
 51
162.0000000000013
  0
ARC
  5
2E4
330
58
100
AcDbEntity
  8
1
  6
Continuous
 62
     7
100
AcDbCircle
 10
406.0234313647226
 20
185.8778759584874
 30
0.0
 40
4.363399991948292
100
AcDbArc
 50
-17.9999999999996
 51
90.0
  0
ARC
  5
2E5
330
58
100
AcDbEntity
  8
1
  6
Continuous
 62
     7
100
AcDbCircle
 10
406.0234313647226
 20
198.3546759423838
 30
0.0
 40
4.363399991948199
100
AcDbArc
 50
-90.0
 51
18.00000000000135
  0
ARC
  5
2E6
330
58
100
AcDbEntity
  8
1
  6
Continuous
 62
     7
100
AcDbCircle
 10
417.8895732919186
 20
202.2102191728249
 30
0.0
 40
4.363399991948238
100
AcDbArc
 50
-162.0000000000002
 51
-54.00000000000102
  0
ARC
  5
2E7
330
58
100
AcDbEntity
  8
1
  6
Continuous
 62
     7
100
AcDbCircle
 10
414.6098523263077
 20
192.1162759504356
 30
0.0
 40
9.24999999999992
100
AcDbArc
 50
24.30494959741658
 51
47.69505040258429
  0
ARC
  5
2E8
330
58
100
AcDbEntity
  8
1
  6
Continuous
 62
     7
100
AcDbCircle
 10
414.6098523263077
 20
192.1162759504356
 30
0.0
 40
9.249999999999893
100
AcDbArc
 50
-47.69505040258346
 51
-24.30494959741546
  0
ARC
  5
2E9
330
58
100
AcDbEntity
  8
1
  6
Continuous
 62
     7
100
AcDbCircle
 10
414.6098523263077
 20
192.1162759504356
 30
0.0
 40
9.249999999999925
100
AcDbArc
 50
-119.6950504025848
 51
-96.30494959741617
  0
ARC
  5
2EA
330
58
100
AcDbEntity
  8
1
  6
Continuous
 62
     7
100
AcDbCircle
 10
414.6098523263077
 20
192.1162759504356
 30
0.0
 40
9.250000000000108
100
AcDbArc
 50
96.30494959741603
 51
119.6950504025842
  0
ARC
  5
2EB
330
58
100
AcDbEntity
  8
1
  6
Continuous
 62
     7
100
AcDbCircle
 10
411.3049057809407
 20
133.6954600868707
 30
0.0
 40
10.00000000000001
100
AcDbArc
 50
-43.07212127021898
 51
-16.49861096717026
  0
ARC
  5
2EC
330
58
100
AcDbEntity
  8
1
  6
Continuous
 62
     7
100
AcDbCircle
 10
334.5987761788464
 20
156.4148280681048
 30
0.0
 40
90.00000000000021
100
AcDbArc
 50
-16.49861096717078
 51
-7.48361583720091
  0
ARC
  5
2ED
330
58
100
AcDbEntity
  8
1
  6
Continuous
 62
     7
100
AcDbCircle
 10
420.6098523263074
 20
145.1162759504357
 30
0.0
 40
3.24999999999991
100
AcDbArc
 50
-7.4836158372011
 51
90.0
  0
ARC
  5
2EE
330
58
100
AcDbEntity
  8
1
  6
Continuous
 62
     7
100
AcDbCircle
 10
408.6098523263074
 20
145.1162759504357
 30
0.0
 40
3.25
100
AcDbArc
 50
90.0
 51
-172.5163841627994
  0
ARC
  5
2EF
330
58
100
AcDbEntity
  8
1
  6
Continuous
 62
     7
100
AcDbCircle
 10
494.6209284737682
 20
156.4148280681048
 30
0.0
 40
90.00000000000001
100
AcDbArc
 50
-172.5163841627991
 51
-163.5013890328292
  0
ARC
  5
2F0
330
58
100
AcDbEntity
  8
1
  6
Continuous
 62
     7
100
AcDbCircle
 10
417.914798871674
 20
133.6954600868707
 30
0.0
 40
9.999999999999986
100
AcDbArc
 50
-163.5013890328296
 51
-136.9278787297806
  0
ARC
  5
2F1
330
58
100
AcDbEntity
  8
6
  6
Continuous
 62
     7
100
AcDbCircle
 10
408.3751117913075
 20
131.8220595954357
 30
0.0
 40
1.712018604999773
100
AcDbArc
 50
-32.79207601000649
 51
-8.60049531000001
  0
ARC
  5
2F2
330
58
100
AcDbEntity
  8
6
  6
Continuous
 62
     7
100
AcDbCircle
 10
409.5491602313074
 20
131.0606106854357
 30
0.0
 40
0.3126990349999367
100
AcDbArc
 50
-115.710802119971
 51
-32.01325696997447
  0
ARC
  5
2F3
330
58
100
AcDbEntity
  8
6
  6
Continuous
 62
     7
100
AcDbCircle
 10
411.7585474863075
 20
132.8542607754357
 30
0.0
 40
3.200433935000229
100
AcDbArc
 50
-165.8218654200004
 51
-145.2300502599967
  0
ARC
  5
2F4
330
58
100
AcDbEntity
  8
6
  6
Continuous
 62
     7
100
AcDbCircle
 10
409.8028550063074
 20
131.5068873304357
 30
0.0
 40
0.8255932649999003
100
AcDbArc
 50
-144.6401421599916
 51
-118.138433619991
  0
ARC
  5
2F5
330
58
100
AcDbEntity
  8
6
  6
Continuous
 62
     7
100
AcDbCircle
 10
404.6984294363074
 20
132.6621225704357
 30
0.0
 40
5.480181535000349
100
AcDbArc
 50
-11.53747753999998
 51
-6.19907137000073
  0
ARC
  5
2F6
330
58
100
AcDbEntity
  8
6
  6
Continuous
 62
     7
100
AcDbCircle
 10
385.8755546463074
 20
135.3001902904357
 30
0.0
 40
24.48497227999986
100
AcDbArc
 50
-7.58003170000011
 51
-1.11924104000002
  0
ARC
  5
2F7
330
58
100
AcDbEntity
  8
6
  6
Continuous
 62
     7
100
AcDbCircle
 10
422.6967622213074
 20
145.4811712504357
 30
0.0
 40
12.44883803499985
100
AcDbArc
 50
173.3432712899994
 51
-176.3699549900001
  0
ARC
  5
2F8
330
58
100
AcDbEntity
  8
6
  6
Continuous
 62
     7
100
AcDbCircle
 10
401.9563233463074
 20
147.9173243704357
 30
0.0
 40
8.434193369999752
100
AcDbArc
 50
-6.76192189999976
 51
-1.69383677000075
  0
ARC
  5
2F9
330
58
100
AcDbEntity
  8
6
  6
Continuous
 62
     7
100
AcDbCircle
 10
409.5557413213074
 20
147.7258186904357
 30
0.0
 40
0.8330974050002131
100
AcDbArc
 50
-3.97823981999235
 51
25.46689101000211
  0
ARC
  5
2FA
330
58
100
AcDbEntity
  8
6
  6
Continuous
 62
     7
100
AcDbCircle
 10
409.9498424563074
 20
147.8600494454357
 30
0.0
 40
0.4223393799999021
100
AcDbArc
 50
32.02985106998841
 51
78.6647623299768
  0
ARC
  5
2FB
330
58
100
AcDbEntity
  8
6
  6
Continuous
 62
     7
100
AcDbCircle
 10
409.4156616463075
 20
144.6809779504357
 30
0.0
 40
3.633360739999815
100
AcDbArc
 50
93.05890119000243
 51
118.0813959099984
  0
ARC
  5
2FC
330
58
100
AcDbEntity
  8
6
  6
Continuous
 62
     7
100
AcDbCircle
 10
409.5142250863074
 20
145.6718041404357
 30
0.0
 40
2.653522604999858
100
AcDbArc
 50
78.72905705999713
 51
96.32750971999471
  0
ARC
  5
2FD
330
58
100
AcDbEntity
  8
6
  6
Continuous
 62
     7
100
AcDbCircle
 10
409.0590089763074
 20
145.4651458354357
 30
0.0
 40
2.774154425000094
100
AcDbArc
 50
119.2062602899962
 51
-163.8388349299991
  0
ARC
  5
2FE
330
58
100
AcDbEntity
  8
6
  6
Continuous
 62
     7
100
AcDbCircle
 10
437.2577836163075
 20
141.8113324104357
 30
0.0
 40
30.22298533499976
100
AcDbArc
 50
-167.9827520199999
 51
-161.78850142
  0
ARC
  5
2FF
330
58
100
AcDbEntity
  8
6
  6
Continuous
 62
     7
100
AcDbCircle
 10
409.0059350913074
 20
145.4637314104357
 30
0.0
 40
2.929444719999992
100
AcDbArc
 50
90.0
 51
-164.7457680100003
  0
ARC
  5
300
330
58
100
AcDbEntity
  8
6
  6
Continuous
 62
     7
100
AcDbCircle
 10
495.0170112363074
 20
151.3905251054357
 30
0.0
 40
89.08941982500002
100
AcDbArc
 50
-175.6885673
 51
-167.47517039
  0
ARC
  5
301
330
58
100
AcDbEntity
  8
6
  6
Continuous
 62
     7
100
AcDbCircle
 10
415.5508168663075
 20
146.6780326554357
 30
0.0
 40
1.54949104500034
100
AcDbArc
 50
125.4058348400022
 51
159.8098203999978
  0
ARC
  5
302
330
58
100
AcDbEntity
  8
6
  6
Continuous
 62
     7
100
AcDbCircle
 10
415.8063098263074
 20
146.1135780504357
 30
0.0
 40
2.160850960000024
100
AcDbArc
 50
96.96368863999577
 51
122.2547383300002
  0
ARC
  5
303
330
58
100
AcDbEntity
  8
6
  6
Continuous
 62
     7
100
AcDbCircle
 10
416.9569232963074
 20
143.4055434554357
 30
0.0
 40
4.901351790000184
100
AcDbArc
 50
70.85784273000049
 51
87.88387844999882
  0
ARC
  5
304
330
58
100
AcDbEntity
  8
6
  6
Continuous
 62
     7
100
AcDbCircle
 10
416.5799985713074
 20
139.8335258054357
 30
0.0
 40
8.48838123999982
100
AcDbArc
 50
86.23146592999882
 51
97.00814374999844
  0
ARC
  5
305
330
58
100
AcDbEntity
  8
6
  6
Continuous
 62
     7
100
AcDbCircle
 10
417.7560735363074
 20
145.7486784204357
 30
0.0
 40
2.425758775000201
100
AcDbArc
 50
26.06563125000087
 51
70.54178347000283
  0
ARC
  5
306
330
58
100
AcDbEntity
  8
6
  6
Continuous
 62
     7
100
AcDbCircle
 10
417.0421269563074
 20
145.4574206454357
 30
0.0
 40
3.195493900000025
100
AcDbArc
 50
-13.84064421999818
 51
25.13189214999695
  0
ARC
  5
307
330
58
100
AcDbEntity
  8
6
  6
Continuous
 62
     7
100
AcDbCircle
 10
378.8374528913075
 20
144.8105568704357
 30
0.0
 40
41.12600856499995
100
AcDbArc
 50
-14.55979109999998
 51
-7.64397224000006
  0
ARC
  5
308
330
58
100
AcDbEntity
  8
6
  6
Continuous
 62
     7
100
AcDbCircle
 10
404.3643862163074
 20
138.1021900054357
 30
0.0
 40
14.73262854499994
100
AcDbArc
 50
-24.16841567000019
 51
-14.26533941999984
  0
ARC
  5
309
330
58
100
AcDbEntity
  8
6
  6
Continuous
 62
     7
100
AcDbCircle
 10
415.3059036113074
 20
132.8610961104357
 30
0.0
 40
2.621822780000102
100
AcDbArc
 50
-42.73622277999732
 51
-17.55371821000214
  0
ARC
  5
30A
330
58
100
AcDbEntity
  8
6
  6
Continuous
 62
     7
100
AcDbCircle
 10
416.5771037663075
 20
131.6262222504357
 30
0.0
 40
0.8788142999999158
100
AcDbArc
 50
-140.2832863799998
 51
-88.60606113000931
  0
ARC
  5
30B
330
58
100
AcDbEntity
  8
6
  6
Continuous
 62
     7
100
AcDbCircle
 10
416.4688435613074
 20
131.7600540954357
 30
0.0
 40
1.020652605000014
100
AcDbArc
 50
-82.70284172998611
 51
-41.64146840000306
  0
ARC
  5
30C
330
58
100
AcDbEntity
  8
6
  6
Continuous
 62
     7
100
AcDbCircle
 10
417.8602557713074
 20
132.6851837304357
 30
0.0
 40
2.542505550000174
100
AcDbArc
 50
-166.006011230001
 51
-140.4040079099958
  0
ARC
  5
30D
330
58
100
AcDbEntity
  8
6
  6
Continuous
 62
     7
100
AcDbCircle
 10
425.2556776663075
 20
135.7946090304357
 30
0.0
 40
10.54221789499987
100
AcDbArc
 50
-165.0844353399998
 51
-159.3125175500007
  0
ARC
  5
30E
330
58
100
AcDbEntity
  8
6
  6
Continuous
 62
     7
100
AcDbCircle
 10
441.4204767863075
 20
139.7329384004357
 30
0.0
 40
27.17839090000026
100
AcDbArc
 50
-173.32648504
 51
-165.83308007
  0
ARC
  5
30F
330
58
100
AcDbEntity
  8
6
  6
Continuous
 62
     7
100
AcDbCircle
 10
421.1603330013074
 20
145.4665793404357
 30
0.0
 40
7.331832779999665
100
AcDbArc
 50
176.6098267400002
 51
-173.94336759
  0
ARC
  5
310
330
58
100
AcDbEntity
  8
6
  6
Continuous
 62
     7
100
AcDbCircle
 10
418.0454766663074
 20
145.7639290154357
 30
0.0
 40
4.206351879999871
100
AcDbArc
 50
159.8515867400016
 51
178.1441957899999
  0
ARC
  5
311
330
58
100
AcDbEntity
  8
6
  6
Continuous
 62
     7
100
AcDbCircle
 10
492.1258054155815
 20
145.4728517454357
 30
0.0
 40
2.954076020000198
100
AcDbArc
 50
124.4195494700033
 51
-169.3258810999998
  0
ARC
  5
312
330
58
100
AcDbEntity
  8
6
  6
Continuous
 62
     7
100
AcDbCircle
 10
491.8468689355815
 20
145.8080927054357
 30
0.0
 40
2.520187544999981
100
AcDbArc
 50
102.9172219300032
 51
123.4963426299971
  0
ARC
  5
313
330
58
100
AcDbEntity
  8
6
  6
Continuous
 62
     7
100
AcDbCircle
 10
489.0689481955815
 20
149.1143490504357
 30
0.0
 40
3.018235550000186
100
AcDbArc
 50
-26.02099270000007
 51
-18.32811039000054
  0
ARC
  5
314
330
58
100
AcDbEntity
  8
6
  6
Continuous
 62
     7
100
AcDbCircle
 10
491.6780282755815
 20
146.8570802354357
 30
0.0
 40
1.461676049999876
100
AcDbArc
 50
82.54575560999112
 51
105.6592732900009
  0
ARC
  5
315
330
58
100
AcDbEntity
  8
6
  6
Continuous
 62
     7
100
AcDbCircle
 10
491.8564386205815
 20
148.2220202354357
 30
0.0
 40
0.0851256850001296
100
AcDbArc
 50
-2.94222983009389
 51
82.42654819008513
  0
ARC
  5
316
330
58
100
AcDbEntity
  8
6
  6
Continuous
 62
     7
100
AcDbCircle
 10
496.7246748855815
 20
145.4596369354357
 30
0.0
 40
5.465285099999991
100
AcDbArc
 50
154.7582165000016
 51
-171.9361682700001
  0
ARC
  5
317
330
58
100
AcDbEntity
  8
6
  6
Continuous
 62
     7
100
AcDbCircle
 10
524.4998259755814
 20
140.8481490954357
 30
0.0
 40
34.47908299499976
100
AcDbArc
 50
-168.5567292899999
 51
-165.2511124799999
  0
ARC
  5
318
330
58
100
AcDbEntity
  8
6
  6
Continuous
 62
     7
100
AcDbCircle
 10
495.5056214605815
 20
132.8485969504357
 30
0.0
 40
4.417909385000224
100
AcDbArc
 50
-169.8540508600004
 51
-155.4494459999988
  0
ARC
  5
319
330
58
100
AcDbEntity
  8
6
  6
Continuous
 62
     7
100
AcDbCircle
 10
483.2658496905815
 20
131.9934523304357
 30
0.0
 40
8.67513593500005
100
AcDbArc
 50
-5.66614923999995
 51
0.50791646999996
  0
ARC
  5
31A
330
58
100
AcDbEntity
  8
6
  6
Continuous
 62
     7
100
AcDbCircle
 10
490.9708012205815
 20
131.1997381404357
 30
0.0
 40
0.929921155000116
100
AcDbArc
 50
-24.79705755999559
 51
-3.87215705999731
  0
ARC
  5
31B
330
58
100
AcDbEntity
  8
6
  6
Continuous
 62
     7
100
AcDbCircle
 10
442.9695574555815
 20
131.9136816904357
 30
0.0
 40
48.97307674499979
100
AcDbArc
 50
0.39809708999993
 51
2.94759611999997
  0
ARC
  5
31C
330
58
100
AcDbEntity
  8
6
  6
Continuous
 62
     7
100
AcDbCircle
 10
471.7238869705815
 20
132.2510542154357
 30
0.0
 40
20.21756532500017
100
AcDbArc
 50
-0.51210182000002
 51
0.00820379000007
  0
ARC
  5
31D
330
58
100
AcDbEntity
  8
6
  6
Continuous
 62
     7
100
AcDbCircle
 10
492.1061833405815
 20
131.2768366554357
 30
0.0
 40
0.6729574950000918
100
AcDbArc
 50
-156.9150819100054
 51
-130.7428718500101
  0
ARC
  5
31E
330
58
100
AcDbEntity
  8
6
  6
Continuous
 62
     7
100
AcDbCircle
 10
491.7262394005815
 20
130.8393668804357
 30
0.0
 40
0.0935631950000241
100
AcDbArc
 50
-129.308753769983
 51
-18.47076094996283
  0
ARC
  5
31F
330
58
100
AcDbEntity
  8
6
  6
Continuous
 62
     7
100
AcDbCircle
 10
496.4976901405815
 20
146.1165953554357
 30
0.0
 40
2.081570594999915
100
AcDbArc
 50
122.8283529600007
 51
159.2969539399948
  0
ARC
  5
320
330
58
100
AcDbEntity
  8
6
  6
Continuous
 62
     7
100
AcDbCircle
 10
496.8381227605815
 20
145.3670433754357
 30
0.0
 40
2.898471645000151
100
AcDbArc
 50
97.9132437999973
 51
120.4499223799987
  0
ARC
  5
321
330
58
100
AcDbEntity
  8
6
  6
Continuous
 62
     7
100
AcDbCircle
 10
497.6735271705815
 20
139.1383077454357
 30
0.0
 40
9.182957500000248
100
AcDbArc
 50
82.30511786999935
 51
97.72554849999972
  0
ARC
  5
322
330
58
100
AcDbEntity
  8
6
  6
Continuous
 62
     7
100
AcDbCircle
 10
498.5536249255815
 20
145.5081070304357
 30
0.0
 40
2.752741634631223
100
AcDbArc
 50
58.92283717056985
 51
82.70623671000162
  0
ARC
  5
323
330
58
100
AcDbEntity
  8
6
  6
Continuous
 62
     7
100
AcDbCircle
 10
498.7659212005815
 20
146.0425494804357
 30
0.0
 40
2.18744327000023
100
AcDbArc
 50
15.68298566000404
 51
56.4586511799935
  0
ARC
  5
324
330
58
100
AcDbEntity
  8
6
  6
Continuous
 62
     7
100
AcDbCircle
 10
496.9256010605815
 20
145.4590863304357
 30
0.0
 40
4.117472394999737
100
AcDbArc
 50
-10.72296959000126
 51
16.57745020999942
  0
ARC
  5
325
330
58
100
AcDbEntity
  8
6
  6
Continuous
 62
     7
100
AcDbCircle
 10
459.4091005905815
 20
143.7736851854357
 30
0.0
 40
41.36664984000017
100
AcDbArc
 50
-13.00038224999987
 51
-6.15765935000008
  0
ARC
  5
326
330
58
100
AcDbEntity
  8
6
  6
Continuous
 62
     7
100
AcDbCircle
 10
486.1907089605815
 20
137.5166009054357
 30
0.0
 40
13.8641010300002
100
AcDbArc
 50
-23.1307560599996
 51
-12.7029066799996
  0
ARC
  5
327
330
58
100
AcDbEntity
  8
6
  6
Continuous
 62
     7
100
AcDbCircle
 10
496.4431150455815
 20
132.8295748604357
 30
0.0
 40
2.610033549999802
100
AcDbArc
 50
-41.41823737000301
 51
-16.91095758999903
  0
ARC
  5
328
330
58
100
AcDbEntity
  8
6
  6
Continuous
 62
     7
100
AcDbCircle
 10
498.8255800855815
 20
132.7950607754357
 30
0.0
 40
2.527978794999799
100
AcDbArc
 50
-163.3410579599986
 51
-136.2170520900034
  0
ARC
  5
329
330
58
100
AcDbEntity
  8
6
  6
Continuous
 62
     7
100
AcDbCircle
 10
497.5883083555815
 20
131.8175724954357
 30
0.0
 40
1.081762489999988
100
AcDbArc
 50
-80.02551622999685
 51
-41.34949903000933
  0
ARC
  5
32A
330
58
100
AcDbEntity
  8
6
  6
Continuous
 62
     7
100
AcDbCircle
 10
497.6977496055815
 20
131.7163523104357
 30
0.0
 40
0.9673356700001892
100
AcDbArc
 50
-136.1230633400043
 51
-85.37913647999893
  0
ARC
  5
32B
330
58
100
AcDbEntity
  8
6
  6
Continuous
 62
     7
100
AcDbCircle
 10
507.9574459855815
 20
137.0596244404357
 30
0.0
 40
12.58498065499978
100
AcDbArc
 50
-164.8502188999998
 51
-156.6437902199997
  0
ARC
  5
32C
330
58
100
AcDbEntity
  8
6
  6
Continuous
 62
     7
100
AcDbCircle
 10
525.9116153355815
 20
141.8310855704357
 30
0.0
 40
31.16227894500019
100
AcDbArc
 50
-171.6134909300001
 51
-165.0093846199998
  0
ARC
  5
32D
330
58
100
AcDbEntity
  8
6
  6
Continuous
 62
     7
100
AcDbCircle
 10
498.3268440405815
 20
145.4546405154357
 30
0.0
 40
4.026718124999904
100
AcDbArc
 50
159.6874206900013
 51
-169.09682352
  0
ARC
  5
32E
330
58
100
AcDbEntity
  8
6
  6
Continuous
 62
     7
100
AcDbCircle
 10
498.3046904855815
 20
145.3949151754357
 30
0.0
 40
5.782248315000204
100
AcDbArc
 50
0.15819018000023
 51
26.02998808000004
  0
ARC
  5
32F
330
58
100
AcDbEntity
  8
6
  6
Continuous
 62
     7
100
AcDbCircle
 10
504.3131894405815
 20
148.3707042754357
 30
0.0
 40
0.9234231999998326
100
AcDbArc
 50
-170.4594413600127
 51
-151.6637381099934
  0
ARC
  5
330
330
58
100
AcDbEntity
  8
6
  6
Continuous
 62
     7
100
AcDbCircle
 10
503.5401690155815
 20
145.9063401004357
 30
0.0
 40
2.414569379999836
100
AcDbArc
 50
56.06886127000212
 51
89.00537114000311
  0
ARC
  5
331
330
58
100
AcDbEntity
  8
6
  6
Continuous
 62
     7
100
AcDbCircle
 10
503.1930721505815
 20
145.4652711304357
 30
0.0
 40
2.978363489999894
100
AcDbArc
 50
-15.02841555000055
 51
51.23165511000221
  0
ARC
  5
332
330
58
100
AcDbEntity
  8
6
  6
Continuous
 62
     7
100
AcDbCircle
 10
503.5750294805815
 20
148.0164498404357
 30
0.0
 40
0.3041776200000264
100
AcDbArc
 50
88.67130778003974
 51
118.2242304300424
  0
ARC
  5
333
330
58
100
AcDbEntity
  8
6
  6
Continuous
 62
     7
100
AcDbCircle
 10
503.4827556155815
 20
148.2228094754357
 30
0.0
 40
0.0803827700001842
100
AcDbArc
 50
129.9161307399615
 51
-176.3204463298813
  0
ARC
  5
334
330
58
100
AcDbEntity
  8
6
  6
Continuous
 62
     7
100
AcDbCircle
 10
498.7709086655815
 20
145.4670272954357
 30
0.0
 40
5.316304599999905
100
AcDbArc
 50
-8.37187385000045
 51
-0.60513576000053
  0
ARC
  5
335
330
58
100
AcDbEntity
  8
6
  6
Continuous
 62
     7
100
AcDbCircle
 10
540.0916187655814
 20
132.1353674104357
 30
0.0
 40
36.68927184500004
100
AcDbArc
 50
178.08386062
 51
179.81481676
  0
ARC
  5
336
330
58
100
AcDbEntity
  8
6
  6
Continuous
 62
     7
100
AcDbCircle
 10
510.6588004255815
 20
131.9451489954357
 30
0.0
 40
7.256534790000118
100
AcDbArc
 50
179.01135733
 51
-172.8339829999998
  0
ARC
  5
337
330
58
100
AcDbEntity
  8
6
  6
Continuous
 62
     7
100
AcDbCircle
 10
504.0447072505815
 20
131.0982516104357
 30
0.0
 40
0.5886556749997447
100
AcDbArc
 50
-174.3144503699967
 51
-147.4712041099902
  0
ARC
  5
338
330
58
100
AcDbEntity
  8
6
  6
Continuous
 62
     7
100
AcDbCircle
 10
502.6951503705815
 20
131.6578975054357
 30
0.0
 40
1.330857430000005
100
AcDbArc
 50
-41.05467553000167
 51
-16.38155070999526
  0
ARC
  5
339
330
58
100
AcDbEntity
  8
6
  6
Continuous
 62
     7
100
AcDbCircle
 10
462.0188019205815
 20
142.9261577154357
 30
0.0
 40
43.54333018499996
100
AcDbArc
 50
-14.43670606000007
 51
-10.09532200000002
  0
ARC
  5
33A
330
58
100
AcDbEntity
  8
6
  6
Continuous
 62
     7
100
AcDbCircle
 10
503.6227641605815
 20
130.8399579404357
 30
0.0
 40
0.0944568099999106
100
AcDbArc
 50
-141.9331154299536
 51
-36.46566054999026
  0
ARC
  5
33B
330
58
100
AcDbEntity
  8
6
  6
Continuous
 62
     7
100
AcDbCircle
 10
499.0268930155815
 20
133.0567421304357
 30
0.0
 40
5.253727115000068
100
AcDbArc
 50
-19.73687789000026
 51
-10.8215065700006
  0
ARC
  5
33C
330
58
100
AcDbEntity
  8
6
  6
Continuous
 62
     7
100
AcDbCircle
 10
523.6201836905815
 20
132.2510545654357
 30
0.0
 40
20.2176453450001
100
AcDbArc
 50
179.99179724
 51
-179.4878992099998
  0
ENDBLK
  5
5A
330
58
100
AcDbEntity
  8
0
100
AcDbBlockEnd
  0
BLOCK
  5
360
330
359
100
AcDbEntity
  8
0
100
AcDbBlockBegin
  2
*D012
 70
     1
 71
     0
 10
0.0
 20
0.0
 30
0.0
  3
*D012
  1

  0
LINE
  5
35A
330
359
100
AcDbEntity
  8
1
  6
Continuous
 62
     2
100
AcDbLine
 10
301.0247598719321
 20
139.9819782780145
 30
0.0
 11
389.8206267292908
 21
139.9819782780145
 31
0.0
  0
LINE
  5
35B
330
359
100
AcDbEntity
  8
1
  6
Continuous
 62
     2
100
AcDbLine
 10
301.0247598719321
 20
211.9170519008714
 30
0.0
 11
301.0247598719321
 21
137.9819782780145
 31
0.0
  0
LINE
  5
35C
330
359
100
AcDbEntity
  8
1
  6
Continuous
 62
     2
100
AcDbLine
 10
389.8206267292908
 20
217.7325519008714
 30
0.0
 11
389.8206267292908
 21
137.9819782780145
 31
0.0
  0
SOLID
  5
35D
330
359
100
AcDbEntity
  8
1
 62
     2
100
AcDbTrace
 10
308.0247598719321
 20
140.9035457611263
 30
0.0
 11
308.0247598719321
 21
139.0604107949027
 31
0.0
 12
301.0247598719321
 22
139.9819782780145
 32
0.0
 13
301.0247598719321
 23
139.9819782780145
 33
0.0
  0
SOLID
  5
35E
330
359
100
AcDbEntity
  8
1
 62
     2
100
AcDbTrace
 10
382.8206267292908
 20
139.0604107949027
 30
0.0
 11
382.8206267292908
 21
140.9035457611263
 31
0.0
 12
389.8206267292908
 22
139.9819782780145
 32
0.0
 13
389.8206267292908
 23
139.9819782780145
 33
0.0
  0
MTEXT
  5
35F
330
359
100
AcDbEntity
  8
1
 62
     7
100
AcDbMText
 10
340.1726933006114
 20
141.9819782780145
 30
0.0
 40
7.0
 41
0.0
 71
     7
 72
     1
  1
89
  7
CONVERTER_2
 11
0.9999999999970621
 21
2.424068405545307E-6
 31
0.0
 73
     1
 44
0.60024009603842
  0
ENDBLK
  5
361
330
359
100
AcDbEntity
  8
0
100
AcDbBlockEnd
  0
BLOCK
  5
36B
330
364
100
AcDbEntity
  8
0
100
AcDbBlockBegin
  2
*D113
 70
     1
 71
     0
 10
0.0
 20
0.0
 30
0.0
  3
*D113
  1

  0
LINE
  5
365
330
364
100
AcDbEntity
  8
1
  6
Continuous
 62
     2
100
AcDbLine
 10
301.0247598719321
 20
155.9819782780145
 30
0.0
 11
329.024759871932
 21
155.9819782780145
 31
0.0
  0
LINE
  5
366
330
364
100
AcDbEntity
  8
1
  6
Continuous
 62
     2
100
AcDbLine
 10
301.0247598719321
 20
211.9170519008714
 30
0.0
 11
301.0247598719321
 21
153.9819782780145
 31
0.0
  0
LINE
  5
367
330
364
100
AcDbEntity
  8
1
  6
Continuous
 62
     2
100
AcDbLine
 10
329.024759871932
 20
188.9819782780146
 30
0.0
 11
329.024759871932
 21
153.9819782780145
 31
0.0
  0
SOLID
  5
368
330
364
100
AcDbEntity
  8
1
 62
     2
100
AcDbTrace
 10
308.0247598719321
 20
156.9035457611263
 30
0.0
 11
308.0247598719321
 21
155.0604107949027
 31
0.0
 12
301.0247598719321
 22
155.9819782780145
 32
0.0
 13
301.0247598719321
 23
155.9819782780145
 33
0.0
  0
SOLID
  5
369
330
364
100
AcDbEntity
  8
1
 62
     2
100
AcDbTrace
 10
322.024759871932
 20
155.0604107949027
 30
0.0
 11
322.024759871932
 21
156.9035457611263
 31
0.0
 12
329.024759871932
 22
155.9819782780145
 32
0.0
 13
329.024759871932
 23
155.9819782780145
 33
0.0
  0
MTEXT
  5
36A
330
364
100
AcDbEntity
  8
1
 62
     7
100
AcDbMText
 10
309.774759871932
 20
157.9819782780145
 30
0.0
 40
7.0
 41
0.0
 71
     7
 72
     1
  1
28
  7
CONVERTER_2
 11
0.9999999999970621
 21
2.424068405545307E-6
 31
0.0
 73
     1
 44
0.60024009603842
  0
ENDBLK
  5
36C
330
364
100
AcDbEntity
  8
0
100
AcDbBlockEnd
  0
BLOCK
  5
378
330
36F
100
AcDbEntity
  8
0
100
AcDbBlockBegin
  2
*D214
 70
     1
 71
     0
 10
0.0
 20
0.0
 30
0.0
  3
*D214
  1

  0
LINE
  5
370
330
36F
100
AcDbEntity
  8
1
  6
Continuous
 62
     2
100
AcDbLine
 10
313.0247598719321
 20
171.9819782780145
 30
0.0
 11
327.0247598719321
 21
171.9819782780145
 31
0.0
  0
LINE
  5
371
330
36F
100
AcDbEntity
  8
1
  6
Continuous
 62
     2
100
AcDbLine
 10
301.0247598719321
 20
171.9819782780145
 30
0.0
 11
313.0247598719321
 21
171.9819782780145
 31
0.0
  0
LINE
  5
372
330
36F
100
AcDbEntity
  8
1
  6
Continuous
 62
     2
100
AcDbLine
 10
287.0247598719321
 20
171.9819782780145
 30
0.0
 11
301.0247598719321
 21
171.9819782780145
 31
0.0
  0
LINE
  5
373
330
36F
100
AcDbEntity
  8
1
  6
Continuous
 62
     2
100
AcDbLine
 10
301.0247598719321
 20
211.9170519008714
 30
0.0
 11
301.0247598719321
 21
169.9819782780145
 31
0.0
  0
LINE
  5
374
330
36F
100
AcDbEntity
  8
1
  6
Continuous
 62
     2
100
AcDbLine
 10
313.0247598719321
 20
210.7550519008715
 30
0.0
 11
313.0247598719321
 21
169.9819782780145
 31
0.0
  0
SOLID
  5
375
330
36F
100
AcDbEntity
  8
1
 62
     2
100
AcDbTrace
 10
294.0247598719321
 20
171.0604107949027
 30
0.0
 11
294.0247598719321
 21
172.9035457611263
 31
0.0
 12
301.0247598719321
 22
171.9819782780145
 32
0.0
 13
301.0247598719321
 23
171.9819782780145
 33
0.0
  0
SOLID
  5
376
330
36F
100
AcDbEntity
  8
1
 62
     2
100
AcDbTrace
 10
320.0247598719321
 20
172.9035457611263
 30
0.0
 11
320.0247598719321
 21
171.0604107949027
 31
0.0
 12
313.0247598719321
 22
171.9819782780145
 32
0.0
 13
313.0247598719321
 23
171.9819782780145
 33
0.0
  0
MTEXT
  5
377
330
36F
100
AcDbEntity
  8
1
 62
     7
100
AcDbMText
 10
302.8247598719321
 20
173.9819782780145
 30
0.0
 40
7.0
 41
0.0
 71
     7
 72
     1
  1
12
  7
CONVERTER_2
 11
0.9999999999970621
 21
2.424068405545307E-6
 31
0.0
 73
     1
 44
0.60024009603842
  0
ENDBLK
  5
379
330
36F
100
AcDbEntity
  8
0
100
AcDbBlockEnd
  0
BLOCK
  5
383
330
37C
100
AcDbEntity
  8
0
100
AcDbBlockBegin
  2
*D315
 70
     1
 71
     0
 10
0.0
 20
0.0
 30
0.0
  3
*D315
  1

  0
LINE
  5
37D
330
37C
100
AcDbEntity
  8
1
  6
Continuous
 62
     2
100
AcDbLine
 10
211.4004738833838
 20
215.2325519008714
 30
0.0
 11
211.4004738833838
 21
305.7325519008714
 31
0.0
  0
LINE
  5
37E
330
37C
100
AcDbEntity
  8
1
  6
Continuous
 62
     2
100
AcDbLine
 10
194.4004738833838
 20
215.2325519008714
 30
0.0
 11
213.4004738833838
 21
215.2325519008714
 31
0.0
  0
LINE
  5
37F
330
37C
100
AcDbEntity
  8
1
  6
Continuous
 62
     2
100
AcDbLine
 10
162.900473883385
 20
305.7325519008714
 30
0.0
 11
213.4004738833838
 21
305.7325519008714
 31
0.0
  0
SOLID
  5
380
330
37C
100
AcDbEntity
  8
1
 62
     2
100
AcDbTrace
 10
210.478906400272
 20
222.2325519008714
 30
0.0
 11
212.3220413664956
 21
222.2325519008714
 31
0.0
 12
211.4004738833838
 22
215.2325519008714
 32
0.0
 13
211.4004738833838
 23
215.2325519008714
 33
0.0
  0
SOLID
  5
381
330
37C
100
AcDbEntity
  8
1
 62
     2
100
AcDbTrace
 10
212.3220413664956
 20
298.7325519008714
 30
0.0
 11
210.478906400272
 21
298.7325519008714
 31
0.0
 12
211.4004738833838
 22
305.7325519008714
 32
0.0
 13
211.4004738833838
 23
305.7325519008714
 33
0.0
  0
MTEXT
  5
382
330
37C
100
AcDbEntity
  8
1
 62
     7
100
AcDbMText
 10
209.4004738833838
 20
242.6325519008714
 30
0.0
 40
7.0
 41
0.0
 71
     7
 72
     1
  1
91リフト5
  7
CONVERTER_1
 11
0.0
 21
1.0
 31
0.0
 73
     1
 44
0.60024009603842
  0
ENDBLK
  5
384
330
37C
100
AcDbEntity
  8
0
100
AcDbBlockEnd
  0
BLOCK
  5
38E
330
387
100
AcDbEntity
  8
0
100
AcDbBlockBegin
  2
*D416
 70
     1
 71
     0
 10
0.0
 20
0.0
 30
0.0
  3
*D416
  1

  0
LINE
  5
388
330
387
100
AcDbEntity
  8
1
  6
Continuous
 62
     2
100
AcDbLine
 10
211.4004738833838
 20
407.2325519008715
 30
0.0
 11
211.4004738833838
 21
375.2325519008714
 31
0.0
  0
LINE
  5
389
330
387
100
AcDbEntity
  8
1
  6
Continuous
 62
     2
100
AcDbLine
 10
191.4004738833838
 20
407.2325519008715
 30
0.0
 11
213.4004738833838
 21
407.2325519008715
 31
0.0
  0
LINE
  5
38A
330
387
100
AcDbEntity
  8
1
  6
Continuous
 62
     2
100
AcDbLine
 10
191.4004738833838
 20
375.2325519008714
 30
0.0
 11
213.4004738833838
 21
375.2325519008714
 31
0.0
  0
SOLID
  5
38B
330
387
100
AcDbEntity
  8
1
 62
     2
100
AcDbTrace
 10
212.3220413664956
 20
400.2325519008715
 30
0.0
 11
210.478906400272
 21
400.2325519008715
 31
0.0
 12
211.4004738833838
 22
407.2325519008715
 32
0.0
 13
211.4004738833838
 23
407.2325519008715
 33
0.0
  0
SOLID
  5
38C
330
387
100
AcDbEntity
  8
1
 62
     2
100
AcDbTrace
 10
210.478906400272
 20
382.2325519008714
 30
0.0
 11
212.3220413664956
 21
382.2325519008714
 31
0.0
 12
211.4004738833838
 22
375.2325519008714
 32
0.0
 13
211.4004738833838
 23
375.2325519008714
 33
0.0
  0
MTEXT
  5
38D
330
387
100
AcDbEntity
  8
1
 62
     7
100
AcDbMText
 10
209.4004738833838
 20
378.7025519008714
 30
0.0
 40
7.0
 41
0.0
 71
     7
 72
     1
  1
\C7;{\Fgdt;n}\C7;32
  7
CONVERTER_2
 11
0.0
 21
1.0
 31
0.0
 73
     1
 44
0.60024009603842
  0
ENDBLK
  5
38F
330
387
100
AcDbEntity
  8
0
100
AcDbBlockEnd
  0
BLOCK
  5
399
330
392
100
AcDbEntity
  8
0
100
AcDbBlockBegin
  2
*D517
 70
     1
 71
     0
 10
0.0
 20
0.0
 30
0.0
  3
*D517
  1

  0
LINE
  5
393
330
392
100
AcDbEntity
  8
1
  6
Continuous
 62
     2
100
AcDbLine
 10
117.9004738833838
 20
472.0325519008714
 30
0.0
 11
162.9004738833838
 21
472.0325519008714
 31
0.0
  0
LINE
  5
394
330
392
100
AcDbEntity
  8
1
  6
Continuous
 62
     2
100
AcDbLine
 10
117.9004738833838
 20
400.7325519008715
 30
0.0
 11
117.9004738833838
 21
474.0325519008714
 31
0.0
  0
LINE
  5
395
330
392
100
AcDbEntity
  8
1
  6
Continuous
 62
     2
100
AcDbLine
 10
162.9004738833838
 20
426.2325519008714
 30
0.0
 11
162.9004738833838
 21
474.0325519008714
 31
0.0
  0
SOLID
  5
396
330
392
100
AcDbEntity
  8
1
 62
     2
100
AcDbTrace
 10
124.9004738833838
 20
472.9541193839831
 30
0.0
 11
124.9004738833838
 21
471.1109844177597
 31
0.0
 12
117.9004738833838
 22
472.0325519008714
 32
0.0
 13
117.9004738833838
 23
472.0325519008714
 33
0.0
  0
SOLID
  5
397
330
392
100
AcDbEntity
  8
1
 62
     2
100
AcDbTrace
 10
155.9004738833838
 20
471.1109844177597
 30
0.0
 11
155.9004738833838
 21
472.9541193839831
 31
0.0
 12
162.9004738833838
 22
472.0325519008714
 32
0.0
 13
162.9004738833838
 23
472.0325519008714
 33
0.0
  0
MTEXT
  5
398
330
392
100
AcDbEntity
  8
1
 62
     7
100
AcDbMText
 10
135.1504738833838
 20
474.0325519008714
 30
0.0
 40
7.0
 41
0.0
 71
     7
 72
     1
  1
45
  7
CONVERTER_2
 11
0.9999999999970621
 21
2.424068405545307E-6
 31
0.0
 73
     1
 44
0.60024009603842
  0
ENDBLK
  5
39A
330
392
100
AcDbEntity
  8
0
100
AcDbBlockEnd
  0
BLOCK
  5
3A4
330
39D
100
AcDbEntity
  8
0
100
AcDbBlockBegin
  2
*D618
 70
     1
 71
     0
 10
0.0
 20
0.0
 30
0.0
  3
*D618
  1

  0
LINE
  5
39E
330
39D
100
AcDbEntity
  8
1
  6
Continuous
 62
     2
100
AcDbLine
 10
162.9004738833838
 20
472.0325519008714
 30
0.0
 11
191.4004738833838
 21
472.0325519008714
 31
0.0
  0
LINE
  5
39F
330
39D
100
AcDbEntity
  8
1
  6
Continuous
 62
     2
100
AcDbLine
 10
162.9004738833838
 20
426.2325519008714
 30
0.0
 11
162.9004738833838
 21
474.0325519008714
 31
0.0
  0
LINE
  5
3A0
330
39D
100
AcDbEntity
  8
1
  6
Continuous
 62
     2
100
AcDbLine
 10
191.4004738833838
 20
407.2325519008715
 30
0.0
 11
191.4004738833838
 21
474.0325519008714
 31
0.0
  0
SOLID
  5
3A1
330
39D
100
AcDbEntity
  8
1
 62
     2
100
AcDbTrace
 10
169.9004738833838
 20
472.9541193839831
 30
0.0
 11
169.9004738833838
 21
471.1109844177597
 31
0.0
 12
162.9004738833838
 22
472.0325519008714
 32
0.0
 13
162.9004738833838
 23
472.0325519008714
 33
0.0
  0
SOLID
  5
3A2
330
39D
100
AcDbEntity
  8
1
 62
     2
100
AcDbTrace
 10
184.4004738833838
 20
471.1109844177597
 30
0.0
 11
184.4004738833838
 21
472.9541193839831
 31
0.0
 12
191.4004738833838
 22
472.0325519008714
 32
0.0
 13
191.4004738833838
 23
472.0325519008714
 33
0.0
  0
MTEXT
  5
3A3
330
39D
100
AcDbEntity
  8
1
 62
     7
100
AcDbMText
 10
171.9004738833838
 20
474.0325519008714
 30
0.0
 40
7.0
 41
0.0
 71
     7
 72
     1
  1
29
  7
CONVERTER_2
 11
0.9999999999970621
 21
2.424068405545307E-6
 31
0.0
 73
     1
 44
0.60024009603842
  0
ENDBLK
  5
3A5
330
39D
100
AcDbEntity
  8
0
100
AcDbBlockEnd
  0
BLOCK
  5
3AF
330
3A8
100
AcDbEntity
  8
0
100
AcDbBlockBegin
  2
*D719
 70
     1
 71
     0
 10
0.0
 20
0.0
 30
0.0
  3
*D719
  1

  0
LINE
  5
3A9
330
3A8
100
AcDbEntity
  8
1
  6
Continuous
 62
     2
100
AcDbLine
 10
97.9004738833838
 20
414.4825519008715
 30
0.0
 11
97.9004738833838
 21
367.9825519008712
 31
0.0
  0
LINE
  5
3AA
330
3A8
100
AcDbEntity
  8
1
  6
Continuous
 62
     2
100
AcDbLine
 10
132.9004738833838
 20
414.4825519008715
 30
0.0
 11
95.9004738833838
 21
414.4825519008715
 31
0.0
  0
LINE
  5
3AB
330
3A8
100
AcDbEntity
  8
1
  6
Continuous
 62
     2
100
AcDbLine
 10
132.9004738833838
 20
367.9825519008712
 30
0.0
 11
95.9004738833838
 21
367.9825519008712
 31
0.0
  0
SOLID
  5
3AC
330
3A8
100
AcDbEntity
  8
1
 62
     2
100
AcDbTrace
 10
98.82204136649557
 20
407.4825519008715
 30
0.0
 11
96.97890640027202
 21
407.4825519008715
 31
0.0
 12
97.9004738833838
 22
414.4825519008715
 32
0.0
 13
97.9004738833838
 23
414.4825519008715
 33
0.0
  0
SOLID
  5
3AD
330
3A8
100
AcDbEntity
  8
1
 62
     2
100
AcDbTrace
 10
96.97890640027202
 20
374.9825519008712
 30
0.0
 11
98.82204136649557
 21
374.9825519008712
 31
0.0
 12
97.9004738833838
 22
367.9825519008712
 32
0.0
 13
97.9004738833838
 23
367.9825519008712
 33
0.0
  0
MTEXT
  5
3AE
330
3A8
100
AcDbEntity
  8
1
 62
     7
100
AcDbMText
 10
95.9004738833838
 20
378.7025519008714
 30
0.0
 40
7.0
 41
0.0
 71
     7
 72
     1
  1
\C7;{\Fgdt;n}\C7;47
  7
CONVERTER_2
 11
0.0
 21
1.0
 31
0.0
 73
     1
 44
0.60024009603842
  0
ENDBLK
  5
3B0
330
3A8
100
AcDbEntity
  8
0
100
AcDbBlockEnd
  0
BLOCK
  5
3BA
330
3B3
100
AcDbEntity
  8
0
100
AcDbBlockBegin
  2
*D820
 70
     1
 71
     0
 10
0.0
 20
0.0
 30
0.0
  3
*D820
  1

  0
LINE
  5
3B4
330
3B3
100
AcDbEntity
  8
1
  6
Continuous
 62
     2
100
AcDbLine
 10
191.4004738833838
 20
343.2325519008714
 30
0.0
 11
132.9004738833838
 21
343.2325519008714
 31
0.0
  0
LINE
  5
3B5
330
3B3
100
AcDbEntity
  8
1
  6
Continuous
 62
     2
100
AcDbLine
 10
191.4004738833838
 20
375.2325519008714
 30
0.0
 11
191.4004738833838
 21
341.2325519008714
 31
0.0
  0
LINE
  5
3B6
330
3B3
100
AcDbEntity
  8
1
  6
Continuous
 62
     2
100
AcDbLine
 10
132.9004738833838
 20
367.9825519008712
 30
0.0
 11
132.9004738833838
 21
341.2325519008714
 31
0.0
  0
SOLID
  5
3B7
330
3B3
100
AcDbEntity
  8
1
 62
     2
100
AcDbTrace
 10
184.4004738833838
 20
342.3109844177596
 30
0.0
 11
184.4004738833838
 21
344.1541193839831
 31
0.0
 12
191.4004738833838
 22
343.2325519008714
 32
0.0
 13
191.4004738833838
 23
343.2325519008714
 33
0.0
  0
SOLID
  5
3B8
330
3B3
100
AcDbEntity
  8
1
 62
     2
100
AcDbTrace
 10
139.9004738833838
 20
344.1541193839831
 30
0.0
 11
139.9004738833838
 21
342.3109844177596
 31
0.0
 12
132.9004738833838
 22
343.2325519008714
 32
0.0
 13
132.9004738833838
 23
343.2325519008714
 33
0.0
  0
MTEXT
  5
3B9
330
3B3
100
AcDbEntity
  8
1
 62
     7
100
AcDbMText
 10
156.9004738833838
 20
345.2325519008714
 30
0.0
 40
7.0
 41
0.0
 71
     7
 72
     1
  1
59
  7
CONVERTER_2
 11
0.9999999999970621
 21
2.424068405545307E-6
 31
0.0
 73
     1
 44
0.60024009603842
  0
ENDBLK
  5
3BB
330
3B3
100
AcDbEntity
  8
0
100
AcDbBlockEnd
  0
ENDSEC
  0
SECTION
  2
ENTITIES
  0
INSERT
  5
5B
330
1F
100
AcDbEntity
  8
1
100
AcDbBlockReference
  2
B41-25-13
 10
217.1474976976288
 20
187.2293058085826
 30
0.0
  0
INSERT
  5
5C
330
1F
100
AcDbEntity
  8
0
100
AcDbBlockReference
  2
B41-25-13-H2
 10
317.7777615219407
 20
341.5841840989783
 30
0.0
  0
INSERT
  5
5D
330
1F
100
AcDbEntity
  8
0
100
AcDbBlockReference
  2
84-9
 10
95.59005247482764
 20
148.5460412831939
 30
0.0
  0
INSERT
  5
5E
330
1F
100
AcDbEntity
  8
0
100
AcDbBlockReference
  2
R10A-13
 10
207.9004738833838
 20
221.7325519008714
 30
0.0
  0
INSERT
  5
5F
330
1F
100
AcDbEntity
  8
1
100
AcDbBlockReference
  2
28-1A-28-13
 10
499.3370886390551
 20
223.1621116650338
 30
0.0
  0
INSERT
  5
60
330
1F
100
AcDbEntity
  8
1
100
AcDbBlockReference
  2
B41J-0-M11
 10
38.02475987193202
 20
102.870330843116
 30
0.0
  0
INSERT
  5
61
330
1F
100
AcDbEntity
  8
1
100
AcDbBlockReference
  2
_J__A4
 10
0.0
 20
0.0
 30
0.0
 41
2.0
 42
2.0
 43
2.0
  0
INSERT
  5
62
330
1F
100
AcDbEntity
  8
0
100
AcDbBlockReference
  2
81-2
 10
716.3439906411628
 20
138.870330843116
 30
0.0
 41
2.0
 42
2.0
 43
2.0
  0
LINE
  5
33D
330
1F
100
AcDbEntity
  8
1
  6
DASH_CENTER
 62
     2
100
AcDbLine
 10
307.0247598719321
 20
215.2325519008714
 30
0.0
 11
351.0241862490751
 21
215.2325519008714
 31
0.0
  0
LINE
  5
33E
330
1F
100
AcDbEntity
  8
1
  6
DASH_CENTER
 62
     2
100
AcDbLine
 10
146.4229738833836
 20
221.2325519008714
 30
0.0
 11
179.377973883384
 21
221.2325519008714
 31
0.0
  0
LINE
  5
33F
330
1F
100
AcDbEntity
  8
1
  6
DASH_CENTER
 62
     2
100
AcDbLine
 10
298.0247598719321
 20
221.2325519008714
 30
0.0
 11
392.8206267292908
 21
221.2325519008714
 31
0.0
  0
LINE
  5
340
330
1F
100
AcDbEntity
  8
1
  6
DASH_CENTER
 62
     2
100
AcDbLine
 10
162.9004738833838
 20
360.2325519008714
 30
0.0
 11
162.9004738833838
 21
426.2325519008714
 31
0.0
  0
LINE
  5
341
330
1F
100
AcDbEntity
  8
1
  6
DASH_CENTER
 62
     2
100
AcDbLine
 10
114.9004738833838
 20
391.2325519008714
 30
0.0
 11
196.9004738833838
 21
391.2325519008714
 31
0.0
  0
LINE
  5
342
330
1F
100
AcDbEntity
  8
1
  6
DASH_CENTER
 62
     2
100
AcDbLine
 10
329.024759871932
 20
213.7325519008714
 30
0.0
 11
329.024759871932
 21
218.7325519008714
 31
0.0
  0
LINE
  5
343
330
1F
100
AcDbEntity
  8
1
  6
DASH_CENTER
 62
     2
100
AcDbLine
 10
329.024759871932
 20
188.9819782780146
 30
0.0
 11
329.024759871932
 21
213.7325519008714
 31
0.0
  0
LINE
  5
344
330
1F
100
AcDbEntity
  8
1
  6
DASH_CENTER
 62
     2
100
AcDbLine
 10
329.024759871932
 20
218.7325519008714
 30
0.0
 11
329.024759871932
 21
228.7325519008714
 31
0.0
  0
LINE
  5
345
330
1F
100
AcDbEntity
  8
1
  6
DASH_CENTER
 62
     2
100
AcDbLine
 10
114.9004738833838
 20
215.2325519008714
 30
0.0
 11
194.4004738833838
 21
215.2325519008714
 31
0.0
  0
LINE
  5
346
330
1F
100
AcDbEntity
  8
0
  6
DASH_CENTER
 62
     2
100
AcDbLine
 10
162.9004738833838
 20
311.7325519008714
 30
0.0
 11
162.9004738833838
 21
199.8865224120217
 31
0.0
  0
LINE
  5
347
330
1F
100
AcDbEntity
  8
1
  6
DASH_CENTER
 62
     2
100
AcDbLine
 10
329.024759871932
 20
228.7325519008714
 30
0.0
 11
329.024759871932
 21
311.7325519008714
 31
0.0
  0
SOLID
  5
348
330
1F
100
AcDbEntity
  8
1
 62
     2
100
AcDbTrace
 10
195.6985747350603
 20
197.6307275987935
 30
0.0
 11
194.1023730317073
 21
196.7091601156817
 31
0.0
 12
191.4004738833838
 22
203.2321216837287
 32
0.0
 13
191.4004738833838
 23
203.2321216837287
 33
0.0
  0
LEADER
  5
349
330
1F
100
AcDbEntity
  8
1
  6
Continuous
 62
     2
100
AcDbLeader
  3
Standard
 71
     0
 76
     3
 10
191.4004738833838
 20
203.2321216837287
 30
0.0
 10
205.2569631392625
 20
179.2319782780145
 30
0.0
 10
235.8461906073511
 20
179.2319782780145
 30
0.0
  0
SOLID
  5
34A
330
1F
100
AcDbEntity
  8
1
 62
     2
100
AcDbTrace
 10
302.7266590202556
 20
237.3114459858068
 30
0.0
 11
304.3228607236086
 21
238.2330134689186
 31
0.0
 12
307.0247598719321
 22
231.7100519008716
 32
0.0
 13
307.0247598719321
 23
231.7100519008716
 33
0.0
  0
LEADER
  5
34B
330
1F
100
AcDbEntity
  8
1
  6
Continuous
 62
     2
100
AcDbLeader
  3
Standard
 71
     0
 76
     3
 10
307.0247598719321
 20
231.7100519008716
 30
0.0
 10
298.6387472119528
 20
246.2350519008716
 30
0.0
 10
272.0495197438642
 20
246.2350519008716
 30
0.0
  0
SOLID
  5
34C
330
1F
100
AcDbEntity
  8
1
 62
     2
100
AcDbTrace
 10
350.9766590202556
 20
238.2330134689185
 30
0.0
 11
352.5728607236085
 21
237.3114459858067
 31
0.0
 12
348.2747598719321
 22
231.7100519008715
 32
0.0
 13
348.2747598719321
 23
231.7100519008715
 33
0.0
  0
LEADER
  5
34D
330
1F
100
AcDbEntity
  8
1
  6
Continuous
 62
     2
100
AcDbLeader
  3
Standard
 71
     0
 76
     3
 10
348.2747598719321
 20
231.7100519008715
 30
0.0
 10
356.6607725319115
 20
246.2350519008716
 30
0.0
 10
383.2500000000001
 20
246.2350519008716
 30
0.0
  0
SOLID
  5
34E
330
1F
100
AcDbEntity
  8
1
 62
     2
100
AcDbTrace
 10
121.6023730317073
 20
231.3333723629497
 30
0.0
 11
123.1985747350603
 21
232.2549398460615
 31
0.0
 12
125.9004738833838
 22
225.7319782780145
 32
0.0
 13
125.9004738833838
 23
225.7319782780145
 33
0.0
  0
LEADER
  5
34F
330
1F
100
AcDbEntity
  8
1
  6
Continuous
 62
     2
100
AcDbLeader
  3
Standard
 71
     0
 76
     3
 10
125.9004738833838
 20
225.7319782780145
 30
0.0
 10
106.9919213861127
 20
258.4825519008715
 30
0.0
 10
80.40269391802404
 20
258.4825519008715
 30
0.0
  0
MTEXT
  5
351
330
1F
100
AcDbEntity
  8
1
 62
     7
100
AcDbMText
 10
220.8056073956531
 20
185.2319782780145
 30
0.0
 40
7.0
 41
0.0
 71
     5
 72
     1
  1
Rp1/2
  7
CONVERTER_2
 73
     1
 44
0.7202881152461
  0
MTEXT
  5
352
330
1F
100
AcDbEntity
  8
1
 62
     7
100
AcDbMText
 10
285.0901029555621
 20
252.2350519008716
 30
0.0
 40
7.0
 41
0.0
 71
     5
 72
     1
  1
PJ1/2
  7
CONVERTER_2
 73
     1
 44
0.7202881152461
  0
MTEXT
  5
353
330
1F
100
AcDbEntity
  8
1
 62
     7
100
AcDbMText
 10
370.2094167883021
 20
252.2350519008716
 30
0.0
 40
7.0
 41
0.0
 71
     5
 72
     1
  1
PJ1/2
  7
CONVERTER_2
 73
     1
 44
0.7202881152461
  0
MTEXT
  5
354
330
1F
100
AcDbEntity
  8
1
 62
     7
100
AcDbMText
 10
114.0
 20
45.50000000000002
 30
0.0
 40
7.0
 41
0.0
 71
     5
 72
     1
  1
水抜クロス分岐バルブ
  7
CONVERTER_1
 73
     1
 44
0.7202881152461
  0
MTEXT
  5
355
330
1F
100
AcDbEntity
  8
1
 62
     7
100
AcDbMText
 10
114.0
 20
28.5
 30
0.0
 40
7.0
 41
0.0
 71
     5
 72
     1
  1
B410GK-13
  7
CONVERTER_2
 73
     1
 44
0.7202881152461
  0
MTEXT
  5
356
330
1F
100
AcDbEntity
  8
1
 62
     7
100
AcDbMText
 10
170.5
 20
34.0
 30
0.0
 40
7.0
 41
0.0
 71
     5
 72
     1
  1
1
  7
CONVERTER_2
 73
     1
 44
0.7202881152461
  0
MTEXT
  5
357
330
1F
100
AcDbEntity
  8
1
 62
     7
100
AcDbMText
 10
187.5
 20
34.0
 30
0.0
 40
7.0
 41
0.0
 71
     5
 72
     1
  1
2
  7
CONVERTER_2
 73
     1
 44
0.7202881152461
  0
MTEXT
  5
358
330
1F
100
AcDbEntity
  8
1
 62
     7
100
AcDbMText
 10
93.44327712972203
 20
264.4825519008715
 30
0.0
 40
7.0
 41
0.0
 71
     5
 72
     1
  1
PJ1/2
  7
CONVERTER_2
 73
     1
 44
0.7202881152461
  0
DIMENSION
  5
363
330
1F
100
AcDbEntity
  8
1
100
AcDbDimension
  2
*D012
 10
301.0247598719321
 20
139.9819782780145
 30
0.0
 11
345.4226933006114
 21
145.4819782780145
 31
0.0
  1
89
 71
     5
 42
0.0
 53
0.00013888888889
  3
ME10_DIM_0
100
AcDbAlignedDimension
 13
389.8206267292908
 23
217.7325519008714
 33
0.0
 14
301.0247598719321
 24
211.9170519008714
 34
0.0
100
AcDbRotatedDimension
  0
DIMENSION
  5
36E
330
1F
100
AcDbEntity
  8
1
100
AcDbDimension
  2
*D113
 10
301.0247598719321
 20
155.9819782780145
 30
0.0
 11
315.024759871932
 21
161.4819782780145
 31
0.0
  1
<>
 71
     5
 42
0.0
 53
0.00013888888889
  3
ME10_DIM_1
100
AcDbAlignedDimension
 13
329.024759871932
 23
188.9819782780146
 33
0.0
 14
301.0247598719321
 24
211.9170519008714
 34
0.0
100
AcDbRotatedDimension
  0
DIMENSION
  5
37B
330
1F
100
AcDbEntity
  8
1
100
AcDbDimension
  2
*D214
 10
301.0247598719321
 20
171.9819782780145
 30
0.0
 11
307.0247598719321
 21
177.4819782780145
 31
0.0
  1
<>
 71
     5
 42
0.0
 53
0.00013888888889
  3
ME10_DIM_2
100
AcDbAlignedDimension
 13
313.0247598719321
 23
210.7550519008715
 33
0.0
 14
301.0247598719321
 24
211.9170519008714
 34
0.0
100
AcDbRotatedDimension
  0
DIMENSION
  5
386
330
1F
100
AcDbEntity
  8
1
100
AcDbDimension
  2
*D315
 10
211.4004738833838
 20
215.2325519008714
 30
0.0
 11
205.9004738833838
 21
260.4825519008714
 31
0.0
  1
91リフト5
 71
     5
 42
0.0
 53
90.0
  3
ME10_DIM_3
100
AcDbAlignedDimension
 13
162.900473883385
 23
305.7325519008714
 33
0.0
 14
194.4004738833838
 24
215.2325519008714
 34
0.0
 50
90.0
100
AcDbRotatedDimension
  0
DIMENSION
  5
391
330
1F
100
AcDbEntity
  8
1
100
AcDbDimension
  2
*D416
 10
211.4004738833838
 20
407.2325519008715
 30
0.0
 11
205.9004738833838
 21
391.2325519008714
 31
0.0
  1
<>
 71
     5
 42
0.0
 53
90.0
  3
ME10_DIM_4
100
AcDbAlignedDimension
 13
191.4004738833838
 23
375.2325519008714
 33
0.0
 14
191.4004738833838
 24
407.2325519008715
 34
0.0
 50
90.0
100
AcDbRotatedDimension
  0
DIMENSION
  5
39C
330
1F
100
AcDbEntity
  8
1
100
AcDbDimension
  2
*D517
 10
117.9004738833838
 20
472.0325519008714
 30
0.0
 11
140.4004738833838
 21
477.5325519008714
 31
0.0
  1
<>
 71
     5
 42
0.0
 53
0.00013888888889
  3
ME10_DIM_5
100
AcDbAlignedDimension
 13
162.9004738833838
 23
426.2325519008714
 33
0.0
 14
117.9004738833838
 24
400.7325519008715
 34
0.0
100
AcDbRotatedDimension
  0
DIMENSION
  5
3A7
330
1F
100
AcDbEntity
  8
1
100
AcDbDimension
  2
*D618
 10
162.9004738833838
 20
472.0325519008714
 30
0.0
 11
177.1504738833838
 21
477.5325519008714
 31
0.0
  1
29
 71
     5
 42
0.0
 53
0.00013888888889
  3
ME10_DIM_6
100
AcDbAlignedDimension
 13
191.4004738833838
 23
407.2325519008715
 33
0.0
 14
162.9004738833838
 24
426.2325519008714
 34
0.0
100
AcDbRotatedDimension
  0
DIMENSION
  5
3B2
330
1F
100
AcDbEntity
  8
1
100
AcDbDimension
  2
*D719
 10
97.9004738833838
 20
414.4825519008715
 30
0.0
 11
92.4004738833838
 21
391.2325519008714
 31
0.0
  1
{\Fgdt;n}47
 71
     5
 42
0.0
 53
90.0
  3
ME10_DIM_7
100
AcDbAlignedDimension
 13
132.9004738833838
 23
367.9825519008712
 33
0.0
 14
132.9004738833838
 24
414.4825519008715
 34
0.0
 50
90.0
100
AcDbRotatedDimension
  0
DIMENSION
  5
3BD
330
1F
100
AcDbEntity
  8
1
100
AcDbDimension
  2
*D820
 10
191.4004738833838
 20
343.2325519008714
 30
0.0
 11
162.1504738833838
 21
348.7325519008714
 31
0.0
  1
59
 71
     5
 42
0.0
 53
0.00013888888889
  3
ME10_DIM_8
100
AcDbAlignedDimension
 13
132.9004738833838
 23
367.9825519008712
 33
0.0
 14
191.4004738833838
 24
375.2325519008714
 34
0.0
100
AcDbRotatedDimension
  0
ENDSEC
  0
SECTION
  2
OBJECTS
  0
DICTIONARY
  5
C
330
0
100
AcDbDictionary
281
     1
  3
ACAD_GROUP
350
D
  3
ACAD_LAYOUT
350
1A
  3
ACAD_MLINESTYLE
350
17
  3
ACAD_PLOTSETTINGS
350
19
  3
ACAD_PLOTSTYLENAME
350
E
  3
ACAD_TABLESTYLE
350
2A
  3
AcDbVariableDictionary
350
2C
  0
DICTIONARY
  5
D
102
{ACAD_REACTORS
330
C
102
}
330
C
100
AcDbDictionary
281
     1
  0
DICTIONARY
  5
1A
102
{ACAD_REACTORS
330
C
102
}
330
C
100
AcDbDictionary
281
     1
  3
Layout1
350
1E
  3
Layout2
350
26
  3
Model
350
22
  0
DICTIONARY
  5
17
102
{ACAD_REACTORS
330
C
102
}
330
C
100
AcDbDictionary
281
     1
  3
Standard
350
18
  0
DICTIONARY
  5
19
102
{ACAD_REACTORS
330
C
102
}
330
C
100
AcDbDictionary
281
     1
  0
ACDBDICTIONARYWDFLT
  5
E
102
{ACAD_REACTORS
330
C
102
}
330
C
100
AcDbDictionary
281
     1
  3
Normal
350
F
100
AcDbDictionaryWithDefault
340
F
  0
DICTIONARY
  5
2A
102
{ACAD_REACTORS
330
C
102
}
330
C
100
AcDbDictionary
281
     1
  3
Standard
350
2B
  0
DICTIONARY
  5
2C
102
{ACAD_REACTORS
330
C
102
}
330
C
100
AcDbDictionary
281
     1
  3
CTABLESTYLE
350
2D
  0
LAYOUT
  5
1E
102
{ACAD_REACTORS
330
1A
102
}
330
1A
100
AcDbPlotSettings
  1

  2

  4

  6

 40
0.0
 41
0.0
 42
0.0
 43
0.0
 44
0.0
 45
0.0
 46
0.0
 47
0.0
 48
0.0
 49
0.0
140
0.0
141
0.0
142
1.0
143
1.0
 70
   688
 72
     0
 73
     0
 74
     5
  7

 75
    16
147
1.0
148
0.0
149
0.0
100
AcDbLayout
  1
Layout1
 70
     1
 71
     1
 10
0.0
 20
0.0
 11
12.0
 21
9.0
 12
0.0
 22
0.0
 32
0.0
 14
1.00000000000000E+20
 24
1.00000000000000E+20
 34
1.00000000000000E+20
 15
-1.00000000000000E+20
 25
-1.00000000000000E+20
 35
-1.00000000000000E+20
146
0.0
 13
0.0
 23
0.0
 33
0.0
 16
1.0
 26
0.0
 36
0.0
 17
0.0
 27
1.0
 37
0.0
 76
     0
330
1B
  0
LAYOUT
  5
26
102
{ACAD_REACTORS
330
1A
102
}
330
1A
100
AcDbPlotSettings
  1

  2

  4

  6

 40
0.0
 41
0.0
 42
0.0
 43
0.0
 44
0.0
 45
0.0
 46
0.0
 47
0.0
 48
0.0
 49
0.0
140
0.0
141
0.0
142
1.0
143
1.0
 70
   688
 72
     0
 73
     0
 74
     5
  7

 75
    16
147
1.0
148
0.0
149
0.0
100
AcDbLayout
  1
Layout2
 70
     1
 71
     2
 10
0.0
 20
0.0
 11
0.0
 21
0.0
 12
0.0
 22
0.0
 32
0.0
 14
0.0
 24
0.0
 34
0.0
 15
0.0
 25
0.0
 35
0.0
146
0.0
 13
0.0
 23
0.0
 33
0.0
 16
1.0
 26
0.0
 36
0.0
 17
0.0
 27
1.0
 37
0.0
 76
     0
330
23
  0
LAYOUT
  5
22
102
{ACAD_REACTORS
330
1A
102
}
330
1A
100
AcDbPlotSettings
  1

  2

  4

  6

 40
0.0
 41
0.0
 42
0.0
 43
0.0
 44
0.0
 45
0.0
 46
0.0
 47
0.0
 48
0.0
 49
0.0
140
0.0
141
0.0
142
1.0
143
1.0
 70
  1712
 72
     0
 73
     0
 74
     0
  7

 75
     0
147
1.0
148
0.0
149
0.0
100
AcDbLayout
  1
Model
 70
     1
 71
     0
 10
0.0
 20
0.0
 11
0.0
 21
0.0
 12
0.0
 22
0.0
 32
0.0
 14
0.0
 24
0.0
 34
0.0
 15
420.0
 25
594.0
 35
0.0
146
0.0
 13
0.0
 23
0.0
 33
0.0
 16
1.0
 26
0.0
 36
0.0
 17
0.0
 27
1.0
 37
0.0
 76
     0
330
1F
  0
MLINESTYLE
  5
18
102
{ACAD_REACTORS
330
17
102
}
330
17
100
AcDbMlineStyle
  2
Standard
 70
     0
  3

 62
   256
 51
90.0
 52
90.0
 71
     2
 49
0.5
 62
   256
  6
BYLAYER
 49
-0.5
 62
   256
  6
BYLAYER
  0
ACDBPLACEHOLDER
  5
F
102
{ACAD_REACTORS
330
E
102
}
330
E
  0
TABLESTYLE
  5
2B
102
{ACAD_REACTORS
330
2A
102
}
330
2A
100
AcDbTableStyle
  3
Standard
 70
     0
 71
     0
 40
0.06
 41
0.06
280
     0
281
     0
  7
Standard
140
0.18
170
     2
 62
     0
 63
     7
283
     0
274
    -2
284
     1
 64
     0
275
    -2
285
     1
 65
     0
276
    -2
286
     1
 66
     0
277
    -2
287
     1
 67
     0
278
    -2
288
     1
 68
     0
279
    -2
289
     1
 69
     0
  7
Standard
140
0.25
170
     5
 62
     0
 63
     7
283
     0
274
    -2
284
     1
 64
     0
275
    -2
285
     1
 65
     0
276
    -2
286
     1
 66
     0
277
    -2
287
     1
 67
     0
278
    -2
288
     1
 68
     0
279
    -2
289
     1
 69
     0
  7
Standard
140
0.18
170
     5
 62
     0
 63
     7
283
     0
274
    -2
284
     1
 64
     0
275
    -2
285
     1
 65
     0
276
    -2
286
     1
 66
     0
277
    -2
287
     1
 67
     0
278
    -2
288
     1
 68
     0
279
    -2
289
     1
 69
     0
  0
DICTIONARYVAR
  5
2D
102
{ACAD_REACTORS
330
2C
102
}
330
2C
100
DictionaryVariables
280
     0
  1
Standard
  0
ENDSEC
  0
EOF
