  0
SECTION
  2
HEADER
  9
$ACADVER
  1
AC1015
  9
$ACADMAINTVER
 70
     6
  9
$DWGCODEPAGE
  3
DOS932
  9
$INSBASE
 10
0.0
 20
0.0
 30
0.0
  9
$EXTMIN
 10
-7.51664131391072
 20
0.0
 30
0.0
  9
$EXTMAX
 10
420.0
 20
594.0
 30
0.0
  9
$LIMMIN
 10
0.0
 20
0.0
  9
$LIMMAX
 10
12.0
 20
9.0
  9
$ORTHOMODE
 70
     0
  9
$REGENMODE
 70
     1
  9
$FILLMODE
 70
     1
  9
$QTEXTMODE
 70
     0
  9
$MIRRTEXT
 70
     1
  9
$LTSCALE
 40
1.0
  9
$ATTMODE
 70
     1
  9
$TEXTSIZE
 40
0.2
  9
$TRACEWID
 40
0.05
  9
$TEXTSTYLE
  7
Standard
  9
$CLAYER
  8
0
  9
$CELTYPE
  6
ByLayer
  9
$CECOLOR
 62
   256
  9
$CELTSCALE
 40
1.0
  9
$DISPSILH
 70
     0
  9
$DIMSCALE
 40
1.0
  9
$DIMASZ
 40
0.18
  9
$DIMEXO
 40
0.0625
  9
$DIMDLI
 40
0.38
  9
$DIMRND
 40
0.0
  9
$DIMDLE
 40
0.0
  9
$DIMEXE
 40
0.18
  9
$DIMTP
 40
0.0
  9
$DIMTM
 40
0.0
  9
$DIMTXT
 40
0.18
  9
$DIMCEN
 40
0.09
  9
$DIMTSZ
 40
0.0
  9
$DIMTOL
 70
     0
  9
$DIMLIM
 70
     0
  9
$DIMTIH
 70
     1
  9
$DIMTOH
 70
     1
  9
$DIMSE1
 70
     0
  9
$DIMSE2
 70
     0
  9
$DIMTAD
 70
     0
  9
$DIMZIN
 70
     0
  9
$DIMBLK
  1

  9
$DIMASO
 70
     1
  9
$DIMSHO
 70
     1
  9
$DIMPOST
  1

  9
$DIMAPOST
  1

  9
$DIMALT
 70
     0
  9
$DIMALTD
 70
     2
  9
$DIMALTF
 40
25.4
  9
$DIMLFAC
 40
1.0
  9
$DIMTOFL
 70
     0
  9
$DIMTVP
 40
0.0
  9
$DIMTIX
 70
     0
  9
$DIMSOXD
 70
     0
  9
$DIMSAH
 70
     0
  9
$DIMBLK1
  1

  9
$DIMBLK2
  1

  9
$DIMSTYLE
  2
Standard
  9
$DIMCLRD
 70
     0
  9
$DIMCLRE
 70
     0
  9
$DIMCLRT
 70
     0
  9
$DIMTFAC
 40
1.0
  9
$DIMGAP
 40
0.09
  9
$DIMJUST
 70
     0
  9
$DIMSD1
 70
     0
  9
$DIMSD2
 70
     0
  9
$DIMTOLJ
 70
     1
  9
$DIMTZIN
 70
     0
  9
$DIMALTZ
 70
     0
  9
$DIMALTTZ
 70
     0
  9
$DIMUPT
 70
     0
  9
$DIMDEC
 70
     4
  9
$DIMTDEC
 70
     4
  9
$DIMALTU
 70
     2
  9
$DIMALTTD
 70
     2
  9
$DIMTXSTY
  7
Standard
  9
$DIMAUNIT
 70
     0
  9
$DIMADEC
 70
     0
  9
$DIMALTRND
 40
0.0
  9
$DIMAZIN
 70
     0
  9
$DIMDSEP
 70
    46
  9
$DIMATFIT
 70
     3
  9
$DIMFRAC
 70
     0
  9
$DIMLDRBLK
  1

  9
$DIMLUNIT
 70
     2
  9
$DIMLWD
 70
    -2
  9
$DIMLWE
 70
    -2
  9
$DIMTMOVE
 70
     0
  9
$LUNITS
 70
     2
  9
$LUPREC
 70
     4
  9
$SKETCHINC
 40
0.1
  9
$FILLETRAD
 40
0.5
  9
$AUNITS
 70
     0
  9
$AUPREC
 70
     0
  9
$MENU
  1
.
  9
$ELEVATION
 40
0.0
  9
$PELEVATION
 40
0.0
  9
$THICKNESS
 40
0.0
  9
$LIMCHECK
 70
     0
  9
$CHAMFERA
 40
0.5
  9
$CHAMFERB
 40
0.5
  9
$CHAMFERC
 40
1.0
  9
$CHAMFERD
 40
0.0
  9
$SKPOLY
 70
     0
  9
$TDCREATE
 40
2456141.632677037
  9
$TDUCREATE
 40
2456141.257677037
  9
$TDUPDATE
 40
2456141.632677048
  9
$TDUUPDATE
 40
2456141.257677048
  9
$TDINDWG
 40
0.0000000116
  9
$TDUSRTIMER
 40
0.0000000116
  9
$USRTIMER
 70
     1
  9
$ANGBASE
 50
0.0
  9
$ANGDIR
 70
     0
  9
$PDMODE
 70
     0
  9
$PDSIZE
 40
0.0
  9
$PLINEWID
 40
0.0
  9
$SPLFRAME
 70
     0
  9
$SPLINETYPE
 70
     6
  9
$SPLINESEGS
 70
     8
  9
$HANDSEED
  5
2A3
  9
$SURFTAB1
 70
     6
  9
$SURFTAB2
 70
     6
  9
$SURFTYPE
 70
     6
  9
$SURFU
 70
     6
  9
$SURFV
 70
     6
  9
$UCSBASE
  2

  9
$UCSNAME
  2

  9
$UCSORG
 10
0.0
 20
0.0
 30
0.0
  9
$UCSXDIR
 10
1.0
 20
0.0
 30
0.0
  9
$UCSYDIR
 10
0.0
 20
1.0
 30
0.0
  9
$UCSORTHOREF
  2

  9
$UCSORTHOVIEW
 70
     0
  9
$UCSORGTOP
 10
0.0
 20
0.0
 30
0.0
  9
$UCSORGBOTTOM
 10
0.0
 20
0.0
 30
0.0
  9
$UCSORGLEFT
 10
0.0
 20
0.0
 30
0.0
  9
$UCSORGRIGHT
 10
0.0
 20
0.0
 30
0.0
  9
$UCSORGFRONT
 10
0.0
 20
0.0
 30
0.0
  9
$UCSORGBACK
 10
0.0
 20
0.0
 30
0.0
  9
$PUCSBASE
  2

  9
$PUCSNAME
  2

  9
$PUCSORG
 10
0.0
 20
0.0
 30
0.0
  9
$PUCSXDIR
 10
1.0
 20
0.0
 30
0.0
  9
$PUCSYDIR
 10
0.0
 20
1.0
 30
0.0
  9
$PUCSORTHOREF
  2

  9
$PUCSORTHOVIEW
 70
     0
  9
$PUCSORGTOP
 10
0.0
 20
0.0
 30
0.0
  9
$PUCSORGBOTTOM
 10
0.0
 20
0.0
 30
0.0
  9
$PUCSORGLEFT
 10
0.0
 20
0.0
 30
0.0
  9
$PUCSORGRIGHT
 10
0.0
 20
0.0
 30
0.0
  9
$PUCSORGFRONT
 10
0.0
 20
0.0
 30
0.0
  9
$PUCSORGBACK
 10
0.0
 20
0.0
 30
0.0
  9
$USERI1
 70
     0
  9
$USERI2
 70
     0
  9
$USERI3
 70
     0
  9
$USERI4
 70
     0
  9
$USERI5
 70
     0
  9
$USERR1
 40
13.2
  9
$USERR2
 40
0.0
  9
$USERR3
 40
0.0
  9
$USERR4
 40
0.0
  9
$USERR5
 40
0.0
  9
$WORLDVIEW
 70
     1
  9
$SHADEDGE
 70
     3
  9
$SHADEDIF
 70
    70
  9
$TILEMODE
 70
     1
  9
$MAXACTVP
 70
    64
  9
$PINSBASE
 10
0.0
 20
0.0
 30
0.0
  9
$PLIMCHECK
 70
     0
  9
$PEXTMIN
 10
1.00000000000000E+20
 20
1.00000000000000E+20
 30
1.00000000000000E+20
  9
$PEXTMAX
 10
-1.00000000000000E+20
 20
-1.00000000000000E+20
 30
-1.00000000000000E+20
  9
$PLIMMIN
 10
0.0
 20
0.0
  9
$PLIMMAX
 10
12.0
 20
9.0
  9
$UNITMODE
 70
     0
  9
$VISRETAIN
 70
     1
  9
$PLINEGEN
 70
     0
  9
$PSLTSCALE
 70
     1
  9
$TREEDEPTH
 70
  3020
  9
$CMLSTYLE
  2
Standard
  9
$CMLJUST
 70
     0
  9
$CMLSCALE
 40
1.0
  9
$PROXYGRAPHICS
 70
     1
  9
$MEASUREMENT
 70
     1
  9
$CELWEIGHT
370
    -1
  9
$ENDCAPS
280
     0
  9
$JOINSTYLE
280
     0
  9
$LWDISPLAY
290
     0
  9
$INSUNITS
 70
     1
  9
$HYPERLINKBASE
  1

  9
$STYLESHEET
  1

  9
$XEDIT
290
     1
  9
$CEPSNTYPE
380
     0
  9
$PSTYLEMODE
290
     0
  9
$FINGERPRINTGUID
  2
{FAEB1C30-E019-11D5-929B-00C0DF256EC4}
  9
$VERSIONGUID
  2
{FAEB1C32-E019-11D5-929B-00C0DF256EC4}
  9
$EXTNAMES
290
     1
  9
$PSVPSCALE
 40
0.0
  9
$OLESTARTUP
290
     0
  0
ENDSEC
  0
SECTION
  2
CLASSES
  0
CLASS
  1
ACDBDICTIONARYWDFLT
  2
AcDbDictionaryWithDefault
  3
ObjectDBX Classes
 90
        0
280
     0
281
     0
  0
CLASS
  1
TABLESTYLE
  2
AcDbTableStyle
  3
ObjectDBX Classes
 90
     2047
280
     0
281
     0
  0
CLASS
  1
DICTIONARYVAR
  2
AcDbDictionaryVar
  3
ObjectDBX Classes
 90
        0
280
     0
281
     0
  0
CLASS
  1

  2
exOdDbCircle
  3

 90
        0
280
     0
281
     1
  0
CLASS
  1

  2
exOdDbSpline
  3

 90
        0
280
     0
281
     1
  0
CLASS
  1
ACDBPLACEHOLDER
  2
AcDbPlaceHolder
  3
ObjectDBX Classes
 90
        0
280
     0
281
     0
  0
CLASS
  1
LAYOUT
  2
AcDbLayout
  3
ObjectDBX Classes
 90
        0
280
     0
281
     0
  0
ENDSEC
  0
SECTION
  2
TABLES
  0
TABLE
  2
VPORT
  5
8
330
0
100
AcDbSymbolTable
 70
     2
  0
VPORT
  5
29
330
8
100
AcDbSymbolTableRecord
100
AcDbViewportTableRecord
  2
*Active
 70
     0
 10
0.0
 20
0.0
 11
1.0
 21
1.0
 12
206.2416793430446
 22
297.0
 13
0.0
 23
0.0
 14
0.5
 24
0.5
 15
0.5
 25
0.5
 16
0.0
 26
0.0
 36
1.0
 17
0.0
 27
0.0
 37
0.0
 40
653.4000000000001
 41
1.60267857142857
 42
50.0
 43
0.0
 44
0.0
 50
0.0
 51
0.0
 71
     0
 72
   100
 73
     1
 74
     3
 75
     0
 76
     0
 77
     0
 78
     0
281
     0
 65
     1
110
0.0
120
0.0
130
0.0
111
1.0
121
0.0
131
0.0
112
0.0
122
1.0
132
0.0
 79
     0
146
0.0
  0
ENDTAB
  0
TABLE
  2
LTYPE
  5
5
330
0
100
AcDbSymbolTable
 70
     8
  0
LTYPE
  5
14
330
5
100
AcDbSymbolTableRecord
100
AcDbLinetypeTableRecord
  2
ByBlock
 70
     0
  3

 72
    65
 73
     0
 40
0.0
  0
LTYPE
  5
15
330
5
100
AcDbSymbolTableRecord
100
AcDbLinetypeTableRecord
  2
ByLayer
 70
     0
  3

 72
    65
 73
     0
 40
0.0
  0
LTYPE
  5
16
330
5
100
AcDbSymbolTableRecord
100
AcDbLinetypeTableRecord
  2
Continuous
 70
     0
  3
Solid line
 72
    65
 73
     0
 40
0.0
  0
LTYPE
  5
2E
330
5
100
AcDbSymbolTableRecord
100
AcDbLinetypeTableRecord
  2
DASHED
 70
     0
  3
Dashed
 72
    65
 73
     2
 40
15.0
 49
7.0
 74
     0
 49
-8.0
 74
     0
  0
LTYPE
  5
2F
330
5
100
AcDbSymbolTableRecord
100
AcDbLinetypeTableRecord
  2
DOTTED
 70
     0
  3
Dotted
 72
    65
 73
     2
 40
1.0
 49
0.0
 74
     0
 49
-1.0
 74
     0
  0
LTYPE
  5
30
330
5
100
AcDbSymbolTableRecord
100
AcDbLinetypeTableRecord
  2
DOT_CENTER
 70
     0
  3
Dot_Center
 72
    65
 73
     4
 40
14.0
 49
12.0
 74
     0
 49
-1.0
 74
     0
 49
0.0
 74
     0
 49
-1.0
 74
     0
  0
LTYPE
  5
31
330
5
100
AcDbSymbolTableRecord
100
AcDbLinetypeTableRecord
  2
LONG_DASHED
 70
     0
  3
Long_Dashed
 72
    65
 73
     2
 40
15.0
 49
10.0
 74
     0
 49
-5.0
 74
     0
  0
LTYPE
  5
32
330
5
100
AcDbSymbolTableRecord
100
AcDbLinetypeTableRecord
  2
DASH_CENTER
 70
     0
  3
Dash_Center
 72
    65
 73
     4
 40
14.0
 49
11.0
 74
     0
 49
-1.0
 74
     0
 49
1.0
 74
     0
 49
-1.0
 74
     0
  0
LTYPE
  5
33
330
5
100
AcDbSymbolTableRecord
100
AcDbLinetypeTableRecord
  2
PHANTOM
 70
     0
  3
Phantom
 72
    65
 73
     6
 40
13.0
 49
10.0
 74
     0
 49
-1.0
 74
     0
 49
0.0
 74
     0
 49
-1.0
 74
     0
 49
0.0
 74
     0
 49
-1.0
 74
     0
  0
LTYPE
  5
34
330
5
100
AcDbSymbolTableRecord
100
AcDbLinetypeTableRecord
  2
CENTER_DASH_DASH
 70
     0
  3
Center_Dash_Dash
 72
    65
 73
     6
 40
14.0
 49
9.0
 74
     0
 49
-1.0
 74
     0
 49
1.0
 74
     0
 49
-1.0
 74
     0
 49
1.0
 74
     0
 49
-1.0
 74
     0
  0
ENDTAB
  0
TABLE
  2
LAYER
  5
2
330
0
100
AcDbSymbolTable
 70
     2
  0
LAYER
  5
10
330
2
100
AcDbSymbolTableRecord
100
AcDbLayerTableRecord
  2
0
 70
     0
 62
     7
  6
Continuous
370
    -3
390
F
  0
LAYER
  5
35
330
2
100
AcDbSymbolTableRecord
100
AcDbLayerTableRecord
  2
1
 70
     0
 62
     7
  6
Continuous
370
    -3
390
F
  0
ENDTAB
  0
TABLE
  2
STYLE
  5
3
330
0
100
AcDbSymbolTable
 70
     3
  0
STYLE
  5
11
330
3
100
AcDbSymbolTableRecord
100
AcDbTextStyleTableRecord
  2
Standard
 70
     0
 40
0.0
 41
1.0
 50
0.0
 71
     0
 42
0.2
  3
txt
  4

  0
STYLE
  5
B5
330
3
100
AcDbSymbolTableRecord
100
AcDbTextStyleTableRecord
  2
CONVERTER_1
 70
     0
 40
0.0
 41
0.89
 50
0.0
 71
     0
 42
0.2
  3
msmincho.ttc
  4

1001
ACAD
1000
MS Mincho
1071
    32785
  0
STYLE
  5
24A
330
3
100
AcDbSymbolTableRecord
100
AcDbTextStyleTableRecord
  2
CONVERTER_2
 70
     0
 40
0.0
 41
0.9
 50
0.0
 71
     0
 42
0.2
  3
txt.shx
  4

  0
ENDTAB
  0
TABLE
  2
VIEW
  5
6
330
0
100
AcDbSymbolTable
 70
     0
  0
ENDTAB
  0
TABLE
  2
UCS
  5
7
330
0
100
AcDbSymbolTable
 70
     0
  0
ENDTAB
  0
TABLE
  2
APPID
  5
9
330
0
100
AcDbSymbolTable
 70
     1
  0
APPID
  5
12
330
9
100
AcDbSymbolTableRecord
100
AcDbRegAppTableRecord
  2
ACAD
 70
     0
  0
ENDTAB
  0
TABLE
  2
DIMSTYLE
  5
A
330
0
100
AcDbSymbolTable
 70
     8
100
AcDbDimStyleTable
  0
DIMSTYLE
105
27
330
A
100
AcDbSymbolTableRecord
100
AcDbDimStyleTableRecord
  2
Standard
 70
     0
340
11
  0
DIMSTYLE
105
25C
102
{ACAD_REACTORS
330
25D
102
}
330
A
100
AcDbSymbolTableRecord
100
AcDbDimStyleTableRecord
  2
ME10_DIM_0
 70
     0
 41
7.0
 42
0.0
 44
2.0
 73
     0
 74
     0
 77
     1
 78
     8
140
7.0
147
0.625
172
     1
173
     1
176
     2
177
     2
178
     7
271
     2
340
24A
  0
DIMSTYLE
105
267
102
{ACAD_REACTORS
330
268
102
}
330
A
100
AcDbSymbolTableRecord
100
AcDbDimStyleTableRecord
  2
ME10_DIM_1
 70
     0
 41
7.0
 42
0.0
 44
2.0
 73
     0
 74
     0
 77
     1
 78
     8
140
7.0
147
0.625
172
     1
173
     1
176
     2
177
     2
178
     7
271
     2
340
B5
  0
DIMSTYLE
105
274
102
{ACAD_REACTORS
330
275
102
}
330
A
100
AcDbSymbolTableRecord
100
AcDbDimStyleTableRecord
  2
ME10_DIM_2
 70
     0
 41
7.0
 42
0.0
 44
2.0
 73
     0
 74
     0
 77
     1
 78
     8
140
7.0
147
0.625
172
     1
173
     1
176
     2
177
     2
178
     7
271
     2
340
24A
  0
DIMSTYLE
105
280
102
{ACAD_REACTORS
330
281
102
}
330
A
100
AcDbSymbolTableRecord
100
AcDbDimStyleTableRecord
  2
ME10_DIM_3
 70
     0
 41
7.0
 42
0.0
 44
2.0
 73
     0
 74
     0
 77
     1
 78
     8
140
7.0
147
0.625
172
     1
173
     1
176
     2
177
     2
178
     7
271
     2
340
24A
  0
DIMSTYLE
105
28B
102
{ACAD_REACTORS
330
28C
102
}
330
A
100
AcDbSymbolTableRecord
100
AcDbDimStyleTableRecord
  2
ME10_DIM_4
 70
     0
 41
7.0
 42
0.0
 44
2.0
 73
     0
 74
     0
 77
     1
 78
     8
140
7.0
147
0.625
172
     1
173
     1
176
     2
177
     2
178
     7
271
     2
340
24A
  0
DIMSTYLE
105
296
102
{ACAD_REACTORS
330
297
102
}
330
A
100
AcDbSymbolTableRecord
100
AcDbDimStyleTableRecord
  2
ME10_DIM_5
 70
     0
 41
7.0
 42
0.0
 44
2.0
 73
     0
 74
     0
 77
     1
 78
     8
140
7.0
147
0.625
172
     1
173
     1
176
     2
177
     2
178
     7
271
     2
340
24A
  0
DIMSTYLE
105
2A1
102
{ACAD_REACTORS
330
2A2
102
}
330
A
100
AcDbSymbolTableRecord
100
AcDbDimStyleTableRecord
  2
ME10_DIM_6
 70
     0
 41
7.0
 42
0.0
 44
2.0
 73
     0
 74
     0
 77
     1
 78
     8
140
7.0
147
0.625
172
     1
173
     1
176
     2
177
     2
178
     7
271
     2
340
24A
  0
ENDTAB
  0
TABLE
  2
BLOCK_RECORD
  5
1
330
0
100
AcDbSymbolTable
 70
    21
  0
BLOCK_RECORD
  5
1F
330
1
100
AcDbSymbolTableRecord
100
AcDbBlockTableRecord
  2
*Model_Space
340
22
  0
BLOCK_RECORD
  5
1B
330
1
100
AcDbSymbolTableRecord
100
AcDbBlockTableRecord
  2
*Paper_Space
340
1E
  0
BLOCK_RECORD
  5
23
330
1
100
AcDbSymbolTableRecord
100
AcDbBlockTableRecord
  2
*Paper_Space0
340
26
  0
BLOCK_RECORD
  5
36
330
1
100
AcDbSymbolTableRecord
100
AcDbBlockTableRecord
  2
_J__A4
340
0
102
{BLKREFS
331
64
102
}
  0
BLOCK_RECORD
  5
39
330
1
100
AcDbSymbolTableRecord
100
AcDbBlockTableRecord
  2
B41A-24-1__1
340
0
102
{BLKREFS
331
40
102
}
  0
BLOCK_RECORD
  5
3C
330
1
100
AcDbSymbolTableRecord
100
AcDbBlockTableRecord
  2
B41A-24-1__2
340
0
102
{BLKREFS
331
41
102
}
  0
BLOCK_RECORD
  5
3F
330
1
100
AcDbSymbolTableRecord
100
AcDbBlockTableRecord
  2
B41A-24-13__3
340
0
102
{BLKREFS
331
65
102
}
  0
BLOCK_RECORD
  5
44
330
1
100
AcDbSymbolTableRecord
100
AcDbBlockTableRecord
  2
B41A-24-1__4
340
0
102
{BLKREFS
331
48
102
}
  0
BLOCK_RECORD
  5
47
330
1
100
AcDbSymbolTableRecord
100
AcDbBlockTableRecord
  2
B41A-24-13__5
340
0
102
{BLKREFS
331
66
102
}
  0
BLOCK_RECORD
  5
4B
330
1
100
AcDbSymbolTableRecord
100
AcDbBlockTableRecord
  2
37-1-13
340
0
102
{BLKREFS
331
58
102
}
  0
BLOCK_RECORD
  5
4E
330
1
100
AcDbSymbolTableRecord
100
AcDbBlockTableRecord
  2
36-1A-13-M11
340
0
102
{BLKREFS
331
59
102
}
  0
BLOCK_RECORD
  5
51
330
1
100
AcDbSymbolTableRecord
100
AcDbBlockTableRecord
  2
42-1
340
0
102
{BLKREFS
331
5A
102
}
  0
BLOCK_RECORD
  5
54
330
1
100
AcDbSymbolTableRecord
100
AcDbBlockTableRecord
  2
21-1A
340
0
102
{BLKREFS
331
5B
102
}
  0
BLOCK_RECORD
  5
57
330
1
100
AcDbSymbolTableRecord
100
AcDbBlockTableRecord
  2
R10A-13
340
0
102
{BLKREFS
331
67
102
}
  0
BLOCK_RECORD
  5
5E
330
1
100
AcDbSymbolTableRecord
100
AcDbBlockTableRecord
  2
P82A-15
340
0
102
{BLKREFS
331
68
102
}
  0
BLOCK_RECORD
  5
61
330
1
100
AcDbSymbolTableRecord
100
AcDbBlockTableRecord
  2
B411-0-13
340
0
102
{BLKREFS
331
69
102
}
  0
BLOCK_RECORD
  5
253
330
1
100
AcDbSymbolTableRecord
100
AcDbBlockTableRecord
  2
*D014
340
0
  0
BLOCK_RECORD
  5
25E
330
1
100
AcDbSymbolTableRecord
100
AcDbBlockTableRecord
  2
*D115
340
0
  0
BLOCK_RECORD
  5
269
330
1
100
AcDbSymbolTableRecord
100
AcDbBlockTableRecord
  2
*D216
340
0
  0
BLOCK_RECORD
  5
276
330
1
100
AcDbSymbolTableRecord
100
AcDbBlockTableRecord
  2
*D317
340
0
  0
BLOCK_RECORD
  5
282
330
1
100
AcDbSymbolTableRecord
100
AcDbBlockTableRecord
  2
*D418
340
0
  0
BLOCK_RECORD
  5
28D
330
1
100
AcDbSymbolTableRecord
100
AcDbBlockTableRecord
  2
*D519
340
0
  0
BLOCK_RECORD
  5
298
330
1
100
AcDbSymbolTableRecord
100
AcDbBlockTableRecord
  2
*D620
340
0
  0
ENDTAB
  0
ENDSEC
  0
SECTION
  2
BLOCKS
  0
BLOCK
  5
20
330
1F
100
AcDbEntity
  8
0
100
AcDbBlockBegin
  2
*Model_Space
 70
     0
 71
     0
 10
0.0
 20
0.0
 30
0.0
  3
*Model_Space
  1

  0
ENDBLK
  5
21
330
1F
100
AcDbEntity
  8
0
100
AcDbBlockEnd
  0
BLOCK
  5
1C
330
1B
100
AcDbEntity
 67
     1
  8
0
100
AcDbBlockBegin
  2
*Paper_Space
 70
     0
 71
     0
 10
0.0
 20
0.0
 30
0.0
  3
*Paper_Space
  1

  0
ENDBLK
  5
1D
330
1B
100
AcDbEntity
 67
     1
  8
0
100
AcDbBlockEnd
  0
BLOCK
  5
24
330
23
100
AcDbEntity
  8
0
100
AcDbBlockBegin
  2
*Paper_Space0
 70
     0
 71
     0
 10
0.0
 20
0.0
 30
0.0
  3
*Paper_Space0
  1

  0
ENDBLK
  5
25
330
23
100
AcDbEntity
  8
0
100
AcDbBlockEnd
  0
BLOCK
  5
37
330
36
100
AcDbEntity
  8
0
100
AcDbBlockBegin
  2
_J__A4
 70
     0
 71
     0
 10
0.0
 20
0.0
 30
0.0
  3
_J__A4
  1

  0
POINT
  5
6A
330
36
100
AcDbEntity
  8
1
 62
     4
100
AcDbPoint
 10
34.0
 20
34.00000000000001
 30
0.0
  0
POINT
  5
6B
330
36
100
AcDbEntity
  8
1
 62
     4
100
AcDbPoint
 10
57.0
 20
12.25
 30
0.0
  0
POINT
  5
6C
330
36
100
AcDbEntity
  8
1
 62
     4
100
AcDbPoint
 10
57.0
 20
20.75000000000001
 30
0.0
  0
POINT
  5
6D
330
36
100
AcDbEntity
  8
1
 62
     4
100
AcDbPoint
 10
57.0
 20
24.75000000000001
 30
0.0
  0
POINT
  5
6E
330
36
100
AcDbEntity
  8
1
 62
     4
100
AcDbPoint
 10
57.0
 20
16.25
 30
0.0
  0
POINT
  5
6F
330
36
100
AcDbEntity
  8
1
 62
     4
100
AcDbPoint
 10
157.5
 20
19.00000000000001
 30
0.0
  0
POINT
  5
70
330
36
100
AcDbEntity
  8
1
 62
     4
100
AcDbPoint
 10
47.5
 20
282.0000000000003
 30
0.0
  0
POINT
  5
71
330
36
100
AcDbEntity
  8
1
 62
     4
100
AcDbPoint
 10
57.0
 20
22.75000000000001
 30
0.0
  0
POINT
  5
72
330
36
100
AcDbEntity
  8
1
 62
     4
100
AcDbPoint
 10
57.0
 20
14.25
 30
0.0
  0
POINT
  5
73
330
36
100
AcDbEntity
  8
1
 62
     4
100
AcDbPoint
 10
157.5
 20
12.5
 30
0.0
  0
POINT
  5
74
330
36
100
AcDbEntity
  8
1
 62
     4
100
AcDbPoint
 10
163.25
 20
12.5
 30
0.0
  0
POINT
  5
75
330
36
100
AcDbEntity
  8
1
 62
     4
100
AcDbPoint
 10
151.75
 20
12.5
 30
0.0
  0
POINT
  5
76
330
36
100
AcDbEntity
  8
1
 62
     4
100
AcDbPoint
 10
134.75
 20
12.5
 30
0.0
  0
POINT
  5
77
330
36
100
AcDbEntity
  8
1
 62
     4
100
AcDbPoint
 10
146.25
 20
12.5
 30
0.0
  0
POINT
  5
78
330
36
100
AcDbEntity
  8
1
 62
     4
100
AcDbPoint
 10
140.5
 20
12.5
 30
0.0
  0
POINT
  5
79
330
36
100
AcDbEntity
  8
1
 62
     4
100
AcDbPoint
 10
140.5
 20
19.00000000000001
 30
0.0
  0
POINT
  5
7A
330
36
100
AcDbEntity
  8
1
 62
     4
100
AcDbPoint
 10
117.75
 20
12.5
 30
0.0
  0
POINT
  5
7B
330
36
100
AcDbEntity
  8
1
 62
     4
100
AcDbPoint
 10
129.25
 20
12.5
 30
0.0
  0
POINT
  5
7C
330
36
100
AcDbEntity
  8
1
 62
     4
100
AcDbPoint
 10
123.5
 20
12.5
 30
0.0
  0
POINT
  5
7D
330
36
100
AcDbEntity
  8
1
 62
     4
100
AcDbPoint
 10
123.5
 20
19.00000000000001
 30
0.0
  0
POINT
  5
7E
330
36
100
AcDbEntity
  8
1
 62
     4
100
AcDbPoint
 10
100.75
 20
12.5
 30
0.0
  0
POINT
  5
7F
330
36
100
AcDbEntity
  8
1
 62
     4
100
AcDbPoint
 10
112.25
 20
12.5
 30
0.0
  0
POINT
  5
80
330
36
100
AcDbEntity
  8
1
 62
     4
100
AcDbPoint
 10
106.5
 20
12.5
 30
0.0
  0
POINT
  5
81
330
36
100
AcDbEntity
  8
1
 62
     4
100
AcDbPoint
 10
106.5
 20
19.00000000000001
 30
0.0
  0
POINT
  5
82
330
36
100
AcDbEntity
  8
1
 62
     4
100
AcDbPoint
 10
85.25
 20
17.0
 30
0.0
  0
POINT
  5
83
330
36
100
AcDbEntity
  8
1
 62
     4
100
AcDbPoint
 10
93.75
 20
17.0
 30
0.0
  0
LINE
  5
84
330
36
100
AcDbEntity
  8
1
  6
Continuous
 62
     2
100
AcDbLine
 10
81.0
 20
27.00000000000001
 30
0.0
 11
81.0
 21
10.0
 31
0.0
  0
LINE
  5
85
330
36
100
AcDbEntity
  8
1
  6
DOT_CENTER
 62
     2
100
AcDbLine
 10
187.0
 20
26.50000000000001
 30
0.0
 11
187.0
 21
20.50000000000001
 31
0.0
  0
LINE
  5
86
330
36
100
AcDbEntity
  8
1
  6
DOT_CENTER
 62
     2
100
AcDbLine
 10
184.0
 20
23.50000000000001
 30
0.0
 11
197.0
 21
23.50000000000001
 31
0.0
  0
LINE
  5
87
330
36
100
AcDbEntity
  8
1
  6
Continuous
 62
     7
100
AcDbLine
 10
196.0
 20
21.50000000000001
 30
0.0
 11
191.0
 21
22.30000000000001
 31
0.0
  0
LINE
  5
88
330
36
100
AcDbEntity
  8
1
  6
Continuous
 62
     7
100
AcDbLine
 10
196.0
 20
25.50000000000001
 30
0.0
 11
196.0
 21
21.50000000000001
 31
0.0
  0
LINE
  5
89
330
36
100
AcDbEntity
  8
1
  6
Continuous
 62
     7
100
AcDbLine
 10
191.0
 20
24.70000000000001
 30
0.0
 11
196.0
 21
25.50000000000001
 31
0.0
  0
LINE
  5
8A
330
36
100
AcDbEntity
  8
1
  6
Continuous
 62
     7
100
AcDbLine
 10
191.0
 20
24.70000000000001
 30
0.0
 11
191.0
 21
22.30000000000001
 31
0.0
  0
LINE
  5
8B
330
36
100
AcDbEntity
  8
1
  6
Continuous
 62
     2
100
AcDbLine
 10
33.0
 20
27.0
 30
0.0
 11
33.0
 21
10.0
 31
0.0
  0
LINE
  5
8C
330
36
100
AcDbEntity
  8
1
  6
Continuous
 62
     2
100
AcDbLine
 10
25.0
 20
18.50000000000001
 30
0.0
 11
81.0
 21
18.50000000000001
 31
0.0
  0
LINE
  5
8D
330
36
100
AcDbEntity
  8
1
  6
Continuous
 62
     7
100
AcDbLine
 10
200.0
 20
287.0000000000003
 30
0.0
 11
105.0
 21
287.0000000000003
 31
0.0
  0
LINE
  5
8E
330
36
100
AcDbEntity
  8
1
  6
Continuous
 62
     7
100
AcDbLine
 10
200.0
 20
10.0
 30
0.0
 11
200.0
 21
148.5
 31
0.0
  0
LINE
  5
8F
330
36
100
AcDbEntity
  8
1
  6
Continuous
 62
     7
100
AcDbLine
 10
25.0
 20
10.0
 30
0.0
 11
105.0
 21
10.0
 31
0.0
  0
LINE
  5
90
330
36
100
AcDbEntity
  8
1
  6
PHANTOM
 62
     4
100
AcDbLine
 10
0.0
 20
297.0
 30
0.0
 11
0.0
 21
0.0
 31
0.0
  0
LINE
  5
91
330
36
100
AcDbEntity
  8
1
  6
PHANTOM
 62
     4
100
AcDbLine
 10
210.0
 20
297.0
 30
0.0
 11
0.0
 21
297.0
 31
0.0
  0
LINE
  5
92
330
36
100
AcDbEntity
  8
1
  6
PHANTOM
 62
     4
100
AcDbLine
 10
210.0
 20
0.0
 30
0.0
 11
210.0
 21
297.0
 31
0.0
  0
LINE
  5
93
330
36
100
AcDbEntity
  8
1
  6
PHANTOM
 62
     4
100
AcDbLine
 10
0.0
 20
0.0
 30
0.0
 11
210.0
 21
0.0
 31
0.0
  0
LINE
  5
94
330
36
100
AcDbEntity
  8
1
  6
Continuous
 62
     7
100
AcDbLine
 10
25.0
 20
41.0
 30
0.0
 11
200.0
 21
41.0
 31
0.0
  0
LINE
  5
95
330
36
100
AcDbEntity
  8
1
  6
Continuous
 62
     7
100
AcDbLine
 10
200.0
 20
27.00000000000001
 30
0.0
 11
25.0
 21
27.00000000000001
 31
0.0
  0
LINE
  5
96
330
36
100
AcDbEntity
  8
1
  6
Continuous
 62
     2
100
AcDbLine
 10
33.0
 20
41.00000000000001
 30
0.0
 11
33.0
 21
27.0
 31
0.0
  0
LINE
  5
97
330
36
100
AcDbEntity
  8
1
  6
Continuous
 62
     2
100
AcDbLine
 10
55.0
 20
287.0000000000003
 30
0.0
 11
55.0
 21
277.0000000000003
 31
0.0
  0
LINE
  5
98
330
36
100
AcDbEntity
  8
1
  6
Continuous
 62
     2
100
AcDbLine
 10
40.0
 20
287.0000000000003
 30
0.0
 11
40.0
 21
277.0000000000003
 31
0.0
  0
LINE
  5
99
330
36
100
AcDbEntity
  8
1
  6
Continuous
 62
     7
100
AcDbLine
 10
25.0
 20
10.0
 30
0.0
 11
25.0
 21
148.5
 31
0.0
  0
LINE
  5
9A
330
36
100
AcDbEntity
  8
1
  6
Continuous
 62
     2
100
AcDbLine
 10
55.0
 20
277.0000000000003
 30
0.0
 11
25.0
 21
277.0000000000003
 31
0.0
  0
LINE
  5
9B
330
36
100
AcDbEntity
  8
1
  6
Continuous
 62
     2
100
AcDbLine
 10
166.0
 20
27.00000000000001
 30
0.0
 11
166.0
 21
10.0
 31
0.0
  0
LINE
  5
9C
330
36
100
AcDbEntity
  8
1
  6
Continuous
 62
     2
100
AcDbLine
 10
132.0
 20
27.00000000000001
 30
0.0
 11
132.0
 21
9.99999999999999
 31
0.0
  0
LINE
  5
9D
330
36
100
AcDbEntity
  8
1
  6
Continuous
 62
     2
100
AcDbLine
 10
149.0
 20
27.00000000000001
 30
0.0
 11
149.0
 21
10.0
 31
0.0
  0
LINE
  5
9E
330
36
100
AcDbEntity
  8
1
  6
Continuous
 62
     2
100
AcDbLine
 10
115.0
 20
27.00000000000001
 30
0.0
 11
115.0
 21
9.99999999999999
 31
0.0
  0
LINE
  5
9F
330
36
100
AcDbEntity
  8
1
  6
Continuous
 62
     2
100
AcDbLine
 10
98.0
 20
27.00000000000001
 30
0.0
 11
98.0
 21
9.99999999999999
 31
0.0
  0
LINE
  5
A0
330
36
100
AcDbEntity
  8
1
  6
Continuous
 62
     2
100
AcDbLine
 10
166.0
 20
20.00000000000001
 30
0.0
 11
200.0
 21
20.00000000000001
 31
0.0
  0
LINE
  5
A1
330
36
100
AcDbEntity
  8
1
  6
Continuous
 62
     2
100
AcDbLine
 10
105.0
 20
287.0000000000003
 30
0.0
 11
105.0
 21
292.0000000000003
 31
0.0
  0
LINE
  5
A2
330
36
100
AcDbEntity
  8
1
  6
Continuous
 62
     7
100
AcDbLine
 10
105.0
 20
287.0000000000003
 30
0.0
 11
25.0
 21
287.0000000000003
 31
0.0
  0
LINE
  5
A3
330
36
100
AcDbEntity
  8
1
  6
Continuous
 62
     2
100
AcDbLine
 10
25.0
 20
148.5
 30
0.0
 11
20.0
 21
148.5
 31
0.0
  0
LINE
  5
A4
330
36
100
AcDbEntity
  8
1
  6
Continuous
 62
     7
100
AcDbLine
 10
25.0
 20
148.5
 30
0.0
 11
25.0
 21
287.0000000000003
 31
0.0
  0
LINE
  5
A5
330
36
100
AcDbEntity
  8
1
  6
Continuous
 62
     2
100
AcDbLine
 10
200.0
 20
148.5
 30
0.0
 11
205.0
 21
148.5
 31
0.0
  0
LINE
  5
A6
330
36
100
AcDbEntity
  8
1
  6
Continuous
 62
     7
100
AcDbLine
 10
200.0
 20
148.5
 30
0.0
 11
200.0
 21
287.0000000000003
 31
0.0
  0
LINE
  5
A7
330
36
100
AcDbEntity
  8
1
  6
Continuous
 62
     2
100
AcDbLine
 10
105.0
 20
10.0
 30
0.0
 11
105.0
 21
5.0
 31
0.0
  0
LINE
  5
A8
330
36
100
AcDbEntity
  8
1
  6
Continuous
 62
     7
100
AcDbLine
 10
105.0
 20
10.0
 30
0.0
 11
200.0
 21
10.0
 31
0.0
  0
CIRCLE
  5
A9
330
36
100
AcDbEntity
  8
1
  6
DOT_CENTER
 62
     7
100
AcDbCircle
 10
89.5
 20
18.0
 30
0.0
 40
0.1000000000000227
  0
CIRCLE
  5
AA
330
36
100
AcDbEntity
  8
1
  6
DOT_CENTER
 62
     7
100
AcDbCircle
 10
89.5
 20
16.0
 30
0.0
 40
0.1000000000000227
  0
CIRCLE
  5
AB
330
36
100
AcDbEntity
  8
1
  6
Continuous
 62
     7
100
AcDbCircle
 10
187.0
 20
23.50000000000001
 30
0.0
 40
2.0
  0
CIRCLE
  5
AC
330
36
100
AcDbEntity
  8
1
  6
Continuous
 62
     7
100
AcDbCircle
 10
187.0
 20
23.50000000000001
 30
0.0
 40
1.200000000000102
  0
CIRCLE
  5
AD
330
36
100
AcDbEntity
  8
1
  6
Continuous
 62
     7
100
AcDbCircle
 10
154.5
 20
12.5
 30
0.0
 40
0.3000000000000114
  0
CIRCLE
  5
AE
330
36
100
AcDbEntity
  8
1
  6
Continuous
 62
     7
100
AcDbCircle
 10
160.5
 20
12.5
 30
0.0
 40
0.3000000000000114
  0
CIRCLE
  5
AF
330
36
100
AcDbEntity
  8
1
  6
Continuous
 62
     7
100
AcDbCircle
 10
143.5
 20
12.5
 30
0.0
 40
0.3000000000000114
  0
CIRCLE
  5
B0
330
36
100
AcDbEntity
  8
1
  6
Continuous
 62
     7
100
AcDbCircle
 10
137.5
 20
12.5
 30
0.0
 40
0.3000000000000114
  0
CIRCLE
  5
B1
330
36
100
AcDbEntity
  8
1
  6
Continuous
 62
     7
100
AcDbCircle
 10
126.5
 20
12.5
 30
0.0
 40
0.2999999999999972
  0
CIRCLE
  5
B2
330
36
100
AcDbEntity
  8
1
  6
Continuous
 62
     7
100
AcDbCircle
 10
120.5
 20
12.5
 30
0.0
 40
0.2999999999999972
  0
CIRCLE
  5
B3
330
36
100
AcDbEntity
  8
1
  6
Continuous
 62
     7
100
AcDbCircle
 10
109.5
 20
12.5
 30
0.0
 40
0.2999999999999972
  0
CIRCLE
  5
B4
330
36
100
AcDbEntity
  8
1
  6
Continuous
 62
     7
100
AcDbCircle
 10
103.5
 20
12.5
 30
0.0
 40
0.2999999999999972
  0
MTEXT
  5
B6
330
36
100
AcDbEntity
  8
1
 62
   250
100
AcDbMText
 10
25.0
 20
5.0
 30
0.0
 40
3.5
 41
0.0
 71
     4
 72
     1
  1
備考欄の文字列 原点位置=4
  7
CONVERTER_1
 73
     1
 44
0.7202881152461
  0
MTEXT
  5
B7
330
36
100
AcDbEntity
  8
1
 62
     2
100
AcDbMText
 10
89.5
 20
24.00000000000001
 30
0.0
 40
3.5
 41
0.0
 71
     5
 72
     1
  1
尺度
  7
CONVERTER_1
 73
     1
 44
0.7202881152461
  0
MTEXT
  5
B8
330
36
100
AcDbEntity
  8
1
 62
     2
100
AcDbMText
 10
135.5
 20
25.00000000000001
 30
0.0
 40
3.0
 41
0.0
 71
     5
 72
     1
  1
製図
  7
CONVERTER_1
 73
     1
 44
0.78031212484994
  0
MTEXT
  5
B9
330
36
100
AcDbEntity
  8
1
 62
     2
100
AcDbMText
 10
152.5
 20
25.00000000000001
 30
0.0
 40
3.0
 41
0.0
 71
     5
 72
     1
  1
設計
  7
CONVERTER_1
 73
     1
 44
0.78031212484994
  0
MTEXT
  5
BA
330
36
100
AcDbEntity
  8
1
 62
     2
100
AcDbMText
 10
118.5
 20
25.00000000000001
 30
0.0
 40
3.0
 41
0.0
 71
     5
 72
     1
  1
検図
  7
CONVERTER_1
 73
     1
 44
0.78031212484994
  0
MTEXT
  5
BB
330
36
100
AcDbEntity
  8
1
 62
     2
100
AcDbMText
 10
175.0
 20
23.50000000000001
 30
0.0
 40
3.5
 41
0.0
 71
     5
 72
     1
  1
第三角法
  7
CONVERTER_1
 73
     1
 44
0.7202881152461
  0
MTEXT
  5
BC
330
36
100
AcDbEntity
  8
1
 62
     2
100
AcDbMText
 10
101.5
 20
25.00000000000001
 30
0.0
 40
3.0
 41
0.0
 71
     5
 72
     1
  1
承認
  7
CONVERTER_1
 73
     1
 44
0.78031212484994
  0
MTEXT
  5
BD
330
36
100
AcDbEntity
  8
1
 62
     2
100
AcDbMText
 10
29.0
 20
14.25
 30
0.0
 40
3.5
 41
0.0
 71
     5
 72
     1
  1
品番
  7
CONVERTER_1
 73
     1
 44
0.96038415366146
  0
MTEXT
  5
BE
330
36
100
AcDbEntity
  8
1
 62
     2
100
AcDbMText
 10
29.0
 20
22.75
 30
0.0
 40
3.5
 41
0.0
 71
     5
 72
     1
  1
品名
  7
CONVERTER_1
 73
     1
 44
0.96038415366146
  0
MTEXT
  5
BF
330
36
100
AcDbEntity
  8
1
 62
     2
100
AcDbMText
 10
29.0
 20
34.00000000000001
 30
0.0
 40
3.5
 41
0.0
 71
     5
 72
     1
  1
備考
  7
CONVERTER_1
 73
     1
 44
0.60024009603842
  0
MTEXT
  5
C0
330
36
100
AcDbEntity
  8
1
 62
     2
100
AcDbMText
 10
32.5
 20
282.0000000000003
 30
0.0
 40
5.0
 41
0.0
 71
     5
 72
     1
  1
図番
  7
CONVERTER_1
 73
     1
 44
0.60024009603842
  0
MTEXT
  5
C1
330
36
100
AcDbEntity
  8
1
 62
     7
100
AcDbMText
 10
171.5
 20
15.0
 30
0.0
 40
2.5
 41
0.0
 71
     5
 72
     1
  1
株式会社
  7
CONVERTER_1
 73
     1
 44
1.32052821128451
  0
MTEXT
  5
C2
330
36
100
AcDbEntity
  8
1
 62
     7
100
AcDbMText
 10
188.5
 20
15.0
 30
0.0
 40
3.0
 41
0.0
 71
     5
 72
     1
  1
三栄水栓製作所
  7
CONVERTER_1
 73
     1
 44
1.32052821128451
  0
ENDBLK
  5
38
330
36
100
AcDbEntity
  8
0
100
AcDbBlockEnd
  0
BLOCK
  5
3A
330
39
100
AcDbEntity
  8
0
100
AcDbBlockBegin
  2
B41A-24-1__1
 70
     0
 71
     0
 10
450.8526093743659
 20
217.9038074808955
 30
0.0
  3
B41A-24-1__1
  1

  0
LINE
  5
C3
330
39
100
AcDbEntity
  8
0
  6
Continuous
 62
     7
100
AcDbLine
 10
117.745568575091
 20
446.6088000689561
 30
0.0
 11
117.7455685750909
 21
435.9996984190533
 31
0.0
  0
LINE
  5
C4
330
39
100
AcDbEntity
  8
0
  6
Continuous
 62
     7
100
AcDbLine
 10
129.7455685750907
 20
446.6088000689561
 30
0.0
 11
129.7455685750908
 21
437.4474448802588
 31
0.0
  0
LINE
  5
C5
330
39
100
AcDbEntity
  8
0
  6
Continuous
 62
     7
100
AcDbLine
 10
117.7455685750909
 20
435.9996984190533
 30
0.0
 11
117.745568575091
 21
423.6088000689561
 31
0.0
  0
LINE
  5
C6
330
39
100
AcDbEntity
  8
0
  6
Continuous
 62
     7
100
AcDbLine
 10
129.7455685750908
 20
437.4474448802588
 30
0.0
 11
129.7455685750907
 21
425.149507925435
 31
0.0
  0
LINE
  5
C7
330
39
100
AcDbEntity
  8
0
  6
Continuous
 62
     7
100
AcDbLine
 10
129.7455685750907
 20
425.149507925435
 30
0.0
 11
129.7455685750907
 21
423.6088000689561
 31
0.0
  0
LINE
  5
C8
330
39
100
AcDbEntity
  8
0
  6
Continuous
 62
     7
100
AcDbLine
 10
117.7455685750911
 20
247.6075500689564
 30
0.0
 11
117.7455685750911
 21
270.6075500689565
 31
0.0
  0
LINE
  5
C9
330
39
100
AcDbEntity
  8
1
  6
Continuous
 62
     7
100
AcDbLine
 10
117.7455685750911
 20
247.6075500689564
 30
0.0
 11
129.7455685750908
 21
247.6075500689564
 31
0.0
  0
LINE
  5
CA
330
39
100
AcDbEntity
  8
0
  6
Continuous
 62
     7
100
AcDbLine
 10
129.7455685750908
 20
247.6075500689564
 30
0.0
 11
129.7455685750909
 21
264.8575500689565
 31
0.0
  0
LINE
  5
CB
330
39
100
AcDbEntity
  8
1
  6
Continuous
 62
     7
100
AcDbLine
 10
125.67885369738
 20
270.6075500689565
 30
0.0
 11
117.7455685750911
 21
270.6075500689565
 31
0.0
  0
ARC
  5
CC
330
39
100
AcDbEntity
  8
0
  6
Continuous
 62
     7
100
AcDbCircle
 10
123.7455685750907
 20
432.8338000689561
 30
0.0
 40
15.02499999999997
100
AcDbArc
 50
66.46342213595874
 51
113.5365778640403
  0
ARC
  5
CD
330
39
100
AcDbEntity
  8
0
  6
Continuous
 62
     7
100
AcDbCircle
 10
123.7455685750907
 20
437.3838000689561
 30
0.0
 40
15.02499999999986
100
AcDbArc
 50
-113.5365778640403
 51
-66.46342213595874
  0
SPLINE
  5
CE
330
39
100
AcDbEntity
  8
1
  6
Continuous
 62
     7
100
AcDbSpline
210
0.0
220
0.0
230
1.0
 70
    11
 71
     3
 72
    75
 73
    71
 74
    69
 42
0.0000000001
 43
0.0000000001
 44
0.00000001
 40
0.0
 40
0.0
 40
0.0
 40
0.0
 40
0.564072652223276
 40
1.130799280038547
 40
1.387286178810357
 40
1.64327461542094
 40
2.002014473880155
 40
2.361110864212609
 40
2.768203551063062
 40
3.175228077261143
 40
3.625301651420126
 40
4.075408784587302
 40
4.560205256269742
 40
5.04500348613192
 40
5.554033721553309
 40
6.063068958035678
 40
6.584538674819837
 40
7.10600936003023
 40
7.627480126060112
 40
8.148949734187735
 40
8.657984445072902
 40
9.167015289059892
 40
9.651815930560446
 40
10.13660968699069
 40
10.58670666129699
 40
11.03679152082195
 40
11.44385627423022
 40
11.85090457857986
 40
12.20984944295803
 40
12.5687554651892
 40
12.87932948757737
 40
13.18985187701054
 40
13.45915017938617
 40
13.72816751340417
 40
13.97265203020936
 40
14.21682625442083
 40
14.4610004786327
 40
14.70548499543705
 40
14.97450232945115
 40
15.24380063183157
 40
15.55432302128859
 40
15.86489704365113
 40
16.22380306575717
 40
16.58274793026446
 40
16.98979623521172
 40
17.39686098801359
 40
17.84694584486964
 40
18.29704282185834
 40
18.78183658955561
 40
19.26663721979335
 40
19.77566801847293
 40
20.28470277448057
 40
20.80617255687602
 40
21.32764314990235
 40
21.84911319290801
 40
22.37058354507305
 40
22.88342735712925
 40
23.39626535885557
 40
23.87725779755994
 40
24.35824332513468
 40
24.8083397919403
 40
25.25842485617465
 40
25.6654874659971
 40
26.07253924108003
 40
26.43149986358952
 40
26.79038497179364
 40
27.10087864871955
 40
27.41150068954712
 40
27.92350783074723
 40
28.4347688452757
 40
28.4347688452757
 40
28.4347688452757
 40
28.4347688452757
 10
129.7455685750907
 20
445.0680922124772
 30
0.0
 10
129.7196454463002
 20
445.256934092634
 30
0.0
 10
129.6676772197657
 20
445.6355063586018
 30
0.0
 10
129.3885503027642
 20
446.0226218558555
 30
0.0
 10
129.1390583715032
 20
446.28054284636
 30
0.0
 10
128.9174145132917
 20
446.4691746858268
 30
0.0
 10
128.6529093945646
 20
446.6579572404378
 30
0.0
 10
128.3300241889916
 20
446.8493821307727
 30
0.0
 10
127.9795807054705
 20
447.0237085977235
 30
0.0
 10
127.590377270133
 20
447.1859103217047
 30
0.0
 10
127.1788928257646
 20
447.3299787513076
 30
0.0
 10
126.7353658174845
 20
447.4587860262653
 30
0.0
 10
126.2747816578455
 20
447.5682945737742
 30
0.0
 10
125.7903130771563
 20
447.6598036428275
 30
0.0
 10
125.2943235572952
 20
447.7312769827494
 30
0.0
 10
124.7836060107638
 20
447.7829199290592
 30
0.0
 10
124.2670745455511
 20
447.8140380565525
 30
0.0
 10
123.7455685440047
 20
447.8243786897368
 30
0.0
 10
123.2240626035464
 20
447.8140371325771
 30
0.0
 10
122.7075313304636
 20
447.7829194874504
 30
0.0
 10
122.1968134946161
 20
447.731279616803
 30
0.0
 10
121.7008231376399
 20
447.6598052260937
 30
0.0
 10
121.2163563770272
 20
447.5682858270625
 30
0.0
 10
120.7557753400407
 20
447.4587811452782
 30
0.0
 10
120.3122398240482
 20
447.3300067001471
 30
0.0
 10
119.9007428247664
 20
447.1859235887523
 30
0.0
 10
119.5115801454943
 20
447.0236246844797
 30
0.0
 10
119.161162705535
 20
446.8493542309141
 30
0.0
 10
118.8381780285632
 20
446.6581877229196
 30
0.0
 10
118.558741445886
 20
446.4587249918264
 30
0.0
 10
118.3118530089453
 20
446.2440066733241
 30
0.0
 10
118.1110441032795
 20
446.0243360350208
 30
0.0
 10
117.9485277741176
 20
445.7917097425412
 30
0.0
 10
117.8325945332642
 20
445.5564958337809
 30
0.0
 10
117.7621050768453
 20
445.3126679522376
 30
0.0
 10
117.737305574456
 20
445.0680922124768
 30
0.0
 10
117.7621050768477
 20
444.8235164727172
 30
0.0
 10
117.8325945332646
 20
444.5796885911748
 30
0.0
 10
117.948527774111
 20
444.3444746824111
 30
0.0
 10
118.1110441032813
 20
444.111848389926
 30
0.0
 10
118.3118530089671
 20
443.8921777516397
 30
0.0
 10
118.5587414458656
 20
443.6774594331574
 30
0.0
 10
118.8381780284888
 20
443.4779967020007
 30
0.0
 10
119.1611627056603
 20
443.2868301939381
 30
0.0
 10
119.5115801457588
 20
443.112559740564
 30
0.0
 10
119.9007428241421
 20
442.9502608365123
 30
0.0
 10
120.3122398230748
 20
442.8061777247004
 30
0.0
 10
120.7557753428045
 20
442.6774032789084
 30
0.0
 10
121.2163563807319
 20
442.5678985972451
 30
0.0
 10
121.7008231262666
 20
442.4763791999495
 30
0.0
 10
122.1968134805536
 20
442.4049048148324
 30
0.0
 10
122.7075313730283
 20
442.3532649405338
 30
0.0
 10
123.2240626621345
 20
442.322147252099
 30
0.0
 10
123.7455683776043
 20
442.3118056962251
 30
0.0
 10
124.2670743678127
 20
442.3221465753904
 30
0.0
 10
124.7848732063768
 20
442.3533410349933
 30
0.0
 10
125.2981121655114
 20
442.4053154751447
 30
0.0
 10
125.7953272262756
 20
442.4772143210346
 30
0.0
 10
126.2784954812995
 20
442.5687507513929
 30
0.0
 10
126.7365816399485
 20
442.6777549716775
 30
0.0
 10
127.1788953816727
 20
442.8061848778613
 30
0.0
 10
127.5903903395485
 20
442.9502659057251
 30
0.0
 10
127.9795698793755
 20
443.1125349970341
 30
0.0
 10
128.3299765502409
 20
443.2868158118315
 30
0.0
 10
128.6529569399137
 20
443.4780723495631
 30
0.0
 10
128.9322187361438
 20
443.6774767394022
 30
0.0
 10
129.1798184157277
 20
443.8920172118367
 30
0.0
 10
129.4329980855731
 20
444.1715075882498
 30
0.0
 10
129.6823929289633
 20
444.5543187715688
 30
0.0
 10
129.7245202655775
 20
444.8969176686967
 30
0.0
 10
129.7455685750907
 20
445.0680922124772
 30
0.0
 11
129.7455685750907
 21
445.0680922124772
 31
0.0
 11
129.6241168037807
 21
445.6189346801863
 31
0.0
 11
129.3144328416938
 21
446.0935660258653
 31
0.0
 11
129.1359616781421
 21
446.2777767015116
 31
0.0
 11
128.9417209977974
 21
446.4445119340738
 31
0.0
 11
128.6502430709288
 21
446.6536408517196
 31
0.0
 11
128.3418352338047
 21
446.8375832980181
 31
0.0
 11
127.9776949443035
 21
447.0195896310098
 31
0.0
 11
127.60229423321
 21
447.176889570734
 31
0.0
 11
127.1776748329637
 21
447.3261027976635
 31
0.0
 11
126.7455685750908
 21
447.4521211028222
 31
0.0
 11
126.2740005221622
 21
447.5645986135206
 31
0.0
 11
125.7976894350449
 21
447.6549151234541
 31
0.0
 11
125.2938911884656
 21
447.7277100911151
 31
0.0
 11
124.7874576410923
 21
447.7791098389316
 31
0.0
 11
124.2669355815258
 21
447.8105335724393
 31
0.0
 11
123.7455685750908
 21
447.8209316556703
 31
0.0
 11
123.2242015016443
 21
447.8105328793215
 31
0.0
 11
122.7036795090893
 21
447.7791098389316
 31
0.0
 11
122.1972462856531
 21
447.7277121046823
 31
0.0
 11
121.6934477151369
 21
447.6549151234541
 31
0.0
 11
121.2171354797904
 21
447.5645917241681
 31
0.0
 11
120.7455685750909
 21
447.4521211028222
 31
0.0
 11
120.3134661718518
 21
447.3261258672192
 31
0.0
 11
119.8888429169716
 21
447.1768895707341
 31
0.0
 11
119.5134297717716
 21
447.0195152275954
 31
0.0
 11
119.1493019163771
 21
446.8375832980181
 31
0.0
 11
118.8409327063869
 21
446.6538719864625
 31
0.0
 11
118.5494161523843
 21
446.4445119340737
 31
0.0
 11
118.315939668849
 21
446.2397072587892
 31
0.0
 11
118.1074128503755
 21
446.0096187533906
 31
0.0
 11
117.9543149734623
 21
445.7880727858193
 31
0.0
 11
117.8367220570178
 21
445.5461177651973
 31
0.0
 11
117.7693167106145
 21
445.3111088329549
 31
0.0
 11
117.745568575091
 21
445.0680922124771
 31
0.0
 11
117.7693167106162
 21
444.8250755919991
 31
0.0
 11
117.8367220570177
 21
444.590066659757
 31
0.0
 11
117.954314973456
 21
444.3481116391363
 31
0.0
 11
118.1074128503755
 21
444.1265656715636
 31
0.0
 11
118.3159396688776
 21
443.8964771661587
 31
0.0
 11
118.5494161523843
 21
443.6916724908805
 31
0.0
 11
118.8409327062542
 21
443.4823124385213
 31
0.0
 11
119.1493019163771
 21
443.2986011269362
 31
0.0
 11
119.5134297723729
 21
443.1166691972254
 31
0.0
 11
119.8888429169715
 21
442.9592948542203
 31
0.0
 11
120.3134661692276
 21
442.8100585583181
 31
0.0
 11
120.7455685750908
 21
442.684063322132
 31
0.0
 11
121.2171354907904
 21
442.5715926983422
 31
0.0
 11
121.6934477151368
 21
442.4812693015001
 31
0.0
 11
122.1972462412989
 21
442.4084723301262
 31
0.0
 11
122.7036795090893
 21
442.3570745860226
 31
0.0
 11
123.2242016739188
 21
442.3256515073575
 31
0.0
 11
123.7455685750908
 21
442.3152527692839
 31
0.0
 11
124.2669349363344
 21
442.3256509958608
 31
0.0
 11
124.7874576410923
 21
442.3570745860226
 31
0.0
 11
125.2976722579018
 21
442.4089380640993
 31
0.0
 11
125.8052025241231
 21
442.4825304881931
 31
0.0
 11
126.2777266971304
 21
442.5723894444221
 31
0.0
 11
126.7455685750908
 21
442.6840633221321
 31
0.0
 11
127.1776689314443
 21
442.8100637644729
 31
0.0
 11
127.6022942332101
 21
442.9592948542203
 31
0.0
 11
127.9777131549069
 21
443.116649871768
 31
0.0
 11
128.3418352338047
 21
443.2986011269362
 31
0.0
 11
128.6501866812261
 21
443.4823730328021
 31
0.0
 11
128.9417209977974
 21
443.6916724908806
 31
0.0
 11
129.1752510437158
 21
443.8962941932103
 31
0.0
 11
129.3837242998062
 21
444.1265656715635
 31
0.0
 11
129.6451802411464
 21
444.5667839167304
 31
0.0
 11
129.7455685750907
 21
445.0680922124772
 31
0.0
  0
SPLINE
  5
CF
330
39
100
AcDbEntity
  8
1
  6
Continuous
 62
     7
100
AcDbSpline
210
0.0
220
0.0
230
1.0
 70
    11
 71
     3
 72
    75
 73
    71
 74
    69
 42
0.0000000001
 43
0.0000000001
 44
0.00000001
 40
0.0
 40
0.0
 40
0.0
 40
0.0
 40
0.9630426149702751
 40
1.926101668414914
 40
2.414436831925732
 40
2.902786212426056
 40
3.397717172123873
 40
3.892656660846947
 40
4.394980176621943
 40
4.897315982394307
 40
5.406928791909197
 40
5.916550433952999
 40
6.432488278280706
 40
6.948433246781569
 40
7.469017154807577
 40
7.989605290925925
 40
8.51264523313465
 40
9.035686629292782
 40
9.558728020052159
 40
10.08176796732259
 40
10.60235612823413
 40
11.12294001288319
 40
11.63888489910104
 40
12.1548228192767
 40
12.66444471405229
 40
13.17405729874696
 40
13.67639239253469
 40
14.1787165039499
 40
14.67365771842107
 40
15.16858742043497
 40
15.65693397828392
 40
16.1452701437708
 40
16.628663169227
 40
17.11204885031109
 40
17.59278400693478
 40
18.07351649891778
 40
18.55424899090101
 40
19.0349841475247
 40
19.51836982860866
 40
20.00176285406496
 40
20.49009901955184
 40
20.97844557740082
 40
21.47337527941473
 40
21.96831649388581
 40
22.47064060530099
 40
22.97297569908876
 40
23.48258828378347
 40
23.99221017855912
 40
24.50814809873479
 40
25.02409298495255
 40
25.54467686960163
 40
26.06526503051314
 40
26.58830497778354
 40
27.1113463685429
 40
27.63438776470097
 40
28.15742770690968
 40
28.67801584302806
 40
29.19859975105418
 40
29.71454471955503
 40
30.23048256388271
 40
30.74010420592644
 40
31.24971701544139
 40
31.75205282121377
 40
32.25437633698883
 40
32.74931582571179
 40
33.24424678540957
 40
33.73259616590986
 40
34.22093132942081
 40
35.18399038286538
 40
36.14703299783571
 40
36.14703299783571
 40
36.14703299783571
 40
36.14703299783571
 10
117.7455685750905
 20
435.1088000689561
 30
0.0
 10
117.7632935055699
 20
434.7873322208766
 30
0.0
 10
117.798743669081
 20
434.1443910374828
 30
0.0
 10
118.036149495338
 20
433.3671866352553
 30
0.0
 10
118.3015061916326
 20
432.7773089391648
 30
0.0
 10
118.544324760009
 20
432.3501166049579
 30
0.0
 10
118.825882458467
 20
431.9449805699829
 30
0.0
 10
119.1455403424656
 20
431.5630333631412
 30
0.0
 10
119.4994054500612
 20
431.2090713173679
 30
0.0
 10
119.8863522203103
 20
430.8839882020569
 30
0.0
 10
120.3017082895858
 20
430.5918438999441
 30
0.0
 10
120.744091960165
 20
430.3334513981505
 30
0.0
 10
121.2083678197281
 20
430.1119021648191
 30
0.0
 10
121.692682354202
 20
429.9279747292983
 30
0.0
 10
122.1918625350438
 20
429.783694344246
 30
0.0
 10
122.7033691808778
 20
429.6797233031376
 30
0.0
 10
123.2223886590087
 20
429.6170872984267
 30
0.0
 10
123.7455685733332
 20
429.5961381137
 30
0.0
 10
124.2687484890899
 20
429.6170873035075
 30
0.0
 10
124.7877679750978
 20
429.6797233080446
 30
0.0
 10
125.2992746271955
 20
429.783694324255
 30
0.0
 10
125.7984547858476
 20
429.9279747059417
 30
0.0
 10
126.2827692628709
 20
430.1119022477646
 30
0.0
 10
126.7470452238212
 20
430.3334514972627
 30
0.0
 10
127.1894290653631
 20
430.591843562985
 30
0.0
 10
127.6047853334755
 20
430.8839878918579
 30
0.0
 10
127.9917292244398
 20
431.2090723637167
 30
0.0
 10
128.3456003580914
 20
431.5630349709103
 30
0.0
 10
128.6652445601987
 20
431.9449747154159
 30
0.0
 10
128.9468752146673
 20
432.3501208114047
 30
0.0
 10
129.1893915076549
 20
432.7772952690959
 30
0.0
 10
129.3901547513886
 20
433.2214207292699
 30
0.0
 10
129.5480775658024
 20
433.6807736095656
 30
0.0
 10
129.661751195021
 20
434.1504380190022
 30
0.0
 10
129.7302396008811
 20
434.6278892516725
 30
0.0
 10
129.7532330409539
 20
435.108800068956
 30
0.0
 10
129.7302396008811
 20
435.5897108862396
 30
0.0
 10
129.6617511950209
 20
436.0671621189101
 30
0.0
 10
129.5480775658024
 20
436.5368265283468
 30
0.0
 10
129.3901547513887
 20
436.9961794086422
 30
0.0
 10
129.189391507655
 20
437.4403048688165
 30
0.0
 10
128.9468752146673
 20
437.8674793265076
 30
0.0
 10
128.6652445601988
 20
438.2726254224963
 30
0.0
 10
128.3456003580914
 20
438.6545651670018
 30
0.0
 10
127.9917292244397
 20
439.0085277741956
 30
0.0
 10
127.6047853334755
 20
439.3336122460544
 30
0.0
 10
127.189429065363
 20
439.6257565749273
 30
0.0
 10
126.7470452238211
 20
439.8841486406496
 30
0.0
 10
126.2827692628709
 20
440.1056978901476
 30
0.0
 10
125.7984547858474
 20
440.2896254319707
 30
0.0
 10
125.2992746271956
 20
440.4339058136573
 30
0.0
 10
124.7877679750978
 20
440.5378768298676
 30
0.0
 10
124.2687484890899
 20
440.6005128344046
 30
0.0
 10
123.7455685733332
 20
440.6214620242121
 30
0.0
 10
123.2223886590088
 20
440.6005128394856
 30
0.0
 10
122.7033691808779
 20
440.5378768347744
 30
0.0
 10
122.1918625350438
 20
440.4339057936661
 30
0.0
 10
121.692682354202
 20
440.2896254086139
 30
0.0
 10
121.208367819728
 20
440.105697973093
 30
0.0
 10
120.744091960165
 20
439.8841487397617
 30
0.0
 10
120.3017082895857
 20
439.6257562379682
 30
0.0
 10
119.8863522203103
 20
439.3336119358553
 30
0.0
 10
119.4994054500612
 20
439.0085288205444
 30
0.0
 10
119.1455403424657
 20
438.6545667747707
 30
0.0
 10
118.825882458467
 20
438.2726195679294
 30
0.0
 10
118.544324760009
 20
437.8674835329543
 30
0.0
 10
118.3015061916326
 20
437.4402911987474
 30
0.0
 10
118.036149495338
 20
436.8504135026573
 30
0.0
 10
117.798743669081
 20
436.0732091004294
 30
0.0
 10
117.7632935055699
 20
435.4302679170357
 30
0.0
 10
117.7455685750905
 20
435.1088000689561
 30
0.0
 11
117.7455685750905
 21
435.1088000689561
 31
0.0
 11
117.8372274167724
 21
434.1501292521528
 31
0.0
 11
118.1074128503753
 21
433.225746987129
 31
0.0
 11
118.3083900345405
 21
432.7806858639491
 31
0.0
 11
118.5494161523841
 21
432.3559606257629
 31
0.0
 11
118.8317579083928
 21
431.9494636544565
 31
0.0
 11
119.1493019163768
 21
431.5698178978742
 31
0.0
 11
119.5043152121012
 21
431.2144385591959
 31
0.0
 11
119.8888429169713
 21
430.8912053524422
 31
0.0
 11
120.3055755690231
 21
430.5978811080717
 31
0.0
 11
120.7455685750906
 21
430.3407422882659
 31
0.0
 11
121.2111467972664
 21
430.1184164502596
 31
0.0
 11
121.6934477151366
 21
429.935154247002
 31
0.0
 11
122.1935338644658
 21
429.7905117617331
 31
0.0
 11
122.703679509089
 21
429.6867648160471
 31
0.0
 11
123.2229461257417
 21
429.6240514843246
 31
0.0
 11
123.7455685750907
 21
429.6031211825696
 31
0.0
 11
124.2681910188855
 21
429.6240514880965
 31
0.0
 11
124.7874576410922
 21
429.6867648160472
 31
0.0
 11
125.2976033133029
 21
429.7905117504886
 31
0.0
 11
125.7976894350446
 21
429.9351542470021
 31
0.0
 11
126.2799902494252
 21
430.1184164909645
 31
0.0
 11
126.7455685750907
 21
430.340742288266
 31
0.0
 11
127.1855619609654
 21
430.5978809590667
 31
0.0
 11
127.6022942332099
 21
430.8912053524422
 31
0.0
 11
127.9868205504223
 21
431.2144391034983
 31
0.0
 11
128.3418352338046
 21
431.5698178978742
 31
0.0
 11
128.6593843068366
 21
431.9494616677411
 31
0.0
 11
128.9417209977973
 21
432.355960625763
 31
0.0
 11
129.1827285935703
 21
432.7806931290431
 31
0.0
 11
129.383724299806
 21
433.2257469871291
 31
0.0
 11
129.5408276067765
 21
433.68289834937
 31
0.0
 11
129.654415093164
 21
434.1527489635159
 31
0.0
 11
129.7226781449091
 21
434.6286128585326
 31
0.0
 11
129.7455685750907
 21
435.108800068956
 31
0.0
 11
129.7226781449091
 21
435.5889872793798
 31
0.0
 11
129.654415093164
 21
436.0648511743964
 31
0.0
 11
129.5408276067765
 21
436.5347017885422
 31
0.0
 11
129.3837242998061
 21
436.9918531507832
 31
0.0
 11
129.1827285935704
 21
437.4369070088692
 31
0.0
 11
128.9417209977973
 21
437.8616395121493
 31
0.0
 11
128.6593843068366
 21
438.2681384701713
 31
0.0
 11
128.3418352338046
 21
438.647782240038
 31
0.0
 11
127.9868205504223
 21
439.0031610344139
 31
0.0
 11
127.6022942332099
 21
439.32639478547
 31
0.0
 11
127.1855619609653
 21
439.6197191788455
 31
0.0
 11
126.7455685750905
 21
439.8768578496463
 31
0.0
 11
126.2799902494251
 21
440.0991836469478
 31
0.0
 11
125.7976894350446
 21
440.2824458909102
 31
0.0
 11
125.2976033133028
 21
440.4270883874237
 31
0.0
 11
124.7874576410922
 21
440.530835321865
 31
0.0
 11
124.2681910188855
 21
440.5935486498157
 31
0.0
 11
123.7455685750907
 21
440.6144789553426
 31
0.0
 11
123.2229461257418
 21
440.5935486535875
 31
0.0
 11
122.7036795090891
 21
440.530835321865
 31
0.0
 11
122.1935338644659
 21
440.4270883761791
 31
0.0
 11
121.6934477151366
 21
440.2824458909103
 31
0.0
 11
121.2111467972663
 21
440.0991836876526
 31
0.0
 11
120.7455685750906
 21
439.8768578496463
 31
0.0
 11
120.3055755690231
 21
439.6197190298407
 31
0.0
 11
119.8888429169713
 21
439.32639478547
 31
0.0
 11
119.5043152121012
 21
439.0031615787163
 31
0.0
 11
119.1493019163768
 21
438.6477822400379
 31
0.0
 11
118.8317579083928
 21
438.2681364834558
 31
0.0
 11
118.5494161523841
 21
437.8616395121493
 31
0.0
 11
118.3083900345405
 21
437.4369142739632
 31
0.0
 11
118.1074128503753
 21
436.9918531507832
 31
0.0
 11
117.8372274167724
 21
436.0674708857595
 31
0.0
 11
117.7455685750905
 21
435.1088000689561
 31
0.0
  0
SPLINE
  5
D0
330
39
100
AcDbEntity
  8
1
  6
Continuous
 62
     7
100
AcDbSpline
210
0.0
220
0.0
230
1.0
 70
    11
 71
     3
 72
    75
 73
    71
 74
    69
 42
0.0000000001
 43
0.0000000001
 44
0.00000001
 40
0.0
 40
0.0
 40
0.0
 40
0.0
 40
0.5640726522234425
 40
1.130799280038618
 40
1.387286178810306
 40
1.643274615420926
 40
2.00201447388024
 40
2.361110864212665
 40
2.768203551063093
 40
3.175228077261173
 40
3.625301651420213
 40
4.075408784587358
 40
4.560205256269758
 40
5.045003486131979
 40
5.55403372155336
 40
6.063068958035728
 40
6.584538674819891
 40
7.106009360030281
 40
7.627480126060164
 40
8.148949734187791
 40
8.657984445072941
 40
9.167015289059931
 40
9.651815930560517
 40
10.13660968699073
 40
10.58670666129703
 40
11.03679152082202
 40
11.4438562742303
 40
11.85090457857987
 40
12.20984944295807
 40
12.56875546518917
 40
12.87932948757734
 40
13.18985187701047
 40
13.45915017938614
 40
13.72816751340425
 40
13.97265203020939
 40
14.2168262544208
 40
14.46100047863278
 40
14.70548499543719
 40
14.97450232945124
 40
15.24380063183165
 40
15.55432302128868
 40
15.86489704365114
 40
16.22380306575721
 40
16.58274793026456
 40
16.98979623521185
 40
17.39686098801368
 40
17.84694584486977
 40
18.29704282185843
 40
18.7818365895557
 40
19.26663721979343
 40
19.77566801847302
 40
20.28470277448066
 40
20.80617255687611
 40
21.32764314990244
 40
21.84911319290811
 40
22.37058354507315
 40
22.88342735712935
 40
23.39626535885567
 40
23.87725779756005
 40
24.3582433251348
 40
24.80833979194042
 40
25.25842485617477
 40
25.66548746599717
 40
26.07253924108013
 40
26.43149986358968
 40
26.79038497179366
 40
27.10087864871964
 40
27.4115006895473
 40
27.92350783074737
 40
28.43476884527578
 40
28.43476884527578
 40
28.43476884527578
 40
28.43476884527578
 10
129.7455685750907
 20
425.149507925435
 30
0.0
 10
129.7196454463002
 20
424.960666045278
 30
0.0
 10
129.6676772197657
 20
424.5820937793104
 30
0.0
 10
129.3885503027643
 20
424.1949782820567
 30
0.0
 10
129.1390583715031
 20
423.9370572915523
 30
0.0
 10
128.9174145132917
 20
423.7484254520855
 30
0.0
 10
128.6529093945647
 20
423.5596428974743
 30
0.0
 10
128.3300241889915
 20
423.3682180071396
 30
0.0
 10
127.9795807054705
 20
423.1938915401888
 30
0.0
 10
127.5903772701329
 20
423.0316898162074
 30
0.0
 10
127.1788928257647
 20
422.8876213866046
 30
0.0
 10
126.7353658174844
 20
422.7588141116468
 30
0.0
 10
126.2747816578455
 20
422.6493055641382
 30
0.0
 10
125.7903130771564
 20
422.5577964950845
 30
0.0
 10
125.2943235572952
 20
422.4863231551627
 30
0.0
 10
124.7836060107638
 20
422.4346802088529
 30
0.0
 10
124.2670745455511
 20
422.4035620813596
 30
0.0
 10
123.7455685440047
 20
422.3932214481754
 30
0.0
 10
123.2240626035464
 20
422.4035630053351
 30
0.0
 10
122.7075313304636
 20
422.434680650462
 30
0.0
 10
122.1968134946161
 20
422.4863205211092
 30
0.0
 10
121.7008231376399
 20
422.5577949118184
 30
0.0
 10
121.2163563770272
 20
422.64931431085
 30
0.0
 10
120.7557753400407
 20
422.7588189926339
 30
0.0
 10
120.3122398240482
 20
422.8875934377651
 30
0.0
 10
119.9007428247664
 20
423.0316765491601
 30
0.0
 10
119.5115801454943
 20
423.1939754534325
 30
0.0
 10
119.1611627055349
 20
423.3682459069981
 30
0.0
 10
118.8381780285633
 20
423.5594124149928
 30
0.0
 10
118.558741445886
 20
423.7588751460855
 30
0.0
 10
118.3118530089454
 20
423.9735934645882
 30
0.0
 10
118.1110441032795
 20
424.1932641028911
 30
0.0
 10
117.9485277741176
 20
424.425890395371
 30
0.0
 10
117.8325945332642
 20
424.6611043041313
 30
0.0
 10
117.7621050768452
 20
424.9049321856746
 30
0.0
 10
117.737305574456
 20
425.1495079254353
 30
0.0
 10
117.7621050768476
 20
425.3940836651952
 30
0.0
 10
117.8325945332646
 20
425.6379115467373
 30
0.0
 10
117.948527774111
 20
425.8731254555012
 30
0.0
 10
118.1110441032813
 20
426.1057517479862
 30
0.0
 10
118.3118530089671
 20
426.3254223862725
 30
0.0
 10
118.5587414458656
 20
426.5401407047549
 30
0.0
 10
118.8381780284888
 20
426.7396034359111
 30
0.0
 10
119.1611627056603
 20
426.9307699439743
 30
0.0
 10
119.5115801457588
 20
427.1050403973485
 30
0.0
 10
119.9007428241421
 20
427.2673393013997
 30
0.0
 10
120.3122398230748
 20
427.411422413212
 30
0.0
 10
120.7557753428046
 20
427.5401968590038
 30
0.0
 10
121.2163563807319
 20
427.6497015406671
 30
0.0
 10
121.7008231262666
 20
427.7412209379627
 30
0.0
 10
122.1968134805537
 20
427.8126953230799
 30
0.0
 10
122.7075313730283
 20
427.8643351973782
 30
0.0
 10
123.2240626621346
 20
427.8954528858131
 30
0.0
 10
123.7455683776043
 20
427.9057944416873
 30
0.0
 10
124.2670743678126
 20
427.8954535625219
 30
0.0
 10
124.7848732063768
 20
427.8642591029189
 30
0.0
 10
125.2981121655114
 20
427.8122846627675
 30
0.0
 10
125.7953272262757
 20
427.7403858168777
 30
0.0
 10
126.2784954812995
 20
427.6488493865194
 30
0.0
 10
126.7365816399485
 20
427.5398451662346
 30
0.0
 10
127.1788953816727
 20
427.4114152600509
 30
0.0
 10
127.5903903395485
 20
427.267334232187
 30
0.0
 10
127.9795698793755
 20
427.1050651408781
 30
0.0
 10
128.329976550241
 20
426.9307843260808
 30
0.0
 10
128.6529569399136
 20
426.7395277883489
 30
0.0
 10
128.9322187361439
 20
426.5401233985103
 30
0.0
 10
129.1798184157277
 20
426.3255829260755
 30
0.0
 10
129.432998085573
 20
426.0460925496623
 30
0.0
 10
129.6823929289633
 20
425.6632813663432
 30
0.0
 10
129.7245202655775
 20
425.3206824692155
 30
0.0
 10
129.7455685750907
 20
425.149507925435
 30
0.0
 11
129.7455685750907
 21
425.149507925435
 31
0.0
 11
129.6241168037807
 21
424.5986654577257
 31
0.0
 11
129.3144328416938
 21
424.1240341120468
 31
0.0
 11
129.1359616781421
 21
423.9398234364007
 31
0.0
 11
128.9417209977974
 21
423.7730882038384
 31
0.0
 11
128.6502430709288
 21
423.5639592861925
 31
0.0
 11
128.3418352338047
 21
423.3800168398941
 31
0.0
 11
127.9776949443035
 21
423.1980105069025
 31
0.0
 11
127.60229423321
 21
423.0407105671782
 31
0.0
 11
127.1776748329637
 21
422.8914973402486
 31
0.0
 11
126.7455685750908
 21
422.7654790350899
 31
0.0
 11
126.2740005221622
 21
422.6530015243918
 31
0.0
 11
125.7976894350449
 21
422.562685014458
 31
0.0
 11
125.2938911884656
 21
422.489890046797
 31
0.0
 11
124.7874576410923
 21
422.4384902989806
 31
0.0
 11
124.2669355815258
 21
422.4070665654728
 31
0.0
 11
123.7455685750908
 21
422.3966684822419
 31
0.0
 11
123.2242015016443
 21
422.4070672585907
 31
0.0
 11
122.7036795090893
 21
422.4384902989807
 31
0.0
 11
122.1972462856531
 21
422.4898880332298
 31
0.0
 11
121.6934477151369
 21
422.5626850144581
 31
0.0
 11
121.2171354797904
 21
422.6530084137443
 31
0.0
 11
120.7455685750909
 21
422.76547903509
 31
0.0
 11
120.3134661718518
 21
422.891474270693
 31
0.0
 11
119.8888429169716
 21
423.0407105671782
 31
0.0
 11
119.5134297717716
 21
423.1980849103169
 31
0.0
 11
119.1493019163771
 21
423.380016839894
 31
0.0
 11
118.8409327063869
 21
423.5637281514497
 31
0.0
 11
118.5494161523843
 21
423.7730882038384
 31
0.0
 11
118.315939668849
 21
423.9778928791229
 31
0.0
 11
118.1074128503755
 21
424.2079813845215
 31
0.0
 11
117.9543149734623
 21
424.4295273520928
 31
0.0
 11
117.8367220570178
 21
424.6714823727149
 31
0.0
 11
117.7693167106145
 21
424.9064913049573
 31
0.0
 11
117.745568575091
 21
425.149507925435
 31
0.0
 11
117.7693167106162
 21
425.3925245459131
 31
0.0
 11
117.8367220570177
 21
425.6275334781552
 31
0.0
 11
117.954314973456
 21
425.8694884987759
 31
0.0
 11
118.1074128503755
 21
426.0910344663486
 31
0.0
 11
118.3159396688776
 21
426.3211229717535
 31
0.0
 11
118.5494161523843
 21
426.5259276470316
 31
0.0
 11
118.8409327062542
 21
426.7352876993908
 31
0.0
 11
119.1493019163771
 21
426.9189990109761
 31
0.0
 11
119.5134297723729
 21
427.1009309406869
 31
0.0
 11
119.8888429169715
 21
427.2583052836919
 31
0.0
 11
120.3134661692276
 21
427.4075415795942
 31
0.0
 11
120.7455685750908
 21
427.5335368157802
 31
0.0
 11
121.2171354907904
 21
427.64600743957
 31
0.0
 11
121.6934477151368
 21
427.7363308364121
 31
0.0
 11
122.1972462412989
 21
427.809127807786
 31
0.0
 11
122.7036795090893
 21
427.8605255518895
 31
0.0
 11
123.2242016739188
 21
427.8919486305548
 31
0.0
 11
123.7455685750908
 21
427.9023473686283
 31
0.0
 11
124.2669349363344
 21
427.8919491420515
 31
0.0
 11
124.7874576410923
 21
427.8605255518896
 31
0.0
 11
125.2976722579018
 21
427.808662073813
 31
0.0
 11
125.8052025241231
 21
427.7350696497192
 31
0.0
 11
126.2777266971304
 21
427.6452106934901
 31
0.0
 11
126.7455685750908
 21
427.5335368157801
 31
0.0
 11
127.1776689314443
 21
427.4075363734393
 31
0.0
 11
127.6022942332101
 21
427.2583052836919
 31
0.0
 11
127.9777131549069
 21
427.1009502661443
 31
0.0
 11
128.3418352338047
 21
426.918999010976
 31
0.0
 11
128.6501866812261
 21
426.73522710511
 31
0.0
 11
128.9417209977974
 21
426.5259276470317
 31
0.0
 11
129.1752510437158
 21
426.3213059447019
 31
0.0
 11
129.3837242998062
 21
426.0910344663486
 31
0.0
 11
129.6451802411464
 21
425.6508162211817
 31
0.0
 11
129.7455685750907
 21
425.149507925435
 31
0.0
  0
SPLINE
  5
D1
330
39
100
AcDbEntity
  8
1
  6
Continuous
 62
     7
100
AcDbSpline
210
0.0
220
0.0
230
1.0
 70
    11
 71
     3
 72
    75
 73
    71
 74
    69
 42
0.0000000001
 43
0.0000000001
 44
0.00000001
 40
0.0
 40
0.0
 40
0.0
 40
0.0
 40
0.8400587742777563
 40
1.680178487511305
 40
2.117385750954001
 40
2.55462359309713
 40
3.008791693481808
 40
3.462987126694729
 40
3.935711179954626
 40
4.408461491064488
 40
4.899048321603241
 40
5.389652083412451
 40
5.895427918312603
 40
6.401215984157002
 40
6.917979539959356
 40
7.434749842529328
 40
7.957266983613083
 40
8.479786381114806
 40
9.00230576769944
 40
9.52482291876578
 40
10.04159326993198
 40
10.55835678057343
 40
11.06414469224884
 40
11.56992066672284
 40
12.06052487152516
 40
12.55111132010283
 40
13.02386051336972
 40
13.49658543510257
 40
13.95078298617069
 40
14.40494995988341
 40
14.84218750564261
 40
15.27939125444132
 40
15.70360263342332
 40
16.12778536027836
 40
16.5448944245885
 40
16.96199189029176
 40
17.37908935599499
 40
17.79619842030517
 40
18.22038114716021
 40
18.64459252614226
 40
19.08179627494095
 40
19.51903382070013
 40
19.97320079441279
 40
20.42739834548084
 40
20.90012326721369
 40
21.37287246048063
 40
21.86345890905828
 40
22.35406311386059
 40
22.8598390883346
 40
23.36562700001003
 40
23.88239051065147
 40
24.39916086181767
 40
24.921678012884
 40
25.44419739946865
 40
25.96671679697037
 40
26.48923393805413
 40
27.00600424062412
 40
27.52276779642646
 40
28.02855586227086
 40
28.53433169717099
 40
29.02493545898024
 40
29.51552228951897
 40
29.98827260062885
 40
30.4609966538887
 40
30.91519208710162
 40
31.36936018748635
 40
31.80659802962946
 40
32.24380529307211
 40
33.08392500630573
 40
33.92398378058344
 40
33.92398378058344
 40
33.92398378058344
 40
33.92398378058344
 10
129.7455685750909
 20
253.3575500689565
 30
0.0
 10
129.7274852635377
 20
253.0770003712747
 30
0.0
 10
129.6913173286444
 20
252.5158806244713
 30
0.0
 10
129.4518437777144
 20
251.8426362154806
 30
0.0
 10
129.1879555185995
 20
251.3354906148626
 30
0.0
 10
128.9441041185335
 20
250.9647442713444
 30
0.0
 10
128.6626865732565
 20
250.6146838750562
 30
0.0
 10
128.3420438576479
 20
250.2834795506756
 30
0.0
 10
127.9887213171885
 20
249.9778717844778
 30
0.0
 10
127.6009786902513
 20
249.6962466695226
 30
0.0
 10
127.1864714156225
 20
249.4440880155716
 30
0.0
 10
126.7436052203321
 20
249.220427891088
 30
0.0
 10
126.2803211679647
 20
249.0291859453532
 30
0.0
 10
125.7958823000734
 20
248.8701077346223
 30
0.0
 10
125.2976721086168
 20
248.7455177704103
 30
0.0
 10
124.7863989869461
 20
248.6556663664399
 30
0.0
 10
124.2681923317859
 20
248.6015354180299
 30
0.0
 10
123.7455685786061
 20
248.5834707061948
 30
0.0
 10
123.2229448228459
 20
248.6015354350231
 30
0.0
 10
122.7047381523892
 20
248.6556663790121
 30
0.0
 10
122.1934650152637
 20
248.7455177119508
 30
0.0
 10
121.6952548672298
 20
248.8701076791187
 30
0.0
 10
121.2108161192473
 20
249.0291861705169
 30
0.0
 10
120.7475318989519
 20
249.2204281091452
 30
0.0
 10
120.3046652480558
 20
249.4440871683059
 30
0.0
 10
119.8901578284323
 20
249.6962459801123
 30
0.0
 10
119.5024197984168
 20
249.9778745133165
 30
0.0
 10
119.149089970745
 20
250.283482365922
 30
0.0
 10
118.8284578249488
 20
250.6146722652587
 30
0.0
 10
118.5469578736224
 20
250.9647473386371
 30
0.0
 10
118.3034627527737
 20
251.3354892835867
 30
0.0
 10
118.1024598952915
 20
251.7197366708245
 30
0.0
 10
117.9438237456785
 20
252.1186458342114
 30
0.0
 10
117.8297668839841
 20
252.5256217570226
 30
0.0
 10
117.7610249181073
 20
252.9402471929559
 30
0.0
 10
117.7378405110335
 20
253.3575500689566
 30
0.0
 10
117.7610249181073
 20
253.7748529449572
 30
0.0
 10
117.829766883984
 20
254.1894783808904
 30
0.0
 10
117.9438237456784
 20
254.5964543037018
 30
0.0
 10
118.1024598952914
 20
254.9953634670885
 30
0.0
 10
118.3034627527738
 20
255.3796108543262
 30
0.0
 10
118.5469578736224
 20
255.750352799276
 30
0.0
 10
118.8284578249489
 20
256.1004278726543
 30
0.0
 10
119.1490899707451
 20
256.4316177719908
 30
0.0
 10
119.5024197984168
 20
256.7372256245965
 30
0.0
 10
119.8901578284322
 20
257.0188541578008
 30
0.0
 10
120.3046652480558
 20
257.271012969607
 30
0.0
 10
120.7475318989519
 20
257.4946720287678
 30
0.0
 10
121.2108161192473
 20
257.6859139673961
 30
0.0
 10
121.6952548672298
 20
257.8449924587944
 30
0.0
 10
122.1934650152637
 20
257.9695824259622
 30
0.0
 10
122.7047381523892
 20
258.0594337589008
 30
0.0
 10
123.222944822846
 20
258.1135647028898
 30
0.0
 10
123.7455685786061
 20
258.1316294317182
 30
0.0
 10
124.2681923317859
 20
258.1135647198831
 30
0.0
 10
124.7863989869461
 20
258.0594337714731
 30
0.0
 10
125.2976721086167
 20
257.9695823675025
 30
0.0
 10
125.7958823000734
 20
257.8449924032906
 30
0.0
 10
126.2803211679647
 20
257.6859141925599
 30
0.0
 10
126.7436052203322
 20
257.4946722468249
 30
0.0
 10
127.1864714156224
 20
257.2710121223415
 30
0.0
 10
127.6009786902514
 20
257.0188534683904
 30
0.0
 10
127.9887213171884
 20
256.7372283534349
 30
0.0
 10
128.3420438576479
 20
256.4316205872374
 30
0.0
 10
128.6626865732565
 20
256.1004162628569
 30
0.0
 10
128.9441041185335
 20
255.7503558665687
 30
0.0
 10
129.1879555185995
 20
255.3796095230504
 30
0.0
 10
129.4518437777144
 20
254.8724639224324
 30
0.0
 10
129.6913173286443
 20
254.1992195134418
 30
0.0
 10
129.7274852635377
 20
253.6380997666383
 30
0.0
 10
129.7455685750909
 20
253.3575500689565
 30
0.0
 11
129.7455685750909
 21
253.3575500689565
 31
0.0
 11
129.6528569185321
 21
252.5226229505928
 31
0.0
 11
129.3837242998063
 21
251.7267782634198
 31
0.0
 11
129.1814835464224
 21
251.3391587736135
 31
0.0
 11
128.9417209977975
 21
250.9735211786114
 31
0.0
 11
128.6574631654123
 21
250.6193091684611
 31
0.0
 11
128.3418352338048
 21
250.2927016052593
 31
0.0
 11
127.9845748328423
 21
249.9831324911109
 31
0.0
 11
127.6022942332102
 21
249.7050059015886
 31
0.0
 11
127.1833513165269
 21
249.4497368849434
 31
0.0
 11
126.7455685750909
 21
249.2282909041667
 31
0.0
 11
126.2781595207606
 21
249.0350605465647
 31
0.0
 11
125.7976894350449
 21
248.8770413569611
 31
0.0
 11
125.2964042743385
 21
248.7515114391686
 31
0.0
 11
124.7874576410925
 21
248.6619297997226
 31
0.0
 11
124.2677748233868
 21
248.6075797150141
 31
0.0
 11
123.745568575091
 21
248.5894922882663
 31
0.0
 11
123.2233623381578
 21
248.6075797276905
 31
0.0
 11
122.7036795090894
 21
248.6619297997227
 31
0.0
 11
122.1947328199047
 21
248.7515114016975
 31
0.0
 11
121.693447715137
 21
248.8770413569611
 31
0.0
 11
121.2129778355364
 21
249.0350606798097
 31
0.0
 11
120.745568575091
 21
249.2282909041667
 31
0.0
 11
120.3077850969072
 21
249.4497364098765
 31
0.0
 11
119.8888429169718
 21
249.7050059015886
 31
0.0
 11
119.5065649209641
 21
249.9831341696644
 31
0.0
 11
119.1493019163771
 21
250.2927016052593
 31
0.0
 11
118.8336648300273
 21
250.6193032664873
 31
0.0
 11
118.5494161523844
 21
250.9735211786115
 31
0.0
 11
118.3096858649106
 21
251.3391795720462
 31
0.0
 11
118.1074128503756
 21
251.7267782634199
 31
0.0
 11
117.950876604204
 21
252.1210518964367
 31
0.0
 11
117.8367220570178
 21
252.5295855243291
 31
0.0
 11
117.7685529475182
 21
252.9410863676329
 31
0.0
 11
117.745568575091
 21
253.3575500689565
 31
0.0
 11
117.7685529475182
 21
253.7740137702802
 31
0.0
 11
117.8367220570177
 21
254.185514613584
 31
0.0
 11
117.950876604204
 21
254.5940482414763
 31
0.0
 11
118.1074128503756
 21
254.9883218744932
 31
0.0
 11
118.3096858649107
 21
255.3759205658668
 31
0.0
 11
118.5494161523844
 21
255.7415789593016
 31
0.0
 11
118.8336648300274
 21
256.0957968714257
 31
0.0
 11
119.1493019163771
 21
256.4223985326536
 31
0.0
 11
119.5065649209641
 21
256.7319659682486
 31
0.0
 11
119.8888429169718
 21
257.0100942363244
 31
0.0
 11
120.3077850969072
 21
257.2653637280365
 31
0.0
 11
120.745568575091
 21
257.4868092337462
 31
0.0
 11
121.2129778355364
 21
257.6800394581032
 31
0.0
 11
121.693447715137
 21
257.8380587809519
 31
0.0
 11
122.1947328199047
 21
257.9635887362155
 31
0.0
 11
122.7036795090894
 21
258.0531703381903
 31
0.0
 11
123.2233623381578
 21
258.1075204102225
 31
0.0
 11
123.745568575091
 21
258.1256078496467
 31
0.0
 11
124.2677748233868
 21
258.1075204228989
 31
0.0
 11
124.7874576410925
 21
258.0531703381904
 31
0.0
 11
125.2964042743385
 21
257.9635886987445
 31
0.0
 11
125.7976894350449
 21
257.8380587809519
 31
0.0
 11
126.2781595207606
 21
257.6800395913484
 31
0.0
 11
126.7455685750909
 21
257.4868092337463
 31
0.0
 11
127.1833513165269
 21
257.2653632529695
 31
0.0
 11
127.6022942332101
 21
257.0100942363244
 31
0.0
 11
127.9845748328423
 21
256.731967646802
 31
0.0
 11
128.3418352338047
 21
256.4223985326537
 31
0.0
 11
128.6574631654123
 21
256.0957909694519
 31
0.0
 11
128.9417209977975
 21
255.7415789593016
 31
0.0
 11
129.1814835464224
 21
255.3759413642995
 31
0.0
 11
129.3837242998063
 21
254.9883218744932
 31
0.0
 11
129.6528569185321
 21
254.1924771873202
 31
0.0
 11
129.7455685750909
 21
253.3575500689565
 31
0.0
  0
SPLINE
  5
D2
330
39
100
AcDbEntity
  8
1
  6
Continuous
 62
     7
100
AcDbSpline
210
0.0
220
0.0
230
1.0
 70
     8
 71
     3
 72
    65
 73
    61
 74
    59
 42
0.0000000001
 43
0.0000000001
 44
0.00000001
 40
0.0
 40
0.0
 40
0.0
 40
0.0
 40
0.1463713390989134
 40
0.2927397083542554
 40
0.809503264156638
 40
1.326273566726596
 40
1.848790707810355
 40
2.371310105312078
 40
2.893829491896714
 40
3.416346642963057
 40
3.93311699412927
 40
4.449880504770728
 40
4.955668416446126
 40
5.461444390920136
 40
5.952048595722452
 40
6.442635044300074
 40
6.915384237566967
 40
7.388109159299889
 40
7.842306710367946
 40
8.296473684080551
 40
8.733711229839781
 40
9.170914978638519
 40
9.595126357620492
 40
10.01930908447556
 40
10.43641814878575
 40
10.85351561448895
 40
11.27061308019215
 40
11.68772214450245
 40
12.11190487135758
 40
12.53611625033946
 40
12.97331999913823
 40
13.41055754489741
 40
13.86472451861005
 40
14.3189220696781
 40
14.79164699141095
 40
15.26439618467789
 40
15.75498263325551
 40
16.24558683805784
 40
16.75136281253187
 40
17.25715072420727
 40
17.77391423484871
 40
18.29068458601492
 40
18.81320173708124
 40
19.33572112366589
 40
19.85824052116762
 40
20.38075766225137
 40
20.89752796482137
 40
21.4142915206237
 40
21.92007958646809
 40
22.42585542136821
 40
22.91645918317746
 40
23.40704601371618
 40
23.879796324826
 40
24.35252037808592
 40
24.80671581129888
 40
25.2608839116836
 40
25.69812175382672
 40
26.13532901726936
 40
26.97544873050291
 40
27.81550750478073
 40
27.81550750478073
 40
27.81550750478073
 40
27.81550750478073
 10
126.0771318852879
 20
269.2508859952915
 30
0.0
 10
126.0307738975903
 20
269.2661060322325
 30
0.0
 10
125.9380588627888
 20
269.2965457973031
 30
0.0
 10
125.6795406701863
 20
269.3739392264099
 30
0.0
 10
125.2976772672404
 20
269.4696376856733
 30
0.0
 10
124.7863975875667
 20
269.5594187653172
 30
0.0
 10
124.2681927085021
 20
269.6135687595759
 30
0.0
 10
123.7455684776624
 20
269.6316283492548
 30
0.0
 10
123.2229448499037
 20
269.6135649930416
 30
0.0
 10
122.7047381452275
 20
269.5594336821023
 30
0.0
 10
122.193465017175
 20
269.4695824464583
 30
0.0
 10
121.6952548667297
 20
269.3449924534316
 30
0.0
 10
121.2108161193802
 20
269.1859139688213
 30
0.0
 10
120.7475318989175
 20
268.9946720283984
 30
0.0
 10
120.3046652480649
 20
268.7710129697048
 30
0.0
 10
119.8901578284299
 20
268.5188541577756
 30
0.0
 10
119.5024197984174
 20
268.2372256246031
 30
0.0
 10
119.1490899707449
 20
267.9316177719891
 30
0.0
 10
118.8284578249489
 20
267.6004278726546
 30
0.0
 10
118.5469578736223
 20
267.2503527992759
 30
0.0
 10
118.3034627527737
 20
266.8796108543262
 30
0.0
 10
118.1024598952915
 20
266.4953634670885
 30
0.0
 10
117.9438237456785
 20
266.0964543037017
 30
0.0
 10
117.8297668839841
 20
265.6894783808904
 30
0.0
 10
117.7610249181073
 20
265.2748529449572
 30
0.0
 10
117.7378405110335
 20
264.8575500689565
 30
0.0
 10
117.7610249181073
 20
264.4402471929557
 30
0.0
 10
117.829766883984
 20
264.0256217570225
 30
0.0
 10
117.9438237456784
 20
263.6186458342112
 30
0.0
 10
118.1024598952915
 20
263.2197366708243
 30
0.0
 10
118.3034627527738
 20
262.8354892835867
 30
0.0
 10
118.5469578736225
 20
262.4647473386369
 30
0.0
 10
118.8284578249489
 20
262.1146722652586
 30
0.0
 10
119.1490899707451
 20
261.7834823659221
 30
0.0
 10
119.5024197984168
 20
261.4778745133165
 30
0.0
 10
119.8901578284322
 20
261.1962459801122
 30
0.0
 10
120.3046652480558
 20
260.944087168306
 30
0.0
 10
120.7475318989519
 20
260.7204281091452
 30
0.0
 10
121.2108161192472
 20
260.5291861705168
 30
0.0
 10
121.6952548672298
 20
260.3701076791186
 30
0.0
 10
122.1934650152637
 20
260.2455177119508
 30
0.0
 10
122.7047381523892
 20
260.1556663790121
 30
0.0
 10
123.222944822846
 20
260.1015354350232
 30
0.0
 10
123.7455685786061
 20
260.0834707061947
 30
0.0
 10
124.2681923317859
 20
260.1015354180298
 30
0.0
 10
124.7863989869461
 20
260.15566636644
 30
0.0
 10
125.2976721086167
 20
260.2455177704104
 30
0.0
 10
125.7958823000735
 20
260.3701077346225
 30
0.0
 10
126.2803211679647
 20
260.5291859453531
 30
0.0
 10
126.7436052203322
 20
260.720427891088
 30
0.0
 10
127.1864714156224
 20
260.9440880155715
 30
0.0
 10
127.6009786902513
 20
261.1962466695227
 30
0.0
 10
127.9887213171885
 20
261.4778717844777
 30
0.0
 10
128.3420438576479
 20
261.7834795506756
 30
0.0
 10
128.6626865732565
 20
262.114683875056
 30
0.0
 10
128.9441041185335
 20
262.4647442713443
 30
0.0
 10
129.1879555185995
 20
262.8354906148626
 30
0.0
 10
129.4518437777144
 20
263.3426362154805
 30
0.0
 10
129.6913173286443
 20
264.0158806244712
 30
0.0
 10
129.7274852635377
 20
264.5770003712747
 30
0.0
 10
129.7455685750909
 20
264.8575500689565
 30
0.0
 11
126.0771318852879
 21
269.2508859952915
 31
0.0
 11
125.9378647698892
 21
269.2959330759753
 31
0.0
 11
125.7976894350449
 21
269.3380587809518
 31
0.0
 11
125.2964042743385
 21
269.4635886987445
 31
0.0
 11
124.7874576410925
 21
269.5531703381904
 31
0.0
 11
124.2677748233868
 21
269.6075204228989
 31
0.0
 11
123.745568575091
 21
269.6256078496467
 31
0.0
 11
123.2233623381578
 21
269.6075204102225
 31
0.0
 11
122.7036795090894
 21
269.5531703381903
 31
0.0
 11
122.1947328199047
 21
269.4635887362154
 31
0.0
 11
121.693447715137
 21
269.3380587809517
 31
0.0
 11
121.2129778355364
 21
269.1800394581031
 31
0.0
 11
120.745568575091
 21
268.9868092337461
 31
0.0
 11
120.3077850969072
 21
268.7653637280364
 31
0.0
 11
119.8888429169718
 21
268.5100942363243
 31
0.0
 11
119.5065649209641
 21
268.2319659682486
 31
0.0
 11
119.1493019163771
 21
267.9223985326535
 31
0.0
 11
118.8336648300273
 21
267.5957968714256
 31
0.0
 11
118.5494161523844
 21
267.2415789593016
 31
0.0
 11
118.3096858649106
 21
266.8759205658668
 31
0.0
 11
118.1074128503756
 21
266.4883218744931
 31
0.0
 11
117.950876604204
 21
266.0940482414763
 31
0.0
 11
117.8367220570178
 21
265.6855146135839
 31
0.0
 11
117.7685529475182
 21
265.2740137702801
 31
0.0
 11
117.745568575091
 21
264.8575500689565
 31
0.0
 11
117.7685529475182
 21
264.4410863676329
 31
0.0
 11
117.8367220570177
 21
264.0295855243289
 31
0.0
 11
117.950876604204
 21
263.6210518964365
 31
0.0
 11
118.1074128503756
 21
263.2267782634198
 31
0.0
 11
118.3096858649107
 21
262.8391795720461
 31
0.0
 11
118.5494161523844
 21
262.4735211786114
 31
0.0
 11
118.8336648300274
 21
262.1193032664873
 31
0.0
 11
119.1493019163771
 21
261.7927016052594
 31
0.0
 11
119.5065649209641
 21
261.4831341696644
 31
0.0
 11
119.8888429169718
 21
261.2050059015886
 31
0.0
 11
120.3077850969072
 21
260.9497364098765
 31
0.0
 11
120.745568575091
 21
260.7282909041667
 31
0.0
 11
121.2129778355364
 21
260.5350606798097
 31
0.0
 11
121.693447715137
 21
260.3770413569611
 31
0.0
 11
122.1947328199047
 21
260.2515114016975
 31
0.0
 11
122.7036795090894
 21
260.1619297997227
 31
0.0
 11
123.2233623381578
 21
260.1075797276905
 31
0.0
 11
123.745568575091
 21
260.0894922882663
 31
0.0
 11
124.2677748233868
 21
260.1075797150141
 31
0.0
 11
124.7874576410925
 21
260.1619297997226
 31
0.0
 11
125.2964042743385
 21
260.2515114391686
 31
0.0
 11
125.7976894350449
 21
260.3770413569611
 31
0.0
 11
126.2781595207606
 21
260.5350605465646
 31
0.0
 11
126.7455685750909
 21
260.7282909041667
 31
0.0
 11
127.1833513165269
 21
260.9497368849434
 31
0.0
 11
127.6022942332101
 21
261.2050059015886
 31
0.0
 11
127.9845748328423
 21
261.4831324911108
 31
0.0
 11
128.3418352338047
 21
261.7927016052593
 31
0.0
 11
128.6574631654123
 21
262.1193091684611
 31
0.0
 11
128.9417209977975
 21
262.4735211786114
 31
0.0
 11
129.1814835464224
 21
262.8391587736135
 31
0.0
 11
129.3837242998063
 21
263.2267782634198
 31
0.0
 11
129.6528569185321
 21
264.0226229505927
 31
0.0
 11
129.7455685750909
 21
264.8575500689565
 31
0.0
  0
ENDBLK
  5
3B
330
39
100
AcDbEntity
  8
0
100
AcDbBlockEnd
  0
BLOCK
  5
3D
330
3C
100
AcDbEntity
  8
0
100
AcDbBlockBegin
  2
B41A-24-1__2
 70
     0
 71
     0
 10
450.8526093743659
 20
217.9038074808955
 30
0.0
  3
B41A-24-1__2
  1

  0
LINE
  5
D3
330
3C
100
AcDbEntity
  8
0
  6
Continuous
 62
     7
100
AcDbLine
 10
176.7455685750904
 20
423.6094444144186
 30
0.0
 11
176.7455685750904
 21
425.1501522708975
 31
0.0
  0
LINE
  5
D4
330
3C
100
AcDbEntity
  8
0
  6
Continuous
 62
     7
100
AcDbLine
 10
176.7455685750904
 20
425.1501522708975
 30
0.0
 11
176.7455685750903
 21
437.4480892257214
 31
0.0
  0
LINE
  5
D5
330
3C
100
AcDbEntity
  8
0
  6
Continuous
 62
     7
100
AcDbLine
 10
188.7455685750901
 20
423.6094444144186
 30
0.0
 11
188.7455685750903
 21
436.0003427645159
 31
0.0
  0
LINE
  5
D6
330
3C
100
AcDbEntity
  8
0
  6
Continuous
 62
     7
100
AcDbLine
 10
176.7455685750903
 20
437.4480892257214
 30
0.0
 11
176.7455685750904
 21
446.6094444144186
 31
0.0
  0
LINE
  5
D7
330
3C
100
AcDbEntity
  8
0
  6
Continuous
 62
     7
100
AcDbLine
 10
188.7455685750903
 20
436.0003427645159
 30
0.0
 11
188.7455685750901
 21
446.6094444144186
 31
0.0
  0
LINE
  5
D8
330
3C
100
AcDbEntity
  8
1
  6
Continuous
 62
     7
100
AcDbLine
 10
282.9577001618041
 20
260.0894922882663
 30
0.0
 11
277.4520212754178
 21
269.6256078496466
 31
0.0
  0
LINE
  5
D9
330
3C
100
AcDbEntity
  8
1
  6
Continuous
 62
     7
100
AcDbLine
 10
264.7398896887036
 20
270.6075500689565
 30
0.0
 11
275.7512474614762
 21
270.6075500689565
 31
0.0
  0
LINE
  5
DA
330
3C
100
AcDbEntity
  8
1
  6
Continuous
 62
     7
100
AcDbLine
 10
263.0391158747621
 20
269.6256078496466
 30
0.0
 11
257.5334369883757
 21
260.0894922882663
 31
0.0
  0
LINE
  5
DB
330
3C
100
AcDbEntity
  8
1
  6
Continuous
 62
     7
100
AcDbLine
 10
264.7398896887036
 20
247.6075500689565
 30
0.0
 11
275.7512474614762
 21
247.6075500689565
 31
0.0
  0
LINE
  5
DC
330
3C
100
AcDbEntity
  8
1
  6
Continuous
 62
     7
100
AcDbLine
 10
257.5334369883757
 20
258.1256078496466
 30
0.0
 11
263.0391158747621
 21
248.5894922882663
 31
0.0
  0
LINE
  5
DD
330
3C
100
AcDbEntity
  8
1
  6
Continuous
 62
     7
100
AcDbLine
 10
282.9577001618041
 20
258.1256078496466
 30
0.0
 11
277.4520212754178
 21
248.5894922882663
 31
0.0
  0
LINE
  5
DE
330
3C
100
AcDbEntity
  8
0
  6
Continuous
 62
     7
100
AcDbLine
 10
188.7455685750899
 20
270.6075500689565
 30
0.0
 11
188.7455685750899
 21
247.6075500689564
 31
0.0
  0
LINE
  5
DF
330
3C
100
AcDbEntity
  8
1
  6
Continuous
 62
     7
100
AcDbLine
 10
188.7455685750899
 20
270.6075500689565
 30
0.0
 11
180.8122834528014
 21
270.6075500689565
 31
0.0
  0
LINE
  5
E0
330
3C
100
AcDbEntity
  8
1
  6
Continuous
 62
     7
100
AcDbLine
 10
176.7455685750902
 20
247.6075500689564
 30
0.0
 11
188.7455685750899
 21
247.6075500689564
 31
0.0
  0
LINE
  5
E1
330
3C
100
AcDbEntity
  8
0
  6
Continuous
 62
     7
100
AcDbLine
 10
176.7455685750901
 20
264.8575500689565
 30
0.0
 11
176.7455685750902
 21
247.6075500689564
 31
0.0
  0
ARC
  5
E2
330
3C
100
AcDbEntity
  8
0
  6
Continuous
 62
     7
100
AcDbCircle
 10
182.7455685750904
 20
437.3844444144186
 30
0.0
 40
15.02500000000003
100
AcDbArc
 50
-113.5365778640412
 51
-66.46342213595986
  0
ARC
  5
E3
330
3C
100
AcDbEntity
  8
0
  6
Continuous
 62
     7
100
AcDbCircle
 10
182.7455685750904
 20
432.8344444144187
 30
0.0
 40
15.02499999999975
100
AcDbArc
 50
66.4634221359596
 51
113.5365778640415
  0
ARC
  5
E4
330
3C
100
AcDbEntity
  8
1
  6
Continuous
 62
     7
100
AcDbCircle
 10
270.2455685750899
 20
259.1075500689565
 30
0.0
 40
12.75
100
AcDbArc
 50
0.0
 51
4.41701262951586
  0
ARC
  5
E5
330
3C
100
AcDbEntity
  8
1
  6
Continuous
 62
     7
100
AcDbCircle
 10
270.2455685750899
 20
259.1075500689565
 30
0.0
 40
12.74999999999999
100
AcDbArc
 50
-4.41701262951662
 51
0.0
  0
ARC
  5
E6
330
3C
100
AcDbEntity
  8
1
  6
Continuous
 62
     7
100
AcDbCircle
 10
270.2455685750899
 20
259.1075500689565
 30
0.0
 40
12.74999999999992
100
AcDbArc
 50
55.58298737048363
 51
64.41701262951622
  0
ARC
  5
E7
330
3C
100
AcDbEntity
  8
1
  6
Continuous
 62
     7
100
AcDbCircle
 10
270.2455685750899
 20
259.1075500689565
 30
0.0
 40
12.75
100
AcDbArc
 50
115.5829873704838
 51
124.4170126295162
  0
ARC
  5
E8
330
3C
100
AcDbEntity
  8
1
  6
Continuous
 62
     7
100
AcDbCircle
 10
270.2455685750899
 20
259.1075500689565
 30
0.0
 40
12.75
100
AcDbArc
 50
-124.4170126295158
 51
-115.5829873704837
  0
ARC
  5
E9
330
3C
100
AcDbEntity
  8
1
  6
Continuous
 62
     7
100
AcDbCircle
 10
270.2455685750899
 20
259.1075500689565
 30
0.0
 40
12.75000000000003
100
AcDbArc
 50
-64.41701262951628
 51
-55.58298737048398
  0
ARC
  5
EA
330
3C
100
AcDbEntity
  8
1
  6
Continuous
 62
     7
100
AcDbCircle
 10
270.2455685750899
 20
259.1075500689565
 30
0.0
 40
12.75
100
AcDbArc
 50
180.0
 51
-175.5829873704834
  0
ARC
  5
EB
330
3C
100
AcDbEntity
  8
1
  6
Continuous
 62
     7
100
AcDbCircle
 10
270.2455685750899
 20
259.1075500689565
 30
0.0
 40
12.75000000000003
100
AcDbArc
 50
175.5829873704842
 51
180.0
  0
CIRCLE
  5
EC
330
3C
100
AcDbEntity
  8
1
  6
Continuous
 62
     7
100
AcDbCircle
 10
270.2455685750899
 20
259.1075500689565
 30
0.0
 40
11.04398391922535
  0
SPLINE
  5
ED
330
3C
100
AcDbEntity
  8
1
  6
Continuous
 62
     7
100
AcDbSpline
210
0.0
220
0.0
230
1.0
 70
    11
 71
     3
 72
    75
 73
    71
 74
    69
 42
0.0000000001
 43
0.0000000001
 44
0.00000001
 40
0.0
 40
0.0
 40
0.0
 40
0.0
 40
0.5640726522233809
 40
1.130799280038572
 40
1.38728617881032
 40
1.643274615420918
 40
2.002014473880199
 40
2.361110864212687
 40
2.768203551063114
 40
3.175228077261147
 40
3.625301651420139
 40
4.075408784587336
 40
4.560205256269819
 40
5.045003486132007
 40
5.554033721553386
 40
6.063068958035704
 40
6.584538674819859
 40
7.106009360030223
 40
7.627480126060122
 40
8.148949734187758
 40
8.657984445072913
 40
9.167015289059872
 40
9.651815930560552
 40
10.13660968699073
 40
10.58670666129704
 40
11.03679152082203
 40
11.44385627423034
 40
11.85090457857986
 40
12.2098494429581
 40
12.56875546518914
 40
12.87932948757731
 40
13.18985187701044
 40
13.45915017938614
 40
13.72816751340428
 40
13.97265203020931
 40
14.21682625442083
 40
14.46100047863264
 40
14.70548499543716
 40
14.9745023294512
 40
15.24380063183159
 40
15.5543230212886
 40
15.86489704365104
 40
16.22380306575717
 40
16.5827479302645
 40
16.98979623521178
 40
17.39686098801364
 40
17.84694584486976
 40
18.29704282185843
 40
18.78183658955569
 40
19.26663721979339
 40
19.77566801847297
 40
20.28470277448064
 40
20.80617255687608
 40
21.32764314990245
 40
21.84911319290811
 40
22.37058354507316
 40
22.88342735712937
 40
23.3962653588557
 40
23.87725779756005
 40
24.35824332513479
 40
24.8083397919404
 40
25.25842485617479
 40
25.66548746599719
 40
26.07253924108013
 40
26.4314998635897
 40
26.79038497179368
 40
27.10087864871965
 40
27.41150068954735
 40
27.92350783074748
 40
28.43476884527589
 40
28.43476884527589
 40
28.43476884527589
 40
28.43476884527589
 10
176.7455685750904
 20
425.1501522708975
 30
0.0
 10
176.7714917038809
 20
424.9613103907404
 30
0.0
 10
176.8234599304154
 20
424.5827381247729
 30
0.0
 10
177.1025868474168
 20
424.1956226275193
 30
0.0
 10
177.352078778678
 20
423.9377016370148
 30
0.0
 10
177.5737226368895
 20
423.7490697975483
 30
0.0
 10
177.8382277556165
 20
423.5602872429368
 30
0.0
 10
178.1611129611896
 20
423.3688623526019
 30
0.0
 10
178.5115564447107
 20
423.1945358856513
 30
0.0
 10
178.9007598800481
 20
423.0323341616701
 30
0.0
 10
179.3122443244164
 20
422.8882657320669
 30
0.0
 10
179.7557713326967
 20
422.7594584571095
 30
0.0
 10
180.2163554923357
 20
422.6499499096008
 30
0.0
 10
180.7008240730248
 20
422.5584408405469
 30
0.0
 10
181.196813592886
 20
422.4869675006253
 30
0.0
 10
181.7075311394173
 20
422.4353245543152
 30
0.0
 10
182.22406260463
 20
422.4042064268224
 30
0.0
 10
182.7455686061765
 20
422.3938657936379
 30
0.0
 10
183.2670745466347
 20
422.4042073507977
 30
0.0
 10
183.7836058197175
 20
422.4353249959247
 30
0.0
 10
184.2943236555651
 20
422.4869648665718
 30
0.0
 10
184.7903140125413
 20
422.5584392572808
 30
0.0
 10
185.274780773154
 20
422.6499586563126
 30
0.0
 10
185.7353618101404
 20
422.7594633380965
 30
0.0
 10
186.178897326133
 20
422.8882377832277
 30
0.0
 10
186.5903943254148
 20
423.0323208946228
 30
0.0
 10
186.9795570046868
 20
423.194619798895
 30
0.0
 10
187.3299744446463
 20
423.3688902524608
 30
0.0
 10
187.6529591216179
 20
423.5600567604553
 30
0.0
 10
187.9323957042952
 20
423.7595194915483
 30
0.0
 10
188.1792841412358
 20
423.9742378100507
 30
0.0
 10
188.3800930469016
 20
424.1939084483538
 30
0.0
 10
188.5426093760635
 20
424.4265347408336
 30
0.0
 10
188.658542616917
 20
424.6617486495939
 30
0.0
 10
188.729032073336
 20
424.9055765311373
 30
0.0
 10
188.7538315757252
 20
425.1501522708977
 30
0.0
 10
188.7290320733335
 20
425.3947280106579
 30
0.0
 10
188.6585426169167
 20
425.6385558921997
 30
0.0
 10
188.5426093760702
 20
425.8737698009637
 30
0.0
 10
188.3800930468998
 20
426.1063960934487
 30
0.0
 10
188.1792841412141
 20
426.3260667317349
 30
0.0
 10
187.9323957043156
 20
426.5407850502172
 30
0.0
 10
187.6529591216923
 20
426.740247781374
 30
0.0
 10
187.3299744445209
 20
426.9314142894368
 30
0.0
 10
186.9795570044225
 20
427.105684742811
 30
0.0
 10
186.590394326039
 20
427.2679836468622
 30
0.0
 10
186.1788973271065
 20
427.4120667586748
 30
0.0
 10
185.7353618073765
 20
427.540841204466
 30
0.0
 10
185.2747807694492
 20
427.6503458861296
 30
0.0
 10
184.7903140239146
 20
427.7418652834252
 30
0.0
 10
184.2943236696275
 20
427.8133396685424
 30
0.0
 10
183.7836057771528
 20
427.8649795428407
 30
0.0
 10
183.2670744880466
 20
427.8960972312756
 30
0.0
 10
182.7455687725768
 20
427.9064387871498
 30
0.0
 10
182.2240627823685
 20
427.8960979079847
 30
0.0
 10
181.7062639438043
 20
427.8649034483814
 30
0.0
 10
181.1930249846698
 20
427.8129290082304
 30
0.0
 10
180.6958099239054
 20
427.74103016234
 30
0.0
 10
180.2126416688816
 20
427.6494937319819
 30
0.0
 10
179.7545555102326
 20
427.5404895116973
 30
0.0
 10
179.3122417685085
 20
427.4120596055134
 30
0.0
 10
178.9007468106326
 20
427.2679785776494
 30
0.0
 10
178.5115672708056
 20
427.1057094863409
 30
0.0
 10
178.1611605999401
 20
426.9314286715432
 30
0.0
 10
177.8381802102674
 20
426.7401721338117
 30
0.0
 10
177.5589184140373
 20
426.5407677439728
 30
0.0
 10
177.3113187344534
 20
426.326227271538
 30
0.0
 10
177.0581390646081
 20
426.0467368951249
 30
0.0
 10
176.8087442212178
 20
425.6639257118056
 30
0.0
 10
176.7666168846036
 20
425.321326814678
 30
0.0
 10
176.7455685750904
 20
425.1501522708975
 30
0.0
 11
176.7455685750904
 21
425.1501522708975
 31
0.0
 11
176.8670203464004
 21
424.5993098031883
 31
0.0
 11
177.1767043084873
 21
424.1246784575094
 31
0.0
 11
177.3551754720391
 21
423.9404677818632
 31
0.0
 11
177.5494161523837
 21
423.773732549301
 31
0.0
 11
177.8408940792524
 21
423.5646036316551
 31
0.0
 11
178.1493019163764
 21
423.3806611853565
 31
0.0
 11
178.5134422058777
 21
423.1986548523649
 31
0.0
 11
178.8888429169711
 21
423.0413549126407
 31
0.0
 11
179.3134623172174
 21
422.8921416857111
 31
0.0
 11
179.7455685750903
 21
422.7661233805525
 31
0.0
 11
180.217136628019
 21
422.6536458698543
 31
0.0
 11
180.6934477151363
 21
422.5633293599205
 31
0.0
 11
181.1972459617156
 21
422.4905343922596
 31
0.0
 11
181.7036795090888
 21
422.4391346444431
 31
0.0
 11
182.2242015686554
 21
422.4077109109354
 31
0.0
 11
182.7455685750903
 21
422.3973128277045
 31
0.0
 11
183.2669356485368
 21
422.4077116040534
 31
0.0
 11
183.7874576410919
 21
422.4391346444432
 31
0.0
 11
184.2938908645281
 21
422.4905323786924
 31
0.0
 11
184.7976894350443
 21
422.5633293599205
 31
0.0
 11
185.2740016703908
 21
422.6536527592068
 31
0.0
 11
185.7455685750902
 21
422.7661233805525
 31
0.0
 11
186.1776709783294
 21
422.8921186161556
 31
0.0
 11
186.6022942332095
 21
423.0413549126408
 31
0.0
 11
186.9777073784096
 21
423.1987292557795
 31
0.0
 11
187.3418352338041
 21
423.3806611853566
 31
0.0
 11
187.6502044437943
 21
423.5643724969123
 31
0.0
 11
187.9417209977968
 21
423.773732549301
 31
0.0
 11
188.1751974813321
 21
423.9785372245855
 31
0.0
 11
188.3837242998056
 21
424.2086257299841
 31
0.0
 11
188.5368221767189
 21
424.4301716975554
 31
0.0
 11
188.6544150931634
 21
424.6721267181775
 31
0.0
 11
188.7218204395668
 21
424.9071356504198
 31
0.0
 11
188.7455685750902
 21
425.1501522708976
 31
0.0
 11
188.721820439565
 21
425.3931688913755
 31
0.0
 11
188.6544150931635
 21
425.6281778236178
 31
0.0
 11
188.5368221767253
 21
425.8701328442385
 31
0.0
 11
188.3837242998056
 21
426.0916788118111
 31
0.0
 11
188.1751974813035
 21
426.321767317216
 31
0.0
 11
187.9417209977969
 21
426.526571992494
 31
0.0
 11
187.650204443927
 21
426.7359320448533
 31
0.0
 11
187.3418352338041
 21
426.9196433564385
 31
0.0
 11
186.9777073778083
 21
427.1015752861495
 31
0.0
 11
186.6022942332097
 21
427.2589496291545
 31
0.0
 11
186.1776709809536
 21
427.4081859250568
 31
0.0
 11
185.7455685750904
 21
427.5341811612427
 31
0.0
 11
185.2740016593908
 21
427.6466517850325
 31
0.0
 11
184.7976894350444
 21
427.7369751818746
 31
0.0
 11
184.2938909088823
 21
427.8097721532485
 31
0.0
 11
183.7874576410919
 21
427.8611698973521
 31
0.0
 11
183.2669354762624
 21
427.8925929760173
 31
0.0
 11
182.7455685750904
 21
427.9029917140908
 31
0.0
 11
182.2242022138468
 21
427.8925934875141
 31
0.0
 11
181.7036795090889
 21
427.8611698973522
 31
0.0
 11
181.1934648922793
 21
427.8093064192756
 31
0.0
 11
180.685934626058
 21
427.7357139951818
 31
0.0
 11
180.2134104530507
 21
427.6458550389528
 31
0.0
 11
179.7455685750903
 21
427.5341811612427
 31
0.0
 11
179.3134682187368
 21
427.4081807189018
 31
0.0
 11
178.8888429169711
 21
427.2589496291544
 31
0.0
 11
178.5134239952742
 21
427.1015946116069
 31
0.0
 11
178.1493019163764
 21
426.9196433564386
 31
0.0
 11
177.840950468955
 21
426.7358714505727
 31
0.0
 11
177.5494161523837
 21
426.5265719924943
 31
0.0
 11
177.3158861064653
 21
426.3219502901645
 31
0.0
 11
177.1074128503749
 21
426.0916788118111
 31
0.0
 11
176.8459569090347
 21
425.6514605666442
 31
0.0
 11
176.7455685750904
 21
425.1501522708975
 31
0.0
  0
SPLINE
  5
EE
330
3C
100
AcDbEntity
  8
1
  6
Continuous
 62
     7
100
AcDbSpline
210
0.0
220
0.0
230
1.0
 70
    11
 71
     3
 72
    75
 73
    71
 74
    69
 42
0.0000000001
 43
0.0000000001
 44
0.00000001
 40
0.0
 40
0.0
 40
0.0
 40
0.0
 40
0.9630426149702738
 40
1.926101668414812
 40
2.414436831925721
 40
2.902786212426102
 40
3.397717172123918
 40
3.892656660846958
 40
4.394980176621924
 40
4.897315982394345
 40
5.406928791909211
 40
5.916550433953001
 40
6.432488278280697
 40
6.94843324678158
 40
7.469017154807617
 40
7.98960529092594
 40
8.512645233134736
 40
9.035686629292782
 40
9.558728020052188
 40
10.08176796732261
 40
10.60235612823413
 40
11.12294001288323
 40
11.63888489910098
 40
12.15482281927668
 40
12.66444471405232
 40
13.17405729874697
 40
13.67639239253469
 40
14.17871650394993
 40
14.67365771842107
 40
15.16858742043495
 40
15.65693397828391
 40
16.14527014377086
 40
16.62866316922711
 40
17.11204885031114
 40
17.59278400693477
 40
18.07351649891777
 40
18.55424899090106
 40
19.03498414752481
 40
19.51836982860871
 40
20.00176285406501
 40
20.49009901955194
 40
20.97844557740079
 40
21.4733752794148
 40
21.96831649388593
 40
22.47064060530113
 40
22.97297569908887
 40
23.48258828378354
 40
23.99221017855917
 40
24.50814809873477
 40
25.0240929849526
 40
25.54467686960166
 40
26.0652650305132
 40
26.58830497778363
 40
27.111346368543
 40
27.63438776470105
 40
28.1574277069098
 40
28.67801584302819
 40
29.19859975105429
 40
29.71454471955518
 40
30.23048256388287
 40
30.7401042059266
 40
31.24971701544151
 40
31.75205282121384
 40
32.25437633698888
 40
32.74931582571188
 40
33.24424678540967
 40
33.73259616590995
 40
34.22093132942093
 40
35.18399038286549
 40
36.14703299783589
 40
36.14703299783589
 40
36.14703299783589
 40
36.14703299783589
 10
188.7455685750907
 20
435.1094444144186
 30
0.0
 10
188.7278436446113
 20
434.7879765663391
 30
0.0
 10
188.6923934811003
 20
434.1450353829454
 30
0.0
 10
188.4549876548431
 20
433.3678309807176
 30
0.0
 10
188.1896309585486
 20
432.7779532846274
 30
0.0
 10
187.9468123901722
 20
432.3507609504202
 30
0.0
 10
187.6652546917142
 20
431.9456249154455
 30
0.0
 10
187.3455968077156
 20
431.5636777086037
 30
0.0
 10
186.99173170012
 20
431.2097156628306
 30
0.0
 10
186.6047849298708
 20
430.8846325475192
 30
0.0
 10
186.1894288605954
 20
430.5924882454067
 30
0.0
 10
185.7470451900162
 20
430.3340957436128
 30
0.0
 10
185.282769330453
 20
430.1125465102818
 30
0.0
 10
184.7984547959792
 20
429.928619074761
 30
0.0
 10
184.2992746151373
 20
429.7843386897084
 30
0.0
 10
183.7877679693033
 20
429.6803676486002
 30
0.0
 10
183.2687484911724
 20
429.6177316438892
 30
0.0
 10
182.7455685768479
 20
429.5967824591624
 30
0.0
 10
182.2223886610913
 20
429.6177316489702
 30
0.0
 10
181.7033691750833
 20
429.6803676535072
 30
0.0
 10
181.1918625229856
 20
429.7843386697176
 30
0.0
 10
180.6926823643336
 20
429.9286190514041
 30
0.0
 10
180.2083678873102
 20
430.1125465932271
 30
0.0
 10
179.7440919263599
 20
430.3340958427253
 30
0.0
 10
179.3017080848181
 20
430.5924879084475
 30
0.0
 10
178.8863518167057
 20
430.8846322373203
 30
0.0
 10
178.4994079257413
 20
431.2097167091792
 30
0.0
 10
178.1455367920898
 20
431.5636793163731
 30
0.0
 10
177.8258925899824
 20
431.9456190608785
 30
0.0
 10
177.5442619355137
 20
432.3507651568669
 30
0.0
 10
177.3017456425262
 20
432.7779396145585
 30
0.0
 10
177.1009823987924
 20
433.2220650747324
 30
0.0
 10
176.9430595843787
 20
433.6814179550281
 30
0.0
 10
176.8293859551601
 20
434.1510823644647
 30
0.0
 10
176.7608975493
 20
434.6285335971351
 30
0.0
 10
176.737904109227
 20
435.1094444144186
 30
0.0
 10
176.7608975493001
 20
435.5903552317022
 30
0.0
 10
176.8293859551602
 20
436.0678064643726
 30
0.0
 10
176.9430595843787
 20
436.5374708738092
 30
0.0
 10
177.1009823987924
 20
436.996823754105
 30
0.0
 10
177.3017456425261
 20
437.440949214279
 30
0.0
 10
177.5442619355138
 20
437.8681236719702
 30
0.0
 10
177.8258925899824
 20
438.2732697679588
 30
0.0
 10
178.1455367920898
 20
438.6552095124644
 30
0.0
 10
178.4994079257414
 20
439.0091721196583
 30
0.0
 10
178.8863518167057
 20
439.3342565915169
 30
0.0
 10
179.3017080848181
 20
439.6264009203898
 30
0.0
 10
179.7440919263601
 20
439.8847929861121
 30
0.0
 10
180.2083678873103
 20
440.1063422356103
 30
0.0
 10
180.6926823643336
 20
440.2902697774332
 30
0.0
 10
181.1918625229856
 20
440.43455015912
 30
0.0
 10
181.7033691750833
 20
440.5385211753301
 30
0.0
 10
182.2223886610913
 20
440.6011571798675
 30
0.0
 10
182.7455685768479
 20
440.6221063696747
 30
0.0
 10
183.2687484911724
 20
440.601157184948
 30
0.0
 10
183.7877679693032
 20
440.5385211802368
 30
0.0
 10
184.2992746151374
 20
440.4345501391289
 30
0.0
 10
184.7984547959792
 20
440.2902697540762
 30
0.0
 10
185.2827693304531
 20
440.1063423185557
 30
0.0
 10
185.7470451900162
 20
439.8847930852242
 30
0.0
 10
186.1894288605955
 20
439.6264005834308
 30
0.0
 10
186.6047849298708
 20
439.3342562813177
 30
0.0
 10
186.99173170012
 20
439.0091731660068
 30
0.0
 10
187.3455968077155
 20
438.6552111202335
 30
0.0
 10
187.6652546917142
 20
438.2732639133918
 30
0.0
 10
187.9468123901722
 20
437.8681278784171
 30
0.0
 10
188.1896309585487
 20
437.4409355442099
 30
0.0
 10
188.4549876548432
 20
436.8510578481198
 30
0.0
 10
188.6923934811001
 20
436.0738534458918
 30
0.0
 10
188.7278436446113
 20
435.4309122624981
 30
0.0
 10
188.7455685750907
 20
435.1094444144186
 30
0.0
 11
188.7455685750907
 21
435.1094444144186
 31
0.0
 11
188.6539097334088
 21
434.1507735976153
 31
0.0
 11
188.3837242998059
 21
433.2263913325916
 31
0.0
 11
188.1827471156407
 21
432.7813302094116
 31
0.0
 11
187.9417209977971
 21
432.3566049712254
 31
0.0
 11
187.6593792417884
 21
431.9501079999189
 31
0.0
 11
187.3418352338044
 21
431.5704622433367
 31
0.0
 11
186.9868219380799
 21
431.2150829046585
 31
0.0
 11
186.6022942332098
 21
430.8918496979047
 31
0.0
 11
186.1855615811581
 21
430.5985254535341
 31
0.0
 11
185.7455685750905
 21
430.3413866337284
 31
0.0
 11
185.2799903529148
 21
430.1190607957222
 31
0.0
 11
184.7976894350445
 21
429.9357985924645
 31
0.0
 11
184.2976032857153
 21
429.7911561071956
 31
0.0
 11
183.7874576410922
 21
429.6874091615097
 31
0.0
 11
183.2681910244394
 21
429.6246958297872
 31
0.0
 11
182.7455685750905
 21
429.6037655280321
 31
0.0
 11
182.2229461312957
 21
429.6246958335591
 31
0.0
 11
181.7036795090889
 21
429.6874091615098
 31
0.0
 11
181.1935338368783
 21
429.7911560959511
 31
0.0
 11
180.6934477151365
 21
429.9357985924646
 31
0.0
 11
180.211146900756
 21
430.119060836427
 31
0.0
 11
179.7455685750905
 21
430.3413866337285
 31
0.0
 11
179.3055751892158
 21
430.5985253045293
 31
0.0
 11
178.8888429169713
 21
430.8918496979048
 31
0.0
 11
178.5043165997588
 21
431.2150834489608
 31
0.0
 11
178.1493019163766
 21
431.5704622433368
 31
0.0
 11
177.8317528433446
 21
431.9501060132036
 31
0.0
 11
177.5494161523838
 21
432.3566049712255
 31
0.0
 11
177.3084085566108
 21
432.7813374745056
 31
0.0
 11
177.107412850375
 21
433.2263913325917
 31
0.0
 11
176.9503095434046
 21
433.6835426948326
 31
0.0
 11
176.8367220570171
 21
434.1533933089784
 31
0.0
 11
176.768459005272
 21
434.6292572039951
 31
0.0
 11
176.7455685750903
 21
435.1094444144185
 31
0.0
 11
176.7684590052721
 21
435.5896316248423
 31
0.0
 11
176.8367220570172
 21
436.065495519859
 31
0.0
 11
176.9503095434046
 21
436.5353461340048
 31
0.0
 11
177.107412850375
 21
436.9924974962457
 31
0.0
 11
177.3084085566107
 21
437.4375513543318
 31
0.0
 11
177.5494161523838
 21
437.8622838576118
 31
0.0
 11
177.8317528433446
 21
438.2687828156338
 31
0.0
 11
178.1493019163766
 21
438.6484265855006
 31
0.0
 11
178.5043165997588
 21
439.0038053798766
 31
0.0
 11
178.8888429169713
 21
439.3270391309326
 31
0.0
 11
179.3055751892158
 21
439.6203635243081
 31
0.0
 11
179.7455685750906
 21
439.8775021951088
 31
0.0
 11
180.211146900756
 21
440.0998279924103
 31
0.0
 11
180.6934477151366
 21
440.2830902363727
 31
0.0
 11
181.1935338368782
 21
440.4277327328863
 31
0.0
 11
181.7036795090889
 21
440.5314796673276
 31
0.0
 11
182.2229461312957
 21
440.5941929952783
 31
0.0
 11
182.7455685750905
 21
440.6151233008052
 31
0.0
 11
183.2681910244393
 21
440.5941929990501
 31
0.0
 11
183.7874576410921
 21
440.5314796673275
 31
0.0
 11
184.2976032857153
 21
440.4277327216417
 31
0.0
 11
184.7976894350446
 21
440.2830902363727
 31
0.0
 11
185.2799903529149
 21
440.0998280331151
 31
0.0
 11
185.7455685750906
 21
439.8775021951088
 31
0.0
 11
186.1855615811581
 21
439.6203633753032
 31
0.0
 11
186.6022942332098
 21
439.3270391309325
 31
0.0
 11
186.9868219380799
 21
439.0038059241788
 31
0.0
 11
187.3418352338044
 21
438.6484265855005
 31
0.0
 11
187.6593792417884
 21
438.2687808289184
 31
0.0
 11
187.9417209977971
 21
437.8622838576119
 31
0.0
 11
188.1827471156407
 21
437.4375586194258
 31
0.0
 11
188.3837242998059
 21
436.9924974962457
 31
0.0
 11
188.6539097334087
 21
436.068115231222
 31
0.0
 11
188.7455685750907
 21
435.1094444144186
 31
0.0
  0
SPLINE
  5
EF
330
3C
100
AcDbEntity
  8
1
  6
Continuous
 62
     7
100
AcDbSpline
210
0.0
220
0.0
230
1.0
 70
    11
 71
     3
 72
    75
 73
    71
 74
    69
 42
0.0000000001
 43
0.0000000001
 44
0.00000001
 40
0.0
 40
0.0
 40
0.0
 40
0.0
 40
0.5640726522233254
 40
1.130799280038564
 40
1.387286178810393
 40
1.643274615420991
 40
2.002014473880272
 40
2.361110864212644
 40
2.768203551063123
 40
3.175228077261177
 40
3.625301651420131
 40
4.07540878458736
 40
4.560205256269883
 40
5.045003486132019
 40
5.554033721553414
 40
6.06306895803572
 40
6.58453867481989
 40
7.106009360030252
 40
7.627480126060149
 40
8.148949734187786
 40
8.657984445072941
 40
9.167015289059917
 40
9.651815930560554
 40
10.13660968699076
 40
10.58670666129706
 40
11.03679152082206
 40
11.44385627423037
 40
11.85090457857994
 40
12.20984944295812
 40
12.5687554651892
 40
12.87932948757733
 40
13.18985187701054
 40
13.4591501793862
 40
13.72816751340423
 40
13.97265203020942
 40
14.21682625442095
 40
14.46100047863282
 40
14.70548499543722
 40
14.97450232945136
 40
15.24380063183167
 40
15.55432302128876
 40
15.86489704365124
 40
16.22380306575734
 40
16.58274793026463
 40
16.98979623521182
 40
17.39686098801374
 40
17.8469458448698
 40
18.29704282185849
 40
18.78183658955577
 40
19.26663721979348
 40
19.77566801847307
 40
20.28470277448074
 40
20.80617255687617
 40
21.32764314990255
 40
21.84911319290821
 40
22.37058354507326
 40
22.88342735712947
 40
23.3962653588558
 40
23.87725779756016
 40
24.35824332513487
 40
24.80833979194047
 40
25.25842485617484
 40
25.66548746599731
 40
26.07253924108025
 40
26.43149986358982
 40
26.79038497179386
 40
27.10087864871972
 40
27.41150068954734
 40
27.92350783074747
 40
28.43476884527582
 40
28.43476884527582
 40
28.43476884527582
 40
28.43476884527582
 10
176.7455685750904
 20
445.0687365579397
 30
0.0
 10
176.7714917038809
 20
445.2575784380966
 30
0.0
 10
176.8234599304154
 20
445.6361507040643
 30
0.0
 10
177.1025868474169
 20
446.0232662013181
 30
0.0
 10
177.352078778678
 20
446.2811871918224
 30
0.0
 10
177.5737226368895
 20
446.4698190312892
 30
0.0
 10
177.8382277556164
 20
446.6586015859006
 30
0.0
 10
178.1611129611896
 20
446.8500264762351
 30
0.0
 10
178.5115564447107
 20
447.0243529431859
 30
0.0
 10
178.9007598800482
 20
447.1865546671673
 30
0.0
 10
179.3122443244164
 20
447.33062309677
 30
0.0
 10
179.7557713326968
 20
447.4594303717281
 30
0.0
 10
180.2163554923356
 20
447.5689389192366
 30
0.0
 10
180.7008240730249
 20
447.6604479882901
 30
0.0
 10
181.196813592886
 20
447.7319213282121
 30
0.0
 10
181.7075311394173
 20
447.7835642745216
 30
0.0
 10
182.22406260463
 20
447.8146824020152
 30
0.0
 10
182.7455686061765
 20
447.8250230351994
 30
0.0
 10
183.2670745466347
 20
447.8146814780396
 30
0.0
 10
183.7836058197175
 20
447.7835638329128
 30
0.0
 10
184.294323655565
 20
447.7319239622655
 30
0.0
 10
184.7903140125412
 20
447.6604495715563
 30
0.0
 10
185.274780773154
 20
447.568930172525
 30
0.0
 10
185.7353618101404
 20
447.459425490741
 30
0.0
 10
186.178897326133
 20
447.3306510456096
 30
0.0
 10
186.5903943254148
 20
447.1865679342147
 30
0.0
 10
186.9795570046868
 20
447.0242690299423
 30
0.0
 10
187.3299744446462
 20
446.8499985763764
 30
0.0
 10
187.6529591216179
 20
446.6588320683822
 30
0.0
 10
187.9323957042951
 20
446.459369337289
 30
0.0
 10
188.1792841412358
 20
446.2446510187867
 30
0.0
 10
188.3800930469015
 20
446.0249803804834
 30
0.0
 10
188.5426093760636
 20
445.7923540880039
 30
0.0
 10
188.658542616917
 20
445.5571401792435
 30
0.0
 10
188.7290320733359
 20
445.3133122977
 30
0.0
 10
188.7538315757252
 20
445.0687365579396
 30
0.0
 10
188.7290320733336
 20
444.8241608181795
 30
0.0
 10
188.6585426169166
 20
444.5803329366374
 30
0.0
 10
188.5426093760703
 20
444.3451190278735
 30
0.0
 10
188.3800930468998
 20
444.1124927353885
 30
0.0
 10
188.179284141214
 20
443.8928220971022
 30
0.0
 10
187.9323957043157
 20
443.6781037786199
 30
0.0
 10
187.6529591216923
 20
443.4786410474634
 30
0.0
 10
187.3299744445209
 20
443.2874745394006
 30
0.0
 10
186.9795570044224
 20
443.1132040860265
 30
0.0
 10
186.590394326039
 20
442.9509051819749
 30
0.0
 10
186.1788973271064
 20
442.8068220701629
 30
0.0
 10
185.7353618073766
 20
442.6780476243712
 30
0.0
 10
185.2747807694493
 20
442.5685429427079
 30
0.0
 10
184.7903140239145
 20
442.4770235454118
 30
0.0
 10
184.2943236696275
 20
442.4055491602949
 30
0.0
 10
183.7836057771528
 20
442.3539092859963
 30
0.0
 10
183.2670744880466
 20
442.3227915975617
 30
0.0
 10
182.7455687725769
 20
442.3124500416876
 30
0.0
 10
182.2240627823685
 20
442.3227909208528
 30
0.0
 10
181.7062639438043
 20
442.353985380456
 30
0.0
 10
181.1930249846698
 20
442.4059598206072
 30
0.0
 10
180.6958099239054
 20
442.4778586664972
 30
0.0
 10
180.2126416688817
 20
442.5693950968556
 30
0.0
 10
179.7545555102326
 20
442.6783993171399
 30
0.0
 10
179.3122417685084
 20
442.8068292233239
 30
0.0
 10
178.9007468106325
 20
442.9509102511877
 30
0.0
 10
178.5115672708056
 20
443.1131793424966
 30
0.0
 10
178.1611605999402
 20
443.2874601572942
 30
0.0
 10
177.8381802102674
 20
443.4787166950257
 30
0.0
 10
177.5589184140374
 20
443.6781210848646
 30
0.0
 10
177.3113187344533
 20
443.8926615572993
 30
0.0
 10
177.0581390646081
 20
444.1721519337123
 30
0.0
 10
176.8087442212178
 20
444.5549631170314
 30
0.0
 10
176.7666168846036
 20
444.8975620141594
 30
0.0
 10
176.7455685750904
 20
445.0687365579397
 30
0.0
 11
176.7455685750904
 21
445.0687365579397
 31
0.0
 11
176.8670203464004
 21
445.6195790256489
 31
0.0
 11
177.1767043084873
 21
446.0942103713278
 31
0.0
 11
177.3551754720391
 21
446.2784210469741
 31
0.0
 11
177.5494161523837
 21
446.4451562795363
 31
0.0
 11
177.8408940792524
 21
446.6542851971822
 31
0.0
 11
178.1493019163764
 21
446.8382276434805
 31
0.0
 11
178.5134422058777
 21
447.0202339764722
 31
0.0
 11
178.8888429169711
 21
447.1775339161965
 31
0.0
 11
179.3134623172174
 21
447.3267471431261
 31
0.0
 11
179.7455685750903
 21
447.4527654482848
 31
0.0
 11
180.217136628019
 21
447.5652429589831
 31
0.0
 11
180.6934477151363
 21
447.6555594689166
 31
0.0
 11
181.1972459617156
 21
447.7283544365776
 31
0.0
 11
181.7036795090888
 21
447.779754184394
 31
0.0
 11
182.2242015686554
 21
447.8111779179019
 31
0.0
 11
182.7455685750903
 21
447.8215760011328
 31
0.0
 11
183.2669356485368
 21
447.811177224784
 31
0.0
 11
183.7874576410919
 21
447.7797541843941
 31
0.0
 11
184.2938908645281
 21
447.7283564501449
 31
0.0
 11
184.7976894350443
 21
447.6555594689167
 31
0.0
 11
185.2740016703908
 21
447.5652360696307
 31
0.0
 11
185.7455685750902
 21
447.4527654482848
 31
0.0
 11
186.1776709783294
 21
447.3267702126818
 31
0.0
 11
186.6022942332095
 21
447.1775339161966
 31
0.0
 11
186.9777073784096
 21
447.0201595730579
 31
0.0
 11
187.3418352338041
 21
446.8382276434807
 31
0.0
 11
187.6502044437943
 21
446.654516331925
 31
0.0
 11
187.9417209977968
 21
446.4451562795363
 31
0.0
 11
188.1751974813321
 21
446.2403516042519
 31
0.0
 11
188.3837242998056
 21
446.0102630988532
 31
0.0
 11
188.5368221767189
 21
445.7887171312819
 31
0.0
 11
188.6544150931634
 21
445.5467621106599
 31
0.0
 11
188.7218204395668
 21
445.3117531784175
 31
0.0
 11
188.7455685750902
 21
445.0687365579396
 31
0.0
 11
188.721820439565
 21
444.8257199374617
 31
0.0
 11
188.6544150931635
 21
444.5907110052195
 31
0.0
 11
188.5368221767253
 21
444.3487559845987
 31
0.0
 11
188.3837242998056
 21
444.1272100170262
 31
0.0
 11
188.1751974813035
 21
443.8971215116212
 31
0.0
 11
187.9417209977969
 21
443.6923168363431
 31
0.0
 11
187.650204443927
 21
443.4829567839839
 31
0.0
 11
187.3418352338041
 21
443.2992454723987
 31
0.0
 11
186.9777073778083
 21
443.117313542688
 31
0.0
 11
186.6022942332097
 21
442.9599391996828
 31
0.0
 11
186.1776709809536
 21
442.8107029037806
 31
0.0
 11
185.7455685750904
 21
442.6847076675947
 31
0.0
 11
185.2740016593908
 21
442.5722370438048
 31
0.0
 11
184.7976894350444
 21
442.4819136469626
 31
0.0
 11
184.2938909088823
 21
442.4091166755887
 31
0.0
 11
183.7874576410919
 21
442.3577189314851
 31
0.0
 11
183.2669354762624
 21
442.32629585282
 31
0.0
 11
182.7455685750904
 21
442.3158971147465
 31
0.0
 11
182.2242022138468
 21
442.3262953413233
 31
0.0
 11
181.7036795090889
 21
442.3577189314852
 31
0.0
 11
181.1934648922793
 21
442.4095824095619
 31
0.0
 11
180.685934626058
 21
442.4831748336556
 31
0.0
 11
180.2134104530507
 21
442.5730337898847
 31
0.0
 11
179.7455685750903
 21
442.6847076675946
 31
0.0
 11
179.3134682187368
 21
442.8107081099355
 31
0.0
 11
178.8888429169711
 21
442.9599391996829
 31
0.0
 11
178.5134239952742
 21
443.1172942172305
 31
0.0
 11
178.1493019163764
 21
443.2992454723988
 31
0.0
 11
177.840950468955
 21
443.4830173782647
 31
0.0
 11
177.5494161523837
 21
443.6923168363433
 31
0.0
 11
177.3158861064653
 21
443.8969385386729
 31
0.0
 11
177.1074128503749
 21
444.1272100170261
 31
0.0
 11
176.8459569090347
 21
444.567428262193
 31
0.0
 11
176.7455685750904
 21
445.0687365579397
 31
0.0
  0
SPLINE
  5
F0
330
3C
100
AcDbEntity
  8
1
  6
Continuous
 62
     7
100
AcDbSpline
210
0.0
220
0.0
230
1.0
 70
    11
 71
     3
 72
    75
 73
    71
 74
    69
 42
0.0000000001
 43
0.0000000001
 44
0.00000001
 40
0.0
 40
0.0
 40
0.0
 40
0.0
 40
0.84005877427775
 40
1.68017848751128
 40
2.117385750953963
 40
2.554623593097107
 40
3.008791693481786
 40
3.462987126694747
 40
3.935711179954665
 40
4.408461491064514
 40
4.899048321603255
 40
5.389652083412516
 40
5.895427918312615
 40
6.401215984156988
 40
6.917979539959329
 40
7.434749842529315
 40
7.957266983613113
 40
8.479786381114849
 40
9.002305767699482
 40
9.524822918765823
 40
10.04159326993207
 40
10.5583567805735
 40
11.06414469224892
 40
11.56992066672292
 40
12.06052487152525
 40
12.55111132010288
 40
13.02386051336976
 40
13.49658543510255
 40
13.9507829861707
 40
14.40494995988345
 40
14.84218750564266
 40
15.27939125444139
 40
15.70360263342338
 40
16.12778536027842
 40
16.54489442458855
 40
16.96199189029181
 40
17.37908935599504
 40
17.79619842030524
 40
18.22038114716028
 40
18.64459252614229
 40
19.081796274941
 40
19.51903382070015
 40
19.97320079441282
 40
20.42739834548089
 40
20.90012326721374
 40
21.37287246048065
 40
21.86345890905829
 40
22.35406311386061
 40
22.85983908833465
 40
23.36562700001008
 40
23.88239051065148
 40
24.3991608618177
 40
24.92167801288403
 40
25.44419739946867
 40
25.96671679697043
 40
26.48923393805423
 40
27.00600424062422
 40
27.52276779642659
 40
28.02855586227095
 40
28.53433169717112
 40
29.02493545898031
 40
29.51552228951906
 40
29.98827260062899
 40
30.4609966538888
 40
30.91519208710168
 40
31.36936018748644
 40
31.80659802962957
 40
32.24380529307222
 40
33.08392500630586
 40
33.92398378058356
 40
33.92398378058356
 40
33.92398378058356
 40
33.92398378058356
 10
176.7455685750901
 20
253.3575500689565
 30
0.0
 10
176.7636518866433
 20
253.0770003712747
 30
0.0
 10
176.7998198215365
 20
252.5158806244712
 30
0.0
 10
177.0392933724666
 20
251.8426362154806
 30
0.0
 10
177.3031816315813
 20
251.3354906148626
 30
0.0
 10
177.5470330316474
 20
250.9647442713443
 30
0.0
 10
177.8284505769244
 20
250.6146838750562
 30
0.0
 10
178.149093292533
 20
250.2834795506756
 30
0.0
 10
178.5024158329924
 20
249.9778717844778
 30
0.0
 10
178.8901584599296
 20
249.6962466695227
 30
0.0
 10
179.3046657345585
 20
249.4440880155715
 30
0.0
 10
179.7475319298487
 20
249.2204278910881
 30
0.0
 10
180.2108159822163
 20
249.0291859453531
 30
0.0
 10
180.6952548501076
 20
248.8701077346225
 30
0.0
 10
181.1934650415641
 20
248.7455177704104
 30
0.0
 10
181.7047381632349
 20
248.65566636644
 30
0.0
 10
182.222944818395
 20
248.6015354180299
 30
0.0
 10
182.7455685715749
 20
248.5834707061948
 30
0.0
 10
183.268192327335
 20
248.6015354350232
 30
0.0
 10
183.7863989977918
 20
248.6556663790122
 30
0.0
 10
184.2976721349173
 20
248.7455177119508
 30
0.0
 10
184.7958822829512
 20
248.8701076791186
 30
0.0
 10
185.2803210309338
 20
249.029186170517
 30
0.0
 10
185.7436052512291
 20
249.2204281091451
 30
0.0
 10
186.1864719021252
 20
249.4440871683059
 30
0.0
 10
186.6009793217488
 20
249.6962459801123
 30
0.0
 10
186.9887173517642
 20
249.9778745133164
 30
0.0
 10
187.3420471794359
 20
250.2834823659221
 30
0.0
 10
187.6626793252321
 20
250.6146722652587
 30
0.0
 10
187.9441792765587
 20
250.964747338637
 30
0.0
 10
188.1876743974073
 20
251.3354892835868
 30
0.0
 10
188.3886772548896
 20
251.7197366708246
 30
0.0
 10
188.5473134045025
 20
252.1186458342114
 30
0.0
 10
188.6613702661969
 20
252.5256217570226
 30
0.0
 10
188.7301122320737
 20
252.9402471929558
 30
0.0
 10
188.7532966391475
 20
253.3575500689565
 30
0.0
 10
188.7301122320738
 20
253.7748529449573
 30
0.0
 10
188.6613702661969
 20
254.1894783808903
 30
0.0
 10
188.5473134045025
 20
254.5964543037018
 30
0.0
 10
188.3886772548896
 20
254.9953634670886
 30
0.0
 10
188.1876743974072
 20
255.3796108543262
 30
0.0
 10
187.9441792765586
 20
255.7503527992761
 30
0.0
 10
187.6626793252322
 20
256.1004278726542
 30
0.0
 10
187.3420471794359
 20
256.4316177719908
 30
0.0
 10
186.9887173517643
 20
256.7372256245965
 30
0.0
 10
186.6009793217488
 20
257.0188541578008
 30
0.0
 10
186.1864719021253
 20
257.2710129696071
 30
0.0
 10
185.743605251229
 20
257.4946720287678
 30
0.0
 10
185.2803210309338
 20
257.6859139673961
 30
0.0
 10
184.7958822829512
 20
257.8449924587944
 30
0.0
 10
184.2976721349174
 20
257.9695824259622
 30
0.0
 10
183.7863989977917
 20
258.0594337589008
 30
0.0
 10
183.2681923273351
 20
258.1135647028898
 30
0.0
 10
182.7455685715749
 20
258.1316294317182
 30
0.0
 10
182.2229448183951
 20
258.1135647198831
 30
0.0
 10
181.7047381632348
 20
258.059433771473
 30
0.0
 10
181.1934650415641
 20
257.9695823675027
 30
0.0
 10
180.6952548501076
 20
257.8449924032906
 30
0.0
 10
180.2108159822163
 20
257.68591419256
 30
0.0
 10
179.7475319298487
 20
257.4946722468249
 30
0.0
 10
179.3046657345587
 20
257.2710121223415
 30
0.0
 10
178.8901584599295
 20
257.0188534683903
 30
0.0
 10
178.5024158329925
 20
256.7372283534351
 30
0.0
 10
178.149093292533
 20
256.4316205872373
 30
0.0
 10
177.8284505769245
 20
256.1004162628569
 30
0.0
 10
177.5470330316474
 20
255.7503558665686
 30
0.0
 10
177.3031816315814
 20
255.3796095230504
 30
0.0
 10
177.0392933724664
 20
254.8724639224324
 30
0.0
 10
176.7998198215366
 20
254.1992195134418
 30
0.0
 10
176.7636518866433
 20
253.6380997666383
 30
0.0
 10
176.7455685750901
 20
253.3575500689565
 30
0.0
 11
176.7455685750901
 21
253.3575500689565
 31
0.0
 11
176.8382802316488
 21
252.5226229505928
 31
0.0
 11
177.1074128503746
 21
251.7267782634198
 31
0.0
 11
177.3096536037585
 21
251.3391587736135
 31
0.0
 11
177.5494161523834
 21
250.9735211786114
 31
0.0
 11
177.8336739847686
 21
250.6193091684611
 31
0.0
 11
178.1493019163762
 21
250.2927016052593
 31
0.0
 11
178.5065623173387
 21
249.9831324911109
 31
0.0
 11
178.8888429169708
 21
249.7050059015886
 31
0.0
 11
179.3077858336541
 21
249.4497368849434
 31
0.0
 11
179.7455685750901
 21
249.2282909041667
 31
0.0
 11
180.2129776294203
 21
249.0350605465647
 31
0.0
 11
180.693447715136
 21
248.8770413569611
 31
0.0
 11
181.1947328758424
 21
248.7515114391686
 31
0.0
 11
181.7036795090884
 21
248.6619297997226
 31
0.0
 11
182.2233623267942
 21
248.6075797150141
 31
0.0
 11
182.74556857509
 21
248.5894922882663
 31
0.0
 11
183.2677748120231
 21
248.6075797276905
 31
0.0
 11
183.7874576410916
 21
248.6619297997227
 31
0.0
 11
184.2964043302763
 21
248.7515114016975
 31
0.0
 11
184.797689435044
 21
248.8770413569611
 31
0.0
 11
185.2781593146447
 21
249.0350606798097
 31
0.0
 11
185.74556857509
 21
249.2282909041667
 31
0.0
 11
186.1833520532738
 21
249.4497364098765
 31
0.0
 11
186.6022942332092
 21
249.7050059015886
 31
0.0
 11
186.9845722292169
 21
249.9831341696644
 31
0.0
 11
187.3418352338038
 21
250.2927016052593
 31
0.0
 11
187.6574723201536
 21
250.6193032664873
 31
0.0
 11
187.9417209977966
 21
250.9735211786115
 31
0.0
 11
188.1814512852704
 21
251.3391795720462
 31
0.0
 11
188.3837242998054
 21
251.7267782634199
 31
0.0
 11
188.540260545977
 21
252.1210518964367
 31
0.0
 11
188.6544150931632
 21
252.5295855243291
 31
0.0
 11
188.7225842026627
 21
252.9410863676329
 31
0.0
 11
188.74556857509
 21
253.3575500689565
 31
0.0
 11
188.7225842026628
 21
253.7740137702802
 31
0.0
 11
188.6544150931632
 21
254.185514613584
 31
0.0
 11
188.540260545977
 21
254.5940482414763
 31
0.0
 11
188.3837242998054
 21
254.9883218744932
 31
0.0
 11
188.1814512852703
 21
255.3759205658668
 31
0.0
 11
187.9417209977966
 21
255.7415789593016
 31
0.0
 11
187.6574723201536
 21
256.0957968714257
 31
0.0
 11
187.3418352338038
 21
256.4223985326536
 31
0.0
 11
186.9845722292169
 21
256.7319659682486
 31
0.0
 11
186.6022942332092
 21
257.0100942363244
 31
0.0
 11
186.1833520532738
 21
257.2653637280365
 31
0.0
 11
185.74556857509
 21
257.4868092337462
 31
0.0
 11
185.2781593146446
 21
257.6800394581032
 31
0.0
 11
184.797689435044
 21
257.8380587809519
 31
0.0
 11
184.2964043302763
 21
257.9635887362155
 31
0.0
 11
183.7874576410916
 21
258.0531703381903
 31
0.0
 11
183.2677748120232
 21
258.1075204102225
 31
0.0
 11
182.74556857509
 21
258.1256078496467
 31
0.0
 11
182.2233623267942
 21
258.1075204228989
 31
0.0
 11
181.7036795090884
 21
258.0531703381904
 31
0.0
 11
181.1947328758424
 21
257.9635886987445
 31
0.0
 11
180.693447715136
 21
257.8380587809519
 31
0.0
 11
180.2129776294203
 21
257.6800395913484
 31
0.0
 11
179.74556857509
 21
257.4868092337463
 31
0.0
 11
179.3077858336541
 21
257.2653632529695
 31
0.0
 11
178.8888429169708
 21
257.0100942363244
 31
0.0
 11
178.5065623173386
 21
256.731967646802
 31
0.0
 11
178.1493019163762
 21
256.4223985326537
 31
0.0
 11
177.8336739847687
 21
256.0957909694519
 31
0.0
 11
177.5494161523834
 21
255.7415789593016
 31
0.0
 11
177.3096536037585
 21
255.3759413642995
 31
0.0
 11
177.1074128503746
 21
254.9883218744932
 31
0.0
 11
176.8382802316488
 21
254.1924771873202
 31
0.0
 11
176.7455685750901
 21
253.3575500689565
 31
0.0
  0
SPLINE
  5
F1
330
3C
100
AcDbEntity
  8
1
  6
Continuous
 62
     7
100
AcDbSpline
210
0.0
220
0.0
230
1.0
 70
     8
 71
     3
 72
    65
 73
    61
 74
    59
 42
0.0000000001
 43
0.0000000001
 44
0.00000001
 40
0.0
 40
0.0
 40
0.0
 40
0.0
 40
0.1463713390985865
 40
0.2927397083536563
 40
0.8095032641560114
 40
1.32627356672598
 40
1.84879070780978
 40
2.371310105311518
 40
2.893829491896154
 40
3.416346642962497
 40
3.933116994128752
 40
4.449880504770197
 40
4.955668416445608
 40
5.461444390919619
 40
5.952048595721935
 40
6.44263504429952
 40
6.915384237566401
 40
7.38810915929927
 40
7.842306710367357
 40
8.296473684079999
 40
8.733711229839228
 40
9.170914978637988
 40
9.59512635761995
 40
10.01930908447502
 40
10.4364181487852
 40
10.85351561448841
 40
11.27061308019161
 40
11.68772214450192
 40
12.11190487135704
 40
12.5361162503389
 40
12.97331999913768
 40
13.41055754489683
 40
13.86472451860948
 40
14.31892206967755
 40
14.7916469914104
 40
15.26439618467732
 40
15.75498263325492
 40
16.24558683805726
 40
16.75136281253132
 40
17.25715072420672
 40
17.77391423484812
 40
18.29068458601434
 40
18.81320173708068
 40
19.33572112366531
 40
19.85824052116708
 40
20.38075766225088
 40
20.89752796482087
 40
21.41429152062323
 40
21.92007958646758
 40
22.42585542136774
 40
22.91645918317692
 40
23.40704601371567
 40
23.87979632482553
 40
24.35252037808543
 40
24.80671581129835
 40
25.26088391168311
 40
25.69812175382624
 40
26.13532901726888
 40
26.97544873050244
 40
27.81550750478025
 40
27.81550750478025
 40
27.81550750478025
 40
27.81550750478025
 10
180.4140052648936
 20
269.2508859952917
 30
0.0
 10
180.4603632525911
 20
269.2661060322325
 30
0.0
 10
180.5530782873925
 20
269.296545797303
 30
0.0
 10
180.8115964799946
 20
269.37393922641
 30
0.0
 10
181.1934598829407
 20
269.4696376856732
 30
0.0
 10
181.7047395626142
 20
269.5594187653173
 30
0.0
 10
182.2229444416788
 20
269.6135687595759
 30
0.0
 10
182.7455686725186
 20
269.6316283492548
 30
0.0
 10
183.2681923002773
 20
269.6135649930415
 30
0.0
 10
183.7863990049535
 20
269.5594336821023
 30
0.0
 10
184.297672133006
 20
269.4695824464584
 30
0.0
 10
184.7958822834513
 20
269.3449924534316
 30
0.0
 10
185.2803210308008
 20
269.1859139688212
 30
0.0
 10
185.7436052512636
 20
268.9946720283984
 30
0.0
 10
186.1864719021161
 20
268.7710129697047
 30
0.0
 10
186.6009793217511
 20
268.5188541577756
 30
0.0
 10
186.9887173517636
 20
268.2372256246031
 30
0.0
 10
187.342047179436
 20
267.9316177719891
 30
0.0
 10
187.6626793252321
 20
267.6004278726547
 30
0.0
 10
187.9441792765586
 20
267.2503527992759
 30
0.0
 10
188.1876743974073
 20
266.8796108543263
 30
0.0
 10
188.3886772548895
 20
266.4953634670885
 30
0.0
 10
188.5473134045026
 20
266.0964543037017
 30
0.0
 10
188.6613702661969
 20
265.6894783808904
 30
0.0
 10
188.7301122320737
 20
265.2748529449572
 30
0.0
 10
188.7532966391476
 20
264.8575500689565
 30
0.0
 10
188.7301122320737
 20
264.4402471929557
 30
0.0
 10
188.6613702661969
 20
264.0256217570225
 30
0.0
 10
188.5473134045025
 20
263.6186458342112
 30
0.0
 10
188.3886772548895
 20
263.2197366708243
 30
0.0
 10
188.1876743974071
 20
262.8354892835866
 30
0.0
 10
187.9441792765586
 20
262.4647473386369
 30
0.0
 10
187.6626793252322
 20
262.1146722652586
 30
0.0
 10
187.3420471794359
 20
261.7834823659221
 30
0.0
 10
186.9887173517643
 20
261.4778745133166
 30
0.0
 10
186.6009793217488
 20
261.1962459801122
 30
0.0
 10
186.1864719021252
 20
260.9440871683059
 30
0.0
 10
185.7436052512291
 20
260.7204281091453
 30
0.0
 10
185.2803210309338
 20
260.5291861705168
 30
0.0
 10
184.7958822829512
 20
260.3701076791187
 30
0.0
 10
184.2976721349173
 20
260.2455177119508
 30
0.0
 10
183.7863989977918
 20
260.1556663790123
 30
0.0
 10
183.268192327335
 20
260.1015354350231
 30
0.0
 10
182.745568571575
 20
260.0834707061949
 30
0.0
 10
182.222944818395
 20
260.1015354180298
 30
0.0
 10
181.7047381632349
 20
260.1556663664401
 30
0.0
 10
181.1934650415641
 20
260.2455177704104
 30
0.0
 10
180.6952548501075
 20
260.3701077346224
 30
0.0
 10
180.2108159822163
 20
260.5291859453531
 30
0.0
 10
179.7475319298487
 20
260.720427891088
 30
0.0
 10
179.3046657345586
 20
260.9440880155716
 30
0.0
 10
178.8901584599296
 20
261.1962466695227
 30
0.0
 10
178.5024158329924
 20
261.4778717844778
 30
0.0
 10
178.1490932925331
 20
261.7834795506756
 30
0.0
 10
177.8284505769245
 20
262.1146838750561
 30
0.0
 10
177.5470330316474
 20
262.4647442713444
 30
0.0
 10
177.3031816315813
 20
262.8354906148625
 30
0.0
 10
177.0392933724665
 20
263.3426362154805
 30
0.0
 10
176.7998198215365
 20
264.0158806244712
 30
0.0
 10
176.7636518866433
 20
264.5770003712747
 30
0.0
 10
176.7455685750901
 20
264.8575500689565
 30
0.0
 11
180.4140052648936
 21
269.2508859952917
 31
0.0
 11
180.553272380292
 21
269.2959330759753
 31
0.0
 11
180.693447715136
 21
269.3380587809518
 31
0.0
 11
181.1947328758425
 21
269.4635886987444
 31
0.0
 11
181.7036795090884
 21
269.5531703381904
 31
0.0
 11
182.2233623267942
 21
269.6075204228989
 31
0.0
 11
182.74556857509
 21
269.6256078496467
 31
0.0
 11
183.2677748120231
 21
269.6075204102225
 31
0.0
 11
183.7874576410916
 21
269.5531703381903
 31
0.0
 11
184.2964043302763
 21
269.4635887362154
 31
0.0
 11
184.797689435044
 21
269.3380587809517
 31
0.0
 11
185.2781593146447
 21
269.1800394581031
 31
0.0
 11
185.74556857509
 21
268.9868092337461
 31
0.0
 11
186.1833520532738
 21
268.7653637280364
 31
0.0
 11
186.6022942332092
 21
268.5100942363243
 31
0.0
 11
186.9845722292169
 21
268.2319659682486
 31
0.0
 11
187.3418352338038
 21
267.9223985326535
 31
0.0
 11
187.6574723201536
 21
267.5957968714256
 31
0.0
 11
187.9417209977966
 21
267.2415789593016
 31
0.0
 11
188.1814512852704
 21
266.8759205658668
 31
0.0
 11
188.3837242998054
 21
266.4883218744931
 31
0.0
 11
188.540260545977
 21
266.0940482414763
 31
0.0
 11
188.6544150931632
 21
265.6855146135839
 31
0.0
 11
188.7225842026627
 21
265.2740137702801
 31
0.0
 11
188.74556857509
 21
264.8575500689565
 31
0.0
 11
188.7225842026628
 21
264.4410863676329
 31
0.0
 11
188.6544150931632
 21
264.0295855243289
 31
0.0
 11
188.540260545977
 21
263.6210518964365
 31
0.0
 11
188.3837242998054
 21
263.2267782634198
 31
0.0
 11
188.1814512852703
 21
262.8391795720461
 31
0.0
 11
187.9417209977966
 21
262.4735211786114
 31
0.0
 11
187.6574723201536
 21
262.1193032664873
 31
0.0
 11
187.3418352338038
 21
261.7927016052594
 31
0.0
 11
186.9845722292169
 21
261.4831341696644
 31
0.0
 11
186.6022942332092
 21
261.2050059015886
 31
0.0
 11
186.1833520532738
 21
260.9497364098765
 31
0.0
 11
185.74556857509
 21
260.7282909041667
 31
0.0
 11
185.2781593146446
 21
260.5350606798097
 31
0.0
 11
184.797689435044
 21
260.3770413569611
 31
0.0
 11
184.2964043302763
 21
260.2515114016975
 31
0.0
 11
183.7874576410916
 21
260.1619297997227
 31
0.0
 11
183.2677748120232
 21
260.1075797276905
 31
0.0
 11
182.74556857509
 21
260.0894922882663
 31
0.0
 11
182.2233623267942
 21
260.1075797150141
 31
0.0
 11
181.7036795090884
 21
260.1619297997226
 31
0.0
 11
181.1947328758424
 21
260.2515114391686
 31
0.0
 11
180.693447715136
 21
260.3770413569611
 31
0.0
 11
180.2129776294203
 21
260.5350605465646
 31
0.0
 11
179.74556857509
 21
260.7282909041667
 31
0.0
 11
179.3077858336541
 21
260.9497368849434
 31
0.0
 11
178.8888429169708
 21
261.2050059015886
 31
0.0
 11
178.5065623173386
 21
261.4831324911108
 31
0.0
 11
178.1493019163762
 21
261.7927016052593
 31
0.0
 11
177.8336739847687
 21
262.1193091684611
 31
0.0
 11
177.5494161523834
 21
262.4735211786114
 31
0.0
 11
177.3096536037585
 21
262.8391587736135
 31
0.0
 11
177.1074128503746
 21
263.2267782634198
 31
0.0
 11
176.8382802316488
 21
264.0226229505927
 31
0.0
 11
176.7455685750901
 21
264.8575500689565
 31
0.0
  0
ENDBLK
  5
3E
330
3C
100
AcDbEntity
  8
0
100
AcDbBlockEnd
  0
BLOCK
  5
42
330
3F
100
AcDbEntity
  8
0
100
AcDbBlockBegin
  2
B41A-24-13__3
 70
     0
 71
     0
 10
585.2455685750899
 20
457.607550068956
 30
0.0
  3
B41A-24-13__3
  1

  0
INSERT
  5
40
330
3F
100
AcDbEntity
  8
0
100
AcDbBlockReference
  2
B41A-24-1__1
 10
450.8526093743659
 20
217.9038074808955
 30
0.0
  0
INSERT
  5
41
330
3F
100
AcDbEntity
  8
0
100
AcDbBlockReference
  2
B41A-24-1__2
 10
450.8526093743659
 20
217.9038074808955
 30
0.0
  0
LINE
  5
F2
330
3F
100
AcDbEntity
  8
0
  6
PHANTOM
 62
     4
100
AcDbLine
 10
-7.51664131391072
 20
376.1088000689556
 30
0.0
 11
12.65252716724729
 21
376.1088000689556
 31
0.0
  0
ENDBLK
  5
43
330
3F
100
AcDbEntity
  8
0
100
AcDbBlockEnd
  0
BLOCK
  5
45
330
44
100
AcDbEntity
  8
0
100
AcDbBlockBegin
  2
B41A-24-1__4
 70
     0
 71
     0
 10
-7.95817401297037
 20
615.7145908682322
 30
0.0
  3
B41A-24-1__4
  1

  0
LINE
  5
F3
330
44
100
AcDbEntity
  8
0
  6
Continuous
 62
     7
100
AcDbLine
 10
117.745568575091
 20
446.6088000689563
 30
0.0
 11
117.7455685750909
 21
435.9996984190535
 31
0.0
  0
LINE
  5
F4
330
44
100
AcDbEntity
  8
0
  6
Continuous
 62
     7
100
AcDbLine
 10
129.7455685750907
 20
446.6088000689563
 30
0.0
 11
129.7455685750908
 21
437.447444880259
 31
0.0
  0
LINE
  5
F5
330
44
100
AcDbEntity
  8
0
  6
Continuous
 62
     7
100
AcDbLine
 10
117.7455685750909
 20
435.9996984190535
 30
0.0
 11
117.745568575091
 21
423.6088000689563
 31
0.0
  0
LINE
  5
F6
330
44
100
AcDbEntity
  8
0
  6
Continuous
 62
     7
100
AcDbLine
 10
129.7455685750908
 20
437.447444880259
 30
0.0
 11
129.7455685750907
 21
425.1495079254351
 31
0.0
  0
LINE
  5
F7
330
44
100
AcDbEntity
  8
0
  6
Continuous
 62
     7
100
AcDbLine
 10
129.7455685750907
 20
425.1495079254351
 30
0.0
 11
129.7455685750907
 21
423.6088000689563
 31
0.0
  0
ARC
  5
F8
330
44
100
AcDbEntity
  8
0
  6
Continuous
 62
     7
100
AcDbCircle
 10
123.7455685750907
 20
432.8338000689563
 30
0.0
 40
15.02500000000003
100
AcDbArc
 50
66.46342213595881
 51
113.5365778640402
  0
ARC
  5
F9
330
44
100
AcDbEntity
  8
0
  6
Continuous
 62
     7
100
AcDbCircle
 10
123.7455685750907
 20
437.3838000689562
 30
0.0
 40
15.02499999999976
100
AcDbArc
 50
-113.5365778640405
 51
-66.46342213595855
  0
SPLINE
  5
FA
330
44
100
AcDbEntity
  8
1
  6
Continuous
 62
     7
100
AcDbSpline
210
0.0
220
0.0
230
1.0
 70
    11
 71
     3
 72
    75
 73
    71
 74
    69
 42
0.0000000001
 43
0.0000000001
 44
0.00000001
 40
0.0
 40
0.0
 40
0.0
 40
0.0
 40
0.564072652223276
 40
1.130799280038547
 40
1.387286178810316
 40
1.643274615420899
 40
2.002014473880147
 40
2.361110864212602
 40
2.76820355106308
 40
3.175228077261117
 40
3.625301651420119
 40
4.075408784587312
 40
4.560205256269739
 40
5.045003486131927
 40
5.554033721553316
 40
6.063068958035673
 40
6.584538674819839
 40
7.106009360030229
 40
7.62748012606011
 40
8.148949734187733
 40
8.657984445072893
 40
9.167015289059883
 40
9.651815930560426
 40
10.13660968699068
 40
10.58670666129697
 40
11.03679152082197
 40
11.44385627423026
 40
11.85090457857985
 40
12.20984944295805
 40
12.56875546518918
 40
12.87932948757728
 40
13.18985187701049
 40
13.45915017938621
 40
13.72816751340411
 40
13.97265203020936
 40
14.21682625442083
 40
14.46100047863275
 40
14.70548499543716
 40
14.97450232945121
 40
15.24380063183153
 40
15.5543230212886
 40
15.8648970436511
 40
16.22380306575714
 40
16.58274793026443
 40
16.98979623521169
 40
17.39686098801358
 40
17.84694584486963
 40
18.29704282185831
 40
18.78183658955558
 40
19.26663721979331
 40
19.77566801847291
 40
20.28470277448055
 40
20.806172556876
 40
21.32764314990233
 40
21.84911319290799
 40
22.37058354507304
 40
22.88342735712924
 40
23.39626535885554
 40
23.87725779755994
 40
24.35824332513466
 40
24.80833979194029
 40
25.25842485617464
 40
25.66548746599709
 40
26.07253924108
 40
26.43149986358951
 40
26.79038497179366
 40
27.10087864871954
 40
27.41150068954711
 40
27.92350783074722
 40
28.43476884527563
 40
28.43476884527563
 40
28.43476884527563
 40
28.43476884527563
 10
129.7455685750907
 20
445.0680922124774
 30
0.0
 10
129.7196454463002
 20
445.2569340926342
 30
0.0
 10
129.6676772197657
 20
445.635506358602
 30
0.0
 10
129.3885503027642
 20
446.0226218558555
 30
0.0
 10
129.1390583715032
 20
446.2805428463601
 30
0.0
 10
128.9174145132917
 20
446.4691746858267
 30
0.0
 10
128.6529093945647
 20
446.6579572404381
 30
0.0
 10
128.3300241889915
 20
446.8493821307728
 30
0.0
 10
127.9795807054705
 20
447.023708597724
 30
0.0
 10
127.5903772701329
 20
447.1859103217047
 30
0.0
 10
127.1788928257646
 20
447.3299787513078
 30
0.0
 10
126.7353658174845
 20
447.4587860262656
 30
0.0
 10
126.2747816578455
 20
447.5682945737743
 30
0.0
 10
125.7903130771563
 20
447.6598036428277
 30
0.0
 10
125.2943235572952
 20
447.7312769827499
 30
0.0
 10
124.7836060107638
 20
447.7829199290594
 30
0.0
 10
124.2670745455511
 20
447.8140380565528
 30
0.0
 10
123.7455685440047
 20
447.8243786897369
 30
0.0
 10
123.2240626035463
 20
447.8140371325773
 30
0.0
 10
122.7075313304636
 20
447.7829194874504
 30
0.0
 10
122.1968134946161
 20
447.731279616803
 30
0.0
 10
121.7008231376399
 20
447.6598052260939
 30
0.0
 10
121.2163563770271
 20
447.5682858270626
 30
0.0
 10
120.7557753400407
 20
447.4587811452784
 30
0.0
 10
120.3122398240482
 20
447.3300067001474
 30
0.0
 10
119.9007428247664
 20
447.1859235887523
 30
0.0
 10
119.5115801454943
 20
447.0236246844798
 30
0.0
 10
119.161162705535
 20
446.8493542309142
 30
0.0
 10
118.8381780285632
 20
446.6581877229196
 30
0.0
 10
118.558741445886
 20
446.4587249918267
 30
0.0
 10
118.3118530089453
 20
446.2440066733244
 30
0.0
 10
118.1110441032795
 20
446.024336035021
 30
0.0
 10
117.9485277741177
 20
445.7917097425412
 30
0.0
 10
117.8325945332642
 20
445.5564958337811
 30
0.0
 10
117.7621050768453
 20
445.3126679522378
 30
0.0
 10
117.737305574456
 20
445.068092212477
 30
0.0
 10
117.7621050768476
 20
444.8235164727171
 30
0.0
 10
117.8325945332647
 20
444.5796885911751
 30
0.0
 10
117.948527774111
 20
444.3444746824112
 30
0.0
 10
118.1110441032813
 20
444.1118483899261
 30
0.0
 10
118.3118530089671
 20
443.89217775164
 30
0.0
 10
118.5587414458656
 20
443.6774594331575
 30
0.0
 10
118.8381780284888
 20
443.4779967020011
 30
0.0
 10
119.1611627056604
 20
443.2868301939383
 30
0.0
 10
119.5115801457588
 20
443.1125597405641
 30
0.0
 10
119.9007428241421
 20
442.9502608365125
 30
0.0
 10
120.3122398230748
 20
442.8061777247007
 30
0.0
 10
120.7557753428045
 20
442.6774032789086
 30
0.0
 10
121.216356380732
 20
442.5678985972455
 30
0.0
 10
121.7008231262666
 20
442.4763791999497
 30
0.0
 10
122.1968134805537
 20
442.4049048148325
 30
0.0
 10
122.7075313730283
 20
442.353264940534
 30
0.0
 10
123.2240626621346
 20
442.3221472520993
 30
0.0
 10
123.7455683776043
 20
442.3118056962253
 30
0.0
 10
124.2670743678126
 20
442.3221465753904
 30
0.0
 10
124.7848732063769
 20
442.3533410349937
 30
0.0
 10
125.2981121655113
 20
442.4053154751449
 30
0.0
 10
125.7953272262757
 20
442.4772143210348
 30
0.0
 10
126.2784954812995
 20
442.5687507513932
 30
0.0
 10
126.7365816399485
 20
442.6777549716776
 30
0.0
 10
127.1788953816727
 20
442.8061848778616
 30
0.0
 10
127.5903903395486
 20
442.9502659057253
 30
0.0
 10
127.9795698793755
 20
443.1125349970345
 30
0.0
 10
128.329976550241
 20
443.2868158118316
 30
0.0
 10
128.6529569399137
 20
443.4780723495633
 30
0.0
 10
128.9322187361437
 20
443.6774767394023
 30
0.0
 10
129.1798184157278
 20
443.8920172118369
 30
0.0
 10
129.4329980855731
 20
444.1715075882501
 30
0.0
 10
129.6823929289633
 20
444.5543187715691
 30
0.0
 10
129.7245202655775
 20
444.896917668697
 30
0.0
 10
129.7455685750907
 20
445.0680922124774
 30
0.0
 11
129.7455685750907
 21
445.0680922124774
 31
0.0
 11
129.6241168037807
 21
445.6189346801865
 31
0.0
 11
129.3144328416938
 21
446.0935660258655
 31
0.0
 11
129.1359616781421
 21
446.2777767015118
 31
0.0
 11
128.9417209977974
 21
446.4445119340739
 31
0.0
 11
128.6502430709288
 21
446.6536408517197
 31
0.0
 11
128.3418352338047
 21
446.8375832980182
 31
0.0
 11
127.9776949443035
 21
447.01958963101
 31
0.0
 11
127.60229423321
 21
447.1768895707342
 31
0.0
 11
127.1776748329637
 21
447.3261027976636
 31
0.0
 11
126.7455685750908
 21
447.4521211028225
 31
0.0
 11
126.2740005221622
 21
447.5645986135207
 31
0.0
 11
125.7976894350449
 21
447.6549151234543
 31
0.0
 11
125.2938911884656
 21
447.7277100911153
 31
0.0
 11
124.7874576410923
 21
447.7791098389317
 31
0.0
 11
124.2669355815258
 21
447.8105335724396
 31
0.0
 11
123.7455685750908
 21
447.8209316556703
 31
0.0
 11
123.2242015016443
 21
447.8105328793216
 31
0.0
 11
122.7036795090893
 21
447.7791098389317
 31
0.0
 11
122.1972462856531
 21
447.7277121046825
 31
0.0
 11
121.6934477151369
 21
447.6549151234543
 31
0.0
 11
121.2171354797904
 21
447.5645917241683
 31
0.0
 11
120.7455685750909
 21
447.4521211028224
 31
0.0
 11
120.3134661718518
 21
447.3261258672195
 31
0.0
 11
119.8888429169716
 21
447.1768895707342
 31
0.0
 11
119.5134297717716
 21
447.0195152275955
 31
0.0
 11
119.1493019163771
 21
446.8375832980183
 31
0.0
 11
118.8409327063869
 21
446.6538719864626
 31
0.0
 11
118.5494161523843
 21
446.4445119340739
 31
0.0
 11
118.315939668849
 21
446.2397072587895
 31
0.0
 11
118.1074128503755
 21
446.0096187533908
 31
0.0
 11
117.9543149734623
 21
445.7880727858195
 31
0.0
 11
117.8367220570178
 21
445.5461177651975
 31
0.0
 11
117.7693167106145
 21
445.311108832955
 31
0.0
 11
117.745568575091
 21
445.0680922124773
 31
0.0
 11
117.7693167106162
 21
444.8250755919992
 31
0.0
 11
117.8367220570177
 21
444.5900666597571
 31
0.0
 11
117.954314973456
 21
444.3481116391364
 31
0.0
 11
118.1074128503755
 21
444.1265656715639
 31
0.0
 11
118.3159396688776
 21
443.8964771661588
 31
0.0
 11
118.5494161523843
 21
443.6916724908807
 31
0.0
 11
118.8409327062542
 21
443.4823124385216
 31
0.0
 11
119.1493019163771
 21
443.2986011269364
 31
0.0
 11
119.5134297723729
 21
443.1166691972256
 31
0.0
 11
119.8888429169715
 21
442.9592948542205
 31
0.0
 11
120.3134661692276
 21
442.8100585583183
 31
0.0
 11
120.7455685750908
 21
442.6840633221323
 31
0.0
 11
121.2171354907904
 21
442.5715926983424
 31
0.0
 11
121.6934477151368
 21
442.4812693015003
 31
0.0
 11
122.1972462412989
 21
442.4084723301264
 31
0.0
 11
122.7036795090893
 21
442.3570745860228
 31
0.0
 11
123.2242016739188
 21
442.3256515073576
 31
0.0
 11
123.7455685750908
 21
442.3152527692841
 31
0.0
 11
124.2669349363344
 21
442.3256509958609
 31
0.0
 11
124.7874576410923
 21
442.3570745860229
 31
0.0
 11
125.2976722579018
 21
442.4089380640995
 31
0.0
 11
125.8052025241231
 21
442.4825304881932
 31
0.0
 11
126.2777266971304
 21
442.5723894444224
 31
0.0
 11
126.7455685750908
 21
442.6840633221323
 31
0.0
 11
127.1776689314443
 21
442.8100637644731
 31
0.0
 11
127.6022942332101
 21
442.9592948542205
 31
0.0
 11
127.9777131549069
 21
443.1166498717682
 31
0.0
 11
128.3418352338047
 21
443.2986011269364
 31
0.0
 11
128.6501866812261
 21
443.4823730328023
 31
0.0
 11
128.9417209977974
 21
443.6916724908809
 31
0.0
 11
129.1752510437158
 21
443.8962941932106
 31
0.0
 11
129.3837242998062
 21
444.1265656715638
 31
0.0
 11
129.6451802411464
 21
444.5667839167306
 31
0.0
 11
129.7455685750907
 21
445.0680922124774
 31
0.0
  0
SPLINE
  5
FB
330
44
100
AcDbEntity
  8
1
  6
Continuous
 62
     7
100
AcDbSpline
210
0.0
220
0.0
230
1.0
 70
    11
 71
     3
 72
    75
 73
    71
 74
    69
 42
0.0000000001
 43
0.0000000001
 44
0.00000001
 40
0.0
 40
0.0
 40
0.0
 40
0.0
 40
0.9630426149703317
 40
1.926101668414916
 40
2.414436831925785
 40
2.90278621242606
 40
3.397717172123924
 40
3.892656660846998
 40
4.394980176622035
 40
4.897315982394361
 40
5.40692879190925
 40
5.916550433953052
 40
6.432488278280735
 40
6.948433246781598
 40
7.469017154807622
 40
7.989605290925958
 40
8.512645233134689
 40
9.035686629292819
 40
9.558728020052197
 40
10.08176796732262
 40
10.60235612823416
 40
11.12294001288322
 40
11.63888489910105
 40
12.15482281927676
 40
12.66444471405235
 40
13.17405729874699
 40
13.67639239253476
 40
14.17871650394996
 40
14.67365771842113
 40
15.16858742043499
 40
15.65693397828394
 40
16.14527014377071
 40
16.62866316922697
 40
17.112048850311
 40
17.59278400693475
 40
18.07351649891786
 40
18.55424899090109
 40
19.03498414752478
 40
19.51836982860874
 40
20.00176285406499
 40
20.49009901955192
 40
20.97844557740085
 40
21.47337527941475
 40
21.96831649388584
 40
22.47064060530105
 40
22.97297569908879
 40
23.48258828378353
 40
23.99221017855918
 40
24.50814809873483
 40
25.02409298495261
 40
25.54467686960168
 40
26.06526503051318
 40
26.58830497778358
 40
27.11134636854295
 40
27.63438776470101
 40
28.15742770690972
 40
28.6780158430281
 40
29.19859975105425
 40
29.7145447195551
 40
30.23048256388275
 40
30.74010420592651
 40
31.24971701544142
 40
31.75205282121381
 40
32.25437633698883
 40
32.74931582571183
 40
33.24424678540966
 40
33.73259616590985
 40
34.22093132942096
 40
35.18399038286547
 40
36.14703299783574
 40
36.14703299783574
 40
36.14703299783574
 40
36.14703299783574
 10
117.7455685750905
 20
435.1088000689563
 30
0.0
 10
117.7632935055699
 20
434.7873322208768
 30
0.0
 10
117.798743669081
 20
434.1443910374829
 30
0.0
 10
118.036149495338
 20
433.3671866352554
 30
0.0
 10
118.3015061916326
 20
432.777308939165
 30
0.0
 10
118.544324760009
 20
432.3501166049581
 30
0.0
 10
118.825882458467
 20
431.9449805699832
 30
0.0
 10
119.1455403424656
 20
431.5630333631412
 30
0.0
 10
119.4994054500611
 20
431.2090713173682
 30
0.0
 10
119.8863522203103
 20
430.8839882020571
 30
0.0
 10
120.3017082895858
 20
430.5918438999442
 30
0.0
 10
120.744091960165
 20
430.3334513981507
 30
0.0
 10
121.2083678197282
 20
430.1119021648194
 30
0.0
 10
121.692682354202
 20
429.9279747292986
 30
0.0
 10
122.1918625350438
 20
429.7836943442462
 30
0.0
 10
122.7033691808778
 20
429.6797233031381
 30
0.0
 10
123.2223886590087
 20
429.6170872984266
 30
0.0
 10
123.7455685733332
 20
429.5961381137004
 30
0.0
 10
124.2687484890898
 20
429.6170873035076
 30
0.0
 10
124.7877679750979
 20
429.6797233080449
 30
0.0
 10
125.2992746271955
 20
429.7836943242551
 30
0.0
 10
125.7984547858475
 20
429.9279747059419
 30
0.0
 10
126.282769262871
 20
430.1119022477646
 30
0.0
 10
126.7470452238212
 20
430.3334514972631
 30
0.0
 10
127.1894290653631
 20
430.5918435629851
 30
0.0
 10
127.6047853334754
 20
430.8839878918579
 30
0.0
 10
127.9917292244398
 20
431.209072363717
 30
0.0
 10
128.3456003580914
 20
431.5630349709107
 30
0.0
 10
128.6652445601987
 20
431.9449747154162
 30
0.0
 10
128.9468752146673
 20
432.3501208114048
 30
0.0
 10
129.1893915076549
 20
432.7772952690962
 30
0.0
 10
129.3901547513887
 20
433.2214207292699
 30
0.0
 10
129.5480775658023
 20
433.6807736095656
 30
0.0
 10
129.661751195021
 20
434.1504380190023
 30
0.0
 10
129.7302396008811
 20
434.6278892516726
 30
0.0
 10
129.7532330409539
 20
435.1088000689564
 30
0.0
 10
129.7302396008811
 20
435.5897108862398
 30
0.0
 10
129.6617511950209
 20
436.0671621189103
 30
0.0
 10
129.5480775658024
 20
436.5368265283469
 30
0.0
 10
129.3901547513887
 20
436.9961794086427
 30
0.0
 10
129.189391507655
 20
437.4403048688166
 30
0.0
 10
128.9468752146672
 20
437.8674793265077
 30
0.0
 10
128.6652445601988
 20
438.2726254224965
 30
0.0
 10
128.3456003580913
 20
438.654565167002
 30
0.0
 10
127.9917292244398
 20
439.0085277741957
 30
0.0
 10
127.6047853334754
 20
439.3336122460546
 30
0.0
 10
127.189429065363
 20
439.6257565749275
 30
0.0
 10
126.7470452238211
 20
439.8841486406496
 30
0.0
 10
126.2827692628708
 20
440.1056978901478
 30
0.0
 10
125.7984547858475
 20
440.2896254319708
 30
0.0
 10
125.2992746271955
 20
440.4339058136577
 30
0.0
 10
124.7877679750979
 20
440.5378768298679
 30
0.0
 10
124.2687484890899
 20
440.6005128344048
 30
0.0
 10
123.7455685733332
 20
440.6214620242124
 30
0.0
 10
123.2223886590088
 20
440.6005128394857
 30
0.0
 10
122.7033691808779
 20
440.5378768347745
 30
0.0
 10
122.1918625350438
 20
440.4339057936667
 30
0.0
 10
121.692682354202
 20
440.289625408614
 30
0.0
 10
121.2083678197281
 20
440.1056979730933
 30
0.0
 10
120.744091960165
 20
439.8841487397618
 30
0.0
 10
120.3017082895858
 20
439.6257562379685
 30
0.0
 10
119.8863522203103
 20
439.3336119358554
 30
0.0
 10
119.4994054500612
 20
439.0085288205446
 30
0.0
 10
119.1455403424656
 20
438.6545667747711
 30
0.0
 10
118.825882458467
 20
438.2726195679295
 30
0.0
 10
118.5443247600091
 20
437.8674835329546
 30
0.0
 10
118.3015061916325
 20
437.4402911987476
 30
0.0
 10
118.0361494953381
 20
436.8504135026574
 30
0.0
 10
117.798743669081
 20
436.0732091004296
 30
0.0
 10
117.7632935055699
 20
435.4302679170358
 30
0.0
 10
117.7455685750905
 20
435.1088000689563
 30
0.0
 11
117.7455685750905
 21
435.1088000689563
 31
0.0
 11
117.8372274167724
 21
434.150129252153
 31
0.0
 11
118.1074128503753
 21
433.2257469871292
 31
0.0
 11
118.3083900345405
 21
432.7806858639493
 31
0.0
 11
118.5494161523841
 21
432.3559606257632
 31
0.0
 11
118.8317579083928
 21
431.9494636544566
 31
0.0
 11
119.1493019163768
 21
431.5698178978744
 31
0.0
 11
119.5043152121012
 21
431.214438559196
 31
0.0
 11
119.8888429169713
 21
430.8912053524423
 31
0.0
 11
120.3055755690231
 21
430.5978811080718
 31
0.0
 11
120.7455685750906
 21
430.3407422882661
 31
0.0
 11
121.2111467972664
 21
430.1184164502598
 31
0.0
 11
121.6934477151366
 21
429.9351542470022
 31
0.0
 11
122.1935338644658
 21
429.7905117617332
 31
0.0
 11
122.703679509089
 21
429.6867648160473
 31
0.0
 11
123.2229461257417
 21
429.6240514843248
 31
0.0
 11
123.7455685750907
 21
429.6031211825698
 31
0.0
 11
124.2681910188855
 21
429.6240514880968
 31
0.0
 11
124.7874576410922
 21
429.6867648160474
 31
0.0
 11
125.2976033133029
 21
429.7905117504888
 31
0.0
 11
125.7976894350446
 21
429.9351542470022
 31
0.0
 11
126.2799902494252
 21
430.1184164909647
 31
0.0
 11
126.7455685750907
 21
430.3407422882662
 31
0.0
 11
127.1855619609654
 21
430.5978809590669
 31
0.0
 11
127.6022942332099
 21
430.8912053524424
 31
0.0
 11
127.9868205504223
 21
431.2144391034985
 31
0.0
 11
128.3418352338046
 21
431.5698178978744
 31
0.0
 11
128.6593843068366
 21
431.9494616677413
 31
0.0
 11
128.9417209977973
 21
432.3559606257632
 31
0.0
 11
129.1827285935703
 21
432.7806931290433
 31
0.0
 11
129.383724299806
 21
433.2257469871292
 31
0.0
 11
129.5408276067765
 21
433.6828983493701
 31
0.0
 11
129.654415093164
 21
434.1527489635159
 31
0.0
 11
129.7226781449091
 21
434.6286128585327
 31
0.0
 11
129.7455685750907
 21
435.1088000689563
 31
0.0
 11
129.7226781449091
 21
435.58898727938
 31
0.0
 11
129.654415093164
 21
436.0648511743967
 31
0.0
 11
129.5408276067765
 21
436.5347017885425
 31
0.0
 11
129.3837242998061
 21
436.9918531507834
 31
0.0
 11
129.1827285935704
 21
437.4369070088694
 31
0.0
 11
128.9417209977973
 21
437.8616395121495
 31
0.0
 11
128.6593843068366
 21
438.2681384701714
 31
0.0
 11
128.3418352338046
 21
438.6477822400382
 31
0.0
 11
127.9868205504223
 21
439.0031610344141
 31
0.0
 11
127.6022942332099
 21
439.3263947854701
 31
0.0
 11
127.1855619609653
 21
439.6197191788457
 31
0.0
 11
126.7455685750905
 21
439.8768578496465
 31
0.0
 11
126.2799902494251
 21
440.099183646948
 31
0.0
 11
125.7976894350446
 21
440.2824458909104
 31
0.0
 11
125.2976033133028
 21
440.4270883874239
 31
0.0
 11
124.7874576410922
 21
440.5308353218652
 31
0.0
 11
124.2681910188855
 21
440.5935486498158
 31
0.0
 11
123.7455685750907
 21
440.6144789553429
 31
0.0
 11
123.2229461257418
 21
440.5935486535877
 31
0.0
 11
122.7036795090891
 21
440.5308353218653
 31
0.0
 11
122.1935338644659
 21
440.4270883761794
 31
0.0
 11
121.6934477151366
 21
440.2824458909104
 31
0.0
 11
121.2111467972663
 21
440.0991836876528
 31
0.0
 11
120.7455685750906
 21
439.8768578496465
 31
0.0
 11
120.3055755690231
 21
439.6197190298408
 31
0.0
 11
119.8888429169713
 21
439.3263947854703
 31
0.0
 11
119.5043152121012
 21
439.0031615787165
 31
0.0
 11
119.1493019163768
 21
438.6477822400382
 31
0.0
 11
118.8317579083928
 21
438.268136483456
 31
0.0
 11
118.5494161523841
 21
437.8616395121495
 31
0.0
 11
118.3083900345405
 21
437.4369142739635
 31
0.0
 11
118.1074128503753
 21
436.9918531507833
 31
0.0
 11
117.8372274167724
 21
436.0674708857596
 31
0.0
 11
117.7455685750905
 21
435.1088000689563
 31
0.0
  0
SPLINE
  5
FC
330
44
100
AcDbEntity
  8
1
  6
Continuous
 62
     7
100
AcDbSpline
210
0.0
220
0.0
230
1.0
 70
    11
 71
     3
 72
    75
 73
    71
 74
    69
 42
0.0000000001
 43
0.0000000001
 44
0.00000001
 40
0.0
 40
0.0
 40
0.0
 40
0.0
 40
0.564072652223387
 40
1.130799280038515
 40
1.387286178810203
 40
1.643274615420897
 40
2.002014473880145
 40
2.361110864212599
 40
2.768203551063052
 40
3.175228077261133
 40
3.625301651420154
 40
4.075408784587299
 40
4.560205256269699
 40
5.04500348613194
 40
5.554033721553296
 40
6.063068958035676
 40
6.584538674819832
 40
7.106009360030225
 40
7.627480126060108
 40
8.148949734187738
 40
8.657984445072893
 40
9.167015289059874
 40
9.651815930560449
 40
10.13660968699068
 40
10.58670666129698
 40
11.03679152082194
 40
11.44385627423025
 40
11.85090457857982
 40
12.20984944295802
 40
12.56875546518912
 40
12.87932948757725
 40
13.18985187701047
 40
13.45915017938614
 40
13.7281675134042
 40
13.97265203020933
 40
14.2168262544208
 40
14.46100047863266
 40
14.70548499543713
 40
14.97450232945123
 40
15.24380063183155
 40
15.55432302128858
 40
15.86489704365104
 40
16.22380306575714
 40
16.58274793026449
 40
16.9897962352118
 40
17.39686098801363
 40
17.8469458448697
 40
18.29704282185835
 40
18.78183658955562
 40
19.26663721979336
 40
19.77566801847295
 40
20.28470277448059
 40
20.80617255687604
 40
21.32764314990237
 40
21.84911319290804
 40
22.37058354507308
 40
22.88342735712928
 40
23.39626535885559
 40
23.87725779755997
 40
24.35824332513472
 40
24.80833979194035
 40
25.25842485617469
 40
25.66548746599714
 40
26.07253924108012
 40
26.43149986358958
 40
26.79038497179363
 40
27.10087864871961
 40
27.41150068954723
 40
27.92350783074739
 40
28.4347688452758
 40
28.4347688452758
 40
28.4347688452758
 40
28.4347688452758
 10
129.7455685750907
 20
425.1495079254351
 30
0.0
 10
129.7196454463002
 20
424.9606660452782
 30
0.0
 10
129.6676772197657
 20
424.5820937793105
 30
0.0
 10
129.3885503027643
 20
424.1949782820569
 30
0.0
 10
129.1390583715031
 20
423.9370572915526
 30
0.0
 10
128.9174145132917
 20
423.7484254520857
 30
0.0
 10
128.6529093945646
 20
423.5596428974744
 30
0.0
 10
128.3300241889915
 20
423.3682180071396
 30
0.0
 10
127.9795807054705
 20
423.1938915401888
 30
0.0
 10
127.590377270133
 20
423.0316898162076
 30
0.0
 10
127.1788928257647
 20
422.8876213866048
 30
0.0
 10
126.7353658174845
 20
422.7588141116469
 30
0.0
 10
126.2747816578454
 20
422.6493055641384
 30
0.0
 10
125.7903130771564
 20
422.5577964950844
 30
0.0
 10
125.2943235572952
 20
422.486323155163
 30
0.0
 10
124.7836060107638
 20
422.4346802088529
 30
0.0
 10
124.2670745455511
 20
422.40356208136
 30
0.0
 10
123.7455685440047
 20
422.3932214481754
 30
0.0
 10
123.2240626035464
 20
422.4035630053352
 30
0.0
 10
122.7075313304636
 20
422.4346806504622
 30
0.0
 10
122.1968134946161
 20
422.4863205211095
 30
0.0
 10
121.7008231376399
 20
422.5577949118186
 30
0.0
 10
121.2163563770271
 20
422.6493143108501
 30
0.0
 10
120.7557753400408
 20
422.758818992634
 30
0.0
 10
120.3122398240482
 20
422.8875934377654
 30
0.0
 10
119.9007428247663
 20
423.0316765491601
 30
0.0
 10
119.5115801454944
 20
423.1939754534327
 30
0.0
 10
119.1611627055349
 20
423.3682459069985
 30
0.0
 10
118.8381780285633
 20
423.5594124149928
 30
0.0
 10
118.558741445886
 20
423.7588751460858
 30
0.0
 10
118.3118530089453
 20
423.9735934645881
 30
0.0
 10
118.1110441032795
 20
424.1932641028915
 30
0.0
 10
117.9485277741176
 20
424.425890395371
 30
0.0
 10
117.8325945332643
 20
424.6611043041316
 30
0.0
 10
117.7621050768452
 20
424.9049321856748
 30
0.0
 10
117.737305574456
 20
425.1495079254353
 30
0.0
 10
117.7621050768476
 20
425.3940836651954
 30
0.0
 10
117.8325945332646
 20
425.6379115467374
 30
0.0
 10
117.948527774111
 20
425.8731254555013
 30
0.0
 10
118.1110441032814
 20
426.1057517479865
 30
0.0
 10
118.3118530089671
 20
426.3254223862727
 30
0.0
 10
118.5587414458656
 20
426.5401407047549
 30
0.0
 10
118.8381780284888
 20
426.7396034359115
 30
0.0
 10
119.1611627056603
 20
426.9307699439744
 30
0.0
 10
119.5115801457587
 20
427.1050403973487
 30
0.0
 10
119.9007428241422
 20
427.2673393014001
 30
0.0
 10
120.3122398230748
 20
427.4114224132121
 30
0.0
 10
120.7557753428046
 20
427.5401968590039
 30
0.0
 10
121.2163563807319
 20
427.649701540667
 30
0.0
 10
121.7008231262666
 20
427.741220937963
 30
0.0
 10
122.1968134805537
 20
427.8126953230798
 30
0.0
 10
122.7075313730283
 20
427.8643351973786
 30
0.0
 10
123.2240626621346
 20
427.8954528858133
 30
0.0
 10
123.7455683776043
 20
427.9057944416875
 30
0.0
 10
124.2670743678126
 20
427.8954535625221
 30
0.0
 10
124.7848732063768
 20
427.864259102919
 30
0.0
 10
125.2981121655114
 20
427.8122846627679
 30
0.0
 10
125.7953272262757
 20
427.7403858168778
 30
0.0
 10
126.2784954812995
 20
427.6488493865195
 30
0.0
 10
126.7365816399485
 20
427.539845166235
 30
0.0
 10
127.1788953816727
 20
427.4114152600511
 30
0.0
 10
127.5903903395486
 20
427.2673342321874
 30
0.0
 10
127.9795698793755
 20
427.1050651408784
 30
0.0
 10
128.3299765502409
 20
426.9307843260808
 30
0.0
 10
128.6529569399137
 20
426.7395277883493
 30
0.0
 10
128.9322187361438
 20
426.5401233985103
 30
0.0
 10
129.1798184157278
 20
426.3255829260758
 30
0.0
 10
129.4329980855731
 20
426.0460925496624
 30
0.0
 10
129.6823929289633
 20
425.6632813663434
 30
0.0
 10
129.7245202655775
 20
425.3206824692156
 30
0.0
 10
129.7455685750907
 20
425.1495079254351
 30
0.0
 11
129.7455685750907
 21
425.1495079254351
 31
0.0
 11
129.6241168037807
 21
424.5986654577259
 31
0.0
 11
129.3144328416938
 21
424.1240341120471
 31
0.0
 11
129.1359616781421
 21
423.9398234364009
 31
0.0
 11
128.9417209977974
 21
423.7730882038385
 31
0.0
 11
128.6502430709288
 21
423.5639592861928
 31
0.0
 11
128.3418352338047
 21
423.3800168398943
 31
0.0
 11
127.9776949443035
 21
423.1980105069026
 31
0.0
 11
127.60229423321
 21
423.0407105671783
 31
0.0
 11
127.1776748329637
 21
422.8914973402488
 31
0.0
 11
126.7455685750908
 21
422.7654790350901
 31
0.0
 11
126.2740005221622
 21
422.6530015243919
 31
0.0
 11
125.7976894350449
 21
422.5626850144581
 31
0.0
 11
125.2938911884656
 21
422.4898900467973
 31
0.0
 11
124.7874576410923
 21
422.4384902989807
 31
0.0
 11
124.2669355815258
 21
422.407066565473
 31
0.0
 11
123.7455685750908
 21
422.396668482242
 31
0.0
 11
123.2242015016443
 21
422.4070672585909
 31
0.0
 11
122.7036795090893
 21
422.4384902989809
 31
0.0
 11
122.1972462856531
 21
422.4898880332301
 31
0.0
 11
121.6934477151369
 21
422.5626850144582
 31
0.0
 11
121.2171354797904
 21
422.6530084137444
 31
0.0
 11
120.7455685750909
 21
422.7654790350902
 31
0.0
 11
120.3134661718518
 21
422.8914742706932
 31
0.0
 11
119.8888429169716
 21
423.0407105671783
 31
0.0
 11
119.5134297717716
 21
423.1980849103171
 31
0.0
 11
119.1493019163771
 21
423.3800168398942
 31
0.0
 11
118.8409327063869
 21
423.5637281514499
 31
0.0
 11
118.5494161523843
 21
423.7730882038385
 31
0.0
 11
118.315939668849
 21
423.977892879123
 31
0.0
 11
118.1074128503755
 21
424.2079813845217
 31
0.0
 11
117.9543149734623
 21
424.429527352093
 31
0.0
 11
117.8367220570178
 21
424.6714823727151
 31
0.0
 11
117.7693167106145
 21
424.9064913049575
 31
0.0
 11
117.745568575091
 21
425.1495079254352
 31
0.0
 11
117.7693167106162
 21
425.3925245459132
 31
0.0
 11
117.8367220570177
 21
425.6275334781554
 31
0.0
 11
117.954314973456
 21
425.8694884987762
 31
0.0
 11
118.1074128503755
 21
426.0910344663487
 31
0.0
 11
118.3159396688776
 21
426.3211229717537
 31
0.0
 11
118.5494161523843
 21
426.5259276470317
 31
0.0
 11
118.8409327062542
 21
426.735287699391
 31
0.0
 11
119.1493019163771
 21
426.9189990109762
 31
0.0
 11
119.5134297723729
 21
427.1009309406871
 31
0.0
 11
119.8888429169715
 21
427.2583052836922
 31
0.0
 11
120.3134661692276
 21
427.4075415795944
 31
0.0
 11
120.7455685750908
 21
427.5335368157803
 31
0.0
 11
121.2171354907904
 21
427.6460074395701
 31
0.0
 11
121.6934477151368
 21
427.7363308364123
 31
0.0
 11
122.1972462412989
 21
427.8091278077861
 31
0.0
 11
122.7036795090893
 21
427.8605255518897
 31
0.0
 11
123.2242016739188
 21
427.891948630555
 31
0.0
 11
123.7455685750908
 21
427.9023473686285
 31
0.0
 11
124.2669349363344
 21
427.8919491420517
 31
0.0
 11
124.7874576410923
 21
427.8605255518898
 31
0.0
 11
125.2976722579018
 21
427.8086620738132
 31
0.0
 11
125.8052025241231
 21
427.7350696497194
 31
0.0
 11
126.2777266971304
 21
427.6452106934904
 31
0.0
 11
126.7455685750908
 21
427.5335368157803
 31
0.0
 11
127.1776689314443
 21
427.4075363734395
 31
0.0
 11
127.6022942332101
 21
427.2583052836922
 31
0.0
 11
127.9777131549069
 21
427.1009502661445
 31
0.0
 11
128.3418352338047
 21
426.9189990109761
 31
0.0
 11
128.6501866812261
 21
426.7352271051103
 31
0.0
 11
128.9417209977974
 21
426.5259276470319
 31
0.0
 11
129.1752510437158
 21
426.321305944702
 31
0.0
 11
129.3837242998062
 21
426.0910344663488
 31
0.0
 11
129.6451802411464
 21
425.6508162211819
 31
0.0
 11
129.7455685750907
 21
425.1495079254351
 31
0.0
  0
ENDBLK
  5
46
330
44
100
AcDbEntity
  8
0
100
AcDbBlockEnd
  0
BLOCK
  5
49
330
47
100
AcDbEntity
  8
0
100
AcDbBlockBegin
  2
B41A-24-13__5
 70
     0
 71
     0
 10
74.7455685750908
 20
750.1075500689561
 30
0.0
  3
B41A-24-13__5
  1

  0
INSERT
  5
48
330
47
100
AcDbEntity
  8
0
100
AcDbBlockReference
  2
B41A-24-1__4
 10
-7.95817401297037
 20
615.7145908682322
 30
0.0
  0
LINE
  5
FD
330
47
100
AcDbEntity
  8
0
  6
PHANTOM
 62
     4
100
AcDbLine
 10
173.8386099829334
 20
435.1075500689562
 30
0.0
 11
194.0077784640915
 21
435.1075500689562
 31
0.0
  0
ENDBLK
  5
4A
330
47
100
AcDbEntity
  8
0
100
AcDbBlockEnd
  0
BLOCK
  5
4C
330
4B
100
AcDbEntity
  8
0
100
AcDbBlockBegin
  2
37-1-13
 70
     0
 71
     0
 10
391.7400244652347
 20
167.3063198521851
 30
0.0
  3
37-1-13
  1

  0
LINE
  5
FE
330
4B
100
AcDbEntity
  8
1
  6
PHANTOM
 62
     4
100
AcDbLine
 10
153.2455685846756
 20
409.6068457383315
 30
0.0
 11
153.2455685846756
 21
412.0328490028495
 31
0.0
  0
LINE
  5
FF
330
4B
100
AcDbEntity
  8
1
  6
PHANTOM
 62
     4
100
AcDbLine
 10
153.2455685846756
 20
409.6068457383315
 30
0.0
 11
153.2455685846756
 21
393.5662138503324
 31
0.0
  0
LINE
  5
100
330
4B
100
AcDbEntity
  8
1
  6
Continuous
 62
     7
100
AcDbLine
 10
159.2455685846758
 20
395.6069444144185
 30
0.0
 11
147.2455685846756
 21
395.6069444144185
 31
0.0
  0
LINE
  5
101
330
4B
100
AcDbEntity
  8
1
  6
Continuous
 62
     7
100
AcDbLine
 10
166.2455685846755
 20
409.6069444144185
 30
0.0
 11
140.2455685846757
 21
409.6069444144185
 31
0.0
  0
LINE
  5
102
330
4B
100
AcDbEntity
  8
1
  6
Continuous
 62
     7
100
AcDbLine
 10
140.2455685846757
 20
409.6069444144185
 30
0.0
 11
140.2455685846757
 21
402.4347031559425
 31
0.0
  0
LINE
  5
103
330
4B
100
AcDbEntity
  8
1
  6
Continuous
 62
     7
100
AcDbLine
 10
166.2455685846755
 20
402.4347031559425
 30
0.0
 11
166.2455685846755
 21
409.6069444144185
 31
0.0
  0
LINE
  5
104
330
4B
100
AcDbEntity
  8
1
  6
Continuous
 62
     7
100
AcDbLine
 10
163.2455685846757
 20
402.4347031559425
 30
0.0
 11
143.2455685846755
 21
402.4347031559425
 31
0.0
  0
LINE
  5
105
330
4B
100
AcDbEntity
  8
1
  6
Continuous
 62
     7
100
AcDbLine
 10
244.7443185750901
 20
259.729675799287
 30
0.0
 11
244.7443185750901
 21
246.0368358546847
 31
0.0
  0
LINE
  5
106
330
4B
100
AcDbEntity
  8
1
  6
Continuous
 62
     7
100
AcDbLine
 10
244.7443185750901
 20
272.1782642832277
 30
0.0
 11
244.7443185750901
 21
258.4854243386249
 31
0.0
  0
LINE
  5
107
330
4B
100
AcDbEntity
  8
1
  6
Continuous
 62
     7
100
AcDbLine
 10
237.2443185750901
 20
246.6075500689563
 30
0.0
 11
237.2443185750901
 21
259.1075500689561
 31
0.0
  0
LINE
  5
108
330
4B
100
AcDbEntity
  8
1
  6
Continuous
 62
     7
100
AcDbLine
 10
237.2443185750901
 20
259.1075500689561
 30
0.0
 11
237.24431857509
 21
271.607550068956
 31
0.0
  0
LINE
  5
109
330
4B
100
AcDbEntity
  8
1
  6
Continuous
 62
     7
100
AcDbLine
 10
230.7443185750901
 20
265.1075500689561
 30
0.0
 11
230.7443185750901
 21
259.1075500689561
 31
0.0
  0
LINE
  5
10A
330
4B
100
AcDbEntity
  8
1
  6
Continuous
 62
     7
100
AcDbLine
 10
230.7443185750901
 20
259.1075500689561
 30
0.0
 11
230.7443185750901
 21
253.1075500689561
 31
0.0
  0
ARC
  5
10B
330
4B
100
AcDbEntity
  8
1
  6
Continuous
 62
     7
100
AcDbCircle
 10
127.3391133795607
 20
382.2004892093035
 30
0.0
 40
24.00000000000005
100
AcDbArc
 50
56.04080749990234
 51
57.46810848225163
  0
ARC
  5
10C
330
4B
100
AcDbEntity
  8
1
  6
Continuous
 62
     7
100
AcDbCircle
 10
179.1520237897905
 20
382.2004892093035
 30
0.0
 40
24.0000000000001
100
AcDbArc
 50
123.9591925000978
 51
146.0408074999021
  0
ARC
  5
10D
330
4B
100
AcDbEntity
  8
1
  6
Continuous
 62
     7
100
AcDbCircle
 10
127.3391133795607
 20
382.2004892093035
 30
0.0
 40
24.00000000000001
100
AcDbArc
 50
33.95919250009765
 51
56.04080749990234
  0
ARC
  5
10E
330
4B
100
AcDbEntity
  8
1
  6
Continuous
 62
     7
100
AcDbCircle
 10
179.1520237897905
 20
382.2004892093035
 30
0.0
 40
23.99999999999999
100
AcDbArc
 50
122.5318915177483
 51
123.9591925000978
  0
ARC
  5
10F
330
4B
100
AcDbEntity
  8
1
  6
Continuous
 62
     7
100
AcDbCircle
 10
241.2443185750901
 20
249.6075500689561
 30
0.0
 40
4.999999999999881
100
AcDbArc
 50
-143.1301023541578
 51
-45.57299599919402
  0
ARC
  5
110
330
4B
100
AcDbEntity
  8
1
  6
Continuous
 62
     7
100
AcDbCircle
 10
241.2443185750901
 20
268.6075500689561
 30
0.0
 40
5.000000000000138
100
AcDbArc
 50
45.57299599919585
 51
143.1301023541571
  0
ARC
  5
111
330
4B
100
AcDbEntity
  8
1
  6
Continuous
 62
     7
100
AcDbCircle
 10
217.3378633699752
 20
285.014005274071
 30
0.0
 40
23.99999999999999
100
AcDbArc
 50
-56.04080749990256
 51
-33.95919250009776
  0
ARC
  5
112
330
4B
100
AcDbEntity
  8
1
  6
Continuous
 62
     7
100
AcDbCircle
 10
217.3378633699752
 20
233.2010948638413
 30
0.0
 40
24.00000000000003
100
AcDbArc
 50
33.95919250009771
 51
56.04080749990241
  0
SPLINE
  5
113
330
4B
100
AcDbEntity
  8
1
  6
Continuous
 62
     7
100
AcDbSpline
210
0.0
220
0.0
230
1.0
 70
    11
 71
     3
 72
    79
 73
    75
 74
    73
 42
0.0000000001
 43
0.0000000001
 44
0.00000001
 40
0.0
 40
0.0
 40
0.0
 40
0.0
 40
0.2811775426108726
 40
0.5623408931992218
 40
0.8457466631367194
 40
1.129126830422857
 40
1.415908903032392
 40
1.702658539054622
 40
1.993527432940212
 40
2.28436205594332
 40
2.579517800564375
 40
2.874641782101858
 40
3.173769982296669
 40
3.472872122788052
 40
3.775199692337347
 40
4.077508957859664
 40
4.381905225139366
 40
4.686292091405347
 40
4.991400459519
 40
5.296508827632626
 40
5.600895693898642
 40
5.905291961178394
 40
6.207601226700668
 40
6.50992879624986
 40
6.809030936741255
 40
7.10815913693616
 40
7.403283118473671
 40
7.698438863094634
 40
7.989273486097743
 40
8.280142379983344
 40
8.566892016005559
 40
8.853674088615108
 40
9.137054255901258
 40
9.420460025838782
 40
9.701623376427126
 40
9.982800919038006
 40
10.26319552186818
 40
10.54359012469834
 40
10.82476766730925
 40
11.1059310178977
 40
11.3893367878353
 40
11.67271695512143
 40
11.95949902773092
 40
12.24624866375312
 40
12.53711755763874
 40
12.82795218064185
 40
13.12310792526285
 40
13.41823190680035
 40
13.71736010699525
 40
14.01646224748668
 40
14.31878981703589
 40
14.62109908255815
 40
14.92549534983797
 40
15.22988221610393
 40
15.53499058421753
 40
15.84009895233116
 40
16.1444858185971
 40
16.44888208587685
 40
16.75119135139917
 40
17.05351892094843
 40
17.35262106143975
 40
17.65174926163469
 40
17.94687324317219
 40
18.24202898779312
 40
18.53286361079619
 40
18.82373250468181
 40
19.11048214070411
 40
19.39726421331367
 40
19.68064438059981
 40
19.96405015053736
 40
20.24521350112575
 40
20.52639104373668
 40
20.80678564656694
 40
21.08718024939713
 40
21.08718024939713
 40
21.08718024939713
 40
21.08718024939713
 10
237.7577004539715
 20
247.5691447251607
 30
0.0
 10
237.7691515760614
 20
247.4760486500702
 30
0.0
 10
237.7920532422626
 20
247.2898611987766
 30
0.0
 10
237.8600905333114
 20
247.0156237454706
 30
0.0
 10
237.9517126622852
 20
246.7478970781636
 30
0.0
 10
238.06932365007
 20
246.4883365899954
 30
0.0
 10
238.210541973289
 20
246.2396022976283
 30
0.0
 10
238.3753639440339
 20
246.0027881928377
 30
0.0
 10
238.5614412411984
 20
245.7805298287707
 30
0.0
 10
238.7684660908099
 20
245.5736744416358
 30
0.0
 10
238.9936648885239
 20
245.3845606381224
 30
0.0
 10
239.2365297940534
 20
245.2139122539716
 30
0.0
 10
239.4939984250634
 20
245.0635949367217
 30
0.0
 10
239.765276322335
 20
244.9342716013611
 30
0.0
 10
240.0472294762425
 20
244.8272386739229
 30
0.0
 10
240.338666629612
 20
244.7430915362608
 30
0.0
 10
240.6366045730697
 20
244.6825470275527
 30
0.0
 10
240.9393702378699
 20
244.6460598308136
 30
0.0
 10
241.2443185750893
 20
244.6338327744627
 30
0.0
 10
241.5492669123142
 20
244.6460598308134
 30
0.0
 10
241.8520325770977
 20
244.6825470275541
 30
0.0
 10
242.1499705206171
 20
244.7430915362562
 30
0.0
 10
242.4414076737577
 20
244.82723867394
 30
0.0
 10
242.7233608285152
 20
244.9342716012972
 30
0.0
 10
242.9946387226466
 20
245.063594936958
 30
0.0
 10
243.2521073652985
 20
245.2139122530952
 30
0.0
 10
243.4949722279355
 20
245.3845606413441
 30
0.0
 10
243.7201711845124
 20
245.5736744296797
 30
0.0
 10
243.9271954495156
 20
245.7805298726678
 30
0.0
 10
244.1132749116998
 20
246.0027880298904
 30
0.0
 10
244.2780889114537
 20
246.2396028962233
 30
0.0
 10
244.4193367798676
 20
246.4883343658653
 30
0.0
 10
244.5368387473216
 20
246.7479052697518
 30
0.0
 10
244.6288656946915
 20
247.0155932610221
 30
0.0
 10
244.6954035223115
 20
247.2899739719051
 30
0.0
 10
244.7353063059241
 20
247.5684649833686
 30
0.0
 10
244.7488184272532
 20
247.8492198197585
 30
0.0
 10
244.7353063059241
 20
248.1299746561483
 30
0.0
 10
244.6954035223115
 20
248.4084656676117
 30
0.0
 10
244.6288656946916
 20
248.682846378495
 30
0.0
 10
244.5368387473217
 20
248.9505343697653
 30
0.0
 10
244.4193367798677
 20
249.2101052736518
 30
0.0
 10
244.2780889114537
 20
249.4588367432937
 30
0.0
 10
244.1132749117
 20
249.6956516096266
 30
0.0
 10
243.9271954495157
 20
249.9179097668491
 30
0.0
 10
243.7201711845123
 20
250.1247652098372
 30
0.0
 10
243.4949722279355
 20
250.313878998173
 30
0.0
 10
243.2521073652985
 20
250.4845273864216
 30
0.0
 10
242.9946387226464
 20
250.6348447025591
 30
0.0
 10
242.7233608285153
 20
250.7641680382199
 30
0.0
 10
242.4414076737577
 20
250.8712009655772
 30
0.0
 10
242.149970520617
 20
250.9553481032609
 30
0.0
 10
241.8520325770977
 20
251.015892611963
 30
0.0
 10
241.5492669123139
 20
251.0523798087037
 30
0.0
 10
241.2443185750902
 20
251.0646068650544
 30
0.0
 10
240.9393702378667
 20
251.0523798087036
 30
0.0
 10
240.6366045730818
 20
251.0158926119626
 30
0.0
 10
240.3386666295669
 20
250.9553481032612
 30
0.0
 10
240.0472294764097
 20
250.8712009655758
 30
0.0
 10
239.7652763217132
 20
250.7641680382245
 30
0.0
 10
239.4939984273568
 20
250.6348447025424
 30
0.0
 10
239.2365297855394
 20
250.4845273864845
 30
0.0
 10
238.9936649198275
 20
250.3138789979419
 30
0.0
 10
238.7684659746402
 20
250.1247652106945
 30
0.0
 10
238.5614416677229
 20
249.9179097637021
 30
0.0
 10
238.3753623607616
 20
249.6956516213093
 30
0.0
 10
238.2105477895209
 20
249.458836700377
 30
0.0
 10
238.0693020393746
 20
249.2101054331126
 30
0.0
 10
237.951792255616
 20
248.9505337824624
 30
0.0
 10
237.8597943320424
 20
248.6828485641032
 30
0.0
 10
237.7931489991273
 20
248.4084575822473
 30
0.0
 10
237.7536464131807
 20
248.1300048053595
 30
0.0
 10
237.7386446333633
 20
247.849107648149
 30
0.0
 10
237.7513485137688
 20
247.6624656994901
 30
0.0
 10
237.7577004539715
 20
247.5691447251607
 30
0.0
 11
237.7577004539715
 21
247.5691447251607
 31
0.0
 11
237.7976382634354
 21
247.290817971427
 31
0.0
 11
237.8637754825745
 21
247.0175439368782
 31
0.0
 11
237.9559293042404
 21
246.7495392660491
 31
0.0
 11
238.0726593555152
 21
246.4913176280314
 31
0.0
 11
238.2142582936772
 21
246.241930984681
 31
0.0
 11
238.3779358942012
 21
246.0064846068248
 31
0.0
 11
238.5646243677778
 21
245.7834327580006
 31
0.0
 11
238.7702585780486
 21
245.5777647014054
 31
0.0
 11
238.9962527321752
 21
245.387913296661
 31
0.0
 11
239.2376555412973
 21
245.2181403652895
 31
0.0
 11
239.4959546565206
 21
245.0672786828561
 31
0.0
 11
239.7659040679387
 21
244.9384788159246
 31
0.0
 11
240.0485376669332
 21
244.8311465839111
 31
0.0
 11
240.3389631809936
 21
244.7472185623485
 31
0.0
 11
240.6372592196344
 21
244.6865839116528
 31
0.0
 11
240.9394547738766
 21
244.6501255607367
 31
0.0
 11
241.2443185750902
 21
244.6379116750923
 31
0.0
 11
241.5491823763038
 21
244.6501255607368
 31
0.0
 11
241.851377930546
 21
244.6865839116528
 31
0.0
 11
242.1496739691869
 21
244.7472185623486
 31
0.0
 11
242.4400994832473
 21
244.8311465839111
 31
0.0
 11
242.7227330822416
 21
244.9384788159247
 31
0.0
 11
242.9926824936597
 21
245.0672786828562
 31
0.0
 11
243.2509816088831
 21
245.2181403652895
 31
0.0
 11
243.4923844180054
 21
245.3879132966609
 31
0.0
 11
243.7183785721318
 21
245.5777647014054
 31
0.0
 11
243.9240127824026
 21
245.7834327580007
 31
0.0
 11
244.1107012559792
 21
246.0064846068248
 31
0.0
 11
244.2743788565033
 21
246.2419309846809
 31
0.0
 11
244.4159777946653
 21
246.4913176280314
 31
0.0
 11
244.53270784594
 21
246.749539266049
 31
0.0
 11
244.6248616676058
 21
247.0175439368782
 31
0.0
 11
244.6909988867448
 21
247.2908179714271
 31
0.0
 11
244.7309366962087
 21
247.5691447251608
 31
0.0
 11
244.7443185750902
 21
247.8492198197585
 31
0.0
 11
244.7309366962087
 21
248.1292949143561
 31
0.0
 11
244.6909988867448
 21
248.4076216680898
 31
0.0
 11
244.6248616676058
 21
248.6808957026388
 31
0.0
 11
244.5327078459401
 21
248.9489003734681
 31
0.0
 11
244.4159777946654
 21
249.2071220114858
 31
0.0
 11
244.2743788565034
 21
249.4565086548361
 31
0.0
 11
244.1107012559792
 21
249.6919550326922
 31
0.0
 11
243.9240127824026
 21
249.9150068815163
 31
0.0
 11
243.7183785721318
 21
250.1206749381116
 31
0.0
 11
243.4923844180054
 21
250.3105263428561
 31
0.0
 11
243.2509816088831
 21
250.4802992742275
 31
0.0
 11
242.9926824936596
 21
250.6311609566607
 31
0.0
 11
242.7227330822416
 21
250.7599608235924
 31
0.0
 11
242.4400994832473
 21
250.8672930556061
 31
0.0
 11
242.1496739691869
 21
250.9512210771686
 31
0.0
 11
241.8513779305459
 21
251.0118557278642
 31
0.0
 11
241.5491823763038
 21
251.0483140787803
 31
0.0
 11
241.2443185750902
 21
251.0605279644248
 31
0.0
 11
240.9394547738766
 21
251.0483140787802
 31
0.0
 11
240.6372592196345
 21
251.011855727864
 31
0.0
 11
240.3389631809936
 21
250.9512210771684
 31
0.0
 11
240.0485376669331
 21
250.867293055606
 31
0.0
 11
239.7659040679387
 21
250.7599608235924
 31
0.0
 11
239.4959546565207
 21
250.6311609566609
 31
0.0
 11
239.2376555412973
 21
250.4802992742275
 31
0.0
 11
238.9962527321751
 21
250.310526342856
 31
0.0
 11
238.7702585780487
 21
250.1206749381116
 31
0.0
 11
238.5646243677778
 21
249.9150068815165
 31
0.0
 11
238.3779358942012
 21
249.6919550326923
 31
0.0
 11
238.2142582936771
 21
249.4565086548361
 31
0.0
 11
238.0726593555151
 21
249.2071220114856
 31
0.0
 11
237.9559293042404
 21
248.948900373468
 31
0.0
 11
237.8637754825745
 21
248.6808957026388
 31
0.0
 11
237.7976382634354
 21
248.4076216680899
 31
0.0
 11
237.7577004539716
 21
248.1292949143561
 31
0.0
 11
237.7443185750901
 21
247.8492198197584
 31
0.0
 11
237.7577004539715
 21
247.5691447251607
 31
0.0
  0
SPLINE
  5
114
330
4B
100
AcDbEntity
  8
1
  6
Continuous
 62
     7
100
AcDbSpline
210
0.0
220
0.0
230
1.0
 70
    11
 71
     3
 72
    79
 73
    75
 74
    73
 42
0.0000000001
 43
0.0000000001
 44
0.00000001
 40
0.0
 40
0.0
 40
0.0
 40
0.0
 40
0.2811775426109289
 40
0.5623408931992504
 40
0.8457466631367749
 40
1.129126830422912
 40
1.415908903032349
 40
1.702658539054625
 40
1.993527432940237
 40
2.284362055943325
 40
2.579517800564453
 40
2.874641782101903
 40
3.173769982296729
 40
3.472872122788111
 40
3.775199692337416
 40
4.077508957859733
 40
4.381905225139423
 40
4.686292091405411
 40
4.99140045951906
 40
5.296508827632684
 40
5.600895693898694
 40
5.90529196117844
 40
6.207601226700731
 40
6.509928796249902
 40
6.809030936741285
 40
7.108159136936203
 40
7.403283118473715
 40
7.698438863094733
 40
7.989273486097842
 40
8.280142379983378
 40
8.566892016005593
 40
8.853674088615192
 40
9.137054255901369
 40
9.420460025838784
 40
9.701623376427127
 40
9.982800919038064
 40
10.26319552186826
 40
10.54359012469846
 40
10.82476766730934
 40
11.10593101789778
 40
11.38933678783536
 40
11.67271695512146
 40
11.95949902773103
 40
12.24624866375326
 40
12.53711755763883
 40
12.82795218064194
 40
13.12310792526292
 40
13.41823190680045
 40
13.71736010699537
 40
14.01646224748675
 40
14.31878981703596
 40
14.62109908255822
 40
14.92549534983803
 40
15.229882216104
 40
15.5349905842176
 40
15.84009895233123
 40
16.14448581859718
 40
16.44888208587693
 40
16.75119135139927
 40
17.05351892094854
 40
17.35262106143989
 40
17.65174926163479
 40
17.94687324317225
 40
18.24202898779322
 40
18.53286361079633
 40
18.82373250468193
 40
19.11048214070421
 40
19.39726421331376
 40
19.68064438059993
 40
19.96405015053749
 40
20.24521350112585
 40
20.52639104373678
 40
20.80678564656692
 40
21.08718024939712
 40
21.08718024939712
 40
21.08718024939712
 40
21.08718024939712
 10
237.7577004539715
 20
270.6459554127514
 30
0.0
 10
237.7691515760614
 20
270.7390514878419
 30
0.0
 10
237.7920532422625
 20
270.9252389391355
 30
0.0
 10
237.8600905333115
 20
271.1994763924416
 30
0.0
 10
237.9517126622853
 20
271.4672030597486
 30
0.0
 10
238.06932365007
 20
271.7267635479168
 30
0.0
 10
238.2105419732891
 20
271.9754978402838
 30
0.0
 10
238.3753639440338
 20
272.2123119450744
 30
0.0
 10
238.5614412411985
 20
272.4345703091415
 30
0.0
 10
238.7684660908099
 20
272.6414256962764
 30
0.0
 10
238.993664888524
 20
272.8305394997897
 30
0.0
 10
239.2365297940533
 20
273.0011878839406
 30
0.0
 10
239.4939984250635
 20
273.1515052011905
 30
0.0
 10
239.765276322335
 20
273.280828536551
 30
0.0
 10
240.0472294762424
 20
273.3878614639893
 30
0.0
 10
240.338666629612
 20
273.4720086016514
 30
0.0
 10
240.6366045730696
 20
273.5325531103594
 30
0.0
 10
240.93937023787
 20
273.5690403070986
 30
0.0
 10
241.2443185750893
 20
273.5812673634494
 30
0.0
 10
241.5492669123142
 20
273.5690403070987
 30
0.0
 10
241.8520325770976
 20
273.5325531103581
 30
0.0
 10
242.1499705206172
 20
273.4720086016561
 30
0.0
 10
242.4414076737577
 20
273.387861463972
 30
0.0
 10
242.7233608285153
 20
273.2808285366151
 30
0.0
 10
242.9946387226465
 20
273.1515052009543
 30
0.0
 10
243.2521073652986
 20
273.0011878848169
 30
0.0
 10
243.4949722279355
 20
272.8305394965681
 30
0.0
 10
243.7201711845124
 20
272.6414257082325
 30
0.0
 10
243.9271954495156
 20
272.4345702652441
 30
0.0
 10
244.1132749116999
 20
272.2123121080218
 30
0.0
 10
244.2780889114537
 20
271.9754972416889
 30
0.0
 10
244.4193367798676
 20
271.7267657720469
 30
0.0
 10
244.5368387473216
 20
271.4671948681604
 30
0.0
 10
244.6288656946915
 20
271.1995068768902
 30
0.0
 10
244.6954035223115
 20
270.925126166007
 30
0.0
 10
244.7353063059241
 20
270.6466351545437
 30
0.0
 10
244.7488184272533
 20
270.3658803181537
 30
0.0
 10
244.7353063059241
 20
270.0851254817638
 30
0.0
 10
244.6954035223115
 20
269.8066344703003
 30
0.0
 10
244.6288656946915
 20
269.5322537594171
 30
0.0
 10
244.5368387473216
 20
269.2645657681467
 30
0.0
 10
244.4193367798677
 20
269.0049948642604
 30
0.0
 10
244.2780889114538
 20
268.7562633946184
 30
0.0
 10
244.1132749117
 20
268.5194485282855
 30
0.0
 10
243.9271954495156
 20
268.297190371063
 30
0.0
 10
243.7201711845124
 20
268.0903349280749
 30
0.0
 10
243.4949722279354
 20
267.9012211397392
 30
0.0
 10
243.2521073652986
 20
267.7305727514904
 30
0.0
 10
242.9946387226464
 20
267.5802554353531
 30
0.0
 10
242.7233608285152
 20
267.4509320996922
 30
0.0
 10
242.4414076737578
 20
267.3438991723351
 30
0.0
 10
242.1499705206171
 20
267.2597520346512
 30
0.0
 10
241.8520325770977
 20
267.1992075259493
 30
0.0
 10
241.5492669123139
 20
267.1627203292085
 30
0.0
 10
241.2443185750902
 20
267.1504932728577
 30
0.0
 10
240.9393702378667
 20
267.1627203292083
 30
0.0
 10
240.6366045730818
 20
267.1992075259495
 30
0.0
 10
240.3386666295668
 20
267.2597520346509
 30
0.0
 10
240.0472294764097
 20
267.3438991723364
 30
0.0
 10
239.7652763217132
 20
267.4509320996877
 30
0.0
 10
239.4939984273567
 20
267.5802554353699
 30
0.0
 10
239.2365297855394
 20
267.7305727514276
 30
0.0
 10
238.9936649198274
 20
267.9012211399703
 30
0.0
 10
238.7684659746402
 20
268.0903349272177
 30
0.0
 10
238.5614416677228
 20
268.2971903742101
 30
0.0
 10
238.3753623607616
 20
268.5194485166028
 30
0.0
 10
238.2105477895208
 20
268.7562634375352
 30
0.0
 10
238.0693020393746
 20
269.0049947047995
 30
0.0
 10
237.9517922556161
 20
269.2645663554496
 30
0.0
 10
237.8597943320424
 20
269.5322515738091
 30
0.0
 10
237.7931489991272
 20
269.8066425556648
 30
0.0
 10
237.7536464131807
 20
270.0850953325527
 30
0.0
 10
237.7386446333632
 20
270.3659924897631
 30
0.0
 10
237.7513485137687
 20
270.5526344384219
 30
0.0
 10
237.7577004539715
 20
270.6459554127513
 30
0.0
 11
237.7577004539715
 21
270.6459554127514
 31
0.0
 11
237.7976382634354
 21
270.9242821664851
 31
0.0
 11
237.8637754825745
 21
271.1975562010339
 31
0.0
 11
237.9559293042404
 21
271.4655608718631
 31
0.0
 11
238.0726593555152
 21
271.7237825098807
 31
0.0
 11
238.2142582936772
 21
271.9731691532311
 31
0.0
 11
238.3779358942012
 21
272.2086155310873
 31
0.0
 11
238.5646243677778
 21
272.4316673799115
 31
0.0
 11
238.7702585780486
 21
272.6373354365067
 31
0.0
 11
238.9962527321752
 21
272.8271868412512
 31
0.0
 11
239.2376555412973
 21
272.9969597726227
 31
0.0
 11
239.4959546565206
 21
273.1478214550561
 31
0.0
 11
239.7659040679387
 21
273.2766213219875
 31
0.0
 11
240.0485376669332
 21
273.3839535540012
 31
0.0
 11
240.3389631809936
 21
273.4678815755637
 31
0.0
 11
240.6372592196344
 21
273.5285162262594
 31
0.0
 11
240.9394547738766
 21
273.5649745771755
 31
0.0
 11
241.2443185750902
 21
273.5771884628198
 31
0.0
 11
241.5491823763038
 21
273.5649745771754
 31
0.0
 11
241.851377930546
 21
273.5285162262593
 31
0.0
 11
242.1496739691869
 21
273.4678815755636
 31
0.0
 11
242.4400994832473
 21
273.3839535540011
 31
0.0
 11
242.7227330822416
 21
273.2766213219875
 31
0.0
 11
242.9926824936597
 21
273.147821455056
 31
0.0
 11
243.2509816088831
 21
272.9969597726227
 31
0.0
 11
243.4923844180054
 21
272.8271868412513
 31
0.0
 11
243.7183785721318
 21
272.6373354365067
 31
0.0
 11
243.9240127824026
 21
272.4316673799115
 31
0.0
 11
244.1107012559792
 21
272.2086155310874
 31
0.0
 11
244.2743788565033
 21
271.9731691532313
 31
0.0
 11
244.4159777946653
 21
271.7237825098808
 31
0.0
 11
244.53270784594
 21
271.4655608718631
 31
0.0
 11
244.6248616676058
 21
271.197556201034
 31
0.0
 11
244.6909988867448
 21
270.9242821664851
 31
0.0
 11
244.7309366962087
 21
270.6459554127514
 31
0.0
 11
244.7443185750902
 21
270.3658803181537
 31
0.0
 11
244.7309366962087
 21
270.085805223556
 31
0.0
 11
244.6909988867448
 21
269.8074784698223
 31
0.0
 11
244.6248616676058
 21
269.5342044352734
 31
0.0
 11
244.5327078459401
 21
269.2661997644441
 31
0.0
 11
244.4159777946654
 21
269.0079781264265
 31
0.0
 11
244.2743788565034
 21
268.758591483076
 31
0.0
 11
244.1107012559792
 21
268.5231451052199
 31
0.0
 11
243.9240127824026
 21
268.3000932563958
 31
0.0
 11
243.7183785721318
 21
268.0944251998006
 31
0.0
 11
243.4923844180054
 21
267.9045737950561
 31
0.0
 11
243.2509816088831
 21
267.7348008636847
 31
0.0
 11
242.9926824936596
 21
267.5839391812514
 31
0.0
 11
242.7227330822416
 21
267.4551393143198
 31
0.0
 11
242.4400994832473
 21
267.3478070823061
 31
0.0
 11
242.1496739691869
 21
267.2638790607437
 31
0.0
 11
241.8513779305459
 21
267.2032444100481
 31
0.0
 11
241.5491823763038
 21
267.1667860591319
 31
0.0
 11
241.2443185750902
 21
267.1545721734873
 31
0.0
 11
240.9394547738766
 21
267.1667860591318
 31
0.0
 11
240.6372592196345
 21
267.2032444100481
 31
0.0
 11
240.3389631809936
 21
267.2638790607437
 31
0.0
 11
240.0485376669331
 21
267.3478070823061
 31
0.0
 11
239.7659040679387
 21
267.4551393143198
 31
0.0
 11
239.4959546565207
 21
267.5839391812513
 31
0.0
 11
239.2376555412973
 21
267.7348008636847
 31
0.0
 11
238.9962527321751
 21
267.9045737950561
 31
0.0
 11
238.7702585780487
 21
268.0944251998005
 31
0.0
 11
238.5646243677778
 21
268.3000932563957
 31
0.0
 11
238.3779358942012
 21
268.5231451052199
 31
0.0
 11
238.2142582936771
 21
268.758591483076
 31
0.0
 11
238.0726593555151
 21
269.0079781264265
 31
0.0
 11
237.9559293042404
 21
269.2661997644442
 31
0.0
 11
237.8637754825745
 21
269.5342044352734
 31
0.0
 11
237.7976382634354
 21
269.8074784698223
 31
0.0
 11
237.7577004539716
 21
270.085805223556
 31
0.0
 11
237.7443185750901
 21
270.3658803181536
 31
0.0
 11
237.7577004539715
 21
270.6459554127513
 31
0.0
  0
SPLINE
  5
115
330
4B
100
AcDbEntity
  8
1
  6
Continuous
 62
     7
100
AcDbSpline
210
0.0
220
0.0
230
1.0
 70
    11
 71
     3
 72
    79
 73
    75
 74
    73
 42
0.0000000001
 43
0.0000000001
 44
0.00000001
 40
0.0
 40
0.0
 40
0.0
 40
0.0
 40
0.3114713439932432
 40
0.6228035292711053
 40
0.9472403639552467
 40
1.271464858045383
 40
1.614803252700158
 40
1.957928915792572
 40
2.323150649725108
 40
2.688197477605171
 40
3.07539075958596
 40
3.462454984677013
 40
3.869243829725908
 40
4.275944688499361
 40
4.698050018426565
 40
5.120101305008119
 40
5.551913313124876
 40
5.983699714913489
 40
6.418825159681905
 40
6.853950604450321
 40
7.285737006238942
 40
7.71754901435569
 40
8.139600300937252
 40
8.561705630864433
 40
8.968406489637875
 40
9.375195334686794
 40
9.762259559777871
 40
10.14945284175859
 40
10.51449966963866
 40
10.87972140357119
 40
11.22284706666357
 40
11.56618546131842
 40
11.89040995540859
 40
12.21484679009275
 40
12.52617897537056
 40
12.83765031936381
 40
13.14443943074751
 40
13.45122854213116
 40
13.76269988612433
 40
14.07403207140223
 40
14.3984689060864
 40
14.72269340017662
 40
15.06603179483145
 40
15.40915745792378
 40
15.77437919185626
 40
16.13942601973636
 40
16.52661930171715
 40
16.91368352680823
 40
17.32047237185713
 40
17.72717323063058
 40
18.14927856055776
 40
18.57132984713939
 40
19.00314185525614
 40
19.4349282570447
 40
19.87005370181312
 40
20.30517914658154
 40
20.73696554837022
 40
21.16877755648697
 40
21.59082884306847
 40
22.01293417299567
 40
22.41963503176918
 40
22.82642387681809
 40
23.21348810190919
 40
23.60068138388991
 40
23.96572821176999
 40
24.3309499457025
 40
24.67407560879488
 40
25.0174140034497
 40
25.34163849753987
 40
25.66607533222399
 40
25.97740751750184
 40
26.288878861495
 40
26.5956679728786
 40
26.90245708426234
 40
26.90245708426234
 40
26.90245708426234
 40
26.90245708426234
 10
240.9381409866725
 20
264.0879766320044
 30
0.0
 10
240.8355104453112
 20
264.0713909185062
 30
0.0
 10
240.6302952157132
 20
264.0382269016509
 30
0.0
 10
240.3292220601873
 20
263.9393287408933
 30
0.0
 10
240.0370371132251
 20
263.8075465099464
 30
0.0
 10
239.752668442331
 20
263.637433066722
 30
0.0
 10
239.4825276396362
 20
263.4351643673127
 30
0.0
 10
239.2238061923311
 20
263.1978351780558
 30
0.0
 10
238.9832452975144
 20
262.9323079840184
 30
0.0
 10
238.7577976310606
 20
262.6352627206517
 30
0.0
 10
238.5534771512971
 20
262.3146522278648
 30
0.0
 10
238.3678261418184
 20
261.9670908234941
 30
0.0
 10
238.2055171259492
 20
261.6009152028657
 30
0.0
 10
238.0650043041798
 20
261.2134309633174
 30
0.0
 10
237.9494273558157
 20
260.8124966241471
 30
0.0
 10
237.8580721029057
 20
260.3968118565142
 30
0.0
 10
237.7926929666751
 20
259.9729934948693
 30
0.0
 10
237.753065009193
 20
259.5416328079087
 30
0.0
 10
237.7399285139276
 20
259.1075500689582
 30
0.0
 10
237.7530650091921
 20
258.6734673299953
 30
0.0
 10
237.7926929666786
 20
258.2421066430702
 30
0.0
 10
237.8580721028931
 20
257.8182882812977
 30
0.0
 10
237.9494273558619
 20
257.4026035141297
 30
0.0
 10
238.0650043040102
 20
257.0016691732537
 30
0.0
 10
238.2055171265567
 20
256.6141849398491
 30
0.0
 10
238.3678261395936
 20
256.2480092968356
 30
0.0
 10
238.5534771591551
 20
255.900447972148
 30
0.0
 10
238.7577976023841
 20
255.5798371906381
 30
0.0
 10
238.9832453977761
 20
255.2827929462329
 30
0.0
 10
239.223805826799
 20
255.0172620711624
 30
0.0
 10
239.482528912759
 20
254.7799458317206
 30
0.0
 10
239.7526637898033
 20
254.5776303036114
 30
0.0
 10
240.0370534106961
 20
254.4076824221602
 30
0.0
 10
240.3291621165973
 20
254.2752976801831
 30
0.0
 10
240.6305089572306
 20
254.1785623735877
 30
0.0
 10
240.9358040603934
 20
254.1210971354309
 30
0.0
 10
241.2443185750901
 20
254.1011458816186
 30
0.0
 10
241.5528330897868
 20
254.121097135431
 30
0.0
 10
241.8581281929495
 20
254.1785623735876
 30
0.0
 10
242.1594750335829
 20
254.2752976801831
 30
0.0
 10
242.4515837394841
 20
254.4076824221602
 30
0.0
 10
242.7359733603769
 20
254.5776303036114
 30
0.0
 10
243.0061082374212
 20
254.7799458317205
 30
0.0
 10
243.2648313233812
 20
255.0172620711623
 30
0.0
 10
243.5053917524039
 20
255.2827929462328
 30
0.0
 10
243.7308395477961
 20
255.5798371906382
 30
0.0
 10
243.9351599910251
 20
255.9004479721479
 30
0.0
 10
244.1208110105868
 20
256.2480092968356
 30
0.0
 10
244.2831200236232
 20
256.6141849398491
 30
0.0
 10
244.4236328461701
 20
257.0016691732537
 30
0.0
 10
244.5392097943182
 20
257.4026035141296
 30
0.0
 10
244.6305650472872
 20
257.8182882812977
 30
0.0
 10
244.6959441835016
 20
258.2421066430701
 30
0.0
 10
244.7355721409882
 20
258.6734673299959
 30
0.0
 10
244.7487086362526
 20
259.1075500689562
 30
0.0
 10
244.7355721409883
 20
259.5416328079157
 30
0.0
 10
244.6959441835014
 20
259.9729934948441
 30
0.0
 10
244.630565047288
 20
260.3968118566073
 30
0.0
 10
244.5392097943151
 20
260.8124966238086
 30
0.0
 10
244.4236328461821
 20
261.2134309645629
 30
0.0
 10
244.28312002358
 20
261.6009151984052
 30
0.0
 10
244.1208110107452
 20
261.967090839824
 30
0.0
 10
243.9351599904651
 20
262.3146521701889
 30
0.0
 10
243.7308395498392
 20
262.6352629311274
 30
0.0
 10
243.5053917452605
 20
262.932307248133
 30
0.0
 10
243.2648313494249
 20
263.1978378609323
 30
0.0
 10
243.006108146712
 20
263.4351550230397
 30
0.0
 10
242.7359736918663
 20
263.6374672146355
 30
0.0
 10
242.4515825783002
 20
263.8074268922518
 30
0.0
 10
242.1594793045233
 20
263.9397687057227
 30
0.0
 10
241.8581129640099
 20
264.0366581142238
 30
0.0
 10
241.5528896702754
 20
264.0935558632636
 30
0.0
 10
241.2441109271634
 20
264.115595237734
 30
0.0
 10
241.0401309668361
 20
264.0971828339142
 30
0.0
 10
240.9381409866725
 20
264.0879766320044
 30
0.0
 11
240.9381409866725
 21
264.0879766320044
 31
0.0
 11
240.6320656384522
 21
264.0302507336501
 31
0.0
 11
240.3354425569151
 21
263.9356860621849
 31
0.0
 11
240.0398445820529
 21
263.8019658432304
 31
0.0
 11
239.7611991564968
 21
263.636200197258
 31
0.0
 11
239.4861246055107
 21
263.4307367098839
 31
0.0
 11
239.2328810051968
 21
263.1992137097897
 31
0.0
 11
238.9872907264173
 21
262.9288947687114
 31
0.0
 11
238.7662359256773
 21
262.6383883804596
 31
0.0
 11
238.5577421032855
 21
262.3121232066584
 31
0.0
 11
238.375078019577
 21
261.9708717643636
 31
0.0
 11
238.2098734627361
 21
261.59913984637
 31
0.0
 11
238.0710114822268
 21
261.2168795438324
 31
0.0
 11
237.9538128319749
 21
260.811370744998
 31
0.0
 11
237.8630983713585
 21
260.3991836817122
 31
0.0
 11
237.797083322125
 21
259.9724476700744
 31
0.0
 11
237.7575592722604
 21
259.5424740124489
 31
0.0
 11
237.7443185750901
 21
259.1075500689561
 31
0.0
 11
237.7575592722604
 21
258.6726261254632
 31
0.0
 11
237.7970833221251
 21
258.2426524678377
 31
0.0
 11
237.8630983713585
 21
257.8159164561999
 31
0.0
 11
237.953812831975
 21
257.4037293929141
 31
0.0
 11
238.0710114822268
 21
256.9982205940797
 31
0.0
 11
238.2098734627361
 21
256.6159602915422
 31
0.0
 11
238.375078019577
 21
256.2442283735485
 31
0.0
 11
238.5577421032855
 21
255.9029769312537
 31
0.0
 11
238.7662359256773
 21
255.5767117574526
 31
0.0
 11
238.9872907264172
 21
255.2862053692008
 31
0.0
 11
239.2328810051967
 21
255.0158864281225
 31
0.0
 11
239.4861246055106
 21
254.7843634280283
 31
0.0
 11
239.7611991564968
 21
254.5788999406542
 31
0.0
 11
240.0398445820529
 21
254.4131342946817
 31
0.0
 11
240.3354425569151
 21
254.2794140757272
 31
0.0
 11
240.6320656384522
 21
254.184849404262
 31
0.0
 11
240.9381409866724
 21
254.1271235059077
 31
0.0
 11
241.2443185750901
 21
254.1077626377883
 31
0.0
 11
241.5504961635077
 21
254.1271235059077
 31
0.0
 11
241.8565715117279
 21
254.1848494042619
 31
0.0
 11
242.1531945932651
 21
254.2794140757271
 31
0.0
 11
242.4487925681272
 21
254.4131342946817
 31
0.0
 11
242.7274379936834
 21
254.5788999406542
 31
0.0
 11
243.0025125446696
 21
254.7843634280283
 31
0.0
 11
243.2557561449834
 21
255.0158864281225
 31
0.0
 11
243.5013464237628
 21
255.2862053692008
 31
0.0
 11
243.7224012245029
 21
255.5767117574526
 31
0.0
 11
243.9308950468947
 21
255.9029769312537
 31
0.0
 11
244.1135591306033
 21
256.2442283735485
 31
0.0
 11
244.2787636874441
 21
256.6159602915422
 31
0.0
 11
244.4176256679534
 21
256.9982205940797
 31
0.0
 11
244.5348243182052
 21
257.4037293929141
 31
0.0
 11
244.6255387788218
 21
257.8159164562
 31
0.0
 11
244.6915538280552
 21
258.2426524678378
 31
0.0
 11
244.7310778779199
 21
258.6726261254632
 31
0.0
 11
244.7443185750902
 21
259.1075500689561
 31
0.0
 11
244.7310778779199
 21
259.5424740124489
 31
0.0
 11
244.6915538280552
 21
259.9724476700745
 31
0.0
 11
244.6255387788217
 21
260.3991836817123
 31
0.0
 11
244.5348243182052
 21
260.811370744998
 31
0.0
 11
244.4176256679534
 21
261.2168795438324
 31
0.0
 11
244.278763687444
 21
261.59913984637
 31
0.0
 11
244.1135591306032
 21
261.9708717643637
 31
0.0
 11
243.9308950468947
 21
262.3121232066585
 31
0.0
 11
243.7224012245029
 21
262.6383883804596
 31
0.0
 11
243.5013464237629
 21
262.9288947687114
 31
0.0
 11
243.2557561449834
 21
263.1992137097897
 31
0.0
 11
243.0025125446695
 21
263.4307367098839
 31
0.0
 11
242.7274379936833
 21
263.636200197258
 31
0.0
 11
242.4487925681272
 21
263.8019658432305
 31
0.0
 11
242.153194593265
 21
263.9356860621849
 31
0.0
 11
241.8565715117279
 21
264.03025073365
 31
0.0
 11
241.5504961635077
 21
264.0879766320044
 31
0.0
 11
241.2443185750902
 21
264.1073375001238
 31
0.0
 11
240.9381409866725
 21
264.0879766320044
 31
0.0
  0
SPLINE
  5
116
330
4B
100
AcDbEntity
  8
1
  6
Continuous
 62
     7
100
AcDbSpline
210
0.0
220
0.0
230
1.0
 70
    11
 71
     3
 72
    79
 73
    75
 74
    73
 42
0.0000000001
 43
0.0000000001
 44
0.00000001
 40
0.0
 40
0.0
 40
0.0
 40
0.0
 40
0.3142773867009421
 40
0.6283112411575267
 40
0.9612293766543114
 40
1.293805038039752
 40
1.653399990663325
 40
2.012687710360724
 40
2.402596358667172
 40
2.792277135713638
 40
3.212125602383462
 40
3.631818889113215
 40
4.078023830870309
 40
4.524128916246252
 40
4.990742665932664
 40
5.4572973888732
 40
5.936768753151451
 40
6.416212753073522
 40
6.900062536488229
 40
7.383912319902823
 40
7.863356319824818
 40
8.342827684103025
 40
8.809382407043572
 40
9.275996156730024
 40
9.722101242105941
 40
10.16830618386305
 40
10.5879994705929
 40
11.00784793726275
 40
11.39752871430919
 40
11.78743736261568
 40
12.14672508231305
 40
12.50632003493656
 40
12.83889569632197
 40
13.17181383181875
 40
13.48584768627539
 40
13.80012507297633
 40
14.10756996787612
 40
14.41501486277604
 40
14.72929224947698
 40
15.04332610393351
 40
15.37624423943027
 40
15.70881990081561
 40
16.06841485343919
 40
16.42770257313665
 40
16.81761122144312
 40
17.20729199848953
 40
17.62714046515941
 40
18.04683375188924
 40
18.49303869364632
 40
18.93914377902226
 40
19.40575752870871
 40
19.8723122516492
 40
20.35178361592739
 40
20.83122761584941
 40
21.31507739926412
 40
21.79892718267883
 40
22.27837118260085
 40
22.75784254687906
 40
23.22439726981956
 40
23.69101101950598
 40
24.13711610488192
 40
24.58332104663916
 40
25.00301433336894
 40
25.42286280003876
 40
25.81254357708507
 40
26.20245222539158
 40
26.56173994508902
 40
26.92133489771266
 40
27.25391055909806
 40
27.5868286945948
 40
27.90086254905126
 40
28.21513993575227
 40
28.52258483065207
 40
28.83002972555187
 40
28.83002972555187
 40
28.83002972555187
 40
28.83002972555187
 10
154.2051107673853
 20
405.8002656544182
 30
0.0
 10
154.223703239984
 20
405.6969940997179
 30
0.0
 10
154.2608737779514
 20
405.490531015017
 30
0.0
 10
154.3718200411641
 20
405.1884461825257
 30
0.0
 10
154.5188848839473
 20
404.8962512894798
 30
0.0
 10
154.7090394361974
 20
404.6113969234817
 30
0.0
 10
154.9341741647216
 20
404.3419560007266
 30
0.0
 10
155.1988102348321
 20
404.0831586439691
 30
0.0
 10
155.4938704605128
 20
403.8434809796437
 30
0.0
 10
155.8246365080741
 20
403.6181427379601
 30
0.0
 10
156.1807038300385
 20
403.4145792170293
 30
0.0
 10
156.5674369022216
 20
403.2290869493157
 30
0.0
 10
156.9741103598916
 20
403.0673168365958
 30
0.0
 10
157.4050865556503
 20
402.9269492759287
 30
0.0
 10
157.8504602400001
 20
402.8117062175434
 30
0.0
 10
158.3126731898897
 20
402.7204528793252
 30
0.0
 10
158.7835917825882
 20
402.6552453375938
 30
0.0
 10
159.263123346872
 20
402.6156548701623
 30
0.0
 10
159.7455685846732
 20
402.6025692671918
 30
0.0
 10
160.2280138224895
 20
402.615654870161
 30
0.0
 10
160.7075453867281
 20
402.655245337599
 30
0.0
 10
161.1784639795902
 20
402.7204528793068
 30
0.0
 10
161.640676928886
 20
402.8117062176094
 30
0.0
 10
162.0860506154066
 20
402.9269492756869
 30
0.0
 10
162.5170268034042
 20
403.0673168374542
 30
0.0
 10
162.9237002892008
 20
403.2290869461872
 30
0.0
 10
163.3104332623527
 20
403.4145792279379
 30
0.0
 10
163.6665009404641
 20
403.618142698388
 30
0.0
 10
163.9972657495252
 20
403.8434811156174
 30
0.0
 10
164.2923304068627
 20
404.083158151797
 30
0.0
 10
164.5569511672094
 20
404.3419576785701
 30
0.0
 10
164.7821406669926
 20
404.6113908380126
 30
0.0
 10
164.9721053092137
 20
404.8962721219772
 30
0.0
 10
165.1198545259144
 20
405.1883700114345
 30
0.0
 10
165.2283831225884
 20
405.4907975254978
 30
0.0
 10
165.2925946499622
 20
405.7970322174416
 30
0.0
 10
165.3151957531001
 20
406.1069444144184
 30
0.0
 10
165.2925946499622
 20
406.4168566113954
 30
0.0
 10
165.2283831225884
 20
406.7230913033391
 30
0.0
 10
165.1198545259145
 20
407.0255188174023
 30
0.0
 10
164.9721053092136
 20
407.3176167068596
 30
0.0
 10
164.7821406669926
 20
407.6024979908242
 30
0.0
 10
164.5569511672094
 20
407.8719311502668
 30
0.0
 10
164.2923304068628
 20
408.1307306770399
 30
0.0
 10
163.9972657495252
 20
408.3704077132196
 30
0.0
 10
163.6665009404641
 20
408.5957461304488
 30
0.0
 10
163.3104332623527
 20
408.7993096008992
 30
0.0
 10
162.9237002892007
 20
408.9848018826496
 30
0.0
 10
162.5170268034042
 20
409.1465719913828
 30
0.0
 10
162.0860506154066
 20
409.28693955315
 30
0.0
 10
161.6406769288861
 20
409.4021826112275
 30
0.0
 10
161.1784639795902
 20
409.49343594953
 30
0.0
 10
160.7075453867284
 20
409.5586434912379
 30
0.0
 10
160.2280138224889
 20
409.5982339586759
 30
0.0
 10
159.7455685846755
 20
409.611319561645
 30
0.0
 10
159.2631233468632
 20
409.598233958676
 30
0.0
 10
158.7835917826206
 20
409.5586434912379
 30
0.0
 10
158.3126731897703
 20
409.4934359495308
 30
0.0
 10
157.8504602404323
 20
409.402182611223
 30
0.0
 10
157.4050865540659
 20
409.286939553167
 30
0.0
 10
156.9741103655171
 20
409.1465719913218
 30
0.0
 10
156.5674368817178
 20
408.9848018828716
 30
0.0
 10
156.1807039015342
 20
408.7993096001246
 30
0.0
 10
155.8246362487105
 20
408.5957461332585
 30
0.0
 10
155.4938713517122
 20
408.370407703565
 30
0.0
 10
155.1988070090353
 20
408.1307307119855
 30
0.0
 10
154.9341851616502
 20
407.8719310311351
 30
0.0
 10
154.7089995507881
 20
407.6024984229105
 30
0.0
 10
154.5190214243943
 20
407.3176152276908
 30
0.0
 10
154.3713208002625
 20
407.0255242257745
 30
0.0
 10
154.2626205421252
 20
406.7230723803079
 30
0.0
 10
154.1990375842372
 20
406.4169267821973
 30
0.0
 10
154.1741382644808
 20
406.1066888345556
 30
0.0
 10
154.1947865997505
 20
405.9024067144641
 30
0.0
 10
154.2051107673853
 20
405.8002656544182
 30
0.0
 11
154.2051107673853
 21
405.8002656544182
 31
0.0
 11
154.269732514618
 21
405.4927037816574
 31
0.0
 11
154.3749324820592
 21
405.1968149028613
 31
0.0
 11
154.5248256645321
 21
404.8995498379936
 31
0.0
 11
154.7086000949973
 21
404.6223612212483
 31
0.0
 11
154.938656603939
 21
404.3459873211674
 31
0.0
 11
155.19501844702
 21
404.0942607414475
 31
0.0
 11
155.4971837692779
 21
403.8478365704559
 31
0.0
 11
155.8189248140263
 21
403.6279870580077
 31
0.0
 11
156.1830827474361
 21
403.4190331528043
 31
0.0
 11
156.5613297934153
 21
403.2371770912225
 31
0.0
 11
156.9757436989274
 21
403.0717686120969
 31
0.0
 11
157.3998380920592
 21
402.9333717446741
 31
0.0
 11
157.851481062087
 21
402.8161240623051
 31
0.0
 11
158.309174486539
 21
402.7256252296521
 31
0.0
 11
158.7840826077606
 21
402.6596323091183
 31
0.0
 11
159.2618994823736
 21
402.6201660780295
 31
0.0
 11
159.7455685846758
 21
402.6069444144185
 31
0.0
 11
160.2292376869779
 21
402.6201660780295
 31
0.0
 11
160.7070545615908
 21
402.6596323091184
 31
0.0
 11
161.1819626828124
 21
402.7256252296521
 31
0.0
 11
161.6396561072643
 21
402.8161240623051
 31
0.0
 11
162.0912990772922
 21
402.9333717446741
 31
0.0
 11
162.5153934704239
 21
403.0717686120969
 31
0.0
 11
162.9298073759361
 21
403.2371770912224
 31
0.0
 11
163.3080544219153
 21
403.4190331528043
 31
0.0
 11
163.6722123553251
 21
403.6279870580077
 31
0.0
 11
163.9939534000736
 21
403.8478365704559
 31
0.0
 11
164.2961187223315
 21
404.0942607414476
 31
0.0
 11
164.5524805654125
 21
404.3459873211675
 31
0.0
 11
164.7825370743541
 21
404.6223612212483
 31
0.0
 11
164.9663115048193
 21
404.8995498379935
 31
0.0
 11
165.1162046872922
 21
405.1968149028612
 31
0.0
 11
165.2214046547334
 21
405.4927037816574
 31
0.0
 11
165.2860264019661
 21
405.8002656544182
 31
0.0
 11
165.3077174499975
 21
406.1069444144184
 31
0.0
 11
165.2860264019661
 21
406.4136231744187
 31
0.0
 11
165.2214046547334
 21
406.7211850471796
 31
0.0
 11
165.1162046872922
 21
407.0170739259756
 31
0.0
 11
164.9663115048193
 21
407.3143389908433
 31
0.0
 11
164.7825370743541
 21
407.5915276075885
 31
0.0
 11
164.5524805654125
 21
407.8679015076694
 31
0.0
 11
164.2961187223315
 21
408.1196280873894
 31
0.0
 11
163.9939534000736
 21
408.3660522583811
 31
0.0
 11
163.6722123553251
 21
408.5859017708292
 31
0.0
 11
163.3080544219153
 21
408.7948556760326
 31
0.0
 11
162.9298073759361
 21
408.9767117376144
 31
0.0
 11
162.515393470424
 21
409.14212021674
 31
0.0
 11
162.0912990772922
 21
409.2805170841627
 31
0.0
 11
161.6396561072643
 21
409.3977647665317
 31
0.0
 11
161.1819626828124
 21
409.4882635991847
 31
0.0
 11
160.7070545615908
 21
409.5542565197185
 31
0.0
 11
160.2292376869779
 21
409.5937227508074
 31
0.0
 11
159.7455685846757
 21
409.6069444144185
 31
0.0
 11
159.2618994823735
 21
409.5937227508074
 31
0.0
 11
158.7840826077606
 21
409.5542565197186
 31
0.0
 11
158.309174486539
 21
409.4882635991846
 31
0.0
 11
157.8514810620871
 21
409.3977647665317
 31
0.0
 11
157.3998380920593
 21
409.2805170841627
 31
0.0
 11
156.9757436989274
 21
409.1421202167401
 31
0.0
 11
156.5613297934152
 21
408.9767117376143
 31
0.0
 11
156.183082747436
 21
408.7948556760325
 31
0.0
 11
155.8189248140263
 21
408.5859017708291
 31
0.0
 11
155.4971837692779
 21
408.3660522583811
 31
0.0
 11
155.1950184470199
 21
408.1196280873894
 31
0.0
 11
154.9386566039389
 21
407.8679015076694
 31
0.0
 11
154.7086000949973
 21
407.5915276075884
 31
0.0
 11
154.5248256645321
 21
407.3143389908432
 31
0.0
 11
154.3749324820593
 21
407.0170739259755
 31
0.0
 11
154.2697325146181
 21
406.7211850471795
 31
0.0
 11
154.2051107673853
 21
406.4136231744186
 31
0.0
 11
154.1834197193539
 21
406.1069444144184
 31
0.0
 11
154.2051107673853
 21
405.8002656544182
 31
0.0
  0
SPLINE
  5
117
330
4B
100
AcDbEntity
  8
1
  6
Continuous
 62
     7
100
AcDbSpline
210
0.0
220
0.0
230
1.0
 70
    11
 71
     3
 72
    79
 73
    75
 74
    73
 42
0.0000000001
 43
0.0000000001
 44
0.00000001
 40
0.0
 40
0.0
 40
0.0
 40
0.0
 40
0.3142773867009421
 40
0.6283112411575458
 40
0.9612293766543179
 40
1.293805038039775
 40
1.653399990663311
 40
2.01268771036075
 40
2.402596358667242
 40
2.792277135713615
 40
3.212125602383414
 40
3.631818889113193
 40
4.07802383087034
 40
4.524128916246229
 40
4.990742665932668
 40
5.457297388873177
 40
5.936768753151428
 40
6.416212753073499
 40
6.900062536488206
 40
7.383912319902857
 40
7.863356319824823
 40
8.342827684103058
 40
8.809382407043605
 40
9.275996156730031
 40
9.722101242105948
 40
10.16830618386303
 40
10.58799947059285
 40
11.00784793726273
 40
11.39752871430917
 40
11.78743736261563
 40
12.14672508231301
 40
12.50632003493654
 40
12.83889569632195
 40
13.17181383181873
 40
13.4858476862754
 40
13.80012507297634
 40
14.10756996787614
 40
14.41501486277605
 40
14.72929224947699
 40
15.04332610393353
 40
15.3762442394303
 40
15.70881990081566
 40
16.06841485343928
 40
16.42770257313668
 40
16.81761122144313
 40
17.20729199848956
 40
17.62714046515951
 40
18.04683375188931
 40
18.49303869364639
 40
18.93914377902231
 40
19.40575752870873
 40
19.87231225164925
 40
20.35178361592746
 40
20.83122761584954
 40
21.31507739926419
 40
21.79892718267885
 40
22.27837118260086
 40
22.75784254687913
 40
23.22439726981966
 40
23.69101101950608
 40
24.13711610488196
 40
24.58332104663915
 40
25.00301433336898
 40
25.42286280003876
 40
25.81254357708507
 40
26.20245222539156
 40
26.56173994508904
 40
26.9213348977127
 40
27.25391055909811
 40
27.58682869459485
 40
27.90086254905134
 40
28.21513993575234
 40
28.52258483065214
 40
28.83002972555193
 40
28.83002972555193
 40
28.83002972555193
 40
28.83002972555193
 10
152.2860264019659
 20
405.8002656544182
 30
0.0
 10
152.2674339293672
 20
405.696994099718
 30
0.0
 10
152.2302633913998
 20
405.4905310150172
 30
0.0
 10
152.1193171281871
 20
405.1884461825256
 30
0.0
 10
151.9722522854039
 20
404.8962512894798
 30
0.0
 10
151.7820977331538
 20
404.6113969234818
 30
0.0
 10
151.5569630046296
 20
404.3419560007266
 30
0.0
 10
151.292326934519
 20
404.0831586439692
 30
0.0
 10
150.9972667088383
 20
403.8434809796436
 30
0.0
 10
150.6665006612771
 20
403.6181427379601
 30
0.0
 10
150.3104333393127
 20
403.4145792170294
 30
0.0
 10
149.9237002671296
 20
403.2290869493156
 30
0.0
 10
149.5170268094595
 20
403.0673168365958
 30
0.0
 10
149.0860506137009
 20
402.9269492759288
 30
0.0
 10
148.640676929351
 20
402.8117062175433
 30
0.0
 10
148.1784639794615
 20
402.7204528793252
 30
0.0
 10
147.707545386763
 20
402.6552453375938
 30
0.0
 10
147.2280138224792
 20
402.6156548701624
 30
0.0
 10
146.745568584678
 20
402.6025692671916
 30
0.0
 10
146.2631233468616
 20
402.6156548701611
 30
0.0
 10
145.783591782623
 20
402.6552453375989
 30
0.0
 10
145.312673189761
 20
402.720452879307
 30
0.0
 10
144.8504602404651
 20
402.8117062176093
 30
0.0
 10
144.4050865539445
 20
402.926949275687
 30
0.0
 10
143.974110365947
 20
403.0673168374543
 30
0.0
 10
143.5674368801504
 20
403.2290869461871
 30
0.0
 10
143.1807039069986
 20
403.4145792279379
 30
0.0
 10
142.8246362288871
 20
403.6181426983878
 30
0.0
 10
142.4938714198261
 20
403.8434811156174
 30
0.0
 10
142.1988067624885
 20
404.083158151797
 30
0.0
 10
141.9341860021418
 20
404.34195767857
 30
0.0
 10
141.7089965023586
 20
404.6113908380127
 30
0.0
 10
141.5190318601376
 20
404.8962721219772
 30
0.0
 10
141.3712826434367
 20
405.1883700114346
 30
0.0
 10
141.2627540467628
 20
405.4907975254979
 30
0.0
 10
141.1985425193889
 20
405.7970322174415
 30
0.0
 10
141.1759414162511
 20
406.1069444144186
 30
0.0
 10
141.1985425193889
 20
406.4168566113953
 30
0.0
 10
141.2627540467627
 20
406.7230913033392
 30
0.0
 10
141.3712826434367
 20
407.0255188174024
 30
0.0
 10
141.5190318601375
 20
407.3176167068596
 30
0.0
 10
141.7089965023586
 20
407.6024979908243
 30
0.0
 10
141.9341860021417
 20
407.8719311502669
 30
0.0
 10
142.1988067624884
 20
408.1307306770399
 30
0.0
 10
142.493871419826
 20
408.3704077132196
 30
0.0
 10
142.8246362288871
 20
408.5957461304488
 30
0.0
 10
143.1807039069985
 20
408.7993096008991
 30
0.0
 10
143.5674368801505
 20
408.9848018826497
 30
0.0
 10
143.974110365947
 20
409.1465719913826
 30
0.0
 10
144.4050865539445
 20
409.2869395531499
 30
0.0
 10
144.8504602404651
 20
409.4021826112275
 30
0.0
 10
145.3126731897609
 20
409.4934359495298
 30
0.0
 10
145.7835917826229
 20
409.5586434912381
 30
0.0
 10
146.2631233468623
 20
409.5982339586758
 30
0.0
 10
146.7455685846756
 20
409.6113195616449
 30
0.0
 10
147.228013822488
 20
409.598233958676
 30
0.0
 10
147.7075453867307
 20
409.5586434912378
 30
0.0
 10
148.1784639795808
 20
409.4934359495311
 30
0.0
 10
148.6406769289189
 20
409.4021826112229
 30
0.0
 10
149.0860506152854
 20
409.2869395531671
 30
0.0
 10
149.517026803834
 20
409.1465719913218
 30
0.0
 10
149.9237002876334
 20
408.9848018828716
 30
0.0
 10
150.3104332678169
 20
408.7993096001247
 30
0.0
 10
150.6665009206407
 20
408.5957461332584
 30
0.0
 10
150.9972658176389
 20
408.3704077035649
 30
0.0
 10
151.2923301603158
 20
408.1307307119856
 30
0.0
 10
151.556952007701
 20
407.8719310311352
 30
0.0
 10
151.782137618563
 20
407.6024984229104
 30
0.0
 10
151.972115744957
 20
407.3176152276908
 30
0.0
 10
152.1198163690887
 20
407.0255242257744
 30
0.0
 10
152.2285166272261
 20
406.723072380308
 30
0.0
 10
152.2920995851139
 20
406.4169267821973
 30
0.0
 10
152.3169989048704
 20
406.1066888345555
 30
0.0
 10
152.2963505696007
 20
405.902406714464
 30
0.0
 10
152.2860264019659
 20
405.8002656544182
 30
0.0
 11
152.2860264019659
 21
405.8002656544182
 31
0.0
 11
152.2214046547332
 21
405.4927037816574
 31
0.0
 11
152.1162046872919
 21
405.1968149028613
 31
0.0
 11
151.9663115048191
 21
404.8995498379936
 31
0.0
 11
151.7825370743538
 21
404.6223612212483
 31
0.0
 11
151.5524805654122
 21
404.3459873211674
 31
0.0
 11
151.2961187223312
 21
404.0942607414475
 31
0.0
 11
150.9939534000732
 21
403.8478365704559
 31
0.0
 11
150.6722123553249
 21
403.6279870580077
 31
0.0
 11
150.3080544219151
 21
403.4190331528043
 31
0.0
 11
149.9298073759359
 21
403.2371770912225
 31
0.0
 11
149.5153934704237
 21
403.0717686120969
 31
0.0
 11
149.091299077292
 21
402.9333717446741
 31
0.0
 11
148.6396561072642
 21
402.8161240623051
 31
0.0
 11
148.1819626828122
 21
402.7256252296521
 31
0.0
 11
147.7070545615906
 21
402.6596323091183
 31
0.0
 11
147.2292376869776
 21
402.6201660780295
 31
0.0
 11
146.7455685846754
 21
402.6069444144185
 31
0.0
 11
146.2618994823733
 21
402.6201660780295
 31
0.0
 11
145.7840826077604
 21
402.6596323091184
 31
0.0
 11
145.3091744865388
 21
402.7256252296521
 31
0.0
 11
144.8514810620868
 21
402.8161240623051
 31
0.0
 11
144.399838092059
 21
402.9333717446741
 31
0.0
 11
143.9757436989272
 21
403.0717686120969
 31
0.0
 11
143.5613297934151
 21
403.2371770912224
 31
0.0
 11
143.1830827474359
 21
403.4190331528043
 31
0.0
 11
142.8189248140261
 21
403.6279870580077
 31
0.0
 11
142.4971837692776
 21
403.8478365704559
 31
0.0
 11
142.1950184470197
 21
404.0942607414476
 31
0.0
 11
141.9386566039388
 21
404.3459873211675
 31
0.0
 11
141.7086000949971
 21
404.6223612212483
 31
0.0
 11
141.5248256645319
 21
404.8995498379935
 31
0.0
 11
141.374932482059
 21
405.1968149028612
 31
0.0
 11
141.2697325146177
 21
405.4927037816574
 31
0.0
 11
141.205110767385
 21
405.8002656544182
 31
0.0
 11
141.1834197193536
 21
406.1069444144184
 31
0.0
 11
141.205110767385
 21
406.4136231744187
 31
0.0
 11
141.2697325146177
 21
406.7211850471796
 31
0.0
 11
141.3749324820589
 21
407.0170739259756
 31
0.0
 11
141.5248256645318
 21
407.3143389908433
 31
0.0
 11
141.708600094997
 21
407.5915276075885
 31
0.0
 11
141.9386566039387
 21
407.8679015076694
 31
0.0
 11
142.1950184470196
 21
408.1196280873894
 31
0.0
 11
142.4971837692775
 21
408.3660522583811
 31
0.0
 11
142.818924814026
 21
408.5859017708292
 31
0.0
 11
143.1830827474359
 21
408.7948556760326
 31
0.0
 11
143.5613297934151
 21
408.9767117376144
 31
0.0
 11
143.9757436989272
 21
409.14212021674
 31
0.0
 11
144.399838092059
 21
409.2805170841627
 31
0.0
 11
144.8514810620868
 21
409.3977647665317
 31
0.0
 11
145.3091744865388
 21
409.4882635991847
 31
0.0
 11
145.7840826077604
 21
409.5542565197185
 31
0.0
 11
146.2618994823733
 21
409.5937227508074
 31
0.0
 11
146.7455685846755
 21
409.6069444144185
 31
0.0
 11
147.2292376869776
 21
409.5937227508074
 31
0.0
 11
147.7070545615906
 21
409.5542565197186
 31
0.0
 11
148.1819626828122
 21
409.4882635991846
 31
0.0
 11
148.6396561072642
 21
409.3977647665317
 31
0.0
 11
149.091299077292
 21
409.2805170841627
 31
0.0
 11
149.5153934704237
 21
409.1421202167401
 31
0.0
 11
149.9298073759359
 21
408.9767117376143
 31
0.0
 11
150.3080544219152
 21
408.7948556760325
 31
0.0
 11
150.6722123553249
 21
408.5859017708291
 31
0.0
 11
150.9939534000732
 21
408.3660522583811
 31
0.0
 11
151.2961187223312
 21
408.1196280873894
 31
0.0
 11
151.5524805654122
 21
407.8679015076694
 31
0.0
 11
151.7825370743539
 21
407.5915276075884
 31
0.0
 11
151.9663115048191
 21
407.3143389908432
 31
0.0
 11
152.1162046872919
 21
407.0170739259755
 31
0.0
 11
152.2214046547332
 21
406.7211850471795
 31
0.0
 11
152.2860264019659
 21
406.4136231744186
 31
0.0
 11
152.3077174499973
 21
406.1069444144184
 31
0.0
 11
152.2860264019659
 21
405.8002656544182
 31
0.0
  0
ENDBLK
  5
4D
330
4B
100
AcDbEntity
  8
0
100
AcDbBlockEnd
  0
BLOCK
  5
4F
330
4E
100
AcDbEntity
  8
0
100
AcDbBlockBegin
  2
36-1A-13-M11
 70
     0
 71
     0
 10
372.8134445845263
 20
156.7254240595199
 30
0.0
  3
36-1A-13-M11
  1

  0
LINE
  5
118
330
4E
100
AcDbEntity
  8
1
  6
Continuous
 62
     7
100
AcDbLine
 10
148.4955685750904
 20
392.6069444144188
 30
0.0
 11
148.4955685750904
 21
395.6069444144188
 31
0.0
  0
LINE
  5
119
330
4E
100
AcDbEntity
  8
1
  6
Continuous
 62
     7
100
AcDbLine
 10
157.9955685750904
 20
395.6069444144188
 30
0.0
 11
157.9955685750904
 21
392.6069444144188
 31
0.0
  0
LINE
  5
11A
330
4E
100
AcDbEntity
  8
1
  6
Continuous
 62
     7
100
AcDbLine
 10
227.7443185750901
 20
263.8575500689561
 30
0.0
 11
230.7443185750901
 21
263.8575500689561
 31
0.0
  0
LINE
  5
11B
330
4E
100
AcDbEntity
  8
1
  6
Continuous
 62
     7
100
AcDbLine
 10
230.7443185750901
 20
254.3575500689561
 30
0.0
 11
227.7443185750901
 21
254.3575500689561
 31
0.0
  0
LINE
  5
11C
330
4E
100
AcDbEntity
  8
1
  6
Continuous
 62
     7
100
AcDbLine
 10
147.771310063657
 20
431.6075694144186
 30
0.0
 11
158.7198270865234
 21
431.6075694144186
 31
0.0
  0
ENDBLK
  5
50
330
4E
100
AcDbEntity
  8
0
100
AcDbBlockEnd
  0
BLOCK
  5
52
330
51
100
AcDbEntity
  8
0
100
AcDbBlockBegin
  2
42-1
 70
     0
 71
     0
 10
423.533967584675
 20
171.0032899823526
 30
0.0
  3
42-1
  1

  0
LINE
  5
11D
330
51
100
AcDbEntity
  8
1
  6
Continuous
 62
     2
100
AcDbLine
 10
151.7455685750907
 20
380.6693505860494
 30
0.0
 11
151.7455685750907
 21
379.3206242561968
 31
0.0
  0
LINE
  5
11E
330
51
100
AcDbEntity
  8
1
  6
Continuous
 62
     2
100
AcDbLine
 10
150.7455685750907
 20
380.9933952237412
 30
0.0
 11
150.7455685750907
 21
379.0754012871327
 31
0.0
  0
LINE
  5
11F
330
51
100
AcDbEntity
  8
1
  6
Continuous
 62
     2
100
AcDbLine
 10
149.7455685750907
 20
381.3524717141565
 30
0.0
 11
149.7455685750907
 21
378.8827260971537
 31
0.0
  0
LINE
  5
120
330
51
100
AcDbEntity
  8
1
  6
Continuous
 62
     2
100
AcDbLine
 10
148.7455685750907
 20
381.5013570882312
 30
0.0
 11
148.7455685750907
 21
378.7513566494408
 31
0.0
  0
LINE
  5
121
330
51
100
AcDbEntity
  8
1
  6
Continuous
 62
     7
100
AcDbLine
 10
150.5955685750907
 20
381.6069444144186
 30
0.0
 11
147.7455685750907
 21
381.6069444144186
 31
0.0
  0
LINE
  5
122
330
51
100
AcDbEntity
  8
1
  6
Continuous
 62
     7
100
AcDbLine
 10
147.7455685750907
 20
378.6069444144186
 30
0.0
 11
158.7455685750907
 21
378.6069444144186
 31
0.0
  0
LINE
  5
123
330
51
100
AcDbEntity
  8
1
  6
Continuous
 62
     2
100
AcDbLine
 10
147.7455685750907
 20
381.6069444144186
 30
0.0
 11
147.7455685750907
 21
378.6069444144186
 31
0.0
  0
LINE
  5
124
330
51
100
AcDbEntity
  8
1
  6
Continuous
 62
     7
100
AcDbLine
 10
146.7455685750907
 20
381.6069444144186
 30
0.0
 11
147.7455685750907
 21
381.6069444144186
 31
0.0
  0
LINE
  5
125
330
51
100
AcDbEntity
  8
1
  6
Continuous
 62
     7
100
AcDbLine
 10
146.7455685750907
 20
378.6069444144186
 30
0.0
 11
147.7455685750907
 21
378.6069444144186
 31
0.0
  0
LINE
  5
126
330
51
100
AcDbEntity
  8
1
  6
Continuous
 62
     2
100
AcDbLine
 10
146.7455685750907
 20
381.6069444144186
 30
0.0
 11
146.7455685750907
 21
378.6069444144186
 31
0.0
  0
LINE
  5
127
330
51
100
AcDbEntity
  8
1
  6
Continuous
 62
     7
100
AcDbLine
 10
150.5955685750907
 20
381.6069444144186
 30
0.0
 11
155.8955685750907
 21
381.6069444144186
 31
0.0
  0
LINE
  5
128
330
51
100
AcDbEntity
  8
1
  6
Continuous
 62
     7
100
AcDbLine
 10
146.2455685750907
 20
378.6069444144186
 30
0.0
 11
146.2455685750907
 21
381.6069444144186
 31
0.0
  0
LINE
  5
129
330
51
100
AcDbEntity
  8
1
  6
Continuous
 62
     7
100
AcDbLine
 10
146.7455685750907
 20
381.6069444144186
 30
0.0
 11
146.2455685750907
 21
381.6069444144186
 31
0.0
  0
LINE
  5
12A
330
51
100
AcDbEntity
  8
1
  6
Continuous
 62
     7
100
AcDbLine
 10
147.2455685750906
 20
378.3376222153954
 30
0.0
 11
146.2455685750907
 21
378.6069444144186
 31
0.0
  0
LINE
  5
12B
330
51
100
AcDbEntity
  8
1
  6
Continuous
 62
     7
100
AcDbLine
 10
146.7455685750907
 20
378.6069444144186
 30
0.0
 11
146.2455685750907
 21
378.6069444144186
 31
0.0
  0
LINE
  5
12C
330
51
100
AcDbEntity
  8
1
  6
Continuous
 62
     7
100
AcDbLine
 10
153.2455685750907
 20
378.2771786942148
 30
0.0
 11
147.4955685750907
 21
378.2771786942148
 31
0.0
  0
LINE
  5
12D
330
51
100
AcDbEntity
  8
1
  6
Continuous
 62
     7
100
AcDbLine
 10
158.9955685750907
 20
378.2771786942148
 30
0.0
 11
153.2455685750907
 21
378.2771786942148
 31
0.0
  0
LINE
  5
12E
330
51
100
AcDbEntity
  8
1
  6
Continuous
 62
     7
100
AcDbLine
 10
158.7455685750907
 20
381.6069444144186
 30
0.0
 11
159.7455685750907
 21
381.6069444144186
 31
0.0
  0
LINE
  5
12F
330
51
100
AcDbEntity
  8
1
  6
Continuous
 62
     7
100
AcDbLine
 10
158.7455685750907
 20
378.6069444144186
 30
0.0
 11
159.7455685750907
 21
378.6069444144186
 31
0.0
  0
LINE
  5
130
330
51
100
AcDbEntity
  8
1
  6
Continuous
 62
     7
100
AcDbLine
 10
160.2455685750907
 20
378.6069444144186
 30
0.0
 11
159.7455685750907
 21
378.6069444144186
 31
0.0
  0
LINE
  5
131
330
51
100
AcDbEntity
  8
1
  6
Continuous
 62
     7
100
AcDbLine
 10
160.2455685750907
 20
378.6069444144186
 30
0.0
 11
159.2455685750908
 21
378.3376222153954
 31
0.0
  0
LINE
  5
132
330
51
100
AcDbEntity
  8
1
  6
Continuous
 62
     7
100
AcDbLine
 10
160.2455685750907
 20
381.6069444144186
 30
0.0
 11
159.7455685750907
 21
381.6069444144186
 31
0.0
  0
LINE
  5
133
330
51
100
AcDbEntity
  8
1
  6
Continuous
 62
     7
100
AcDbLine
 10
160.2455685750907
 20
381.6069444144186
 30
0.0
 11
160.2455685750907
 21
378.6069444144186
 31
0.0
  0
LINE
  5
134
330
51
100
AcDbEntity
  8
1
  6
Continuous
 62
     2
100
AcDbLine
 10
159.7455685750907
 20
378.6069444144186
 30
0.0
 11
159.7455685750907
 21
381.6069444144186
 31
0.0
  0
LINE
  5
135
330
51
100
AcDbEntity
  8
1
  6
Continuous
 62
     2
100
AcDbLine
 10
158.7455685750907
 20
378.6069444144186
 30
0.0
 11
158.7455685750907
 21
381.6069444144186
 31
0.0
  0
LINE
  5
136
330
51
100
AcDbEntity
  8
1
  6
Continuous
 62
     7
100
AcDbLine
 10
158.7455685750907
 20
381.6069444144186
 30
0.0
 11
155.8955685750907
 21
381.6069444144186
 31
0.0
  0
LINE
  5
137
330
51
100
AcDbEntity
  8
1
  6
Continuous
 62
     2
100
AcDbLine
 10
157.7455685750907
 20
378.7513566494408
 30
0.0
 11
157.7455685750907
 21
381.5013570882312
 31
0.0
  0
LINE
  5
138
330
51
100
AcDbEntity
  8
1
  6
Continuous
 62
     2
100
AcDbLine
 10
156.7455685750907
 20
378.8827260971537
 30
0.0
 11
156.7455685750907
 21
381.3524717141565
 31
0.0
  0
LINE
  5
139
330
51
100
AcDbEntity
  8
1
  6
Continuous
 62
     2
100
AcDbLine
 10
155.7455685750907
 20
379.0754012871327
 30
0.0
 11
155.7455685750907
 21
380.9933952237412
 31
0.0
  0
LINE
  5
13A
330
51
100
AcDbEntity
  8
1
  6
Continuous
 62
     2
100
AcDbLine
 10
154.7455685750907
 20
379.3206242561968
 30
0.0
 11
154.7455685750907
 21
380.6693505860494
 31
0.0
  0
LINE
  5
13B
330
51
100
AcDbEntity
  8
1
  6
Continuous
 62
     2
100
AcDbLine
 10
215.8067247467209
 20
260.6075500689561
 30
0.0
 11
214.4579984168683
 21
260.6075500689561
 31
0.0
  0
LINE
  5
13C
330
51
100
AcDbEntity
  8
1
  6
Continuous
 62
     2
100
AcDbLine
 10
216.1307693844127
 20
261.6075500689561
 30
0.0
 11
214.2127754478042
 21
261.6075500689561
 31
0.0
  0
LINE
  5
13D
330
51
100
AcDbEntity
  8
1
  6
Continuous
 62
     2
100
AcDbLine
 10
216.489845874828
 20
262.6075500689561
 30
0.0
 11
214.0201002578253
 21
262.6075500689561
 31
0.0
  0
LINE
  5
13E
330
51
100
AcDbEntity
  8
1
  6
Continuous
 62
     2
100
AcDbLine
 10
216.6387312489027
 20
263.6075500689561
 30
0.0
 11
213.8887308101123
 21
263.6075500689561
 31
0.0
  0
LINE
  5
13F
330
51
100
AcDbEntity
  8
1
  6
Continuous
 62
     7
100
AcDbLine
 10
213.7443185750901
 20
264.6075500689561
 30
0.0
 11
213.7443185750901
 21
253.6075500689561
 31
0.0
  0
LINE
  5
140
330
51
100
AcDbEntity
  8
1
  6
Continuous
 62
     2
100
AcDbLine
 10
216.7443185750901
 20
264.6075500689561
 30
0.0
 11
213.7443185750901
 21
264.6075500689561
 31
0.0
  0
LINE
  5
141
330
51
100
AcDbEntity
  8
1
  6
Continuous
 62
     7
100
AcDbLine
 10
216.7443185750901
 20
265.6075500689561
 30
0.0
 11
216.7443185750901
 21
264.6075500689561
 31
0.0
  0
LINE
  5
142
330
51
100
AcDbEntity
  8
1
  6
Continuous
 62
     7
100
AcDbLine
 10
213.7443185750901
 20
265.6075500689561
 30
0.0
 11
213.7443185750901
 21
264.6075500689561
 31
0.0
  0
LINE
  5
143
330
51
100
AcDbEntity
  8
1
  6
Continuous
 62
     2
100
AcDbLine
 10
216.7443185750901
 20
265.6075500689561
 30
0.0
 11
213.7443185750901
 21
265.6075500689561
 31
0.0
  0
LINE
  5
144
330
51
100
AcDbEntity
  8
1
  6
Continuous
 62
     7
100
AcDbLine
 10
213.7443185750901
 20
266.1075500689561
 30
0.0
 11
216.7443185750901
 21
266.1075500689561
 31
0.0
  0
LINE
  5
145
330
51
100
AcDbEntity
  8
1
  6
Continuous
 62
     7
100
AcDbLine
 10
216.7443185750901
 20
265.6075500689561
 30
0.0
 11
216.7443185750901
 21
266.1075500689561
 31
0.0
  0
LINE
  5
146
330
51
100
AcDbEntity
  8
1
  6
Continuous
 62
     7
100
AcDbLine
 10
213.4749963760669
 20
265.1075500689562
 30
0.0
 11
213.7443185750901
 21
266.1075500689561
 31
0.0
  0
LINE
  5
147
330
51
100
AcDbEntity
  8
1
  6
Continuous
 62
     7
100
AcDbLine
 10
213.7443185750901
 20
265.6075500689561
 30
0.0
 11
213.7443185750901
 21
266.1075500689561
 31
0.0
  0
LINE
  5
148
330
51
100
AcDbEntity
  8
1
  6
Continuous
 62
     7
100
AcDbLine
 10
213.4145528548864
 20
259.1075500689561
 30
0.0
 11
213.4145528548864
 21
264.8575500689561
 31
0.0
  0
LINE
  5
149
330
51
100
AcDbEntity
  8
1
  6
Continuous
 62
     7
100
AcDbLine
 10
213.4145528548864
 20
253.3575500689561
 30
0.0
 11
213.4145528548864
 21
259.1075500689561
 31
0.0
  0
LINE
  5
14A
330
51
100
AcDbEntity
  8
1
  6
Continuous
 62
     7
100
AcDbLine
 10
216.7443185750901
 20
253.6075500689561
 30
0.0
 11
216.7443185750901
 21
252.6075500689561
 31
0.0
  0
LINE
  5
14B
330
51
100
AcDbEntity
  8
1
  6
Continuous
 62
     7
100
AcDbLine
 10
213.7443185750901
 20
253.6075500689561
 30
0.0
 11
213.7443185750901
 21
252.6075500689561
 31
0.0
  0
LINE
  5
14C
330
51
100
AcDbEntity
  8
1
  6
Continuous
 62
     7
100
AcDbLine
 10
213.7443185750901
 20
252.1075500689561
 30
0.0
 11
213.7443185750901
 21
252.6075500689561
 31
0.0
  0
LINE
  5
14D
330
51
100
AcDbEntity
  8
1
  6
Continuous
 62
     7
100
AcDbLine
 10
213.7443185750901
 20
252.1075500689561
 30
0.0
 11
213.4749963760669
 21
253.107550068956
 31
0.0
  0
LINE
  5
14E
330
51
100
AcDbEntity
  8
1
  6
Continuous
 62
     7
100
AcDbLine
 10
216.7443185750901
 20
252.1075500689561
 30
0.0
 11
216.7443185750901
 21
252.6075500689561
 31
0.0
  0
LINE
  5
14F
330
51
100
AcDbEntity
  8
1
  6
Continuous
 62
     7
100
AcDbLine
 10
216.7443185750901
 20
252.1075500689561
 30
0.0
 11
213.7443185750901
 21
252.1075500689561
 31
0.0
  0
LINE
  5
150
330
51
100
AcDbEntity
  8
1
  6
Continuous
 62
     2
100
AcDbLine
 10
213.7443185750901
 20
252.6075500689561
 30
0.0
 11
216.7443185750901
 21
252.6075500689561
 31
0.0
  0
LINE
  5
151
330
51
100
AcDbEntity
  8
1
  6
Continuous
 62
     2
100
AcDbLine
 10
213.7443185750901
 20
253.6075500689561
 30
0.0
 11
216.7443185750901
 21
253.6075500689561
 31
0.0
  0
LINE
  5
152
330
51
100
AcDbEntity
  8
1
  6
Continuous
 62
     7
100
AcDbLine
 10
216.7443185750901
 20
253.6075500689561
 30
0.0
 11
216.7443185750901
 21
264.6075500689561
 31
0.0
  0
LINE
  5
153
330
51
100
AcDbEntity
  8
1
  6
Continuous
 62
     2
100
AcDbLine
 10
213.8887308101123
 20
254.6075500689561
 30
0.0
 11
216.6387312489027
 21
254.6075500689561
 31
0.0
  0
LINE
  5
154
330
51
100
AcDbEntity
  8
1
  6
Continuous
 62
     2
100
AcDbLine
 10
214.0201002578253
 20
255.6075500689561
 30
0.0
 11
216.489845874828
 21
255.6075500689561
 31
0.0
  0
LINE
  5
155
330
51
100
AcDbEntity
  8
1
  6
Continuous
 62
     2
100
AcDbLine
 10
214.2127754478042
 20
256.6075500689561
 30
0.0
 11
216.1307693844127
 21
256.6075500689561
 31
0.0
  0
LINE
  5
156
330
51
100
AcDbEntity
  8
1
  6
Continuous
 62
     2
100
AcDbLine
 10
214.4579984168683
 20
257.6075500689561
 30
0.0
 11
215.8067247467209
 21
257.6075500689561
 31
0.0
  0
ARC
  5
157
330
51
100
AcDbEntity
  8
1
  6
Continuous
 62
     7
100
AcDbCircle
 10
153.2455685750907
 20
402.6069444144186
 30
0.0
 40
25.00000000000001
100
AcDbArc
 50
-103.8865403626292
 51
-103.297071747209
  0
ARC
  5
158
330
51
100
AcDbEntity
  8
1
  6
Continuous
 62
     7
100
AcDbCircle
 10
153.2455685750907
 20
402.6069444144186
 30
0.0
 40
25.0
100
AcDbArc
 50
-90.0
 51
-76.70292825279098
  0
ARC
  5
159
330
51
100
AcDbEntity
  8
1
  6
Continuous
 62
     7
100
AcDbCircle
 10
153.2455685750907
 20
402.6069444144186
 30
0.0
 40
25.00000000000008
100
AcDbArc
 50
-76.70292825279098
 51
-76.11345963737075
  0
ARC
  5
15A
330
51
100
AcDbEntity
  8
1
  6
Continuous
 62
     7
100
AcDbCircle
 10
153.2455685750907
 20
402.6069444144186
 30
0.0
 40
25.00000000000008
100
AcDbArc
 50
-103.297071747209
 51
-90.0
  0
ARC
  5
15B
330
51
100
AcDbEntity
  8
1
  6
Continuous
 62
     7
100
AcDbCircle
 10
237.7443185750901
 20
259.1075500689561
 30
0.0
 40
25.00000000000001
100
AcDbArc
 50
166.1134596373708
 51
166.7029282527909
  0
ARC
  5
15C
330
51
100
AcDbEntity
  8
1
  6
Continuous
 62
     7
100
AcDbCircle
 10
237.7443185750901
 20
259.1075500689561
 30
0.0
 40
25.0
100
AcDbArc
 50
180.0
 51
-166.702928252791
  0
ARC
  5
15D
330
51
100
AcDbEntity
  8
1
  6
Continuous
 62
     7
100
AcDbCircle
 10
237.7443185750901
 20
259.1075500689561
 30
0.0
 40
24.99999999999996
100
AcDbArc
 50
-166.702928252791
 51
-166.1134596373708
  0
ARC
  5
15E
330
51
100
AcDbEntity
  8
1
  6
Continuous
 62
     7
100
AcDbCircle
 10
237.7443185750901
 20
259.1075500689561
 30
0.0
 40
24.99999999999996
100
AcDbArc
 50
166.7029282527909
 51
180.0
  0
CIRCLE
  5
15F
330
51
100
AcDbEntity
  8
1
  6
Continuous
 62
     7
100
AcDbCircle
 10
153.2455685750907
 20
259.1075500689561
 30
0.0
 40
5.75
  0
CIRCLE
  5
160
330
51
100
AcDbEntity
  8
1
  6
Continuous
 62
     7
100
AcDbCircle
 10
153.2455685750907
 20
259.1075500689561
 30
0.0
 40
7.0
  0
ENDBLK
  5
53
330
51
100
AcDbEntity
  8
0
100
AcDbBlockEnd
  0
BLOCK
  5
55
330
54
100
AcDbEntity
  8
0
100
AcDbBlockBegin
  2
21-1A
 70
     0
 71
     0
 10
91.64896570776295
 20
300.7504850275227
 30
0.0
  3
21-1A
  1

  0
LINE
  5
161
330
54
100
AcDbEntity
  8
0
  6
Continuous
 62
     7
100
AcDbLine
 10
180.8962036792868
 20
392.6069444144186
 30
0.0
 11
125.594933490065
 21
392.6069444144186
 31
0.0
  0
LINE
  5
162
330
54
100
AcDbEntity
  8
0
  6
Continuous
 62
     7
100
AcDbLine
 10
147.4500136269414
 20
384.0094812906854
 30
0.0
 11
147.4500136269414
 21
392.037322481706
 31
0.0
  0
LINE
  5
163
330
54
100
AcDbEntity
  8
0
  6
Continuous
 62
     7
100
AcDbLine
 10
159.0411235424102
 20
384.0094812906854
 30
0.0
 11
159.0411235424102
 21
392.037322481706
 31
0.0
  0
LINE
  5
164
330
54
100
AcDbEntity
  8
1
  6
Continuous
 62
     7
100
AcDbLine
 10
223.9592388197394
 20
228.6395083371882
 30
0.0
 11
227.1747320246101
 21
228.1876002381958
 31
0.0
  0
LINE
  5
165
330
54
100
AcDbEntity
  8
1
  6
Continuous
 62
     7
100
AcDbLine
 10
222.7852419693465
 20
276.9102359233074
 30
0.0
 11
227.1746966423775
 21
277.5274534173148
 31
0.0
  0
LINE
  5
166
330
54
100
AcDbEntity
  8
1
  6
Continuous
 62
     7
100
AcDbLine
 10
227.7443185750901
 20
254.3575500689561
 30
0.0
 11
227.7443185750901
 21
277.0323243568817
 31
0.0
  0
LINE
  5
167
330
54
100
AcDbEntity
  8
1
  6
Continuous
 62
     7
100
AcDbLine
 10
227.7443185750901
 20
228.6827342725666
 30
0.0
 11
227.7443185750901
 21
254.3575500689561
 31
0.0
  0
LINE
  5
168
330
54
100
AcDbEntity
  8
1
  6
PHANTOM
 62
     4
100
AcDbLine
 10
121.2037862819996
 20
277.6068817011875
 30
0.0
 11
172.3915997044966
 21
248.0535838424806
 31
0.0
  0
LINE
  5
169
330
54
100
AcDbEntity
  8
1
  6
Continuous
 62
     7
100
AcDbLine
 10
133.1478477510948
 20
277.4031050266905
 30
0.0
 11
145.4809972220149
 21
274.0984475858251
 31
0.0
  0
LINE
  5
16A
330
54
100
AcDbEntity
  8
1
  6
Continuous
 62
     7
100
AcDbLine
 10
174.103794301707
 20
277.6068817011875
 30
0.0
 11
161.0101399281663
 21
274.0984475858251
 31
0.0
  0
LINE
  5
16B
330
54
100
AcDbEntity
  8
1
  6
PHANTOM
 62
     4
100
AcDbLine
 10
153.2455685750906
 20
225.1075500689561
 30
0.0
 11
153.2455685750906
 21
276.0762223744971
 31
0.0
  0
LINE
  5
16C
330
54
100
AcDbEntity
  8
1
  6
PHANTOM
 62
     4
100
AcDbLine
 10
185.2873508681816
 20
277.6068817011875
 30
0.0
 11
134.734211963171
 21
248.4200133459991
 31
0.0
  0
LINE
  5
16D
330
54
100
AcDbEntity
  8
1
  6
Continuous
 62
     7
100
AcDbLine
 10
127.3522927933603
 20
267.3649093818368
 30
0.0
 11
136.3807848234152
 21
258.336417351782
 31
0.0
  0
LINE
  5
16E
330
54
100
AcDbEntity
  8
1
  6
Continuous
 62
     7
100
AcDbLine
 10
147.4500136173562
 20
232.5546357983409
 30
0.0
 11
144.1453561764907
 21
244.8877852692611
 31
0.0
  0
LINE
  5
16F
330
54
100
AcDbEntity
  8
1
  6
Continuous
 62
     7
100
AcDbLine
 10
159.041123532825
 20
232.5546357983409
 30
0.0
 11
162.3457809736904
 21
244.8877852692611
 31
0.0
  0
LINE
  5
170
330
54
100
AcDbEntity
  8
1
  6
Continuous
 62
     7
100
AcDbLine
 10
179.1388443568209
 20
267.3649093818368
 30
0.0
 11
170.110352326766
 21
258.336417351782
 31
0.0
  0
ARC
  5
171
330
54
100
AcDbEntity
  8
1
  6
Continuous
 62
     7
100
AcDbCircle
 10
366.7443185750901
 20
259.1075500689561
 30
0.0
 40
150.0533238552216
100
AcDbArc
 50
-178.4724745577871
 51
-170.1970982062322
  0
ARC
  5
172
330
54
100
AcDbEntity
  8
1
  6
Continuous
 62
     7
100
AcDbCircle
 10
291.6561395837893
 20
259.4717457342028
 30
0.0
 40
74.99999999999997
100
AcDbArc
 50
170.4085075173349
 51
177.2213610340374
  0
ARC
  5
173
330
54
100
AcDbEntity
  8
1
  6
Continuous
 62
     7
100
AcDbCircle
 10
131.5949334804797
 20
271.607550068956
 30
0.0
 40
6.000000000000084
100
AcDbArc
 50
75.0000000000007
 51
-135.0000000000013
  0
ARC
  5
174
330
54
100
AcDbEntity
  8
1
  6
Continuous
 62
     7
100
AcDbCircle
 10
153.2455685750906
 20
234.1075500689561
 30
0.0
 40
6.000000000000004
100
AcDbArc
 50
-164.9999999999994
 51
-90.0
  0
ARC
  5
175
330
54
100
AcDbEntity
  8
1
  6
Continuous
 62
     7
100
AcDbCircle
 10
153.2455685750906
 20
234.1075500689561
 30
0.0
 40
6.0
100
AcDbArc
 50
-90.0
 51
-15.00000000000064
  0
ARC
  5
176
330
54
100
AcDbEntity
  8
1
  6
Continuous
 62
     7
100
AcDbCircle
 10
174.8962036697016
 20
271.607550068956
 30
0.0
 40
5.999999999999948
100
AcDbArc
 50
-44.99999999999942
 51
97.52424107894119
  0
SPLINE
  5
177
330
54
100
AcDbEntity
  8
0
  6
Continuous
 62
     7
100
AcDbSpline
210
0.0
220
0.0
230
1.0
 70
     8
 71
     3
 72
    27
 73
    23
 74
    21
 42
0.0000000001
 43
0.0000000001
 44
0.00000001
 40
0.0
 40
0.0
 40
0.0
 40
0.0
 40
4.618703466769563
 40
9.23116889601906
 40
14.16779431771701
 40
19.1137407058985
 40
19.52821633537998
 40
19.94144217917134
 40
20.35867862982675
 40
20.77691960428459
 40
21.19949484665454
 40
21.62164873558745
 40
22.04927938356243
 40
22.47707343152676
 40
23.01006105023051
 40
23.54331038460045
 40
23.88091939119894
 40
24.21795787389946
 40
24.65811335193129
 40
25.09931766019799
 40
27.47512396338994
 40
29.84763483709663
 40
29.84763483709663
 40
29.84763483709663
 40
29.84763483709663
 10
157.2455685846758
 20
381.6069444144186
 30
0.0
 10
158.784299550969
 20
381.6574915806294
 30
0.0
 10
161.8596832679761
 20
381.7585176438662
 30
0.0
 10
166.5739726681434
 20
382.077686289646
 30
0.0
 10
171.3629994350308
 20
382.7514479188907
 30
0.0
 10
174.7239975912917
 20
383.4604541633089
 30
0.0
 10
176.5928291822434
 20
383.9202142722716
 30
0.0
 10
176.9896964123194
 20
384.043611851937
 30
0.0
 10
177.370966567596
 20
384.2129021825596
 30
0.0
 10
177.7359380888065
 20
384.4204929226821
 30
0.0
 10
178.0834303216286
 20
384.6590468196813
 30
0.0
 10
178.4113506370475
 20
384.9288905840904
 30
0.0
 10
178.7150927045713
 20
385.2281956523861
 30
0.0
 10
179.0153362984715
 20
385.5811377579342
 30
0.0
 10
179.3002070064709
 20
385.99077737893
 30
0.0
 10
179.5273243575816
 20
386.400819569025
 30
0.0
 10
179.694135471122
 20
386.7675324601565
 30
0.0
 10
179.8239265707297
 20
387.1161637876428
 30
0.0
 10
179.9298409797148
 20
387.5087808806384
 30
0.0
 10
180.1544080600247
 20
388.5710377046002
 30
0.0
 10
180.4820743915161
 20
390.2697453390309
 30
0.0
 10
180.7582244679684
 20
391.828238598049
 30
0.0
 10
180.8962036792868
 20
392.6069444144186
 30
0.0
 11
157.2455685846758
 21
381.6069444144186
 31
0.0
 11
161.8608249593265
 21
381.7853549247452
 31
0.0
 11
166.4608601922382
 21
382.1237529034523
 31
0.0
 11
171.3500886807405
 21
382.8061863004747
 31
0.0
 11
176.1906703813677
 21
383.8216440663709
 31
0.0
 11
176.592217084613
 21
383.9243586833779
 31
0.0
 11
176.9856519817103
 21
384.050709701273
 31
0.0
 11
177.3674875491353
 21
384.2188996391551
 31
0.0
 11
177.7315664146119
 21
384.4247444652467
 31
0.0
 11
178.0798653021894
 21
384.6640303201907
 31
0.0
 11
178.4057494474795
 21
384.9323835012595
 31
0.0
 11
178.7104579925076
 21
385.2324179554049
 31
0.0
 11
178.9877163700128
 21
385.5582024540799
 31
0.0
 11
179.2924599055704
 21
385.9954748854398
 31
0.0
 11
179.5512428548692
 21
386.4617218562162
 31
0.0
 11
179.6905522752296
 21
386.7692486464886
 31
0.0
 11
179.8076100241502
 21
387.085306271359
 31
0.0
 11
179.9257967086935
 21
387.5092977246197
 31
0.0
 11
180.0206247019595
 21
387.9401908590814
 31
0.0
 11
180.4763595973418
 21
390.2718772220851
 31
0.0
 11
180.8962036792868
 21
392.6069444144186
 31
0.0
  0
SPLINE
  5
178
330
54
100
AcDbEntity
  8
0
  6
Continuous
 62
     7
100
AcDbSpline
210
0.0
220
0.0
230
1.0
 70
     8
 71
     3
 72
    27
 73
    23
 74
    21
 42
0.0000000001
 43
0.0000000001
 44
0.00000001
 40
0.0
 40
0.0
 40
0.0
 40
0.0
 40
4.618703466769534
 40
9.231168896018975
 40
14.16779431771694
 40
19.11374070589838
 40
19.52821633537989
 40
19.9414421791713
 40
20.35867862982673
 40
20.77691960428454
 40
21.1994948466545
 40
21.62164873558741
 40
22.0492793835624
 40
22.47707343152672
 40
23.01006105023047
 40
23.54331038460041
 40
23.8809193911989
 40
24.21795787389942
 40
24.65811335193125
 40
25.09931766019795
 40
27.47512396338989
 40
29.84763483709655
 40
29.84763483709655
 40
29.84763483709655
 40
29.84763483709655
 10
149.2455685846758
 20
381.6069444144186
 30
0.0
 10
147.7068376183826
 20
381.6574915806294
 30
0.0
 10
144.6314539013756
 20
381.7585176438665
 30
0.0
 10
139.9171645012082
 20
382.0776862896456
 30
0.0
 10
135.128137734321
 20
382.7514479188912
 30
0.0
 10
131.7671395780599
 20
383.4604541633084
 30
0.0
 10
129.8983079871083
 20
383.9202142722717
 30
0.0
 10
129.5014407570322
 20
384.0436118519369
 30
0.0
 10
129.1201706017557
 20
384.2129021825598
 30
0.0
 10
128.7551990805451
 20
384.4204929226821
 30
0.0
 10
128.407706847723
 20
384.6590468196813
 30
0.0
 10
128.0797865323041
 20
384.9288905840903
 30
0.0
 10
127.7760444647803
 20
385.2281956523861
 30
0.0
 10
127.4758008708801
 20
385.5811377579342
 30
0.0
 10
127.1909301628808
 20
385.9907773789299
 30
0.0
 10
126.9638128117699
 20
386.400819569025
 30
0.0
 10
126.7970016982297
 20
386.7675324601565
 30
0.0
 10
126.667210598622
 20
387.1161637876427
 30
0.0
 10
126.5612961896368
 20
387.5087808806384
 30
0.0
 10
126.336729109327
 20
388.5710377046001
 30
0.0
 10
126.0090627778356
 20
390.2697453390309
 30
0.0
 10
125.7329127013833
 20
391.8282385980489
 30
0.0
 10
125.594933490065
 20
392.6069444144186
 30
0.0
 11
149.2455685846758
 21
381.6069444144186
 31
0.0
 11
144.6303122100251
 21
381.7853549247452
 31
0.0
 11
140.0302769771135
 21
382.1237529034523
 31
0.0
 11
135.1410484886112
 21
382.8061863004749
 31
0.0
 11
130.300466787984
 21
383.8216440663709
 31
0.0
 11
129.8989200847387
 21
383.9243586833779
 31
0.0
 11
129.5054851876413
 21
384.050709701273
 31
0.0
 11
129.1236496202164
 21
384.2188996391552
 31
0.0
 11
128.7595707547397
 21
384.4247444652467
 31
0.0
 11
128.4112718671622
 21
384.6640303201907
 31
0.0
 11
128.0853877218721
 21
384.9323835012595
 31
0.0
 11
127.780679176844
 21
385.2324179554049
 31
0.0
 11
127.5034207993388
 21
385.5582024540799
 31
0.0
 11
127.1986772637813
 21
385.9954748854398
 31
0.0
 11
126.9398943144824
 21
386.4617218562162
 31
0.0
 11
126.800584894122
 21
386.7692486464886
 31
0.0
 11
126.6835271452014
 21
387.085306271359
 31
0.0
 11
126.5653404606581
 21
387.5092977246197
 31
0.0
 11
126.4705124673921
 21
387.9401908590814
 31
0.0
 11
126.0147775720099
 21
390.2718772220851
 31
0.0
 11
125.594933490065
 21
392.6069444144186
 31
0.0
  0
ARC
  5
179
330
54
100
AcDbEntity
  8
1
  6
Continuous
 62
     7
100
AcDbCircle
 10
227.2443185750901
 20
228.6827342725666
 30
0.0
 40
0.4999999999999863
100
AcDbArc
 50
-97.99999999999443
 51
0.0
  0
ARC
  5
17A
330
54
100
AcDbEntity
  8
1
  6
Continuous
 62
     7
100
AcDbCircle
 10
224.7942774254998
 20
234.5811167496376
 30
0.0
 40
6.000000000000019
100
AcDbArc
 50
-170.1970982062322
 51
-98.00000000000027
  0
ARC
  5
17B
330
54
100
AcDbEntity
  8
1
  6
Continuous
 62
     7
100
AcDbCircle
 10
223.6207051618979
 20
270.9686871981101
 30
0.0
 40
6.000000000000175
100
AcDbArc
 50
98.00409437170077
 51
170.4085075173348
  0
ARC
  5
17C
330
54
100
AcDbEntity
  8
1
  6
Continuous
 62
     7
100
AcDbCircle
 10
227.2443185750901
 20
277.0323243568817
 30
0.0
 40
0.5
100
AcDbArc
 50
0.0
 51
98.00409437169662
  0
ARC
  5
17D
330
54
100
AcDbEntity
  8
0
  6
Continuous
 62
     7
100
AcDbCircle
 10
153.2455685750906
 20
303.0762223744971
 30
0.0
 40
29.99999999999995
100
AcDbArc
 50
-105.0000000000002
 51
-74.99999999999984
  0
ARC
  5
17E
330
54
100
AcDbEntity
  8
0
  6
Continuous
 62
     7
100
AcDbCircle
 10
115.1675813878187
 20
237.1232139161856
 30
0.0
 40
29.99999999999993
100
AcDbArc
 50
14.99999999999979
 51
44.99999999999989
  0
ARC
  5
17F
330
54
100
AcDbEntity
  8
0
  6
Continuous
 62
     7
100
AcDbCircle
 10
191.3235557623624
 20
237.1232139161855
 30
0.0
 40
30.00000000000004
100
AcDbArc
 50
134.9999999999999
 51
165.0
  0
ENDBLK
  5
56
330
54
100
AcDbEntity
  8
0
100
AcDbBlockEnd
  0
BLOCK
  5
5C
330
57
100
AcDbEntity
  8
0
100
AcDbBlockBegin
  2
R10A-13
 70
     0
 71
     0
 10
1170.179615814342
 20
601.9089830555824
 30
0.0
  3
R10A-13
  1

  0
INSERT
  5
58
330
57
100
AcDbEntity
  8
0
100
AcDbBlockReference
  2
37-1-13
 10
391.7400244652347
 20
167.3063198521851
 30
0.0
  0
INSERT
  5
59
330
57
100
AcDbEntity
  8
0
100
AcDbBlockReference
  2
36-1A-13-M11
 10
372.8134445845263
 20
156.7254240595199
 30
0.0
  0
INSERT
  5
5A
330
57
100
AcDbEntity
  8
0
100
AcDbBlockReference
  2
42-1
 10
423.533967584675
 20
171.0032899823526
 30
0.0
  0
INSERT
  5
5B
330
57
100
AcDbEntity
  8
0
100
AcDbBlockReference
  2
21-1A
 10
91.64896570776295
 20
300.7504850275227
 30
0.0
  0
LINE
  5
180
330
57
100
AcDbEntity
  8
1
  6
PHANTOM
 62
     4
100
AcDbLine
 10
209.7443185750902
 20
259.1075500689561
 30
0.0
 11
269.2443185750901
 21
259.1075500689561
 31
0.0
  0
ENDBLK
  5
5D
330
57
100
AcDbEntity
  8
0
100
AcDbBlockEnd
  0
BLOCK
  5
5F
330
5E
100
AcDbEntity
  8
0
100
AcDbBlockBegin
  2
P82A-15
 70
     0
 71
     0
 10
747.8398897869447
 20
626.1601270503084
 30
0.0
  3
P82A-15
  1

  0
LINE
  5
181
330
5E
100
AcDbEntity
  8
1
  6
PHANTOM
 62
     4
100
AcDbLine
 10
244.2431301909172
 20
259.1075500689561
 30
0.0
 11
275.2443185750901
 21
259.1075500689561
 31
0.0
  0
ENDBLK
  5
60
330
5E
100
AcDbEntity
  8
0
100
AcDbBlockEnd
  0
BLOCK
  5
62
330
61
100
AcDbEntity
  8
0
100
AcDbBlockBegin
  2
B411-0-13
 70
     0
 71
     0
 10
1635.24556857509
 20
457.607550068956
 30
0.0
  3
B411-0-13
  1

  0
LINE
  5
182
330
61
100
AcDbEntity
  8
1
  6
Continuous
 62
     7
100
AcDbLine
 10
259.7668185750902
 20
287.9455500689563
 30
0.0
 11
280.72181857509
 21
287.9455500689563
 31
0.0
  0
LINE
  5
183
330
61
100
AcDbEntity
  8
1
  6
Continuous
 62
     2
100
AcDbLine
 10
260.9288185750899
 20
280.1075500689562
 30
0.0
 11
260.9288185750899
 21
289.1075500689562
 31
0.0
  0
LINE
  5
184
330
61
100
AcDbEntity
  8
1
  6
Continuous
 62
     7
100
AcDbLine
 10
147.4821055319191
 20
432.1069444144186
 30
0.0
 11
159.0090316182615
 21
432.1069444144186
 31
0.0
  0
LINE
  5
185
330
61
100
AcDbEntity
  8
1
  6
Continuous
 62
     2
100
AcDbLine
 10
176.7455685750904
 20
425.7926944144183
 30
0.0
 11
175.7455685750903
 21
425.7926944144183
 31
0.0
  0
LINE
  5
186
330
61
100
AcDbEntity
  8
1
  6
Continuous
 62
     7
100
AcDbLine
 10
176.7455685750904
 20
424.6306944144184
 30
0.0
 11
175.7455685750903
 21
424.6306944144184
 31
0.0
  0
LINE
  5
187
330
61
100
AcDbEntity
  8
1
  6
Continuous
 62
     7
100
AcDbLine
 10
130.7455685750905
 20
444.4236944144185
 30
0.0
 11
130.7455685750905
 21
445.5856944144185
 31
0.0
  0
LINE
  5
188
330
61
100
AcDbEntity
  8
1
  6
Continuous
 62
     7
100
AcDbLine
 10
175.7455685750903
 20
444.4236944144185
 30
0.0
 11
175.7455685750903
 21
425.7926944144183
 31
0.0
  0
LINE
  5
189
330
61
100
AcDbEntity
  8
1
  6
Continuous
 62
     7
100
AcDbLine
 10
141.2455685750902
 20
409.6069444144185
 30
0.0
 11
141.2455685750902
 21
411.1081944144184
 31
0.0
  0
LINE
  5
18A
330
61
100
AcDbEntity
  8
1
  6
Continuous
 62
     2
100
AcDbLine
 10
141.9955685750902
 20
409.6069444144185
 30
0.0
 11
141.9955685750902
 21
411.1081944144184
 31
0.0
  0
LINE
  5
18B
330
61
100
AcDbEntity
  8
1
  6
PHANTOM
 62
     4
100
AcDbLine
 10
270.2455685750899
 20
243.1075500689562
 30
0.0
 11
270.24556857509
 21
292.1075500689562
 31
0.0
  0
LINE
  5
18C
330
61
100
AcDbEntity
  8
1
  6
PHANTOM
 62
     4
100
AcDbLine
 10
237.2443185750901
 20
259.1075500689561
 30
0.0
 11
303.2443185750901
 21
259.1075500689561
 31
0.0
  0
LINE
  5
18D
330
61
100
AcDbEntity
  8
1
  6
Continuous
 62
     7
100
AcDbLine
 10
280.72181857509
 20
280.1075500689562
 30
0.0
 11
280.7218185750898
 21
278.0949070305608
 31
0.0
  0
LINE
  5
18E
330
61
100
AcDbEntity
  8
1
  6
Continuous
 62
     7
100
AcDbLine
 10
300.2443185750901
 20
269.8400500689562
 30
0.0
 11
300.2443185750901
 21
272.1075500689561
 31
0.0
  0
LINE
  5
18F
330
61
100
AcDbEntity
  8
1
  6
Continuous
 62
     7
100
AcDbLine
 10
300.2443185750901
 20
269.8400500689562
 30
0.0
 11
300.2443185750901
 21
246.1075500689561
 31
0.0
  0
LINE
  5
190
330
61
100
AcDbEntity
  8
1
  6
Continuous
 62
     7
100
AcDbLine
 10
287.2099353254007
 20
272.1075500689561
 30
0.0
 11
300.2443185750901
 21
272.1075500689561
 31
0.0
  0
LINE
  5
191
330
61
100
AcDbEntity
  8
1
  6
Continuous
 62
     7
100
AcDbLine
 10
268.2443185750901
 20
246.1075500689562
 30
0.0
 11
300.2443185750901
 21
246.1075500689561
 31
0.0
  0
LINE
  5
192
330
61
100
AcDbEntity
  8
1
  6
Continuous
 62
     7
100
AcDbLine
 10
246.2443185750901
 20
247.1075500689561
 30
0.0
 11
244.7443185750901
 21
247.1075500689561
 31
0.0
  0
LINE
  5
193
330
61
100
AcDbEntity
  8
1
  6
Continuous
 62
     7
100
AcDbLine
 10
246.2443185750901
 20
247.1075500689561
 30
0.0
 11
246.2443185750901
 21
247.8575500689561
 31
0.0
  0
LINE
  5
194
330
61
100
AcDbEntity
  8
1
  6
Continuous
 62
     7
100
AcDbLine
 10
247.543356680767
 20
247.1075500689562
 30
0.0
 11
246.2443185750901
 21
247.1075500689561
 31
0.0
  0
LINE
  5
195
330
61
100
AcDbEntity
  8
1
  6
Continuous
 62
     2
100
AcDbLine
 10
246.2443185750901
 20
247.8575500689561
 30
0.0
 11
244.7443185750901
 21
247.8575500689561
 31
0.0
  0
LINE
  5
196
330
61
100
AcDbEntity
  8
1
  6
Continuous
 62
     2
100
AcDbLine
 10
247.543356680767
 20
247.1075500689562
 30
0.0
 11
246.2443185750901
 21
247.8575500689561
 31
0.0
  0
LINE
  5
197
330
61
100
AcDbEntity
  8
1
  6
Continuous
 62
     7
100
AcDbLine
 10
268.2443185750901
 20
246.1075500689562
 30
0.0
 11
248.543356680767
 21
246.1075500689561
 31
0.0
  0
LINE
  5
198
330
61
100
AcDbEntity
  8
1
  6
Continuous
 62
     7
100
AcDbLine
 10
248.543356680767
 20
246.1075500689561
 30
0.0
 11
247.543356680767
 21
247.1075500689562
 31
0.0
  0
LINE
  5
199
330
61
100
AcDbEntity
  8
1
  6
Continuous
 62
     2
100
AcDbLine
 10
279.55981857509
 20
280.1075500689562
 30
0.0
 11
280.7218185750898
 21
278.0949070305608
 31
0.0
  0
LINE
  5
19A
330
61
100
AcDbEntity
  8
1
  6
Continuous
 62
     2
100
AcDbLine
 10
259.76681857509
 20
278.094907030561
 30
0.0
 11
260.9288185750899
 21
280.1075500689562
 31
0.0
  0
LINE
  5
19B
330
61
100
AcDbEntity
  8
1
  6
Continuous
 62
     2
100
AcDbLine
 10
279.55981857509
 20
289.1075500689562
 30
0.0
 11
279.55981857509
 21
280.1075500689562
 31
0.0
  0
LINE
  5
19C
330
61
100
AcDbEntity
  8
1
  6
Continuous
 62
     7
100
AcDbLine
 10
259.76681857509
 20
280.1075500689562
 30
0.0
 11
259.7668185750902
 21
287.9455500689563
 31
0.0
  0
LINE
  5
19D
330
61
100
AcDbEntity
  8
1
  6
Continuous
 62
     7
100
AcDbLine
 10
259.7668185750902
 20
287.9455500689563
 30
0.0
 11
260.9288185750899
 21
289.1075500689562
 31
0.0
  0
LINE
  5
19E
330
61
100
AcDbEntity
  8
1
  6
Continuous
 62
     7
100
AcDbLine
 10
280.72181857509
 20
280.1075500689562
 30
0.0
 11
280.72181857509
 21
287.9455500689563
 31
0.0
  0
LINE
  5
19F
330
61
100
AcDbEntity
  8
1
  6
Continuous
 62
     7
100
AcDbLine
 10
280.72181857509
 20
287.9455500689563
 30
0.0
 11
279.55981857509
 21
289.1075500689562
 31
0.0
  0
LINE
  5
1A0
330
61
100
AcDbEntity
  8
1
  6
Continuous
 62
     7
100
AcDbLine
 10
259.76681857509
 20
280.1075500689562
 30
0.0
 11
260.9288185750899
 21
280.1075500689562
 31
0.0
  0
LINE
  5
1A1
330
61
100
AcDbEntity
  8
1
  6
Continuous
 62
     7
100
AcDbLine
 10
279.55981857509
 20
280.1075500689562
 30
0.0
 11
280.72181857509
 21
280.1075500689562
 31
0.0
  0
LINE
  5
1A2
330
61
100
AcDbEntity
  8
1
  6
Continuous
 62
     7
100
AcDbLine
 10
246.2443185750901
 20
270.3575500689561
 30
0.0
 11
246.2443185750901
 21
271.1075500689561
 31
0.0
  0
LINE
  5
1A3
330
61
100
AcDbEntity
  8
1
  6
Continuous
 62
     7
100
AcDbLine
 10
246.2443185750901
 20
271.1075500689561
 30
0.0
 11
247.543356680767
 21
271.1075500689561
 31
0.0
  0
LINE
  5
1A4
330
61
100
AcDbEntity
  8
1
  6
Continuous
 62
     2
100
AcDbLine
 10
246.2443185750901
 20
270.3575500689561
 30
0.0
 11
247.543356680767
 21
271.1075500689561
 31
0.0
  0
LINE
  5
1A5
330
61
100
AcDbEntity
  8
1
  6
Continuous
 62
     7
100
AcDbLine
 10
247.543356680767
 20
271.1075500689561
 30
0.0
 11
248.543356680767
 21
272.1075500689561
 31
0.0
  0
LINE
  5
1A6
330
61
100
AcDbEntity
  8
1
  6
Continuous
 62
     7
100
AcDbLine
 10
259.76681857509
 20
278.094907030561
 30
0.0
 11
259.76681857509
 21
280.1075500689562
 31
0.0
  0
LINE
  5
1A7
330
61
100
AcDbEntity
  8
1
  6
Continuous
 62
     7
100
AcDbLine
 10
276.7443185750899
 20
289.1075500689561
 30
0.0
 11
279.55981857509
 21
289.1075500689562
 31
0.0
  0
LINE
  5
1A8
330
61
100
AcDbEntity
  8
1
  6
Continuous
 62
     7
100
AcDbLine
 10
282.2379770649442
 20
276.5787485407068
 30
0.0
 11
280.7218185750898
 21
278.0949070305608
 31
0.0
  0
LINE
  5
1A9
330
61
100
AcDbEntity
  8
1
  6
Continuous
 62
     7
100
AcDbLine
 10
258.2534567322557
 20
276.5815451877267
 30
0.0
 11
259.76681857509
 21
278.094907030561
 31
0.0
  0
LINE
  5
1AA
330
61
100
AcDbEntity
  8
1
  6
Continuous
 62
     7
100
AcDbLine
 10
248.543356680767
 20
272.1075500689561
 30
0.0
 11
253.2812018247794
 21
272.1075500689561
 31
0.0
  0
LINE
  5
1AB
330
61
100
AcDbEntity
  8
1
  6
Continuous
 62
     7
100
AcDbLine
 10
260.9288185750899
 20
289.1075500689562
 30
0.0
 11
276.7443185750899
 21
289.1075500689561
 31
0.0
  0
LINE
  5
1AC
330
61
100
AcDbEntity
  8
1
  6
Continuous
 62
     7
100
AcDbLine
 10
166.2455685750909
 20
416.9699908253185
 30
0.0
 11
166.2455685750908
 21
416.7463980035137
 31
0.0
  0
LINE
  5
1AD
330
61
100
AcDbEntity
  8
1
  6
Continuous
 62
     7
100
AcDbLine
 10
133.5307116134853
 20
446.3581944144184
 30
0.0
 11
132.7582116134857
 21
445.5856944144186
 31
0.0
  0
LINE
  5
1AE
330
61
100
AcDbEntity
  8
1
  6
Continuous
 62
     7
100
AcDbLine
 10
140.2455685750902
 20
413.4072325200955
 30
0.0
 11
140.2455685750907
 21
418.8581944144184
 31
0.0
  0
LINE
  5
1AF
330
61
100
AcDbEntity
  8
1
  6
Continuous
 62
     7
100
AcDbLine
 10
132.7582116134856
 20
424.6306944144185
 30
0.0
 11
132.7582116134857
 21
445.5856944144186
 31
0.0
  0
LINE
  5
1B0
330
61
100
AcDbEntity
  8
1
  6
Continuous
 62
     7
100
AcDbLine
 10
141.2455685750902
 20
412.4072325200955
 30
0.0
 11
165.2455685750902
 21
412.4072325200955
 31
0.0
  0
LINE
  5
1B1
330
61
100
AcDbEntity
  8
1
  6
Continuous
 62
     7
100
AcDbLine
 10
166.2455685750902
 20
413.4072325200955
 30
0.0
 11
140.2455685750902
 21
413.4072325200955
 31
0.0
  0
LINE
  5
1B2
330
61
100
AcDbEntity
  8
1
  6
Continuous
 62
     7
100
AcDbLine
 10
153.2455685750903
 20
465.1081944144184
 30
0.0
 11
163.9780685750902
 21
465.1081944144184
 31
0.0
  0
LINE
  5
1B3
330
61
100
AcDbEntity
  8
1
  6
Continuous
 62
     7
100
AcDbLine
 10
153.2455685750903
 20
465.1081944144184
 30
0.0
 11
142.5130685750904
 21
465.1081944144184
 31
0.0
  0
LINE
  5
1B4
330
61
100
AcDbEntity
  8
1
  6
Continuous
 62
     2
100
AcDbLine
 10
173.7329255366951
 20
445.5856944144185
 30
0.0
 11
175.7455685750903
 21
444.4236944144185
 31
0.0
  0
LINE
  5
1B5
330
61
100
AcDbEntity
  8
1
  6
Continuous
 62
     2
100
AcDbLine
 10
175.7455685750903
 20
425.7926944144183
 30
0.0
 11
173.7329255366951
 21
424.6306944144185
 31
0.0
  0
LINE
  5
1B6
330
61
100
AcDbEntity
  8
1
  6
Continuous
 62
     7
100
AcDbLine
 10
176.74556857509
 20
445.5856944144184
 30
0.0
 11
175.7455685750903
 21
445.5856944144184
 31
0.0
  0
LINE
  5
1B7
330
61
100
AcDbEntity
  8
1
  6
Continuous
 62
     7
100
AcDbLine
 10
175.7455685750903
 20
425.7926944144183
 30
0.0
 11
175.7455685750903
 21
424.6306944144184
 31
0.0
  0
LINE
  5
1B8
330
61
100
AcDbEntity
  8
1
  6
Continuous
 62
     2
100
AcDbLine
 10
175.7455685750903
 20
444.4236944144185
 30
0.0
 11
176.74556857509
 21
444.4236944144185
 31
0.0
  0
LINE
  5
1B9
330
61
100
AcDbEntity
  8
1
  6
Continuous
 62
     7
100
AcDbLine
 10
175.7455685750903
 20
445.5856944144184
 30
0.0
 11
175.7455685750903
 21
444.4236944144185
 31
0.0
  0
LINE
  5
1BA
330
61
100
AcDbEntity
  8
1
  6
Continuous
 62
     7
100
AcDbLine
 10
165.2455685750902
 20
411.1081944144184
 30
0.0
 11
165.2455685750902
 21
409.6069444144185
 31
0.0
  0
LINE
  5
1BB
330
61
100
AcDbEntity
  8
1
  6
Continuous
 62
     7
100
AcDbLine
 10
165.2455685750902
 20
411.1081944144184
 30
0.0
 11
164.4955685750902
 21
411.1081944144184
 31
0.0
  0
LINE
  5
1BC
330
61
100
AcDbEntity
  8
1
  6
Continuous
 62
     7
100
AcDbLine
 10
165.2455685750902
 20
412.4072325200955
 30
0.0
 11
165.2455685750902
 21
411.1081944144184
 31
0.0
  0
LINE
  5
1BD
330
61
100
AcDbEntity
  8
1
  6
Continuous
 62
     2
100
AcDbLine
 10
164.4955685750902
 20
411.1081944144184
 30
0.0
 11
164.4955685750902
 21
409.6069444144185
 31
0.0
  0
LINE
  5
1BE
330
61
100
AcDbEntity
  8
1
  6
Continuous
 62
     2
100
AcDbLine
 10
165.2455685750902
 20
412.4072325200955
 30
0.0
 11
164.4955685750902
 21
411.1081944144184
 31
0.0
  0
LINE
  5
1BF
330
61
100
AcDbEntity
  8
1
  6
Continuous
 62
     7
100
AcDbLine
 10
173.7329255366951
 20
445.5856944144185
 30
0.0
 11
175.7455685750903
 21
445.5856944144184
 31
0.0
  0
LINE
  5
1C0
330
61
100
AcDbEntity
  8
1
  6
Continuous
 62
     7
100
AcDbLine
 10
166.2455685750902
 20
413.4072325200955
 30
0.0
 11
165.2455685750902
 21
412.4072325200955
 31
0.0
  0
LINE
  5
1C1
330
61
100
AcDbEntity
  8
1
  6
Continuous
 62
     7
100
AcDbLine
 10
175.7455685750903
 20
424.6306944144184
 30
0.0
 11
173.7329255366951
 21
424.6306944144185
 31
0.0
  0
LINE
  5
1C2
330
61
100
AcDbEntity
  8
1
  6
Continuous
 62
     2
100
AcDbLine
 10
130.7455685750905
 20
444.4236944144185
 30
0.0
 11
132.7582116134857
 21
445.5856944144186
 31
0.0
  0
LINE
  5
1C3
330
61
100
AcDbEntity
  8
1
  6
Continuous
 62
     2
100
AcDbLine
 10
132.7582116134856
 20
424.6306944144185
 30
0.0
 11
130.7455685750905
 21
425.7926944144183
 31
0.0
  0
LINE
  5
1C4
330
61
100
AcDbEntity
  8
1
  6
Continuous
 62
     2
100
AcDbLine
 10
130.7455685750905
 20
425.7926944144183
 30
0.0
 11
129.7455685750903
 21
425.7926944144183
 31
0.0
  0
LINE
  5
1C5
330
61
100
AcDbEntity
  8
1
  6
Continuous
 62
     7
100
AcDbLine
 10
130.7455685750905
 20
424.6306944144185
 30
0.0
 11
129.7455685750903
 21
424.6306944144185
 31
0.0
  0
LINE
  5
1C6
330
61
100
AcDbEntity
  8
1
  6
Continuous
 62
     7
100
AcDbLine
 10
130.7455685750905
 20
445.5856944144185
 30
0.0
 11
129.7455685750906
 21
445.5856944144185
 31
0.0
  0
LINE
  5
1C7
330
61
100
AcDbEntity
  8
1
  6
Continuous
 62
     7
100
AcDbLine
 10
130.7455685750905
 20
424.6306944144185
 30
0.0
 11
130.7455685750905
 21
425.7926944144183
 31
0.0
  0
LINE
  5
1C8
330
61
100
AcDbEntity
  8
1
  6
Continuous
 62
     7
100
AcDbLine
 10
165.2455685750902
 20
411.1081944144184
 30
0.0
 11
141.2455685750902
 21
411.1081944144184
 31
0.0
  0
LINE
  5
1C9
330
61
100
AcDbEntity
  8
1
  6
Continuous
 62
     7
100
AcDbLine
 10
141.2455685750902
 20
411.1081944144184
 30
0.0
 11
141.2455685750902
 21
412.4072325200955
 31
0.0
  0
LINE
  5
1CA
330
61
100
AcDbEntity
  8
1
  6
Continuous
 62
     2
100
AcDbLine
 10
141.9955685750902
 20
411.1081944144184
 30
0.0
 11
141.2455685750902
 21
412.4072325200955
 31
0.0
  0
LINE
  5
1CB
330
61
100
AcDbEntity
  8
1
  6
Continuous
 62
     7
100
AcDbLine
 10
130.7455685750905
 20
445.5856944144185
 30
0.0
 11
132.7582116134857
 21
445.5856944144186
 31
0.0
  0
LINE
  5
1CC
330
61
100
AcDbEntity
  8
1
  6
Continuous
 62
     7
100
AcDbLine
 10
141.2455685750902
 20
412.4072325200955
 30
0.0
 11
140.2455685750902
 21
413.4072325200955
 31
0.0
  0
LINE
  5
1CD
330
61
100
AcDbEntity
  8
1
  6
Continuous
 62
     7
100
AcDbLine
 10
132.7582116134856
 20
424.6306944144185
 30
0.0
 11
130.7455685750905
 21
424.6306944144185
 31
0.0
  0
LINE
  5
1CE
330
61
100
AcDbEntity
  8
1
  6
Continuous
 62
     7
100
AcDbLine
 10
160.7511220745552
 20
456.2693075816197
 30
0.0
 11
160.7511220745552
 21
463.947081247217
 31
0.0
  0
LINE
  5
1CF
330
61
100
AcDbEntity
  8
1
  6
Continuous
 62
     7
100
AcDbLine
 10
145.7400150756254
 20
456.2693075816197
 30
0.0
 11
145.7400150756254
 21
463.947081247217
 31
0.0
  0
LINE
  5
1D0
330
61
100
AcDbEntity
  8
1
  6
Continuous
 62
     7
100
AcDbLine
 10
164.5038988242877
 20
465.1081944144184
 30
0.0
 11
141.9872383258933
 21
465.1081944144184
 31
0.0
  0
LINE
  5
1D1
330
61
100
AcDbEntity
  8
1
  6
Continuous
 62
     7
100
AcDbLine
 10
138.2344615761604
 20
456.2693075816197
 30
0.0
 11
138.2344615761604
 21
463.947081247217
 31
0.0
  0
LINE
  5
1D2
330
61
100
AcDbEntity
  8
1
  6
Continuous
 62
     7
100
AcDbLine
 10
168.2566755740206
 20
463.947081247217
 30
0.0
 11
168.2566755740206
 21
463.9470812472193
 31
0.0
  0
LINE
  5
1D3
330
61
100
AcDbEntity
  8
1
  6
Continuous
 62
     7
100
AcDbLine
 10
168.2566755740206
 20
456.2693075816174
 30
0.0
 11
168.2566755740206
 21
456.2693075816197
 31
0.0
  0
LINE
  5
1D4
330
61
100
AcDbEntity
  8
1
  6
Continuous
 62
     7
100
AcDbLine
 10
168.2566755740206
 20
456.2693075816197
 30
0.0
 11
168.2566755740206
 21
463.947081247217
 31
0.0
  0
LINE
  5
1D5
330
61
100
AcDbEntity
  8
1
  6
Continuous
 62
     7
100
AcDbLine
 10
173.7329255366951
 20
445.5856944144185
 30
0.0
 11
172.9604255366954
 21
446.3581944144184
 31
0.0
  0
LINE
  5
1D6
330
61
100
AcDbEntity
  8
1
  6
Continuous
 62
     7
100
AcDbLine
 10
166.2455685750905
 20
453.3542099680557
 30
0.0
 11
166.2455685750904
 21
451.4699908253659
 31
0.0
  0
LINE
  5
1D7
330
61
100
AcDbEntity
  8
1
  6
Continuous
 62
     7
100
AcDbLine
 10
140.2455685750902
 20
451.2463980034727
 30
0.0
 11
140.2455685750902
 21
451.4699908253651
 31
0.0
  0
LINE
  5
1D8
330
61
100
AcDbEntity
  8
1
  6
Continuous
 62
     7
100
AcDbLine
 10
172.9604255366954
 20
446.3581944144184
 30
0.0
 11
171.2443185750903
 21
446.3581944144184
 31
0.0
  0
LINE
  5
1D9
330
61
100
AcDbEntity
  8
1
  6
Continuous
 62
     7
100
AcDbLine
 10
166.2455685750904
 20
451.4699908253659
 30
0.0
 11
166.2455685750904
 21
451.2463980034718
 31
0.0
  0
LINE
  5
1DA
330
61
100
AcDbEntity
  8
1
  6
Continuous
 62
     7
100
AcDbLine
 10
135.2468185750903
 20
446.3581944144184
 30
0.0
 11
133.5307116134853
 21
446.3581944144184
 31
0.0
  0
LINE
  5
1DB
330
61
100
AcDbEntity
  8
1
  6
Continuous
 62
     7
100
AcDbLine
 10
140.2455685750902
 20
451.4699908253651
 30
0.0
 11
140.24556857509
 21
453.3542099680557
 31
0.0
  0
LINE
  5
1DC
330
61
100
AcDbEntity
  8
1
  6
Continuous
 62
     7
100
AcDbLine
 10
166.2455685750912
 20
418.8581944144195
 30
0.0
 11
166.2455685750902
 21
413.4072325200955
 31
0.0
  0
LINE
  5
1DD
330
61
100
AcDbEntity
  8
1
  6
Continuous
 62
     7
100
AcDbLine
 10
172.960425536695
 20
423.8581944144184
 30
0.0
 11
173.7329255366951
 21
424.6306944144185
 31
0.0
  0
LINE
  5
1DE
330
61
100
AcDbEntity
  8
1
  6
Continuous
 62
     7
100
AcDbLine
 10
172.960425536695
 20
423.8581944144184
 30
0.0
 11
171.2455685750902
 21
423.8581944144184
 31
0.0
  0
LINE
  5
1DF
330
61
100
AcDbEntity
  8
1
  6
Continuous
 62
     7
100
AcDbLine
 10
135.245568580492
 20
423.8581944144184
 30
0.0
 11
135.2407919824578
 21
423.8581944144184
 31
0.0
  0
LINE
  5
1E0
330
61
100
AcDbEntity
  8
1
  6
Continuous
 62
     7
100
AcDbLine
 10
132.7582116134856
 20
424.6306944144185
 30
0.0
 11
133.5307116134855
 21
423.8581944144184
 31
0.0
  0
LINE
  5
1E1
330
61
100
AcDbEntity
  8
1
  6
Continuous
 62
     7
100
AcDbLine
 10
140.2455685750903
 20
416.8534178272754
 30
0.0
 11
140.2455685750903
 21
416.8581944143258
 31
0.0
  0
LINE
  5
1E2
330
61
100
AcDbEntity
  8
1
  6
Continuous
 62
     7
100
AcDbLine
 10
135.2455685750903
 20
423.8581944144184
 30
0.0
 11
133.5307116134855
 21
423.8581944144184
 31
0.0
  0
LINE
  5
1E3
330
61
100
AcDbEntity
  8
1
  6
PHANTOM
 62
     4
100
AcDbLine
 10
187.7455685750903
 20
435.1081944144184
 30
0.0
 11
118.7455685750902
 21
435.1081944144184
 31
0.0
  0
LINE
  5
1E4
330
61
100
AcDbEntity
  8
1
  6
PHANTOM
 62
     4
100
AcDbLine
 10
153.2455685750905
 20
468.1081944144184
 30
0.0
 11
153.2455685750904
 21
402.1081944144184
 31
0.0
  0
LINE
  5
1E5
330
61
100
AcDbEntity
  8
1
  6
Continuous
 62
     7
100
AcDbLine
 10
246.2443185750901
 20
270.3575500689561
 30
0.0
 11
246.2443185750901
 21
247.8575500689561
 31
0.0
  0
LINE
  5
1E6
330
61
100
AcDbEntity
  8
1
  6
Continuous
 62
     7
100
AcDbLine
 10
247.543356680767
 20
271.1075500689561
 30
0.0
 11
247.543356680767
 21
247.1075500689562
 31
0.0
  0
LINE
  5
1E7
330
61
100
AcDbEntity
  8
1
  6
Continuous
 62
     7
100
AcDbLine
 10
248.543356680767
 20
272.1075500689561
 30
0.0
 11
248.543356680767
 21
246.1075500689561
 31
0.0
  0
LINE
  5
1E8
330
61
100
AcDbEntity
  8
1
  6
Continuous
 62
     7
100
AcDbLine
 10
260.9288185750899
 20
280.1075500689562
 30
0.0
 11
279.55981857509
 21
280.1075500689562
 31
0.0
  0
LINE
  5
1E9
330
61
100
AcDbEntity
  8
1
  6
Continuous
 62
     7
100
AcDbLine
 10
259.76681857509
 20
278.094907030561
 30
0.0
 11
280.7218185750898
 21
278.0949070305608
 31
0.0
  0
LINE
  5
1EA
330
61
100
AcDbEntity
  8
1
  6
Continuous
 62
     7
100
AcDbLine
 10
258.2534567322557
 20
276.5815451877267
 30
0.0
 11
282.2379770649442
 21
276.5815451877267
 31
0.0
  0
LINE
  5
1EB
330
61
100
AcDbEntity
  8
1
  6
Continuous
 62
     7
100
AcDbLine
 10
244.7443185750901
 20
271.1075500689561
 30
0.0
 11
246.2443185750901
 21
271.1075500689561
 31
0.0
  0
LINE
  5
1EC
330
61
100
AcDbEntity
  8
1
  6
Continuous
 62
     2
100
AcDbLine
 10
244.7443067474546
 20
270.3575500689561
 30
0.0
 11
246.2443185750901
 21
270.3575500689561
 31
0.0
  0
LINE
  5
1ED
330
61
100
AcDbEntity
  8
1
  6
Continuous
 62
     7
100
AcDbLine
 10
291.4054317422913
 20
259.1075500689561
 30
0.0
 11
299.0832054078886
 21
259.1075500689561
 31
0.0
  0
LINE
  5
1EE
330
61
100
AcDbEntity
  8
1
  6
PHANTOM
 62
     4
100
AcDbLine
 10
291.4054317422913
 20
259.1075500689561
 30
0.0
 11
299.0832054078886
 21
259.1075500689561
 31
0.0
  0
LINE
  5
1EF
330
61
100
AcDbEntity
  8
1
  6
Continuous
 62
     7
100
AcDbLine
 10
130.7455685750905
 20
425.7926944144183
 30
0.0
 11
130.7455685750905
 21
444.4236944144185
 31
0.0
  0
LINE
  5
1F0
330
61
100
AcDbEntity
  8
1
  6
Continuous
 62
     2
100
AcDbLine
 10
129.7455685750906
 20
444.4236944144185
 30
0.0
 11
130.7455685750905
 21
444.4236944144185
 31
0.0
  0
LINE
  5
1F1
330
61
100
AcDbEntity
  8
1
  6
Continuous
 62
     2
100
AcDbLine
 10
143.9288185750904
 20
280.1075500689562
 30
0.0
 11
143.9288185750904
 21
289.1075500689562
 31
0.0
  0
LINE
  5
1F2
330
61
100
AcDbEntity
  8
1
  6
Continuous
 62
     7
100
AcDbLine
 10
163.7218185750905
 20
280.1075500689562
 30
0.0
 11
163.7218185750903
 21
278.0949070305608
 31
0.0
  0
LINE
  5
1F3
330
61
100
AcDbEntity
  8
1
  6
Continuous
 62
     2
100
AcDbLine
 10
162.5598185750905
 20
280.1075500689562
 30
0.0
 11
163.7218185750903
 21
278.0949070305608
 31
0.0
  0
LINE
  5
1F4
330
61
100
AcDbEntity
  8
1
  6
Continuous
 62
     2
100
AcDbLine
 10
142.7668185750905
 20
278.094907030561
 30
0.0
 11
143.9288185750904
 21
280.1075500689562
 31
0.0
  0
LINE
  5
1F5
330
61
100
AcDbEntity
  8
1
  6
Continuous
 62
     2
100
AcDbLine
 10
162.5598185750905
 20
289.1075500689562
 30
0.0
 11
162.5598185750905
 21
280.1075500689562
 31
0.0
  0
LINE
  5
1F6
330
61
100
AcDbEntity
  8
1
  6
Continuous
 62
     7
100
AcDbLine
 10
142.7668185750905
 20
280.1075500689562
 30
0.0
 11
142.7668185750906
 21
287.9455500689563
 31
0.0
  0
LINE
  5
1F7
330
61
100
AcDbEntity
  8
1
  6
Continuous
 62
     7
100
AcDbLine
 10
142.7668185750906
 20
287.9455500689563
 30
0.0
 11
143.9288185750904
 21
289.1075500689562
 31
0.0
  0
LINE
  5
1F8
330
61
100
AcDbEntity
  8
1
  6
Continuous
 62
     7
100
AcDbLine
 10
163.7218185750905
 20
280.1075500689562
 30
0.0
 11
163.7218185750905
 21
287.9455500689563
 31
0.0
  0
LINE
  5
1F9
330
61
100
AcDbEntity
  8
1
  6
Continuous
 62
     7
100
AcDbLine
 10
163.7218185750905
 20
287.9455500689563
 30
0.0
 11
162.5598185750905
 21
289.1075500689562
 31
0.0
  0
LINE
  5
1FA
330
61
100
AcDbEntity
  8
1
  6
Continuous
 62
     7
100
AcDbLine
 10
142.7668185750905
 20
280.1075500689562
 30
0.0
 11
143.9288185750904
 21
280.1075500689562
 31
0.0
  0
LINE
  5
1FB
330
61
100
AcDbEntity
  8
1
  6
Continuous
 62
     7
100
AcDbLine
 10
162.5598185750905
 20
280.1075500689562
 30
0.0
 11
163.7218185750905
 21
280.1075500689562
 31
0.0
  0
LINE
  5
1FC
330
61
100
AcDbEntity
  8
1
  6
Continuous
 62
     7
100
AcDbLine
 10
142.7668185750905
 20
278.094907030561
 30
0.0
 11
142.7668185750905
 21
280.1075500689562
 31
0.0
  0
LINE
  5
1FD
330
61
100
AcDbEntity
  8
1
  6
Continuous
 62
     7
100
AcDbLine
 10
159.7443185750904
 20
289.1075500689561
 30
0.0
 11
162.5598185750905
 21
289.1075500689562
 31
0.0
  0
LINE
  5
1FE
330
61
100
AcDbEntity
  8
1
  6
Continuous
 62
     7
100
AcDbLine
 10
165.2379770649447
 20
276.5787485407068
 30
0.0
 11
163.7218185750903
 21
278.0949070305608
 31
0.0
  0
LINE
  5
1FF
330
61
100
AcDbEntity
  8
1
  6
Continuous
 62
     7
100
AcDbLine
 10
141.2534567322561
 20
276.5815451877267
 30
0.0
 11
142.7668185750905
 21
278.094907030561
 31
0.0
  0
LINE
  5
200
330
61
100
AcDbEntity
  8
1
  6
Continuous
 62
     7
100
AcDbLine
 10
143.9288185750904
 20
289.1075500689562
 30
0.0
 11
159.7443185750904
 21
289.1075500689561
 31
0.0
  0
LINE
  5
201
330
61
100
AcDbEntity
  8
1
  6
Continuous
 62
     7
100
AcDbLine
 10
143.9288185750904
 20
280.1075500689562
 30
0.0
 11
162.5598185750905
 21
280.1075500689562
 31
0.0
  0
LINE
  5
202
330
61
100
AcDbEntity
  8
1
  6
Continuous
 62
     7
100
AcDbLine
 10
142.7668185750906
 20
287.9455500689563
 30
0.0
 11
163.7218185750905
 21
287.9455500689563
 31
0.0
  0
LINE
  5
203
330
61
100
AcDbEntity
  8
1
  6
Continuous
 62
     7
100
AcDbLine
 10
142.7668185750905
 20
278.094907030561
 30
0.0
 11
163.7218185750903
 21
278.0949070305608
 31
0.0
  0
LINE
  5
204
330
61
100
AcDbEntity
  8
1
  6
Continuous
 62
     7
100
AcDbLine
 10
141.2534567322561
 20
276.5815451877267
 30
0.0
 11
165.2379770649447
 21
276.5815451877267
 31
0.0
  0
LINE
  5
205
330
61
100
AcDbEntity
  8
1
  6
Continuous
 62
     7
100
AcDbLine
 10
140.2455685750903
 20
276.5815451877267
 30
0.0
 11
141.2534567322561
 21
276.5815451877267
 31
0.0
  0
LINE
  5
206
330
61
100
AcDbEntity
  8
1
  6
Continuous
 62
     7
100
AcDbLine
 10
166.2455685750902
 20
276.5815451877267
 30
0.0
 11
165.2379770649447
 21
276.5815451877267
 31
0.0
  0
LINE
  5
207
330
61
100
AcDbEntity
  8
1
  6
Continuous
 62
     7
100
AcDbLine
 10
140.2455685750903
 20
246.1075500689562
 30
0.0
 11
143.7906787725187
 21
246.1075500689562
 31
0.0
  0
LINE
  5
208
330
61
100
AcDbEntity
  8
1
  6
Continuous
 62
     7
100
AcDbLine
 10
166.2455685750902
 20
276.5815451877267
 30
0.0
 11
166.2455685750902
 21
275.5012764637991
 31
0.0
  0
LINE
  5
209
330
61
100
AcDbEntity
  8
1
  6
Continuous
 62
     7
100
AcDbLine
 10
140.2455685750903
 20
276.5815451877267
 30
0.0
 11
140.2455685750903
 21
275.5012764637993
 31
0.0
  0
LINE
  5
20A
330
61
100
AcDbEntity
  8
1
  6
Continuous
 62
     2
100
AcDbLine
 10
176.7455685750906
 20
249.791425068956
 30
0.0
 11
175.7455685750905
 21
249.791425068956
 31
0.0
  0
LINE
  5
20B
330
61
100
AcDbEntity
  8
1
  6
Continuous
 62
     7
100
AcDbLine
 10
176.7455685750906
 20
248.629425068956
 30
0.0
 11
175.7455685750905
 21
248.629425068956
 31
0.0
  0
LINE
  5
20C
330
61
100
AcDbEntity
  8
1
  6
Continuous
 62
     2
100
AcDbLine
 10
175.7455685750905
 20
249.791425068956
 30
0.0
 11
173.7329255366953
 21
248.6294250689561
 31
0.0
  0
LINE
  5
20D
330
61
100
AcDbEntity
  8
1
  6
Continuous
 62
     7
100
AcDbLine
 10
175.7455685750905
 20
249.791425068956
 30
0.0
 11
175.7455685750905
 21
248.629425068956
 31
0.0
  0
LINE
  5
20E
330
61
100
AcDbEntity
  8
1
  6
Continuous
 62
     7
100
AcDbLine
 10
175.7455685750905
 20
248.629425068956
 30
0.0
 11
173.7329255366953
 21
248.6294250689561
 31
0.0
  0
LINE
  5
20F
330
61
100
AcDbEntity
  8
1
  6
Continuous
 62
     7
100
AcDbLine
 10
172.9604255366952
 20
247.8569250689561
 30
0.0
 11
173.7329255366953
 21
248.6294250689561
 31
0.0
  0
LINE
  5
210
330
61
100
AcDbEntity
  8
1
  6
Continuous
 62
     7
100
AcDbLine
 10
172.9604255366952
 20
247.8569250689561
 30
0.0
 11
166.2468185750902
 21
247.8569250689561
 31
0.0
  0
LINE
  5
211
330
61
100
AcDbEntity
  8
1
  6
Continuous
 62
     2
100
AcDbLine
 10
130.7455685750905
 20
249.791425068956
 30
0.0
 11
129.7455685750904
 21
249.791425068956
 31
0.0
  0
LINE
  5
212
330
61
100
AcDbEntity
  8
1
  6
Continuous
 62
     7
100
AcDbLine
 10
130.7455685750905
 20
248.629425068956
 30
0.0
 11
129.7455685750904
 21
248.629425068956
 31
0.0
  0
LINE
  5
213
330
61
100
AcDbEntity
  8
1
  6
Continuous
 62
     7
100
AcDbLine
 10
130.7455685750905
 20
249.791425068956
 30
0.0
 11
130.7455685750905
 21
263.9716336001067
 31
0.0
  0
LINE
  5
214
330
61
100
AcDbEntity
  8
1
  6
Continuous
 62
     2
100
AcDbLine
 10
132.7582116134857
 20
248.6294250689561
 30
0.0
 11
130.7455685750905
 21
249.791425068956
 31
0.0
  0
LINE
  5
215
330
61
100
AcDbEntity
  8
1
  6
Continuous
 62
     7
100
AcDbLine
 10
130.7455685750905
 20
248.629425068956
 30
0.0
 11
130.7455685750905
 21
249.791425068956
 31
0.0
  0
LINE
  5
216
330
61
100
AcDbEntity
  8
1
  6
Continuous
 62
     7
100
AcDbLine
 10
132.7582116134857
 20
248.6294250689561
 30
0.0
 11
130.7455685750905
 21
248.629425068956
 31
0.0
  0
LINE
  5
217
330
61
100
AcDbEntity
  8
1
  6
Continuous
 62
     7
100
AcDbLine
 10
132.7582116134857
 20
248.6294250689561
 30
0.0
 11
133.5307116134858
 21
247.8569250689561
 31
0.0
  0
LINE
  5
218
330
61
100
AcDbEntity
  8
1
  6
Continuous
 62
     7
100
AcDbLine
 10
140.2443185750908
 20
247.8569250689561
 30
0.0
 11
133.5307116134858
 21
247.8569250689561
 31
0.0
  0
LINE
  5
219
330
61
100
AcDbEntity
  8
1
  6
Continuous
 62
     7
100
AcDbLine
 10
140.2455685750903
 20
253.5881633128598
 30
0.0
 11
140.2455685750903
 21
246.1075500689562
 31
0.0
  0
LINE
  5
21A
330
61
100
AcDbEntity
  8
1
  6
Continuous
 62
     7
100
AcDbLine
 10
162.7004583776625
 20
246.1075500689562
 30
0.0
 11
166.2455685750902
 21
246.1075500689562
 31
0.0
  0
LINE
  5
21B
330
61
100
AcDbEntity
  8
1
  6
Continuous
 62
     7
100
AcDbLine
 10
166.2455685750902
 20
253.5881633128588
 30
0.0
 11
166.2455685750902
 21
246.1075500689562
 31
0.0
  0
LINE
  5
21C
330
61
100
AcDbEntity
  8
1
  6
Continuous
 62
     7
100
AcDbLine
 10
175.7455685750905
 20
263.9716336001064
 30
0.0
 11
175.7455685750905
 21
249.791425068956
 31
0.0
  0
ARC
  5
21D
330
61
100
AcDbEntity
  8
1
  6
Continuous
 62
     7
100
AcDbCircle
 10
287.2099353254006
 20
277.1075500689561
 30
0.0
 40
4.999999999999945
100
AcDbArc
 50
-173.9290272213278
 51
-89.99999999999871
  0
ARC
  5
21E
330
61
100
AcDbEntity
  8
1
  6
Continuous
 62
     7
100
AcDbCircle
 10
253.2812018247794
 20
277.1075500689561
 30
0.0
 40
5.0
100
AcDbArc
 50
-90.0
 51
-6.03874578110109
  0
ARC
  5
21F
330
61
100
AcDbEntity
  8
1
  6
Continuous
 62
     7
100
AcDbCircle
 10
153.2455685750903
 20
440.2693075816199
 30
0.0
 40
24.83888683279856
100
AcDbArc
 50
72.41204622600681
 51
107.5879537739931
  0
ARC
  5
220
330
61
100
AcDbEntity
  8
1
  6
Continuous
 62
     7
100
AcDbCircle
 10
164.5038988242877
 20
458.4630552685176
 30
0.0
 40
6.645139145900973
100
AcDbArc
 50
55.61575253195916
 51
90.0
  0
ARC
  5
221
330
61
100
AcDbEntity
  8
1
  6
Continuous
 62
     7
100
AcDbCircle
 10
141.9872383258933
 20
458.4630552685166
 30
0.0
 40
6.645139145901369
100
AcDbArc
 50
55.61575253196981
 51
90.0
  0
ARC
  5
222
330
61
100
AcDbEntity
  8
1
  6
Continuous
 62
     7
100
AcDbCircle
 10
153.2455685750903
 20
479.9470812472168
 30
0.0
 40
24.8388868327985
100
AcDbArc
 50
-107.5879537739932
 51
-72.41204622600677
  0
ARC
  5
223
330
61
100
AcDbEntity
  8
1
  6
Continuous
 62
     7
100
AcDbCircle
 10
164.5038988242877
 20
458.4630552685176
 30
0.0
 40
6.645139145900771
100
AcDbArc
 50
90.0
 51
124.3842474680378
  0
ARC
  5
224
330
61
100
AcDbEntity
  8
1
  6
Continuous
 62
     7
100
AcDbCircle
 10
141.9872383258933
 20
458.4630552685166
 30
0.0
 40
6.645139145901794
100
AcDbArc
 50
90.0
 51
124.3842474680357
  0
ARC
  5
225
330
61
100
AcDbEntity
  8
1
  6
Continuous
 62
     7
100
AcDbCircle
 10
141.9872383258933
 20
461.7533335603201
 30
0.0
 40
6.645139145901755
100
AcDbArc
 50
-124.384247468036
 51
-55.61575253196953
  0
ARC
  5
226
330
61
100
AcDbEntity
  8
1
  6
Continuous
 62
     7
100
AcDbCircle
 10
164.5038988242877
 20
461.753333560319
 30
0.0
 40
6.6451391459006
100
AcDbArc
 50
-90.0
 51
-55.61575253195861
  0
ARC
  5
227
330
61
100
AcDbEntity
  8
1
  6
Continuous
 62
     7
100
AcDbCircle
 10
169.2455685750905
 20
453.3542099680557
 30
0.0
 40
3.000000000000186
100
AcDbArc
 50
119.4466134213912
 51
180.0
  0
ARC
  5
228
330
61
100
AcDbEntity
  8
1
  6
Continuous
 62
     7
100
AcDbCircle
 10
137.24556857509
 20
453.3542099680557
 30
0.0
 40
3.0
100
AcDbArc
 50
0.0
 51
60.55338657860689
  0
ARC
  5
229
330
61
100
AcDbEntity
  8
1
  6
Continuous
 62
     7
100
AcDbCircle
 10
171.2443185750903
 20
451.3581944144184
 30
0.0
 40
4.999999999999941
100
AcDbArc
 50
-178.7188007292249
 51
-90.0
  0
ARC
  5
22A
330
61
100
AcDbEntity
  8
1
  6
Continuous
 62
     7
100
AcDbCircle
 10
171.2443185750903
 20
451.3581944144184
 30
0.0
 40
4.999999999999963
100
AcDbArc
 50
178.7188007292138
 51
-178.7188007292249
  0
ARC
  5
22B
330
61
100
AcDbEntity
  8
1
  6
Continuous
 62
     7
100
AcDbCircle
 10
135.2468185750903
 20
451.3581944144184
 30
0.0
 40
4.99999999999995
100
AcDbArc
 50
-1.28119927076539
 51
1.28119927077646
  0
ARC
  5
22C
330
61
100
AcDbEntity
  8
1
  6
Continuous
 62
     7
100
AcDbCircle
 10
135.2468185750903
 20
451.3581944144184
 30
0.0
 40
5.0
100
AcDbArc
 50
-90.0
 51
-1.28119927076539
  0
ARC
  5
22D
330
61
100
AcDbEntity
  8
1
  6
Continuous
 62
     7
100
AcDbCircle
 10
171.2443185750932
 20
416.8581944144155
 30
0.0
 40
5.000000000001355
100
AcDbArc
 50
178.7188007297243
 51
-178.7188007297386
  0
LINE
  5
22E
330
61
100
AcDbEntity
  8
1
  6
Continuous
 62
     7
100
AcDbLine
 10
135.245568580492
 20
423.8581944144184
 30
0.0
 11
135.2455685750903
 21
423.8581944144184
 31
0.0
  0
ARC
  5
22F
330
61
100
AcDbEntity
  8
1
  6
Continuous
 62
     7
100
AcDbCircle
 10
135.2431802814746
 20
418.8558061208054
 30
0.0
 40
5.002388863737829
100
AcDbArc
 50
89.97264517756638
 51
90.02735482242646
  0
ARC
  5
230
330
61
100
AcDbEntity
  8
1
  6
Continuous
 62
     7
100
AcDbCircle
 10
135.2431802814746
 20
416.8558061208054
 30
0.0
 40
5.002388863737937
100
AcDbArc
 50
-0.02735475958291
 51
0.02735475947223
  0
ARC
  5
231
330
61
100
AcDbEntity
  8
1
  6
Continuous
 62
     7
100
AcDbCircle
 10
171.2455685750902
 20
418.8581944144184
 30
0.0
 40
5.0
100
AcDbArc
 50
90.0
 51
180.0
  0
ARC
  5
232
330
61
100
AcDbEntity
  8
1
  6
Continuous
 62
     7
100
AcDbCircle
 10
135.2455685750907
 20
418.8581944144184
 30
0.0
 40
5.0
100
AcDbArc
 50
0.0
 51
90.00000000000456
  0
ARC
  5
233
330
61
100
AcDbEntity
  8
1
  6
Continuous
 62
     7
100
AcDbCircle
 10
164.5038988242877
 20
461.753333560319
 30
0.0
 40
6.64513914590064
100
AcDbArc
 50
-124.3842474680384
 51
-90.0
  0
ARC
  5
234
330
61
100
AcDbEntity
  8
1
  6
Continuous
 62
     7
100
AcDbCircle
 10
308.5832054078907
 20
265.6075500689561
 30
0.0
 40
18.36643427850276
100
AcDbArc
 50
159.2735604049809
 51
-159.2735604049809
  0
ARC
  5
235
330
61
100
AcDbEntity
  8
1
  6
Continuous
 62
     7
100
AcDbCircle
 10
308.5832054078907
 20
252.6075500689561
 30
0.0
 40
18.36643427850276
100
AcDbArc
 50
159.273560404981
 51
-159.2735604049812
  0
ARC
  5
236
330
61
100
AcDbEntity
  8
1
  6
Continuous
 62
     7
100
AcDbCircle
 10
281.9054317422911
 20
252.6075500689561
 30
0.0
 40
18.36643427850096
100
AcDbArc
 50
-20.72643959502122
 51
20.72643959502114
  0
ARC
  5
237
330
61
100
AcDbEntity
  8
1
  6
Continuous
 62
     7
100
AcDbCircle
 10
281.9054317422911
 20
265.6075500689561
 30
0.0
 40
18.36643427850096
100
AcDbArc
 50
-20.72643959502122
 51
20.72643959502122
  0
CIRCLE
  5
238
330
61
100
AcDbEntity
  8
1
  6
Continuous
 62
     7
100
AcDbCircle
 10
153.2455685750903
 20
435.1069444144183
 30
0.0
 40
10.5
  0
CIRCLE
  5
239
330
61
100
AcDbEntity
  8
1
  6
Continuous
 62
     2
100
AcDbCircle
 10
153.2455685750903
 20
435.1069444144183
 30
0.0
 40
9.315500000000213
  0
CIRCLE
  5
23A
330
61
100
AcDbEntity
  8
1
  6
Continuous
 62
     7
100
AcDbCircle
 10
153.2455685750903
 20
435.1069444144183
 30
0.0
 40
6.497499999999889
  0
ENDBLK
  5
63
330
61
100
AcDbEntity
  8
0
100
AcDbBlockEnd
  0
BLOCK
  5
25A
330
253
100
AcDbEntity
  8
0
100
AcDbBlockBegin
  2
*D014
 70
     1
 71
     0
 10
0.0
 20
0.0
 30
0.0
  3
*D014
  1

  0
LINE
  5
254
330
253
100
AcDbEntity
  8
1
  6
Continuous
 62
     2
100
AcDbLine
 10
97.74556857509103
 20
465.1081944144184
 30
0.0
 11
97.74556857509103
 21
435.0926152301875
 31
0.0
  0
LINE
  5
255
330
253
100
AcDbEntity
  8
1
  6
Continuous
 62
     2
100
AcDbLine
 10
141.9872383258933
 20
465.1081944144184
 30
0.0
 11
95.74556857509103
 21
465.1081944144184
 31
0.0
  0
LINE
  5
256
330
253
100
AcDbEntity
  8
1
  6
Continuous
 62
     2
100
AcDbLine
 10
111.745568575338
 20
435.0926152301875
 30
0.0
 11
95.74556857509103
 21
435.0926152301875
 31
0.0
  0
SOLID
  5
257
330
253
100
AcDbEntity
  8
1
 62
     2
100
AcDbTrace
 10
98.6671360582028
 20
458.1081944144184
 30
0.0
 11
96.82400109197926
 21
458.1081944144184
 31
0.0
 12
97.74556857509103
 22
465.1081944144184
 32
0.0
 13
97.74556857509103
 23
465.1081944144184
 33
0.0
  0
SOLID
  5
258
330
253
100
AcDbEntity
  8
1
 62
     2
100
AcDbTrace
 10
96.82400109197926
 20
442.0926152301875
 30
0.0
 11
98.6671360582028
 21
442.0926152301875
 31
0.0
 12
97.74556857509103
 22
435.0926152301875
 32
0.0
 13
97.74556857509103
 23
435.0926152301875
 33
0.0
  0
MTEXT
  5
259
330
253
100
AcDbEntity
  8
1
 62
     7
100
AcDbMText
 10
95.74556857509103
 20
444.8578722416873
 30
0.0
 40
7.0
 41
0.0
 71
     7
 72
     1
  1
30
  7
CONVERTER_2
 11
0.0
 21
1.0
 31
0.0
 73
     1
 44
0.60024009603842
  0
ENDBLK
  5
25B
330
253
100
AcDbEntity
  8
0
100
AcDbBlockEnd
  0
BLOCK
  5
265
330
25E
100
AcDbEntity
  8
0
100
AcDbBlockBegin
  2
*D115
 70
     1
 71
     0
 10
0.0
 20
0.0
 30
0.0
  3
*D115
  1

  0
LINE
  5
25F
330
25E
100
AcDbEntity
  8
1
  6
Continuous
 62
     2
100
AcDbLine
 10
212.7443185750901
 20
325.1075500689563
 30
0.0
 11
270.24556857509
 21
325.1075500689563
 31
0.0
  0
LINE
  5
260
330
25E
100
AcDbEntity
  8
1
  6
Continuous
 62
     2
100
AcDbLine
 10
212.7443185750901
 20
259.1075500689561
 30
0.0
 11
212.7443185750901
 21
327.1075500689563
 31
0.0
  0
LINE
  5
261
330
25E
100
AcDbEntity
  8
1
  6
Continuous
 62
     2
100
AcDbLine
 10
270.24556857509
 20
295.1075500689561
 30
0.0
 11
270.24556857509
 21
327.1075500689563
 31
0.0
  0
SOLID
  5
262
330
25E
100
AcDbEntity
  8
1
 62
     2
100
AcDbTrace
 10
219.7443185750901
 20
326.029117552068
 30
0.0
 11
219.7443185750901
 21
324.1859825858446
 31
0.0
 12
212.7443185750901
 22
325.1075500689563
 32
0.0
 13
212.7443185750901
 23
325.1075500689563
 33
0.0
  0
SOLID
  5
263
330
25E
100
AcDbEntity
  8
1
 62
     2
100
AcDbTrace
 10
263.24556857509
 20
324.1859825858446
 30
0.0
 11
263.24556857509
 21
326.029117552068
 31
0.0
 12
270.24556857509
 22
325.1075500689563
 32
0.0
 13
270.24556857509
 23
325.1075500689563
 33
0.0
  0
MTEXT
  5
264
330
25E
100
AcDbEntity
  8
1
 62
     7
100
AcDbMText
 10
224.0137772749896
 20
327.1075500689563
 30
0.0
 40
7.0
 41
0.0
 71
     7
 72
     1
  1
58リフト5
  7
CONVERTER_1
 11
0.9999999999970621
 21
2.424068405545307E-6
 31
0.0
 73
     1
 44
0.60024009603842
  0
ENDBLK
  5
266
330
25E
100
AcDbEntity
  8
0
100
AcDbBlockEnd
  0
BLOCK
  5
272
330
269
100
AcDbEntity
  8
0
100
AcDbBlockBegin
  2
*D216
 70
     1
 71
     0
 10
0.0
 20
0.0
 30
0.0
  3
*D216
  1

  0
LINE
  5
26A
330
269
100
AcDbEntity
  8
1
  6
Continuous
 62
     2
100
AcDbLine
 10
336.2443185750901
 20
280.1075500689562
 30
0.0
 11
336.2443185750901
 21
266.1075500689562
 31
0.0
  0
LINE
  5
26B
330
269
100
AcDbEntity
  8
1
  6
Continuous
 62
     2
100
AcDbLine
 10
336.2443185750901
 20
289.1075500689562
 30
0.0
 11
336.2443185750901
 21
280.1075500689562
 31
0.0
  0
LINE
  5
26C
330
269
100
AcDbEntity
  8
1
  6
Continuous
 62
     2
100
AcDbLine
 10
336.2443185750901
 20
303.1075500689562
 30
0.0
 11
336.2443185750901
 21
289.1075500689562
 31
0.0
  0
LINE
  5
26D
330
269
100
AcDbEntity
  8
1
  6
Continuous
 62
     2
100
AcDbLine
 10
279.55981857509
 20
289.1075500689562
 30
0.0
 11
338.2443185750901
 21
289.1075500689562
 31
0.0
  0
LINE
  5
26E
330
269
100
AcDbEntity
  8
1
  6
Continuous
 62
     2
100
AcDbLine
 10
280.72181857509
 20
280.1075500689562
 30
0.0
 11
338.2443185750901
 21
280.1075500689562
 31
0.0
  0
SOLID
  5
26F
330
269
100
AcDbEntity
  8
1
 62
     2
100
AcDbTrace
 10
335.3227510919784
 20
296.1075500689562
 30
0.0
 11
337.1658860582019
 21
296.1075500689562
 31
0.0
 12
336.2443185750901
 22
289.1075500689562
 32
0.0
 13
336.2443185750901
 23
289.1075500689562
 33
0.0
  0
SOLID
  5
270
330
269
100
AcDbEntity
  8
1
 62
     2
100
AcDbTrace
 10
337.1658860582019
 20
273.1075500689562
 30
0.0
 11
335.3227510919784
 21
273.1075500689562
 31
0.0
 12
336.2443185750901
 22
280.1075500689562
 32
0.0
 13
336.2443185750901
 23
280.1075500689562
 33
0.0
  0
MTEXT
  5
271
330
269
100
AcDbEntity
  8
1
 62
     7
100
AcDbMText
 10
334.2443185750901
 20
282.5075500689562
 30
0.0
 40
7.0
 41
0.0
 71
     7
 72
     1
  1
9
  7
CONVERTER_2
 11
0.0
 21
1.0
 31
0.0
 73
     1
 44
0.60024009603842
  0
ENDBLK
  5
273
330
269
100
AcDbEntity
  8
0
100
AcDbBlockEnd
  0
BLOCK
  5
27E
330
276
100
AcDbEntity
  8
0
100
AcDbBlockBegin
  2
*D317
 70
     1
 71
     0
 10
0.0
 20
0.0
 30
0.0
  3
*D317
  1

  0
LINE
  5
277
330
276
100
AcDbEntity
  8
1
  6
Continuous
 62
     2
100
AcDbLine
 10
282.2379770649442
 20
309.107550068956
 30
0.0
 11
304.3452962128369
 21
309.107550068956
 31
0.0
  0
LINE
  5
278
330
276
100
AcDbEntity
  8
1
  6
Continuous
 62
     2
100
AcDbLine
 10
258.2534567322557
 20
309.107550068956
 30
0.0
 11
282.2379770649442
 21
309.107550068956
 31
0.0
  0
LINE
  5
279
330
276
100
AcDbEntity
  8
1
  6
Continuous
 62
     2
100
AcDbLine
 10
258.2534567322557
 20
276.5815451877267
 30
0.0
 11
258.2534567322557
 21
311.107550068956
 31
0.0
  0
LINE
  5
27A
330
276
100
AcDbEntity
  8
1
  6
Continuous
 62
     2
100
AcDbLine
 10
282.2379770649442
 20
276.5787485407068
 30
0.0
 11
282.2379770649442
 21
311.107550068956
 31
0.0
  0
SOLID
  5
27B
330
276
100
AcDbEntity
  8
1
 62
     2
100
AcDbTrace
 10
265.2534567322557
 20
310.0291175520678
 30
0.0
 11
265.2534567322557
 21
308.1859825858443
 31
0.0
 12
258.2534567322557
 22
309.107550068956
 32
0.0
 13
258.2534567322557
 23
309.107550068956
 33
0.0
  0
SOLID
  5
27C
330
276
100
AcDbEntity
  8
1
 62
     2
100
AcDbTrace
 10
275.2379770649442
 20
308.1859825858443
 30
0.0
 11
275.2379770649442
 21
310.0291175520678
 31
0.0
 12
282.2379770649442
 22
309.107550068956
 32
0.0
 13
282.2379770649442
 23
309.107550068956
 33
0.0
  0
MTEXT
  5
27D
330
276
100
AcDbEntity
  8
1
 62
     7
100
AcDbMText
 10
286.8452962128369
 20
311.107550068956
 30
0.0
 40
7.0
 41
0.0
 71
     7
 72
     1
  1
{\Fgdt;n}24
  7
CONVERTER_2
 11
0.9999999999970621
 21
2.424068405545307E-6
 31
0.0
 73
     1
 44
0.60024009603842
  0
ENDBLK
  5
27F
330
276
100
AcDbEntity
  8
0
100
AcDbBlockEnd
  0
BLOCK
  5
289
330
282
100
AcDbEntity
  8
0
100
AcDbBlockBegin
  2
*D418
 70
     1
 71
     0
 10
0.0
 20
0.0
 30
0.0
  3
*D418
  1

  0
LINE
  5
283
330
282
100
AcDbEntity
  8
1
  6
Continuous
 62
     2
100
AcDbLine
 10
212.7443185750901
 20
210.1075500689562
 30
0.0
 11
300.2443185750901
 21
210.1075500689562
 31
0.0
  0
LINE
  5
284
330
282
100
AcDbEntity
  8
1
  6
Continuous
 62
     2
100
AcDbLine
 10
212.7443185750901
 20
259.107550068956
 30
0.0
 11
212.7443185750901
 21
208.1075500689562
 31
0.0
  0
LINE
  5
285
330
282
100
AcDbEntity
  8
1
  6
Continuous
 62
     2
100
AcDbLine
 10
300.2443185750901
 20
246.1075500689561
 30
0.0
 11
300.2443185750901
 21
208.1075500689562
 31
0.0
  0
SOLID
  5
286
330
282
100
AcDbEntity
  8
1
 62
     2
100
AcDbTrace
 10
219.7443185750901
 20
211.029117552068
 30
0.0
 11
219.7443185750901
 21
209.1859825858444
 31
0.0
 12
212.7443185750901
 22
210.1075500689562
 32
0.0
 13
212.7443185750901
 23
210.1075500689562
 33
0.0
  0
SOLID
  5
287
330
282
100
AcDbEntity
  8
1
 62
     2
100
AcDbTrace
 10
293.2443185750901
 20
209.1859825858444
 30
0.0
 11
293.2443185750901
 21
211.029117552068
 31
0.0
 12
300.2443185750901
 22
210.1075500689562
 32
0.0
 13
300.2443185750901
 23
210.1075500689562
 33
0.0
  0
MTEXT
  5
288
330
282
100
AcDbEntity
  8
1
 62
     7
100
AcDbMText
 10
251.2443185750901
 20
212.1075500689562
 30
0.0
 40
7.0
 41
0.0
 71
     7
 72
     1
  1
88
  7
CONVERTER_2
 11
0.9999999999970621
 21
2.424068405545307E-6
 31
0.0
 73
     1
 44
0.60024009603842
  0
ENDBLK
  5
28A
330
282
100
AcDbEntity
  8
0
100
AcDbBlockEnd
  0
BLOCK
  5
294
330
28D
100
AcDbEntity
  8
0
100
AcDbBlockBegin
  2
*D519
 70
     1
 71
     0
 10
0.0
 20
0.0
 30
0.0
  3
*D519
  1

  0
LINE
  5
28E
330
28D
100
AcDbEntity
  8
1
  6
Continuous
 62
     2
100
AcDbLine
 10
117.7452191849156
 20
485.1078722385165
 30
0.0
 11
188.7452191849147
 21
485.1085165839787
 31
0.0
  0
LINE
  5
28F
330
28D
100
AcDbEntity
  8
1
  6
Continuous
 62
     2
100
AcDbLine
 10
117.745568575091
 20
446.6088000689564
 30
0.0
 11
117.7452010343392
 21
487.1078722384341
 31
0.0
  0
LINE
  5
290
330
28D
100
AcDbEntity
  8
1
  6
Continuous
 62
     2
100
AcDbLine
 10
188.7455685750901
 20
446.6094444144187
 30
0.0
 11
188.7452010343383
 21
487.1085165838964
 31
0.0
  0
SOLID
  5
291
330
28D
100
AcDbEntity
  8
1
 62
     2
100
AcDbTrace
 10
124.7452108211369
 20
486.0295032486075
 30
0.0
 11
124.7452275481178
 21
484.1863682824599
 31
0.0
 12
117.7452191849156
 22
485.1078722385165
 32
0.0
 13
117.7452191849156
 23
485.1078722385165
 33
0.0
  0
SOLID
  5
292
330
28D
100
AcDbEntity
  8
1
 62
     2
100
AcDbTrace
 10
181.7452275486934
 20
484.1868855738877
 30
0.0
 11
181.7452108217125
 21
486.0300205400353
 31
0.0
 12
188.7452191849147
 22
485.1085165839787
 32
0.0
 13
188.7452191849147
 23
485.1085165839787
 33
0.0
  0
MTEXT
  5
293
330
28D
100
AcDbEntity
  8
1
 62
     7
100
AcDbMText
 10
149.0455504246869
 20
487.1081562981256
 30
0.0
 40
7.0
 41
0.0
 71
     7
 72
     1
  1
71
  7
CONVERTER_2
 11
0.9999999999588196
 21
9.075288200508973E-6
 31
0.0
 73
     1
 44
0.60024009603842
  0
ENDBLK
  5
295
330
28D
100
AcDbEntity
  8
0
100
AcDbBlockEnd
  0
BLOCK
  5
29F
330
298
100
AcDbEntity
  8
0
100
AcDbBlockBegin
  2
*D620
 70
     1
 71
     0
 10
0.0
 20
0.0
 30
0.0
  3
*D620
  1

  0
LINE
  5
299
330
298
100
AcDbEntity
  8
1
  6
Continuous
 62
     2
100
AcDbLine
 10
320.2455685750899
 20
272.1075500689561
 30
0.0
 11
320.2455685750899
 21
246.1075500689561
 31
0.0
  0
LINE
  5
29A
330
298
100
AcDbEntity
  8
1
  6
Continuous
 62
     2
100
AcDbLine
 10
300.2443185750901
 20
272.1075500689561
 30
0.0
 11
322.2455685750899
 21
272.1075500689561
 31
0.0
  0
LINE
  5
29B
330
298
100
AcDbEntity
  8
1
  6
Continuous
 62
     2
100
AcDbLine
 10
300.2443185750901
 20
246.1075500689561
 30
0.0
 11
322.2455685750899
 21
246.1075500689561
 31
0.0
  0
SOLID
  5
29C
330
298
100
AcDbEntity
  8
1
 62
     2
100
AcDbTrace
 10
321.1671360582017
 20
265.1075500689561
 30
0.0
 11
319.3240010919782
 21
265.1075500689561
 31
0.0
 12
320.2455685750899
 22
272.1075500689561
 32
0.0
 13
320.2455685750899
 23
272.1075500689561
 33
0.0
  0
SOLID
  5
29D
330
298
100
AcDbEntity
  8
1
 62
     2
100
AcDbTrace
 10
319.3240010919782
 20
253.1075500689561
 30
0.0
 11
321.1671360582017
 21
253.1075500689561
 31
0.0
 12
320.2455685750899
 22
246.1075500689561
 32
0.0
 13
320.2455685750899
 23
246.1075500689561
 33
0.0
  0
MTEXT
  5
29E
330
298
100
AcDbEntity
  8
1
 62
     7
100
AcDbMText
 10
318.2455685750899
 20
253.8901642023412
 30
0.0
 40
7.0
 41
0.0
 71
     7
 72
     1
  1
26
  7
CONVERTER_2
 11
0.0
 21
1.0
 31
0.0
 73
     1
 44
0.60024009603842
  0
ENDBLK
  5
2A0
330
298
100
AcDbEntity
  8
0
100
AcDbBlockEnd
  0
ENDSEC
  0
SECTION
  2
ENTITIES
  0
INSERT
  5
64
330
1F
100
AcDbEntity
  8
1
100
AcDbBlockReference
  2
_J__A4
 10
0.0
 20
0.0
 30
0.0
 41
2.0
 42
2.0
 43
2.0
  0
INSERT
  5
65
330
1F
100
AcDbEntity
  8
0
100
AcDbBlockReference
  2
B41A-24-13__3
 10
585.2455685750899
 20
457.607550068956
 30
0.0
  0
INSERT
  5
66
330
1F
100
AcDbEntity
  8
0
100
AcDbBlockReference
  2
B41A-24-13__5
 10
74.7455685750908
 20
750.1075500689561
 30
0.0
  0
INSERT
  5
67
330
1F
100
AcDbEntity
  8
0
100
AcDbBlockReference
  2
R10A-13
 10
1170.179615814342
 20
601.9089830555824
 30
0.0
  0
INSERT
  5
68
330
1F
100
AcDbEntity
  8
0
100
AcDbBlockReference
  2
P82A-15
 10
747.8398897869447
 20
626.1601270503084
 30
0.0
  0
INSERT
  5
69
330
1F
100
AcDbEntity
  8
1
100
AcDbBlockReference
  2
B411-0-13
 10
1635.24556857509
 20
457.607550068956
 30
0.0
  0
LINE
  5
23B
330
1F
100
AcDbEntity
  8
1
  6
DASH_CENTER
 62
     2
100
AcDbLine
 10
170.5389460715359
 20
249.1232139161854
 30
0.0
 11
121.2026286350664
 21
277.607550068956
 31
0.0
  0
LINE
  5
23C
330
1F
100
AcDbEntity
  8
1
  6
DASH_CENTER
 62
     2
100
AcDbLine
 10
135.9521910786453
 20
249.1232139161857
 30
0.0
 11
185.288508515115
 21
277.6075500689561
 31
0.0
  0
LINE
  5
23D
330
1F
100
AcDbEntity
  8
1
  6
DASH_CENTER
 62
     2
100
AcDbLine
 10
194.7455685750899
 20
259.1075500689561
 30
0.0
 11
111.7455685750911
 21
259.1075500689561
 31
0.0
  0
LINE
  5
23E
330
1F
100
AcDbEntity
  8
1
  6
DASH_CENTER
 62
     2
100
AcDbLine
 10
153.2455685750907
 20
222.1075500689561
 30
0.0
 11
153.2455685750907
 21
295.1075500689561
 31
0.0
  0
LINE
  5
23F
330
1F
100
AcDbEntity
  8
1
  6
DASH_CENTER
 62
     2
100
AcDbLine
 10
194.7455685748432
 20
435.0933684791031
 30
0.0
 11
111.745568575338
 21
435.0926152301875
 31
0.0
  0
LINE
  5
240
330
1F
100
AcDbEntity
  8
1
  6
DASH_CENTER
 62
     2
100
AcDbLine
 10
153.2455685750904
 20
371.6069444144186
 30
0.0
 11
153.2455685750905
 21
471.1081944144184
 31
0.0
  0
LINE
  5
241
330
1F
100
AcDbEntity
  8
1
  6
DASH_CENTER
 62
     2
100
AcDbLine
 10
206.74431857509
 20
259.1075500689561
 30
0.0
 11
306.2443185750901
 21
259.1075500689561
 31
0.0
  0
LINE
  5
242
330
1F
100
AcDbEntity
  8
1
  6
DASH_CENTER
 62
     2
100
AcDbLine
 10
270.24556857509
 20
295.1075500689561
 30
0.0
 11
270.2455685750899
 21
240.1075500689562
 31
0.0
  0
SOLID
  5
243
330
1F
100
AcDbEntity
  8
1
 62
     2
100
AcDbTrace
 10
304.5424194267666
 20
242.7761559840209
 30
0.0
 11
302.9462177234136
 21
241.8545885009091
 31
0.0
 12
300.2443185750901
 22
248.3775500689561
 32
0.0
 13
300.2443185750901
 23
248.3775500689561
 33
0.0
  0
LEADER
  5
244
330
1F
100
AcDbEntity
  8
1
  6
Continuous
 62
     2
100
AcDbLeader
  3
Standard
 71
     0
 76
     3
 10
300.2443185750901
 20
248.3775500689561
 30
0.0
 10
314.9635441250146
 20
222.8831035684211
 30
0.0
 10
346.9860927700274
 20
222.8831035684211
 30
0.0
  0
SOLID
  5
245
330
1F
100
AcDbEntity
  8
1
 62
     2
100
AcDbTrace
 10
180.0436694267668
 20
419.0293003294833
 30
0.0
 11
178.4474677234139
 21
418.1077328463715
 31
0.0
 12
175.7455685750903
 22
424.6306944144184
 32
0.0
 13
175.7455685750903
 23
424.6306944144184
 33
0.0
  0
LEADER
  5
246
330
1F
100
AcDbEntity
  8
1
  6
Continuous
 62
     2
100
AcDbLeader
  3
Standard
 71
     0
 76
     3
 10
175.7455685750903
 20
424.6306944144184
 30
0.0
 10
190.7910614693764
 20
398.5711362965984
 30
0.0
 10
218.8637996547469
 20
398.5711362965984
 30
0.0
  0
SOLID
  5
247
330
1F
100
AcDbEntity
  8
1
 62
     2
100
AcDbTrace
 10
128.0436694267671
 20
418.1077328463715
 30
0.0
 11
126.4474677234142
 21
419.0293003294833
 31
0.0
 12
130.7455685750907
 22
424.6306944144184
 32
0.0
 13
130.7455685750907
 23
424.6306944144184
 33
0.0
  0
LEADER
  5
248
330
1F
100
AcDbEntity
  8
1
  6
Continuous
 62
     2
100
AcDbLeader
  3
Standard
 71
     0
 76
     3
 10
130.7455685750907
 20
424.6306944144184
 30
0.0
 10
115.7000756808046
 20
398.5711362965984
 30
0.0
 10
87.62733749543412
 20
398.5711362965984
 30
0.0
  0
MTEXT
  5
249
330
1F
100
AcDbEntity
  8
1
 62
     7
100
AcDbMText
 10
68.0
 20
61.00000000000001
 30
0.0
 40
7.0
 41
0.0
 71
     4
 72
     1
  1
共用形
  7
CONVERTER_1
 73
     1
 44
0.7202881152461
  0
MTEXT
  5
24B
330
1F
100
AcDbEntity
  8
1
 62
     7
100
AcDbMText
 10
68.0
 20
75.0
 30
0.0
 40
7.0
 41
0.0
 71
     4
 72
     1
  1
JIS
  7
CONVERTER_2
 73
     1
 44
0.7202881152461
  0
MTEXT
  5
24C
330
1F
100
AcDbEntity
  8
1
 62
     7
100
AcDbMText
 10
187.5
 20
34.0
 30
0.0
 40
7.0
 41
0.0
 71
     5
 72
     1
  1
2
  7
CONVERTER_2
 73
     1
 44
0.7202881152461
  0
MTEXT
  5
24D
330
1F
100
AcDbEntity
  8
1
 62
     7
100
AcDbMText
 10
170.5
 20
34.0
 30
0.0
 40
7.0
 41
0.0
 71
     5
 72
     1
  1
1
  7
CONVERTER_2
 73
     1
 44
0.7202881152461
  0
MTEXT
  5
24E
330
1F
100
AcDbEntity
  8
1
 62
     7
100
AcDbMText
 10
332.5215805278784
 20
228.883103568421
 30
0.0
 40
7.0
 41
0.0
 71
     5
 72
     1
  1
Rc1/2
  7
CONVERTER_2
 73
     1
 44
0.7202881152461
  0
MTEXT
  5
24F
330
1F
100
AcDbEntity
  8
1
 62
     7
100
AcDbMText
 10
114.0
 20
45.50000000000001
 30
0.0
 40
7.0
 41
0.0
 71
     5
 72
     1
  1
分岐止水栓本体
  7
CONVERTER_1
 73
     1
 44
0.7202881152461
  0
MTEXT
  5
250
330
1F
100
AcDbEntity
  8
1
 62
     7
100
AcDbMText
 10
114.0
 20
28.5
 30
0.0
 40
7.0
 41
0.0
 71
     5
 72
     1
  1
B411-X3-13
  7
CONVERTER_2
 73
     1
 44
0.7202881152461
  0
MTEXT
  5
251
330
1F
100
AcDbEntity
  8
1
 62
     7
100
AcDbMText
 10
206.2811648323134
 20
404.5711362965984
 30
0.0
 40
7.0
 41
0.0
 71
     5
 72
     1
  1
G1/2
  7
CONVERTER_2
 73
     1
 44
0.7202881152461
  0
MTEXT
  5
252
330
1F
100
AcDbEntity
  8
1
 62
     7
100
AcDbMText
 10
98.64771222324862
 20
404.5711362965984
 30
0.0
 40
7.0
 41
0.0
 71
     5
 72
     1
  1
G1/2
  7
CONVERTER_2
 73
     1
 44
0.7202881152461
  0
DIMENSION
  5
25D
330
1F
100
AcDbEntity
  8
1
100
AcDbDimension
  2
*D014
 10
97.74556857509103
 20
465.1081944144184
 30
0.0
 11
92.24556857509103
 21
450.1078722416873
 31
0.0
  1
30
 71
     5
 42
0.0
 53
90.0
  3
ME10_DIM_0
100
AcDbAlignedDimension
 13
111.745568575338
 23
435.0926152301875
 33
0.0
 14
141.9872383258933
 24
465.1081944144184
 34
0.0
 50
90.0
100
AcDbRotatedDimension
  0
DIMENSION
  5
268
330
1F
100
AcDbEntity
  8
1
100
AcDbDimension
  2
*D115
 10
212.7443185750901
 20
325.1075500689563
 30
0.0
 11
242.9137772749896
 21
330.6075500689563
 31
0.0
  1
58リフト5
 71
     5
 42
0.0
 53
0.00013888888889
  3
ME10_DIM_1
100
AcDbAlignedDimension
 13
270.24556857509
 23
295.1075500689561
 33
0.0
 14
212.7443185750901
 24
259.1075500689561
 34
0.0
100
AcDbRotatedDimension
  0
DIMENSION
  5
275
330
1F
100
AcDbEntity
  8
1
100
AcDbDimension
  2
*D216
 10
336.2443185750901
 20
289.1075500689562
 30
0.0
 11
330.7443185750901
 21
284.6075500689562
 31
0.0
  1
<>
 71
     5
 42
0.0
 53
90.0
  3
ME10_DIM_2
100
AcDbAlignedDimension
 13
280.72181857509
 23
280.1075500689562
 33
0.0
 14
279.55981857509
 24
289.1075500689562
 34
0.0
 50
90.0
100
AcDbRotatedDimension
  0
DIMENSION
  5
281
330
1F
100
AcDbEntity
  8
1
100
AcDbDimension
  2
*D317
 10
258.2534567322557
 20
309.107550068956
 30
0.0
 11
295.5952962128369
 21
314.607550068956
 31
0.0
  1
^N1^O24
 71
     5
 42
0.0
 53
0.00013888888889
  3
ME10_DIM_3
100
AcDbAlignedDimension
 13
282.2379770649442
 23
276.5787485407068
 33
0.0
 14
258.2534567322557
 24
276.5815451877267
 34
0.0
100
AcDbRotatedDimension
  0
DIMENSION
  5
28C
330
1F
100
AcDbEntity
  8
1
100
AcDbDimension
  2
*D418
 10
212.7443185750901
 20
210.1075500689562
 30
0.0
 11
256.4943185750901
 21
215.6075500689562
 31
0.0
  1
88
 71
     5
 42
0.0
 53
0.00013888888889
  3
ME10_DIM_4
100
AcDbAlignedDimension
 13
300.2443185750901
 23
246.1075500689561
 33
0.0
 14
212.7443185750901
 24
259.1075500689561
 34
0.0
100
AcDbRotatedDimension
  0
DIMENSION
  5
297
330
1F
100
AcDbEntity
  8
1
100
AcDbDimension
  2
*D519
 10
117.7452191849156
 20
485.1078722385165
 30
0.0
 11
153.2455186610052
 21
490.6081944141919
 31
0.0
 70
     1
  1
<>
 71
     5
 42
0.0
 53
0.00051997571176
  3
ME10_DIM_5
100
AcDbAlignedDimension
 13
188.7455685750901
 23
446.6094444144186
 33
0.0
 14
117.745568575091
 24
446.6088000689563
 34
0.0
  0
DIMENSION
  5
2A2
330
1F
100
AcDbEntity
  8
1
100
AcDbDimension
  2
*D620
 10
320.2455685750899
 20
272.1075500689561
 30
0.0
 11
314.7455685750899
 21
259.1401642023412
 31
0.0
  1
<>
 71
     5
 42
0.0
 53
90.0
  3
ME10_DIM_6
100
AcDbAlignedDimension
 13
300.2443185750901
 23
246.1075500689561
 33
0.0
 14
300.2443185750901
 24
272.1075500689561
 34
0.0
 50
90.0
100
AcDbRotatedDimension
  0
ENDSEC
  0
SECTION
  2
OBJECTS
  0
DICTIONARY
  5
C
330
0
100
AcDbDictionary
281
     1
  3
ACAD_GROUP
350
D
  3
ACAD_LAYOUT
350
1A
  3
ACAD_MLINESTYLE
350
17
  3
ACAD_PLOTSETTINGS
350
19
  3
ACAD_PLOTSTYLENAME
350
E
  3
ACAD_TABLESTYLE
350
2A
  3
AcDbVariableDictionary
350
2C
  0
DICTIONARY
  5
D
102
{ACAD_REACTORS
330
C
102
}
330
C
100
AcDbDictionary
281
     1
  0
DICTIONARY
  5
1A
102
{ACAD_REACTORS
330
C
102
}
330
C
100
AcDbDictionary
281
     1
  3
Layout1
350
1E
  3
Layout2
350
26
  3
Model
350
22
  0
DICTIONARY
  5
17
102
{ACAD_REACTORS
330
C
102
}
330
C
100
AcDbDictionary
281
     1
  3
Standard
350
18
  0
DICTIONARY
  5
19
102
{ACAD_REACTORS
330
C
102
}
330
C
100
AcDbDictionary
281
     1
  0
ACDBDICTIONARYWDFLT
  5
E
102
{ACAD_REACTORS
330
C
102
}
330
C
100
AcDbDictionary
281
     1
  3
Normal
350
F
100
AcDbDictionaryWithDefault
340
F
  0
DICTIONARY
  5
2A
102
{ACAD_REACTORS
330
C
102
}
330
C
100
AcDbDictionary
281
     1
  3
Standard
350
2B
  0
DICTIONARY
  5
2C
102
{ACAD_REACTORS
330
C
102
}
330
C
100
AcDbDictionary
281
     1
  3
CTABLESTYLE
350
2D
  0
LAYOUT
  5
1E
102
{ACAD_REACTORS
330
1A
102
}
330
1A
100
AcDbPlotSettings
  1

  2

  4

  6

 40
0.0
 41
0.0
 42
0.0
 43
0.0
 44
0.0
 45
0.0
 46
0.0
 47
0.0
 48
0.0
 49
0.0
140
0.0
141
0.0
142
1.0
143
1.0
 70
   688
 72
     0
 73
     0
 74
     5
  7

 75
    16
147
1.0
148
0.0
149
0.0
100
AcDbLayout
  1
Layout1
 70
     1
 71
     1
 10
0.0
 20
0.0
 11
12.0
 21
9.0
 12
0.0
 22
0.0
 32
0.0
 14
1.00000000000000E+20
 24
1.00000000000000E+20
 34
1.00000000000000E+20
 15
-1.00000000000000E+20
 25
-1.00000000000000E+20
 35
-1.00000000000000E+20
146
0.0
 13
0.0
 23
0.0
 33
0.0
 16
1.0
 26
0.0
 36
0.0
 17
0.0
 27
1.0
 37
0.0
 76
     0
330
1B
  0
LAYOUT
  5
26
102
{ACAD_REACTORS
330
1A
102
}
330
1A
100
AcDbPlotSettings
  1

  2

  4

  6

 40
0.0
 41
0.0
 42
0.0
 43
0.0
 44
0.0
 45
0.0
 46
0.0
 47
0.0
 48
0.0
 49
0.0
140
0.0
141
0.0
142
1.0
143
1.0
 70
   688
 72
     0
 73
     0
 74
     5
  7

 75
    16
147
1.0
148
0.0
149
0.0
100
AcDbLayout
  1
Layout2
 70
     1
 71
     2
 10
0.0
 20
0.0
 11
0.0
 21
0.0
 12
0.0
 22
0.0
 32
0.0
 14
0.0
 24
0.0
 34
0.0
 15
0.0
 25
0.0
 35
0.0
146
0.0
 13
0.0
 23
0.0
 33
0.0
 16
1.0
 26
0.0
 36
0.0
 17
0.0
 27
1.0
 37
0.0
 76
     0
330
23
  0
LAYOUT
  5
22
102
{ACAD_REACTORS
330
1A
102
}
330
1A
100
AcDbPlotSettings
  1

  2

  4

  6

 40
0.0
 41
0.0
 42
0.0
 43
0.0
 44
0.0
 45
0.0
 46
0.0
 47
0.0
 48
0.0
 49
0.0
140
0.0
141
0.0
142
1.0
143
1.0
 70
  1712
 72
     0
 73
     0
 74
     0
  7

 75
     0
147
1.0
148
0.0
149
0.0
100
AcDbLayout
  1
Model
 70
     1
 71
     0
 10
0.0
 20
0.0
 11
0.0
 21
0.0
 12
0.0
 22
0.0
 32
0.0
 14
-7.51664131391072
 24
0.0
 34
0.0
 15
420.0
 25
594.0
 35
0.0
146
0.0
 13
0.0
 23
0.0
 33
0.0
 16
1.0
 26
0.0
 36
0.0
 17
0.0
 27
1.0
 37
0.0
 76
     0
330
1F
  0
MLINESTYLE
  5
18
102
{ACAD_REACTORS
330
17
102
}
330
17
100
AcDbMlineStyle
  2
Standard
 70
     0
  3

 62
   256
 51
90.0
 52
90.0
 71
     2
 49
0.5
 62
   256
  6
BYLAYER
 49
-0.5
 62
   256
  6
BYLAYER
  0
ACDBPLACEHOLDER
  5
F
102
{ACAD_REACTORS
330
E
102
}
330
E
  0
TABLESTYLE
  5
2B
102
{ACAD_REACTORS
330
2A
102
}
330
2A
100
AcDbTableStyle
  3
Standard
 70
     0
 71
     0
 40
0.06
 41
0.06
280
     0
281
     0
  7
Standard
140
0.18
170
     2
 62
     0
 63
     7
283
     0
274
    -2
284
     1
 64
     0
275
    -2
285
     1
 65
     0
276
    -2
286
     1
 66
     0
277
    -2
287
     1
 67
     0
278
    -2
288
     1
 68
     0
279
    -2
289
     1
 69
     0
  7
Standard
140
0.25
170
     5
 62
     0
 63
     7
283
     0
274
    -2
284
     1
 64
     0
275
    -2
285
     1
 65
     0
276
    -2
286
     1
 66
     0
277
    -2
287
     1
 67
     0
278
    -2
288
     1
 68
     0
279
    -2
289
     1
 69
     0
  7
Standard
140
0.18
170
     5
 62
     0
 63
     7
283
     0
274
    -2
284
     1
 64
     0
275
    -2
285
     1
 65
     0
276
    -2
286
     1
 66
     0
277
    -2
287
     1
 67
     0
278
    -2
288
     1
 68
     0
279
    -2
289
     1
 69
     0
  0
DICTIONARYVAR
  5
2D
102
{ACAD_REACTORS
330
2C
102
}
330
2C
100
DictionaryVariables
280
     0
  1
Standard
  0
ENDSEC
  0
EOF
