  0
SECTION
  2
HEADER
  9
$ACADVER
  1
AC1015
  9
$ACADMAINTVER
 70
     6
  9
$DWGCODEPAGE
  3
ANSI_932
  9
$INSBASE
 10
0.0
 20
0.0
 30
0.0
  9
$EXTMIN
 10
0.0
 20
0.0
 30
0.0
  9
$EXTMAX
 10
420.0
 20
594.0
 30
0.0
  9
$LIMMIN
 10
0.0
 20
0.0
  9
$LIMMAX
 10
12.0
 20
9.0
  9
$ORTHOMODE
 70
     0
  9
$REGENMODE
 70
     1
  9
$FILLMODE
 70
     1
  9
$QTEXTMODE
 70
     0
  9
$MIRRTEXT
 70
     1
  9
$LTSCALE
 40
1.0
  9
$ATTMODE
 70
     1
  9
$TEXTSIZE
 40
0.2
  9
$TRACEWID
 40
0.05
  9
$TEXTSTYLE
  7
Standard
  9
$CLAYER
  8
0
  9
$CELTYPE
  6
ByLayer
  9
$CECOLOR
 62
   256
  9
$CELTSCALE
 40
1.0
  9
$DISPSILH
 70
     0
  9
$DIMSCALE
 40
1.0
  9
$DIMASZ
 40
0.18
  9
$DIMEXO
 40
0.0625
  9
$DIMDLI
 40
0.38
  9
$DIMRND
 40
0.0
  9
$DIMDLE
 40
0.0
  9
$DIMEXE
 40
0.18
  9
$DIMTP
 40
0.0
  9
$DIMTM
 40
0.0
  9
$DIMTXT
 40
0.18
  9
$DIMCEN
 40
0.09
  9
$DIMTSZ
 40
0.0
  9
$DIMTOL
 70
     0
  9
$DIMLIM
 70
     0
  9
$DIMTIH
 70
     1
  9
$DIMTOH
 70
     1
  9
$DIMSE1
 70
     0
  9
$DIMSE2
 70
     0
  9
$DIMTAD
 70
     0
  9
$DIMZIN
 70
     0
  9
$DIMBLK
  1

  9
$DIMASO
 70
     1
  9
$DIMSHO
 70
     1
  9
$DIMPOST
  1

  9
$DIMAPOST
  1

  9
$DIMALT
 70
     0
  9
$DIMALTD
 70
     2
  9
$DIMALTF
 40
25.4
  9
$DIMLFAC
 40
1.0
  9
$DIMTOFL
 70
     0
  9
$DIMTVP
 40
0.0
  9
$DIMTIX
 70
     0
  9
$DIMSOXD
 70
     0
  9
$DIMSAH
 70
     0
  9
$DIMBLK1
  1

  9
$DIMBLK2
  1

  9
$DIMSTYLE
  2
Standard
  9
$DIMCLRD
 70
     0
  9
$DIMCLRE
 70
     0
  9
$DIMCLRT
 70
     0
  9
$DIMTFAC
 40
1.0
  9
$DIMGAP
 40
0.09
  9
$DIMJUST
 70
     0
  9
$DIMSD1
 70
     0
  9
$DIMSD2
 70
     0
  9
$DIMTOLJ
 70
     1
  9
$DIMTZIN
 70
     0
  9
$DIMALTZ
 70
     0
  9
$DIMALTTZ
 70
     0
  9
$DIMUPT
 70
     0
  9
$DIMDEC
 70
     4
  9
$DIMTDEC
 70
     4
  9
$DIMALTU
 70
     2
  9
$DIMALTTD
 70
     2
  9
$DIMTXSTY
  7
Standard
  9
$DIMAUNIT
 70
     0
  9
$DIMADEC
 70
     0
  9
$DIMALTRND
 40
0.0
  9
$DIMAZIN
 70
     0
  9
$DIMDSEP
 70
    46
  9
$DIMATFIT
 70
     3
  9
$DIMFRAC
 70
     0
  9
$DIMLDRBLK
  1

  9
$DIMLUNIT
 70
     2
  9
$DIMLWD
 70
    -2
  9
$DIMLWE
 70
    -2
  9
$DIMTMOVE
 70
     0
  9
$LUNITS
 70
     2
  9
$LUPREC
 70
     4
  9
$SKETCHINC
 40
0.1
  9
$FILLETRAD
 40
0.5
  9
$AUNITS
 70
     0
  9
$AUPREC
 70
     0
  9
$MENU
  1
.
  9
$ELEVATION
 40
0.0
  9
$PELEVATION
 40
0.0
  9
$THICKNESS
 40
0.0
  9
$LIMCHECK
 70
     0
  9
$CHAMFERA
 40
0.5
  9
$CHAMFERB
 40
0.5
  9
$CHAMFERC
 40
1.0
  9
$CHAMFERD
 40
0.0
  9
$SKPOLY
 70
     0
  9
$TDCREATE
 40
2457186.576536886
  9
$TDUCREATE
 40
2457186.201536886
  9
$TDUPDATE
 40
2457186.576538148
  9
$TDUUPDATE
 40
2457186.201538148
  9
$TDINDWG
 40
0.0000000116
  9
$TDUSRTIMER
 40
0.0000000116
  9
$USRTIMER
 70
     1
  9
$ANGBASE
 50
0.0
  9
$ANGDIR
 70
     0
  9
$PDMODE
 70
     0
  9
$PDSIZE
 40
0.0
  9
$PLINEWID
 40
0.0
  9
$SPLFRAME
 70
     0
  9
$SPLINETYPE
 70
     6
  9
$SPLINESEGS
 70
     8
  9
$HANDSEED
  5
2B0
  9
$SURFTAB1
 70
     6
  9
$SURFTAB2
 70
     6
  9
$SURFTYPE
 70
     6
  9
$SURFU
 70
     6
  9
$SURFV
 70
     6
  9
$UCSBASE
  2

  9
$UCSNAME
  2

  9
$UCSORG
 10
0.0
 20
0.0
 30
0.0
  9
$UCSXDIR
 10
1.0
 20
0.0
 30
0.0
  9
$UCSYDIR
 10
0.0
 20
1.0
 30
0.0
  9
$UCSORTHOREF
  2

  9
$UCSORTHOVIEW
 70
     0
  9
$UCSORGTOP
 10
0.0
 20
0.0
 30
0.0
  9
$UCSORGBOTTOM
 10
0.0
 20
0.0
 30
0.0
  9
$UCSORGLEFT
 10
0.0
 20
0.0
 30
0.0
  9
$UCSORGRIGHT
 10
0.0
 20
0.0
 30
0.0
  9
$UCSORGFRONT
 10
0.0
 20
0.0
 30
0.0
  9
$UCSORGBACK
 10
0.0
 20
0.0
 30
0.0
  9
$PUCSBASE
  2

  9
$PUCSNAME
  2

  9
$PUCSORG
 10
0.0
 20
0.0
 30
0.0
  9
$PUCSXDIR
 10
1.0
 20
0.0
 30
0.0
  9
$PUCSYDIR
 10
0.0
 20
1.0
 30
0.0
  9
$PUCSORTHOREF
  2

  9
$PUCSORTHOVIEW
 70
     0
  9
$PUCSORGTOP
 10
0.0
 20
0.0
 30
0.0
  9
$PUCSORGBOTTOM
 10
0.0
 20
0.0
 30
0.0
  9
$PUCSORGLEFT
 10
0.0
 20
0.0
 30
0.0
  9
$PUCSORGRIGHT
 10
0.0
 20
0.0
 30
0.0
  9
$PUCSORGFRONT
 10
0.0
 20
0.0
 30
0.0
  9
$PUCSORGBACK
 10
0.0
 20
0.0
 30
0.0
  9
$USERI1
 70
     0
  9
$USERI2
 70
     0
  9
$USERI3
 70
     0
  9
$USERI4
 70
     0
  9
$USERI5
 70
     0
  9
$USERR1
 40
18.1
  9
$USERR2
 40
0.0
  9
$USERR3
 40
0.0
  9
$USERR4
 40
0.0
  9
$USERR5
 40
0.0
  9
$WORLDVIEW
 70
     1
  9
$SHADEDGE
 70
     3
  9
$SHADEDIF
 70
    70
  9
$TILEMODE
 70
     1
  9
$MAXACTVP
 70
    64
  9
$PINSBASE
 10
0.0
 20
0.0
 30
0.0
  9
$PLIMCHECK
 70
     0
  9
$PEXTMIN
 10
1.00000000000000E+20
 20
1.00000000000000E+20
 30
1.00000000000000E+20
  9
$PEXTMAX
 10
-1.00000000000000E+20
 20
-1.00000000000000E+20
 30
-1.00000000000000E+20
  9
$PLIMMIN
 10
0.0
 20
0.0
  9
$PLIMMAX
 10
12.0
 20
9.0
  9
$UNITMODE
 70
     0
  9
$VISRETAIN
 70
     1
  9
$PLINEGEN
 70
     0
  9
$PSLTSCALE
 70
     1
  9
$TREEDEPTH
 70
  3020
  9
$CMLSTYLE
  2
Standard
  9
$CMLJUST
 70
     0
  9
$CMLSCALE
 40
1.0
  9
$PROXYGRAPHICS
 70
     1
  9
$MEASUREMENT
 70
     1
  9
$CELWEIGHT
370
    -1
  9
$ENDCAPS
280
     0
  9
$JOINSTYLE
280
     0
  9
$LWDISPLAY
290
     0
  9
$INSUNITS
 70
     4
  9
$HYPERLINKBASE
  1

  9
$STYLESHEET
  1

  9
$XEDIT
290
     1
  9
$CEPSNTYPE
380
     0
  9
$PSTYLEMODE
290
     1
  9
$FINGERPRINTGUID
  2
{55C503AB-DF9B-48A5-9258-8CFDE106D22F}
  9
$VERSIONGUID
  2
{FAEB1C32-E019-11D5-929B-00C0DF256EC4}
  9
$EXTNAMES
290
     1
  9
$PSVPSCALE
 40
0.0
  9
$OLESTARTUP
290
     0
  0
ENDSEC
  0
SECTION
  2
CLASSES
  0
CLASS
  1
ACDBDICTIONARYWDFLT
  2
AcDbDictionaryWithDefault
  3
ObjectDBX Classes
 90
        0
280
     0
281
     0
  0
CLASS
  1
VISUALSTYLE
  2
AcDbVisualStyle
  3
ObjectDBX Classes
 90
     4095
280
     0
281
     0
  0
CLASS
  1
MATERIAL
  2
AcDbMaterial
  3
ObjectDBX Classes
 90
     1153
280
     0
281
     0
  0
CLASS
  1
DICTIONARYVAR
  2
AcDbDictionaryVar
  3
ObjectDBX Classes
 90
        0
280
     0
281
     0
  0
CLASS
  1
ACDBPLACEHOLDER
  2
AcDbPlaceHolder
  3
ObjectDBX Classes
 90
        0
280
     0
281
     0
  0
CLASS
  1
LAYOUT
  2
AcDbLayout
  3
ObjectDBX Classes
 90
        0
280
     0
281
     0
  0
ENDSEC
  0
SECTION
  2
TABLES
  0
TABLE
  2
VPORT
  5
8
330
0
100
AcDbSymbolTable
 70
     1
  0
VPORT
  5
29
330
8
100
AcDbSymbolTableRecord
100
AcDbViewportTableRecord
  2
*Active
 70
     0
 10
0.0
 20
0.0
 11
1.0
 21
1.0
 12
210.0
 22
297.0
 13
0.0
 23
0.0
 14
0.5
 24
0.5
 15
0.5
 25
0.5
 16
0.0
 26
0.0
 36
1.0
 17
0.0
 27
0.0
 37
0.0
 40
653.4000000000001
 41
1.60267857142857
 42
50.0
 43
0.0
 44
0.0
 50
0.0
 51
0.0
 71
     0
 72
   100
 73
     1
 74
     3
 75
     0
 76
     0
 77
     0
 78
     0
281
     0
 65
     1
110
0.0
120
0.0
130
0.0
111
1.0
121
0.0
131
0.0
112
0.0
122
1.0
132
0.0
 79
     0
146
0.0
  0
ENDTAB
  0
TABLE
  2
LTYPE
  5
5
330
0
100
AcDbSymbolTable
 70
     8
  0
LTYPE
  5
14
330
5
100
AcDbSymbolTableRecord
100
AcDbLinetypeTableRecord
  2
ByBlock
 70
     0
  3

 72
    65
 73
     0
 40
0.0
  0
LTYPE
  5
15
330
5
100
AcDbSymbolTableRecord
100
AcDbLinetypeTableRecord
  2
ByLayer
 70
     0
  3

 72
    65
 73
     0
 40
0.0
  0
LTYPE
  5
16
330
5
100
AcDbSymbolTableRecord
100
AcDbLinetypeTableRecord
  2
Continuous
 70
     0
  3
Solid line
 72
    65
 73
     0
 40
0.0
  0
LTYPE
  5
3F
330
5
100
AcDbSymbolTableRecord
100
AcDbLinetypeTableRecord
  2
DASHED
 70
     0
  3
Dashed
 72
    65
 73
     2
 40
15.0
 49
7.0
 74
     0
 49
-8.0
 74
     0
  0
LTYPE
  5
40
330
5
100
AcDbSymbolTableRecord
100
AcDbLinetypeTableRecord
  2
DOTTED
 70
     0
  3
Dotted
 72
    65
 73
     2
 40
1.0
 49
0.0
 74
     0
 49
-1.0
 74
     0
  0
LTYPE
  5
41
330
5
100
AcDbSymbolTableRecord
100
AcDbLinetypeTableRecord
  2
DOT_CENTER
 70
     0
  3
Dot_Center
 72
    65
 73
     4
 40
14.0
 49
12.0
 74
     0
 49
-1.0
 74
     0
 49
0.0
 74
     0
 49
-1.0
 74
     0
  0
LTYPE
  5
42
330
5
100
AcDbSymbolTableRecord
100
AcDbLinetypeTableRecord
  2
LONG_DASHED
 70
     0
  3
Long_Dashed
 72
    65
 73
     2
 40
15.0
 49
10.0
 74
     0
 49
-5.0
 74
     0
  0
LTYPE
  5
43
330
5
100
AcDbSymbolTableRecord
100
AcDbLinetypeTableRecord
  2
DASH_CENTER
 70
     0
  3
Dash_Center
 72
    65
 73
     4
 40
14.0
 49
11.0
 74
     0
 49
-1.0
 74
     0
 49
1.0
 74
     0
 49
-1.0
 74
     0
  0
LTYPE
  5
44
330
5
100
AcDbSymbolTableRecord
100
AcDbLinetypeTableRecord
  2
PHANTOM
 70
     0
  3
Phantom
 72
    65
 73
     6
 40
13.0
 49
10.0
 74
     0
 49
-1.0
 74
     0
 49
0.0
 74
     0
 49
-1.0
 74
     0
 49
0.0
 74
     0
 49
-1.0
 74
     0
  0
LTYPE
  5
45
330
5
100
AcDbSymbolTableRecord
100
AcDbLinetypeTableRecord
  2
CENTER_DASH_DASH
 70
     0
  3
Center_Dash_Dash
 72
    65
 73
     6
 40
14.0
 49
9.0
 74
     0
 49
-1.0
 74
     0
 49
1.0
 74
     0
 49
-1.0
 74
     0
 49
1.0
 74
     0
 49
-1.0
 74
     0
  0
ENDTAB
  0
TABLE
  2
LAYER
  5
2
330
0
100
AcDbSymbolTable
 70
     2
  0
LAYER
  5
10
330
2
100
AcDbSymbolTableRecord
100
AcDbLayerTableRecord
  2
0
 70
     0
 62
     7
  6
Continuous
370
    -3
390
F
  0
LAYER
  5
46
330
2
100
AcDbSymbolTableRecord
100
AcDbLayerTableRecord
  2
1
 70
     0
 62
     7
  6
Continuous
370
    -3
390
F
  0
ENDTAB
  0
TABLE
  2
STYLE
  5
3
330
0
100
AcDbSymbolTable
 70
     3
  0
STYLE
  5
11
330
3
100
AcDbSymbolTableRecord
100
AcDbTextStyleTableRecord
  2
Standard
 70
     0
 40
0.0
 41
1.0
 50
0.0
 71
     0
 42
0.2
  3
txt
  4

  0
STYLE
  5
B2
330
3
100
AcDbSymbolTableRecord
100
AcDbTextStyleTableRecord
  2
CONVERTER_11
 70
     0
 40
0.0
 41
0.89
 50
0.0
 71
     0
 42
0.2
  3
MS Mincho.ttf
  4

1001
ACAD
1000
MS Mincho
1071
    32785
  0
STYLE
  5
243
330
3
100
AcDbSymbolTableRecord
100
AcDbTextStyleTableRecord
  2
CONVERTER_12
 70
     0
 40
0.0
 41
0.9
 50
0.0
 71
     0
 42
0.2
  3
txt.shx
  4

  0
ENDTAB
  0
TABLE
  2
VIEW
  5
6
330
0
100
AcDbSymbolTable
 70
     0
  0
ENDTAB
  0
TABLE
  2
UCS
  5
7
330
0
100
AcDbSymbolTable
 70
     0
  0
ENDTAB
  0
TABLE
  2
APPID
  5
9
330
0
100
AcDbSymbolTable
 70
     1
  0
APPID
  5
12
330
9
100
AcDbSymbolTableRecord
100
AcDbRegAppTableRecord
  2
ACAD
 70
     0
  0
ENDTAB
  0
TABLE
  2
DIMSTYLE
  5
A
330
0
100
AcDbSymbolTable
 70
     6
100
AcDbDimStyleTable
  0
DIMSTYLE
105
27
330
A
100
AcDbSymbolTableRecord
100
AcDbDimStyleTableRecord
  2
Standard
 70
     0
178
     0
340
11
  0
DIMSTYLE
105
256
102
{ACAD_REACTORS
330
257
102
}
330
A
100
AcDbSymbolTableRecord
100
AcDbDimStyleTableRecord
  2
ME10_DIM_10
 70
     0
 41
7.0
 42
0.0
 44
2.0
 73
     0
 74
     0
 77
     1
 78
     8
140
7.0
147
2.0
172
     1
173
     1
174
     1
175
     1
176
     2
177
     2
271
     2
178
     7
271
     2
340
243
  0
DIMSTYLE
105
261
102
{ACAD_REACTORS
330
262
102
}
330
A
100
AcDbSymbolTableRecord
100
AcDbDimStyleTableRecord
  2
ME10_DIM_11
 70
     0
 41
7.0
 42
0.0
 44
2.0
 73
     0
 74
     0
 77
     1
 78
     8
140
7.0
147
2.0
172
     1
173
     1
174
     1
175
     1
176
     2
177
     2
271
     2
178
     7
271
     2
340
243
  0
DIMSTYLE
105
26C
102
{ACAD_REACTORS
330
26D
102
}
330
A
100
AcDbSymbolTableRecord
100
AcDbDimStyleTableRecord
  2
ME10_DIM_12
 70
     0
 41
7.0
 42
0.0
 44
2.0
 73
     0
 74
     0
 77
     1
 78
     8
140
7.0
147
2.0
172
     1
173
     1
174
     1
175
     1
176
     2
177
     2
271
     2
178
     7
271
     2
340
243
  0
DIMSTYLE
105
278
102
{ACAD_REACTORS
330
279
102
}
330
A
100
AcDbSymbolTableRecord
100
AcDbDimStyleTableRecord
  2
ME10_DIM_13
 70
     0
 41
7.0
 42
0.0
 44
2.0
 73
     0
 74
     0
 77
     1
 78
     8
140
7.0
147
2.0
172
     1
173
     1
174
     1
175
     1
176
     2
177
     2
271
     2
178
     7
271
     2
340
B2
  0
DIMSTYLE
105
283
102
{ACAD_REACTORS
330
284
102
}
330
A
100
AcDbSymbolTableRecord
100
AcDbDimStyleTableRecord
  2
ME10_DIM_14
 70
     0
 41
7.0
 42
0.0
 44
2.0
 73
     0
 74
     0
 77
     1
 78
     8
140
7.0
147
2.0
172
     1
173
     1
174
     1
175
     1
176
     2
177
     2
271
     2
178
     7
271
     2
340
243
  0
ENDTAB
  0
TABLE
  2
BLOCK_RECORD
  5
1
330
0
100
AcDbSymbolTable
 70
    14
  0
BLOCK_RECORD
  5
1F
330
1
100
AcDbSymbolTableRecord
100
AcDbBlockTableRecord
  2
*Model_Space
340
22
  0
BLOCK_RECORD
  5
1B
330
1
100
AcDbSymbolTableRecord
100
AcDbBlockTableRecord
  2
*Paper_Space
340
1E
  0
BLOCK_RECORD
  5
23
330
1
100
AcDbSymbolTableRecord
100
AcDbBlockTableRecord
  2
*Paper_Space0
340
26
  0
BLOCK_RECORD
  5
47
330
1
100
AcDbSymbolTableRecord
100
AcDbBlockTableRecord
  2
開示A4
340
0
102
{BLKREFS
331
5F
102
}
  0
BLOCK_RECORD
  5
4A
330
1
100
AcDbSymbolTableRecord
100
AcDbBlockTableRecord
  2
B4110-0A-13-M11
340
0
102
{BLKREFS
331
60
102
}
  0
BLOCK_RECORD
  5
4D
330
1
100
AcDbSymbolTableRecord
100
AcDbBlockTableRecord
  2
32-213-M2__1
340
0
102
{BLKREFS
331
61
102
}
  0
BLOCK_RECORD
  5
50
330
1
100
AcDbSymbolTableRecord
100
AcDbBlockTableRecord
  2
37-1-13
340
0
102
{BLKREFS
331
62
102
}
  0
BLOCK_RECORD
  5
53
330
1
100
AcDbSymbolTableRecord
100
AcDbBlockTableRecord
  2
36-54-M11
340
0
102
{BLKREFS
331
63
102
}
  0
BLOCK_RECORD
  5
56
330
1
100
AcDbSymbolTableRecord
100
AcDbBlockTableRecord
  2
42-15-M2
340
0
102
{BLKREFS
331
64
102
}
  0
BLOCK_RECORD
  5
59
330
1
100
AcDbSymbolTableRecord
100
AcDbBlockTableRecord
  2
21-1A-M1
340
0
102
{BLKREFS
331
65
102
}
  0
BLOCK_RECORD
  5
5C
330
1
100
AcDbSymbolTableRecord
100
AcDbBlockTableRecord
  2
32-213-M2__2
340
0
102
{BLKREFS
331
66
102
}
  0
BLOCK_RECORD
  5
24D
330
1
100
AcDbSymbolTableRecord
100
AcDbBlockTableRecord
  2
*D9
340
0
  0
BLOCK_RECORD
  5
258
330
1
100
AcDbSymbolTableRecord
100
AcDbBlockTableRecord
  2
*D10
340
0
  0
BLOCK_RECORD
  5
263
330
1
100
AcDbSymbolTableRecord
100
AcDbBlockTableRecord
  2
*D11
340
0
  0
BLOCK_RECORD
  5
26E
330
1
100
AcDbSymbolTableRecord
100
AcDbBlockTableRecord
  2
*D12
340
0
  0
BLOCK_RECORD
  5
27A
330
1
100
AcDbSymbolTableRecord
100
AcDbBlockTableRecord
  2
*D13
340
0
  0
ENDTAB
  0
ENDSEC
  0
SECTION
  2
BLOCKS
  0
BLOCK
  5
20
330
1F
100
AcDbEntity
  8
0
100
AcDbBlockBegin
  2
*Model_Space
 70
     0
 10
0.0
 20
0.0
 30
0.0
  3
*Model_Space
  1

  0
ENDBLK
  5
21
330
1F
100
AcDbEntity
  8
0
100
AcDbBlockEnd
  0
BLOCK
  5
1C
330
1B
100
AcDbEntity
 67
     1
  8
0
100
AcDbBlockBegin
  2
*Paper_Space
 70
     0
 10
0.0
 20
0.0
 30
0.0
  3
*Paper_Space
  1

  0
ENDBLK
  5
1D
330
1B
100
AcDbEntity
 67
     1
  8
0
100
AcDbBlockEnd
  0
BLOCK
  5
24
330
23
100
AcDbEntity
  8
0
100
AcDbBlockBegin
  2
*Paper_Space0
 70
     0
 10
0.0
 20
0.0
 30
0.0
  3
*Paper_Space0
  1

  0
ENDBLK
  5
25
330
23
100
AcDbEntity
  8
0
100
AcDbBlockEnd
  0
BLOCK
  5
48
330
47
100
AcDbEntity
  8
0
100
AcDbBlockBegin
  2
開示A4
 70
     0
 10
0.0
 20
0.0
 30
0.0
  3
開示A4
  1

  0
POINT
  5
67
330
47
100
AcDbEntity
  8
1
 62
     4
100
AcDbPoint
 10
93.75
 20
17.0
 30
0.0
  0
POINT
  5
68
330
47
100
AcDbEntity
  8
1
 62
     4
100
AcDbPoint
 10
85.25
 20
17.0
 30
0.0
  0
POINT
  5
69
330
47
100
AcDbEntity
  8
1
 62
     4
100
AcDbPoint
 10
106.5
 20
19.00000000000001
 30
0.0
  0
POINT
  5
6A
330
47
100
AcDbEntity
  8
1
 62
     4
100
AcDbPoint
 10
106.5
 20
12.5
 30
0.0
  0
POINT
  5
6B
330
47
100
AcDbEntity
  8
1
 62
     4
100
AcDbPoint
 10
112.25
 20
12.5
 30
0.0
  0
POINT
  5
6C
330
47
100
AcDbEntity
  8
1
 62
     4
100
AcDbPoint
 10
100.75
 20
12.5
 30
0.0
  0
POINT
  5
6D
330
47
100
AcDbEntity
  8
1
 62
     4
100
AcDbPoint
 10
123.5
 20
19.00000000000001
 30
0.0
  0
POINT
  5
6E
330
47
100
AcDbEntity
  8
1
 62
     4
100
AcDbPoint
 10
123.5
 20
12.5
 30
0.0
  0
POINT
  5
6F
330
47
100
AcDbEntity
  8
1
 62
     4
100
AcDbPoint
 10
129.25
 20
12.5
 30
0.0
  0
POINT
  5
70
330
47
100
AcDbEntity
  8
1
 62
     4
100
AcDbPoint
 10
117.75
 20
12.5
 30
0.0
  0
POINT
  5
71
330
47
100
AcDbEntity
  8
1
 62
     4
100
AcDbPoint
 10
140.5
 20
19.00000000000001
 30
0.0
  0
POINT
  5
72
330
47
100
AcDbEntity
  8
1
 62
     4
100
AcDbPoint
 10
140.5
 20
12.5
 30
0.0
  0
POINT
  5
73
330
47
100
AcDbEntity
  8
1
 62
     4
100
AcDbPoint
 10
146.25
 20
12.5
 30
0.0
  0
POINT
  5
74
330
47
100
AcDbEntity
  8
1
 62
     4
100
AcDbPoint
 10
134.75
 20
12.5
 30
0.0
  0
POINT
  5
75
330
47
100
AcDbEntity
  8
1
 62
     4
100
AcDbPoint
 10
151.75
 20
12.5
 30
0.0
  0
POINT
  5
76
330
47
100
AcDbEntity
  8
1
 62
     4
100
AcDbPoint
 10
163.25
 20
12.5
 30
0.0
  0
POINT
  5
77
330
47
100
AcDbEntity
  8
1
 62
     4
100
AcDbPoint
 10
157.5
 20
12.5
 30
0.0
  0
POINT
  5
78
330
47
100
AcDbEntity
  8
1
 62
     4
100
AcDbPoint
 10
57.0
 20
14.25
 30
0.0
  0
POINT
  5
79
330
47
100
AcDbEntity
  8
1
 62
     4
100
AcDbPoint
 10
57.0
 20
22.75000000000001
 30
0.0
  0
POINT
  5
7A
330
47
100
AcDbEntity
  8
1
 62
     4
100
AcDbPoint
 10
47.5
 20
282.0000000000003
 30
0.0
  0
POINT
  5
7B
330
47
100
AcDbEntity
  8
1
 62
     4
100
AcDbPoint
 10
157.5
 20
19.00000000000001
 30
0.0
  0
POINT
  5
7C
330
47
100
AcDbEntity
  8
1
 62
     4
100
AcDbPoint
 10
57.0
 20
16.25
 30
0.0
  0
POINT
  5
7D
330
47
100
AcDbEntity
  8
1
 62
     4
100
AcDbPoint
 10
57.0
 20
24.75000000000001
 30
0.0
  0
POINT
  5
7E
330
47
100
AcDbEntity
  8
1
 62
     4
100
AcDbPoint
 10
57.0
 20
20.75000000000001
 30
0.0
  0
POINT
  5
7F
330
47
100
AcDbEntity
  8
1
 62
     4
100
AcDbPoint
 10
57.0
 20
12.25
 30
0.0
  0
POINT
  5
80
330
47
100
AcDbEntity
  8
1
 62
     4
100
AcDbPoint
 10
34.0
 20
34.00000000000001
 30
0.0
  0
LINE
  5
81
330
47
100
AcDbEntity
  8
1
  6
Continuous
 62
     7
100
AcDbLine
 10
105.0
 20
10.0
 30
0.0
 11
200.0
 21
10.0
 31
0.0
  0
LINE
  5
82
330
47
100
AcDbEntity
  8
1
  6
Continuous
 62
     2
100
AcDbLine
 10
105.0
 20
10.0
 30
0.0
 11
105.0
 21
5.0
 31
0.0
  0
LINE
  5
83
330
47
100
AcDbEntity
  8
1
  6
Continuous
 62
     7
100
AcDbLine
 10
200.0
 20
148.5
 30
0.0
 11
200.0
 21
287.0000000000003
 31
0.0
  0
LINE
  5
84
330
47
100
AcDbEntity
  8
1
  6
Continuous
 62
     2
100
AcDbLine
 10
200.0
 20
148.5
 30
0.0
 11
205.0
 21
148.5
 31
0.0
  0
LINE
  5
85
330
47
100
AcDbEntity
  8
1
  6
Continuous
 62
     7
100
AcDbLine
 10
25.0
 20
148.5
 30
0.0
 11
25.0
 21
287.0000000000003
 31
0.0
  0
LINE
  5
86
330
47
100
AcDbEntity
  8
1
  6
Continuous
 62
     2
100
AcDbLine
 10
25.0
 20
148.5
 30
0.0
 11
20.0
 21
148.5
 31
0.0
  0
LINE
  5
87
330
47
100
AcDbEntity
  8
1
  6
Continuous
 62
     7
100
AcDbLine
 10
105.0
 20
287.0000000000003
 30
0.0
 11
25.0
 21
287.0000000000003
 31
0.0
  0
LINE
  5
88
330
47
100
AcDbEntity
  8
1
  6
Continuous
 62
     2
100
AcDbLine
 10
105.0
 20
287.0000000000003
 30
0.0
 11
105.0
 21
292.0000000000003
 31
0.0
  0
LINE
  5
89
330
47
100
AcDbEntity
  8
1
  6
Continuous
 62
     2
100
AcDbLine
 10
166.0
 20
20.00000000000001
 30
0.0
 11
200.0
 21
20.00000000000001
 31
0.0
  0
LINE
  5
8A
330
47
100
AcDbEntity
  8
1
  6
Continuous
 62
     2
100
AcDbLine
 10
98.0
 20
27.00000000000001
 30
0.0
 11
98.0
 21
9.99999999999999
 31
0.0
  0
LINE
  5
8B
330
47
100
AcDbEntity
  8
1
  6
Continuous
 62
     2
100
AcDbLine
 10
115.0
 20
27.00000000000001
 30
0.0
 11
115.0
 21
9.99999999999999
 31
0.0
  0
LINE
  5
8C
330
47
100
AcDbEntity
  8
1
  6
Continuous
 62
     2
100
AcDbLine
 10
149.0
 20
27.00000000000001
 30
0.0
 11
149.0
 21
10.0
 31
0.0
  0
LINE
  5
8D
330
47
100
AcDbEntity
  8
1
  6
Continuous
 62
     2
100
AcDbLine
 10
132.0
 20
27.00000000000001
 30
0.0
 11
132.0
 21
9.99999999999999
 31
0.0
  0
LINE
  5
8E
330
47
100
AcDbEntity
  8
1
  6
Continuous
 62
     2
100
AcDbLine
 10
166.0
 20
27.00000000000001
 30
0.0
 11
166.0
 21
10.0
 31
0.0
  0
LINE
  5
8F
330
47
100
AcDbEntity
  8
1
  6
Continuous
 62
     2
100
AcDbLine
 10
55.0
 20
277.0000000000003
 30
0.0
 11
25.0
 21
277.0000000000003
 31
0.0
  0
LINE
  5
90
330
47
100
AcDbEntity
  8
1
  6
Continuous
 62
     7
100
AcDbLine
 10
25.0
 20
10.0
 30
0.0
 11
25.0
 21
148.5
 31
0.0
  0
LINE
  5
91
330
47
100
AcDbEntity
  8
1
  6
Continuous
 62
     2
100
AcDbLine
 10
40.0
 20
287.0000000000003
 30
0.0
 11
40.0
 21
277.0000000000003
 31
0.0
  0
LINE
  5
92
330
47
100
AcDbEntity
  8
1
  6
Continuous
 62
     2
100
AcDbLine
 10
55.0
 20
287.0000000000003
 30
0.0
 11
55.0
 21
277.0000000000003
 31
0.0
  0
LINE
  5
93
330
47
100
AcDbEntity
  8
1
  6
Continuous
 62
     2
100
AcDbLine
 10
33.0
 20
41.00000000000001
 30
0.0
 11
33.0
 21
27.0
 31
0.0
  0
LINE
  5
94
330
47
100
AcDbEntity
  8
1
  6
Continuous
 62
     7
100
AcDbLine
 10
200.0
 20
27.00000000000001
 30
0.0
 11
25.0
 21
27.00000000000001
 31
0.0
  0
LINE
  5
95
330
47
100
AcDbEntity
  8
1
  6
Continuous
 62
     7
100
AcDbLine
 10
25.0
 20
41.0
 30
0.0
 11
200.0
 21
41.0
 31
0.0
  0
LINE
  5
96
330
47
100
AcDbEntity
  8
1
  6
PHANTOM
 62
     4
100
AcDbLine
 10
0.0
 20
0.0
 30
0.0
 11
210.0
 21
0.0
 31
0.0
  0
LINE
  5
97
330
47
100
AcDbEntity
  8
1
  6
PHANTOM
 62
     4
100
AcDbLine
 10
210.0
 20
0.0
 30
0.0
 11
210.0
 21
297.0
 31
0.0
  0
LINE
  5
98
330
47
100
AcDbEntity
  8
1
  6
PHANTOM
 62
     4
100
AcDbLine
 10
210.0
 20
297.0
 30
0.0
 11
0.0
 21
297.0
 31
0.0
  0
LINE
  5
99
330
47
100
AcDbEntity
  8
1
  6
PHANTOM
 62
     4
100
AcDbLine
 10
0.0
 20
297.0
 30
0.0
 11
0.0
 21
0.0
 31
0.0
  0
LINE
  5
9A
330
47
100
AcDbEntity
  8
1
  6
Continuous
 62
     7
100
AcDbLine
 10
25.0
 20
10.0
 30
0.0
 11
105.0
 21
10.0
 31
0.0
  0
LINE
  5
9B
330
47
100
AcDbEntity
  8
1
  6
Continuous
 62
     7
100
AcDbLine
 10
200.0
 20
10.0
 30
0.0
 11
200.0
 21
148.5
 31
0.0
  0
LINE
  5
9C
330
47
100
AcDbEntity
  8
1
  6
Continuous
 62
     7
100
AcDbLine
 10
200.0
 20
287.0000000000003
 30
0.0
 11
105.0
 21
287.0000000000003
 31
0.0
  0
LINE
  5
9D
330
47
100
AcDbEntity
  8
1
  6
Continuous
 62
     2
100
AcDbLine
 10
25.0
 20
18.50000000000001
 30
0.0
 11
81.0
 21
18.50000000000001
 31
0.0
  0
LINE
  5
9E
330
47
100
AcDbEntity
  8
1
  6
Continuous
 62
     2
100
AcDbLine
 10
33.0
 20
27.0
 30
0.0
 11
33.0
 21
10.0
 31
0.0
  0
LINE
  5
9F
330
47
100
AcDbEntity
  8
1
  6
Continuous
 62
     7
100
AcDbLine
 10
191.0
 20
24.70000000000001
 30
0.0
 11
191.0
 21
22.30000000000001
 31
0.0
  0
LINE
  5
A0
330
47
100
AcDbEntity
  8
1
  6
Continuous
 62
     7
100
AcDbLine
 10
191.0
 20
24.70000000000001
 30
0.0
 11
196.0
 21
25.50000000000001
 31
0.0
  0
LINE
  5
A1
330
47
100
AcDbEntity
  8
1
  6
Continuous
 62
     7
100
AcDbLine
 10
196.0
 20
25.50000000000001
 30
0.0
 11
196.0
 21
21.50000000000001
 31
0.0
  0
LINE
  5
A2
330
47
100
AcDbEntity
  8
1
  6
Continuous
 62
     7
100
AcDbLine
 10
196.0
 20
21.50000000000001
 30
0.0
 11
191.0
 21
22.30000000000001
 31
0.0
  0
LINE
  5
A3
330
47
100
AcDbEntity
  8
1
  6
DOT_CENTER
 62
     2
100
AcDbLine
 10
184.0
 20
23.50000000000001
 30
0.0
 11
197.0
 21
23.50000000000001
 31
0.0
  0
LINE
  5
A4
330
47
100
AcDbEntity
  8
1
  6
DOT_CENTER
 62
     2
100
AcDbLine
 10
187.0
 20
26.50000000000001
 30
0.0
 11
187.0
 21
20.50000000000001
 31
0.0
  0
LINE
  5
A5
330
47
100
AcDbEntity
  8
1
  6
Continuous
 62
     2
100
AcDbLine
 10
81.0
 20
27.00000000000001
 30
0.0
 11
81.0
 21
10.0
 31
0.0
  0
CIRCLE
  5
A6
330
47
100
AcDbEntity
  8
1
  6
Continuous
 62
     7
100
AcDbCircle
 10
103.5
 20
12.5
 30
0.0
 40
0.2999999999999972
  0
CIRCLE
  5
A7
330
47
100
AcDbEntity
  8
1
  6
Continuous
 62
     7
100
AcDbCircle
 10
109.5
 20
12.5
 30
0.0
 40
0.2999999999999972
  0
CIRCLE
  5
A8
330
47
100
AcDbEntity
  8
1
  6
Continuous
 62
     7
100
AcDbCircle
 10
120.5
 20
12.5
 30
0.0
 40
0.2999999999999972
  0
CIRCLE
  5
A9
330
47
100
AcDbEntity
  8
1
  6
Continuous
 62
     7
100
AcDbCircle
 10
126.5
 20
12.5
 30
0.0
 40
0.2999999999999972
  0
CIRCLE
  5
AA
330
47
100
AcDbEntity
  8
1
  6
Continuous
 62
     7
100
AcDbCircle
 10
137.5
 20
12.5
 30
0.0
 40
0.3000000000000114
  0
CIRCLE
  5
AB
330
47
100
AcDbEntity
  8
1
  6
Continuous
 62
     7
100
AcDbCircle
 10
143.5
 20
12.5
 30
0.0
 40
0.3000000000000114
  0
CIRCLE
  5
AC
330
47
100
AcDbEntity
  8
1
  6
Continuous
 62
     7
100
AcDbCircle
 10
160.5
 20
12.5
 30
0.0
 40
0.3000000000000114
  0
CIRCLE
  5
AD
330
47
100
AcDbEntity
  8
1
  6
Continuous
 62
     7
100
AcDbCircle
 10
154.5
 20
12.5
 30
0.0
 40
0.3000000000000114
  0
CIRCLE
  5
AE
330
47
100
AcDbEntity
  8
1
  6
Continuous
 62
     7
100
AcDbCircle
 10
187.0
 20
23.50000000000001
 30
0.0
 40
1.200000000000102
  0
CIRCLE
  5
AF
330
47
100
AcDbEntity
  8
1
  6
Continuous
 62
     7
100
AcDbCircle
 10
187.0
 20
23.50000000000001
 30
0.0
 40
2.0
  0
CIRCLE
  5
B0
330
47
100
AcDbEntity
  8
1
  6
DOT_CENTER
 62
     7
100
AcDbCircle
 10
89.5
 20
16.0
 30
0.0
 40
0.1000000000000227
  0
CIRCLE
  5
B1
330
47
100
AcDbEntity
  8
1
  6
DOT_CENTER
 62
     7
100
AcDbCircle
 10
89.5
 20
18.0
 30
0.0
 40
0.1000000000000227
  0
MTEXT
  5
B3
330
47
100
AcDbEntity
  8
1
 62
     7
100
AcDbMText
 10
188.5
 20
15.0
 30
0.0
 40
3.0
 41
0.0
 71
     5
 72
     1
  1
三栄水栓製作所
  7
CONVERTER_11
 73
     1
 44
1.0
  0
MTEXT
  5
B4
330
47
100
AcDbEntity
  8
1
 62
     7
100
AcDbMText
 10
171.5
 20
15.0
 30
0.0
 40
2.5
 41
0.0
 71
     5
 72
     1
  1
株式会社
  7
CONVERTER_11
 73
     1
 44
1.0
  0
MTEXT
  5
B5
330
47
100
AcDbEntity
  8
1
 62
     2
100
AcDbMText
 10
32.5
 20
282.0000000000003
 30
0.0
 40
5.0
 41
0.0
 71
     5
 72
     1
  1
図番
  7
CONVERTER_11
 73
     1
 44
0.45454545454545
  0
MTEXT
  5
B6
330
47
100
AcDbEntity
  8
1
 62
     2
100
AcDbMText
 10
29.0
 20
34.00000000000001
 30
0.0
 40
3.5
 41
0.0
 71
     5
 72
     1
  1
備考
  7
CONVERTER_11
 73
     1
 44
0.45454545454545
  0
MTEXT
  5
B7
330
47
100
AcDbEntity
  8
1
 62
     2
100
AcDbMText
 10
29.0
 20
22.75
 30
0.0
 40
3.5
 41
0.0
 71
     5
 72
     1
  1
品名
  7
CONVERTER_11
 73
     1
 44
0.72727272727273
  0
MTEXT
  5
B8
330
47
100
AcDbEntity
  8
1
 62
     2
100
AcDbMText
 10
29.0
 20
14.25
 30
0.0
 40
3.5
 41
0.0
 71
     5
 72
     1
  1
品番
  7
CONVERTER_11
 73
     1
 44
0.72727272727273
  0
MTEXT
  5
B9
330
47
100
AcDbEntity
  8
1
 62
     2
100
AcDbMText
 10
101.5
 20
25.00000000000001
 30
0.0
 40
3.0
 41
0.0
 71
     5
 72
     1
  1
承認
  7
CONVERTER_11
 73
     1
 44
0.59090909090909
  0
MTEXT
  5
BA
330
47
100
AcDbEntity
  8
1
 62
     2
100
AcDbMText
 10
175.0
 20
23.50000000000001
 30
0.0
 40
3.5
 41
0.0
 71
     5
 72
     1
  1
第三角法
  7
CONVERTER_11
 73
     1
 44
0.54545454545455
  0
MTEXT
  5
BB
330
47
100
AcDbEntity
  8
1
 62
     2
100
AcDbMText
 10
118.5
 20
25.00000000000001
 30
0.0
 40
3.0
 41
0.0
 71
     5
 72
     1
  1
検図
  7
CONVERTER_11
 73
     1
 44
0.59090909090909
  0
MTEXT
  5
BC
330
47
100
AcDbEntity
  8
1
 62
     2
100
AcDbMText
 10
152.5
 20
25.00000000000001
 30
0.0
 40
3.0
 41
0.0
 71
     5
 72
     1
  1
設計
  7
CONVERTER_11
 73
     1
 44
0.59090909090909
  0
MTEXT
  5
BD
330
47
100
AcDbEntity
  8
1
 62
     2
100
AcDbMText
 10
135.5
 20
25.00000000000001
 30
0.0
 40
3.0
 41
0.0
 71
     5
 72
     1
  1
製図
  7
CONVERTER_11
 73
     1
 44
0.59090909090909
  0
MTEXT
  5
BE
330
47
100
AcDbEntity
  8
1
 62
     2
100
AcDbMText
 10
89.5
 20
24.00000000000001
 30
0.0
 40
3.5
 41
0.0
 71
     5
 72
     1
  1
尺度
  7
CONVERTER_11
 73
     1
 44
0.54545454545455
  0
MTEXT
  5
BF
330
47
100
AcDbEntity
  8
1
 62
   250
100
AcDbMText
 10
25.0
 20
5.0
 30
0.0
 40
3.5
 41
0.0
 71
     4
 72
     1
  1
備考欄の文字列 原点位置=4
  7
CONVERTER_11
 73
     1
 44
0.54545454545455
  0
ENDBLK
  5
49
330
47
100
AcDbEntity
  8
0
100
AcDbBlockEnd
  0
BLOCK
  5
4B
330
4A
100
AcDbEntity
  8
0
100
AcDbBlockBegin
  2
B4110-0A-13-M11
 70
     0
 10
1618.044836917368
 20
750.5152125705632
 30
0.0
  3
B4110-0A-13-M11
  1

  0
LINE
  5
C0
330
4A
100
AcDbEntity
  8
1
  6
Continuous
 62
     7
100
AcDbLine
 10
291.8837237501664
 20
265.8774336283187
 30
0.0
 11
293.044836917368
 21
265.8774336283187
 31
0.0
  0
LINE
  5
C1
330
4A
100
AcDbEntity
  8
1
  6
Continuous
 62
     7
100
AcDbLine
 10
284.2059500845692
 20
265.8774336283187
 30
0.0
 11
291.8837237501664
 21
265.8774336283187
 31
0.0
  0
LINE
  5
C2
330
4A
100
AcDbEntity
  8
1
  6
PHANTOM
 62
     4
100
AcDbLine
 10
291.8837237501664
 20
252.8774336283186
 30
0.0
 11
296.044836917368
 21
252.8774336283186
 31
0.0
  0
LINE
  5
C3
330
4A
100
AcDbEntity
  8
1
  6
PHANTOM
 62
     4
100
AcDbLine
 10
284.2059500845692
 20
252.8774336283186
 30
0.0
 11
291.8837237501664
 21
252.8774336283186
 31
0.0
  0
LINE
  5
C4
330
4A
100
AcDbEntity
  8
1
  6
Continuous
 62
     7
100
AcDbLine
 10
284.2059500845692
 20
252.8774336283186
 30
0.0
 11
291.8837237501664
 21
252.8774336283186
 31
0.0
  0
LINE
  5
C5
330
4A
100
AcDbEntity
  8
1
  6
Continuous
 62
     7
100
AcDbLine
 10
270.044836917368
 20
278.3774336283187
 30
0.0
 11
270.044836917368
 21
275.5783955226418
 31
0.0
  0
LINE
  5
C6
330
4A
100
AcDbEntity
  8
1
  6
Continuous
 62
     7
100
AcDbLine
 10
244.7667153578333
 20
274.3002739631074
 30
0.0
 11
271.3229584769023
 21
274.3002739631075
 31
0.0
  0
LINE
  5
C7
330
4A
100
AcDbEntity
  8
1
  6
Continuous
 62
     7
100
AcDbLine
 10
236.8184389002784
 20
241.6499336283185
 30
0.0
 11
236.8074799557631
 21
241.6499336283185
 31
0.0
  0
LINE
  5
C8
330
4A
100
AcDbEntity
  8
1
  6
Continuous
 62
     7
100
AcDbLine
 10
236.8184389002784
 20
264.1158925728338
 30
0.0
 11
236.8184389002784
 21
241.6499336283185
 31
0.0
  0
LINE
  5
C9
330
4A
100
AcDbEntity
  8
1
  6
Continuous
 62
     7
100
AcDbLine
 10
236.0574799557631
 20
263.3549336283188
 30
0.0
 11
236.0574799557631
 21
242.3999336283185
 31
0.0
  0
LINE
  5
CA
330
4A
100
AcDbEntity
  8
1
  6
Continuous
 62
     7
100
AcDbLine
 10
226.2068369173678
 20
263.3549336283186
 30
0.0
 11
226.2068369173678
 21
242.3999336283185
 31
0.0
  0
LINE
  5
CB
330
4A
100
AcDbEntity
  8
1
  6
Continuous
 62
     7
100
AcDbLine
 10
234.044836917368
 20
262.1929336283188
 30
0.0
 11
234.044836917368
 21
243.5619336283187
 31
0.0
  0
LINE
  5
CC
330
4A
100
AcDbEntity
  8
1
  6
Continuous
 62
     7
100
AcDbLine
 10
246.0448369173678
 20
275.5783955226418
 30
0.0
 11
270.044836917368
 21
275.5783955226418
 31
0.0
  0
LINE
  5
CD
330
4A
100
AcDbEntity
  8
1
  6
Continuous
 62
     7
100
AcDbLine
 10
246.7948369173678
 20
276.8774336283187
 30
0.0
 11
269.294836917368
 21
276.8774336283187
 31
0.0
  0
LINE
  5
CE
330
4A
100
AcDbEntity
  8
1
  6
Continuous
 62
     7
100
AcDbLine
 10
293.044836917368
 20
252.8774336283186
 30
0.0
 11
293.044836917368
 21
242.1449336283187
 31
0.0
  0
LINE
  5
CF
330
4A
100
AcDbEntity
  8
1
  6
Continuous
 62
     7
100
AcDbLine
 10
163.2542488770326
 20
370.2388844657879
 30
0.0
 11
167.2723369173681
 21
370.2388844657879
 31
0.0
  0
LINE
  5
D0
330
4A
100
AcDbEntity
  8
1
  6
Continuous
 62
     7
100
AcDbLine
 10
149.0363868520271
 20
369.4888844657879
 30
0.0
 11
145.5673369173684
 21
369.4888844657879
 31
0.0
  0
LINE
  5
D1
330
4A
100
AcDbEntity
  8
1
  6
Continuous
 62
     7
100
AcDbLine
 10
149.5652306424765
 20
367.5152125705633
 30
0.0
 11
146.706836917368
 21
367.5152125705633
 31
0.0
  0
LINE
  5
D2
330
4A
100
AcDbEntity
  8
1
  6
Continuous
 62
     7
100
AcDbLine
 10
143.0448369173681
 20
407.9089389654064
 30
0.0
 11
143.044836917368
 21
414.7612281241921
 31
0.0
  0
LINE
  5
D3
330
4A
100
AcDbEntity
  8
1
  6
Continuous
 62
     7
100
AcDbLine
 10
169.0448369173683
 20
407.9089389654064
 30
0.0
 11
169.0448369173683
 21
414.7612281242018
 31
0.0
  0
LINE
  5
D4
330
4A
100
AcDbEntity
  8
1
  6
Continuous
 62
     7
100
AcDbLine
 10
142.0448369173683
 20
381.0333395065823
 30
0.0
 11
140.0321938789733
 21
381.0333395065823
 31
0.0
  0
LINE
  5
D5
330
4A
100
AcDbEntity
  8
1
  6
Continuous
 62
     7
100
AcDbLine
 10
179.5448369173683
 20
381.0333395065823
 30
0.0
 11
172.0574799557635
 21
381.0333395065823
 31
0.0
  0
LINE
  5
D6
330
4A
100
AcDbEntity
  8
1
  6
Continuous
 62
     2
100
AcDbLine
 10
132.5448369173682
 20
382.1953395065824
 30
0.0
 11
138.4007654698175
 21
382.1953395065858
 31
0.0
  0
LINE
  5
D7
330
4A
100
AcDbEntity
  8
1
  6
Continuous
 62
     7
100
AcDbLine
 10
170.0448369173683
 20
379.7684953287048
 30
0.0
 11
170.0448369173683
 21
387.4264214782146
 31
0.0
  0
LINE
  5
D8
330
4A
100
AcDbEntity
  8
1
  6
Continuous
 62
     7
100
AcDbLine
 10
140.0321938789733
 20
381.0333395065823
 30
0.0
 11
140.0321938789733
 21
389.8562444978944
 31
0.0
  0
LINE
  5
D9
330
4A
100
AcDbEntity
  8
1
  6
Continuous
 62
     7
100
AcDbLine
 10
142.0448369173683
 20
379.7684953287047
 30
0.0
 11
142.0448369173683
 21
387.4264214782139
 31
0.0
  0
LINE
  5
DA
330
4A
100
AcDbEntity
  8
1
  6
Continuous
 62
     7
100
AcDbLine
 10
241.2842944725109
 20
241.6499336283185
 30
0.0
 11
236.8184389002784
 21
241.6499336283185
 31
0.0
  0
LINE
  5
DB
330
4A
100
AcDbEntity
  8
1
  6
Continuous
 62
     2
100
AcDbLine
 10
236.0574799557631
 20
263.3549336283188
 30
0.0
 11
234.044836917368
 21
262.1929336283188
 31
0.0
  0
LINE
  5
DC
330
4A
100
AcDbEntity
  8
1
  6
Continuous
 62
     7
100
AcDbLine
 10
271.3229584769023
 20
274.3002739631075
 30
0.0
 11
271.5160559939055
 21
270.6157538471153
 31
0.0
  0
LINE
  5
DD
330
4A
100
AcDbEntity
  8
1
  6
Continuous
 62
     7
100
AcDbLine
 10
244.4812993859964
 20
268.8542127916193
 30
0.0
 11
244.7667153578333
 21
274.3002739631074
 31
0.0
  0
LINE
  5
DE
330
4A
100
AcDbEntity
  8
1
  6
Continuous
 62
     2
100
AcDbLine
 10
165.3828369173681
 20
367.5152125705633
 30
0.0
 11
165.3828369173681
 21
359.6772125705632
 31
0.0
  0
LINE
  5
DF
330
4A
100
AcDbEntity
  8
1
  6
Continuous
 62
     7
100
AcDbLine
 10
234.044836917368
 20
263.3549336283186
 30
0.0
 11
236.0574799557631
 21
263.3549336283188
 31
0.0
  0
LINE
  5
E0
330
4A
100
AcDbEntity
  8
1
  6
Continuous
 62
     7
100
AcDbLine
 10
166.5448369173683
 20
369.5278556089584
 30
0.0
 11
166.5223369173681
 21
369.488884465788
 31
0.0
  0
LINE
  5
E1
330
4A
100
AcDbEntity
  8
1
  6
Continuous
 62
     2
100
AcDbLine
 10
146.706836917368
 20
367.5152125705633
 30
0.0
 11
145.5673369173684
 21
369.4888844657879
 31
0.0
  0
LINE
  5
E2
330
4A
100
AcDbEntity
  8
1
  6
Continuous
 62
     7
100
AcDbLine
 10
258.044836917368
 20
239.8774336283186
 30
0.0
 11
293.044836917368
 21
239.8774336283186
 31
0.0
  0
LINE
  5
E3
330
4A
100
AcDbEntity
  8
1
  6
Continuous
 62
     7
100
AcDbLine
 10
244.7667153578333
 20
274.3002739631074
 30
0.0
 11
246.0448369173678
 21
275.5783955226418
 31
0.0
  0
LINE
  5
E4
330
4A
100
AcDbEntity
  8
1
  6
Continuous
 62
     7
100
AcDbLine
 10
270.044836917368
 20
275.5783955226418
 30
0.0
 11
271.3229584769023
 21
274.3002739631075
 31
0.0
  0
LINE
  5
E5
330
4A
100
AcDbEntity
  8
1
  6
Continuous
 62
     7
100
AcDbLine
 10
276.5092036676904
 20
265.8774336283186
 30
0.0
 11
284.2059500845692
 21
265.8774336283187
 31
0.0
  0
LINE
  5
E6
330
4A
100
AcDbEntity
  8
1
  6
Continuous
 62
     7
100
AcDbLine
 10
293.044836917368
 20
252.8774336283186
 30
0.0
 11
293.044836917368
 21
263.6099336283186
 31
0.0
  0
LINE
  5
E7
330
4A
100
AcDbEntity
  8
1
  6
Continuous
 62
     7
100
AcDbLine
 10
171.0559439162985
 20
417.6763257377645
 30
0.0
 11
171.0559439162985
 21
425.3540994033618
 31
0.0
  0
LINE
  5
E8
330
4A
100
AcDbEntity
  8
1
  6
Continuous
 62
     7
100
AcDbLine
 10
171.0559439162985
 20
417.6763257377623
 30
0.0
 11
171.0559439162985
 21
417.6763257377645
 31
0.0
  0
LINE
  5
E9
330
4A
100
AcDbEntity
  8
1
  6
Continuous
 62
     7
100
AcDbLine
 10
145.5673369173684
 20
359.6772125705632
 30
0.0
 11
146.706836917368
 21
358.5152125705633
 31
0.0
  0
LINE
  5
EA
330
4A
100
AcDbEntity
  8
1
  6
Continuous
 62
     7
100
AcDbLine
 10
166.5223369173681
 20
359.6772125705632
 30
0.0
 11
165.3828369173681
 21
358.5152125705633
 31
0.0
  0
LINE
  5
EB
330
4A
100
AcDbEntity
  8
1
  6
Continuous
 62
     7
100
AcDbLine
 10
166.5448369173683
 20
359.6772125705632
 30
0.0
 11
165.3828369173681
 21
359.6772125705632
 31
0.0
  0
LINE
  5
EC
330
4A
100
AcDbEntity
  8
1
  6
Continuous
 62
     2
100
AcDbLine
 10
165.3828369173681
 20
359.6772125705632
 30
0.0
 11
165.3828369173681
 21
358.5152125705633
 31
0.0
  0
LINE
  5
ED
330
4A
100
AcDbEntity
  8
1
  6
Continuous
 62
     7
100
AcDbLine
 10
166.5448369173683
 20
367.5152125705633
 30
0.0
 11
162.5244431922598
 21
367.5152125705633
 31
0.0
  0
LINE
  5
EE
330
4A
100
AcDbEntity
  8
1
  6
Continuous
 62
     2
100
AcDbLine
 10
166.5223369173681
 20
369.488884465788
 30
0.0
 11
165.3828369173681
 21
367.5152125705633
 31
0.0
  0
LINE
  5
EF
330
4A
100
AcDbEntity
  8
1
  6
Continuous
 62
     7
100
AcDbLine
 10
146.706836917368
 20
367.5152125705633
 30
0.0
 11
145.5448369173683
 21
367.5152125705633
 31
0.0
  0
LINE
  5
F0
330
4A
100
AcDbEntity
  8
1
  6
Continuous
 62
     2
100
AcDbLine
 10
146.706836917368
 20
358.5152125705633
 30
0.0
 11
146.706836917368
 21
367.5152125705633
 31
0.0
  0
LINE
  5
F1
330
4A
100
AcDbEntity
  8
1
  6
Continuous
 62
     7
100
AcDbLine
 10
145.5673369173684
 20
369.4888844657879
 30
0.0
 11
145.5448369173681
 21
369.5278556089584
 31
0.0
  0
LINE
  5
F2
330
4A
100
AcDbEntity
  8
1
  6
Continuous
 62
     7
100
AcDbLine
 10
145.5448369173683
 20
359.6772125705632
 30
0.0
 11
165.3828369173681
 21
359.6772125705632
 31
0.0
  0
LINE
  5
F3
330
4A
100
AcDbEntity
  8
1
  6
Continuous
 62
     7
100
AcDbLine
 10
172.0574799557635
 20
389.8562444978951
 30
0.0
 11
172.0574799557635
 21
381.0333395065823
 31
0.0
  0
LINE
  5
F4
330
4A
100
AcDbEntity
  8
1
  6
Continuous
 62
     2
100
AcDbLine
 10
140.0321938789733
 20
382.1953395065824
 30
0.0
 11
142.0448369173683
 21
381.0333395065823
 31
0.0
  0
LINE
  5
F5
330
4A
100
AcDbEntity
  8
1
  6
Continuous
 62
     7
100
AcDbLine
 10
140.0321938789733
 20
381.0333395065823
 30
0.0
 11
132.5448369173682
 21
381.0333395065823
 31
0.0
  0
LINE
  5
F6
330
4A
100
AcDbEntity
  8
1
  6
Continuous
 62
     2
100
AcDbLine
 10
172.0574799557635
 20
382.1953395065824
 30
0.0
 11
170.0448369173683
 21
381.0333395065823
 31
0.0
  0
LINE
  5
F7
330
4A
100
AcDbEntity
  8
1
  6
Continuous
 62
     2
100
AcDbLine
 10
138.4007654698169
 20
382.1953395065835
 30
0.0
 11
140.0321938789733
 21
382.1953395065824
 31
0.0
  0
LINE
  5
F8
330
4A
100
AcDbEntity
  8
1
  6
Continuous
 62
     7
100
AcDbLine
 10
142.0448369173683
 20
381.0333395065823
 30
0.0
 11
132.5448369173682
 21
381.0333395065823
 31
0.0
  0
LINE
  5
F9
330
4A
100
AcDbEntity
  8
1
  6
Continuous
 62
     7
100
AcDbLine
 10
172.0574799557635
 20
381.0333395065823
 30
0.0
 11
170.0448369173683
 21
381.0333395065823
 31
0.0
  0
LINE
  5
FA
330
4A
100
AcDbEntity
  8
1
  6
Continuous
 62
     7
100
AcDbLine
 10
293.044836917368
 20
242.1449336283187
 30
0.0
 11
293.044836917368
 21
239.8774336283186
 31
0.0
  0
LINE
  5
FB
330
4A
100
AcDbEntity
  8
1
  6
Continuous
 62
     7
100
AcDbLine
 10
236.0574799557631
 20
242.3999336283185
 30
0.0
 11
234.044836917368
 21
242.3999336283185
 31
0.0
  0
LINE
  5
FC
330
4A
100
AcDbEntity
  8
1
  6
Continuous
 62
     7
100
AcDbLine
 10
293.044836917368
 20
263.6099336283186
 30
0.0
 11
293.044836917368
 21
265.8774336283187
 31
0.0
  0
LINE
  5
FD
330
4A
100
AcDbEntity
  8
1
  6
Continuous
 62
     2
100
AcDbLine
 10
246.0448369173678
 20
275.5783955226418
 30
0.0
 11
246.7948369173678
 21
276.8774336283187
 31
0.0
  0
LINE
  5
FE
330
4A
100
AcDbEntity
  8
1
  6
Continuous
 62
     2
100
AcDbLine
 10
270.044836917368
 20
275.5783955226418
 30
0.0
 11
269.294836917368
 21
276.8774336283187
 31
0.0
  0
LINE
  5
FF
330
4A
100
AcDbEntity
  8
1
  6
Continuous
 62
     2
100
AcDbLine
 10
269.294836917368
 20
276.8774336283187
 30
0.0
 11
269.294836917368
 21
278.3774454559564
 31
0.0
  0
LINE
  5
100
330
4A
100
AcDbEntity
  8
1
  6
Continuous
 62
     2
100
AcDbLine
 10
246.7948369173678
 20
276.8774336283187
 30
0.0
 11
246.7948369173678
 21
278.3774454559564
 31
0.0
  0
LINE
  5
101
330
4A
100
AcDbEntity
  8
1
  6
Continuous
 62
     7
100
AcDbLine
 10
270.044836917368
 20
276.8774336283187
 30
0.0
 11
269.294836917368
 21
276.8774336283187
 31
0.0
  0
LINE
  5
102
330
4A
100
AcDbEntity
  8
1
  6
Continuous
 62
     7
100
AcDbLine
 10
246.0448369173678
 20
275.5783955226418
 30
0.0
 11
246.044836917368
 21
276.8774336283187
 31
0.0
  0
LINE
  5
103
330
4A
100
AcDbEntity
  8
1
  6
Continuous
 62
     7
100
AcDbLine
 10
246.044836917368
 20
276.8774336283187
 30
0.0
 11
246.7948369173678
 21
276.8774336283187
 31
0.0
  0
LINE
  5
104
330
4A
100
AcDbEntity
  8
1
  6
Continuous
 62
     7
100
AcDbLine
 10
246.044836917368
 20
276.8774336283187
 30
0.0
 11
246.044836917368
 21
278.3774336283187
 31
0.0
  0
LINE
  5
105
330
4A
100
AcDbEntity
  8
1
  6
Continuous
 62
     7
100
AcDbLine
 10
234.044836917368
 20
242.3999336283185
 30
0.0
 11
234.044836917368
 21
243.5619336283187
 31
0.0
  0
LINE
  5
106
330
4A
100
AcDbEntity
  8
1
  6
Continuous
 62
     2
100
AcDbLine
 10
234.044836917368
 20
243.5619336283187
 30
0.0
 11
226.2068369173678
 21
243.5619336283187
 31
0.0
  0
LINE
  5
107
330
4A
100
AcDbEntity
  8
1
  6
Continuous
 62
     7
100
AcDbLine
 10
234.044836917368
 20
262.1929336283188
 30
0.0
 11
234.044836917368
 21
263.3549336283186
 31
0.0
  0
LINE
  5
108
330
4A
100
AcDbEntity
  8
1
  6
Continuous
 62
     7
100
AcDbLine
 10
225.044836917368
 20
243.5619336283187
 30
0.0
 11
226.2068369173678
 21
242.3999336283185
 31
0.0
  0
LINE
  5
109
330
4A
100
AcDbEntity
  8
1
  6
Continuous
 62
     7
100
AcDbLine
 10
226.2068369173678
 20
242.3999336283185
 30
0.0
 11
234.044836917368
 21
242.3999336283185
 31
0.0
  0
LINE
  5
10A
330
4A
100
AcDbEntity
  8
1
  6
Continuous
 62
     7
100
AcDbLine
 10
225.044836917368
 20
262.1929336283188
 30
0.0
 11
226.2068369173678
 21
263.3549336283186
 31
0.0
  0
LINE
  5
10B
330
4A
100
AcDbEntity
  8
1
  6
Continuous
 62
     7
100
AcDbLine
 10
226.2068369173678
 20
263.3549336283186
 30
0.0
 11
234.044836917368
 21
263.3549336283186
 31
0.0
  0
LINE
  5
10C
330
4A
100
AcDbEntity
  8
1
  6
Continuous
 62
     7
100
AcDbLine
 10
225.044836917368
 20
246.3774336283186
 30
0.0
 11
225.044836917368
 21
262.1929336283188
 31
0.0
  0
LINE
  5
10D
330
4A
100
AcDbEntity
  8
1
  6
Continuous
 62
     2
100
AcDbLine
 10
226.2068369173678
 20
243.5619336283187
 30
0.0
 11
225.044836917368
 21
243.5619336283187
 31
0.0
  0
LINE
  5
10E
330
4A
100
AcDbEntity
  8
1
  6
Continuous
 62
     2
100
AcDbLine
 10
226.2068369173678
 20
262.1929336283188
 30
0.0
 11
234.044836917368
 21
262.1929336283188
 31
0.0
  0
LINE
  5
10F
330
4A
100
AcDbEntity
  8
1
  6
Continuous
 62
     7
100
AcDbLine
 10
225.044836917368
 20
243.5619336283187
 30
0.0
 11
225.044836917368
 21
246.3774336283186
 31
0.0
  0
LINE
  5
110
330
4A
100
AcDbEntity
  8
1
  6
Continuous
 62
     2
100
AcDbLine
 10
225.044836917368
 20
262.1929336283188
 30
0.0
 11
226.2068369173678
 21
262.1929336283188
 31
0.0
  0
LINE
  5
111
330
4A
100
AcDbEntity
  8
1
  6
Continuous
 62
     2
100
AcDbLine
 10
236.0574799557631
 20
242.3999336283185
 30
0.0
 11
234.044836917368
 21
243.5619336283187
 31
0.0
  0
LINE
  5
112
330
4A
100
AcDbEntity
  8
1
  6
Continuous
 62
     7
100
AcDbLine
 10
171.0559439162985
 20
425.3540994033618
 30
0.0
 11
171.0559439162985
 21
425.3540994033641
 31
0.0
  0
LINE
  5
113
330
4A
100
AcDbEntity
  8
1
  6
Continuous
 62
     7
100
AcDbLine
 10
141.0337299184383
 20
417.6763257377645
 30
0.0
 11
141.0337299184383
 21
425.3540994033618
 31
0.0
  0
LINE
  5
114
330
4A
100
AcDbEntity
  8
1
  6
Continuous
 62
     7
100
AcDbLine
 10
167.3031671665657
 20
426.5152125705633
 30
0.0
 11
144.7865066681713
 21
426.5152125705633
 31
0.0
  0
LINE
  5
115
330
4A
100
AcDbEntity
  8
1
  6
Continuous
 62
     7
100
AcDbLine
 10
165.3828369173681
 20
358.5152125705633
 30
0.0
 11
146.706836917368
 21
358.5152125705633
 31
0.0
  0
LINE
  5
116
330
4A
100
AcDbEntity
  8
1
  6
Continuous
 62
     7
100
AcDbLine
 10
145.5673369173684
 20
369.4888844657879
 30
0.0
 11
145.5673369173684
 21
359.6772125705632
 31
0.0
  0
LINE
  5
117
330
4A
100
AcDbEntity
  8
1
  6
Continuous
 62
     7
100
AcDbLine
 10
166.5223369173681
 20
369.488884465788
 30
0.0
 11
166.5223369173681
 21
359.6772125705632
 31
0.0
  0
LINE
  5
118
330
4A
100
AcDbEntity
  8
1
  6
Continuous
 62
     7
100
AcDbLine
 10
148.5392834179033
 20
417.6763257377645
 30
0.0
 11
148.5392834179033
 21
425.3540994033618
 31
0.0
  0
LINE
  5
119
330
4A
100
AcDbEntity
  8
1
  6
Continuous
 62
     7
100
AcDbLine
 10
163.5503904168332
 20
417.6763257377645
 30
0.0
 11
163.5503904168332
 21
425.3540994033618
 31
0.0
  0
LINE
  5
11A
330
4A
100
AcDbEntity
  8
1
  6
Continuous
 62
     7
100
AcDbLine
 10
236.8184389002784
 20
264.1158925728338
 30
0.0
 11
236.0574799557631
 21
263.3549336283188
 31
0.0
  0
LINE
  5
11B
330
4A
100
AcDbEntity
  8
1
  6
Continuous
 62
     7
100
AcDbLine
 10
236.0574799557631
 20
242.3999336283185
 30
0.0
 11
236.8074799557631
 21
241.6499336283185
 31
0.0
  0
LINE
  5
11C
330
4A
100
AcDbEntity
  8
1
  6
Continuous
 62
     7
100
AcDbLine
 10
144.8173369173684
 20
370.2388844657879
 30
0.0
 11
145.5621701448779
 21
369.5278556089584
 31
0.0
  0
LINE
  5
11D
330
4A
100
AcDbEntity
  8
1
  6
Continuous
 62
     7
100
AcDbLine
 10
144.8173369173684
 20
375.2920856345413
 30
0.0
 11
144.8173369173684
 21
370.2388844657879
 31
0.0
  0
LINE
  5
11E
330
4A
100
AcDbEntity
  8
1
  6
Continuous
 62
     7
100
AcDbLine
 10
166.5275036898588
 20
369.5278556089584
 30
0.0
 11
167.2723369173681
 21
370.2388844657879
 31
0.0
  0
LINE
  5
11F
330
4A
100
AcDbEntity
  8
1
  6
Continuous
 62
     7
100
AcDbLine
 10
167.2723369173681
 20
370.2388844657879
 30
0.0
 11
167.2723369173681
 21
375.2920856345413
 31
0.0
  0
LINE
  5
120
330
4A
100
AcDbEntity
  8
1
  6
PHANTOM
 62
     4
100
AcDbLine
 10
258.044836917368
 20
236.8774336283186
 30
0.0
 11
258.044836917368
 21
285.8774336283187
 31
0.0
  0
LINE
  5
121
330
4A
100
AcDbEntity
  8
1
  6
PHANTOM
 62
     4
100
AcDbLine
 10
222.044836917368
 20
252.8774336283186
 30
0.0
 11
284.2059500845692
 21
252.8774336283186
 31
0.0
  0
LINE
  5
122
330
4A
100
AcDbEntity
  8
1
  6
PHANTOM
 62
     4
100
AcDbLine
 10
190.5448369173683
 20
391.5152125705633
 30
0.0
 11
121.5448369173682
 21
391.5152125705633
 31
0.0
  0
LINE
  5
123
330
4A
100
AcDbEntity
  8
1
  6
Continuous
 62
     7
100
AcDbLine
 10
166.5223369173681
 20
369.488884465788
 30
0.0
 11
163.0532869827094
 21
369.488884465788
 31
0.0
  0
LINE
  5
124
330
4A
100
AcDbEntity
  8
1
  6
Continuous
 62
     7
100
AcDbLine
 10
144.8173369173684
 20
370.2388844657879
 30
0.0
 11
148.8354249577037
 21
370.2388844657879
 31
0.0
  0
LINE
  5
125
330
4A
100
AcDbEntity
  8
1
  6
Continuous
 62
     7
100
AcDbLine
 10
244.4807250520505
 20
268.8432538470923
 30
0.0
 11
244.4812993859964
 21
268.8542127916193
 31
0.0
  0
LINE
  5
126
330
4A
100
AcDbEntity
  8
0
  6
Continuous
 62
     7
100
AcDbLine
 10
239.4881517122236
 20
264.1158925728338
 30
0.0
 11
236.8184389002784
 21
264.1158925728338
 31
0.0
  0
LINE
  5
127
330
4A
100
AcDbEntity
  8
1
  6
PHANTOM
 62
     4
100
AcDbLine
 10
156.0448369173683
 20
355.5152125705633
 30
0.0
 11
156.0448369173683
 21
429.5152125705633
 31
0.0
  0
LINE
  5
128
330
4A
100
AcDbEntity
  8
1
  6
Continuous
 62
     2
100
AcDbLine
 10
173.6889083649189
 20
382.1953395065858
 30
0.0
 11
179.5448369173683
 21
382.1953395065824
 31
0.0
  0
LINE
  5
129
330
4A
100
AcDbEntity
  8
1
  6
Continuous
 62
     2
100
AcDbLine
 10
172.0574799557635
 20
382.1953395065824
 30
0.0
 11
173.6889083649189
 21
382.1953395065858
 31
0.0
  0
LINE
  5
12A
330
4A
100
AcDbEntity
  8
1
  6
Continuous
 62
     7
100
AcDbLine
 10
168.044836917368
 20
278.3774336283187
 30
0.0
 11
168.044836917368
 21
275.5783955226418
 31
0.0
  0
LINE
  5
12B
330
4A
100
AcDbEntity
  8
1
  6
Continuous
 62
     7
100
AcDbLine
 10
142.7667153578333
 20
274.3002739631074
 30
0.0
 11
169.3229584769022
 21
274.3002739631075
 31
0.0
  0
LINE
  5
12C
330
4A
100
AcDbEntity
  8
1
  6
Continuous
 62
     7
100
AcDbLine
 10
144.0448369173678
 20
275.5783955226418
 30
0.0
 11
168.044836917368
 21
275.5783955226418
 31
0.0
  0
LINE
  5
12D
330
4A
100
AcDbEntity
  8
1
  6
Continuous
 62
     7
100
AcDbLine
 10
144.7948369173678
 20
276.8774336283187
 30
0.0
 11
167.294836917368
 21
276.8774336283187
 31
0.0
  0
LINE
  5
12E
330
4A
100
AcDbEntity
  8
1
  6
Continuous
 62
     7
100
AcDbLine
 10
142.7667153578333
 20
274.3002739631074
 30
0.0
 11
144.0448369173678
 21
275.5783955226418
 31
0.0
  0
LINE
  5
12F
330
4A
100
AcDbEntity
  8
1
  6
Continuous
 62
     7
100
AcDbLine
 10
168.044836917368
 20
275.5783955226418
 30
0.0
 11
169.3229584769022
 21
274.3002739631075
 31
0.0
  0
LINE
  5
130
330
4A
100
AcDbEntity
  8
1
  6
Continuous
 62
     2
100
AcDbLine
 10
144.0448369173678
 20
275.5783955226418
 30
0.0
 11
144.7948369173678
 21
276.8774336283187
 31
0.0
  0
LINE
  5
131
330
4A
100
AcDbEntity
  8
1
  6
Continuous
 62
     2
100
AcDbLine
 10
168.044836917368
 20
275.5783955226418
 30
0.0
 11
167.294836917368
 21
276.8774336283187
 31
0.0
  0
LINE
  5
132
330
4A
100
AcDbEntity
  8
1
  6
Continuous
 62
     2
100
AcDbLine
 10
167.294836917368
 20
276.8774336283187
 30
0.0
 11
167.294836917368
 21
278.3774454559564
 31
0.0
  0
LINE
  5
133
330
4A
100
AcDbEntity
  8
1
  6
Continuous
 62
     2
100
AcDbLine
 10
144.7948369173678
 20
276.8774336283187
 30
0.0
 11
144.7948369173678
 21
278.3774454559564
 31
0.0
  0
LINE
  5
134
330
4A
100
AcDbEntity
  8
1
  6
Continuous
 62
     7
100
AcDbLine
 10
168.044836917368
 20
276.8774336283187
 30
0.0
 11
167.294836917368
 21
276.8774336283187
 31
0.0
  0
LINE
  5
135
330
4A
100
AcDbEntity
  8
1
  6
Continuous
 62
     7
100
AcDbLine
 10
144.0448369173678
 20
275.5783955226418
 30
0.0
 11
144.044836917368
 21
276.8774336283187
 31
0.0
  0
LINE
  5
136
330
4A
100
AcDbEntity
  8
1
  6
Continuous
 62
     7
100
AcDbLine
 10
144.044836917368
 20
276.8774336283187
 30
0.0
 11
144.7948369173678
 21
276.8774336283187
 31
0.0
  0
LINE
  5
137
330
4A
100
AcDbEntity
  8
1
  6
Continuous
 62
     7
100
AcDbLine
 10
144.044836917368
 20
276.8774336283187
 30
0.0
 11
144.044836917368
 21
278.3774336283187
 31
0.0
  0
LINE
  5
138
330
4A
100
AcDbEntity
  8
1
  6
Continuous
 62
     7
100
AcDbLine
 10
142.0448369173681
 20
274.3002739631074
 30
0.0
 11
142.0448369173681
 21
241.6499336283185
 31
0.0
  0
LINE
  5
139
330
4A
100
AcDbEntity
  8
1
  6
Continuous
 62
     7
100
AcDbLine
 10
170.0448369173681
 20
274.3002739631074
 30
0.0
 11
170.0448369173681
 21
241.6499336283185
 31
0.0
  0
LINE
  5
13A
330
4A
100
AcDbEntity
  8
1
  6
Continuous
 62
     7
100
AcDbLine
 10
142.0448369173681
 20
274.3002739631074
 30
0.0
 11
142.7667153578333
 21
274.3002739631074
 31
0.0
  0
LINE
  5
13B
330
4A
100
AcDbEntity
  8
1
  6
Continuous
 62
     7
100
AcDbLine
 10
170.0448369173681
 20
274.3002739631074
 30
0.0
 11
169.3229584769022
 21
274.3002739631075
 31
0.0
  0
LINE
  5
13C
330
4A
100
AcDbEntity
  8
1
  6
Continuous
 62
     7
100
AcDbLine
 10
142.0448369173681
 20
241.6499336283185
 30
0.0
 11
152.5557645445823
 21
240.3191751126589
 31
0.0
  0
LINE
  5
13D
330
4A
100
AcDbEntity
  8
1
  6
Continuous
 62
     7
100
AcDbLine
 10
149.8628060010751
 20
254.8774336283186
 30
0.0
 11
162.2268678336608
 21
254.8774336283186
 31
0.0
  0
LINE
  5
13E
330
4A
100
AcDbEntity
  8
1
  6
Continuous
 62
     7
100
AcDbLine
 10
132.5448369173678
 20
263.3593066922996
 30
0.0
 11
140.0321938789729
 21
263.3593066922996
 31
0.0
  0
LINE
  5
13F
330
4A
100
AcDbEntity
  8
1
  6
Continuous
 62
     7
100
AcDbLine
 10
140.0321938789729
 20
251.2184655556503
 30
0.0
 11
140.0321938789729
 21
263.3593066922996
 31
0.0
  0
LINE
  5
140
330
4A
100
AcDbEntity
  8
1
  6
Continuous
 62
     2
100
AcDbLine
 10
140.0321938789729
 20
262.1973066922996
 30
0.0
 11
142.0448369173678
 21
263.3593066922996
 31
0.0
  0
LINE
  5
141
330
4A
100
AcDbEntity
  8
1
  6
Continuous
 62
     7
100
AcDbLine
 10
140.0321938789729
 20
263.3593066922996
 30
0.0
 11
142.0448369173678
 21
263.3593066922996
 31
0.0
  0
LINE
  5
142
330
4A
100
AcDbEntity
  8
1
  6
Continuous
 62
     2
100
AcDbLine
 10
138.4007654698173
 20
262.1973066922961
 30
0.0
 11
132.5448369173678
 21
262.1973066922996
 31
0.0
  0
LINE
  5
143
330
4A
100
AcDbEntity
  8
1
  6
Continuous
 62
     2
100
AcDbLine
 10
140.0321938789729
 20
262.1973066922996
 30
0.0
 11
138.4007654698173
 21
262.1973066922961
 31
0.0
  0
LINE
  5
144
330
4A
100
AcDbEntity
  8
1
  6
Continuous
 62
     7
100
AcDbLine
 10
170.0448369173678
 20
263.3593066922996
 30
0.0
 11
172.0574799557629
 21
263.3593066922996
 31
0.0
  0
LINE
  5
145
330
4A
100
AcDbEntity
  8
1
  6
Continuous
 62
     2
100
AcDbLine
 10
179.5448369173681
 20
262.1973066922996
 30
0.0
 11
173.6889083649186
 21
262.1973066922961
 31
0.0
  0
LINE
  5
146
330
4A
100
AcDbEntity
  8
1
  6
Continuous
 62
     7
100
AcDbLine
 10
172.0574799557629
 20
263.3593066922996
 30
0.0
 11
172.0574799557629
 21
251.2184655556497
 31
0.0
  0
LINE
  5
147
330
4A
100
AcDbEntity
  8
1
  6
Continuous
 62
     7
100
AcDbLine
 10
170.0448369173678
 20
264.6241508701773
 30
0.0
 11
170.0448369173678
 21
256.966224720668
 31
0.0
  0
LINE
  5
148
330
4A
100
AcDbEntity
  8
1
  6
Continuous
 62
     2
100
AcDbLine
 10
172.0574799557629
 20
262.1973066922996
 30
0.0
 11
170.0448369173678
 21
263.3593066922996
 31
0.0
  0
LINE
  5
149
330
4A
100
AcDbEntity
  8
1
  6
Continuous
 62
     7
100
AcDbLine
 10
172.0574799557629
 20
263.3593066922996
 30
0.0
 11
179.5448369173681
 21
263.3593066922996
 31
0.0
  0
LINE
  5
14A
330
4A
100
AcDbEntity
  8
1
  6
Continuous
 62
     2
100
AcDbLine
 10
173.6889083649193
 20
262.1973066922985
 30
0.0
 11
172.0574799557629
 21
262.1973066922996
 31
0.0
  0
LINE
  5
14B
330
4A
100
AcDbEntity
  8
1
  6
Continuous
 62
     7
100
AcDbLine
 10
170.0448369173678
 20
263.3593066922996
 30
0.0
 11
179.5448369173681
 21
263.3593066922996
 31
0.0
  0
LINE
  5
14C
330
4A
100
AcDbEntity
  8
1
  6
Continuous
 62
     7
100
AcDbLine
 10
172.0574799557629
 20
242.3955605643376
 30
0.0
 11
170.0448369173678
 21
242.3955605643376
 31
0.0
  0
LINE
  5
14D
330
4A
100
AcDbEntity
  8
1
  6
Continuous
 62
     2
100
AcDbLine
 10
173.6889083649186
 20
243.5575605643411
 30
0.0
 11
179.5448369173681
 21
243.5575605643378
 31
0.0
  0
LINE
  5
14E
330
4A
100
AcDbEntity
  8
1
  6
Continuous
 62
     7
100
AcDbLine
 10
172.0574799557629
 20
251.2184655556497
 30
0.0
 11
172.0574799557629
 21
242.3955605643376
 31
0.0
  0
LINE
  5
14F
330
4A
100
AcDbEntity
  8
1
  6
Continuous
 62
     2
100
AcDbLine
 10
170.0448369173678
 20
242.3955605643376
 30
0.0
 11
172.0574799557629
 21
243.5575605643378
 31
0.0
  0
LINE
  5
150
330
4A
100
AcDbEntity
  8
1
  6
Continuous
 62
     7
100
AcDbLine
 10
179.5448369173681
 20
242.3955605643376
 30
0.0
 11
172.0574799557629
 21
242.3955605643376
 31
0.0
  0
LINE
  5
151
330
4A
100
AcDbEntity
  8
1
  6
Continuous
 62
     2
100
AcDbLine
 10
172.0574799557629
 20
243.5575605643378
 30
0.0
 11
173.6889083649193
 21
243.5575605643388
 31
0.0
  0
LINE
  5
152
330
4A
100
AcDbEntity
  8
1
  6
Continuous
 62
     7
100
AcDbLine
 10
179.5448369173681
 20
242.3955605643376
 30
0.0
 11
170.0448369173678
 21
242.3955605643376
 31
0.0
  0
LINE
  5
153
330
4A
100
AcDbEntity
  8
1
  6
Continuous
 62
     7
100
AcDbLine
 10
140.0321938789729
 20
242.3955605643376
 30
0.0
 11
132.5448369173678
 21
242.3955605643376
 31
0.0
  0
LINE
  5
154
330
4A
100
AcDbEntity
  8
1
  6
Continuous
 62
     7
100
AcDbLine
 10
140.0321938789729
 20
242.3955605643376
 30
0.0
 11
140.0321938789729
 21
251.2184655556503
 31
0.0
  0
LINE
  5
155
330
4A
100
AcDbEntity
  8
1
  6
Continuous
 62
     2
100
AcDbLine
 10
142.0448369173678
 20
242.3955605643376
 30
0.0
 11
140.0321938789729
 21
243.5575605643378
 31
0.0
  0
LINE
  5
156
330
4A
100
AcDbEntity
  8
1
  6
Continuous
 62
     7
100
AcDbLine
 10
142.0448369173678
 20
242.3955605643376
 30
0.0
 11
140.0321938789729
 21
242.3955605643376
 31
0.0
  0
LINE
  5
157
330
4A
100
AcDbEntity
  8
1
  6
Continuous
 62
     2
100
AcDbLine
 10
132.5448369173678
 20
243.5575605643378
 30
0.0
 11
138.4007654698173
 21
243.5575605643411
 31
0.0
  0
LINE
  5
158
330
4A
100
AcDbEntity
  8
1
  6
Continuous
 62
     2
100
AcDbLine
 10
138.4007654698173
 20
243.5575605643411
 30
0.0
 11
140.0321938789729
 21
243.5575605643378
 31
0.0
  0
LINE
  5
159
330
4A
100
AcDbEntity
  8
1
  6
Continuous
 62
     7
100
AcDbLine
 10
160.0084899702954
 20
240.3792604166266
 30
0.0
 11
170.0448369173681
 21
241.6499336283185
 31
0.0
  0
ARC
  5
15A
330
4A
100
AcDbEntity
  8
1
  6
Continuous
 62
     7
100
AcDbCircle
 10
274.7059500845689
 20
246.3774336283186
 30
0.0
 40
18.36643427850096
100
AcDbArc
 50
339.2735604049788
 51
20.72643959502122
  0
ARC
  5
15B
330
4A
100
AcDbEntity
  8
1
  6
Continuous
 62
     7
100
AcDbCircle
 10
301.3837237501685
 20
246.3774336283186
 30
0.0
 40
18.3664342785026
100
AcDbArc
 50
159.2735604049807
 51
200.7264395950187
  0
ARC
  5
15C
330
4A
100
AcDbEntity
  8
1
  6
Continuous
 62
     7
100
AcDbCircle
 10
274.7059500845689
 20
259.3774336283187
 30
0.0
 40
18.366434278501
100
AcDbArc
 50
339.2735604049785
 51
20.72643959502122
  0
ARC
  5
15D
330
4A
100
AcDbEntity
  8
1
  6
Continuous
 62
     7
100
AcDbCircle
 10
301.3837237501685
 20
259.3774336283187
 30
0.0
 40
18.3664342785026
100
AcDbArc
 50
159.2735604049807
 51
200.7264395950196
  0
ARC
  5
15E
330
4A
100
AcDbEntity
  8
0
  6
Continuous
 62
     7
100
AcDbCircle
 10
139.8173369173684
 20
375.2920856345413
 30
0.0
 40
5.0
100
AcDbArc
 50
0.0
 51
63.54466694209681
  0
ARC
  5
15F
330
4A
100
AcDbEntity
  8
0
  6
Continuous
 62
     7
100
AcDbCircle
 10
172.2723369173679
 20
375.2920856345413
 30
0.0
 40
5.000000000000023
100
AcDbArc
 50
116.4553330578991
 51
180.0
  0
ARC
  5
160
330
4A
100
AcDbEntity
  8
1
  6
Continuous
 62
     7
100
AcDbCircle
 10
156.0448369173683
 20
441.3540994033616
 30
0.0
 40
24.83888683279858
100
AcDbArc
 50
252.4120462260067
 51
284.0108924258996
  0
ARC
  5
161
330
4A
100
AcDbEntity
  8
0
  6
Continuous
 62
     7
100
AcDbCircle
 10
139.8173369173684
 20
375.2920856345413
 30
0.0
 40
5.0
100
AcDbArc
 50
0.0
 51
3.46158030324114
  0
ARC
  5
162
330
4A
100
AcDbEntity
  8
0
  6
Continuous
 62
     7
100
AcDbCircle
 10
172.2723369173679
 20
375.2920856345413
 30
0.0
 40
5.000000000000018
100
AcDbArc
 50
176.5384196967589
 51
180.0
  0
ARC
  5
163
330
4A
100
AcDbEntity
  8
1
  6
Continuous
 62
     7
100
AcDbCircle
 10
241.2842944725109
 20
226.6499336283422
 30
0.0
 40
14.99999999997625
100
AcDbArc
 50
77.92632314340135
 51
90.0
  0
ARC
  5
164
330
4A
100
AcDbEntity
  8
1
  6
Continuous
 62
     7
100
AcDbCircle
 10
258.044836917368
 20
305.006499720277
 30
0.0
 40
65.12906609195824
100
AcDbArc
 50
257.9263231434009
 51
270.0
  0
ARC
  5
165
330
4A
100
AcDbEntity
  8
1
  6
Continuous
 62
     7
100
AcDbCircle
 10
276.5092036676787
 20
270.8774336283187
 30
0.0
 40
4.999999999999734
100
AcDbArc
 50
182.9999999998707
 51
270.0000000001335
  0
ARC
  5
166
330
4A
100
AcDbEntity
  8
1
  6
Continuous
 62
     7
100
AcDbCircle
 10
144.7865066681713
 20
423.1603517164649
 30
0.0
 40
6.645139145901624
100
AcDbArc
 50
270.0
 51
304.3842474680294
  0
ARC
  5
167
330
4A
100
AcDbEntity
  8
1
  6
Continuous
 62
     7
100
AcDbCircle
 10
144.7865066681713
 20
419.8700734246615
 30
0.0
 40
6.645139145901794
100
AcDbArc
 50
90.0
 51
124.3842474680372
  0
ARC
  5
168
330
4A
100
AcDbEntity
  8
1
  6
Continuous
 62
     7
100
AcDbCircle
 10
167.3031671665657
 20
419.8700734246624
 30
0.0
 40
6.645139145900885
100
AcDbArc
 50
90.0
 51
124.3842474680378
  0
ARC
  5
169
330
4A
100
AcDbEntity
  8
1
  6
Continuous
 62
     7
100
AcDbCircle
 10
167.3031671665657
 20
423.160351716464
 30
0.0
 40
6.645139145900714
100
AcDbArc
 50
270.0
 51
304.3842474680396
  0
ARC
  5
16A
330
4A
100
AcDbEntity
  8
1
  6
Continuous
 62
     7
100
AcDbCircle
 10
167.3031671665657
 20
423.160351716464
 30
0.0
 40
6.645139145900827
100
AcDbArc
 50
235.6157525319628
 51
270.0
  0
ARC
  5
16B
330
4A
100
AcDbEntity
  8
1
  6
Continuous
 62
     7
100
AcDbCircle
 10
144.7865066681713
 20
423.1603517164649
 30
0.0
 40
6.645139145901882
100
AcDbArc
 50
235.6157525319634
 51
270.0
  0
ARC
  5
16C
330
4A
100
AcDbEntity
  8
1
  6
Continuous
 62
     7
100
AcDbCircle
 10
156.0448369173683
 20
441.3540994033616
 30
0.0
 40
24.83888683279848
100
AcDbArc
 50
284.0108924258996
 51
287.5879537739932
  0
ARC
  5
16D
330
4A
100
AcDbEntity
  8
1
  6
Continuous
 62
     7
100
AcDbCircle
 10
144.7865066681713
 20
419.8700734246615
 30
0.0
 40
6.645139145901211
100
AcDbArc
 50
55.61575253197007
 51
90.0
  0
ARC
  5
16E
330
4A
100
AcDbEntity
  8
1
  6
Continuous
 62
     7
100
AcDbCircle
 10
167.3031671665657
 20
419.8700734246624
 30
0.0
 40
6.645139145900925
100
AcDbArc
 50
55.61575253195977
 51
90.0
  0
ARC
  5
16F
330
4A
100
AcDbEntity
  8
1
  6
Continuous
 62
     7
100
AcDbCircle
 10
156.0448369173683
 20
401.6763257377648
 30
0.0
 40
24.83888683279845
100
AcDbArc
 50
72.41204622600672
 51
107.5879537739934
  0
ARC
  5
170
330
4A
100
AcDbEntity
  8
1
  6
Continuous
 62
     7
100
AcDbCircle
 10
140.0448369173554
 20
414.7612281241921
 30
0.0
 40
3.000000000012591
100
AcDbArc
 50
0.00000000007817
 51
60.55338657844865
  0
ARC
  5
171
330
4A
100
AcDbEntity
  8
1
  6
Continuous
 62
     7
100
AcDbCircle
 10
172.0448369173658
 20
414.7612281242026
 30
0.0
 40
2.999999999997585
100
AcDbArc
 50
119.4466134213607
 51
180.0000000000152
  0
ARC
  5
172
330
4A
100
AcDbEntity
  8
0
  6
Continuous
 62
     7
100
AcDbCircle
 10
239.4881517122236
 20
269.1158925728338
 30
0.0
 40
5.0
100
AcDbArc
 50
270.0
 51
357.0000000000028
  0
ARC
  5
173
330
4A
100
AcDbEntity
  8
1
  6
Continuous
 62
     7
100
AcDbCircle
 10
156.044836917368
 20
252.8774336283186
 30
0.0
 40
6.497500000000084
100
AcDbArc
 50
162.0726576840974
 51
17.92734231590283
  0
ARC
  5
174
330
4A
100
AcDbEntity
  8
1
  6
Continuous
 62
     7
100
AcDbCircle
 10
156.044836917368
 20
252.8774336283186
 30
0.0
 40
6.497500000000002
100
AcDbArc
 50
17.92734231590283
 51
162.0726576840974
  0
ARC
  5
175
330
4A
100
AcDbEntity
  8
1
  6
Continuous
 62
     7
100
AcDbCircle
 10
156.0448369173681
 20
253.8774336283186
 30
0.0
 40
14.0
100
AcDbArc
 50
189.6266486595935
 51
349.8089261398121
  0
CIRCLE
  5
176
330
4A
100
AcDbEntity
  8
1
  6
Continuous
 62
     7
100
AcDbCircle
 10
156.044836917368
 20
252.8774336283186
 30
0.0
 40
10.47749999999991
  0
CIRCLE
  5
177
330
4A
100
AcDbEntity
  8
1
  6
Continuous
 62
     2
100
AcDbCircle
 10
156.044836917368
 20
252.8774336283186
 30
0.0
 40
9.315499999999986
  0
CIRCLE
  5
178
330
4A
100
AcDbEntity
  8
1
  6
Continuous
 62
     7
100
AcDbCircle
 10
156.044836917368
 20
252.8774336283186
 30
0.0
 40
11.2384589445154
  0
ENDBLK
  5
4C
330
4A
100
AcDbEntity
  8
0
100
AcDbBlockEnd
  0
BLOCK
  5
4E
330
4D
100
AcDbEntity
  8
0
100
AcDbBlockBegin
  2
32-213-M2__1
 70
     0
 10
245.2664291915291
 20
408.4437097674433
 30
0.0
  3
32-213-M2__1
  1

  0
LINE
  5
179
330
4D
100
AcDbEntity
  8
0
  6
Continuous
 62
     7
100
AcDbLine
 10
120.544836917368
 20
391.5152125705632
 30
0.0
 11
120.544836917368
 21
380.0152125705632
 31
0.0
  0
LINE
  5
17A
330
4D
100
AcDbEntity
  8
0
  6
Continuous
 62
     7
100
AcDbLine
 10
132.544836917368
 20
392.4061109206604
 30
0.0
 11
132.544836917368
 21
397.3792961017137
 31
0.0
  0
LINE
  5
17B
330
4D
100
AcDbEntity
  8
0
  6
Continuous
 62
     7
100
AcDbLine
 10
120.544836917368
 20
391.5152125705632
 30
0.0
 11
120.544836917368
 21
403.0152125705632
 31
0.0
  0
LINE
  5
17C
330
4D
100
AcDbEntity
  8
0
  6
Continuous
 62
     7
100
AcDbLine
 10
132.5448369173678
 20
380.0152125705631
 30
0.0
 11
132.544836917368
 21
392.4061109206604
 31
0.0
  0
LINE
  5
17D
330
4D
100
AcDbEntity
  8
0
  6
Continuous
 62
     7
100
AcDbLine
 10
132.5448369173681
 20
258.6274336283187
 30
0.0
 11
132.5448369173682
 21
264.3774336283187
 31
0.0
  0
LINE
  5
17E
330
4D
100
AcDbEntity
  8
0
  6
Continuous
 62
     7
100
AcDbLine
 10
120.5448369173683
 20
241.3774336283186
 30
0.0
 11
120.5448369173683
 21
264.3774336283187
 31
0.0
  0
LINE
  5
17F
330
4D
100
AcDbEntity
  8
1
  6
Continuous
 62
     7
100
AcDbLine
 10
132.5448369173682
 20
264.3774336283187
 30
0.0
 11
120.5448369173683
 21
264.3774336283187
 31
0.0
  0
LINE
  5
180
330
4D
100
AcDbEntity
  8
1
  6
Continuous
 62
     7
100
AcDbLine
 10
120.5448369173683
 20
241.3774336283186
 30
0.0
 11
132.5448369173681
 21
241.3774336283186
 31
0.0
  0
LINE
  5
181
330
4D
100
AcDbEntity
  8
0
  6
Continuous
 62
     7
100
AcDbLine
 10
132.5448369173681
 20
241.3774336283186
 30
0.0
 11
132.5448369173681
 21
258.6274336283187
 31
0.0
  0
ARC
  5
182
330
4D
100
AcDbEntity
  8
0
  6
Continuous
 62
     7
100
AcDbCircle
 10
126.544836917368
 20
389.2402125705633
 30
0.0
 40
15.02499999999996
100
AcDbArc
 50
82.92388527952124
 51
113.5365778640414
  0
ARC
  5
183
330
4D
100
AcDbEntity
  8
0
  6
Continuous
 62
     7
100
AcDbCircle
 10
126.544836917368
 20
393.7902125705632
 30
0.0
 40
15.02499999999998
100
AcDbArc
 50
246.4634221359587
 51
293.5365778640405
  0
SPLINE
  5
184
330
4D
100
AcDbEntity
  8
0
  6
Continuous
 62
     7
100
AcDbSpline
210
0.0
220
0.0
230
1.0
 70
     8
 71
     3
 72
    57
 73
    53
 74
    51
 42
0.000000001
 43
0.0000000001
 44
0.00000001
 40
0.0
 40
0.0
 40
0.0
 40
0.0
 40
0.2853934258440076
 40
0.5709389398798586
 40
1.03843522437309
 40
1.505846486930216
 40
2.002790945702283
 40
2.499688911405091
 40
3.014955303979465
 40
3.530201050529271
 40
4.051675347720701
 40
4.573149644901363
 40
5.088395391418318
 40
5.603661783942431
 40
6.100559749583621
 40
6.597504208296034
 40
7.064915470824519
 40
7.53241175550936
 40
7.960927353029764
 40
8.389592590391674
 40
8.772481218452338
 40
9.155635025608873
 40
9.490190728935945
 40
9.825218275952034
 40
10.11476392580823
 40
10.40509782281617
 40
10.66138663075943
 40
10.91842067573688
 40
11.16245105510954
 40
11.40648143448766
 40
11.66351547947976
 40
11.91980428744478
 40
12.21013818448172
 40
12.49968383436828
 40
12.8347113814192
 40
13.16926708477916
 40
13.55242089197028
 40
13.9353095200616
 40
14.36397475745317
 40
14.79249035499822
 40
15.25998663970427
 40
15.72739790224773
 40
16.22434236096943
 40
16.72124032661266
 40
17.23650671913118
 40
17.75175246563371
 40
18.27322676278995
 40
18.7947010599417
 40
19.30994680642273
 40
19.82521319872917
 40
19.97738948916811
 40
20.12950830001736
 40
20.12950830001736
 40
20.12950830001736
 40
20.12950830001736
 10
130.5139160314486
 20
399.4102169876257
 30
0.0
 10
130.425361549088
 20
399.3754219097186
 30
0.0
 10
130.2482053899963
 20
399.3058132194354
 30
0.0
 10
129.9199085061428
 20
399.1957240764073
 30
0.0
 10
129.5290663724546
 20
399.0822618091308
 30
0.0
 10
129.0644385799378
 20
398.9722661985904
 30
0.0
 10
128.5855943917475
 20
398.8821526391553
 30
0.0
 10
128.0875282420093
 20
398.8105557170813
 30
0.0
 10
127.5808052318272
 20
398.7595403715775
 30
0.0
 10
127.0642726913734
 20
398.7284605851427
 30
0.0
 10
126.5448369445952
 20
398.7182472511792
 30
0.0
 10
126.025401089141
 20
398.7284604106154
 30
0.0
 10
125.5088688708874
 20
398.7595410596202
 30
0.0
 10
125.0021446964267
 20
398.8105531739638
 30
0.0
 10
124.5040827379675
 20
398.8821617569636
 30
0.0
 10
124.0252233356097
 20
398.9722329788497
 30
0.0
 10
123.5606491009267
 20
399.0823776297341
 30
0.0
 10
123.1238299135245
 20
399.2085976573387
 30
0.0
 10
122.7067285530477
 20
399.354148078353
 30
0.0
 10
122.3246349234315
 20
399.5126022733825
 30
0.0
 10
121.9675059445656
 20
399.6894472490521
 30
0.0
 10
121.6508714654136
 20
399.875565786112
 30
0.0
 10
121.364348454681
 20
400.0788849174406
 30
0.0
 10
121.121781601479
 20
400.2881150490244
 30
0.0
 10
120.9145233997433
 20
400.5127972070152
 30
0.0
 10
120.7535580532391
 20
400.7415002934083
 30
0.0
 10
120.6330883071308
 20
400.9821226093259
 30
0.0
 10
120.5625362817138
 20
401.2259457805467
 30
0.0
 10
120.5362169177144
 20
401.4745047147053
 30
0.0
 10
120.5625362817548
 20
401.7230636488649
 30
0.0
 10
120.6330883072119
 20
401.966886820088
 30
0.0
 10
120.7535580533593
 20
402.2075091360104
 30
0.0
 10
120.9145233999008
 20
402.4362122224097
 30
0.0
 10
121.1217816016739
 20
402.6608943804085
 30
0.0
 10
121.3643484549114
 20
402.8701245120013
 30
0.0
 10
121.6508714656795
 20
403.0734436433369
 30
0.0
 10
121.9675059448656
 20
403.2595621804118
 30
0.0
 10
122.3246349237617
 20
403.4364071560566
 30
0.0
 10
122.7067285534178
 20
403.5948613512144
 30
0.0
 10
123.1238299138817
 20
403.7404117717327
 30
0.0
 10
123.5606491014707
 20
403.8666318013346
 30
0.0
 10
124.0252233355383
 20
403.9767764444351
 30
0.0
 10
124.5040827404209
 20
404.0668476970537
 30
0.0
 10
125.00214468928
 20
404.138456162395
 30
0.0
 10
125.5088689008578
 20
404.1894687311731
 30
0.0
 10
126.0254009789841
 20
404.2205476645428
 30
0.0
 10
126.5448373632809
 20
404.2307672993011
 30
0.0
 10
127.0642711392454
 20
404.2205298352992
 30
0.0
 10
127.5808109490007
 20
404.18953905507
 30
0.0
 10
127.9731507751417
 20
404.1497838611797
 30
0.0
 10
128.2441466001071
 20
404.115183874162
 30
0.0
 10
128.3445288211545
 20
404.1006177214535
 30
0.0
 10
128.3947104503868
 20
404.0933360174343
 30
0.0
 11
130.5139160314486
 21
399.4102169876257
 31
0.0
 11
130.2474170803182
 21
399.3081007723263
 31
0.0
 11
129.976987775925
 21
399.2164261702707
 31
0.0
 11
129.5280454274501
 21
399.0860285320782
 31
0.0
 11
129.0732970148302
 21
398.9779675786966
 31
0.0
 11
128.5849962453798
 21
398.8856845700845
 31
0.0
 11
128.0931726373347
 21
398.8148528900937
 31
0.0
 11
127.5805234256432
 21
398.7629853562546
 31
0.0
 11
127.0662081021187
 21
398.7320349551899
 31
0.0
 11
126.544836917368
 21
398.7216652708912
 31
0.0
 11
126.0234657326173
 21
398.7320349551899
 31
0.0
 11
125.5091504090927
 21
398.7629853562547
 31
0.0
 11
124.9965011974013
 21
398.8148528900937
 31
0.0
 11
124.5046775893563
 21
398.8856845700844
 31
0.0
 11
124.0163768199057
 21
398.9779675786966
 31
0.0
 11
123.5616284072859
 21
399.0860285320782
 31
0.0
 11
123.1126860588109
 21
399.2164261702707
 31
0.0
 11
122.7082211010689
 21
399.3579666781987
 31
0.0
 11
122.3126124900069
 21
399.5230354902257
 31
0.0
 11
121.9697349030954
 21
399.6934428316563
 31
0.0
 11
121.640065435666
 21
399.8886987722259
 31
0.0
 11
121.3676974204811
 21
400.0829748208371
 31
0.0
 11
121.1150178293229
 21
400.3029668243916
 31
0.0
 11
120.9196220487025
 21
400.5166422146567
 31
0.0
 11
120.7535737537245
 21
400.7548054688553
 31
0.0
 11
120.6404611291574
 21
400.9847826142137
 31
0.0
 11
120.5689502538116
 21
401.2316686104724
 31
0.0
 11
120.5448369173679
 21
401.4745047140842
 31
0.0
 11
120.5689502538116
 21
401.7173408176961
 31
0.0
 11
120.6404611291574
 21
401.9642268139549
 31
0.0
 11
120.7535737537245
 21
402.1942039593133
 31
0.0
 11
120.9196220487025
 21
402.432367213512
 31
0.0
 11
121.1150178293229
 21
402.646042603777
 31
0.0
 11
121.3676974204811
 21
402.8660346073315
 31
0.0
 11
121.640065435666
 21
403.0603106559427
 31
0.0
 11
121.9697349030954
 21
403.2555665965123
 31
0.0
 11
122.3126124900069
 21
403.4259739379428
 31
0.0
 11
122.7082211010689
 21
403.5910427499697
 31
0.0
 11
123.1126860588109
 21
403.7325832578979
 31
0.0
 11
123.5616284072859
 21
403.8629808960904
 31
0.0
 11
124.0163768199057
 21
403.971041849472
 31
0.0
 11
124.5046775893563
 21
404.0633248580842
 31
0.0
 11
124.9965011974013
 21
404.134156538075
 31
0.0
 11
125.5091504090927
 21
404.1860240719142
 31
0.0
 11
126.0234657326173
 21
404.2169744729788
 31
0.0
 11
126.544836917368
 21
404.2273441572775
 31
0.0
 11
127.0662081021187
 21
404.2169744729788
 31
0.0
 11
127.5805234256432
 21
404.1860240719141
 31
0.0
 11
128.0931726373348
 21
404.134156538075
 31
0.0
 11
128.2441066116054
 21
404.1147514110697
 31
0.0
 11
128.3947104503868
 21
404.0933360174343
 31
0.0
  0
SPLINE
  5
185
330
4D
100
AcDbEntity
  8
1
  6
Continuous
 62
     7
100
AcDbSpline
210
0.0
220
0.0
230
1.0
 70
    11
 71
     3
 72
    75
 73
    71
 74
    69
 42
0.000000001
 43
0.0000000001
 44
0.00000001
 40
0.0
 40
0.0
 40
0.0
 40
0.0
 40
0.9630426058510122
 40
1.92610166034358
 40
2.414436824100159
 40
2.902786204767323
 40
3.397717164585359
 40
3.892656653394682
 40
4.394980169231233
 40
4.897315975044141
 40
5.406928784582346
 40
5.916550426633876
 40
6.432488270955265
 40
6.948433239437104
 40
7.469017147432133
 40
7.989605283508245
 40
8.512645225663885
 40
9.035686621758366
 40
9.558728012443815
 40
10.08176795963006
 40
10.60235612044753
 40
11.12294000499211
 40
11.63888489109578
 40
12.15482281114668
 40
12.66444470578835
 40
13.17405729033828
 40
13.67639238397267
 40
14.17871649522408
 40
14.6736577095237
 40
15.16858741135664
 40
15.65693396901827
 40
16.14527013431025
 40
16.62866315956702
 40
17.11204884044649
 40
17.59278399686326
 40
18.07351648863773
 40
18.55424898041236
 40
19.03498413682924
 40
19.51836981770866
 40
20.00176284296549
 40
20.49009900825748
 40
20.97844556591912
 40
21.4733752677521
 40
21.96831648205174
 40
22.4706405933031
 40
22.97297568693751
 40
23.48258827148742
 40
23.99221016612915
 40
24.50814808618
 40
25.02409297228365
 40
25.5446768568282
 40
26.06526501764571
 40
26.58830496483195
 40
27.11134635551737
 40
27.63438775161179
 40
28.15742769376736
 40
28.67801582984353
 40
29.19859973783859
 40
29.71454470632051
 40
30.2304825506419
 40
30.74010419269343
 40
31.24971700223158
 40
31.75205280804452
 40
32.25437632388105
 40
32.74931581269032
 40
33.24424677250831
 40
33.73259615317551
 40
34.22093131693216
 40
35.18399037142471
 40
36.14703297727601
 40
36.14703297727601
 40
36.14703297727601
 40
36.14703297727601
 10
132.5448369173682
 20
391.5152125705631
 30
0.0
 10
132.5271119870567
 20
391.1937447255277
 30
0.0
 10
132.4916618285414
 20
390.55080354455
 30
0.0
 10
132.2542560042909
 20
389.7735991440805
 30
0.0
 10
131.9888993084828
 20
389.1837214472783
 30
0.0
 10
131.7460807403768
 20
388.7565291126991
 30
0.0
 10
131.4645230421393
 20
388.3513930774205
 30
0.0
 10
131.1448651583219
 20
387.9694458703083
 30
0.0
 10
130.7910000508828
 20
387.6154838242887
 30
0.0
 10
130.4040532807713
 20
387.2904007087478
 30
0.0
 10
129.988697211619
 20
386.9982564064175
 30
0.0
 10
129.5463135411514
 20
386.7398639044159
 30
0.0
 10
129.0820376816902
 20
386.518314670884
 30
0.0
 10
128.5977231473103
 20
386.3343872351678
 30
0.0
 10
128.0985429665554
 20
386.1901068499245
 30
0.0
 10
127.5870363208024
 20
386.0861358086288
 30
0.0
 10
127.0680168427471
 20
386.0234998037319
 30
0.0
 10
126.5448369284935
 20
386.0025506188217
 30
0.0
 10
126.0216570128033
 20
386.023499808446
 30
0.0
 10
125.5026375268579
 20
386.0861358128001
 30
0.0
 10
124.991130874819
 20
386.1901068288266
 30
0.0
 10
124.4919507162222
 20
386.3343872103291
 30
0.0
 10
124.0076362392505
 20
386.5183147519657
 30
0.0
 10
123.5433602783485
 20
386.7398640012767
 30
0.0
 10
123.1009764368514
 20
386.9982560668089
 30
0.0
 10
122.6856201687803
 20
387.2904003954903
 30
0.0
 10
122.2986762778538
 20
387.6154848671548
 30
0.0
 10
121.9448051442364
 20
387.9694474741526
 30
0.0
 10
121.6251609421594
 20
388.3513872184591
 30
0.0
 10
121.3435302877173
 20
388.7565333142472
 30
0.0
 10
121.1010139947524
 20
389.1837077717357
 30
0.0
 10
120.9002507510373
 20
389.6278332317053
 30
0.0
 10
120.7423279366383
 20
390.0871861117953
 30
0.0
 10
120.6286543074301
 20
390.556850521025
 30
0.0
 10
120.5601659015762
 20
391.0343017534875
 30
0.0
 10
120.5371724615054
 20
391.5152125705632
 30
0.0
 10
120.5601659015763
 20
391.9961233876389
 30
0.0
 10
120.6286543074301
 20
392.4735746201015
 30
0.0
 10
120.7423279366382
 20
392.9432390293313
 30
0.0
 10
120.9002507510373
 20
393.4025919094211
 30
0.0
 10
121.1010139947523
 20
393.8467173693908
 30
0.0
 10
121.3435302877174
 20
394.2738918268794
 30
0.0
 10
121.6251609421594
 20
394.6790379226674
 30
0.0
 10
121.9448051442363
 20
395.060977666974
 30
0.0
 10
122.2986762778538
 20
395.4149402739718
 30
0.0
 10
122.6856201687803
 20
395.7400247456362
 30
0.0
 10
123.1009764368515
 20
396.0321690743176
 30
0.0
 10
123.5433602783485
 20
396.2905611398499
 30
0.0
 10
124.0076362392505
 20
396.5121103891607
 30
0.0
 10
124.4919507162221
 20
396.6960379307975
 30
0.0
 10
124.991130874819
 20
396.8403183122998
 30
0.0
 10
125.5026375268579
 20
396.9442893283264
 30
0.0
 10
126.0216570128034
 20
397.0069253326806
 30
0.0
 10
126.5448369284934
 20
397.0278745223047
 30
0.0
 10
127.068016842747
 20
397.0069253373944
 30
0.0
 10
127.5870363208023
 20
396.9442893324978
 30
0.0
 10
128.0985429665553
 20
396.8403182912019
 30
0.0
 10
128.5977231473102
 20
396.6960379059586
 30
0.0
 10
129.0820376816902
 20
396.5121104702426
 30
0.0
 10
129.5463135411514
 20
396.2905612367106
 30
0.0
 10
129.988697211619
 20
396.0321687347089
 30
0.0
 10
130.4040532807714
 20
395.7400244323788
 30
0.0
 10
130.7910000508828
 20
395.4149413168377
 30
0.0
 10
131.1448651583219
 20
395.0609792708183
 30
0.0
 10
131.4645230421391
 20
394.679032063706
 30
0.0
 10
131.7460807403767
 20
394.2738960284274
 30
0.0
 10
131.9888993084828
 20
393.8467036938482
 30
0.0
 10
132.254256004291
 20
393.2568259970461
 30
0.0
 10
132.4916618285413
 20
392.4796215965764
 30
0.0
 10
132.5271119870567
 20
391.8366804155987
 30
0.0
 10
132.5448369173682
 20
391.5152125705631
 30
0.0
 11
132.5448369173682
 21
391.5152125705631
 31
0.0
 11
132.4531780756864
 21
390.5565417537599
 31
0.0
 11
132.1829926420835
 21
389.6321594887362
 31
0.0
 11
131.9820154579184
 21
389.1870983655562
 31
0.0
 11
131.7409893400748
 21
388.76237312737
 31
0.0
 11
131.4586475840661
 21
388.3558761560636
 31
0.0
 11
131.141103576082
 21
387.9762303994814
 31
0.0
 11
130.7860902803576
 21
387.6208510608031
 31
0.0
 11
130.4015625754875
 21
387.2976178540493
 31
0.0
 11
129.9848299234357
 21
387.0042936096788
 31
0.0
 11
129.5448369173681
 21
386.747154789873
 31
0.0
 11
129.0792586951924
 21
386.5248289518668
 31
0.0
 11
128.5969577773222
 21
386.3415667486092
 31
0.0
 11
128.096871627993
 21
386.1969242633402
 31
0.0
 11
127.5867259833698
 21
386.0931773176544
 31
0.0
 11
127.067459366717
 21
386.0304639859318
 31
0.0
 11
126.5448369173681
 21
386.0095336841767
 31
0.0
 11
126.0222144735733
 21
386.0304639897038
 31
0.0
 11
125.5029478513666
 21
386.0931773176544
 31
0.0
 11
124.9928021791559
 21
386.1969242520958
 31
0.0
 11
124.4927160574142
 21
386.3415667486092
 31
0.0
 11
124.0104152430336
 21
386.5248289925716
 31
0.0
 11
123.5448369173681
 21
386.747154789873
 31
0.0
 11
123.1048435314934
 21
387.0042934606738
 31
0.0
 11
122.6881112592489
 21
387.2976178540493
 31
0.0
 11
122.3035849420365
 21
387.6208516051054
 31
0.0
 11
121.9485702586543
 21
387.9762303994814
 31
0.0
 11
121.6310211856222
 21
388.3558741693482
 31
0.0
 11
121.3486844946614
 21
388.7623731273701
 31
0.0
 11
121.1076768988883
 21
389.1871056306502
 31
0.0
 11
120.9066811926527
 21
389.6321594887362
 31
0.0
 11
120.7495778856822
 21
390.0893108509771
 31
0.0
 11
120.6359903992948
 21
390.5591614651229
 31
0.0
 11
120.5677273475497
 21
391.0350253601396
 31
0.0
 11
120.544836917368
 21
391.5152125705631
 31
0.0
 11
120.5677273475497
 21
391.9953997809868
 31
0.0
 11
120.6359903992947
 21
392.4712636760036
 31
0.0
 11
120.7495778856822
 21
392.9411142901493
 31
0.0
 11
120.9066811926526
 21
393.3982656523903
 31
0.0
 11
121.1076768988884
 21
393.8433195104763
 31
0.0
 11
121.3486844946614
 21
394.2680520137564
 31
0.0
 11
121.6310211856222
 21
394.6745509717784
 31
0.0
 11
121.9485702586542
 21
395.0541947416452
 31
0.0
 11
122.3035849420364
 21
395.4095735360211
 31
0.0
 11
122.6881112592489
 21
395.7328072870772
 31
0.0
 11
123.1048435314934
 21
396.0261316804526
 31
0.0
 11
123.5448369173682
 21
396.2832703512535
 31
0.0
 11
124.0104152430336
 21
396.5055961485549
 31
0.0
 11
124.4927160574142
 21
396.6888583925173
 31
0.0
 11
124.9928021791559
 21
396.8335008890307
 31
0.0
 11
125.5029478513666
 21
396.9372478234721
 31
0.0
 11
126.0222144735733
 21
396.9999611514228
 31
0.0
 11
126.5448369173681
 21
397.0208914569497
 31
0.0
 11
127.0674593667169
 21
396.9999611551946
 31
0.0
 11
127.5867259833696
 21
396.9372478234721
 31
0.0
 11
128.0968716279929
 21
396.8335008777863
 31
0.0
 11
128.5969577773221
 21
396.6888583925173
 31
0.0
 11
129.0792586951924
 21
396.5055961892597
 31
0.0
 11
129.5448369173681
 21
396.2832703512535
 31
0.0
 11
129.9848299234357
 21
396.0261315314477
 31
0.0
 11
130.4015625754875
 21
395.7328072870772
 31
0.0
 11
130.7860902803576
 21
395.4095740803234
 31
0.0
 11
131.141103576082
 21
395.0541947416451
 31
0.0
 11
131.458647584066
 21
394.6745489850629
 31
0.0
 11
131.7409893400747
 21
394.2680520137565
 31
0.0
 11
131.9820154579184
 21
393.8433267755703
 31
0.0
 11
132.1829926420835
 21
393.3982656523903
 31
0.0
 11
132.4531780756863
 21
392.4738833873666
 31
0.0
 11
132.5448369173682
 21
391.5152125705631
 31
0.0
  0
SPLINE
  5
186
330
4D
100
AcDbEntity
  8
1
  6
Continuous
 62
     7
100
AcDbSpline
210
0.0
220
0.0
230
1.0
 70
    11
 71
     3
 72
    75
 73
    71
 74
    69
 42
0.000000001
 43
0.0000000001
 44
0.00000001
 40
0.0
 40
0.0
 40
0.0
 40
0.0
 40
0.5640726466871335
 40
1.130799276533975
 40
1.387286175609865
 40
1.643274612411939
 40
2.002014471026029
 40
2.361110861441053
 40
2.768203548335538
 40
3.175228074547889
 40
3.625301648702648
 40
4.075408781855406
 40
4.560205253517982
 40
5.045003483360472
 40
5.554033718764186
 40
6.063068955233733
 40
6.584538672010654
 40
7.106009357219724
 40
7.627480123253879
 40
8.148949731390523
 40
8.657984442287967
 40
9.167015286289415
 40
9.651815927804359
 40
10.13660968424786
 40
10.58670665856377
 40
11.03679151809354
 40
11.44385627149995
 40
11.85090457583864
 40
12.20984944019699
 40
12.56875546239435
 40
12.87932948473842
 40
13.18985187410892
 40
13.45915017641174
 40
13.72816751033757
 40
13.9726520270432
 40
14.21682625114615
 40
14.46100047524945
 40
14.70548499195445
 40
14.97450232587632
 40
15.243800628184
 40
15.5543230175785
 40
15.86489703989705
 40
16.22380306196956
 40
16.58274792645708
 40
16.98979623139364
 40
17.3968609841937
 40
17.84694584105479
 40
18.29704281805317
 40
18.78183658576372
 40
19.26663721601579
 40
19.77566801470979
 40
20.28470277072966
 40
20.80617255313401
 40
21.32764314616462
 40
21.849113189169
 40
22.37058354132686
 40
22.8834273533703
 40
23.39626535507901
 40
23.877257793764
 40
24.3582433213193
 40
24.80833978811072
 40
25.25842485234098
 40
25.6654874621773
 40
26.07253923730327
 40
26.43149985989304
 40
26.79038496824452
 40
27.1008786453971
 40
27.41150068661642
 40
27.92350782985801
 40
28.43476883894976
 40
28.43476883894976
 40
28.43476883894976
 40
28.43476883894976
 10
120.544836917368
 20
381.5559204270421
 30
0.0
 10
120.5707600459041
 20
381.3670785487386
 30
0.0
 10
120.6227282612446
 20
380.9885062818375
 30
0.0
 10
120.9018551796866
 20
380.6013907849341
 30
0.0
 10
121.1513471108655
 20
380.3434697934902
 30
0.0
 10
121.3729909691474
 20
380.1548379536869
 30
0.0
 10
121.6374960878613
 20
379.9660553988409
 30
0.0
 10
121.9603812934569
 20
379.774630508344
 30
0.0
 10
122.3108247769868
 20
379.6003040413067
 30
0.0
 10
122.7000282123309
 20
379.4381023172908
 30
0.0
 10
123.1115126567024
 20
379.2940338876996
 30
0.0
 10
123.5550396649831
 20
379.1652266127879
 30
0.0
 10
124.0156238246211
 20
379.0557180653518
 30
0.0
 10
124.5000924053083
 20
378.9642089963896
 30
0.0
 10
124.9960819251679
 20
378.8927356565728
 30
0.0
 10
125.5067994716979
 20
378.8410927103752
 30
0.0
 10
126.0233309369104
 20
378.8099745829968
 30
0.0
 10
126.5448369384576
 20
378.7996339499257
 30
0.0
 10
127.0663428789177
 20
378.8099755071933
 30
0.0
 10
127.5828741520029
 20
378.8410931524193
 30
0.0
 10
128.0935919878533
 20
378.8927330231553
 30
0.0
 10
128.5895823448323
 20
378.9642074139391
 30
0.0
 10
129.0740491054477
 20
379.0557268130316
 30
0.0
 10
129.5346301424359
 20
379.1652314948603
 30
0.0
 10
129.9781656584295
 20
379.2940059400206
 30
0.0
 10
130.3896626577113
 20
379.4380890514274
 30
0.0
 10
130.7788253369821
 20
379.600387955695
 30
0.0
 10
131.1292427769393
 20
379.7746584092397
 30
0.0
 10
131.4522274539078
 20
379.965824917197
 30
0.0
 10
131.7316640365815
 20
380.1652876482378
 30
0.0
 10
131.9785524735184
 20
380.3800059666728
 30
0.0
 10
132.179361379181
 20
380.5996766048972
 30
0.0
 10
132.341877708341
 20
380.8323028972854
 30
0.0
 10
132.4578109491937
 20
381.0675168059478
 30
0.0
 10
132.5283004056133
 20
381.3113446873872
 30
0.0
 10
132.5530999080027
 20
381.5559204270423
 30
0.0
 10
132.5283004056108
 20
381.8004961666969
 30
0.0
 10
132.4578109491934
 20
382.0443240481351
 30
0.0
 10
132.3418777083476
 20
382.2795379568009
 30
0.0
 10
132.1793613791793
 20
382.5121642491948
 30
0.0
 10
131.9785524734965
 20
382.7318348874023
 30
0.0
 10
131.7316640366019
 20
382.9465532058175
 30
0.0
 10
131.4522274539821
 20
383.1460159369223
 30
0.0
 10
131.1292427768139
 20
383.337182444948
 30
0.0
 10
130.7788253367175
 20
383.5114528983013
 30
0.0
 10
130.3896626583353
 20
383.6737518023483
 30
0.0
 10
129.9781656594027
 20
383.8178349141726
 30
0.0
 10
129.5346301396719
 20
383.9466093599935
 30
0.0
 10
129.0740491017427
 20
384.0561140417018
 30
0.0
 10
128.5895823562055
 20
384.1476334390587
 30
0.0
 10
128.0935920019156
 20
384.2191078242504
 30
0.0
 10
127.5828741094382
 20
384.2707476986375
 30
0.0
 10
127.0663428203295
 20
384.301865387171
 30
0.0
 10
126.544837104858
 20
384.3122069431524
 30
0.0
 10
126.0233311146489
 20
384.3018660641
 30
0.0
 10
125.5055322760849
 20
384.2706716046111
 30
0.0
 10
124.9922933169515
 20
384.2186971645719
 30
0.0
 10
124.4950782561889
 20
384.1467983187854
 30
0.0
 10
124.0119100011668
 20
384.0552618885176
 30
0.0
 10
123.5538238425189
 20
383.9462576683036
 30
0.0
 10
123.1115101007943
 20
383.8178277621647
 30
0.0
 10
122.7000151429155
 20
383.6737467343123
 30
0.0
 10
122.3108356030817
 20
383.5114776429701
 30
0.0
 10
121.9604289322085
 20
383.337196828088
 30
0.0
 10
121.6374485425126
 20
383.1459402901989
 30
0.0
 10
121.3581867462988
 20
382.9465359001184
 30
0.0
 10
121.1105870665885
 20
382.7319954273086
 30
0.0
 10
120.8574073969927
 20
382.452505049888
 30
0.0
 10
120.6080125519521
 20
382.0696938669497
 30
0.0
 10
120.5658852266574
 20
381.7270949690022
 30
0.0
 10
120.544836917368
 20
381.5559204270421
 30
0.0
 11
120.544836917368
 21
381.5559204270421
 31
0.0
 11
120.666288688678
 21
381.0050779593328
 31
0.0
 11
120.9759726507649
 21
380.530446613654
 31
0.0
 11
121.1544438143166
 21
380.3462359380078
 31
0.0
 11
121.3486844946613
 21
380.1795007054455
 31
0.0
 11
121.64016242153
 21
379.9703717877996
 31
0.0
 11
121.948570258654
 21
379.7864293415011
 31
0.0
 11
122.3127105481553
 21
379.6044230085095
 31
0.0
 11
122.6881112592487
 21
379.4471230687852
 31
0.0
 11
123.1127306594949
 21
379.2979098418556
 31
0.0
 11
123.5448369173679
 21
379.171891536697
 31
0.0
 11
124.0164049702965
 21
379.0594140259988
 31
0.0
 11
124.4927160574139
 21
378.9690975160651
 31
0.0
 11
124.9965143039933
 21
378.8963025484043
 31
0.0
 11
125.5029478513664
 21
378.8449028005877
 31
0.0
 11
126.023469910933
 21
378.8134790670799
 31
0.0
 11
126.5448369173678
 21
378.803080983849
 31
0.0
 11
127.0662039908144
 21
378.8134797601978
 31
0.0
 11
127.5867259833695
 21
378.8449028005878
 31
0.0
 11
128.0931592068057
 21
378.896300534837
 31
0.0
 11
128.596957777322
 21
378.9690975160652
 31
0.0
 11
129.0732700126685
 21
379.0594209153513
 31
0.0
 11
129.5448369173679
 21
379.1718915366971
 31
0.0
 11
129.9769393206071
 21
379.2978867723001
 31
0.0
 11
130.4015625754872
 21
379.4471230687853
 31
0.0
 11
130.7769757206873
 21
379.6044974119239
 31
0.0
 11
131.1411035760817
 21
379.7864293415012
 31
0.0
 11
131.4494727860719
 21
379.9701406530569
 31
0.0
 11
131.7409893400745
 21
380.1795007054455
 31
0.0
 11
131.9744658236098
 21
380.3843053807299
 31
0.0
 11
132.1829926420833
 21
380.6143938861287
 31
0.0
 11
132.3360905189965
 21
380.8359398536998
 31
0.0
 11
132.453683435441
 21
381.077894874322
 31
0.0
 11
132.5210887818444
 21
381.3129038065643
 31
0.0
 11
132.5448369173678
 21
381.5559204270422
 31
0.0
 11
132.5210887818425
 21
381.7989370475202
 31
0.0
 11
132.4536834354411
 21
382.0339459797623
 31
0.0
 11
132.3360905190028
 21
382.275901000383
 31
0.0
 11
132.1829926420833
 21
382.4974469679557
 31
0.0
 11
131.9744658235811
 21
382.7275354733606
 31
0.0
 11
131.7409893400745
 21
382.9323401486387
 31
0.0
 11
131.4494727862046
 21
383.1417002009979
 31
0.0
 11
131.1411035760817
 21
383.3254115125831
 31
0.0
 11
130.7769757200859
 21
383.507343442294
 31
0.0
 11
130.4015625754873
 21
383.664717785299
 31
0.0
 11
129.9769393232312
 21
383.8139540812013
 31
0.0
 11
129.544836917368
 21
383.9399493173872
 31
0.0
 11
129.0732700016684
 21
384.0524199411771
 31
0.0
 11
128.596957777322
 21
384.1427433380193
 31
0.0
 11
128.0931592511598
 21
384.215540309393
 31
0.0
 11
127.5867259833695
 21
384.2669380534966
 31
0.0
 11
127.06620381854
 21
384.2983611321619
 31
0.0
 11
126.5448369173679
 21
384.3087598702353
 31
0.0
 11
126.0234705561244
 21
384.2983616436586
 31
0.0
 11
125.5029478513664
 21
384.2669380534967
 31
0.0
 11
124.9927332345569
 21
384.2150745754201
 31
0.0
 11
124.4852029683356
 21
384.1414821513263
 31
0.0
 11
124.0126787953283
 21
384.0516231950973
 31
0.0
 11
123.5448369173679
 21
383.9399493173872
 31
0.0
 11
123.1127365610145
 21
383.8139488750464
 31
0.0
 11
122.6881112592487
 21
383.664717785299
 31
0.0
 11
122.3126923375518
 21
383.5073627677514
 31
0.0
 11
121.9485702586539
 21
383.3254115125831
 31
0.0
 11
121.6402188112326
 21
383.1416396067172
 31
0.0
 11
121.3486844946613
 21
382.9323401486388
 31
0.0
 11
121.1151544487429
 21
382.7277184463089
 31
0.0
 11
120.9066811926525
 21
382.4974469679556
 31
0.0
 11
120.6452252513123
 21
382.0572287227889
 31
0.0
 11
120.544836917368
 21
381.5559204270421
 31
0.0
  0
SPLINE
  5
187
330
4D
100
AcDbEntity
  8
1
  6
Continuous
 62
     7
100
AcDbSpline
210
0.0
220
0.0
230
1.0
 70
    11
 71
     3
 72
    75
 73
    71
 74
    69
 42
0.000000001
 43
0.0000000001
 44
0.00000001
 40
0.0
 40
0.0
 40
0.0
 40
0.0
 40
0.8400587655889556
 40
1.680178480190007
 40
2.117385743935826
 40
2.55462358627862
 40
3.008791686806443
 40
3.462987120119614
 40
3.935711173452153
 40
4.408461484611045
 40
4.899048315181863
 40
5.389652077008635
 40
5.895427911915169
 40
6.401215977756352
 40
6.917979533547157
 40
7.434749836098441
 40
7.95726697715666
 40
8.479786374626494
 40
9.002305761172844
 40
9.524822912194047
 40
10.04159326330841
 40
10.55835677388996
 40
11.06414468549795
 40
11.56992065989482
 40
12.06052486461175
 40
12.55111131309238
 40
13.02386050625375
 40
13.49658542786806
 40
13.95078297880889
 40
14.40494995238098
 40
14.84218749799186
 40
15.27939124663011
 40
15.70360262544572
 40
16.12778535212578
 40
16.54489441625768
 40
16.9619918817794
 40
17.37908934730105
 40
17.79619841143306
 40
18.22038113811312
 40
18.6445925169287
 40
19.08179626556699
 40
19.51903381117781
 40
19.97320078474989
 40
20.42739833569079
 40
20.90012325730506
 40
21.37287245046643
 40
21.86345889894711
 40
22.35406310366407
 40
22.8598390780609
 40
23.36562698966891
 40
23.88239050025043
 40
24.39916085136481
 40
24.92167800238602
 40
25.44419738893236
 40
25.96671678640219
 40
26.48923392746042
 40
27.00600423001173
 40
27.52276778580251
 40
28.02855585164371
 40
28.53433168655021
 40
29.02493544837704
 40
29.51552227894788
 40
29.98827259010674
 40
30.46099664343929
 40
30.9151920767525
 40
31.36936017728033
 40
31.80659801962308
 40
32.24380528336886
 40
33.0839249979699
 40
33.92398376355903
 40
33.92398376355903
 40
33.92398376355903
 40
33.92398376355903
 10
132.5448369173681
 20
258.6274336283187
 30
0.0
 10
132.526753606002
 20
258.9079833230987
 30
0.0
 10
132.4905856772745
 20
259.4691030678979
 30
0.0
 10
132.2511121280648
 20
260.1423474755425
 30
0.0
 10
131.9872238693677
 20
260.6494930770102
 30
0.0
 10
131.7433724695123
 20
261.0202394209478
 30
0.0
 10
131.4619549244092
 20
261.3702998175624
 30
0.0
 10
131.141312208934
 20
261.7015041422226
 30
0.0
 10
130.787989668584
 20
262.0071119086612
 30
0.0
 10
130.4002470417383
 20
262.2887370238311
 30
0.0
 10
129.9857397671864
 20
262.5408956779734
 30
0.0
 10
129.5428735719629
 20
262.7645558026315
 30
0.0
 10
129.0795895196534
 20
262.9557977485262
 30
0.0
 10
128.5951506518135
 20
263.1148759594057
 30
0.0
 10
128.096940460403
 20
263.2394659237569
 30
0.0
 10
127.5856673387743
 20
263.3293173278601
 30
0.0
 10
127.0674606836528
 20
263.383448276398
 30
0.0
 10
126.5448369305092
 20
263.401512988358
 30
0.0
 10
126.0222131747832
 20
263.3834482596528
 30
0.0
 10
125.504006504359
 20
263.3293173157873
 30
0.0
 10
124.9927333672646
 20
263.2394659829731
 30
0.0
 10
124.4945232192607
 20
263.1148760159318
 30
0.0
 10
124.0100844713072
 20
262.9557975246637
 30
0.0
 10
123.5468002510397
 20
262.764555586169
 30
0.0
 10
123.1039336001706
 20
262.5408965271469
 30
0.0
 10
122.6894261805724
 20
262.2887377154837
 30
0.0
 10
122.3016881505812
 20
262.0071091824285
 30
0.0
 10
121.9483583229319
 20
261.7015013299759
 30
0.0
 10
121.627726177156
 20
261.370311430799
 30
0.0
 10
121.3462262258479
 20
261.020236357584
 30
0.0
 10
121.1027311050149
 20
260.6494944128031
 30
0.0
 10
120.9017282475457
 20
260.2652470257373
 30
0.0
 10
120.743092097943
 20
259.8663378625261
 30
0.0
 10
120.6290352362559
 20
259.4593619398925
 30
0.0
 10
120.5602932703835
 20
259.044736504139
 30
0.0
 10
120.5371088633113
 20
258.6274336283187
 30
0.0
 10
120.5602932703836
 20
258.2101307524983
 30
0.0
 10
120.6290352362559
 20
257.7955053167448
 30
0.0
 10
120.7430920979429
 20
257.3885293941112
 30
0.0
 10
120.9017282475457
 20
256.9896202309001
 30
0.0
 10
121.1027311050149
 20
256.6053728438342
 30
0.0
 10
121.3462262258479
 20
256.2346308990534
 30
0.0
 10
121.627726177156
 20
255.8845558258383
 30
0.0
 10
121.9483583229318
 20
255.5533659266613
 30
0.0
 10
122.301688150581
 20
255.2477580742088
 30
0.0
 10
122.6894261805724
 20
254.9661295411536
 30
0.0
 10
123.1039336001706
 20
254.7139707294904
 30
0.0
 10
123.5468002510397
 20
254.4903116704683
 30
0.0
 10
124.0100844713072
 20
254.2990697319735
 30
0.0
 10
124.4945232192607
 20
254.1399912407055
 30
0.0
 10
124.9927333672646
 20
254.0154012736642
 30
0.0
 10
125.504006504359
 20
253.9255499408501
 30
0.0
 10
126.0222131747832
 20
253.8714189969843
 30
0.0
 10
126.5448369305092
 20
253.8533542682792
 30
0.0
 10
127.0674606836528
 20
253.8714189802393
 30
0.0
 10
127.5856673387743
 20
253.9255499287769
 30
0.0
 10
128.0969404604029
 20
254.0154013328805
 30
0.0
 10
128.5951506518135
 20
254.1399912972315
 30
0.0
 10
129.0795895196534
 20
254.2990695081112
 30
0.0
 10
129.5428735719629
 20
254.4903114540056
 30
0.0
 10
129.9857397671863
 20
254.713971578664
 30
0.0
 10
130.4002470417383
 20
254.9661302328063
 30
0.0
 10
130.787989668584
 20
255.2477553479762
 30
0.0
 10
131.141312208934
 20
255.5533631144148
 30
0.0
 10
131.4619549244092
 20
255.8845674390749
 30
0.0
 10
131.7433724695123
 20
256.2346278356895
 30
0.0
 10
131.9872238693677
 20
256.6053741796271
 30
0.0
 10
132.2511121280649
 20
257.1125197810946
 30
0.0
 10
132.4905856772745
 20
257.7857641887396
 30
0.0
 10
132.526753606002
 20
258.3468839335386
 30
0.0
 10
132.5448369173681
 20
258.6274336283187
 30
0.0
 11
132.5448369173681
 21
258.6274336283187
 31
0.0
 11
132.4521252608094
 21
259.4623607466824
 31
0.0
 11
132.1829926420836
 21
260.2582054338553
 31
0.0
 11
131.9807518886997
 21
260.6458249236616
 31
0.0
 11
131.7409893400749
 21
261.0114625186637
 31
0.0
 11
131.4567315076896
 21
261.365674528814
 31
0.0
 11
131.1411035760821
 21
261.6922820920158
 31
0.0
 11
130.7838431751196
 21
262.0018512061642
 31
0.0
 11
130.4015625754874
 21
262.2799777956866
 31
0.0
 11
129.9826196588042
 21
262.5352468123316
 31
0.0
 11
129.5448369173683
 21
262.7566927931083
 31
0.0
 11
129.077427863038
 21
262.9499231507104
 31
0.0
 11
128.5969577773222
 21
263.107942340314
 31
0.0
 11
128.0956726166158
 21
263.2334722581066
 31
0.0
 11
127.5867259833698
 21
263.3230538975525
 31
0.0
 11
127.0670431656641
 21
263.3774039822611
 31
0.0
 11
126.5448369173683
 21
263.3954914090089
 31
0.0
 11
126.0226306804351
 21
263.3774039695846
 31
0.0
 11
125.5029478513667
 21
263.3230538975525
 31
0.0
 11
124.9940011621819
 21
263.2334722955777
 31
0.0
 11
124.4927160574142
 21
263.107942340314
 31
0.0
 11
124.0122461778136
 21
262.9499230174654
 31
0.0
 11
123.5448369173682
 21
262.7566927931083
 31
0.0
 11
123.1070534391845
 21
262.5352472873986
 31
0.0
 11
122.6881112592491
 21
262.2799777956866
 31
0.0
 11
122.3058332632414
 21
262.0018495276108
 31
0.0
 11
121.9485702586544
 21
261.6922820920157
 31
0.0
 11
121.6329331723047
 21
261.3656804307878
 31
0.0
 11
121.3486844946617
 21
261.0114625186637
 31
0.0
 11
121.1089542071879
 21
260.645804125229
 31
0.0
 11
120.9066811926529
 21
260.2582054338554
 31
0.0
 11
120.7501449464813
 21
259.8639318008385
 31
0.0
 11
120.6359903992951
 21
259.4553981729461
 31
0.0
 11
120.5678212897955
 21
259.0438973296423
 31
0.0
 11
120.5448369173683
 21
258.6274336283187
 31
0.0
 11
120.5678212897955
 21
258.2109699269951
 31
0.0
 11
120.635990399295
 21
257.7994690836912
 31
0.0
 11
120.7501449464813
 21
257.3909354557988
 31
0.0
 11
120.9066811926529
 21
256.996661822782
 31
0.0
 11
121.1089542071879
 21
256.6090631314083
 31
0.0
 11
121.3486844946617
 21
256.2434047379736
 31
0.0
 11
121.6329331723046
 21
255.8891868258495
 31
0.0
 11
121.9485702586544
 21
255.5625851646215
 31
0.0
 11
122.3058332632413
 21
255.2530177290265
 31
0.0
 11
122.688111259249
 21
254.9748894609507
 31
0.0
 11
123.1070534391845
 21
254.7196199692387
 31
0.0
 11
123.5448369173682
 21
254.4981744635289
 31
0.0
 11
124.0122461778136
 21
254.3049442391719
 31
0.0
 11
124.4927160574142
 21
254.1469249163233
 31
0.0
 11
124.9940011621819
 21
254.0213949610597
 31
0.0
 11
125.5029478513667
 21
253.9318133590848
 31
0.0
 11
126.0226306804351
 21
253.8774632870526
 31
0.0
 11
126.5448369173683
 21
253.8593758476284
 31
0.0
 11
127.0670431656641
 21
253.8774632743762
 31
0.0
 11
127.5867259833698
 21
253.9318133590847
 31
0.0
 11
128.0956726166158
 21
254.0213949985307
 31
0.0
 11
128.5969577773222
 21
254.1469249163232
 31
0.0
 11
129.077427863038
 21
254.3049441059268
 31
0.0
 11
129.5448369173683
 21
254.4981744635289
 31
0.0
 11
129.9826196588042
 21
254.7196204443057
 31
0.0
 11
130.4015625754874
 21
254.9748894609508
 31
0.0
 11
130.7838431751196
 21
255.2530160504731
 31
0.0
 11
131.1411035760821
 21
255.5625851646215
 31
0.0
 11
131.4567315076896
 21
255.8891927278233
 31
0.0
 11
131.7409893400749
 21
256.2434047379737
 31
0.0
 11
131.9807518886997
 21
256.6090423329757
 31
0.0
 11
132.1829926420837
 21
256.996661822782
 31
0.0
 11
132.4521252608094
 21
257.7925065099549
 31
0.0
 11
132.5448369173681
 21
258.6274336283187
 31
0.0
  0
SPLINE
  5
188
330
4D
100
AcDbEntity
  8
1
  6
Continuous
 62
     7
100
AcDbSpline
210
0.0
220
0.0
230
1.0
 70
    11
 71
     3
 72
    75
 73
    71
 74
    69
 42
0.000000001
 43
0.0000000001
 44
0.00000001
 40
0.0
 40
0.0
 40
0.0
 40
0.0
 40
0.8400587655888991
 40
1.680178480190032
 40
2.117385743935876
 40
2.554623586278669
 40
3.00879168680647
 40
3.46298712011956
 40
3.935711173452117
 40
4.408461484611009
 40
4.899048315181857
 40
5.389652077008667
 40
5.895427911915169
 40
6.401215977756361
 40
6.917979533547138
 40
7.434749836098432
 40
7.957266977156648
 40
8.479786374626482
 40
9.002305761172828
 40
9.52482291219404
 40
10.04159326330839
 40
10.55835677388994
 40
11.06414468549793
 40
11.56992065989476
 40
12.0605248646117
 40
12.55111131309236
 40
13.02386050625371
 40
13.49658542786798
 40
13.9507829788089
 40
14.40494995238097
 40
14.84218749799187
 40
15.27939124663019
 40
15.70360262544581
 40
16.12778535212581
 40
16.54489441625763
 40
16.96199188177937
 40
17.37908934730117
 40
17.79619841143304
 40
18.22038113811304
 40
18.64459251692872
 40
19.08179626556689
 40
19.5190338111778
 40
19.97320078474984
 40
20.4273983356908
 40
20.90012325730505
 40
21.37287245046647
 40
21.86345889894717
 40
22.3540631036641
 40
22.85983907806091
 40
23.36562698966892
 40
23.88239050025045
 40
24.39916085136482
 40
24.92167800238603
 40
25.44419738893236
 40
25.96671678640219
 40
26.48923392746043
 40
27.00600423001173
 40
27.52276778580252
 40
28.02855585164369
 40
28.53433168655018
 40
29.02493544837696
 40
29.51552227894784
 40
29.98827259010669
 40
30.46099664343925
 40
30.9151920767524
 40
31.36936017728025
 40
31.80659801962302
 40
32.24380528336887
 40
33.08392499797005
 40
33.92398376355904
 40
33.92398376355904
 40
33.92398376355904
 40
33.92398376355904
 10
132.5448369173681
 20
247.1274336283186
 30
0.0
 10
132.526753606002
 20
246.8468839335385
 30
0.0
 10
132.4905856772745
 20
246.2857641887396
 30
0.0
 10
132.2511121280648
 20
245.6125197810947
 30
0.0
 10
131.9872238693677
 20
245.1053741796271
 30
0.0
 10
131.7433724695123
 20
244.7346278356894
 30
0.0
 10
131.4619549244092
 20
244.3845674390749
 30
0.0
 10
131.141312208934
 20
244.0533631144149
 30
0.0
 10
130.7879896685841
 20
243.7477553479762
 30
0.0
 10
130.4002470417383
 20
243.4661302328064
 30
0.0
 10
129.9857397671864
 20
243.2139715786639
 30
0.0
 10
129.5428735719629
 20
242.9903114540058
 30
0.0
 10
129.0795895196533
 20
242.7990695081112
 30
0.0
 10
128.5951506518135
 20
242.6399912972317
 30
0.0
 10
128.0969404604029
 20
242.5154013328805
 30
0.0
 10
127.5856673387743
 20
242.4255499287773
 30
0.0
 10
127.0674606836528
 20
242.3714189802394
 30
0.0
 10
126.5448369305092
 20
242.3533542682794
 30
0.0
 10
126.0222131747832
 20
242.3714189969843
 30
0.0
 10
125.504006504359
 20
242.4255499408501
 30
0.0
 10
124.9927333672646
 20
242.5154012736642
 30
0.0
 10
124.4945232192607
 20
242.6399912407056
 30
0.0
 10
124.0100844713072
 20
242.7990697319736
 30
0.0
 10
123.5468002510397
 20
242.9903116704683
 30
0.0
 10
123.1039336001706
 20
243.2139707294904
 30
0.0
 10
122.6894261805724
 20
243.4661295411535
 30
0.0
 10
122.3016881505812
 20
243.7477580742089
 30
0.0
 10
121.9483583229318
 20
244.0533659266612
 30
0.0
 10
121.6277261771561
 20
244.3845558258383
 30
0.0
 10
121.3462262258479
 20
244.7346308990533
 30
0.0
 10
121.1027311050149
 20
245.1053728438342
 30
0.0
 10
120.9017282475457
 20
245.4896202309002
 30
0.0
 10
120.743092097943
 20
245.8885293941113
 30
0.0
 10
120.629035236256
 20
246.2955053167449
 30
0.0
 10
120.5602932703836
 20
246.7101307524983
 30
0.0
 10
120.5371088633113
 20
247.1274336283187
 30
0.0
 10
120.5602932703836
 20
247.5447365041391
 30
0.0
 10
120.6290352362559
 20
247.9593619398925
 30
0.0
 10
120.743092097943
 20
248.3663378625261
 30
0.0
 10
120.9017282475456
 20
248.7652470257372
 30
0.0
 10
121.102731105015
 20
249.1494944128031
 30
0.0
 10
121.3462262258478
 20
249.520236357584
 30
0.0
 10
121.627726177156
 20
249.870311430799
 30
0.0
 10
121.9483583229317
 20
250.2015013299761
 30
0.0
 10
122.3016881505811
 20
250.5071091824286
 30
0.0
 10
122.6894261805724
 20
250.7887377154837
 30
0.0
 10
123.1039336001705
 20
251.0408965271471
 30
0.0
 10
123.5468002510397
 20
251.2645555861691
 30
0.0
 10
124.0100844713072
 20
251.4557975246638
 30
0.0
 10
124.4945232192607
 20
251.6148760159319
 30
0.0
 10
124.9927333672646
 20
251.7394659829732
 30
0.0
 10
125.504006504359
 20
251.8293173157872
 30
0.0
 10
126.0222131747832
 20
251.8834482596529
 30
0.0
 10
126.5448369305092
 20
251.901512988358
 30
0.0
 10
127.0674606836528
 20
251.8834482763982
 30
0.0
 10
127.5856673387743
 20
251.8293173278601
 30
0.0
 10
128.0969404604029
 20
251.7394659237569
 30
0.0
 10
128.5951506518135
 20
251.6148759594056
 30
0.0
 10
129.0795895196534
 20
251.4557977485262
 30
0.0
 10
129.5428735719629
 20
251.2645558026316
 30
0.0
 10
129.9857397671864
 20
251.0408956779735
 30
0.0
 10
130.4002470417382
 20
250.788737023831
 30
0.0
 10
130.7879896685841
 20
250.5071119086612
 30
0.0
 10
131.141312208934
 20
250.2015041422226
 30
0.0
 10
131.4619549244092
 20
249.8702998175625
 30
0.0
 10
131.7433724695123
 20
249.5202394209479
 30
0.0
 10
131.9872238693678
 20
249.1494930770102
 30
0.0
 10
132.2511121280649
 20
248.6423474755427
 30
0.0
 10
132.4905856772744
 20
247.9691030678976
 30
0.0
 10
132.526753606002
 20
247.4079833230988
 30
0.0
 10
132.5448369173681
 20
247.1274336283186
 30
0.0
 11
132.5448369173681
 21
247.1274336283186
 31
0.0
 11
132.4521252608094
 21
246.292506509955
 31
0.0
 11
132.1829926420836
 21
245.496661822782
 31
0.0
 11
131.9807518886997
 21
245.1090423329757
 31
0.0
 11
131.7409893400749
 21
244.7434047379735
 31
0.0
 11
131.4567315076896
 21
244.3891927278233
 31
0.0
 11
131.1411035760821
 21
244.0625851646216
 31
0.0
 11
130.7838431751196
 21
243.7530160504731
 31
0.0
 11
130.4015625754874
 21
243.4748894609508
 31
0.0
 11
129.9826196588042
 21
243.2196204443057
 31
0.0
 11
129.5448369173683
 21
242.998174463529
 31
0.0
 11
129.077427863038
 21
242.8049441059269
 31
0.0
 11
128.5969577773222
 21
242.6469249163233
 31
0.0
 11
128.0956726166158
 21
242.5213949985308
 31
0.0
 11
127.5867259833698
 21
242.4318133590849
 31
0.0
 11
127.0670431656641
 21
242.3774632743764
 31
0.0
 11
126.5448369173683
 21
242.3593758476285
 31
0.0
 11
126.0226306804351
 21
242.3774632870527
 31
0.0
 11
125.5029478513667
 21
242.4318133590849
 31
0.0
 11
124.9940011621819
 21
242.5213949610597
 31
0.0
 11
124.4927160574142
 21
242.6469249163234
 31
0.0
 11
124.0122461778136
 21
242.804944239172
 31
0.0
 11
123.5448369173682
 21
242.9981744635289
 31
0.0
 11
123.1070534391845
 21
243.2196199692387
 31
0.0
 11
122.6881112592491
 21
243.4748894609507
 31
0.0
 11
122.3058332632414
 21
243.7530177290265
 31
0.0
 11
121.9485702586544
 21
244.0625851646215
 31
0.0
 11
121.6329331723047
 21
244.3891868258495
 31
0.0
 11
121.3486844946617
 21
244.7434047379736
 31
0.0
 11
121.1089542071879
 21
245.1090631314083
 31
0.0
 11
120.9066811926529
 21
245.4966618227821
 31
0.0
 11
120.7501449464813
 21
245.8909354557989
 31
0.0
 11
120.6359903992951
 21
246.2994690836913
 31
0.0
 11
120.5678212897955
 21
246.710969926995
 31
0.0
 11
120.5448369173683
 21
247.1274336283186
 31
0.0
 11
120.5678212897955
 21
247.5438973296423
 31
0.0
 11
120.635990399295
 21
247.9553981729461
 31
0.0
 11
120.7501449464813
 21
248.3639318008385
 31
0.0
 11
120.9066811926529
 21
248.7582054338554
 31
0.0
 11
121.1089542071879
 21
249.1458041252289
 31
0.0
 11
121.3486844946617
 21
249.5114625186637
 31
0.0
 11
121.6329331723046
 21
249.8656804307878
 31
0.0
 11
121.9485702586544
 21
250.1922820920158
 31
0.0
 11
122.3058332632413
 21
250.5018495276108
 31
0.0
 11
122.688111259249
 21
250.7799777956867
 31
0.0
 11
123.1070534391845
 21
251.0352472873988
 31
0.0
 11
123.5448369173682
 21
251.2566927931085
 31
0.0
 11
124.0122461778136
 21
251.4499230174654
 31
0.0
 11
124.4927160574142
 21
251.607942340314
 31
0.0
 11
124.9940011621819
 21
251.7334722955777
 31
0.0
 11
125.5029478513667
 21
251.8230538975525
 31
0.0
 11
126.0226306804351
 21
251.8774039695847
 31
0.0
 11
126.5448369173683
 21
251.8954914090089
 31
0.0
 11
127.0670431656641
 21
251.8774039822611
 31
0.0
 11
127.5867259833698
 21
251.8230538975525
 31
0.0
 11
128.0956726166158
 21
251.7334722581066
 31
0.0
 11
128.5969577773222
 21
251.607942340314
 31
0.0
 11
129.077427863038
 21
251.4499231507105
 31
0.0
 11
129.5448369173683
 21
251.2566927931084
 31
0.0
 11
129.9826196588042
 21
251.0352468123318
 31
0.0
 11
130.4015625754874
 21
250.7799777956866
 31
0.0
 11
130.7838431751196
 21
250.5018512061643
 31
0.0
 11
131.1411035760821
 21
250.1922820920159
 31
0.0
 11
131.4567315076896
 21
249.8656745288141
 31
0.0
 11
131.7409893400749
 21
249.5114625186638
 31
0.0
 11
131.9807518886997
 21
249.1458249236617
 31
0.0
 11
132.1829926420837
 21
248.7582054338554
 31
0.0
 11
132.4521252608094
 21
247.9623607466824
 31
0.0
 11
132.5448369173681
 21
247.1274336283186
 31
0.0
  0
ENDBLK
  5
4F
330
4D
100
AcDbEntity
  8
0
100
AcDbBlockEnd
  0
BLOCK
  5
51
330
50
100
AcDbEntity
  8
0
100
AcDbBlockBegin
  2
37-1-13
 70
     0
 10
229.024994378546
 20
275.7874006827381
 30
0.0
  3
37-1-13
  1

  0
LINE
  5
189
330
50
100
AcDbEntity
  8
1
  6
Continuous
 62
     7
100
AcDbLine
 10
258.044836917368
 20
292.3774336283187
 30
0.0
 11
252.044836917368
 21
292.3774336283187
 31
0.0
  0
LINE
  5
18A
330
50
100
AcDbEntity
  8
1
  6
Continuous
 62
     7
100
AcDbLine
 10
264.044836917368
 20
292.3774336283187
 30
0.0
 11
258.044836917368
 21
292.3774336283187
 31
0.0
  0
LINE
  5
18B
330
50
100
AcDbEntity
  8
1
  6
Continuous
 62
     7
100
AcDbLine
 10
271.1155511316395
 20
278.3774336283187
 30
0.0
 11
257.4227111870366
 21
278.3774336283187
 31
0.0
  0
LINE
  5
18C
330
50
100
AcDbEntity
  8
1
  6
Continuous
 62
     7
100
AcDbLine
 10
258.6669626476988
 20
278.3774336283187
 30
0.0
 11
244.9741227030966
 21
278.3774336283187
 31
0.0
  0
LINE
  5
18D
330
50
100
AcDbEntity
  8
1
  6
Continuous
 62
     7
100
AcDbLine
 10
169.044836917368
 20
285.4481478425901
 30
0.0
 11
169.044836917368
 21
278.3774336283187
 31
0.0
  0
LINE
  5
18E
330
50
100
AcDbEntity
  8
1
  6
Continuous
 62
     7
100
AcDbLine
 10
169.044836917368
 20
278.3774336283187
 30
0.0
 11
156.044836917368
 21
278.3774336283187
 31
0.0
  0
LINE
  5
18F
330
50
100
AcDbEntity
  8
1
  6
Continuous
 62
     7
100
AcDbLine
 10
156.044836917368
 20
278.3774336283187
 30
0.0
 11
143.044836917368
 21
278.3774336283187
 31
0.0
  0
LINE
  5
190
330
50
100
AcDbEntity
  8
1
  6
Continuous
 62
     7
100
AcDbLine
 10
162.044836917368
 20
292.3774336283187
 30
0.0
 11
150.044836917368
 21
292.3774336283187
 31
0.0
  0
LINE
  5
191
330
50
100
AcDbEntity
  8
1
  6
Continuous
 62
     7
100
AcDbLine
 10
143.044836917368
 20
285.4481478425901
 30
0.0
 11
143.044836917368
 21
278.3774336283187
 31
0.0
  0
ARC
  5
192
330
50
100
AcDbEntity
  8
1
  6
Continuous
 62
     7
100
AcDbCircle
 10
232.1383817122531
 20
305.7838888334336
 30
0.0
 40
23.99999999999999
100
AcDbArc
 50
303.9591925000977
 51
326.0408074999025
  0
ARC
  5
193
330
50
100
AcDbEntity
  8
1
  6
Continuous
 62
     7
100
AcDbCircle
 10
283.9512921224829
 20
305.7838888334333
 30
0.0
 40
23.99999999999981
100
AcDbArc
 50
213.9591925000968
 51
236.0408074999016
  0
ARC
  5
194
330
50
100
AcDbEntity
  8
1
  6
Continuous
 62
     7
100
AcDbCircle
 10
267.544836917368
 20
281.8774336283187
 30
0.0
 40
5.000000000000057
100
AcDbArc
 50
315.572995999195
 51
53.13010235415806
  0
ARC
  5
195
330
50
100
AcDbEntity
  8
1
  6
Continuous
 62
     7
100
AcDbCircle
 10
248.544836917368
 20
281.8774336283187
 30
0.0
 40
4.999999999999948
100
AcDbArc
 50
126.8698976458433
 51
224.427004000806
  0
ARC
  5
196
330
50
100
AcDbEntity
  8
1
  6
Continuous
 62
     7
100
AcDbCircle
 10
181.9512921224828
 20
305.7838888334337
 30
0.0
 40
23.99999999999994
100
AcDbArc
 50
213.9591925000977
 51
236.0408074999023
  0
ARC
  5
197
330
50
100
AcDbEntity
  8
1
  6
Continuous
 62
     7
100
AcDbCircle
 10
165.544836917368
 20
281.8774336283187
 30
0.0
 40
4.999999999999975
100
AcDbArc
 50
45.57299599919402
 51
53.1301023541582
  0
ARC
  5
198
330
50
100
AcDbEntity
  8
1
  6
Continuous
 62
     7
100
AcDbCircle
 10
130.1383817122531
 20
305.7838888334337
 30
0.0
 40
24.00000000000003
100
AcDbArc
 50
303.9591925000976
 51
326.0408074999024
  0
ARC
  5
199
330
50
100
AcDbEntity
  8
1
  6
Continuous
 62
     7
100
AcDbCircle
 10
146.544836917368
 20
281.8774336283187
 30
0.0
 40
4.999999999999995
100
AcDbArc
 50
126.8698976458428
 51
134.427004000806
  0
SPLINE
  5
19A
330
50
100
AcDbEntity
  8
1
  6
Continuous
 62
     7
100
AcDbSpline
210
0.0
220
0.0
230
1.0
 70
     8
 71
     3
 72
    29
 73
    25
 74
    23
 42
0.000000001
 43
0.0000000001
 44
0.00000001
 40
0.0
 40
0.0
 40
0.0
 40
0.0
 40
0.6069077071336093
 40
1.212222618922257
 40
1.842666699981207
 40
2.474631891987942
 40
3.102420163135123
 40
3.729333881624612
 40
4.271042929453291
 40
4.812985317241441
 40
5.340107969104308
 40
5.866248914949137
 40
6.263874824440723
 40
6.66148522272714
 40
7.280966483141442
 40
7.902596723210412
 40
8.549168899023059
 40
9.195896755585137
 40
9.722415956712096
 40
10.24911839923923
 40
11.07897535377106
 40
11.90732205839689
 40
12.67331707894482
 40
13.44191268485704
 40
13.44191268485704
 40
13.44191268485704
 40
13.44191268485704
 10
258.044836917368
 20
285.3774336283187
 30
0.0
 10
257.8427770898222
 20
285.3675582549547
 30
0.0
 10
257.4391877301451
 20
285.347833413742
 30
0.0
 10
256.8274821820611
 20
285.2840430655207
 30
0.0
 10
256.218065120919
 20
285.1498597677801
 30
0.0
 10
255.6196589459408
 20
284.9494041482537
 30
0.0
 10
255.0450964144671
 20
284.6908430320233
 30
0.0
 10
254.5301986170986
 20
284.3819136429191
 30
0.0
 10
254.0811797433426
 20
284.0280967189744
 30
0.0
 10
253.7072381410445
 20
283.6400720514577
 30
0.0
 10
253.4002722397377
 20
283.2031416483825
 30
0.0
 10
253.1929635822981
 20
282.7629276819461
 30
0.0
 10
253.077060994078
 20
282.3362185618935
 30
0.0
 10
253.0263577892005
 20
281.8653031200914
 30
0.0
 10
253.0868141124417
 20
281.3163285278507
 30
0.0
 10
253.2997613440708
 20
280.7185824625287
 30
0.0
 10
253.6469982812231
 20
280.1769802173883
 30
0.0
 10
254.0683560068034
 20
279.7363722499983
 30
0.0
 10
254.5157694967836
 20
279.3864983270289
 30
0.0
 10
255.0516058823288
 20
279.0575879446874
 30
0.0
 10
255.7164969317146
 20
278.7538493242855
 30
0.0
 10
256.4961579923514
 20
278.5290794585688
 30
0.0
 10
257.2785636084556
 20
278.424692659178
 30
0.0
 10
257.7891240746295
 20
278.3932701686721
 30
0.0
 10
258.044836917368
 20
278.3775323044054
 30
0.0
 11
258.044836917368
 21
285.3774336283187
 31
0.0
 11
257.4389508956097
 21
285.3422327625563
 31
0.0
 11
256.8375080761282
 21
285.2738757704721
 31
0.0
 11
256.221616864387
 21
285.1391992846478
 31
0.0
 11
255.6221554028384
 21
284.9391343927027
 31
0.0
 11
255.0504566295184
 21
284.6797531544524
 31
0.0
 11
254.5138914125054
 21
284.3555331996743
 31
0.0
 11
254.0894588737263
 21
284.0189240596933
 31
0.0
 11
253.7147098984457
 21
283.6274336283187
 31
0.0
 11
253.4131540124856
 21
283.1950884671
 31
0.0
 11
253.1911336986518
 21
282.7180860814837
 31
0.0
 11
253.0873729815088
 21
282.334237051354
 31
0.0
 11
253.0456148836881
 21
281.9388255055397
 31
0.0
 11
253.1102084953096
 21
281.3227210513299
 31
0.0
 11
253.3178266654608
 21
280.7367868810532
 31
0.0
 11
253.6631992663158
 21
280.1901852471391
 31
0.0
 11
254.1074733929187
 21
279.7202092670588
 31
0.0
 11
254.5213438116934
 21
279.3947346194878
 31
0.0
 11
254.9693826589175
 21
279.1178291213082
 31
0.0
 11
255.7241433655552
 21
278.7728670331306
 31
0.0
 11
256.5202996759433
 21
278.5441895433841
 31
0.0
 11
257.2783088065429
 21
278.4338694143695
 31
0.0
 11
258.044836917368
 21
278.3775323044054
 31
0.0
  0
SPLINE
  5
19B
330
50
100
AcDbEntity
  8
1
  6
Continuous
 62
     7
100
AcDbSpline
210
0.0
220
0.0
230
1.0
 70
    11
 71
     3
 72
    79
 73
    75
 74
    73
 42
0.000000001
 43
0.0000000001
 44
0.00000001
 40
0.0
 40
0.0
 40
0.0
 40
0.0
 40
0.2811818749863579
 40
0.5623495712813943
 40
0.8457592669520779
 40
1.129143365165256
 40
1.415928739324941
 40
1.702681683282315
 40
1.993553133501539
 40
2.28439031912287
 40
2.579547849718009
 40
2.874673622607534
 40
3.173802904790147
 40
3.472906131352838
 40
3.775234222520014
 40
4.077544012347134
 40
4.381940441904062
 40
4.686327471764546
 40
4.991435878882566
 40
5.296544285989966
 40
5.600931315818932
 40
5.905327745322708
 40
6.207637535075175
 40
6.509965626144822
 40
6.809068852587643
 40
7.108198134625446
 40
7.403323907346083
 40
7.69848143774424
 40
7.989318623140993
 40
8.280190073101325
 40
8.566943016762112
 40
8.853728390570485
 40
9.137112488345313
 40
9.420522183377273
 40
9.701689878273656
 40
9.982871762084994
 40
10.26327085332731
 40
10.54366994456853
 40
10.82485182837667
 40
11.10601952326778
 40
11.38942921829235
 40
11.67281331605781
 40
11.95959868985496
 40
12.24635163350304
 40
12.53722308344896
 40
12.82806026882995
 40
13.12321779921105
 40
13.41834357191353
 40
13.71747285393212
 40
14.01657608035485
 40
14.31890417140361
 40
14.62121396113458
 40
14.92561039061616
 40
15.22999742042222
 40
15.53510582750639
 40
15.84021423460066
 40
16.14460126443711
 40
16.44899769396951
 40
16.75130748377178
 40
17.05363557491361
 40
17.35273880145047
 40
17.65186808360647
 40
17.94699385646831
 40
18.24215138703397
 40
18.53298857262309
 40
18.82386002280481
 40
19.11061296671513
 40
19.39739834080727
 40
19.68078243890351
 40
19.96419213431015
 40
20.24535982966752
 40
20.52654171413627
 40
20.80694080679778
 40
21.08733988923005
 40
21.08733988923005
 40
21.08733988923005
 40
21.08733988923005
 10
247.0665342771923
 20
285.3640517567475
 30
0.0
 10
247.1596318069353
 20
285.3526006422916
 30
0.0
 10
247.3458221726303
 20
285.3296989961154
 30
0.0
 10
247.6200639603391
 20
285.2616617661422
 30
0.0
 10
247.8877949340825
 20
285.1700396700031
 30
0.0
 10
248.147359540121
 20
285.0524287671167
 30
0.0
 10
248.3960978858604
 20
284.9112104713021
 30
0.0
 10
248.6329157756441
 20
284.7463885901171
 30
0.0
 10
248.8551778058041
 20
284.5603112946191
 30
0.0
 10
249.0620365285514
 20
284.3532865191817
 30
0.0
 10
249.2511534815304
 20
284.1280876883524
 30
0.0
 10
249.4218046413926
 20
283.8852228271777
 30
0.0
 10
249.5721244782362
 20
283.6277541310996
 30
0.0
 10
249.7014499328442
 20
283.3564762414117
 30
0.0
 10
249.8084846611039
 20
283.0745230016155
 30
0.0
 10
249.8926331850004
 20
282.7830858189342
 30
0.0
 10
249.9531787153239
 20
282.4851477836291
 30
0.0
 10
249.9896665126912
 20
282.1823820579568
 30
0.0
 10
250.0018937805898
 20
281.8774336379159
 30
0.0
 10
249.9896665130436
 20
281.5724852178656
 30
0.0
 10
249.9531787160284
 20
281.2697194921997
 30
0.0
 10
249.8926331860663
 20
280.9717814568148
 30
0.0
 10
249.8084846625076
 20
280.6803442743368
 30
0.0
 10
249.7014499346927
 20
280.3983910336569
 30
0.0
 10
249.5721244801554
 20
280.1271131470662
 30
0.0
 10
249.4218046448014
 20
279.869644439294
 30
0.0
 10
249.2511534812292
 20
279.6267796209471
 30
0.0
 10
249.0620365438252
 20
279.4015806311805
 30
0.0
 10
248.8551777656415
 20
279.1945564402514
 30
0.0
 10
248.6329159427532
 20
279.0084769796425
 30
0.0
 10
248.3960972919128
 20
278.8436630692573
 30
0.0
 10
248.147361769353
 20
278.7024152282216
 30
0.0
 10
247.8877867484492
 20
278.5849133451094
 30
0.0
 10
247.6200944510072
 20
278.4928864309247
 30
0.0
 10
247.3457094064677
 20
278.426348662006
 30
0.0
 10
247.06721396374
 20
278.3864458933361
 30
0.0
 10
246.7864546890809
 20
278.3729337926102
 30
0.0
 10
246.5056954144219
 20
278.3864458933116
 30
0.0
 10
246.2271999716939
 20
278.4263486619571
 30
0.0
 10
245.952814927154
 20
278.4928864308518
 30
0.0
 10
245.6851226297112
 20
278.584913345012
 30
0.0
 10
245.4255476088069
 20
278.7024152281004
 30
0.0
 10
245.1768120862463
 20
278.843663069112
 30
0.0
 10
244.9399934354047
 20
279.0084769794735
 30
0.0
 10
244.7177316125154
 20
279.1945564400588
 30
0.0
 10
244.5108728343303
 20
279.4015806309643
 30
0.0
 10
244.3217558969251
 20
279.6267796207077
 30
0.0
 10
244.1511047333514
 20
279.8696444390313
 30
0.0
 10
244.0007848979956
 20
280.1271131467806
 30
0.0
 10
243.871459443457
 20
280.3983910333483
 30
0.0
 10
243.7644247156402
 20
280.6803442740052
 30
0.0
 10
243.6802761920797
 20
280.9717814564603
 30
0.0
 10
243.6197306621154
 20
281.2697194918219
 30
0.0
 10
243.5832428650978
 20
281.572485217465
 30
0.0
 10
243.5710155975489
 20
281.8774336374908
 30
0.0
 10
243.583242865444
 20
282.1823820575123
 30
0.0
 10
243.6197306628092
 20
282.4851477831454
 30
0.0
 10
243.680276193122
 20
282.7830858184838
 30
0.0
 10
243.7644247170363
 20
283.0745230009283
 30
0.0
 10
243.8714594452023
 20
283.356476241489
 30
0.0
 10
244.0007849001231
 20
283.6277541282373
 30
0.0
 10
244.151104735764
 20
283.8852228350977
 30
0.0
 10
244.3217559000037
 20
284.1280876564312
 30
0.0
 10
244.5108728366989
 20
284.3532866347082
 30
0.0
 10
244.7177316192761
 20
284.5603108674364
 30
0.0
 10
244.9399934277318
 20
284.7463901726942
 30
0.0
 10
245.1768121335818
 20
284.9112046544134
 30
0.0
 10
245.4255474541936
 20
285.0524503770203
 30
0.0
 10
245.6851232223009
 20
285.1699600762103
 30
0.0
 10
245.9528127473755
 20
285.2619579663923
 30
0.0
 10
246.2272080633284
 20
285.3286032402581
 30
0.0
 10
246.5056652730012
 20
285.3681058105152
 30
0.0
 10
246.7865668642762
 20
285.3831075697331
 30
0.0
 10
246.9732118072434
 20
285.3704036925394
 30
0.0
 10
247.0665342771923
 20
285.3640517567475
 30
0.0
 11
247.0665342771923
 21
285.3640517567475
 31
0.0
 11
247.3448654199649
 21
285.3241139693796
 31
0.0
 11
247.6181439256054
 21
285.2579767550523
 31
0.0
 11
247.8861527721876
 21
285.1658230058022
 31
0.0
 11
248.1443787105769
 21
285.0490929251915
 31
0.0
 11
248.3937692203621
 21
284.9074941103596
 31
0.0
 11
248.6292195709285
 21
284.743816429495
 31
0.0
 11
248.8522748844997
 21
284.5571281128192
 31
0.0
 11
249.0579464358855
 21
284.3514937736454
 31
0.0
 11
249.2478008113654
 21
284.125499782696
 31
0.0
 11
249.4175766305203
 21
283.8840968145474
 31
0.0
 11
249.5684406995938
 21
283.625797840281
 31
0.0
 11
249.697242748274
 21
283.3558482664907
 31
0.0
 11
249.804576700583
 21
283.0732147628298
 31
0.0
 11
249.888506132059
 21
282.7827891104406
 31
0.0
 11
249.9491417685657
 21
282.4844931065658
 31
0.0
 11
249.9856007244321
 21
282.1822974604914
 31
0.0
 11
249.9978148128366
 21
281.8774336283187
 31
0.0
 11
249.9856007244321
 21
281.5725697961461
 31
0.0
 11
249.9491417685657
 21
281.2703741500716
 31
0.0
 11
249.8885061320589
 21
280.9720781461968
 31
0.0
 11
249.8045767005829
 21
280.6816524938076
 31
0.0
 11
249.697242748274
 21
280.3990189901468
 31
0.0
 11
249.5684406995937
 21
280.1290694163566
 31
0.0
 11
249.4175766305203
 21
279.8707704420901
 31
0.0
 11
249.2478008113654
 21
279.6293674739416
 31
0.0
 11
249.0579464358855
 21
279.4033734829921
 31
0.0
 11
248.8522748844998
 21
279.1977391438184
 31
0.0
 11
248.6292195709285
 21
279.0110508271424
 31
0.0
 11
248.3937692203622
 21
278.8473731462779
 31
0.0
 11
248.1443787105769
 21
278.7057743314459
 31
0.0
 11
247.8861527721876
 21
278.5890442508353
 31
0.0
 11
247.6181439256054
 21
278.4968905015853
 31
0.0
 11
247.344865419965
 21
278.430753287258
 31
0.0
 11
247.0665342771924
 21
278.39081549989
 31
0.0
 11
246.7864546884871
 21
278.3774336287793
 31
0.0
 11
246.5063750997819
 21
278.39081549989
 31
0.0
 11
246.2280439570093
 21
278.430753287258
 31
0.0
 11
245.9547654513689
 21
278.4968905015854
 31
0.0
 11
245.6867566047867
 21
278.5890442508353
 31
0.0
 11
245.4285306663975
 21
278.705774331446
 31
0.0
 11
245.1791401566122
 21
278.8473731462779
 31
0.0
 11
244.9436898060459
 21
279.0110508271424
 31
0.0
 11
244.7206344924746
 21
279.1977391438184
 31
0.0
 11
244.5149629410888
 21
279.403373482992
 31
0.0
 11
244.3251085656089
 21
279.6293674739416
 31
0.0
 11
244.155332746454
 21
279.87077044209
 31
0.0
 11
244.0044686773805
 21
280.1290694163565
 31
0.0
 11
243.8756666287003
 21
280.3990189901468
 31
0.0
 11
243.7683326763913
 21
280.6816524938077
 31
0.0
 11
243.6844032449154
 21
280.972078146197
 31
0.0
 11
243.6237676084086
 21
281.2703741500718
 31
0.0
 11
243.5873086525422
 21
281.5725697961461
 31
0.0
 11
243.5750945641376
 21
281.8774336283187
 31
0.0
 11
243.5873086525422
 21
282.1822974604913
 31
0.0
 11
243.6237676084086
 21
282.4844931065657
 31
0.0
 11
243.6844032449154
 21
282.7827891104405
 31
0.0
 11
243.7683326763913
 21
283.0732147628297
 31
0.0
 11
243.8756666287002
 21
283.3558482664906
 31
0.0
 11
244.0044686773804
 21
283.6257978402809
 31
0.0
 11
244.1553327464539
 21
283.8840968145474
 31
0.0
 11
244.3251085656089
 21
284.1254997826959
 31
0.0
 11
244.5149629410887
 21
284.3514937736454
 31
0.0
 11
244.7206344924745
 21
284.5571281128192
 31
0.0
 11
244.9436898060458
 21
284.743816429495
 31
0.0
 11
245.1791401566122
 21
284.9074941103596
 31
0.0
 11
245.4285306663974
 21
285.0490929251914
 31
0.0
 11
245.6867566047867
 21
285.1658230058021
 31
0.0
 11
245.9547654513688
 21
285.2579767550521
 31
0.0
 11
246.2280439570092
 21
285.3241139693796
 31
0.0
 11
246.5063750997818
 21
285.3640517567474
 31
0.0
 11
246.7864546884871
 21
285.3774336278581
 31
0.0
 11
247.0665342771923
 21
285.3640517567475
 31
0.0
  0
SPLINE
  5
19C
330
50
100
AcDbEntity
  8
1
  6
Continuous
 62
     7
100
AcDbSpline
210
0.0
220
0.0
230
1.0
 70
    11
 71
     3
 72
    79
 73
    75
 74
    73
 42
0.000000001
 43
0.0000000001
 44
0.00000001
 40
0.0
 40
0.0
 40
0.0
 40
0.0
 40
0.2811818749864423
 40
0.562349571281451
 40
0.8457592669521079
 40
1.129143365165286
 40
1.415928739324946
 40
1.702681683282343
 40
1.993553133501589
 40
2.28439031912288
 40
2.579547849718037
 40
2.87467362260753
 40
3.173802904790156
 40
3.472906131352824
 40
3.775234222519999
 40
4.077544012347127
 40
4.381940441904061
 40
4.686327471764538
 40
4.991435878882563
 40
5.296544285989968
 40
5.600931315818934
 40
5.90532774532271
 40
6.207637535075138
 40
6.509965626144826
 40
6.809068852587634
 40
7.108198134625423
 40
7.403323907346076
 40
7.698481437744287
 40
7.98931862314106
 40
8.280190073101306
 40
8.56694301676221
 40
8.853728390570557
 40
9.13711248834536
 40
9.420522183377347
 40
9.701689878273676
 40
9.982871762084985
 40
10.26327085332725
 40
10.54366994456846
 40
10.82485182837666
 40
11.10601952326777
 40
11.38942921829226
 40
11.6728133160578
 40
11.95959868985494
 40
12.24635163350305
 40
12.53722308344903
 40
12.82806026882997
 40
13.12321779921106
 40
13.41834357191353
 40
13.71747285393209
 40
14.01657608035486
 40
14.31890417140361
 40
14.62121396113456
 40
14.92561039061617
 40
15.22999742042222
 40
15.53510582750638
 40
15.84021423460065
 40
16.14460126443709
 40
16.44899769396952
 40
16.75130748377176
 40
17.05363557491361
 40
17.35273880145047
 40
17.6518680836065
 40
17.94699385646832
 40
18.24215138703395
 40
18.53298857262304
 40
18.82386002280483
 40
19.11061296671512
 40
19.39739834080726
 40
19.68078243890351
 40
19.96419213431014
 40
20.24535982966749
 40
20.52654171413629
 40
20.80694080679778
 40
21.08733988923002
 40
21.08733988923002
 40
21.08733988923002
 40
21.08733988923002
 10
269.0231395575437
 20
285.3640517567475
 30
0.0
 10
268.9300420278006
 20
285.3526006422916
 30
0.0
 10
268.7438516621057
 20
285.3296989961154
 30
0.0
 10
268.4696098743969
 20
285.2616617661423
 30
0.0
 10
268.2018789006535
 20
285.1700396700031
 30
0.0
 10
267.9423142946149
 20
285.0524287671167
 30
0.0
 10
267.6935759488757
 20
284.911210471302
 30
0.0
 10
267.4567580590919
 20
284.7463885901172
 30
0.0
 10
267.2344960289319
 20
284.5603112946191
 30
0.0
 10
267.0276373061845
 20
284.3532865191816
 30
0.0
 10
266.8385203532056
 20
284.1280876883524
 30
0.0
 10
266.6678691933434
 20
283.8852228271777
 30
0.0
 10
266.5175493564998
 20
283.6277541310996
 30
0.0
 10
266.388223901892
 20
283.3564762414117
 30
0.0
 10
266.281189173632
 20
283.0745230016155
 30
0.0
 10
266.1970406497356
 20
282.7830858189343
 30
0.0
 10
266.136495119412
 20
282.4851477836292
 30
0.0
 10
266.100007322045
 20
282.1823820579568
 30
0.0
 10
266.087780054146
 20
281.8774336379158
 30
0.0
 10
266.1000073216925
 20
281.5724852178657
 30
0.0
 10
266.1364951187076
 20
281.2697194921996
 30
0.0
 10
266.1970406486698
 20
280.9717814568147
 30
0.0
 10
266.2811891722283
 20
280.6803442743368
 30
0.0
 10
266.3882239000434
 20
280.3983910336569
 30
0.0
 10
266.5175493545805
 20
280.1271131470663
 30
0.0
 10
266.6678691899347
 20
279.869644439294
 30
0.0
 10
266.8385203535067
 20
279.626779620947
 30
0.0
 10
267.0276372909109
 20
279.4015806311807
 30
0.0
 10
267.2344960690946
 20
279.1945564402514
 30
0.0
 10
267.4567578919828
 20
279.0084769796425
 30
0.0
 10
267.6935765428235
 20
278.8436630692574
 30
0.0
 10
267.9423120653831
 20
278.7024152282215
 30
0.0
 10
268.2018870862868
 20
278.5849133451094
 30
0.0
 10
268.469579383729
 20
278.4928864309249
 30
0.0
 10
268.7439644282684
 20
278.4263486620059
 30
0.0
 10
269.022459870996
 20
278.3864458933361
 30
0.0
 10
269.303219145655
 20
278.3729337926103
 30
0.0
 10
269.583978420314
 20
278.3864458933117
 30
0.0
 10
269.8624738630419
 20
278.426348661957
 30
0.0
 10
270.1368589075821
 20
278.4928864308519
 30
0.0
 10
270.4045512050247
 20
278.5849133450121
 30
0.0
 10
270.6641262259291
 20
278.7024152281004
 30
0.0
 10
270.9128617484898
 20
278.8436630691119
 30
0.0
 10
271.1496803993313
 20
279.0084769794736
 30
0.0
 10
271.3719422222206
 20
279.1945564400587
 30
0.0
 10
271.5788010004057
 20
279.4015806309644
 30
0.0
 10
271.7679179378109
 20
279.6267796207077
 30
0.0
 10
271.9385691013846
 20
279.8696444390313
 30
0.0
 10
272.0888889367403
 20
280.1271131467807
 30
0.0
 10
272.218214391279
 20
280.3983910333482
 30
0.0
 10
272.3252491190958
 20
280.6803442740052
 30
0.0
 10
272.4093976426562
 20
280.9717814564602
 30
0.0
 10
272.4699431726208
 20
281.269719491822
 30
0.0
 10
272.5064309696381
 20
281.5724852174651
 30
0.0
 10
272.5186582371872
 20
281.8774336374908
 30
0.0
 10
272.5064309692917
 20
282.1823820575122
 30
0.0
 10
272.469943171927
 20
282.4851477831455
 30
0.0
 10
272.4093976416139
 20
282.7830858184838
 30
0.0
 10
272.3252491176999
 20
283.0745230009284
 30
0.0
 10
272.2182143895335
 20
283.3564762414888
 30
0.0
 10
272.088888934613
 20
283.6277541282373
 30
0.0
 10
271.9385690989719
 20
283.8852228350977
 30
0.0
 10
271.7679179347323
 20
284.1280876564313
 30
0.0
 10
271.5788009980372
 20
284.3532866347081
 30
0.0
 10
271.37194221546
 20
284.5603108674363
 30
0.0
 10
271.1496804070042
 20
284.7463901726943
 30
0.0
 10
270.9128617011542
 20
284.9112046544133
 30
0.0
 10
270.6641263805423
 20
285.0524503770203
 30
0.0
 10
270.4045506124351
 20
285.1699600762103
 30
0.0
 10
270.1368610873604
 20
285.2619579663922
 30
0.0
 10
269.8624657714076
 20
285.3286032402581
 30
0.0
 10
269.5840085617348
 20
285.3681058105152
 30
0.0
 10
269.3031069704598
 20
285.3831075697332
 30
0.0
 10
269.1164620274926
 20
285.3704036925393
 30
0.0
 10
269.0231395575437
 20
285.3640517567475
 30
0.0
 11
269.0231395575437
 21
285.3640517567475
 31
0.0
 11
268.744808414771
 21
285.3241139693796
 31
0.0
 11
268.4715299091306
 21
285.2579767550523
 31
0.0
 11
268.2035210625484
 21
285.1658230058022
 31
0.0
 11
267.9452951241591
 21
285.0490929251915
 31
0.0
 11
267.6959046143739
 21
284.9074941103596
 31
0.0
 11
267.4604542638075
 21
284.743816429495
 31
0.0
 11
267.2373989502362
 21
284.5571281128192
 31
0.0
 11
267.0317273988505
 21
284.3514937736454
 31
0.0
 11
266.8418730233706
 21
284.125499782696
 31
0.0
 11
266.6720972042157
 21
283.8840968145474
 31
0.0
 11
266.5212331351422
 21
283.625797840281
 31
0.0
 11
266.392431086462
 21
283.3558482664907
 31
0.0
 11
266.285097134153
 21
283.0732147628298
 31
0.0
 11
266.2011677026771
 21
282.7827891104406
 31
0.0
 11
266.1405320661703
 21
282.4844931065658
 31
0.0
 11
266.1040731103039
 21
282.1822974604914
 31
0.0
 11
266.0918590218994
 21
281.8774336283187
 31
0.0
 11
266.1040731103039
 21
281.5725697961461
 31
0.0
 11
266.1405320661704
 21
281.2703741500716
 31
0.0
 11
266.2011677026771
 21
280.9720781461968
 31
0.0
 11
266.285097134153
 21
280.6816524938076
 31
0.0
 11
266.392431086462
 21
280.3990189901468
 31
0.0
 11
266.5212331351422
 21
280.1290694163566
 31
0.0
 11
266.6720972042157
 21
279.8707704420901
 31
0.0
 11
266.8418730233706
 21
279.6293674739416
 31
0.0
 11
267.0317273988505
 21
279.4033734829921
 31
0.0
 11
267.2373989502363
 21
279.1977391438184
 31
0.0
 11
267.4604542638075
 21
279.0110508271424
 31
0.0
 11
267.6959046143739
 21
278.8473731462779
 31
0.0
 11
267.9452951241592
 21
278.7057743314459
 31
0.0
 11
268.2035210625485
 21
278.5890442508353
 31
0.0
 11
268.4715299091307
 21
278.4968905015853
 31
0.0
 11
268.7448084147711
 21
278.430753287258
 31
0.0
 11
269.0231395575436
 21
278.39081549989
 31
0.0
 11
269.3032191462488
 21
278.3774336287793
 31
0.0
 11
269.583298734954
 21
278.39081549989
 31
0.0
 11
269.8616298777267
 21
278.430753287258
 31
0.0
 11
270.1349083833671
 21
278.4968905015854
 31
0.0
 11
270.4029172299493
 21
278.5890442508353
 31
0.0
 11
270.6611431683385
 21
278.705774331446
 31
0.0
 11
270.9105336781238
 21
278.8473731462779
 31
0.0
 11
271.1459840286901
 21
279.0110508271424
 31
0.0
 11
271.3690393422615
 21
279.1977391438184
 31
0.0
 11
271.5747108936472
 21
279.403373482992
 31
0.0
 11
271.7645652691271
 21
279.6293674739416
 31
0.0
 11
271.9343410882821
 21
279.87077044209
 31
0.0
 11
272.0852051573555
 21
280.1290694163565
 31
0.0
 11
272.2140072060357
 21
280.3990189901468
 31
0.0
 11
272.3213411583447
 21
280.6816524938077
 31
0.0
 11
272.4052705898206
 21
280.972078146197
 31
0.0
 11
272.4659062263274
 21
281.2703741500718
 31
0.0
 11
272.5023651821938
 21
281.5725697961461
 31
0.0
 11
272.5145792705983
 21
281.8774336283187
 31
0.0
 11
272.5023651821938
 21
282.1822974604913
 31
0.0
 11
272.4659062263274
 21
282.4844931065657
 31
0.0
 11
272.4052705898206
 21
282.7827891104405
 31
0.0
 11
272.3213411583447
 21
283.0732147628297
 31
0.0
 11
272.2140072060358
 21
283.3558482664906
 31
0.0
 11
272.0852051573556
 21
283.6257978402809
 31
0.0
 11
271.9343410882821
 21
283.8840968145474
 31
0.0
 11
271.7645652691271
 21
284.1254997826959
 31
0.0
 11
271.5747108936473
 21
284.3514937736454
 31
0.0
 11
271.3690393422615
 21
284.5571281128192
 31
0.0
 11
271.1459840286901
 21
284.743816429495
 31
0.0
 11
270.9105336781238
 21
284.9074941103596
 31
0.0
 11
270.6611431683385
 21
285.0490929251914
 31
0.0
 11
270.4029172299493
 21
285.1658230058021
 31
0.0
 11
270.1349083833671
 21
285.2579767550521
 31
0.0
 11
269.8616298777268
 21
285.3241139693796
 31
0.0
 11
269.5832987349542
 21
285.3640517567474
 31
0.0
 11
269.3032191462489
 21
285.3774336278581
 31
0.0
 11
269.0231395575437
 21
285.3640517567475
 31
0.0
  0
SPLINE
  5
19D
330
50
100
AcDbEntity
  8
1
  6
Continuous
 62
     7
100
AcDbSpline
210
0.0
220
0.0
230
1.0
 70
    11
 71
     3
 72
    79
 73
    75
 74
    73
 42
0.000000001
 43
0.0000000001
 44
0.00000001
 40
0.0
 40
0.0
 40
0.0
 40
0.0
 40
0.3114713359264663
 40
0.6228035229571387
 40
0.9472403582053277
 40
1.271464852601751
 40
1.614803247461159
 40
1.95792891069297
 40
2.323150644728003
 40
2.688197472678879
 40
3.075390754710954
 40
3.462454979836126
 40
3.86924382490814
 40
4.275944683695624
 40
4.698050013630671
 40
5.120101300215341
 40
5.551913308331448
 40
5.983699710116281
 40
6.418825154877954
 40
6.853950599636564
 40
7.285737001411762
 40
7.717549009510797
 40
8.139600296069723
 40
8.561705625967821
 40
8.9684064847057
 40
9.375195329710031
 40
9.762259554748512
 40
10.14945283666475
 40
10.51449966447117
 40
10.87972139831566
 40
11.22284706131044
 40
11.56618545585178
 40
11.89040994981961
 40
12.21484678436667
 40
12.52617896950088
 40
12.83765031334059
 40
13.14443942456766
 40
13.45122853579351
 40
13.76269987962981
 40
14.07403206475823
 40
14.39846889929756
 40
14.72269339325634
 40
15.06603178778702
 40
15.40915745077048
 40
15.77437918460258
 40
16.13942601239653
 40
16.52661929429971
 40
16.91368351932539
 40
17.3204723643167
 40
17.72717322304205
 40
18.14927855292765
 40
18.57132983947462
 40
19.00314184756184
 40
19.43492824932576
 40
19.8700536940735
 40
20.30517913882479
 40
20.73696554059985
 40
21.16877754870636
 40
21.59082883528185
 40
22.01293416520789
 40
22.41963502398671
 40
22.82642386904936
 40
23.21348809416483
 40
23.60068137618519
 40
23.96572820412158
 40
24.33094993813592
 40
24.67407560133645
 40
25.01741399614001
 40
25.34163849042289
 40
25.66607532537006
 40
25.97740751101892
 40
26.2888788556288
 40
26.59566796883276
 40
26.90245707227673
 40
26.90245707227673
 40
26.90245707227673
 40
26.90245707227673
 10
263.0252634804164
 20
282.1836112167364
 30
0.0
 10
263.0086777673477
 20
282.2862417554398
 30
0.0
 10
262.9755137583889
 20
282.491456984279
 30
0.0
 10
262.8766155982976
 20
282.7925301384349
 30
0.0
 10
262.7448333677971
 20
283.0847150864263
 30
0.0
 10
262.5747199246227
 20
283.3690837578265
 30
0.0
 10
262.3724512253257
 20
283.6392245608615
 30
0.0
 10
262.1351220361316
 20
283.8979460084344
 30
0.0
 10
261.8695948421459
 20
284.1385069034634
 30
0.0
 10
261.5725495788173
 20
284.3639545700934
 30
0.0
 10
261.2519390860603
 20
284.5682750500019
 30
0.0
 10
260.9043776817126
 20
284.7539260596018
 30
0.0
 10
260.5382020611025
 20
284.9162350755723
 30
0.0
 10
260.1507178215693
 20
285.0567478974276
 30
0.0
 10
259.7497834824112
 20
285.1723248458655
 30
0.0
 10
259.334098714789
 20
285.2636800988406
 30
0.0
 10
258.9102803531534
 20
285.3290592351301
 30
0.0
 10
258.4789196662018
 20
285.3686871926678
 30
0.0
 10
258.0448369272594
 20
285.3818236879876
 30
0.0
 10
257.6107541883052
 20
285.3686871927779
 30
0.0
 10
257.1793935013883
 20
285.329059235349
 30
0.0
 10
256.7555751396246
 20
285.2636800991959
 30
0.0
 10
256.3398903724658
 20
285.1723248462939
 30
0.0
 10
255.9389560315992
 20
285.0567478982184
 30
0.0
 10
255.5514717982044
 20
284.9162350757521
 30
0.0
 10
255.1852961552007
 20
284.753926062803
 30
0.0
 10
254.8377348305228
 20
284.5682750433378
 30
0.0
 10
254.5171240490225
 20
284.3639546002128
 30
0.0
 10
254.2200798046258
 20
284.1385068049341
 30
0.0
 10
253.9545489295631
 20
283.8979463760319
 30
0.0
 10
253.7172326901276
 20
283.6392232902016
 30
0.0
 10
253.514917162023
 20
283.3690884132928
 30
0.0
 10
253.3449692805744
 20
283.0846987925432
 30
0.0
 10
253.2125845385978
 20
282.7925900867892
 30
0.0
 10
253.1158492320004
 20
282.4912432463082
 30
0.0
 10
253.0583839938397
 20
282.1859481433
 30
0.0
 10
253.0384327400214
 20
281.8774336287596
 30
0.0
 10
253.0583839938255
 20
281.5689191142195
 30
0.0
 10
253.1158492319723
 20
281.2636240112121
 30
0.0
 10
253.2125845385557
 20
280.9622771707326
 30
0.0
 10
253.3449692805191
 20
280.6701684649807
 30
0.0
 10
253.5149171619546
 20
280.385778844234
 30
0.0
 10
253.7172326900466
 20
280.1156439673287
 30
0.0
 10
253.9545489294698
 20
279.8569208815026
 30
0.0
 10
254.220079804521
 20
279.6163604526053
 30
0.0
 10
254.5171240489061
 20
279.3909126573326
 30
0.0
 10
254.8377348303957
 20
279.1865922142142
 30
0.0
 10
255.1852961550631
 20
279.0009411947569
 30
0.0
 10
255.5514717980568
 20
278.8386321818165
 30
0.0
 10
255.9389560314417
 20
278.6981193593601
 30
0.0
 10
256.3398903722987
 20
278.5825424112957
 30
0.0
 10
256.7555751394481
 20
278.4911871584064
 30
0.0
 10
257.179393501202
 20
278.4258080222672
 30
0.0
 10
257.6107541881094
 20
278.3861800648538
 30
0.0
 10
258.0448369270511
 20
278.3730435696618
 30
0.0
 10
258.4789196659913
 20
278.3861800649993
 30
0.0
 10
258.910280352899
 20
278.4258080225623
 30
0.0
 10
259.3340987146399
 20
278.4911871588571
 30
0.0
 10
259.7497834818157
 20
278.5825424119188
 30
0.0
 10
260.1507178225414
 20
278.6981193601505
 30
0.0
 10
260.5382020563499
 20
278.8386321828642
 30
0.0
 10
260.9043776977288
 20
279.000941195826
 30
0.0
 10
261.2519390280459
 20
279.1865922162521
 30
0.0
 10
261.5725497889268
 20
279.3909126570442
 30
0.0
 10
261.8695941058619
 20
279.6163604618156
 30
0.0
 10
262.135124718576
 20
279.8569208578687
 30
0.0
 10
262.3724418805772
 20
280.1156440608346
 30
0.0
 10
262.574754072043
 20
280.3857785159653
 30
0.0
 10
262.744713749498
 20
280.6701696298703
 30
0.0
 10
262.877055562743
 20
280.9622729040382
 30
0.0
 10
262.9739449710379
 20
281.2636392451129
 30
0.0
 10
263.0308427193348
 20
281.5688625398068
 30
0.0
 10
263.0528820936287
 20
281.8776412815242
 30
0.0
 10
263.034469682088
 20
282.0816212392123
 30
0.0
 10
263.0252634804164
 20
282.1836112167364
 30
0.0
 11
263.0252634804164
 21
282.1836112167364
 31
0.0
 11
262.9675375820621
 21
282.4896865649567
 31
0.0
 11
262.872972910597
 21
282.7863096464937
 31
0.0
 11
262.7392526916425
 21
283.0819076213559
 31
0.0
 11
262.5734870456699
 21
283.360553046912
 31
0.0
 11
262.3680235582958
 21
283.6356275978981
 31
0.0
 11
262.1365005582015
 21
283.888871198212
 31
0.0
 11
261.8661816171232
 21
284.1344614769915
 31
0.0
 11
261.5756752288714
 21
284.3555162777315
 31
0.0
 11
261.2494100550703
 21
284.5640101001233
 31
0.0
 11
260.9081586127755
 21
284.7466741838318
 31
0.0
 11
260.5364266947819
 21
284.9118787406726
 31
0.0
 11
260.1541663922444
 21
285.050740721182
 31
0.0
 11
259.74865759341
 21
285.1679393714338
 31
0.0
 11
259.3364705301241
 21
285.2586538320502
 31
0.0
 11
258.9097345184863
 21
285.3246688812836
 31
0.0
 11
258.4797608608608
 21
285.3641929311484
 31
0.0
 11
258.044836917368
 21
285.3774336283187
 31
0.0
 11
257.6099129738751
 21
285.3641929311484
 31
0.0
 11
257.1799393162496
 21
285.3246688812837
 31
0.0
 11
256.7532033046118
 21
285.2586538320503
 31
0.0
 11
256.3410162413259
 21
285.1679393714338
 31
0.0
 11
255.9355074424915
 21
285.050740721182
 31
0.0
 11
255.553247139954
 21
284.9118787406726
 31
0.0
 11
255.1815152219604
 21
284.7466741838318
 31
0.0
 11
254.8402637796656
 21
284.5640101001233
 31
0.0
 11
254.5139986058646
 21
284.3555162777315
 31
0.0
 11
254.2234922176128
 21
284.1344614769915
 31
0.0
 11
253.9531732765345
 21
283.888871198212
 31
0.0
 11
253.7216502764402
 21
283.6356275978981
 31
0.0
 11
253.5161867890661
 21
283.3605530469119
 31
0.0
 11
253.3504211430937
 21
283.0819076213558
 31
0.0
 11
253.2167009241392
 21
282.7863096464937
 31
0.0
 11
253.122136252674
 21
282.4896865649565
 31
0.0
 11
253.0644103543197
 21
282.1836112167364
 31
0.0
 11
253.0450494862003
 21
281.8774336283187
 31
0.0
 11
253.0644103543197
 21
281.5712560399011
 31
0.0
 11
253.122136252674
 21
281.2651806916808
 31
0.0
 11
253.2167009241392
 21
280.9685576101438
 31
0.0
 11
253.3504211430937
 21
280.6729596352817
 31
0.0
 11
253.5161867890661
 21
280.3943142097255
 31
0.0
 11
253.7216502764402
 21
280.1192396587393
 31
0.0
 11
253.9531732765345
 21
279.8659960584254
 31
0.0
 11
254.2234922176128
 21
279.620405779646
 31
0.0
 11
254.5139986058646
 21
279.399350978906
 31
0.0
 11
254.8402637796656
 21
279.1908571565141
 31
0.0
 11
255.1815152219604
 21
279.0081930728056
 31
0.0
 11
255.5532471399541
 21
278.8429885159649
 31
0.0
 11
255.9355074424916
 21
278.7041265354555
 31
0.0
 11
256.341016241326
 21
278.5869278852036
 31
0.0
 11
256.7532033046119
 21
278.4962134245872
 31
0.0
 11
257.1799393162497
 21
278.4301983753537
 31
0.0
 11
257.6099129738752
 21
278.390674325489
 31
0.0
 11
258.0448369173681
 21
278.3774336283188
 31
0.0
 11
258.4797608608609
 21
278.390674325489
 31
0.0
 11
258.9097345184865
 21
278.4301983753537
 31
0.0
 11
259.3364705301242
 21
278.4962134245872
 31
0.0
 11
259.74865759341
 21
278.5869278852036
 31
0.0
 11
260.1541663922443
 21
278.7041265354554
 31
0.0
 11
260.5364266947819
 21
278.8429885159648
 31
0.0
 11
260.9081586127754
 21
279.0081930728056
 31
0.0
 11
261.2494100550702
 21
279.1908571565141
 31
0.0
 11
261.5756752288714
 21
279.399350978906
 31
0.0
 11
261.8661816171232
 21
279.6204057796459
 31
0.0
 11
262.1365005582016
 21
279.8659960584254
 31
0.0
 11
262.3680235582959
 21
280.1192396587393
 31
0.0
 11
262.5734870456699
 21
280.3943142097255
 31
0.0
 11
262.7392526916423
 21
280.6729596352816
 31
0.0
 11
262.8729729105969
 21
280.9685576101438
 31
0.0
 11
262.967537582062
 21
281.2651806916808
 31
0.0
 11
263.0252634804164
 21
281.5712560399011
 31
0.0
 11
263.0446243485358
 21
281.8774336283187
 31
0.0
 11
263.0252634804164
 21
282.1836112167364
 31
0.0
  0
SPLINE
  5
19E
330
50
100
AcDbEntity
  8
1
  6
Continuous
 62
     7
100
AcDbSpline
210
0.0
220
0.0
230
1.0
 70
    11
 71
     3
 72
    81
 73
    77
 74
    75
 42
0.000000001
 43
0.0000000001
 44
0.00000001
 40
0.0
 40
0.0
 40
0.0
 40
0.0
 40
0.3171240012460303
 40
0.6340440033435485
 40
0.9694545179572952
 40
1.30452812751542
 40
1.666089105267807
 40
2.027350024970382
 40
2.418688396739999
 40
2.809801275552581
 40
3.230593104787302
 40
3.651230372863303
 40
4.097981215298931
 40
4.544632076301074
 40
5.011500605562996
 40
5.478309840972408
 40
5.957806983088441
 40
6.437276427039397
 40
6.921144643795174
 40
7.405013184887829
 40
7.884587221089176
 40
8.364188639017879
 40
8.830997872652729
 40
9.297866401834064
 40
9.744517262950573
 40
10.19126810208662
 40
10.61190537342959
 40
11.03269722665601
 40
11.42381008197007
 40
11.81514829446101
 40
12.1764093639322
 40
12.53797133986168
 40
12.87304401165467
 40
13.20844847429565
 40
13.52537429447761
 40
13.84253415991848
 40
14.15301689224927
 40
14.46349962457889
 40
14.78065949001639
 40
15.09758531019293
 40
15.4329897728264
 40
15.76806244461064
 40
16.12962442053126
 40
16.49088548999575
 40
16.88222370247261
 40
17.27333655776021
 40
17.69412841099192
 40
18.11476568240039
 40
18.56151652145732
 40
19.00816738225647
 40
19.47503591167287
 40
19.94184514620916
 40
20.42139442621902
 40
20.90091616626842
 40
21.38478454518665
 40
21.86865292410517
 40
22.34817466416467
 40
22.82772394422451
 40
23.29453317872352
 40
23.76140170775178
 40
24.20805256904921
 40
24.65480341148876
 40
25.07544067953994
 40
25.496232509054
 40
25.88734538763876
 40
26.27868375810009
 40
26.63994467873657
 40
27.00150566131967
 40
27.3365792674807
 40
27.67198976855443
 40
27.98887696566295
 40
28.30596753019939
 40
28.46167728307712
 40
28.6166746328588
 40
28.77170491984266
 40
28.92744805794034
 40
28.92744805794034
 40
28.92744805794034
 40
28.92744805794034
 10
144.0043708267156
 20
282.2226844054404
 30
0.0
 10
144.0229520477727
 20
282.3269200066297
 30
0.0
 10
144.0601025285026
 20
282.5353241581109
 30
0.0
 10
144.1709634143846
 20
282.840346227426
 30
0.0
 10
144.3179863241091
 20
283.1354969974437
 30
0.0
 10
144.5080655212853
 20
283.4231839185838
 30
0.0
 10
144.7332008206146
 20
283.6954165134824
 30
0.0
 10
144.9977910638368
 20
283.9568187233378
 30
0.0
 10
145.2928931042336
 20
284.1989994719433
 30
0.0
 10
145.6236409475869
 20
284.4266185778816
 30
0.0
 10
145.9797718872192
 20
284.6323019669989
 30
0.0
 10
146.3665052001089
 20
284.8196740307269
 30
0.0
 10
146.773245780478
 20
284.9831179281831
 30
0.0
 10
147.2042346967544
 20
285.1249062697936
 30
0.0
 10
147.6496693374833
 20
285.241332551182
 30
0.0
 10
148.1118874726095
 20
285.3335022319401
 30
0.0
 10
148.582822212758
 20
285.3993688392904
 30
0.0
 10
149.0623493489496
 20
285.4393524894965
 30
0.0
 10
149.5448168516953
 20
285.4525684745837
 30
0.0
 10
150.0273188971276
 20
285.4393400792869
 30
0.0
 10
150.5069144875127
 20
285.3993364274847
 30
0.0
 10
150.9779155919234
 20
285.3334405562572
 30
0.0
 10
151.4401634306318
 20
285.241242053775
 30
0.0
 10
151.8855925132167
 20
285.1247944901781
 30
0.0
 10
152.3165746473344
 20
284.9829855642381
 30
0.0
 10
152.7233074541662
 20
284.8195222578657
 30
0.0
 10
153.1100317296782
 20
284.6321317103427
 30
0.0
 10
153.4661531716399
 20
284.426431310658
 30
0.0
 10
153.7968888643189
 20
284.1987962662639
 30
0.0
 10
154.0919839043663
 20
283.9566022716833
 30
0.0
 10
154.3565467004707
 20
283.6951850452441
 30
0.0
 10
154.5817226494682
 20
283.4229484839464
 30
0.0
 10
154.7715975571496
 20
283.1352277761524
 30
0.0
 10
154.9192937724656
 20
282.840168367951
 30
0.0
 10
155.0277250318193
 20
282.5347896305827
 30
0.0
 10
155.0919002371079
 20
282.2255560444669
 30
0.0
 10
155.1144519942801
 20
281.9126577466876
 30
0.0
 10
155.0918852946102
 20
281.5997605262301
 30
0.0
 10
155.0276953218803
 20
281.2905300051706
 30
0.0
 10
154.9192494792248
 20
280.9851564463139
 30
0.0
 10
154.7715391734536
 20
280.6901040917203
 30
0.0
 10
154.5816505258254
 20
280.4023924517809
 30
0.0
 10
154.3564615763698
 20
280.1301666441295
 30
0.0
 10
154.0918862965363
 20
279.8687620522504
 30
0.0
 10
153.7967796908052
 20
279.6265821502905
 30
0.0
 10
153.4660331277199
 20
279.3989629005569
 30
0.0
 10
153.1099018628787
 20
279.1932795077967
 30
0.0
 10
152.7231686390499
 20
279.0059074282786
 30
0.0
 10
152.3164280265849
 20
278.8424635459689
 30
0.0
 10
151.8854391201028
 20
278.7006752026624
 30
0.0
 10
151.4400044774148
 20
278.5842489150901
 30
0.0
 10
150.9777692894795
 20
278.4920758609158
 30
0.0
 10
150.5067997939485
 20
278.4262058682075
 30
0.0
 10
150.0272374757911
 20
278.38622366855
 30
0.0
 10
149.5447523860934
 20
278.3730129991639
 30
0.0
 10
149.0622679278221
 20
278.3862467097251
 30
0.0
 10
148.5827075195511
 20
278.4262518110289
 30
0.0
 10
148.1117411702533
 20
278.4921442954384
 30
0.0
 10
147.6495103847684
 20
278.5843394237845
 30
0.0
 10
147.2040813020429
 20
278.7007869809389
 30
0.0
 10
146.7730991657273
 20
278.8425959061667
 30
0.0
 10
146.3663663636365
 20
279.0060592242517
 30
0.0
 10
145.9796420956086
 20
279.1934497684583
 30
0.0
 10
145.6235206310671
 20
279.399150119627
 30
0.0
 10
145.2927848687779
 20
279.6267851751322
 30
0.0
 10
144.997690060785
 20
279.8689794622431
 30
0.0
 10
144.7331273020473
 20
280.1303962316954
 30
0.0
 10
144.5079512702236
 20
280.4026326826137
 30
0.0
 10
144.3180724363738
 20
280.6903525992401
 30
0.0
 10
144.1703954029702
 20
280.985414327885
 30
0.0
 10
144.0619365433102
 20
281.2907253471102
 30
0.0
 10
144.0083770339577
 20
281.5493532421842
 30
0.0
 10
143.9862653675405
 20
281.7575864681746
 30
0.0
 10
143.98100724879
 20
281.9128529012335
 30
0.0
 10
143.9858492445093
 20
282.0682219851863
 30
0.0
 10
143.9981875351199
 20
282.17111825731
 30
0.0
 10
144.0043708267157
 20
282.2226844054404
 30
0.0
 11
144.0043708267156
 21
282.2226844054404
 31
0.0
 11
144.0689589056903
 21
282.5331614851393
 31
0.0
 11
144.1741677287594
 21
282.8321086210656
 31
0.0
 11
144.3239559121445
 21
283.1322147906802
 31
0.0
 11
144.507802507188
 21
283.4123482465612
 31
0.0
 11
144.737725526875
 21
283.6913854224022
 31
0.0
 11
144.9942104691736
 21
283.9457963623797
 31
0.0
 11
145.2962510479302
 21
284.1946280523384
 31
0.0
 11
145.6181317930817
 21
284.4168038156984
 31
0.0
 11
145.9821895487125
 21
284.6278197252399
 31
0.0
 11
146.3605661830096
 21
284.811577266284
 31
0.0
 11
146.7749089056595
 21
284.978629423976
 31
0.0
 11
147.1991089174863
 21
285.1184555359595
 31
0.0
 11
147.6507100357732
 21
285.2368728217464
 31
0.0
 11
148.1084797026467
 21
285.3282937950096
 31
0.0
 11
148.5833228687535
 21
285.3949382013663
 31
0.0
 11
149.0611327129133
 21
285.434796707446
 31
0.0
 11
149.5448166989973
 21
285.4481478419739
 31
0.0
 11
150.0285006926606
 21
285.4347852323932
 31
0.0
 11
150.5064135858971
 21
285.3949038748462
 31
0.0
 11
150.98135723716
 21
285.3282251810253
 31
0.0
 11
151.439122539146
 21
285.2367823633055
 31
0.0
 11
151.8907180021286
 21
285.11834351256
 31
0.0
 11
152.3149113358031
 21
284.9784971417851
 31
0.0
 11
152.7292460803124
 21
284.8114252058279
 31
0.0
 11
153.1076139388372
 21
284.6276495880045
 31
0.0
 11
153.4716616169939
 21
284.4166162451231
 31
0.0
 11
153.7935317516705
 21
284.1944251516094
 31
0.0
 11
154.0955604467968
 21
283.945579287813
 31
0.0
 11
154.3520332395736
 21
283.6911558868916
 31
0.0
 11
154.5819429348875
 21
283.4121064387529
 31
0.0
 11
154.7657761506848
 21
283.1319653239174
 31
0.0
 11
154.915549995049
 21
282.8318587608699
 31
0.0
 11
155.0207445482792
 21
282.532900433424
 31
0.0
 11
155.0853178393059
 21
282.2223836538125
 31
0.0
 11
155.1069857834434
 21
281.9126579245607
 31
0.0
 11
155.0853030483022
 21
281.6029332304199
 31
0.0
 11
155.0207149285439
 21
281.2924195348759
 31
0.0
 11
154.9155060986052
 21
280.9934662313627
 31
0.0
 11
154.765717922749
 21
280.6933668211446
 31
0.0
 11
154.5818713289534
 21
280.4132344856296
 31
0.0
 11
154.3519483078266
 21
280.1341960172021
 31
0.0
 11
154.0954633652906
 21
279.8797848644872
 31
0.0
 11
153.7934227868128
 21
279.630953424435
 31
0.0
 11
153.4715420417101
 21
279.4087777021946
 31
0.0
 11
153.1074842860226
 21
279.1977617447027
 31
0.0
 11
152.729107651698
 21
279.0140041959276
 31
0.0
 11
152.3147649290788
 21
278.8469520470548
 31
0.0
 11
151.890564917372
 21
278.7071259352388
 31
0.0
 11
151.4389637989556
 21
278.588708649231
 31
0.0
 11
150.9811941313495
 21
278.4972876839981
 31
0.0
 11
150.5062991308071
 21
278.4306374744661
 31
0.0
 11
150.0284368101442
 21
278.3907789536638
 31
0.0
 11
149.544752501444
 21
278.3774336308135
 31
0.0
 11
149.0610688306042
 21
278.39080205205
 31
0.0
 11
148.58320841394
 21
278.4306833932997
 31
0.0
 11
148.1083165968385
 21
278.497356281786
 31
0.0
 11
147.6505512955829
 21
278.5887991075348
 31
0.0
 11
147.1989558327159
 21
278.7072379580562
 31
0.0
 11
146.7747624989342
 21
278.8470843290019
 31
0.0
 11
146.3604277544701
 21
279.0141562737962
 31
0.0
 11
145.982059895906
 21
279.1979318838727
 31
0.0
 11
145.6180122174026
 21
279.4089651787085
 31
0.0
 11
145.2961420830233
 21
279.6311563134237
 31
0.0
 11
144.9941133897192
 21
279.8800024276229
 31
0.0
 11
144.7376405953914
 21
280.1344256153838
 31
0.0
 11
144.5077308906506
 21
280.4134737683672
 31
0.0
 11
144.323897683024
 21
280.6936160057961
 31
0.0
 11
144.1741238879563
 21
280.9937293416747
 31
0.0
 11
144.0689381138608
 21
281.2926498133942
 31
0.0
 11
144.004364935046
 21
281.6030958319153
 31
0.0
 11
143.9881077112921
 21
281.7579545730495
 31
0.0
 11
143.9826880506743
 21
281.9128571409015
 31
0.0
 11
143.9881083050665
 21
282.0677926439718
 31
0.0
 11
144.0043708267157
 21
282.2226844054404
 31
0.0
  0
SPLINE
  5
19F
330
50
100
AcDbEntity
  8
1
  6
Continuous
 62
     7
100
AcDbSpline
210
0.0
220
0.0
230
1.0
 70
    11
 71
     3
 72
    81
 73
    77
 74
    75
 42
0.000000001
 43
0.0000000001
 44
0.00000001
 40
0.0
 40
0.0
 40
0.0
 40
0.0
 40
0.3171240012460303
 40
0.6340440033435485
 40
0.9694545179572825
 40
1.304528127515423
 40
1.666089105267792
 40
2.027350024970367
 40
2.418688396739984
 40
2.809801275552565
 40
3.230593104787287
 40
3.651230372863313
 40
4.097981215298967
 40
4.544632076301056
 40
5.011500605563006
 40
5.478309840972391
 40
5.957806983088424
 40
6.437276427039379
 40
6.921144643795128
 40
7.405013184887754
 40
7.884587221089073
 40
8.364188639017861
 40
8.830997872652711
 40
9.297866401834074
 40
9.74451726295053
 40
10.19126810208655
 40
10.61190537342947
 40
11.03269722665594
 40
11.42381008197003
 40
11.81514829446092
 40
12.17640936393209
 40
12.53797133986159
 40
12.8730440116546
 40
13.20844847429559
 40
13.52537429447756
 40
13.84253415991842
 40
14.15301689224921
 40
14.46349962457883
 40
14.78065949001633
 40
15.09758531019288
 40
15.43298977282637
 40
15.76806244461059
 40
16.12962442053121
 40
16.4908854899957
 40
16.8822237024726
 40
17.2733365577602
 40
17.69412841099188
 40
18.11476568240033
 40
18.56151652145723
 40
19.00816738225636
 40
19.47503591167284
 40
19.9418451462091
 40
20.42139442621898
 40
20.90091616626836
 40
21.38478454518656
 40
21.86865292410508
 40
22.34817466416458
 40
22.82772394422451
 40
23.29453317872352
 40
23.76140170775177
 40
24.20805256904921
 40
24.65480341148875
 40
25.07544067953994
 40
25.49623250905394
 40
25.88734538763866
 40
26.27868375810002
 40
26.63994467873649
 40
27.00150566131959
 40
27.33657926748064
 40
27.67198976855437
 40
27.98887696566292
 40
28.30596753019935
 40
28.46167728307708
 40
28.61667463285876
 40
28.77170491984262
 40
28.92744805794029
 40
28.92744805794029
 40
28.92744805794029
 40
28.92744805794029
 10
168.0853030080205
 20
282.2226844054404
 30
0.0
 10
168.0667217869634
 20
282.3269200066297
 30
0.0
 10
168.0295713062335
 20
282.535324158111
 30
0.0
 10
167.9187104203516
 20
282.8403462274259
 30
0.0
 10
167.7716875106271
 20
283.1354969974437
 30
0.0
 10
167.5816083134509
 20
283.4231839185838
 30
0.0
 10
167.3564730141215
 20
283.6954165134824
 30
0.0
 10
167.0918827708994
 20
283.9568187233378
 30
0.0
 10
166.7967807305026
 20
284.1989994719434
 30
0.0
 10
166.4660328871492
 20
284.4266185778815
 30
0.0
 10
166.109901947517
 20
284.632301966999
 30
0.0
 10
165.7231686346273
 20
284.819674030727
 30
0.0
 10
165.3164280542581
 20
284.983117928183
 30
0.0
 10
164.8854391379818
 20
285.1249062697937
 30
0.0
 10
164.4400044972529
 20
285.2413325511819
 30
0.0
 10
163.9777863621267
 20
285.3335022319401
 30
0.0
 10
163.5068516219782
 20
285.3993688392904
 30
0.0
 10
163.0273244857866
 20
285.4393524894965
 30
0.0
 10
162.544856983041
 20
285.4525684745838
 30
0.0
 10
162.0623549376087
 20
285.4393400792868
 30
0.0
 10
161.5827593472236
 20
285.3993364274849
 30
0.0
 10
161.1117582428128
 20
285.3334405562572
 30
0.0
 10
160.6495104041044
 20
285.241242053775
 30
0.0
 10
160.2040813215195
 20
285.1247944901781
 30
0.0
 10
159.7730991874019
 20
284.9829855642382
 30
0.0
 10
159.3663663805701
 20
284.8195222578657
 30
0.0
 10
158.9796421050581
 20
284.6321317103428
 30
0.0
 10
158.6235206630964
 20
284.4264313106579
 30
0.0
 10
158.2927849704173
 20
284.198796266264
 30
0.0
 10
157.99768993037
 20
283.9566022716832
 30
0.0
 10
157.7331271342656
 20
283.6951850452442
 30
0.0
 10
157.5079511852681
 20
283.4229484839464
 30
0.0
 10
157.3180762775866
 20
283.1352277761526
 30
0.0
 10
157.1703800622707
 20
282.8401683679509
 30
0.0
 10
157.0619488029169
 20
282.5347896305827
 30
0.0
 10
156.9977735976283
 20
282.225556044467
 30
0.0
 10
156.9752218404562
 20
281.9126577466877
 30
0.0
 10
156.997788540126
 20
281.5997605262302
 30
0.0
 10
157.0619785128559
 20
281.2905300051706
 30
0.0
 10
157.1704243555114
 20
280.9851564463138
 30
0.0
 10
157.3181346612827
 20
280.6901040917203
 30
0.0
 10
157.5080233089109
 20
280.4023924517809
 30
0.0
 10
157.7332122583665
 20
280.1301666441294
 30
0.0
 10
157.9977875381998
 20
279.8687620522504
 30
0.0
 10
158.2928941439311
 20
279.6265821502905
 30
0.0
 10
158.6236407070164
 20
279.3989629005569
 30
0.0
 10
158.9797719718576
 20
279.1932795077967
 30
0.0
 10
159.3665051956863
 20
279.0059074282787
 30
0.0
 10
159.7732458081513
 20
278.8424635459689
 30
0.0
 10
160.2042347146334
 20
278.7006752026624
 30
0.0
 10
160.6496693573214
 20
278.5842489150902
 30
0.0
 10
161.1119045452568
 20
278.4920758609158
 30
0.0
 10
161.5828740407878
 20
278.4262058682075
 30
0.0
 10
162.0624363589452
 20
278.38622366855
 30
0.0
 10
162.5449214486427
 20
278.373012999164
 30
0.0
 10
163.0274059069142
 20
278.3862467097251
 30
0.0
 10
163.506966315185
 20
278.4262518110289
 30
0.0
 10
163.977932664483
 20
278.4921442954384
 30
0.0
 10
164.4401634499679
 20
278.5843394237845
 30
0.0
 10
164.8855925326933
 20
278.7007869809388
 30
0.0
 10
165.316574669009
 20
278.8425959061667
 30
0.0
 10
165.7233074710998
 20
279.0060592242515
 30
0.0
 10
166.1100317391277
 20
279.1934497684583
 30
0.0
 10
166.4661532036691
 20
279.399150119627
 30
0.0
 10
166.7968889659582
 20
279.6267851751322
 30
0.0
 10
167.0919837739513
 20
279.8689794622431
 30
0.0
 10
167.3565465326889
 20
280.1303962316955
 30
0.0
 10
167.5817225645127
 20
280.4026326826136
 30
0.0
 10
167.7716013983625
 20
280.6903525992401
 30
0.0
 10
167.919278431766
 20
280.985414327885
 30
0.0
 10
168.0277372914261
 20
281.2907253471102
 30
0.0
 10
168.0812968007786
 20
281.5493532421842
 30
0.0
 10
168.1034084671958
 20
281.7575864681746
 30
0.0
 10
168.1086665859462
 20
281.9128529012335
 30
0.0
 10
168.1038245902268
 20
282.0682219851863
 30
0.0
 10
168.0914862996163
 20
282.17111825731
 30
0.0
 10
168.0853030080205
 20
282.2226844054404
 30
0.0
 11
168.0853030080205
 21
282.2226844054404
 31
0.0
 11
168.0207149290459
 21
282.5331614851393
 31
0.0
 11
167.9155061059768
 21
282.8321086210656
 31
0.0
 11
167.7657179225917
 21
283.1322147906802
 31
0.0
 11
167.5818713275481
 21
283.4123482465612
 31
0.0
 11
167.3519483078612
 21
283.6913854224022
 31
0.0
 11
167.0954633655626
 21
283.9457963623797
 31
0.0
 11
166.793422786806
 21
284.1946280523384
 31
0.0
 11
166.4715420416545
 21
284.4168038156984
 31
0.0
 11
166.1074842860237
 21
284.6278197252399
 31
0.0
 11
165.7291076517266
 21
284.811577266284
 31
0.0
 11
165.3147649290766
 21
284.978629423976
 31
0.0
 11
164.8905649172499
 21
285.1184555359595
 31
0.0
 11
164.438963798963
 21
285.2368728217464
 31
0.0
 11
163.9811941320895
 21
285.3282937950096
 31
0.0
 11
163.5063509659827
 21
285.3949382013663
 31
0.0
 11
163.0285411218229
 21
285.434796707446
 31
0.0
 11
162.5448571357389
 21
285.4481478419739
 31
0.0
 11
162.0611731420757
 21
285.4347852323932
 31
0.0
 11
161.5832602488391
 21
285.3949038748462
 31
0.0
 11
161.1083165975762
 21
285.3282251810253
 31
0.0
 11
160.6505512955902
 21
285.2367823633055
 31
0.0
 11
160.1989558326076
 21
285.11834351256
 31
0.0
 11
159.7747624989332
 21
284.9784971417851
 31
0.0
 11
159.3604277544239
 21
284.8114252058279
 31
0.0
 11
158.9820598958991
 21
284.6276495880045
 31
0.0
 11
158.6180122177423
 21
284.4166162451231
 31
0.0
 11
158.2961420830657
 21
284.1944251516094
 31
0.0
 11
157.9941133879395
 21
283.945579287813
 31
0.0
 11
157.7376405951627
 21
283.6911558868916
 31
0.0
 11
157.5077308998488
 21
283.4121064387529
 31
0.0
 11
157.3238976840514
 21
283.1319653239174
 31
0.0
 11
157.1741238396872
 21
282.8318587608699
 31
0.0
 11
157.068929286457
 21
282.532900433424
 31
0.0
 11
157.0043559954303
 21
282.2223836538125
 31
0.0
 11
156.9826880512929
 21
281.9126579245607
 31
0.0
 11
157.004370786434
 21
281.6029332304199
 31
0.0
 11
157.0689589061923
 21
281.2924195348759
 31
0.0
 11
157.174167736131
 21
280.9934662313627
 31
0.0
 11
157.3239559119873
 21
280.6933668211446
 31
0.0
 11
157.5078025057829
 21
280.4132344856296
 31
0.0
 11
157.7377255269096
 21
280.1341960172021
 31
0.0
 11
157.9942104694456
 21
279.8797848644872
 31
0.0
 11
158.2962510479235
 21
279.630953424435
 31
0.0
 11
158.6181317930262
 21
279.4087777021946
 31
0.0
 11
158.9821895487137
 21
279.1977617447027
 31
0.0
 11
159.3605661830383
 21
279.0140041959276
 31
0.0
 11
159.7749089056574
 21
278.8469520470548
 31
0.0
 11
160.1991089173642
 21
278.7071259352388
 31
0.0
 11
160.6507100357807
 21
278.588708649231
 31
0.0
 11
161.1084797033868
 21
278.4972876839981
 31
0.0
 11
161.5833747039291
 21
278.4306374744661
 31
0.0
 11
162.061237024592
 21
278.3907789536638
 31
0.0
 11
162.5449213332922
 21
278.3774336308135
 31
0.0
 11
163.028605004132
 21
278.39080205205
 31
0.0
 11
163.5064654207962
 21
278.4306833932997
 31
0.0
 11
163.9813572378978
 21
278.497356281786
 31
0.0
 11
164.4391225391533
 21
278.5887991075348
 31
0.0
 11
164.8907180020204
 21
278.7072379580562
 31
0.0
 11
165.3149113358021
 21
278.8470843290019
 31
0.0
 11
165.7292460802662
 21
279.0141562737962
 31
0.0
 11
166.1076139388303
 21
279.1979318838727
 31
0.0
 11
166.4716616173336
 21
279.4089651787085
 31
0.0
 11
166.7935317517129
 21
279.6311563134237
 31
0.0
 11
167.095560445017
 21
279.8800024276229
 31
0.0
 11
167.3520332393448
 21
280.1344256153838
 31
0.0
 11
167.5819429440856
 21
280.4134737683672
 31
0.0
 11
167.7657761517122
 21
280.6936160057961
 31
0.0
 11
167.9155499467799
 21
280.9937293416747
 31
0.0
 11
168.0207357208755
 21
281.2926498133942
 31
0.0
 11
168.0853088996903
 21
281.6030958319153
 31
0.0
 11
168.1015661234442
 21
281.7579545730495
 31
0.0
 11
168.1069857840619
 21
281.9128571409015
 31
0.0
 11
168.1015655296697
 21
282.0677926439718
 31
0.0
 11
168.0853030080205
 21
282.2226844054404
 31
0.0
  0
ENDBLK
  5
52
330
50
100
AcDbEntity
  8
0
100
AcDbBlockEnd
  0
BLOCK
  5
54
330
53
100
AcDbEntity
  8
0
100
AcDbBlockBegin
  2
36-54-M11
 70
     0
 10
155.6627109079317
 20
150.3083076188825
 30
0.0
  3
36-54-M11
  1

  0
LINE
  5
1A0
330
53
100
AcDbEntity
  8
1
  6
Continuous
 62
     7
100
AcDbLine
 10
262.794836917368
 20
295.3774336283187
 30
0.0
 11
262.794836917368
 21
292.3774336283187
 31
0.0
  0
LINE
  5
1A1
330
53
100
AcDbEntity
  8
1
  6
Continuous
 62
     7
100
AcDbLine
 10
253.294836917368
 20
292.3774336283187
 30
0.0
 11
253.294836917368
 21
295.3774336283187
 31
0.0
  0
LINE
  5
1A2
330
53
100
AcDbEntity
  8
1
  6
Continuous
 62
     7
100
AcDbLine
 10
160.7948369173681
 20
295.3774336283187
 30
0.0
 11
160.7948369173681
 21
292.3774336283187
 31
0.0
  0
LINE
  5
1A3
330
53
100
AcDbEntity
  8
1
  6
Continuous
 62
     7
100
AcDbLine
 10
151.2948369173681
 20
292.3774336283187
 30
0.0
 11
151.2948369173681
 21
295.3774336283187
 31
0.0
  0
ENDBLK
  5
55
330
53
100
AcDbEntity
  8
0
100
AcDbBlockEnd
  0
BLOCK
  5
57
330
56
100
AcDbEntity
  8
0
100
AcDbBlockBegin
  2
42-15-M2
 70
     0
 10
169.9405768307645
 20
99.58778461873382
 30
0.0
  3
42-15-M2
  1

  0
LINE
  5
1A4
330
56
100
AcDbEntity
  8
1
  6
PHANTOM
 62
     4
100
AcDbLine
 10
166.0448369173683
 20
391.5152125705632
 30
0.0
 11
146.0448369173683
 21
391.5152125705632
 31
0.0
  0
LINE
  5
1A5
330
56
100
AcDbEntity
  8
1
  6
PHANTOM
 62
     4
100
AcDbLine
 10
156.0448369173683
 20
381.5152125705632
 30
0.0
 11
156.0448369173683
 21
401.5152125705632
 31
0.0
  0
LINE
  5
1A6
330
56
100
AcDbEntity
  8
1
  6
Continuous
 62
     2
100
AcDbLine
 10
259.544836917368
 20
307.3150274566879
 30
0.0
 11
259.544836917368
 21
308.6637537865405
 31
0.0
  0
LINE
  5
1A7
330
56
100
AcDbEntity
  8
1
  6
Continuous
 62
     2
100
AcDbLine
 10
260.544836917368
 20
306.9909828189961
 30
0.0
 11
260.544836917368
 21
308.9089767556046
 31
0.0
  0
LINE
  5
1A8
330
56
100
AcDbEntity
  8
1
  6
Continuous
 62
     2
100
AcDbLine
 10
261.544836917368
 20
306.6319063285808
 30
0.0
 11
261.544836917368
 21
309.1016519455835
 31
0.0
  0
LINE
  5
1A9
330
56
100
AcDbEntity
  8
1
  6
Continuous
 62
     2
100
AcDbLine
 10
262.544836917368
 20
306.4830209545061
 30
0.0
 11
262.544836917368
 21
309.2330213932965
 31
0.0
  0
LINE
  5
1AA
330
56
100
AcDbEntity
  8
1
  6
Continuous
 62
     7
100
AcDbLine
 10
255.3948369173679
 20
306.3774336283187
 30
0.0
 11
263.544836917368
 21
306.3774336283187
 31
0.0
  0
LINE
  5
1AB
330
56
100
AcDbEntity
  8
1
  6
Continuous
 62
     7
100
AcDbLine
 10
263.544836917368
 20
309.3774336283187
 30
0.0
 11
252.544836917368
 21
309.3774336283187
 31
0.0
  0
LINE
  5
1AC
330
56
100
AcDbEntity
  8
1
  6
Continuous
 62
     2
100
AcDbLine
 10
263.544836917368
 20
306.3774336283187
 30
0.0
 11
263.544836917368
 21
309.3774336283187
 31
0.0
  0
LINE
  5
1AD
330
56
100
AcDbEntity
  8
1
  6
Continuous
 62
     7
100
AcDbLine
 10
264.544836917368
 20
306.3774336283187
 30
0.0
 11
263.544836917368
 21
306.3774336283187
 31
0.0
  0
LINE
  5
1AE
330
56
100
AcDbEntity
  8
1
  6
Continuous
 62
     7
100
AcDbLine
 10
264.544836917368
 20
309.3774336283187
 30
0.0
 11
263.544836917368
 21
309.3774336283187
 31
0.0
  0
LINE
  5
1AF
330
56
100
AcDbEntity
  8
1
  6
Continuous
 62
     2
100
AcDbLine
 10
264.544836917368
 20
306.3774336283187
 30
0.0
 11
264.544836917368
 21
309.3774336283187
 31
0.0
  0
LINE
  5
1B0
330
56
100
AcDbEntity
  8
1
  6
Continuous
 62
     7
100
AcDbLine
 10
265.044836917368
 20
309.3774336283187
 30
0.0
 11
265.044836917368
 21
306.3774336283187
 31
0.0
  0
LINE
  5
1B1
330
56
100
AcDbEntity
  8
1
  6
Continuous
 62
     7
100
AcDbLine
 10
264.544836917368
 20
306.3774336283187
 30
0.0
 11
265.044836917368
 21
306.3774336283187
 31
0.0
  0
LINE
  5
1B2
330
56
100
AcDbEntity
  8
1
  6
Continuous
 62
     7
100
AcDbLine
 10
264.0448369173681
 20
309.6467558273419
 30
0.0
 11
265.044836917368
 21
309.3774336283187
 31
0.0
  0
LINE
  5
1B3
330
56
100
AcDbEntity
  8
1
  6
Continuous
 62
     7
100
AcDbLine
 10
264.544836917368
 20
309.3774336283187
 30
0.0
 11
265.044836917368
 21
309.3774336283187
 31
0.0
  0
LINE
  5
1B4
330
56
100
AcDbEntity
  8
1
  6
Continuous
 62
     7
100
AcDbLine
 10
258.044836917368
 20
309.7071993485224
 30
0.0
 11
263.794836917368
 21
309.7071993485224
 31
0.0
  0
LINE
  5
1B5
330
56
100
AcDbEntity
  8
1
  6
Continuous
 62
     7
100
AcDbLine
 10
252.294836917368
 20
309.7071993485224
 30
0.0
 11
258.044836917368
 21
309.7071993485224
 31
0.0
  0
LINE
  5
1B6
330
56
100
AcDbEntity
  8
1
  6
Continuous
 62
     7
100
AcDbLine
 10
252.544836917368
 20
306.3774336283187
 30
0.0
 11
251.544836917368
 21
306.3774336283187
 31
0.0
  0
LINE
  5
1B7
330
56
100
AcDbEntity
  8
1
  6
Continuous
 62
     7
100
AcDbLine
 10
252.544836917368
 20
309.3774336283187
 30
0.0
 11
251.544836917368
 21
309.3774336283187
 31
0.0
  0
LINE
  5
1B8
330
56
100
AcDbEntity
  8
1
  6
Continuous
 62
     7
100
AcDbLine
 10
251.044836917368
 20
309.3774336283187
 30
0.0
 11
251.544836917368
 21
309.3774336283187
 31
0.0
  0
LINE
  5
1B9
330
56
100
AcDbEntity
  8
1
  6
Continuous
 62
     7
100
AcDbLine
 10
251.044836917368
 20
309.3774336283187
 30
0.0
 11
252.0448369173678
 21
309.6467558273419
 31
0.0
  0
LINE
  5
1BA
330
56
100
AcDbEntity
  8
1
  6
Continuous
 62
     7
100
AcDbLine
 10
251.044836917368
 20
306.3774336283187
 30
0.0
 11
251.544836917368
 21
306.3774336283187
 31
0.0
  0
LINE
  5
1BB
330
56
100
AcDbEntity
  8
1
  6
Continuous
 62
     7
100
AcDbLine
 10
251.044836917368
 20
306.3774336283187
 30
0.0
 11
251.044836917368
 21
309.3774336283187
 31
0.0
  0
LINE
  5
1BC
330
56
100
AcDbEntity
  8
1
  6
Continuous
 62
     2
100
AcDbLine
 10
251.544836917368
 20
309.3774336283187
 30
0.0
 11
251.544836917368
 21
306.3774336283187
 31
0.0
  0
LINE
  5
1BD
330
56
100
AcDbEntity
  8
1
  6
Continuous
 62
     2
100
AcDbLine
 10
252.544836917368
 20
309.3774336283187
 30
0.0
 11
252.544836917368
 21
306.3774336283187
 31
0.0
  0
LINE
  5
1BE
330
56
100
AcDbEntity
  8
1
  6
Continuous
 62
     7
100
AcDbLine
 10
252.544836917368
 20
306.3774336283187
 30
0.0
 11
255.3948369173679
 21
306.3774336283187
 31
0.0
  0
LINE
  5
1BF
330
56
100
AcDbEntity
  8
1
  6
Continuous
 62
     2
100
AcDbLine
 10
253.544836917368
 20
309.2330213932965
 30
0.0
 11
253.544836917368
 21
306.4830209545061
 31
0.0
  0
LINE
  5
1C0
330
56
100
AcDbEntity
  8
1
  6
Continuous
 62
     2
100
AcDbLine
 10
254.544836917368
 20
309.1016519455835
 30
0.0
 11
254.544836917368
 21
306.6319063285808
 31
0.0
  0
LINE
  5
1C1
330
56
100
AcDbEntity
  8
1
  6
Continuous
 62
     2
100
AcDbLine
 10
255.544836917368
 20
308.9089767556046
 30
0.0
 11
255.544836917368
 21
306.9909828189961
 31
0.0
  0
LINE
  5
1C2
330
56
100
AcDbEntity
  8
1
  6
Continuous
 62
     2
100
AcDbLine
 10
256.544836917368
 20
308.6637537865405
 30
0.0
 11
256.544836917368
 21
307.3150274566879
 31
0.0
  0
LINE
  5
1C3
330
56
100
AcDbEntity
  8
1
  6
Continuous
 62
     2
100
AcDbLine
 10
157.5448369173681
 20
307.3150274566879
 30
0.0
 11
157.5448369173681
 21
308.6637537865405
 31
0.0
  0
LINE
  5
1C4
330
56
100
AcDbEntity
  8
1
  6
Continuous
 62
     2
100
AcDbLine
 10
158.5448369173681
 20
306.9909828189961
 30
0.0
 11
158.5448369173681
 21
308.9089767556046
 31
0.0
  0
LINE
  5
1C5
330
56
100
AcDbEntity
  8
1
  6
Continuous
 62
     2
100
AcDbLine
 10
159.5448369173681
 20
306.6319063285808
 30
0.0
 11
159.5448369173681
 21
309.1016519455835
 31
0.0
  0
LINE
  5
1C6
330
56
100
AcDbEntity
  8
1
  6
Continuous
 62
     2
100
AcDbLine
 10
160.5448369173681
 20
306.4830209545061
 30
0.0
 11
160.5448369173681
 21
309.2330213932965
 31
0.0
  0
LINE
  5
1C7
330
56
100
AcDbEntity
  8
1
  6
Continuous
 62
     7
100
AcDbLine
 10
153.3948369173681
 20
306.3774336283187
 30
0.0
 11
161.5448369173681
 21
306.3774336283187
 31
0.0
  0
LINE
  5
1C8
330
56
100
AcDbEntity
  8
1
  6
Continuous
 62
     7
100
AcDbLine
 10
161.5448369173681
 20
309.3774336283187
 30
0.0
 11
150.5448369173681
 21
309.3774336283187
 31
0.0
  0
LINE
  5
1C9
330
56
100
AcDbEntity
  8
1
  6
Continuous
 62
     2
100
AcDbLine
 10
161.5448369173681
 20
306.3774336283187
 30
0.0
 11
161.5448369173681
 21
309.3774336283187
 31
0.0
  0
LINE
  5
1CA
330
56
100
AcDbEntity
  8
1
  6
Continuous
 62
     7
100
AcDbLine
 10
162.5448369173681
 20
306.3774336283187
 30
0.0
 11
161.5448369173681
 21
306.3774336283187
 31
0.0
  0
LINE
  5
1CB
330
56
100
AcDbEntity
  8
1
  6
Continuous
 62
     7
100
AcDbLine
 10
162.5448369173681
 20
309.3774336283187
 30
0.0
 11
161.5448369173681
 21
309.3774336283187
 31
0.0
  0
LINE
  5
1CC
330
56
100
AcDbEntity
  8
1
  6
Continuous
 62
     2
100
AcDbLine
 10
162.5448369173681
 20
306.3774336283187
 30
0.0
 11
162.5448369173681
 21
309.3774336283187
 31
0.0
  0
LINE
  5
1CD
330
56
100
AcDbEntity
  8
1
  6
Continuous
 62
     7
100
AcDbLine
 10
163.0448369173681
 20
309.3774336283187
 30
0.0
 11
163.0448369173681
 21
306.3774336283187
 31
0.0
  0
LINE
  5
1CE
330
56
100
AcDbEntity
  8
1
  6
Continuous
 62
     7
100
AcDbLine
 10
162.5448369173681
 20
306.3774336283187
 30
0.0
 11
163.0448369173681
 21
306.3774336283187
 31
0.0
  0
LINE
  5
1CF
330
56
100
AcDbEntity
  8
1
  6
Continuous
 62
     7
100
AcDbLine
 10
162.0448369173683
 20
309.6467558273419
 30
0.0
 11
163.0448369173681
 21
309.3774336283187
 31
0.0
  0
LINE
  5
1D0
330
56
100
AcDbEntity
  8
1
  6
Continuous
 62
     7
100
AcDbLine
 10
162.5448369173681
 20
309.3774336283187
 30
0.0
 11
163.0448369173681
 21
309.3774336283187
 31
0.0
  0
LINE
  5
1D1
330
56
100
AcDbEntity
  8
1
  6
Continuous
 62
     7
100
AcDbLine
 10
156.0448369173681
 20
309.7071993485224
 30
0.0
 11
161.7948369173681
 21
309.7071993485224
 31
0.0
  0
LINE
  5
1D2
330
56
100
AcDbEntity
  8
1
  6
Continuous
 62
     7
100
AcDbLine
 10
150.2948369173681
 20
309.7071993485224
 30
0.0
 11
156.0448369173681
 21
309.7071993485224
 31
0.0
  0
LINE
  5
1D3
330
56
100
AcDbEntity
  8
1
  6
Continuous
 62
     7
100
AcDbLine
 10
150.5448369173681
 20
306.3774336283187
 30
0.0
 11
149.5448369173681
 21
306.3774336283187
 31
0.0
  0
LINE
  5
1D4
330
56
100
AcDbEntity
  8
1
  6
Continuous
 62
     7
100
AcDbLine
 10
150.5448369173681
 20
309.3774336283187
 30
0.0
 11
149.5448369173681
 21
309.3774336283187
 31
0.0
  0
LINE
  5
1D5
330
56
100
AcDbEntity
  8
1
  6
Continuous
 62
     7
100
AcDbLine
 10
149.0448369173681
 20
309.3774336283187
 30
0.0
 11
149.5448369173681
 21
309.3774336283187
 31
0.0
  0
LINE
  5
1D6
330
56
100
AcDbEntity
  8
1
  6
Continuous
 62
     7
100
AcDbLine
 10
149.0448369173681
 20
309.3774336283187
 30
0.0
 11
150.0448369173681
 21
309.6467558273419
 31
0.0
  0
LINE
  5
1D7
330
56
100
AcDbEntity
  8
1
  6
Continuous
 62
     7
100
AcDbLine
 10
149.0448369173681
 20
306.3774336283187
 30
0.0
 11
149.5448369173681
 21
306.3774336283187
 31
0.0
  0
LINE
  5
1D8
330
56
100
AcDbEntity
  8
1
  6
Continuous
 62
     7
100
AcDbLine
 10
149.0448369173681
 20
306.3774336283187
 30
0.0
 11
149.0448369173681
 21
309.3774336283187
 31
0.0
  0
LINE
  5
1D9
330
56
100
AcDbEntity
  8
1
  6
Continuous
 62
     2
100
AcDbLine
 10
149.5448369173681
 20
309.3774336283187
 30
0.0
 11
149.5448369173681
 21
306.3774336283187
 31
0.0
  0
LINE
  5
1DA
330
56
100
AcDbEntity
  8
1
  6
Continuous
 62
     2
100
AcDbLine
 10
150.5448369173681
 20
309.3774336283187
 30
0.0
 11
150.5448369173681
 21
306.3774336283187
 31
0.0
  0
LINE
  5
1DB
330
56
100
AcDbEntity
  8
1
  6
Continuous
 62
     7
100
AcDbLine
 10
150.5448369173681
 20
306.3774336283187
 30
0.0
 11
153.3948369173681
 21
306.3774336283187
 31
0.0
  0
LINE
  5
1DC
330
56
100
AcDbEntity
  8
1
  6
Continuous
 62
     2
100
AcDbLine
 10
151.5448369173681
 20
309.2330213932965
 30
0.0
 11
151.5448369173681
 21
306.4830209545061
 31
0.0
  0
LINE
  5
1DD
330
56
100
AcDbEntity
  8
1
  6
Continuous
 62
     2
100
AcDbLine
 10
152.5448369173681
 20
309.1016519455835
 30
0.0
 11
152.5448369173681
 21
306.6319063285808
 31
0.0
  0
LINE
  5
1DE
330
56
100
AcDbEntity
  8
1
  6
Continuous
 62
     2
100
AcDbLine
 10
153.5448369173681
 20
308.9089767556046
 30
0.0
 11
153.5448369173681
 21
306.9909828189961
 31
0.0
  0
LINE
  5
1DF
330
56
100
AcDbEntity
  8
1
  6
Continuous
 62
     2
100
AcDbLine
 10
154.5448369173681
 20
308.6637537865405
 30
0.0
 11
154.5448369173681
 21
307.3150274566879
 31
0.0
  0
ARC
  5
1E0
330
56
100
AcDbEntity
  8
1
  6
Continuous
 62
     7
100
AcDbCircle
 10
258.044836917368
 20
285.3774336283187
 30
0.0
 40
25.00000000000001
100
AcDbArc
 50
76.11345963737075
 51
76.70292825279094
  0
ARC
  5
1E1
330
56
100
AcDbEntity
  8
1
  6
Continuous
 62
     7
100
AcDbCircle
 10
258.044836917368
 20
285.3774336283187
 30
0.0
 40
25.0
100
AcDbArc
 50
90.0
 51
103.2970717472091
  0
ARC
  5
1E2
330
56
100
AcDbEntity
  8
1
  6
Continuous
 62
     7
100
AcDbCircle
 10
258.044836917368
 20
285.3774336283187
 30
0.0
 40
24.99999999999996
100
AcDbArc
 50
103.2970717472091
 51
103.8865403626294
  0
ARC
  5
1E3
330
56
100
AcDbEntity
  8
1
  6
Continuous
 62
     7
100
AcDbCircle
 10
258.044836917368
 20
285.3774336283187
 30
0.0
 40
24.99999999999996
100
AcDbArc
 50
76.70292825279094
 51
90.0
  0
ARC
  5
1E4
330
56
100
AcDbEntity
  8
1
  6
Continuous
 62
     7
100
AcDbCircle
 10
156.0448369173681
 20
285.3774336283187
 30
0.0
 40
25.00000000000004
100
AcDbArc
 50
76.11345963737057
 51
76.70292825279094
  0
ARC
  5
1E5
330
56
100
AcDbEntity
  8
1
  6
Continuous
 62
     7
100
AcDbCircle
 10
156.0448369173681
 20
285.3774336283187
 30
0.0
 40
25.0
100
AcDbArc
 50
90.0
 51
103.2970717472091
  0
ARC
  5
1E6
330
56
100
AcDbEntity
  8
1
  6
Continuous
 62
     7
100
AcDbCircle
 10
156.0448369173681
 20
285.3774336283187
 30
0.0
 40
24.99999999999996
100
AcDbArc
 50
103.2970717472091
 51
103.886540362629
  0
ARC
  5
1E7
330
56
100
AcDbEntity
  8
1
  6
Continuous
 62
     7
100
AcDbCircle
 10
156.0448369173681
 20
285.3774336283187
 30
0.0
 40
24.99999999999996
100
AcDbArc
 50
76.70292825279094
 51
90.0
  0
CIRCLE
  5
1E8
330
56
100
AcDbEntity
  8
0
  6
Continuous
 62
     7
100
AcDbCircle
 10
156.0448369173683
 20
391.5152125705632
 30
0.0
 40
5.75
  0
CIRCLE
  5
1E9
330
56
100
AcDbEntity
  8
0
  6
Continuous
 62
     7
100
AcDbCircle
 10
156.0448369173683
 20
391.5152125705632
 30
0.0
 40
7.0
  0
ENDBLK
  5
58
330
56
100
AcDbEntity
  8
0
100
AcDbBlockEnd
  0
BLOCK
  5
5A
330
59
100
AcDbEntity
  8
0
100
AcDbBlockBegin
  2
21-1A-M1
 70
     0
 10
299.6877718759346
 20
431.4727864956459
 30
0.0
  3
21-1A-M1
  1

  0
LINE
  5
1EA
330
59
100
AcDbEntity
  8
1
  6
Continuous
 62
     7
100
AcDbLine
 10
150.2492819596338
 20
364.9622982999482
 30
0.0
 11
146.9446245187683
 21
377.2954477708683
 31
0.0
  0
LINE
  5
1EB
330
59
100
AcDbEntity
  8
1
  6
PHANTOM
 62
     4
100
AcDbLine
 10
128.0448369173681
 20
391.5152125705633
 30
0.0
 11
184.0448369173681
 21
391.5152125705633
 31
0.0
  0
LINE
  5
1EC
330
59
100
AcDbEntity
  8
1
  6
PHANTOM
 62
     4
100
AcDbLine
 10
188.0866192104591
 20
410.0145442027947
 30
0.0
 11
137.5334803054486
 21
380.8276758476063
 31
0.0
  0
LINE
  5
1ED
330
59
100
AcDbEntity
  8
1
  6
Continuous
 62
     7
100
AcDbLine
 10
161.8403918751025
 20
364.9622982999482
 30
0.0
 11
165.145049315968
 21
377.2954477708683
 31
0.0
  0
LINE
  5
1EE
330
59
100
AcDbEntity
  8
1
  6
Continuous
 62
     7
100
AcDbLine
 10
181.9381126990984
 20
399.772571883444
 30
0.0
 11
172.9096206690435
 21
390.7440798533893
 31
0.0
  0
LINE
  5
1EF
330
59
100
AcDbEntity
  8
1
  6
Continuous
 62
     7
100
AcDbLine
 10
176.9030626439846
 20
410.0145442027947
 30
0.0
 11
163.8094082704438
 21
406.5061100874323
 31
0.0
  0
LINE
  5
1F0
330
59
100
AcDbEntity
  8
1
  6
Continuous
 62
     7
100
AcDbLine
 10
135.9471160933724
 20
409.8107675282976
 30
0.0
 11
148.2802655642925
 21
406.5061100874323
 31
0.0
  0
LINE
  5
1F1
330
59
100
AcDbEntity
  8
1
  6
Continuous
 62
     7
100
AcDbLine
 10
130.1515611356379
 20
399.772571883444
 30
0.0
 11
139.1800531656928
 21
390.7440798533893
 31
0.0
  0
LINE
  5
1F2
330
59
100
AcDbEntity
  8
1
  6
PHANTOM
 62
     4
100
AcDbLine
 10
124.0030546242771
 20
410.0145442027947
 30
0.0
 11
175.1908680467741
 21
380.4612463440878
 31
0.0
  0
LINE
  5
1F3
330
59
100
AcDbEntity
  8
1
  6
Continuous
 62
     7
100
AcDbLine
 10
271.8371283208585
 20
295.3774336283187
 30
0.0
 11
270.2717716897665
 21
295.3774336283187
 31
0.0
  0
LINE
  5
1F4
330
59
100
AcDbEntity
  8
1
  6
Continuous
 62
     7
100
AcDbLine
 10
227.6200211209784
 20
295.3774336283187
 30
0.0
 11
253.294836917368
 21
295.3774336283187
 31
0.0
  0
LINE
  5
1F5
330
59
100
AcDbEntity
  8
1
  6
Continuous
 62
     7
100
AcDbLine
 10
227.5767951856001
 20
299.1625133836694
 30
0.0
 11
227.1248870866077
 21
295.9470201787988
 31
0.0
  0
LINE
  5
1F6
330
59
100
AcDbEntity
  8
1
  6
Continuous
 62
     7
100
AcDbLine
 10
271.8371283208585
 20
295.3774336283187
 30
0.0
 11
275.9696112052936
 21
295.3774336283187
 31
0.0
  0
LINE
  5
1F7
330
59
100
AcDbEntity
  8
1
  6
Continuous
 62
     7
100
AcDbLine
 10
275.8475227717191
 20
300.3365102340623
 30
0.0
 11
276.4647402657267
 21
295.9470555610313
 31
0.0
  0
LINE
  5
1F8
330
59
100
AcDbEntity
  8
1
  6
Continuous
 62
     7
100
AcDbLine
 10
253.294836917368
 20
295.3774336283187
 30
0.0
 11
271.8371283208585
 21
295.3774336283187
 31
0.0
  0
LINE
  5
1F9
330
59
100
AcDbEntity
  8
1
  6
PHANTOM
 62
     4
100
AcDbLine
 10
156.0448369173681
 20
357.5152125705633
 30
0.0
 11
156.0448369173681
 21
408.4838848761043
 31
0.0
  0
LINE
  5
1FA
330
59
100
AcDbEntity
  8
1
  6
Continuous
 62
     7
100
AcDbLine
 10
128.3993049555041
 20
299.3384094216718
 30
0.0
 11
128.3993049555041
 21
296.0533296663212
 31
0.0
  0
LINE
  5
1FB
330
59
100
AcDbEntity
  8
1
  6
Continuous
 62
     7
100
AcDbLine
 10
156.0448369173681
 20
295.5533296663212
 30
0.0
 11
128.8993049555041
 21
295.5533296663212
 31
0.0
  0
LINE
  5
1FC
330
59
100
AcDbEntity
  8
1
  6
Continuous
 62
     7
100
AcDbLine
 10
183.6903688792322
 20
296.0533296663212
 30
0.0
 11
183.6903688792322
 21
299.3384094216718
 31
0.0
  0
LINE
  5
1FD
330
59
100
AcDbEntity
  8
1
  6
Continuous
 62
     7
100
AcDbLine
 10
183.1903688792322
 20
295.5533296663212
 30
0.0
 11
156.0448369173681
 21
295.5533296663212
 31
0.0
  0
ARC
  5
1FE
330
59
100
AcDbEntity
  8
1
  6
Continuous
 62
     7
100
AcDbCircle
 10
156.0448369173681
 20
366.5152125705633
 30
0.0
 40
6.0
100
AcDbArc
 50
270.0
 51
345.0000000000005
  0
ARC
  5
1FF
330
59
100
AcDbEntity
  8
1
  6
Continuous
 62
     7
100
AcDbCircle
 10
177.6954720119792
 20
404.0152125705632
 30
0.0
 40
5.999999999999887
100
AcDbArc
 50
315.0
 51
97.52424107894214
  0
ARC
  5
200
330
59
100
AcDbEntity
  8
1
  6
Continuous
 62
     7
100
AcDbCircle
 10
134.3942018227572
 20
404.0152125705632
 30
0.0
 40
6.000000000000004
100
AcDbArc
 50
74.99999999999936
 51
224.9999999999994
  0
ARC
  5
201
330
59
100
AcDbEntity
  8
1
  6
Continuous
 62
     7
100
AcDbCircle
 10
156.0448369173681
 20
366.5152125705633
 30
0.0
 40
5.999999999999864
100
AcDbArc
 50
194.9999999999999
 51
270.0
  0
ARC
  5
202
330
59
100
AcDbEntity
  8
1
  6
Continuous
 62
     7
100
AcDbCircle
 10
258.4090325826147
 20
231.4656126196195
 30
0.0
 40
74.99999999999996
100
AcDbArc
 50
80.40850751733508
 51
87.22136103403739
  0
ARC
  5
203
330
59
100
AcDbEntity
  8
1
  6
Continuous
 62
     7
100
AcDbCircle
 10
258.044836917368
 20
156.3774336283187
 30
0.0
 40
150.0533238552216
100
AcDbArc
 50
91.52752544221293
 51
99.80290179376779
  0
ARC
  5
204
330
59
100
AcDbEntity
  8
1
  6
Continuous
 62
     7
100
AcDbCircle
 10
158.867346687272
 20
156.5533296663212
 30
0.0
 40
150.0533238552217
100
AcDbArc
 50
92.51333555055017
 51
99.80290179376779
  0
ARC
  5
205
330
59
100
AcDbEntity
  8
1
  6
Continuous
 62
     7
100
AcDbCircle
 10
153.2223271474643
 20
156.5533296663212
 30
0.0
 40
150.0533238552217
100
AcDbArc
 50
80.19709820623223
 51
87.48666444944983
  0
ARC
  5
206
330
59
100
AcDbEntity
  8
0
  6
Continuous
 62
     7
100
AcDbCircle
 10
117.9668497300962
 20
369.5308764177928
 30
0.0
 40
30.00000000000002
100
AcDbArc
 50
14.99999999999974
 51
44.99999999999983
  0
ARC
  5
207
330
59
100
AcDbEntity
  8
0
  6
Continuous
 62
     7
100
AcDbCircle
 10
156.0448369173681
 20
435.4838848761043
 30
0.0
 40
29.99999999999992
100
AcDbArc
 50
255.0
 51
285.0000000000002
  0
ARC
  5
208
330
59
100
AcDbEntity
  8
0
  6
Continuous
 62
     7
100
AcDbCircle
 10
194.1228241046399
 20
369.5308764177928
 30
0.0
 40
30.00000000000002
100
AcDbArc
 50
134.9999999999999
 51
165.0000000000002
  0
ARC
  5
209
330
59
100
AcDbEntity
  8
1
  6
Continuous
 62
     7
100
AcDbCircle
 10
227.6200211209784
 20
295.8774336283187
 30
0.0
 40
0.4999999999999177
100
AcDbArc
 50
171.9999999999913
 51
270.0
  0
ARC
  5
20A
330
59
100
AcDbEntity
  8
1
  6
Continuous
 62
     7
100
AcDbCircle
 10
233.5184035980495
 20
298.327474777909
 30
0.0
 40
6.000000000000019
100
AcDbArc
 50
99.8029017937678
 51
171.9999999999997
  0
ARC
  5
20B
330
59
100
AcDbEntity
  8
1
  6
Continuous
 62
     7
100
AcDbCircle
 10
269.9059740465219
 20
299.5010470415108
 30
0.0
 40
6.000000000000078
100
AcDbArc
 50
8.00409437170199
 51
80.40850751733613
  0
ARC
  5
20C
330
59
100
AcDbEntity
  8
1
  6
Continuous
 62
     7
100
AcDbCircle
 10
275.9696112052936
 20
295.8774336283187
 30
0.0
 40
0.5
100
AcDbArc
 50
270.0
 51
8.00409437169339
  0
ARC
  5
20D
330
59
100
AcDbEntity
  8
1
  6
Continuous
 62
     7
100
AcDbCircle
 10
134.3409133679535
 20
298.5033708159116
 30
0.0
 40
6.000000000000019
100
AcDbArc
 50
99.8029017937678
 51
172.0000000000014
  0
ARC
  5
20E
330
59
100
AcDbEntity
  8
1
  6
Continuous
 62
     7
100
AcDbCircle
 10
128.8993049555041
 20
296.0533296663212
 30
0.0
 40
0.5
100
AcDbArc
 50
180.0
 51
270.0
  0
ARC
  5
20F
330
59
100
AcDbEntity
  8
1
  6
Continuous
 62
     7
100
AcDbCircle
 10
177.7487604667828
 20
298.5033708159116
 30
0.0
 40
5.999999999999956
100
AcDbArc
 50
7.99999999999865
 51
80.19709820623221
  0
ARC
  5
210
330
59
100
AcDbEntity
  8
1
  6
Continuous
 62
     7
100
AcDbCircle
 10
183.1903688792322
 20
296.0533296663212
 30
0.0
 40
0.5
100
AcDbArc
 50
270.0
 51
0.0
  0
ENDBLK
  5
5B
330
59
100
AcDbEntity
  8
0
100
AcDbBlockEnd
  0
BLOCK
  5
5D
330
5C
100
AcDbEntity
  8
0
100
AcDbBlockBegin
  2
32-213-M2__2
 70
     0
 10
250.966617453925
 20
606.0779256052317
 30
0.0
  3
32-213-M2__2
  1

  0
LINE
  5
211
330
5C
100
AcDbEntity
  8
1
  6
Continuous
 62
     7
100
AcDbLine
 10
252.5391580309816
 20
241.3774336283186
 30
0.0
 11
263.5505158037543
 21
241.3774336283186
 31
0.0
  0
LINE
  5
212
330
5C
100
AcDbEntity
  8
1
  6
Continuous
 62
     7
100
AcDbLine
 10
245.3327053306537
 20
251.8954914090087
 30
0.0
 11
250.83838421704
 21
242.3593758476285
 31
0.0
  0
LINE
  5
213
330
5C
100
AcDbEntity
  8
1
  6
Continuous
 62
     7
100
AcDbLine
 10
270.7569685040821
 20
251.8954914090087
 30
0.0
 11
265.2512896176959
 21
242.3593758476285
 31
0.0
  0
LINE
  5
214
330
5C
100
AcDbEntity
  8
1
  6
Continuous
 62
     7
100
AcDbLine
 10
250.83838421704
 20
263.3954914090087
 30
0.0
 11
245.3327053306537
 21
253.8593758476285
 31
0.0
  0
LINE
  5
215
330
5C
100
AcDbEntity
  8
1
  6
Continuous
 62
     7
100
AcDbLine
 10
270.7569685040821
 20
253.8593758476285
 30
0.0
 11
265.2512896176959
 21
263.3954914090087
 31
0.0
  0
LINE
  5
216
330
5C
100
AcDbEntity
  8
1
  6
Continuous
 62
     7
100
AcDbLine
 10
252.5391580309816
 20
264.3774336283187
 30
0.0
 11
263.5505158037543
 21
264.3774336283187
 31
0.0
  0
LINE
  5
217
330
5C
100
AcDbEntity
  8
0
  6
Continuous
 62
     7
100
AcDbLine
 10
179.5448369173681
 20
397.3792961017139
 30
0.0
 11
179.5448369173681
 21
392.4061109206605
 31
0.0
  0
LINE
  5
218
330
5C
100
AcDbEntity
  8
0
  6
Continuous
 62
     7
100
AcDbLine
 10
191.5448369173681
 20
403.0152125705632
 30
0.0
 11
191.5448369173681
 21
393.853857381866
 31
0.0
  0
LINE
  5
219
330
5C
100
AcDbEntity
  8
0
  6
Continuous
 62
     7
100
AcDbLine
 10
179.5448369173681
 20
392.4061109206605
 30
0.0
 11
179.5448369173683
 21
380.0152125705632
 31
0.0
  0
LINE
  5
21A
330
5C
100
AcDbEntity
  8
0
  6
Continuous
 62
     7
100
AcDbLine
 10
191.5448369173681
 20
393.853857381866
 30
0.0
 11
191.5448369173681
 21
381.5559204270421
 31
0.0
  0
LINE
  5
21B
330
5C
100
AcDbEntity
  8
0
  6
Continuous
 62
     7
100
AcDbLine
 10
191.5448369173681
 20
381.5559204270421
 30
0.0
 11
191.5448369173681
 21
380.0152125705632
 31
0.0
  0
LINE
  5
21C
330
5C
100
AcDbEntity
  8
0
  6
Continuous
 62
     7
100
AcDbLine
 10
179.5448369173681
 20
264.3774336283187
 30
0.0
 11
179.5448369173681
 21
258.6274336283187
 31
0.0
  0
LINE
  5
21D
330
5C
100
AcDbEntity
  8
0
  6
Continuous
 62
     7
100
AcDbLine
 10
191.544836917368
 20
264.3774336283187
 30
0.0
 11
191.544836917368
 21
241.3774336283186
 31
0.0
  0
LINE
  5
21E
330
5C
100
AcDbEntity
  8
1
  6
Continuous
 62
     7
100
AcDbLine
 10
191.544836917368
 20
264.3774336283187
 30
0.0
 11
179.5448369173681
 21
264.3774336283187
 31
0.0
  0
LINE
  5
21F
330
5C
100
AcDbEntity
  8
1
  6
Continuous
 62
     7
100
AcDbLine
 10
179.5448369173683
 20
241.3774336283186
 30
0.0
 11
191.544836917368
 21
241.3774336283186
 31
0.0
  0
LINE
  5
220
330
5C
100
AcDbEntity
  8
0
  6
Continuous
 62
     7
100
AcDbLine
 10
179.5448369173681
 20
258.6274336283187
 30
0.0
 11
179.5448369173683
 21
241.3774336283186
 31
0.0
  0
ARC
  5
221
330
5C
100
AcDbEntity
  8
1
  6
Continuous
 62
     7
100
AcDbCircle
 10
258.044836917368
 20
252.8774336283186
 30
0.0
 40
12.75
100
AcDbArc
 50
0.0
 51
4.41701262951651
  0
ARC
  5
222
330
5C
100
AcDbEntity
  8
1
  6
Continuous
 62
     7
100
AcDbCircle
 10
258.044836917368
 20
252.8774336283186
 30
0.0
 40
12.74999999999993
100
AcDbArc
 50
355.5829873704835
 51
0.0
  0
ARC
  5
223
330
5C
100
AcDbEntity
  8
1
  6
Continuous
 62
     7
100
AcDbCircle
 10
258.044836917368
 20
252.8774336283186
 30
0.0
 40
12.75000000000002
100
AcDbArc
 50
235.5829873704832
 51
244.4170126295159
  0
ARC
  5
224
330
5C
100
AcDbEntity
  8
1
  6
Continuous
 62
     7
100
AcDbCircle
 10
258.044836917368
 20
252.8774336283186
 30
0.0
 40
12.75
100
AcDbArc
 50
295.5829873704838
 51
304.4170126295163
  0
ARC
  5
225
330
5C
100
AcDbEntity
  8
1
  6
Continuous
 62
     7
100
AcDbCircle
 10
258.044836917368
 20
252.8774336283186
 30
0.0
 40
12.75
100
AcDbArc
 50
180.0
 51
184.4170126295164
  0
ARC
  5
226
330
5C
100
AcDbEntity
  8
1
  6
Continuous
 62
     7
100
AcDbCircle
 10
258.044836917368
 20
252.8774336283186
 30
0.0
 40
12.7500000000001
100
AcDbArc
 50
175.5829873704836
 51
180.0
  0
ARC
  5
227
330
5C
100
AcDbEntity
  8
1
  6
Continuous
 62
     7
100
AcDbCircle
 10
258.044836917368
 20
252.8774336283186
 30
0.0
 40
12.74999999999991
100
AcDbArc
 50
55.58298737048364
 51
64.41701262951644
  0
ARC
  5
228
330
5C
100
AcDbEntity
  8
1
  6
Continuous
 62
     7
100
AcDbCircle
 10
258.044836917368
 20
252.8774336283186
 30
0.0
 40
12.75000000000014
100
AcDbArc
 50
115.5829873704839
 51
124.4170126295169
  0
ARC
  5
229
330
5C
100
AcDbEntity
  8
0
  6
Continuous
 62
     7
100
AcDbCircle
 10
185.5448369173681
 20
389.2402125705633
 30
0.0
 40
15.02499999999993
100
AcDbArc
 50
66.4634221359586
 51
97.07611472047908
  0
ARC
  5
22A
330
5C
100
AcDbEntity
  8
0
  6
Continuous
 62
     7
100
AcDbCircle
 10
185.5448369173681
 20
393.7902125705633
 30
0.0
 40
15.025
100
AcDbArc
 50
246.4634221359595
 51
293.5365778640411
  0
CIRCLE
  5
22B
330
5C
100
AcDbEntity
  8
1
  6
Continuous
 62
     7
100
AcDbCircle
 10
258.044836917368
 20
252.8774336283186
 30
0.0
 40
11.04398391922541
  0
SPLINE
  5
22C
330
5C
100
AcDbEntity
  8
0
  6
Continuous
 62
     7
100
AcDbSpline
210
0.0
220
0.0
230
1.0
 70
     8
 71
     3
 72
    35
 73
    31
 74
    29
 42
0.000000001
 43
0.0000000001
 44
0.00000001
 40
0.0
 40
0.0
 40
0.0
 40
0.0
 40
0.2853934435441666
 40
0.570938959544691
 40
1.038435244322335
 40
1.505846506924572
 40
2.002790965725453
 40
2.499688931458008
 40
3.014955324071228
 40
3.530201070671263
 40
4.051675367928324
 40
4.573149665192185
 40
5.088395411811504
 40
5.60366180446098
 40
6.100559770248626
 40
6.597504229137365
 40
7.064915491864538
 40
7.532411776788053
 40
7.960927374571662
 40
8.389592612253312
 40
8.772481240663065
 40
9.155635048253263
 40
9.490190752054563
 40
9.825218299677141
 40
10.11476395021028
 40
10.40509784811103
 40
10.6613866571473
 40
10.91842070374365
 40
11.16245108665224
 40
11.40648145645555
 40
11.40648145645555
 40
11.40648145645555
 40
11.40648145645555
 10
181.5757578032865
 20
399.4102169876262
 30
0.0
 10
181.6643122911393
 20
399.3754219075608
 30
0.0
 10
181.8414684556617
 20
399.3058132131295
 30
0.0
 10
182.1697653460588
 20
399.1957240685855
 30
0.0
 10
182.5606074804355
 20
399.0822618010224
 30
0.0
 10
183.02523527312
 20
398.9722661906269
 30
0.0
 10
183.5040794613591
 20
398.8821526312842
 30
0.0
 10
184.0021456111508
 20
398.8105557093444
 30
0.0
 10
184.5088686213881
 20
398.7595403639928
 30
0.0
 10
185.0254011619049
 20
398.7284605777403
 30
0.0
 10
185.5448369087543
 20
398.7182472439879
 30
0.0
 10
186.0642727642865
 20
398.7284604036664
 30
0.0
 10
186.5808049826329
 20
398.7595410529466
 30
0.0
 10
187.08752915717
 20
398.8105531675945
 30
0.0
 10
187.5855911157978
 20
398.8821617509516
 30
0.0
 10
188.0644505180199
 20
398.9722329731695
 30
0.0
 10
188.5290247536639
 20
399.0823776246491
 30
0.0
 10
188.96584393813
 20
399.2085976521058
 30
0.0
 10
189.3829453091815
 20
399.3541480757493
 30
0.0
 10
189.7650389019274
 20
399.5126022639014
 30
0.0
 10
190.1221680049102
 20
399.6894472652058
 30
0.0
 10
190.4388020514429
 20
399.8755657157961
 30
0.0
 10
190.7253264839525
 20
400.0788851344037
 30
0.0
 10
190.9678884153463
 20
400.2881142752071
 30
0.0
 10
191.1751626475123
 20
400.512799664236
 30
0.0
 10
191.3360722060198
 20
400.741491511207
 30
0.0
 10
191.456727365727
 20
400.9821511875778
 30
0.0
 10
191.5266157482243
 20
401.2258406445536
 30
0.0
 10
191.5552954125379
 20
401.4748751529154
 30
0.0
 10
191.5322475249394
 20
401.6365189307231
 30
0.0
 10
191.5207235809245
 20
401.7173408176962
 30
0.0
 11
181.5757578032865
 21
399.4102169876262
 31
0.0
 11
181.8422567544174
 21
399.3081007723266
 31
0.0
 11
182.1126860588111
 21
399.2164261702708
 31
0.0
 11
182.5616284072861
 21
399.0860285320783
 31
0.0
 11
183.0163768199059
 21
398.9779675786966
 31
0.0
 11
183.5046775893564
 21
398.8856845700845
 31
0.0
 11
183.9965011974014
 21
398.8148528900937
 31
0.0
 11
184.5091504090929
 21
398.7629853562546
 31
0.0
 11
185.0234657326174
 21
398.7320349551899
 31
0.0
 11
185.5448369173681
 21
398.7216652708912
 31
0.0
 11
186.0662081021188
 21
398.7320349551899
 31
0.0
 11
186.5805234256434
 21
398.7629853562547
 31
0.0
 11
187.0931726373348
 21
398.8148528900937
 31
0.0
 11
187.5849962453798
 21
398.8856845700844
 31
0.0
 11
188.0732970148304
 21
398.9779675786966
 31
0.0
 11
188.5280454274502
 21
399.0860285320782
 31
0.0
 11
188.9769877759252
 21
399.2164261702707
 31
0.0
 11
189.3814527336671
 21
399.3579666781987
 31
0.0
 11
189.7770613447292
 21
399.5230354902257
 31
0.0
 11
190.1199389316408
 21
399.6934428316563
 31
0.0
 11
190.4496083990701
 21
399.8886987722259
 31
0.0
 11
190.721976414255
 21
400.0829748208371
 31
0.0
 11
190.9746560054132
 21
400.3029668243916
 31
0.0
 11
191.1700517860336
 21
400.5166422146567
 31
0.0
 11
191.3361000810115
 21
400.7548054688553
 31
0.0
 11
191.4492127055786
 21
400.9847826142137
 31
0.0
 11
191.5207235809244
 21
401.2316686104724
 31
0.0
 11
191.5448369173681
 21
401.4745047140842
 31
0.0
 11
191.5207235809245
 21
401.7173408176962
 31
0.0
  0
SPLINE
  5
22D
330
5C
100
AcDbEntity
  8
1
  6
Continuous
 62
     7
100
AcDbSpline
210
0.0
220
0.0
230
1.0
 70
    11
 71
     3
 72
    75
 73
    71
 74
    69
 42
0.000000001
 43
0.0000000001
 44
0.00000001
 40
0.0
 40
0.0
 40
0.0
 40
0.0
 40
0.9630426058511334
 40
1.926101660343639
 40
2.414436824100292
 40
2.902786204767471
 40
3.397717164585475
 40
3.892656653394816
 40
4.394980169231326
 40
4.89731597504425
 40
5.406928784582455
 40
5.916550426633934
 40
6.432488270955375
 40
6.948433239437295
 40
7.469017147432323
 40
7.989605283508411
 40
8.512645225664015
 40
9.03568662175853
 40
9.558728012443993
 40
10.08176795963023
 40
10.60235612044765
 40
11.1229400049922
 40
11.63888489109592
 40
12.15482281114681
 40
12.66444470578845
 40
13.17405729033835
 40
13.67639238397281
 40
14.17871649522415
 40
14.67365770952382
 40
15.16858741135671
 40
15.65693396901843
 40
16.14527013431029
 40
16.62866315956714
 40
17.11204884044663
 40
17.5927839968634
 40
18.07351648863786
 40
18.55424898041249
 40
19.03498413682937
 40
19.51836981770877
 40
20.0017628429656
 40
20.49009900825759
 40
20.97844556591926
 40
21.4733752677522
 40
21.96831648205176
 40
22.47064059330316
 40
22.97297568693756
 40
23.48258827148752
 40
23.99221016612919
 40
24.50814808618008
 40
25.02409297228372
 40
25.54467685682832
 40
26.0652650176457
 40
26.58830496483191
 40
27.1113463555174
 40
27.63438775161191
 40
28.15742769376754
 40
28.67801582984368
 40
29.19859973783875
 40
29.71454470632064
 40
30.23048255064205
 40
30.7401041926935
 40
31.24971700223166
 40
31.75205280804457
 40
32.25437632388116
 40
32.74931581269037
 40
33.24424677250834
 40
33.73259615317552
 40
34.22093131693217
 40
35.18399037142473
 40
36.14703297727599
 40
36.14703297727599
 40
36.14703297727599
 40
36.14703297727599
 10
179.5448369173678
 20
391.5152125705632
 30
0.0
 10
179.5625618476793
 20
391.1937447255277
 30
0.0
 10
179.5980120061946
 20
390.55080354455
 30
0.0
 10
179.8354178304452
 20
389.7735991440805
 30
0.0
 10
180.1007745262532
 20
389.1837214472783
 30
0.0
 10
180.3435930943594
 20
388.7565291126993
 30
0.0
 10
180.6251507925968
 20
388.3513930774203
 30
0.0
 10
180.9448086764143
 20
387.9694458703083
 30
0.0
 10
181.2986737838534
 20
387.6154838242888
 30
0.0
 10
181.6856205539647
 20
387.2904007087478
 30
0.0
 10
182.100976623117
 20
386.9982564064176
 30
0.0
 10
182.5433602935847
 20
386.7398639044158
 30
0.0
 10
183.007636153046
 20
386.5183146708841
 30
0.0
 10
183.4919506874259
 20
386.3343872351678
 30
0.0
 10
183.9911308681808
 20
386.1901068499246
 30
0.0
 10
184.5026375139338
 20
386.0861358086287
 30
0.0
 10
185.0216569919891
 20
386.0234998037322
 30
0.0
 10
185.5448369062427
 20
386.0025506188216
 30
0.0
 10
186.0680168219328
 20
386.0234998084459
 30
0.0
 10
186.5870363078783
 20
386.0861358128003
 30
0.0
 10
187.098542959917
 20
386.1901068288267
 30
0.0
 10
187.597723118514
 20
386.3343872103291
 30
0.0
 10
188.0820375954856
 20
386.5183147519659
 30
0.0
 10
188.5463135563876
 20
386.7398640012766
 30
0.0
 10
188.9886973978847
 20
386.998256066809
 30
0.0
 10
189.4040536659558
 20
387.2904003954903
 30
0.0
 10
189.7909975568823
 20
387.6154848671549
 30
0.0
 10
190.1448686904997
 20
387.9694474741525
 30
0.0
 10
190.4645128925767
 20
388.3513872184591
 30
0.0
 10
190.7461435470188
 20
388.7565333142474
 30
0.0
 10
190.9886598399836
 20
389.1837077717357
 30
0.0
 10
191.1894230836986
 20
389.6278332317056
 30
0.0
 10
191.3473458980978
 20
390.0871861117952
 30
0.0
 10
191.461019527306
 20
390.5568505210251
 30
0.0
 10
191.5295079331598
 20
391.0343017534876
 30
0.0
 10
191.5525013732306
 20
391.5152125705633
 30
0.0
 10
191.5295079331599
 20
391.9961233876389
 30
0.0
 10
191.461019527306
 20
392.4735746201015
 30
0.0
 10
191.347345898098
 20
392.9432390293315
 30
0.0
 10
191.1894230836988
 20
393.4025919094212
 30
0.0
 10
190.9886598399838
 20
393.846717369391
 30
0.0
 10
190.7461435470187
 20
394.2738918268793
 30
0.0
 10
190.4645128925768
 20
394.6790379226675
 30
0.0
 10
190.1448686904998
 20
395.0609776669742
 30
0.0
 10
189.7909975568822
 20
395.4149402739716
 30
0.0
 10
189.4040536659558
 20
395.7400247456364
 30
0.0
 10
188.9886973978845
 20
396.0321690743174
 30
0.0
 10
188.5463135563876
 20
396.29056113985
 30
0.0
 10
188.0820375954855
 20
396.5121103891606
 30
0.0
 10
187.5977231185138
 20
396.6960379307975
 30
0.0
 10
187.0985429599171
 20
396.8403183123
 30
0.0
 10
186.5870363078782
 20
396.9442893283264
 30
0.0
 10
186.0680168219329
 20
397.0069253326809
 30
0.0
 10
185.5448369062427
 20
397.0278745223048
 30
0.0
 10
185.021656991989
 20
397.0069253373944
 30
0.0
 10
184.5026375139337
 20
396.9442893324978
 30
0.0
 10
183.9911308681806
 20
396.840318291202
 30
0.0
 10
183.4919506874257
 20
396.6960379059589
 30
0.0
 10
183.0076361530459
 20
396.5121104702426
 30
0.0
 10
182.5433602935846
 20
396.2905612367106
 30
0.0
 10
182.100976623117
 20
396.032168734709
 30
0.0
 10
181.6856205539648
 20
395.7400244323787
 30
0.0
 10
181.2986737838532
 20
395.4149413168377
 30
0.0
 10
180.9448086764143
 20
395.0609792708185
 30
0.0
 10
180.6251507925969
 20
394.679032063706
 30
0.0
 10
180.3435930943595
 20
394.2738960284275
 30
0.0
 10
180.1007745262534
 20
393.8467036938482
 30
0.0
 10
179.8354178304453
 20
393.2568259970462
 30
0.0
 10
179.5980120061948
 20
392.4796215965764
 30
0.0
 10
179.5625618476794
 20
391.8366804155989
 30
0.0
 10
179.5448369173678
 20
391.5152125705632
 30
0.0
 11
179.5448369173678
 21
391.5152125705632
 31
0.0
 11
179.6364957590497
 21
390.5565417537599
 31
0.0
 11
179.9066811926525
 21
389.6321594887362
 31
0.0
 11
180.1076583768177
 21
389.1870983655562
 31
0.0
 11
180.3486844946613
 21
388.76237312737
 31
0.0
 11
180.63102625067
 21
388.3558761560636
 31
0.0
 11
180.9485702586541
 21
387.9762303994814
 31
0.0
 11
181.3035835543785
 21
387.6208510608031
 31
0.0
 11
181.6881112592486
 21
387.2976178540493
 31
0.0
 11
182.1048439113004
 21
387.0042936096788
 31
0.0
 11
182.5448369173679
 21
386.747154789873
 31
0.0
 11
183.0104151395437
 21
386.5248289518668
 31
0.0
 11
183.492716057414
 21
386.3415667486092
 31
0.0
 11
183.9928022067432
 21
386.1969242633402
 31
0.0
 11
184.5029478513664
 21
386.0931773176544
 31
0.0
 11
185.0222144680191
 21
386.0304639859319
 31
0.0
 11
185.5448369173681
 21
386.0095336841767
 31
0.0
 11
186.0674593611629
 21
386.0304639897038
 31
0.0
 11
186.5867259833696
 21
386.0931773176544
 31
0.0
 11
187.0968716555802
 21
386.1969242520958
 31
0.0
 11
187.5969577773219
 21
386.3415667486092
 31
0.0
 11
188.0792585917025
 21
386.5248289925717
 31
0.0
 11
188.5448369173679
 21
386.7471547898732
 31
0.0
 11
188.9848303032427
 21
387.0042934606739
 31
0.0
 11
189.4015625754872
 21
387.2976178540494
 31
0.0
 11
189.7860888926997
 21
387.6208516051055
 31
0.0
 11
190.1411035760818
 21
387.9762303994814
 31
0.0
 11
190.4586526491139
 21
388.3558741693482
 31
0.0
 11
190.7409893400747
 21
388.7623731273702
 31
0.0
 11
190.9819969358477
 21
389.1871056306504
 31
0.0
 11
191.1829926420833
 21
389.6321594887363
 31
0.0
 11
191.3400959490538
 21
390.0893108509773
 31
0.0
 11
191.4536834354413
 21
390.5591614651231
 31
0.0
 11
191.5219464871864
 21
391.0350253601397
 31
0.0
 11
191.5448369173681
 21
391.5152125705632
 31
0.0
 11
191.5219464871864
 21
391.9953997809869
 31
0.0
 11
191.4536834354413
 21
392.4712636760037
 31
0.0
 11
191.3400959490539
 21
392.9411142901494
 31
0.0
 11
191.1829926420835
 21
393.3982656523904
 31
0.0
 11
190.9819969358478
 21
393.8433195104764
 31
0.0
 11
190.7409893400747
 21
394.2680520137565
 31
0.0
 11
190.4586526491139
 21
394.6745509717785
 31
0.0
 11
190.1411035760819
 21
395.0541947416452
 31
0.0
 11
189.7860888926996
 21
395.4095735360211
 31
0.0
 11
189.4015625754872
 21
395.7328072870772
 31
0.0
 11
188.9848303032426
 21
396.0261316804526
 31
0.0
 11
188.5448369173679
 21
396.2832703512535
 31
0.0
 11
188.0792585917024
 21
396.5055961485549
 31
0.0
 11
187.5969577773219
 21
396.6888583925174
 31
0.0
 11
187.0968716555802
 21
396.8335008890309
 31
0.0
 11
186.5867259833696
 21
396.9372478234722
 31
0.0
 11
186.0674593611629
 21
396.9999611514229
 31
0.0
 11
185.5448369173681
 21
397.0208914569498
 31
0.0
 11
185.0222144680191
 21
396.9999611551946
 31
0.0
 11
184.5029478513663
 21
396.9372478234721
 31
0.0
 11
183.9928022067431
 21
396.8335008777863
 31
0.0
 11
183.4927160574139
 21
396.6888583925174
 31
0.0
 11
183.0104151395436
 21
396.5055961892597
 31
0.0
 11
182.5448369173679
 21
396.2832703512535
 31
0.0
 11
182.1048439113004
 21
396.0261315314478
 31
0.0
 11
181.6881112592486
 21
395.7328072870772
 31
0.0
 11
181.3035835543785
 21
395.4095740803235
 31
0.0
 11
180.9485702586541
 21
395.0541947416451
 31
0.0
 11
180.6310262506701
 21
394.6745489850629
 31
0.0
 11
180.3486844946614
 21
394.2680520137566
 31
0.0
 11
180.1076583768178
 21
393.8433267755704
 31
0.0
 11
179.9066811926526
 21
393.3982656523904
 31
0.0
 11
179.6364957590498
 21
392.4738833873666
 31
0.0
 11
179.5448369173678
 21
391.5152125705632
 31
0.0
  0
SPLINE
  5
22E
330
5C
100
AcDbEntity
  8
0
  6
Continuous
 62
     7
100
AcDbSpline
210
0.0
220
0.0
230
1.0
 70
     8
 71
     3
 72
    29
 73
    25
 74
    23
 42
0.000000001
 43
0.0000000001
 44
0.00000001
 40
0.0
 40
0.0
 40
0.0
 40
0.0
 40
0.2570340355440222
 40
0.5133228464442555
 40
0.8036567451913106
 40
1.093202395993566
 40
1.428229943761203
 40
1.762785647639975
 40
2.145939455287219
 40
2.52882808373309
 40
2.957493321443593
 40
3.386008919245951
 40
3.853505204183873
 40
4.320916466919076
 40
4.817860925812218
 40
5.31475889159879
 40
5.830025284242907
 40
6.345271030849156
 40
6.866745328090993
 40
7.388219625304234
 40
7.903465371814561
 40
8.418731764098883
 40
8.570908054974355
 40
8.723026884756273
 40
8.723026884756273
 40
8.723026884756273
 40
8.723026884756273
 10
191.5207235809245
 20
401.7173408176962
 30
0.0
 10
191.5000002396219
 20
401.8007396293221
 30
0.0
 10
191.4586136334452
 20
401.9672954496185
 30
0.0
 10
191.3354923702215
 20
402.2073835207939
 30
0.0
 10
191.1753248198448
 20
402.4362473544273
 30
0.0
 10
190.9678373729554
 20
402.6608833241032
 30
0.0
 10
190.7253409040787
 20
402.8701276381707
 30
0.0
 10
190.4387975616333
 20
403.0734426737722
 30
0.0
 10
190.122169270014
 20
403.2595624582465
 30
0.0
 10
189.7650385173725
 20
403.4364070771138
 30
0.0
 10
189.382945416297
 20
403.5948613793069
 30
0.0
 10
188.9658439060504
 20
403.740411770126
 30
0.0
 10
188.5290247618944
 20
403.8666318089086
 30
0.0
 10
188.0644505155483
 20
403.9767764499242
 30
0.0
 10
187.5855911140098
 20
404.0668477035686
 30
0.0
 10
187.0875291640931
 20
404.1384561690147
 30
0.0
 10
186.5808049526809
 20
404.1894687381162
 30
0.0
 10
186.0642728743923
 20
404.2205476717056
 30
0.0
 10
185.5448364900329
 20
404.2307673066972
 30
0.0
 10
185.0254027140092
 20
404.2205298428169
 30
0.0
 10
184.5088629041909
 20
404.1895390629202
 30
0.0
 10
184.1165230779925
 20
404.1497838684525
 30
0.0
 10
183.8455272465588
 20
404.1151838808383
 30
0.0
 10
183.7451450198153
 20
404.1006177223581
 30
0.0
 10
183.6949633843375
 20
404.0933360174326
 30
0.0
 11
191.5207235809245
 21
401.7173408176962
 31
0.0
 11
191.4492127055786
 21
401.964226813955
 31
0.0
 11
191.3361000810115
 21
402.1942039593133
 31
0.0
 11
191.1700517860336
 21
402.432367213512
 31
0.0
 11
190.9746560054132
 21
402.646042603777
 31
0.0
 11
190.721976414255
 21
402.8660346073315
 31
0.0
 11
190.4496083990701
 21
403.0603106559427
 31
0.0
 11
190.1199389316408
 21
403.2555665965122
 31
0.0
 11
189.7770613447292
 21
403.4259739379427
 31
0.0
 11
189.3814527336671
 21
403.5910427499697
 31
0.0
 11
188.9769877759252
 21
403.7325832578979
 31
0.0
 11
188.5280454274503
 21
403.8629808960904
 31
0.0
 11
188.0732970148304
 21
403.971041849472
 31
0.0
 11
187.5849962453798
 21
404.0633248580842
 31
0.0
 11
187.0931726373348
 21
404.134156538075
 31
0.0
 11
186.5805234256433
 21
404.1860240719142
 31
0.0
 11
186.0662081021188
 21
404.2169744729788
 31
0.0
 11
185.5448369173681
 21
404.2273441572775
 31
0.0
 11
185.0234657326174
 21
404.2169744729788
 31
0.0
 11
184.5091504090929
 21
404.1860240719141
 31
0.0
 11
183.9965011974013
 21
404.1341565380749
 31
0.0
 11
183.8455672231247
 21
404.1147514110689
 31
0.0
 11
183.6949633843375
 21
404.0933360174326
 31
0.0
  0
SPLINE
  5
22F
330
5C
100
AcDbEntity
  8
1
  6
Continuous
 62
     7
100
AcDbSpline
210
0.0
220
0.0
230
1.0
 70
    11
 71
     3
 72
    75
 73
    71
 74
    69
 42
0.000000001
 43
0.0000000001
 44
0.00000001
 40
0.0
 40
0.0
 40
0.0
 40
0.0
 40
0.5640726466870286
 40
1.130799276533815
 40
1.387286175609646
 40
1.64327461241181
 40
2.002014471025923
 40
2.361110861440955
 40
2.768203548335401
 40
3.175228074547788
 40
3.625301648702641
 40
4.075408781855371
 40
4.560205253517795
 40
5.045003483360324
 40
5.554033718764051
 40
6.063068955233621
 40
6.584538672010567
 40
7.10600935721968
 40
7.627480123253792
 40
8.148949731390381
 40
8.657984442287797
 40
9.167015286289265
 40
9.651815927804154
 40
10.13660968424769
 40
10.58670665856357
 40
11.03679151809336
 40
11.4438562714998
 40
11.85090457583851
 40
12.20984944019684
 40
12.56875546239422
 40
12.87932948473826
 40
13.18985187410873
 40
13.45915017641159
 40
13.72816751033743
 40
13.97265202704306
 40
14.21682625114596
 40
14.46100047524926
 40
14.70548499195426
 40
14.97450232587613
 40
15.24380062818379
 40
15.55432301757825
 40
15.86489703989682
 40
16.22380306196941
 40
16.582747926457
 40
16.98979623139359
 40
17.39686098419356
 40
17.84694584105464
 40
18.29704281805298
 40
18.78183658576353
 40
19.26663721601559
 40
19.7756680147095
 40
20.28470277072936
 40
20.80617255313384
 40
21.32764314616445
 40
21.84911318916882
 40
22.37058354132668
 40
22.88342735337008
 40
23.39626535507879
 40
23.87725779376377
 40
24.3582433213191
 40
24.80833978811055
 40
25.25842485234082
 40
25.6654874621771
 40
26.07253923730298
 40
26.43149985989267
 40
26.79038496824423
 40
27.10087864539679
 40
27.41150068661615
 40
27.92350782985784
 40
28.4347688389496
 40
28.4347688389496
 40
28.4347688389496
 40
28.4347688389496
 10
191.5448369173681
 20
381.5559204270421
 30
0.0
 10
191.518913788832
 20
381.3670785487387
 30
0.0
 10
191.4669455734914
 20
380.9885062818375
 30
0.0
 10
191.1878186550493
 20
380.6013907849341
 30
0.0
 10
190.9383267238707
 20
380.3434697934904
 30
0.0
 10
190.7166828655887
 20
380.1548379536869
 30
0.0
 10
190.4521777468748
 20
379.966055398841
 30
0.0
 10
190.1292925412791
 20
379.7746305083442
 30
0.0
 10
189.7788490577493
 20
379.6003040413068
 30
0.0
 10
189.3896456224051
 20
379.4381023172909
 30
0.0
 10
188.9781611780336
 20
379.2940338876996
 30
0.0
 10
188.534634169753
 20
379.1652266127879
 30
0.0
 10
188.074050010115
 20
379.0557180653517
 30
0.0
 10
187.5895814294278
 20
378.9642089963896
 30
0.0
 10
187.0935919095684
 20
378.8927356565728
 30
0.0
 10
186.5828743630381
 20
378.8410927103752
 30
0.0
 10
186.0663428978257
 20
378.809974582997
 30
0.0
 10
185.5448368962784
 20
378.7996339499257
 30
0.0
 10
185.0233309558184
 20
378.8099755071934
 30
0.0
 10
184.5067996827333
 20
378.8410931524195
 30
0.0
 10
183.9960818468828
 20
378.8927330231552
 30
0.0
 10
183.5000914899038
 20
378.9642074139392
 30
0.0
 10
183.0156247292884
 20
379.0557268130316
 30
0.0
 10
182.5550436923002
 20
379.1652314948603
 30
0.0
 10
182.1115081763067
 20
379.2940059400208
 30
0.0
 10
181.7000111770248
 20
379.4380890514271
 30
0.0
 10
181.3108484977541
 20
379.6003879556953
 30
0.0
 10
180.9604310577967
 20
379.7746584092396
 30
0.0
 10
180.6374463808285
 20
379.9658249171972
 30
0.0
 10
180.3580097981545
 20
380.165287648238
 30
0.0
 10
180.1111213612178
 20
380.380005966673
 30
0.0
 10
179.910312455555
 20
380.5996766048972
 30
0.0
 10
179.7477961263953
 20
380.8323028972856
 30
0.0
 10
179.6318628855424
 20
381.0675168059478
 30
0.0
 10
179.5613734291229
 20
381.3113446873873
 30
0.0
 10
179.5365739267334
 20
381.5559204270423
 30
0.0
 10
179.5613734291252
 20
381.800496166697
 30
0.0
 10
179.6318628855427
 20
382.044324048135
 30
0.0
 10
179.7477961263885
 20
382.2795379568009
 30
0.0
 10
179.9103124555569
 20
382.5121642491948
 30
0.0
 10
180.1111213612396
 20
382.7318348874023
 30
0.0
 10
180.3580097981341
 20
382.9465532058175
 30
0.0
 10
180.637446380754
 20
383.1460159369223
 30
0.0
 10
180.9604310579223
 20
383.3371824449482
 30
0.0
 10
181.3108484980186
 20
383.5114528983013
 30
0.0
 10
181.7000111764008
 20
383.6737518023486
 30
0.0
 10
182.1115081753334
 20
383.8178349141725
 30
0.0
 10
182.5550436950642
 20
383.9466093599939
 30
0.0
 10
183.0156247329934
 20
384.0561140417017
 30
0.0
 10
183.5000914785305
 20
384.1476334390587
 30
0.0
 10
183.9960818328205
 20
384.2191078242504
 30
0.0
 10
184.5067997252978
 20
384.2707476986377
 30
0.0
 10
185.0233310144066
 20
384.3018653871711
 30
0.0
 10
185.5448367298781
 20
384.3122069431528
 30
0.0
 10
186.0663427200872
 20
384.3018660641001
 30
0.0
 10
186.5841415586513
 20
384.2706716046112
 30
0.0
 10
187.0973805177845
 20
384.2186971645719
 30
0.0
 10
187.5945955785472
 20
384.1467983187856
 30
0.0
 10
188.0777638335692
 20
384.0552618885177
 30
0.0
 10
188.5358499922172
 20
383.9462576683037
 30
0.0
 10
188.9781637339418
 20
383.8178277621648
 30
0.0
 10
189.3896586918206
 20
383.6737467343123
 30
0.0
 10
189.7788382316543
 20
383.51147764297
 30
0.0
 10
190.1292449025276
 20
383.3371968280882
 30
0.0
 10
190.4522252922233
 20
383.145940290199
 30
0.0
 10
190.7314870884372
 20
382.9465359001186
 30
0.0
 10
190.9790867681476
 20
382.7319954273086
 30
0.0
 10
191.2322664377434
 20
382.4525050498883
 30
0.0
 10
191.4816612827839
 20
382.0696938669496
 30
0.0
 10
191.5237886080787
 20
381.7270949690022
 30
0.0
 10
191.5448369173681
 20
381.5559204270421
 30
0.0
 11
191.5448369173681
 21
381.5559204270421
 31
0.0
 11
191.4233851460581
 21
381.0050779593329
 31
0.0
 11
191.1137011839712
 21
380.5304466136541
 31
0.0
 11
190.9352300204195
 21
380.346235938008
 31
0.0
 11
190.7409893400748
 21
380.1795007054457
 31
0.0
 11
190.4495114132061
 21
379.9703717877998
 31
0.0
 11
190.141103576082
 21
379.7864293415013
 31
0.0
 11
189.7769632865808
 21
379.6044230085096
 31
0.0
 11
189.4015625754874
 21
379.4471230687853
 31
0.0
 11
188.976943175241
 21
379.2979098418557
 31
0.0
 11
188.5448369173681
 21
379.171891536697
 31
0.0
 11
188.0732688644396
 21
379.0594140259989
 31
0.0
 11
187.5969577773222
 21
378.9690975160651
 31
0.0
 11
187.0931595307429
 21
378.8963025484043
 31
0.0
 11
186.5867259833697
 21
378.8449028005878
 31
0.0
 11
186.0662039238031
 21
378.81347906708
 31
0.0
 11
185.5448369173682
 21
378.8030809838491
 31
0.0
 11
185.0234698439216
 21
378.8134797601979
 31
0.0
 11
184.5029478513666
 21
378.8449028005879
 31
0.0
 11
183.9965146279304
 21
378.8963005348371
 31
0.0
 11
183.4927160574142
 21
378.9690975160652
 31
0.0
 11
183.0164038220677
 21
379.0594209153513
 31
0.0
 11
182.5448369173682
 21
379.1718915366971
 31
0.0
 11
182.1127345141291
 21
379.2978867723002
 31
0.0
 11
181.688111259249
 21
379.4471230687853
 31
0.0
 11
181.3126981140489
 21
379.6044974119241
 31
0.0
 11
180.9485702586544
 21
379.7864293415012
 31
0.0
 11
180.6402010486642
 21
379.970140653057
 31
0.0
 11
180.3486844946616
 21
380.1795007054457
 31
0.0
 11
180.1152080111264
 21
380.38430538073
 31
0.0
 11
179.9066811926529
 21
380.6143938861287
 31
0.0
 11
179.7535833157396
 21
380.8359398536999
 31
0.0
 11
179.6359903992951
 21
381.0778948743221
 31
0.0
 11
179.5685850528918
 21
381.3129038065645
 31
0.0
 11
179.5448369173683
 21
381.5559204270422
 31
0.0
 11
179.5685850528935
 21
381.7989370475202
 31
0.0
 11
179.635990399295
 21
382.0339459797624
 31
0.0
 11
179.7535833157333
 21
382.2759010003831
 31
0.0
 11
179.9066811926529
 21
382.4974469679557
 31
0.0
 11
180.1152080111549
 21
382.7275354733606
 31
0.0
 11
180.3486844946616
 21
382.9323401486387
 31
0.0
 11
180.6402010485315
 21
383.141700200998
 31
0.0
 11
180.9485702586545
 21
383.3254115125832
 31
0.0
 11
181.3126981146503
 21
383.5073434422941
 31
0.0
 11
181.6881112592488
 21
383.6647177852992
 31
0.0
 11
182.1127345115049
 21
383.8139540812014
 31
0.0
 11
182.5448369173681
 21
383.9399493173873
 31
0.0
 11
183.0164038330677
 21
384.0524199411771
 31
0.0
 11
183.4927160574141
 21
384.1427433380193
 31
0.0
 11
183.9965145835762
 21
384.2155403093931
 31
0.0
 11
184.5029478513665
 21
384.2669380534967
 31
0.0
 11
185.0234700161961
 21
384.298361132162
 31
0.0
 11
185.5448369173682
 21
384.3087598702355
 31
0.0
 11
186.0662032786118
 21
384.2983616436587
 31
0.0
 11
186.5867259833697
 21
384.2669380534967
 31
0.0
 11
187.0969406001792
 21
384.2150745754201
 31
0.0
 11
187.6044708664004
 21
384.1414821513264
 31
0.0
 11
188.0769950394077
 21
384.0516231950974
 31
0.0
 11
188.5448369173682
 21
383.9399493173873
 31
0.0
 11
188.9769372737217
 21
383.8139488750464
 31
0.0
 11
189.4015625754874
 21
383.664717785299
 31
0.0
 11
189.7769814971842
 21
383.5073627677514
 31
0.0
 11
190.1411035760821
 21
383.3254115125832
 31
0.0
 11
190.4494550235034
 21
383.1416396067173
 31
0.0
 11
190.7409893400747
 21
382.9323401486389
 31
0.0
 11
190.9745193859931
 21
382.727718446309
 31
0.0
 11
191.1829926420835
 21
382.4974469679557
 31
0.0
 11
191.4444485834238
 21
382.0572287227889
 31
0.0
 11
191.5448369173681
 21
381.5559204270421
 31
0.0
  0
SPLINE
  5
230
330
5C
100
AcDbEntity
  8
1
  6
Continuous
 62
     7
100
AcDbSpline
210
0.0
220
0.0
230
1.0
 70
    11
 71
     3
 72
    75
 73
    71
 74
    69
 42
0.000000001
 43
0.0000000001
 44
0.00000001
 40
0.0
 40
0.0
 40
0.0
 40
0.0
 40
0.840058765588962
 40
1.680178480190032
 40
2.117385743935864
 40
2.554623586278657
 40
3.008791686806463
 40
3.462987120119614
 40
3.935711173452131
 40
4.408461484611045
 40
4.899048315181937
 40
5.38965207700881
 40
5.895427911915318
 40
6.40121597775642
 40
6.917979533547197
 40
7.434749836098455
 40
7.957266977156715
 40
8.479786374626535
 40
9.002305761172899
 40
9.524822912194145
 40
10.04159326330841
 40
10.55835677388993
 40
11.06414468549794
 40
11.56992065989478
 40
12.06052486461178
 40
12.5511113130924
 40
13.02386050625379
 40
13.49658542786805
 40
13.95078297880898
 40
14.40494995238112
 40
14.84218749799196
 40
15.2793912466302
 40
15.70360262544581
 40
16.12778535212585
 40
16.54489441625775
 40
16.96199188177946
 40
17.37908934730112
 40
17.79619841143314
 40
18.22038113811319
 40
18.64459251692876
 40
19.08179626556706
 40
19.5190338111779
 40
19.97320078475
 40
20.42739833569091
 40
20.9001232573052
 40
21.37287245046651
 40
21.86345889894717
 40
22.35406310366415
 40
22.85983907806102
 40
23.36562698966899
 40
23.8823905002505
 40
24.39916085136479
 40
24.92167800238605
 40
25.44419738893238
 40
25.96671678640226
 40
26.48923392746051
 40
27.00600423001174
 40
27.52276778580255
 40
28.02855585164372
 40
28.53433168655025
 40
29.02493544837712
 40
29.51552227894799
 40
29.98827259010689
 40
30.46099664343939
 40
30.91519207675256
 40
31.36936017728037
 40
31.80659801962311
 40
32.24380528336889
 40
33.08392499796997
 40
33.92398376355911
 40
33.92398376355911
 40
33.92398376355911
 40
33.92398376355911
 10
179.5448369173681
 20
258.6274336283187
 30
0.0
 10
179.5629202287342
 20
258.9079833230987
 30
0.0
 10
179.5990881574618
 20
259.4691030678979
 30
0.0
 10
179.8385617066714
 20
260.1423474755425
 30
0.0
 10
180.1024499653687
 20
260.6494930770103
 30
0.0
 10
180.346301365224
 20
261.0202394209478
 30
0.0
 10
180.6277189103272
 20
261.3702998175623
 30
0.0
 10
180.9483616258023
 20
261.7015041422226
 30
0.0
 10
181.3016841661521
 20
262.0071119086612
 30
0.0
 10
181.689426792998
 20
262.288737023831
 30
0.0
 10
182.1039340675499
 20
262.5408956779734
 30
0.0
 10
182.5468002627736
 20
262.7645558026315
 30
0.0
 10
183.010084315083
 20
262.9557977485262
 30
0.0
 10
183.4945231829228
 20
263.1148759594055
 30
0.0
 10
183.9927333743333
 20
263.2394659237569
 30
0.0
 10
184.504006495962
 20
263.3293173278601
 30
0.0
 10
185.0222131510834
 20
263.383448276398
 30
0.0
 10
185.5448369042272
 20
263.401512988358
 30
0.0
 10
186.0674606599532
 20
263.3834482596528
 30
0.0
 10
186.5856673303774
 20
263.3293173157873
 30
0.0
 10
187.0969404674717
 20
263.2394659829731
 30
0.0
 10
187.5951506154756
 20
263.1148760159318
 30
0.0
 10
188.0795893634291
 20
262.9557975246638
 30
0.0
 10
188.5428735836965
 20
262.7645555861689
 30
0.0
 10
188.9857402345657
 20
262.540896527147
 30
0.0
 10
189.4002476541639
 20
262.2887377154836
 30
0.0
 10
189.7879856841552
 20
262.0071091824285
 30
0.0
 10
190.1413155118044
 20
261.7015013299759
 30
0.0
 10
190.4619476575804
 20
261.3703114307991
 30
0.0
 10
190.7434476088886
 20
261.0202363575841
 30
0.0
 10
190.9869427297215
 20
260.6494944128031
 30
0.0
 10
191.1879455871907
 20
260.2652470257373
 30
0.0
 10
191.3465817367934
 20
259.8663378625261
 30
0.0
 10
191.4606385984804
 20
259.4593619398925
 30
0.0
 10
191.5293805643527
 20
259.0447365041391
 30
0.0
 10
191.5525649714251
 20
258.6274336283187
 30
0.0
 10
191.5293805643528
 20
258.2101307524983
 30
0.0
 10
191.4606385984803
 20
257.7955053167449
 30
0.0
 10
191.3465817367934
 20
257.3885293941112
 30
0.0
 10
191.1879455871906
 20
256.9896202309001
 30
0.0
 10
190.9869427297215
 20
256.6053728438343
 30
0.0
 10
190.7434476088884
 20
256.2346308990532
 30
0.0
 10
190.4619476575803
 20
255.8845558258383
 30
0.0
 10
190.1413155118044
 20
255.5533659266613
 30
0.0
 10
189.7879856841552
 20
255.2477580742088
 30
0.0
 10
189.4002476541639
 20
254.9661295411536
 30
0.0
 10
188.9857402345657
 20
254.7139707294903
 30
0.0
 10
188.5428735836966
 20
254.4903116704683
 30
0.0
 10
188.0795893634291
 20
254.2990697319736
 30
0.0
 10
187.5951506154756
 20
254.1399912407055
 30
0.0
 10
187.0969404674717
 20
254.0154012736642
 30
0.0
 10
186.5856673303774
 20
253.9255499408502
 30
0.0
 10
186.0674606599531
 20
253.8714189969842
 30
0.0
 10
185.5448369042272
 20
253.8533542682793
 30
0.0
 10
185.0222131510834
 20
253.8714189802392
 30
0.0
 10
184.504006495962
 20
253.925549928777
 30
0.0
 10
183.9927333743334
 20
254.0154013328805
 30
0.0
 10
183.4945231829228
 20
254.1399912972316
 30
0.0
 10
183.010084315083
 20
254.2990695081112
 30
0.0
 10
182.5468002627734
 20
254.4903114540057
 30
0.0
 10
182.1039340675498
 20
254.7139715786639
 30
0.0
 10
181.6894267929979
 20
254.9661302328063
 30
0.0
 10
181.3016841661521
 20
255.2477553479762
 30
0.0
 10
180.9483616258023
 20
255.5533631144148
 30
0.0
 10
180.6277189103271
 20
255.884567439075
 30
0.0
 10
180.3463013652241
 20
256.2346278356896
 30
0.0
 10
180.1024499653686
 20
256.6053741796271
 30
0.0
 10
179.8385617066714
 20
257.1125197810948
 30
0.0
 10
179.5990881574617
 20
257.7857641887394
 30
0.0
 10
179.5629202287342
 20
258.3468839335386
 30
0.0
 10
179.5448369173681
 20
258.6274336283187
 30
0.0
 11
179.5448369173681
 21
258.6274336283187
 31
0.0
 11
179.6375485739269
 21
259.4623607466824
 31
0.0
 11
179.9066811926527
 21
260.2582054338553
 31
0.0
 11
180.1089219460366
 21
260.6458249236616
 31
0.0
 11
180.3486844946615
 21
261.0114625186637
 31
0.0
 11
180.6329423270467
 21
261.365674528814
 31
0.0
 11
180.9485702586542
 21
261.6922820920158
 31
0.0
 11
181.3058306596166
 21
262.0018512061642
 31
0.0
 11
181.6881112592488
 21
262.2799777956866
 31
0.0
 11
182.1070541759321
 21
262.5352468123316
 31
0.0
 11
182.5448369173682
 21
262.7566927931083
 31
0.0
 11
183.0122459716984
 21
262.9499231507104
 31
0.0
 11
183.4927160574141
 21
263.107942340314
 31
0.0
 11
183.9940012181205
 21
263.2334722581066
 31
0.0
 11
184.5029478513665
 21
263.3230538975525
 31
0.0
 11
185.0226306690722
 21
263.3774039822611
 31
0.0
 11
185.544836917368
 21
263.3954914090089
 31
0.0
 11
186.0670431543012
 21
263.3774039695846
 31
0.0
 11
186.5867259833697
 21
263.3230538975525
 31
0.0
 11
187.0956726725543
 21
263.2334722955777
 31
0.0
 11
187.596957777322
 21
263.107942340314
 31
0.0
 11
188.0774276569227
 21
262.9499230174654
 31
0.0
 11
188.544836917368
 21
262.7566927931083
 31
0.0
 11
188.9826203955518
 21
262.5352472873986
 31
0.0
 11
189.4015625754872
 21
262.2799777956866
 31
0.0
 11
189.7838405714949
 21
262.0018495276108
 31
0.0
 11
190.1411035760819
 21
261.6922820920157
 31
0.0
 11
190.4567406624317
 21
261.3656804307878
 31
0.0
 11
190.7409893400747
 21
261.0114625186637
 31
0.0
 11
190.9807196275484
 21
260.645804125229
 31
0.0
 11
191.1829926420835
 21
260.2582054338554
 31
0.0
 11
191.3395288882551
 21
259.8639318008385
 31
0.0
 11
191.4536834354413
 21
259.4553981729461
 31
0.0
 11
191.5218525449408
 21
259.0438973296423
 31
0.0
 11
191.5448369173681
 21
258.6274336283187
 31
0.0
 11
191.5218525449409
 21
258.2109699269951
 31
0.0
 11
191.4536834354413
 21
257.7994690836912
 31
0.0
 11
191.339528888255
 21
257.3909354557988
 31
0.0
 11
191.1829926420834
 21
256.996661822782
 31
0.0
 11
190.9807196275484
 21
256.6090631314083
 31
0.0
 11
190.7409893400746
 21
256.2434047379736
 31
0.0
 11
190.4567406624316
 21
255.8891868258495
 31
0.0
 11
190.1411035760819
 21
255.5625851646215
 31
0.0
 11
189.7838405714949
 21
255.2530177290265
 31
0.0
 11
189.4015625754872
 21
254.9748894609507
 31
0.0
 11
188.9826203955518
 21
254.7196199692387
 31
0.0
 11
188.5448369173681
 21
254.4981744635289
 31
0.0
 11
188.0774276569227
 21
254.3049442391719
 31
0.0
 11
187.5969577773221
 21
254.1469249163233
 31
0.0
 11
187.0956726725544
 21
254.0213949610597
 31
0.0
 11
186.5867259833697
 21
253.9318133590848
 31
0.0
 11
186.0670431543012
 21
253.8774632870526
 31
0.0
 11
185.5448369173681
 21
253.8593758476284
 31
0.0
 11
185.0226306690722
 21
253.8774632743762
 31
0.0
 11
184.5029478513665
 21
253.9318133590847
 31
0.0
 11
183.9940012181206
 21
254.0213949985307
 31
0.0
 11
183.4927160574141
 21
254.1469249163232
 31
0.0
 11
183.0122459716983
 21
254.3049441059268
 31
0.0
 11
182.544836917368
 21
254.4981744635289
 31
0.0
 11
182.1070541759321
 21
254.7196204443057
 31
0.0
 11
181.6881112592488
 21
254.9748894609508
 31
0.0
 11
181.3058306596166
 21
255.2530160504731
 31
0.0
 11
180.9485702586542
 21
255.5625851646215
 31
0.0
 11
180.6329423270467
 21
255.8891927278233
 31
0.0
 11
180.3486844946615
 21
256.2434047379737
 31
0.0
 11
180.1089219460366
 21
256.6090423329757
 31
0.0
 11
179.9066811926527
 21
256.996661822782
 31
0.0
 11
179.6375485739269
 21
257.7925065099549
 31
0.0
 11
179.5448369173681
 21
258.6274336283187
 31
0.0
  0
SPLINE
  5
231
330
5C
100
AcDbEntity
  8
1
  6
Continuous
 62
     7
100
AcDbSpline
210
0.0
220
0.0
230
1.0
 70
    11
 71
     3
 72
    75
 73
    71
 74
    69
 42
0.000000001
 43
0.0000000001
 44
0.00000001
 40
0.0
 40
0.0
 40
0.0
 40
0.0
 40
0.8400587655889055
 40
1.680178480190056
 40
2.117385743935914
 40
2.554623586278707
 40
3.00879168680649
 40
3.46298712011956
 40
3.935711173452095
 40
4.40846148461101
 40
4.899048315181931
 40
5.389652077008842
 40
5.895427911915317
 40
6.401215977756428
 40
6.917979533547178
 40
7.434749836098445
 40
7.957266977156703
 40
8.479786374626523
 40
9.002305761172883
 40
9.524822912194137
 40
10.04159326330839
 40
10.55835677388991
 40
11.06414468549792
 40
11.56992065989472
 40
12.06052486461173
 40
12.55111131309238
 40
13.02386050625375
 40
13.49658542786798
 40
13.95078297880899
 40
14.4049499523811
 40
14.84218749799197
 40
15.27939124663028
 40
15.70360262544589
 40
16.12778535212588
 40
16.54489441625769
 40
16.96199188177944
 40
17.37908934730124
 40
17.79619841143312
 40
18.22038113811311
 40
18.64459251692879
 40
19.08179626556696
 40
19.51903381117789
 40
19.97320078474995
 40
20.42739833569092
 40
20.90012325730519
 40
21.37287245046656
 40
21.86345889894723
 40
22.35406310366418
 40
22.85983907806103
 40
23.365626989669
 40
23.88239050025052
 40
24.3991608513648
 40
24.92167800238606
 40
25.44419738893239
 40
25.96671678640226
 40
26.48923392746052
 40
27.00600423001174
 40
27.52276778580256
 40
28.0285558516437
 40
28.53433168655022
 40
29.02493544837706
 40
29.51552227894796
 40
29.98827259010686
 40
30.46099664343935
 40
30.91519207675246
 40
31.36936017728029
 40
31.80659801962306
 40
32.24380528336892
 40
33.08392499797014
 40
33.92398376355913
 40
33.92398376355913
 40
33.92398376355913
 40
33.92398376355913
 10
179.5448369173681
 20
247.1274336283186
 30
0.0
 10
179.5629202287342
 20
246.8468839335386
 30
0.0
 10
179.5990881574618
 20
246.2857641887396
 30
0.0
 10
179.8385617066713
 20
245.6125197810947
 30
0.0
 10
180.1024499653686
 20
245.1053741796271
 30
0.0
 10
180.3463013652239
 20
244.7346278356894
 30
0.0
 10
180.6277189103272
 20
244.384567439075
 30
0.0
 10
180.9483616258023
 20
244.0533631144148
 30
0.0
 10
181.3016841661522
 20
243.7477553479762
 30
0.0
 10
181.689426792998
 20
243.4661302328063
 30
0.0
 10
182.1039340675499
 20
243.213971578664
 30
0.0
 10
182.5468002627736
 20
242.9903114540058
 30
0.0
 10
183.0100843150831
 20
242.7990695081112
 30
0.0
 10
183.4945231829228
 20
242.6399912972316
 30
0.0
 10
183.9927333743334
 20
242.5154013328806
 30
0.0
 10
184.504006495962
 20
242.4255499287773
 30
0.0
 10
185.0222131510835
 20
242.3714189802394
 30
0.0
 10
185.5448369042271
 20
242.3533542682794
 30
0.0
 10
186.0674606599532
 20
242.3714189969845
 30
0.0
 10
186.5856673303774
 20
242.4255499408501
 30
0.0
 10
187.0969404674716
 20
242.5154012736642
 30
0.0
 10
187.5951506154756
 20
242.6399912407056
 30
0.0
 10
188.079589363429
 20
242.7990697319737
 30
0.0
 10
188.5428735836966
 20
242.9903116704682
 30
0.0
 10
188.9857402345657
 20
243.2139707294903
 30
0.0
 10
189.4002476541639
 20
243.4661295411536
 30
0.0
 10
189.7879856841551
 20
243.7477580742089
 30
0.0
 10
190.1413155118045
 20
244.0533659266612
 30
0.0
 10
190.4619476575804
 20
244.3845558258384
 30
0.0
 10
190.7434476088886
 20
244.7346308990533
 30
0.0
 10
190.9869427297215
 20
245.1053728438343
 30
0.0
 10
191.1879455871907
 20
245.4896202309002
 30
0.0
 10
191.3465817367934
 20
245.8885293941113
 30
0.0
 10
191.4606385984804
 20
246.2955053167449
 30
0.0
 10
191.5293805643526
 20
246.7101307524983
 30
0.0
 10
191.5525649714251
 20
247.1274336283186
 30
0.0
 10
191.5293805643528
 20
247.5447365041391
 30
0.0
 10
191.4606385984804
 20
247.9593619398925
 30
0.0
 10
191.3465817367934
 20
248.3663378625262
 30
0.0
 10
191.1879455871907
 20
248.7652470257371
 30
0.0
 10
190.9869427297214
 20
249.1494944128031
 30
0.0
 10
190.7434476088885
 20
249.5202363575839
 30
0.0
 10
190.4619476575803
 20
249.870311430799
 30
0.0
 10
190.1413155118044
 20
250.2015013299761
 30
0.0
 10
189.7879856841551
 20
250.5071091824285
 30
0.0
 10
189.4002476541639
 20
250.7887377154838
 30
0.0
 10
188.9857402345658
 20
251.0408965271471
 30
0.0
 10
188.5428735836966
 20
251.2645555861691
 30
0.0
 10
188.0795893634291
 20
251.4557975246638
 30
0.0
 10
187.5951506154756
 20
251.6148760159319
 30
0.0
 10
187.0969404674717
 20
251.7394659829732
 30
0.0
 10
186.5856673303774
 20
251.8293173157873
 30
0.0
 10
186.0674606599532
 20
251.8834482596529
 30
0.0
 10
185.5448369042271
 20
251.901512988358
 30
0.0
 10
185.0222131510835
 20
251.883448276398
 30
0.0
 10
184.5040064959619
 20
251.8293173278602
 30
0.0
 10
183.9927333743334
 20
251.7394659237568
 30
0.0
 10
183.4945231829228
 20
251.6148759594057
 30
0.0
 10
183.010084315083
 20
251.4557977485262
 30
0.0
 10
182.5468002627734
 20
251.2645558026317
 30
0.0
 10
182.1039340675498
 20
251.0408956779735
 30
0.0
 10
181.6894267929979
 20
250.788737023831
 30
0.0
 10
181.3016841661522
 20
250.5071119086613
 30
0.0
 10
180.9483616258023
 20
250.2015041422226
 30
0.0
 10
180.6277189103271
 20
249.8702998175625
 30
0.0
 10
180.3463013652241
 20
249.5202394209479
 30
0.0
 10
180.1024499653686
 20
249.1494930770103
 30
0.0
 10
179.8385617066714
 20
248.6423474755425
 30
0.0
 10
179.5990881574618
 20
247.9691030678978
 30
0.0
 10
179.5629202287342
 20
247.4079833230986
 30
0.0
 10
179.5448369173681
 20
247.1274336283186
 30
0.0
 11
179.5448369173681
 21
247.1274336283186
 31
0.0
 11
179.6375485739269
 21
246.292506509955
 31
0.0
 11
179.9066811926527
 21
245.496661822782
 31
0.0
 11
180.1089219460366
 21
245.1090423329757
 31
0.0
 11
180.3486844946615
 21
244.7434047379735
 31
0.0
 11
180.6329423270467
 21
244.3891927278233
 31
0.0
 11
180.9485702586542
 21
244.0625851646216
 31
0.0
 11
181.3058306596166
 21
243.7530160504731
 31
0.0
 11
181.6881112592488
 21
243.4748894609508
 31
0.0
 11
182.1070541759321
 21
243.2196204443057
 31
0.0
 11
182.5448369173682
 21
242.998174463529
 31
0.0
 11
183.0122459716984
 21
242.8049441059269
 31
0.0
 11
183.4927160574141
 21
242.6469249163233
 31
0.0
 11
183.9940012181205
 21
242.5213949985308
 31
0.0
 11
184.5029478513665
 21
242.4318133590849
 31
0.0
 11
185.0226306690722
 21
242.3774632743764
 31
0.0
 11
185.544836917368
 21
242.3593758476285
 31
0.0
 11
186.0670431543012
 21
242.3774632870527
 31
0.0
 11
186.5867259833697
 21
242.4318133590849
 31
0.0
 11
187.0956726725543
 21
242.5213949610597
 31
0.0
 11
187.596957777322
 21
242.6469249163234
 31
0.0
 11
188.0774276569227
 21
242.804944239172
 31
0.0
 11
188.544836917368
 21
242.9981744635289
 31
0.0
 11
188.9826203955518
 21
243.2196199692387
 31
0.0
 11
189.4015625754872
 21
243.4748894609507
 31
0.0
 11
189.7838405714949
 21
243.7530177290265
 31
0.0
 11
190.1411035760819
 21
244.0625851646215
 31
0.0
 11
190.4567406624317
 21
244.3891868258495
 31
0.0
 11
190.7409893400747
 21
244.7434047379736
 31
0.0
 11
190.9807196275484
 21
245.1090631314083
 31
0.0
 11
191.1829926420835
 21
245.4966618227821
 31
0.0
 11
191.3395288882551
 21
245.8909354557989
 31
0.0
 11
191.4536834354413
 21
246.2994690836913
 31
0.0
 11
191.5218525449408
 21
246.710969926995
 31
0.0
 11
191.5448369173681
 21
247.1274336283186
 31
0.0
 11
191.5218525449409
 21
247.5438973296423
 31
0.0
 11
191.4536834354413
 21
247.9553981729461
 31
0.0
 11
191.339528888255
 21
248.3639318008385
 31
0.0
 11
191.1829926420834
 21
248.7582054338554
 31
0.0
 11
190.9807196275484
 21
249.1458041252289
 31
0.0
 11
190.7409893400746
 21
249.5114625186637
 31
0.0
 11
190.4567406624316
 21
249.8656804307878
 31
0.0
 11
190.1411035760819
 21
250.1922820920158
 31
0.0
 11
189.7838405714949
 21
250.5018495276108
 31
0.0
 11
189.4015625754872
 21
250.7799777956867
 31
0.0
 11
188.9826203955518
 21
251.0352472873988
 31
0.0
 11
188.5448369173681
 21
251.2566927931085
 31
0.0
 11
188.0774276569227
 21
251.4499230174654
 31
0.0
 11
187.5969577773221
 21
251.607942340314
 31
0.0
 11
187.0956726725544
 21
251.7334722955777
 31
0.0
 11
186.5867259833697
 21
251.8230538975525
 31
0.0
 11
186.0670431543012
 21
251.8774039695847
 31
0.0
 11
185.5448369173681
 21
251.8954914090089
 31
0.0
 11
185.0226306690722
 21
251.8774039822611
 31
0.0
 11
184.5029478513665
 21
251.8230538975525
 31
0.0
 11
183.9940012181206
 21
251.7334722581066
 31
0.0
 11
183.4927160574141
 21
251.607942340314
 31
0.0
 11
183.0122459716983
 21
251.4499231507105
 31
0.0
 11
182.544836917368
 21
251.2566927931084
 31
0.0
 11
182.1070541759321
 21
251.0352468123318
 31
0.0
 11
181.6881112592488
 21
250.7799777956866
 31
0.0
 11
181.3058306596166
 21
250.5018512061643
 31
0.0
 11
180.9485702586542
 21
250.1922820920159
 31
0.0
 11
180.6329423270467
 21
249.8656745288141
 31
0.0
 11
180.3486844946615
 21
249.5114625186638
 31
0.0
 11
180.1089219460366
 21
249.1458249236617
 31
0.0
 11
179.9066811926527
 21
248.7582054338554
 31
0.0
 11
179.6375485739269
 21
247.9623607466824
 31
0.0
 11
179.5448369173681
 21
247.1274336283186
 31
0.0
  0
ENDBLK
  5
5E
330
5C
100
AcDbEntity
  8
0
100
AcDbBlockEnd
  0
BLOCK
  5
254
330
24D
100
AcDbEntity
  8
0
100
AcDbBlockBegin
  2
*D9
 70
     1
 10
0.0
 20
0.0
 30
0.0
  3
*D9
  1

  0
LINE
  5
24E
330
24D
100
AcDbEntity
  8
1
  6
Continuous
 62
     2
100
AcDbLine
 10
120.544836917368
 20
446.5152125705633
 30
0.0
 11
191.5448369173681
 21
446.5152125705633
 31
0.0
  0
LINE
  5
24F
330
24D
100
AcDbEntity
  8
1
  6
Continuous
 62
     2
100
AcDbLine
 10
120.544836917368
 20
403.0152125705632
 30
0.0
 11
120.544836917368
 21
448.5152125705633
 31
0.0
  0
LINE
  5
250
330
24D
100
AcDbEntity
  8
1
  6
Continuous
 62
     2
100
AcDbLine
 10
191.5448369173681
 20
403.0152125705632
 30
0.0
 11
191.5448369173681
 21
448.5152125705633
 31
0.0
  0
SOLID
  5
251
330
24D
100
AcDbEntity
  8
1
 62
     2
100
AcDbTrace
 10
127.544836917368
 20
447.436780053675
 30
0.0
 11
127.544836917368
 21
445.5936450874515
 31
0.0
 12
120.544836917368
 22
446.5152125705633
 32
0.0
 13
120.544836917368
 23
446.5152125705633
 33
0.0
  0
SOLID
  5
252
330
24D
100
AcDbEntity
  8
1
 62
     2
100
AcDbTrace
 10
184.5448369173681
 20
445.5936450874515
 30
0.0
 11
184.5448369173681
 21
447.436780053675
 31
0.0
 12
191.5448369173681
 22
446.5152125705633
 32
0.0
 13
191.5448369173681
 23
446.5152125705633
 33
0.0
  0
MTEXT
  5
253
330
24D
100
AcDbEntity
  8
1
 62
     7
100
AcDbMText
 10
151.844836917368
 20
448.5152125705633
 30
0.0
 40
7.0
 41
0.0
 71
     7
 72
     1
  1
71
  7
CONVERTER_12
 11
0.9999999999970619
 21
2.424068405545306E-6
 31
0.0
 73
     1
 44
0.60024009603842
  0
ENDBLK
  5
255
330
24D
100
AcDbEntity
  8
0
100
AcDbBlockEnd
  0
BLOCK
  5
25F
330
258
100
AcDbEntity
  8
0
100
AcDbBlockBegin
  2
*D10
 70
     1
 10
0.0
 20
0.0
 30
0.0
  3
*D10
  1

  0
LINE
  5
259
330
258
100
AcDbEntity
  8
1
  6
Continuous
 62
     2
100
AcDbLine
 10
100.544836917368
 20
391.5152125705632
 30
0.0
 11
100.544836917368
 21
426.5152125705633
 31
0.0
  0
LINE
  5
25A
330
258
100
AcDbEntity
  8
1
  6
Continuous
 62
     2
100
AcDbLine
 10
114.544836917368
 20
391.5152125705632
 30
0.0
 11
98.544836917368
 21
391.5152125705632
 31
0.0
  0
LINE
  5
25B
330
258
100
AcDbEntity
  8
1
  6
Continuous
 62
     2
100
AcDbLine
 10
144.7865066681713
 20
426.5152125705633
 30
0.0
 11
98.544836917368
 21
426.5152125705633
 31
0.0
  0
SOLID
  5
25C
330
258
100
AcDbEntity
  8
1
 62
     2
100
AcDbTrace
 10
99.62326943425623
 20
398.5152125705632
 30
0.0
 11
101.4664044004798
 21
398.5152125705632
 31
0.0
 12
100.544836917368
 22
391.5152125705632
 32
0.0
 13
100.544836917368
 23
391.5152125705632
 33
0.0
  0
SOLID
  5
25D
330
258
100
AcDbEntity
  8
1
 62
     2
100
AcDbTrace
 10
101.4664044004798
 20
419.5152125705633
 30
0.0
 11
99.62326943425623
 21
419.5152125705633
 31
0.0
 12
100.544836917368
 22
426.5152125705633
 32
0.0
 13
100.544836917368
 23
426.5152125705633
 33
0.0
  0
MTEXT
  5
25E
330
258
100
AcDbEntity
  8
1
 62
     7
100
AcDbMText
 10
98.544836917368
 20
403.7652125705632
 30
0.0
 40
7.0
 41
0.0
 71
     7
 72
     1
  1
35
  7
CONVERTER_12
 11
0.0
 21
1.0
 31
0.0
 73
     1
 44
0.60024009603842
  0
ENDBLK
  5
260
330
258
100
AcDbEntity
  8
0
100
AcDbBlockEnd
  0
BLOCK
  5
26A
330
263
100
AcDbEntity
  8
0
100
AcDbBlockBegin
  2
*D11
 70
     1
 10
0.0
 20
0.0
 30
0.0
  3
*D11
  1

  0
LINE
  5
264
330
263
100
AcDbEntity
  8
1
  6
Continuous
 62
     2
100
AcDbLine
 10
100.544836917368
 20
358.5152125705633
 30
0.0
 11
100.544836917368
 21
391.5152125705632
 31
0.0
  0
LINE
  5
265
330
263
100
AcDbEntity
  8
1
  6
Continuous
 62
     2
100
AcDbLine
 10
146.706836917368
 20
358.5152125705633
 30
0.0
 11
98.544836917368
 21
358.5152125705633
 31
0.0
  0
LINE
  5
266
330
263
100
AcDbEntity
  8
1
  6
Continuous
 62
     2
100
AcDbLine
 10
114.544836917368
 20
391.5152125705632
 30
0.0
 11
98.544836917368
 21
391.5152125705632
 31
0.0
  0
SOLID
  5
267
330
263
100
AcDbEntity
  8
1
 62
     2
100
AcDbTrace
 10
99.62326943425623
 20
365.5152125705633
 30
0.0
 11
101.4664044004798
 21
365.5152125705633
 31
0.0
 12
100.544836917368
 22
358.5152125705633
 32
0.0
 13
100.544836917368
 23
358.5152125705633
 33
0.0
  0
SOLID
  5
268
330
263
100
AcDbEntity
  8
1
 62
     2
100
AcDbTrace
 10
101.4664044004798
 20
384.5152125705632
 30
0.0
 11
99.62326943425623
 21
384.5152125705632
 31
0.0
 12
100.544836917368
 22
391.5152125705632
 32
0.0
 13
100.544836917368
 23
391.5152125705632
 33
0.0
  0
MTEXT
  5
269
330
263
100
AcDbEntity
  8
1
 62
     7
100
AcDbMText
 10
98.544836917368
 20
369.7652125705632
 30
0.0
 40
7.0
 41
0.0
 71
     7
 72
     1
  1
33
  7
CONVERTER_12
 11
0.0
 21
1.0
 31
0.0
 73
     1
 44
0.60024009603842
  0
ENDBLK
  5
26B
330
263
100
AcDbEntity
  8
0
100
AcDbBlockEnd
  0
BLOCK
  5
276
330
26E
100
AcDbEntity
  8
0
100
AcDbBlockBegin
  2
*D12
 70
     1
 10
0.0
 20
0.0
 30
0.0
  3
*D12
  1

  0
LINE
  5
26F
330
26E
100
AcDbEntity
  8
1
  6
Continuous
 62
     2
100
AcDbLine
 10
313.044836917368
 20
310.3774336283187
 30
0.0
 11
313.044836917368
 21
252.8774336283186
 31
0.0
  0
LINE
  5
270
330
26E
100
AcDbEntity
  8
1
  6
Continuous
 62
     2
100
AcDbLine
 10
313.044836917368
 20
356.805388159753
 30
0.0
 11
313.044836917368
 21
310.3774336283187
 31
0.0
  0
LINE
  5
271
330
26E
100
AcDbEntity
  8
1
  6
Continuous
 62
     2
100
AcDbLine
 10
299.044836917368
 20
252.8774336283186
 30
0.0
 11
315.044836917368
 21
252.8774336283186
 31
0.0
  0
LINE
  5
272
330
26E
100
AcDbEntity
  8
1
  6
Continuous
 62
     2
100
AcDbLine
 10
258.044836917368
 20
310.3774336283187
 30
0.0
 11
315.044836917368
 21
310.3774336283187
 31
0.0
  0
SOLID
  5
273
330
26E
100
AcDbEntity
  8
1
 62
     2
100
AcDbTrace
 10
313.9664044004797
 20
303.3774336283187
 30
0.0
 11
312.1232694342563
 21
303.3774336283187
 31
0.0
 12
313.044836917368
 22
310.3774336283187
 32
0.0
 13
313.044836917368
 23
310.3774336283187
 33
0.0
  0
SOLID
  5
274
330
26E
100
AcDbEntity
  8
1
 62
     2
100
AcDbTrace
 10
312.1232694342563
 20
259.8774336283186
 30
0.0
 11
313.9664044004797
 21
259.8774336283186
 31
0.0
 12
313.044836917368
 22
252.8774336283186
 32
0.0
 13
313.044836917368
 23
252.8774336283186
 33
0.0
  0
MTEXT
  5
275
330
26E
100
AcDbEntity
  8
1
 62
     7
100
AcDbMText
 10
311.044836917368
 20
315.330388159753
 30
0.0
 40
7.0
 41
0.0
 71
     7
 72
     1
  1
58リフト5
  7
CONVERTER_11
 11
0.0
 21
1.0
 31
0.0
 73
     1
 44
0.45454545454545
  0
ENDBLK
  5
277
330
26E
100
AcDbEntity
  8
0
100
AcDbBlockEnd
  0
BLOCK
  5
281
330
27A
100
AcDbEntity
  8
0
100
AcDbBlockBegin
  2
*D13
 70
     1
 10
0.0
 20
0.0
 30
0.0
  3
*D13
  1

  0
LINE
  5
27B
330
27A
100
AcDbEntity
  8
1
  6
Continuous
 62
     2
100
AcDbLine
 10
329.044836917368
 20
265.8774336283187
 30
0.0
 11
329.044836917368
 21
239.8774336283186
 31
0.0
  0
LINE
  5
27C
330
27A
100
AcDbEntity
  8
1
  6
Continuous
 62
     2
100
AcDbLine
 10
293.044836917368
 20
239.8774336283186
 30
0.0
 11
331.044836917368
 21
239.8774336283186
 31
0.0
  0
LINE
  5
27D
330
27A
100
AcDbEntity
  8
1
  6
Continuous
 62
     2
100
AcDbLine
 10
293.044836917368
 20
265.8774336283187
 30
0.0
 11
331.044836917368
 21
265.8774336283187
 31
0.0
  0
SOLID
  5
27E
330
27A
100
AcDbEntity
  8
1
 62
     2
100
AcDbTrace
 10
329.9664044004797
 20
258.8774336283187
 30
0.0
 11
328.1232694342563
 21
258.8774336283187
 31
0.0
 12
329.044836917368
 22
265.8774336283187
 32
0.0
 13
329.044836917368
 23
265.8774336283187
 33
0.0
  0
SOLID
  5
27F
330
27A
100
AcDbEntity
  8
1
 62
     2
100
AcDbTrace
 10
328.1232694342563
 20
246.8774336283186
 30
0.0
 11
329.9664044004797
 21
246.8774336283186
 31
0.0
 12
329.044836917368
 22
239.8774336283186
 32
0.0
 13
329.044836917368
 23
239.8774336283186
 33
0.0
  0
MTEXT
  5
280
330
27A
100
AcDbEntity
  8
1
 62
     7
100
AcDbMText
 10
327.044836917368
 20
247.3019118973411
 30
0.0
 40
7.0
 41
0.0
 71
     7
 72
     1
  1
26
  7
CONVERTER_12
 11
0.0
 21
1.0
 31
0.0
 73
     1
 44
0.60024009603842
  0
ENDBLK
  5
282
330
27A
100
AcDbEntity
  8
0
100
AcDbBlockEnd
  0
ENDSEC
  0
SECTION
  2
ENTITIES
  0
INSERT
  5
5F
330
1F
100
AcDbEntity
  8
1
100
AcDbBlockReference
  2
開示A4
 10
0.0
 20
0.0
 30
0.0
 41
2.0
 42
2.0
 43
2.0
  0
INSERT
  5
60
330
1F
100
AcDbEntity
  8
1
100
AcDbBlockReference
  2
B4110-0A-13-M11
 10
1618.044836917368
 20
750.5152125705632
 30
0.0
  0
INSERT
  5
61
330
1F
100
AcDbEntity
  8
0
100
AcDbBlockReference
  2
32-213-M2__1
 10
245.2664291915291
 20
408.4437097674433
 30
0.0
  0
INSERT
  5
62
330
1F
100
AcDbEntity
  8
1
100
AcDbBlockReference
  2
37-1-13
 10
229.024994378546
 20
275.7874006827381
 30
0.0
  0
INSERT
  5
63
330
1F
100
AcDbEntity
  8
0
100
AcDbBlockReference
  2
36-54-M11
 10
155.6627109079317
 20
150.3083076188825
 30
0.0
  0
INSERT
  5
64
330
1F
100
AcDbEntity
  8
0
100
AcDbBlockReference
  2
42-15-M2
 10
169.9405768307645
 20
99.58778461873382
 30
0.0
  0
INSERT
  5
65
330
1F
100
AcDbEntity
  8
0
100
AcDbBlockReference
  2
21-1A-M1
 10
299.6877718759346
 20
431.4727864956459
 30
0.0
  0
INSERT
  5
66
330
1F
100
AcDbEntity
  8
0
100
AcDbBlockReference
  2
32-213-M2__2
 10
250.966617453925
 20
606.0779256052317
 30
0.0
  0
LINE
  5
232
330
1F
100
AcDbEntity
  8
1
  6
DASH_CENTER
 62
     2
100
AcDbLine
 10
219.044836917368
 20
252.8774336283186
 30
0.0
 11
299.044836917368
 21
252.8774336283186
 31
0.0
  0
LINE
  5
233
330
1F
100
AcDbEntity
  8
1
  6
DASH_CENTER
 62
     2
100
AcDbLine
 10
258.044836917368
 20
233.8774336283188
 30
0.0
 11
258.044836917368
 21
316.3774336283187
 31
0.0
  0
LINE
  5
234
330
1F
100
AcDbEntity
  8
1
  6
DASH_CENTER
 62
     2
100
AcDbLine
 10
156.0448369173681
 20
233.8774336283188
 30
0.0
 11
156.0448369173681
 21
316.3774336283187
 31
0.0
  0
LINE
  5
235
330
1F
100
AcDbEntity
  8
1
  6
DASH_CENTER
 62
     2
100
AcDbLine
 10
197.544836917368
 20
252.8774336283186
 30
0.0
 11
114.5448369173683
 21
252.8774336283186
 31
0.0
  0
LINE
  5
236
330
1F
100
AcDbEntity
  8
1
  6
DASH_CENTER
 62
     2
100
AcDbLine
 10
156.0448369173681
 20
352.5152125705633
 30
0.0
 11
156.0448369173683
 21
432.5152125705633
 31
0.0
  0
LINE
  5
237
330
1F
100
AcDbEntity
  8
1
  6
DASH_CENTER
 62
     2
100
AcDbLine
 10
114.544836917368
 20
391.5152125705632
 30
0.0
 11
197.5448369173683
 21
391.5152125705633
 31
0.0
  0
LINE
  5
238
330
1F
100
AcDbEntity
  8
1
  6
DASH_CENTER
 62
     2
100
AcDbLine
 10
126.5999731886974
 20
408.5152125705633
 30
0.0
 11
170.7401382024601
 21
383.0308764177928
 31
0.0
  0
LINE
  5
239
330
1F
100
AcDbEntity
  8
1
  6
DASH_CENTER
 62
     2
100
AcDbLine
 10
141.3495356322761
 20
383.0308764177928
 30
0.0
 11
185.4897006460392
 21
408.5152125705633
 31
0.0
  0
SOLID
  5
23A
330
1F
100
AcDbEntity
  8
1
 62
     2
100
AcDbTrace
 10
133.3178811010413
 20
374.5103779385354
 30
0.0
 11
131.7216793976884
 21
375.4319454216472
 31
0.0
 12
136.0197802493649
 22
381.0333395065823
 32
0.0
 13
136.0197802493649
 23
381.0333395065823
 33
0.0
  0
LEADER
  5
23B
330
1F
100
AcDbEntity
  8
1
  6
Continuous
 62
     2
100
AcDbLeader
  3
Standard
 71
     0
 76
     3
 10
136.0197802493649
 20
381.0333395065823
 30
0.0
 10
114.3923351460658
 20
343.5735057497615
 30
0.0
 10
92.55877860995244
 20
343.5735057497615
 30
0.0
  0
SOLID
  5
23C
330
1F
100
AcDbEntity
  8
1
 62
     2
100
AcDbTrace
 10
181.2343064922655
 20
375.4319454216472
 30
0.0
 11
179.6381047889126
 21
374.5103779385354
 31
0.0
 12
176.936205640589
 22
381.0333395065823
 32
0.0
 13
176.936205640589
 23
381.0333395065823
 33
0.0
  0
LEADER
  5
23D
330
1F
100
AcDbEntity
  8
1
  6
Continuous
 62
     2
100
AcDbLeader
  3
Standard
 71
     0
 76
     3
 10
176.936205640589
 20
381.0333395065823
 30
0.0
 10
187.906755984334
 20
362.0317889242236
 30
0.0
 10
210.470437598776
 20
362.0317889242236
 30
0.0
  0
SOLID
  5
23E
330
1F
100
AcDbEntity
  8
1
 62
     2
100
AcDbTrace
 10
297.3429377690445
 20
236.5435395433834
 30
0.0
 11
295.7467360656915
 21
235.6219720602716
 31
0.0
 12
293.044836917368
 22
242.1449336283186
 32
0.0
 13
293.044836917368
 23
242.1449336283186
 33
0.0
  0
LEADER
  5
23F
330
1F
100
AcDbEntity
  8
1
  6
Continuous
 62
     2
100
AcDbLeader
  3
Standard
 71
     0
 76
     3
 10
293.044836917368
 20
242.1449336283186
 30
0.0
 10
305.900984036548
 20
219.8774336283186
 30
0.0
 10
336.1440226819561
 20
219.8774336283186
 30
0.0
  0
SOLID
  5
240
330
1F
100
AcDbEntity
  8
1
 62
     2
100
AcDbTrace
 10
225.6813786798802
 20
268.9563277132537
 30
0.0
 11
227.2775803832331
 21
269.8778951963655
 31
0.0
 12
229.9794795315567
 22
263.3549336283186
 32
0.0
 13
229.9794795315567
 23
263.3549336283186
 33
0.0
  0
LEADER
  5
241
330
1F
100
AcDbEntity
  8
1
  6
Continuous
 62
     2
100
AcDbLeader
  3
Standard
 71
     0
 76
     3
 10
229.9794795315567
 20
263.3549336283186
 30
0.0
 10
220.3083187598105
 20
280.1058754531501
 30
0.0
 10
198.1552547715332
 20
280.1058754531501
 30
0.0
  0
MTEXT
  5
242
330
1F
100
AcDbEntity
  8
1
 62
     7
100
AcDbMText
 10
68.0
 20
61.00000000000001
 30
0.0
 40
7.0
 41
0.0
 71
     4
 72
     1
  1
共用形
  7
CONVERTER_11
 73
     1
 44
0.54545454545455
  0
MTEXT
  5
244
330
1F
100
AcDbEntity
  8
1
 62
     7
100
AcDbMText
 10
102.3811357779891
 20
349.5735057497615
 30
0.0
 40
7.0
 41
0.0
 71
     5
 72
     1
  1
G1/2
  7
CONVERTER_12
 73
     1
 44
0.7202881152461
  0
MTEXT
  5
245
330
1F
100
AcDbEntity
  8
1
 62
     7
100
AcDbMText
 10
199.6592382306993
 20
368.0317889242236
 30
0.0
 40
7.0
 41
0.0
 71
     5
 72
     1
  1
G1/2
  7
CONVERTER_12
 73
     1
 44
0.7202881152461
  0
MTEXT
  5
246
330
1F
100
AcDbEntity
  8
1
 62
     7
100
AcDbMText
 10
322.0779943340621
 20
225.8774336283186
 30
0.0
 40
7.0
 41
0.0
 71
     5
 72
     1
  1
Rc1/2
  7
CONVERTER_12
 73
     1
 44
0.7202881152461
  0
MTEXT
  5
247
330
1F
100
AcDbEntity
  8
1
 62
     7
100
AcDbMText
 10
208.1592382306993
 20
286.1058754531501
 30
0.0
 40
7.0
 41
0.0
 71
     5
 72
     1
  1
G1/2
  7
CONVERTER_12
 73
     1
 44
0.7202881152461
  0
MTEXT
  5
248
330
1F
100
AcDbEntity
  8
1
 62
     7
100
AcDbMText
 10
114.0
 20
45.50000000000003
 30
0.0
 40
7.0
 41
0.0
 71
     5
 72
     1
  1
分岐バルブ
  7
CONVERTER_11
 73
     1
 44
0.54545454545455
  0
MTEXT
  5
249
330
1F
100
AcDbEntity
  8
1
 62
     7
100
AcDbMText
 10
114.0
 20
28.5
 30
0.0
 40
7.0
 41
0.0
 71
     5
 72
     1
  1
B4110-13
  7
CONVERTER_12
 73
     1
 44
0.7202881152461
  0
MTEXT
  5
24A
330
1F
100
AcDbEntity
  8
1
 62
     7
100
AcDbMText
 10
170.5
 20
34.0
 30
0.0
 40
7.0
 41
0.0
 71
     5
 72
     1
  1
1
  7
CONVERTER_12
 73
     1
 44
0.7202881152461
  0
MTEXT
  5
24B
330
1F
100
AcDbEntity
  8
1
 62
     7
100
AcDbMText
 10
187.5
 20
34.0
 30
0.0
 40
7.0
 41
0.0
 71
     5
 72
     1
  1
2
  7
CONVERTER_12
 73
     1
 44
0.7202881152461
  0
MTEXT
  5
24C
330
1F
100
AcDbEntity
  8
1
 62
     7
100
AcDbMText
 10
68.0
 20
75.0
 30
0.0
 40
7.0
 41
0.0
 71
     4
 72
     1
  1
JIS
  7
CONVERTER_12
 73
     1
 44
0.7202881152461
  0
DIMENSION
  5
257
330
1F
100
AcDbEntity
  8
1
100
AcDbDimension
  2
*D9
 10
120.544836917368
 20
446.5152125705633
 30
0.0
 11
156.044836917368
 21
452.0152125705633
 31
0.0
 70
    32
  1
<>
 71
     5
 42
-1.0
 53
0.00013888888889
  3
ME10_DIM_10
100
AcDbAlignedDimension
 13
191.5448369173681
 23
403.0152125705632
 33
0.0
 14
120.544836917368
 24
403.0152125705632
 34
0.0
100
AcDbRotatedDimension
  0
DIMENSION
  5
262
330
1F
100
AcDbEntity
  8
1
100
AcDbDimension
  2
*D10
 10
100.544836917368
 20
391.5152125705632
 30
0.0
 11
95.044836917368
 21
409.0152125705632
 31
0.0
 70
    32
  1
<>
 71
     5
 42
-1.0
 53
90.0
  3
ME10_DIM_11
100
AcDbAlignedDimension
 13
144.7865066681713
 23
426.5152125705633
 33
0.0
 14
114.544836917368
 24
391.5152125705632
 34
0.0
 50
90.0
100
AcDbRotatedDimension
  0
DIMENSION
  5
26D
330
1F
100
AcDbEntity
  8
1
100
AcDbDimension
  2
*D11
 10
100.544836917368
 20
358.5152125705633
 30
0.0
 11
95.044836917368
 21
375.0152125705632
 31
0.0
 70
    32
  1
<>
 71
     5
 42
-1.0
 53
90.0
  3
ME10_DIM_12
100
AcDbAlignedDimension
 13
114.544836917368
 23
391.5152125705632
 33
0.0
 14
146.706836917368
 24
358.5152125705633
 34
0.0
 50
90.0
100
AcDbRotatedDimension
  0
DIMENSION
  5
279
330
1F
100
AcDbEntity
  8
1
100
AcDbDimension
  2
*D12
 10
313.044836917368
 20
310.3774336283187
 30
0.0
 11
307.544836917368
 21
336.067888159753
 31
0.0
 70
    32
  1
58リフト5
 71
     5
 42
-1.0
 53
90.0
  3
ME10_DIM_13
100
AcDbAlignedDimension
 13
299.044836917368
 23
252.8774336283186
 33
0.0
 14
258.044836917368
 24
310.3774336283187
 34
0.0
 50
90.0
100
AcDbRotatedDimension
  0
DIMENSION
  5
284
330
1F
100
AcDbEntity
  8
1
100
AcDbDimension
  2
*D13
 10
329.044836917368
 20
265.8774336283187
 30
0.0
 11
323.544836917368
 21
252.5519118973411
 31
0.0
 70
    32
  1
<>
 71
     5
 42
-1.0
 53
90.0
  3
ME10_DIM_14
100
AcDbAlignedDimension
 13
293.044836917368
 23
239.8774336283186
 33
0.0
 14
293.044836917368
 24
265.8774336283187
 34
0.0
 50
90.0
100
AcDbRotatedDimension
  0
ENDSEC
  0
SECTION
  2
OBJECTS
  0
DICTIONARY
  5
C
330
0
100
AcDbDictionary
281
     1
  3
ACAD_GROUP
350
D
  3
ACAD_LAYOUT
350
1A
  3
ACAD_MATERIAL
350
3B
  3
ACAD_MLEADERSTYLE
350
287
  3
ACAD_MLINESTYLE
350
17
  3
ACAD_PLOTSETTINGS
350
19
  3
ACAD_PLOTSTYLENAME
350
E
  3
ACAD_VISUALSTYLE
350
2A
  3
AcDbVariableDictionary
350
285
  0
DICTIONARY
  5
D
102
{ACAD_REACTORS
330
C
102
}
330
C
100
AcDbDictionary
281
     1
  0
DICTIONARY
  5
1A
102
{ACAD_REACTORS
330
C
102
}
330
C
100
AcDbDictionary
281
     1
  3
Layout1
350
1E
  3
Layout2
350
26
  3
Model
350
22
  0
DICTIONARY
  5
3B
102
{ACAD_REACTORS
330
C
102
}
330
C
100
AcDbDictionary
281
     1
  3
ByBlock
350
3D
  3
ByLayer
350
3C
  3
Global
350
3E
  0
DICTIONARY
  5
287
102
{ACAD_REACTORS
330
C
102
}
330
C
100
AcDbDictionary
281
     1
  0
DICTIONARY
  5
17
102
{ACAD_REACTORS
330
C
102
}
330
C
100
AcDbDictionary
281
     1
  3
Standard
350
18
  0
DICTIONARY
  5
19
102
{ACAD_REACTORS
330
C
102
}
330
C
100
AcDbDictionary
281
     1
  0
ACDBDICTIONARYWDFLT
  5
E
102
{ACAD_REACTORS
330
C
102
}
330
C
100
AcDbDictionary
281
     1
  3
Normal
350
F
100
AcDbDictionaryWithDefault
340
F
  0
DICTIONARY
  5
2A
102
{ACAD_REACTORS
330
C
102
}
330
C
100
AcDbDictionary
281
     1
  3
2dWireframe
350
2F
  3
3D Hidden
350
31
  3
3dWireframe
350
30
  3
Basic
350
32
  3
Brighten
350
36
  3
ColorChange
350
3A
  3
Conceptual
350
34
  3
Dim
350
35
  3
Facepattern
350
39
  3
Flat
350
2B
  3
FlatWithEdges
350
2C
  3
Gouraud
350
2D
  3
GouraudWithEdges
350
2E
  3
Linepattern
350
38
  3
Realistic
350
33
  3
Thicken
350
37
  0
DICTIONARY
  5
285
102
{ACAD_REACTORS
330
C
102
}
330
C
100
AcDbDictionary
281
     1
  3
DIMASSOC
350
288
  3
HIDETEXT
350
289
  0
LAYOUT
  5
1E
102
{ACAD_REACTORS
330
1A
102
}
330
1A
100
AcDbPlotSettings
  1

  2
none_device
  4

  6

 40
0.0
 41
0.0
 42
0.0
 43
0.0
 44
0.0
 45
0.0
 46
0.0
 47
0.0
 48
0.0
 49
0.0
140
0.0
141
0.0
142
1.0
143
1.0
 70
   688
 72
     0
 73
     0
 74
     5
  7

 75
    16
147
1.0
148
0.0
149
0.0
100
AcDbLayout
  1
Layout1
 70
     1
 71
     1
 10
0.0
 20
0.0
 11
12.0
 21
9.0
 12
0.0
 22
0.0
 32
0.0
 14
1.00000000000000E+20
 24
1.00000000000000E+20
 34
1.00000000000000E+20
 15
-1.00000000000000E+20
 25
-1.00000000000000E+20
 35
-1.00000000000000E+20
146
0.0
 13
0.0
 23
0.0
 33
0.0
 16
1.0
 26
0.0
 36
0.0
 17
0.0
 27
1.0
 37
0.0
 76
     0
330
1B
  0
LAYOUT
  5
26
102
{ACAD_REACTORS
330
1A
102
}
330
1A
100
AcDbPlotSettings
  1

  2
none_device
  4

  6

 40
0.0
 41
0.0
 42
0.0
 43
0.0
 44
0.0
 45
0.0
 46
0.0
 47
0.0
 48
0.0
 49
0.0
140
0.0
141
0.0
142
1.0
143
1.0
 70
   688
 72
     0
 73
     0
 74
     5
  7

 75
    16
147
1.0
148
0.0
149
0.0
100
AcDbLayout
  1
Layout2
 70
     1
 71
     2
 10
0.0
 20
0.0
 11
0.0
 21
0.0
 12
0.0
 22
0.0
 32
0.0
 14
0.0
 24
0.0
 34
0.0
 15
0.0
 25
0.0
 35
0.0
146
0.0
 13
0.0
 23
0.0
 33
0.0
 16
1.0
 26
0.0
 36
0.0
 17
0.0
 27
1.0
 37
0.0
 76
     0
330
23
  0
LAYOUT
  5
22
102
{ACAD_REACTORS
330
1A
102
}
330
1A
100
AcDbPlotSettings
  1

  2
none_device
  4

  6

 40
0.0
 41
0.0
 42
0.0
 43
0.0
 44
0.0
 45
0.0
 46
0.0
 47
0.0
 48
0.0
 49
0.0
140
0.0
141
0.0
142
1.0
143
1.0
 70
  1712
 72
     0
 73
     0
 74
     0
  7

 75
     0
147
1.0
148
0.0
149
0.0
100
AcDbLayout
  1
Model
 70
     1
 71
     0
 10
0.0
 20
0.0
 11
12.0
 21
9.0
 12
0.0
 22
0.0
 32
0.0
 14
0.0
 24
0.0
 34
0.0
 15
420.0
 25
594.0
 35
0.0
146
0.0
 13
0.0
 23
0.0
 33
0.0
 16
1.0
 26
0.0
 36
0.0
 17
0.0
 27
1.0
 37
0.0
 76
     0
330
1F
331
29
  0
MATERIAL
  5
3D
102
{ACAD_REACTORS
330
3B
102
}
102
{ACAD_XDICTIONARY
360
2AC
102
}
330
3B
100
AcDbMaterial
  1
ByBlock
  0
MATERIAL
  5
3C
102
{ACAD_REACTORS
330
3B
102
}
102
{ACAD_XDICTIONARY
360
2AA
102
}
330
3B
100
AcDbMaterial
  1
ByLayer
  0
MATERIAL
  5
3E
102
{ACAD_REACTORS
330
3B
102
}
102
{ACAD_XDICTIONARY
360
2AE
102
}
330
3B
100
AcDbMaterial
  1
Global
  0
MLINESTYLE
  5
18
102
{ACAD_REACTORS
330
17
102
}
330
17
100
AcDbMlineStyle
  2
Standard
 70
     0
  3

 62
   256
 51
90.0
 52
90.0
 71
     2
 49
0.5
 62
   256
  6
BYLAYER
 49
-0.5
 62
   256
  6
BYLAYER
  0
ACDBPLACEHOLDER
  5
F
102
{ACAD_REACTORS
330
E
102
}
330
E
  0
VISUALSTYLE
  5
2F
102
{ACAD_REACTORS
330
2A
102
}
102
{ACAD_XDICTIONARY
360
292
102
}
330
2A
100
AcDbVisualStyle
  2
2dWireframe
 70
     4
 71
     0
 72
     2
 73
     0
 90
        0
 40
-0.6
 41
-30.0
 62
     5
 63
     7
 74
     1
 91
        4
 64
     7
 65
   257
 75
     1
175
     1
 42
1.0
 92
        0
 66
   257
 43
1.0
 76
     1
 77
     6
 78
     2
 67
     7
 79
     5
170
     0
171
     0
290
     0
174
     0
 93
        1
 44
0.0
173
     0
291
     0
 45
0.0
1001
ACAD
1000
AcDbSavedByObjectVersion
1070
     0
  0
VISUALSTYLE
  5
31
102
{ACAD_REACTORS
330
2A
102
}
102
{ACAD_XDICTIONARY
360
296
102
}
330
2A
100
AcDbVisualStyle
  2
3D Hidden
 70
     6
 71
     1
 72
     2
 73
     2
 90
        0
 40
-0.6
 41
-30.0
 62
     5
 63
     7
 74
     2
 91
        2
 64
     7
 65
   257
 75
     2
175
     1
 42
40.0
 92
        0
 66
   257
 43
1.0
 76
     1
 77
     6
 78
     2
 67
     7
 79
     3
170
     0
171
     0
290
     0
174
     0
 93
        1
 44
0.0
173
     0
291
     0
 45
0.0
1001
ACAD
1000
AcDbSavedByObjectVersion
1070
     0
  0
VISUALSTYLE
  5
30
102
{ACAD_REACTORS
330
2A
102
}
102
{ACAD_XDICTIONARY
360
294
102
}
330
2A
100
AcDbVisualStyle
  2
3dWireframe
 70
     5
 71
     0
 72
     2
 73
     0
 90
        0
 40
-0.6
 41
-30.0
 62
     5
 63
     7
 74
     1
 91
        4
 64
     7
 65
   257
 75
     1
175
     1
 42
1.0
 92
        0
 66
   257
 43
1.0
 76
     1
 77
     6
 78
     2
 67
     7
 79
     5
170
     0
171
     0
290
     0
174
     0
 93
        1
 44
0.0
173
     0
291
     0
 45
0.0
1001
ACAD
1000
AcDbSavedByObjectVersion
1070
     0
  0
VISUALSTYLE
  5
32
102
{ACAD_REACTORS
330
2A
102
}
102
{ACAD_XDICTIONARY
360
298
102
}
330
2A
100
AcDbVisualStyle
  2
Basic
 70
     7
 71
     1
 72
     0
 73
     1
 90
        0
 40
-0.6
 41
-30.0
 62
     5
 63
     7
 74
     0
 91
        4
 64
     7
 65
   257
 75
     1
175
     1
 42
1.0
 92
        8
 66
     7
 43
1.0
 76
     1
 77
     6
 78
     2
 67
     7
 79
     5
170
     0
171
     0
290
     0
174
     0
 93
        1
 44
0.0
173
     0
291
     1
 45
0.0
1001
ACAD
1000
AcDbSavedByObjectVersion
1070
     0
  0
VISUALSTYLE
  5
36
102
{ACAD_REACTORS
330
2A
102
}
102
{ACAD_XDICTIONARY
360
2A0
102
}
330
2A
100
AcDbVisualStyle
  2
Brighten
 70
    12
 71
     2
 72
     2
 73
     0
 90
        0
 40
-0.6
 41
-30.0
 62
     5
 63
     7
 74
     1
 91
        4
 64
     7
 65
   257
 75
     1
175
     1
 42
1.0
 92
        8
 66
     7
 43
1.0
 76
     1
 77
     6
 78
     2
 67
     7
 79
     5
170
     0
171
     0
290
     0
174
     0
 93
        1
 44
50.0
173
     0
291
     1
 45
0.0
1001
ACAD
1000
AcDbSavedByObjectVersion
1070
     0
  0
VISUALSTYLE
  5
3A
102
{ACAD_REACTORS
330
2A
102
}
102
{ACAD_XDICTIONARY
360
2A8
102
}
330
2A
100
AcDbVisualStyle
  2
ColorChange
 70
    16
 71
     2
 72
     2
 73
     3
 90
        0
 40
-0.6
 41
-30.0
 62
     5
 63
     8
 74
     1
 91
        4
 64
     7
 65
   257
 75
     1
175
     1
 42
1.0
 92
        8
 66
     8
 43
1.0
 76
     1
 77
     6
 78
     2
 67
     7
 79
     5
170
     0
171
     0
290
     0
174
     0
 93
        1
 44
0.0
173
     0
291
     1
 45
0.0
1001
ACAD
1000
AcDbSavedByObjectVersion
1070
     0
  0
VISUALSTYLE
  5
34
102
{ACAD_REACTORS
330
2A
102
}
102
{ACAD_XDICTIONARY
360
29C
102
}
330
2A
100
AcDbVisualStyle
  2
Conceptual
 70
     9
 71
     3
 72
     2
 73
     0
 90
        0
 40
-0.6
 41
-30.0
 62
     5
 63
     7
 74
     2
 91
        2
 64
     7
 65
   257
 75
     1
175
     1
 42
40.0
 92
        8
 66
     7
 43
1.0
 76
     1
 77
     6
 78
     2
 67
     7
 79
     3
170
     0
171
     0
290
     0
174
     0
 93
        1
 44
0.0
173
     0
291
     0
 45
0.0
1001
ACAD
1000
AcDbSavedByObjectVersion
1070
     0
  0
VISUALSTYLE
  5
35
102
{ACAD_REACTORS
330
2A
102
}
102
{ACAD_XDICTIONARY
360
29E
102
}
330
2A
100
AcDbVisualStyle
  2
Dim
 70
    11
 71
     2
 72
     2
 73
     0
 90
        0
 40
-0.6
 41
-30.0
 62
     5
 63
     7
 74
     1
 91
        4
 64
     7
 65
   257
 75
     1
175
     1
 42
1.0
 92
        8
 66
     7
 43
1.0
 76
     1
 77
     6
 78
     2
 67
     7
 79
     5
170
     0
171
     0
290
     0
174
     0
 93
        1
 44
-50.0
173
     0
291
     1
 45
0.0
1001
ACAD
1000
AcDbSavedByObjectVersion
1070
     0
  0
VISUALSTYLE
  5
39
102
{ACAD_REACTORS
330
2A
102
}
102
{ACAD_XDICTIONARY
360
2A6
102
}
330
2A
100
AcDbVisualStyle
  2
Facepattern
 70
    15
 71
     2
 72
     2
 73
     0
 90
        0
 40
-0.6
 41
-30.0
 62
     5
 63
     7
 74
     1
 91
        4
 64
     7
 65
   257
 75
     1
175
     1
 42
1.0
 92
        8
 66
     7
 43
1.0
 76
     1
 77
     6
 78
     2
 67
     7
 79
     5
170
     0
171
     0
290
     0
174
     0
 93
        1
 44
0.0
173
     0
291
     1
 45
0.0
1001
ACAD
1000
AcDbSavedByObjectVersion
1070
     0
  0
VISUALSTYLE
  5
2B
102
{ACAD_REACTORS
330
2A
102
}
102
{ACAD_XDICTIONARY
360
28A
102
}
330
2A
100
AcDbVisualStyle
  2
Flat
 70
     0
 71
     2
 72
     1
 73
     1
 90
        2
 40
-0.6
 41
30.0
 62
     5
 63
     7
 74
     0
 91
        4
 64
     7
 65
   257
 75
     1
175
     1
 42
1.0
 92
        8
 66
     7
 43
1.0
 76
     1
 77
     6
 78
     2
 67
     7
 79
     5
170
     0
171
     0
290
     0
174
     0
 93
       13
 44
0.0
173
     0
291
     1
 45
0.0
1001
ACAD
1000
AcDbSavedByObjectVersion
1070
     0
  0
VISUALSTYLE
  5
2C
102
{ACAD_REACTORS
330
2A
102
}
102
{ACAD_XDICTIONARY
360
28C
102
}
330
2A
100
AcDbVisualStyle
  2
FlatWithEdges
 70
     1
 71
     2
 72
     1
 73
     1
 90
        2
 40
-0.6
 41
30.0
 62
     5
 63
     7
 74
     1
 91
        4
 64
     7
 65
   257
 75
     1
175
     1
 42
1.0
 92
        0
 66
   257
 43
1.0
 76
     1
 77
     6
 78
     2
 67
     7
 79
     5
170
     0
171
     0
290
     0
174
     0
 93
       13
 44
0.0
173
     0
291
     1
 45
0.0
1001
ACAD
1000
AcDbSavedByObjectVersion
1070
     0
  0
VISUALSTYLE
  5
2D
102
{ACAD_REACTORS
330
2A
102
}
102
{ACAD_XDICTIONARY
360
28E
102
}
330
2A
100
AcDbVisualStyle
  2
Gouraud
 70
     2
 71
     2
 72
     2
 73
     1
 90
        2
 40
-0.6
 41
30.0
 62
     5
 63
     7
 74
     0
 91
        4
 64
     7
 65
   257
 75
     1
175
     1
 42
1.0
 92
        0
 66
     7
 43
1.0
 76
     1
 77
     6
 78
     2
 67
     7
 79
     5
170
     0
171
     0
290
     0
174
     0
 93
       13
 44
0.0
173
     0
291
     1
 45
0.0
1001
ACAD
1000
AcDbSavedByObjectVersion
1070
     0
  0
VISUALSTYLE
  5
2E
102
{ACAD_REACTORS
330
2A
102
}
102
{ACAD_XDICTIONARY
360
290
102
}
330
2A
100
AcDbVisualStyle
  2
GouraudWithEdges
 70
     3
 71
     2
 72
     2
 73
     1
 90
        2
 40
-0.6
 41
30.0
 62
     5
 63
     7
 74
     1
 91
        4
 64
     7
 65
   257
 75
     1
175
     1
 42
1.0
 92
        0
 66
   257
 43
1.0
 76
     1
 77
     6
 78
     2
 67
     7
 79
     5
170
     0
171
     0
290
     0
174
     0
 93
       13
 44
0.0
173
     0
291
     1
 45
0.0
1001
ACAD
1000
AcDbSavedByObjectVersion
1070
     0
  0
VISUALSTYLE
  5
38
102
{ACAD_REACTORS
330
2A
102
}
102
{ACAD_XDICTIONARY
360
2A4
102
}
330
2A
100
AcDbVisualStyle
  2
Linepattern
 70
    14
 71
     2
 72
     2
 73
     0
 90
        0
 40
-0.6
 41
-30.0
 62
     5
 63
     7
 74
     1
 91
        4
 64
     7
 65
   257
 75
     7
175
     7
 42
1.0
 92
        8
 66
     7
 43
1.0
 76
     1
 77
     6
 78
     2
 67
     7
 79
     5
170
     0
171
     0
290
     0
174
     0
 93
        1
 44
0.0
173
     0
291
     1
 45
0.0
1001
ACAD
1000
AcDbSavedByObjectVersion
1070
     0
  0
VISUALSTYLE
  5
33
102
{ACAD_REACTORS
330
2A
102
}
102
{ACAD_XDICTIONARY
360
29A
102
}
330
2A
100
AcDbVisualStyle
  2
Realistic
 70
     8
 71
     2
 72
     2
 73
     0
 90
        0
 40
-0.6
 41
-30.0
 62
     5
 63
     7
 74
     1
 91
        0
 64
     7
 65
   257
 75
     1
175
     1
 42
1.0
 92
        8
 66
     8
 43
1.0
 76
     1
 77
     6
 78
     2
 67
     7
 79
     5
170
     0
171
     0
290
     0
174
     0
 93
       13
 44
0.0
173
     0
291
     0
 45
0.0
1001
ACAD
1000
AcDbSavedByObjectVersion
1070
     0
  0
VISUALSTYLE
  5
37
102
{ACAD_REACTORS
330
2A
102
}
102
{ACAD_XDICTIONARY
360
2A2
102
}
330
2A
100
AcDbVisualStyle
  2
Thicken
 70
    13
 71
     2
 72
     2
 73
     0
 90
        0
 40
-0.6
 41
-30.0
 62
     5
 63
     7
 74
     1
 91
        4
 64
     7
 65
   257
 75
     1
175
     1
 42
1.0
 92
       12
 66
     7
 43
1.0
 76
     1
 77
     6
 78
     2
 67
     7
 79
     5
170
     0
171
     0
290
     0
174
     0
 93
        1
 44
0.0
173
     0
291
     1
 45
0.0
1001
ACAD
1000
AcDbSavedByObjectVersion
1070
     0
  0
DICTIONARYVAR
  5
288
102
{ACAD_REACTORS
330
285
102
}
330
285
100
DictionaryVariables
280
     0
  1
2
  0
DICTIONARYVAR
  5
289
102
{ACAD_REACTORS
330
285
102
}
330
285
100
DictionaryVariables
280
     0
  1
1
  0
DICTIONARY
  5
2AC
330
3D
100
AcDbDictionary
280
     1
281
     1
  3
ACAD_XREC_ROUNDTRIP
360
2AD
  0
DICTIONARY
  5
2AA
330
3C
100
AcDbDictionary
280
     1
281
     1
  3
ACAD_XREC_ROUNDTRIP
360
2AB
  0
DICTIONARY
  5
2AE
330
3E
100
AcDbDictionary
280
     1
281
     1
  3
ACAD_XREC_ROUNDTRIP
360
2AF
  0
DICTIONARY
  5
292
330
2F
100
AcDbDictionary
280
     1
281
     1
  3
ACAD_XREC_ROUNDTRIP
360
293
  0
DICTIONARY
  5
296
330
31
100
AcDbDictionary
280
     1
281
     1
  3
ACAD_XREC_ROUNDTRIP
360
297
  0
DICTIONARY
  5
294
330
30
100
AcDbDictionary
280
     1
281
     1
  3
ACAD_XREC_ROUNDTRIP
360
295
  0
DICTIONARY
  5
298
330
32
100
AcDbDictionary
280
     1
281
     1
  3
ACAD_XREC_ROUNDTRIP
360
299
  0
DICTIONARY
  5
2A0
330
36
100
AcDbDictionary
280
     1
281
     1
  3
ACAD_XREC_ROUNDTRIP
360
2A1
  0
DICTIONARY
  5
2A8
330
3A
100
AcDbDictionary
280
     1
281
     1
  3
ACAD_XREC_ROUNDTRIP
360
2A9
  0
DICTIONARY
  5
29C
330
34
100
AcDbDictionary
280
     1
281
     1
  3
ACAD_XREC_ROUNDTRIP
360
29D
  0
DICTIONARY
  5
29E
330
35
100
AcDbDictionary
280
     1
281
     1
  3
ACAD_XREC_ROUNDTRIP
360
29F
  0
DICTIONARY
  5
2A6
330
39
100
AcDbDictionary
280
     1
281
     1
  3
ACAD_XREC_ROUNDTRIP
360
2A7
  0
DICTIONARY
  5
28A
330
2B
100
AcDbDictionary
280
     1
281
     1
  3
ACAD_XREC_ROUNDTRIP
360
28B
  0
DICTIONARY
  5
28C
330
2C
100
AcDbDictionary
280
     1
281
     1
  3
ACAD_XREC_ROUNDTRIP
360
28D
  0
DICTIONARY
  5
28E
330
2D
100
AcDbDictionary
280
     1
281
     1
  3
ACAD_XREC_ROUNDTRIP
360
28F
  0
DICTIONARY
  5
290
330
2E
100
AcDbDictionary
280
     1
281
     1
  3
ACAD_XREC_ROUNDTRIP
360
291
  0
DICTIONARY
  5
2A4
330
38
100
AcDbDictionary
280
     1
281
     1
  3
ACAD_XREC_ROUNDTRIP
360
2A5
  0
DICTIONARY
  5
29A
330
33
100
AcDbDictionary
280
     1
281
     1
  3
ACAD_XREC_ROUNDTRIP
360
29B
  0
DICTIONARY
  5
2A2
330
37
100
AcDbDictionary
280
     1
281
     1
  3
ACAD_XREC_ROUNDTRIP
360
2A3
  0
XRECORD
  5
2AD
102
{ACAD_REACTORS
330
2AC
102
}
330
2AC
100
AcDbXrecord
280
     1
102
MATERIAL
148
0.0
149
0.0
149
0.0
 93
        0
 94
      127
282
     0
 72
     1
 77
     1
171
     1
175
     1
179
     1
273
     0
  0
XRECORD
  5
2AB
102
{ACAD_REACTORS
330
2AA
102
}
330
2AA
100
AcDbXrecord
280
     1
102
MATERIAL
148
0.0
149
0.0
149
0.0
 93
        0
 94
      127
282
     0
 72
     1
 77
     1
171
     1
175
     1
179
     1
273
     0
  0
XRECORD
  5
2AF
102
{ACAD_REACTORS
330
2AE
102
}
330
2AE
100
AcDbXrecord
280
     1
102
MATERIAL
148
0.0
149
0.0
149
0.0
 93
        0
 94
      127
282
     0
 72
     1
 77
     1
171
     1
175
     1
179
     1
273
     0
  0
XRECORD
  5
293
102
{ACAD_REACTORS
330
292
102
}
330
292
100
AcDbXrecord
280
     1
102
RTVSPropertyOp0
 70
     1
102
RTVSPropertyOp1
 70
     1
102
RTVSPropertyOp2
 70
     1
102
RTVSPropertyOp3
 70
     1
102
RTVSPropertyOp4
 70
     1
102
RTVSPropertyOp5
 70
     1
102
RTVSPropertyOp6
 70
     1
102
RTVSPropertyOp7
 70
     1
102
RTVSPropertyOp8
 70
     1
102
RTVSPropertyOp9
 70
     1
102
RTVSPropertyOp10
 70
     1
102
RTVSPropertyOp11
 70
     1
102
RTVSPropertyOp12
 70
     1
102
RTVSPropertyOp13
 70
     1
102
RTVSPropertyOp14
 70
     1
102
RTVSPropertyOp15
 70
     1
102
RTVSPropertyOp16
 70
     1
102
RTVSPropertyOp17
 70
     1
102
RTVSPropertyOp18
 70
     1
102
RTVSPropertyOp19
 70
     1
102
RTVSPropertyOp20
 70
     1
102
RTVSPropertyOp21
 70
     1
102
RTVSPropertyOp22
 70
     1
102
RTVSPropertyOp23
 70
     1
102
RTVSPropertyOp24
 70
     1
102
RTVSPropertyOp25
 70
     1
102
RTVSPropertyOp26
 70
     1
102
RTVSPropertyOp27
 70
     1
102
RTVSPropertyOp28
 70
     1
102
RTVSPropertyOp29
 70
     1
102
RTVSPropertyOp30
 70
     1
102
RTVSPropertyOp31
 70
     1
102
RTVSPropertyOp32
 70
     1
  0
XRECORD
  5
297
102
{ACAD_REACTORS
330
296
102
}
330
296
100
AcDbXrecord
280
     1
102
RTVSPropertyOp0
 70
     1
102
RTVSPropertyOp1
 70
     1
102
RTVSPropertyOp2
 70
     1
102
RTVSPropertyOp3
 70
     1
102
RTVSPropertyOp4
 70
     1
102
RTVSPropertyOp5
 70
     1
102
RTVSPropertyOp6
 70
     1
102
RTVSPropertyOp7
 70
     1
102
RTVSPropertyOp8
 70
     1
102
RTVSPropertyOp9
 70
     1
102
RTVSPropertyOp10
 70
     1
102
RTVSPropertyOp11
 70
     1
102
RTVSPropertyOp12
 70
     1
102
RTVSPropertyOp13
 70
     1
102
RTVSPropertyOp14
 70
     1
102
RTVSPropertyOp15
 70
     1
102
RTVSPropertyOp16
 70
     1
102
RTVSPropertyOp17
 70
     1
102
RTVSPropertyOp18
 70
     1
102
RTVSPropertyOp19
 70
     1
102
RTVSPropertyOp20
 70
     1
102
RTVSPropertyOp21
 70
     1
102
RTVSPropertyOp22
 70
     1
102
RTVSPropertyOp23
 70
     1
102
RTVSPropertyOp24
 70
     1
102
RTVSPropertyOp25
 70
     1
102
RTVSPropertyOp26
 70
     1
102
RTVSPropertyOp27
 70
     1
102
RTVSPropertyOp28
 70
     1
102
RTVSPropertyOp29
 70
     1
102
RTVSPropertyOp30
 70
     1
102
RTVSPropertyOp31
 70
     1
102
RTVSPropertyOp32
 70
     1
  0
XRECORD
  5
295
102
{ACAD_REACTORS
330
294
102
}
330
294
100
AcDbXrecord
280
     1
102
RTVSPropertyOp0
 70
     1
102
RTVSPropertyOp1
 70
     1
102
RTVSPropertyOp2
 70
     1
102
RTVSPropertyOp3
 70
     1
102
RTVSPropertyOp4
 70
     1
102
RTVSPropertyOp5
 70
     1
102
RTVSPropertyOp6
 70
     1
102
RTVSPropertyOp7
 70
     1
102
RTVSPropertyOp8
 70
     1
102
RTVSPropertyOp9
 70
     1
102
RTVSPropertyOp10
 70
     1
102
RTVSPropertyOp11
 70
     1
102
RTVSPropertyOp12
 70
     1
102
RTVSPropertyOp13
 70
     1
102
RTVSPropertyOp14
 70
     1
102
RTVSPropertyOp15
 70
     1
102
RTVSPropertyOp16
 70
     1
102
RTVSPropertyOp17
 70
     1
102
RTVSPropertyOp18
 70
     1
102
RTVSPropertyOp19
 70
     1
102
RTVSPropertyOp20
 70
     1
102
RTVSPropertyOp21
 70
     1
102
RTVSPropertyOp22
 70
     1
102
RTVSPropertyOp23
 70
     1
102
RTVSPropertyOp24
 70
     1
102
RTVSPropertyOp25
 70
     1
102
RTVSPropertyOp26
 70
     1
102
RTVSPropertyOp27
 70
     1
102
RTVSPropertyOp28
 70
     1
102
RTVSPropertyOp29
 70
     1
102
RTVSPropertyOp30
 70
     1
102
RTVSPropertyOp31
 70
     1
102
RTVSPropertyOp32
 70
     1
  0
XRECORD
  5
299
102
{ACAD_REACTORS
330
298
102
}
330
298
100
AcDbXrecord
280
     1
102
RTVSPropertyOp0
 70
     1
102
RTVSPropertyOp1
 70
     1
102
RTVSPropertyOp2
 70
     1
102
RTVSPropertyOp3
 70
     1
102
RTVSPropertyOp4
 70
     1
102
RTVSPropertyOp5
 70
     1
102
RTVSPropertyOp6
 70
     1
102
RTVSPropertyOp7
 70
     1
102
RTVSPropertyOp8
 70
     1
102
RTVSPropertyOp9
 70
     1
102
RTVSPropertyOp10
 70
     1
102
RTVSPropertyOp11
 70
     1
102
RTVSPropertyOp12
 70
     1
102
RTVSPropertyOp13
 70
     1
102
RTVSPropertyOp14
 70
     1
102
RTVSPropertyOp15
 70
     1
102
RTVSPropertyOp16
 70
     1
102
RTVSPropertyOp17
 70
     1
102
RTVSPropertyOp18
 70
     1
102
RTVSPropertyOp19
 70
     1
102
RTVSPropertyOp20
 70
     1
102
RTVSPropertyOp21
 70
     1
102
RTVSPropertyOp22
 70
     1
102
RTVSPropertyOp23
 70
     1
102
RTVSPropertyOp24
 70
     1
102
RTVSPropertyOp25
 70
     1
102
RTVSPropertyOp26
 70
     1
102
RTVSPropertyOp27
 70
     1
102
RTVSPropertyOp28
 70
     1
102
RTVSPropertyOp29
 70
     1
102
RTVSPropertyOp30
 70
     1
102
RTVSPropertyOp31
 70
     1
102
RTVSPropertyOp32
 70
     1
  0
XRECORD
  5
2A1
102
{ACAD_REACTORS
330
2A0
102
}
330
2A0
100
AcDbXrecord
280
     1
102
RTVSPropertyOp0
 70
     1
102
RTVSPropertyOp1
 70
     1
102
RTVSPropertyOp2
 70
     1
102
RTVSPropertyOp3
 70
     1
102
RTVSPropertyOp4
 70
     1
102
RTVSPropertyOp5
 70
     1
102
RTVSPropertyOp6
 70
     1
102
RTVSPropertyOp7
 70
     1
102
RTVSPropertyOp8
 70
     1
102
RTVSPropertyOp9
 70
     1
102
RTVSPropertyOp10
 70
     1
102
RTVSPropertyOp11
 70
     1
102
RTVSPropertyOp12
 70
     1
102
RTVSPropertyOp13
 70
     1
102
RTVSPropertyOp14
 70
     1
102
RTVSPropertyOp15
 70
     1
102
RTVSPropertyOp16
 70
     1
102
RTVSPropertyOp17
 70
     1
102
RTVSPropertyOp18
 70
     1
102
RTVSPropertyOp19
 70
     1
102
RTVSPropertyOp20
 70
     1
102
RTVSPropertyOp21
 70
     1
102
RTVSPropertyOp22
 70
     1
102
RTVSPropertyOp23
 70
     1
102
RTVSPropertyOp24
 70
     1
102
RTVSPropertyOp25
 70
     1
102
RTVSPropertyOp26
 70
     1
102
RTVSPropertyOp27
 70
     1
102
RTVSPropertyOp28
 70
     1
102
RTVSPropertyOp29
 70
     1
102
RTVSPropertyOp30
 70
     1
102
RTVSPropertyOp31
 70
     1
102
RTVSPropertyOp32
 70
     1
  0
XRECORD
  5
2A9
102
{ACAD_REACTORS
330
2A8
102
}
330
2A8
100
AcDbXrecord
280
     1
102
RTVSPropertyOp0
 70
     1
102
RTVSPropertyOp1
 70
     1
102
RTVSPropertyOp2
 70
     1
102
RTVSPropertyOp3
 70
     1
102
RTVSPropertyOp4
 70
     1
102
RTVSPropertyOp5
 70
     1
102
RTVSPropertyOp6
 70
     1
102
RTVSPropertyOp7
 70
     1
102
RTVSPropertyOp8
 70
     1
102
RTVSPropertyOp9
 70
     1
102
RTVSPropertyOp10
 70
     1
102
RTVSPropertyOp11
 70
     1
102
RTVSPropertyOp12
 70
     1
102
RTVSPropertyOp13
 70
     1
102
RTVSPropertyOp14
 70
     1
102
RTVSPropertyOp15
 70
     1
102
RTVSPropertyOp16
 70
     1
102
RTVSPropertyOp17
 70
     1
102
RTVSPropertyOp18
 70
     1
102
RTVSPropertyOp19
 70
     1
102
RTVSPropertyOp20
 70
     1
102
RTVSPropertyOp21
 70
     1
102
RTVSPropertyOp22
 70
     1
102
RTVSPropertyOp23
 70
     1
102
RTVSPropertyOp24
 70
     1
102
RTVSPropertyOp25
 70
     1
102
RTVSPropertyOp26
 70
     1
102
RTVSPropertyOp27
 70
     1
102
RTVSPropertyOp28
 70
     1
102
RTVSPropertyOp29
 70
     1
102
RTVSPropertyOp30
 70
     1
102
RTVSPropertyOp31
 70
     1
102
RTVSPropertyOp32
 70
     1
  0
XRECORD
  5
29D
102
{ACAD_REACTORS
330
29C
102
}
330
29C
100
AcDbXrecord
280
     1
102
RTVSPropertyOp0
 70
     1
102
RTVSPropertyOp1
 70
     1
102
RTVSPropertyOp2
 70
     1
102
RTVSPropertyOp3
 70
     1
102
RTVSPropertyOp4
 70
     1
102
RTVSPropertyOp5
 70
     1
102
RTVSPropertyOp6
 70
     1
102
RTVSPropertyOp7
 70
     1
102
RTVSPropertyOp8
 70
     1
102
RTVSPropertyOp9
 70
     1
102
RTVSPropertyOp10
 70
     1
102
RTVSPropertyOp11
 70
     1
102
RTVSPropertyOp12
 70
     1
102
RTVSPropertyOp13
 70
     1
102
RTVSPropertyOp14
 70
     1
102
RTVSPropertyOp15
 70
     1
102
RTVSPropertyOp16
 70
     1
102
RTVSPropertyOp17
 70
     1
102
RTVSPropertyOp18
 70
     1
102
RTVSPropertyOp19
 70
     1
102
RTVSPropertyOp20
 70
     1
102
RTVSPropertyOp21
 70
     1
102
RTVSPropertyOp22
 70
     1
102
RTVSPropertyOp23
 70
     1
102
RTVSPropertyOp24
 70
     1
102
RTVSPropertyOp25
 70
     1
102
RTVSPropertyOp26
 70
     1
102
RTVSPropertyOp27
 70
     1
102
RTVSPropertyOp28
 70
     1
102
RTVSPropertyOp29
 70
     1
102
RTVSPropertyOp30
 70
     1
102
RTVSPropertyOp31
 70
     1
102
RTVSPropertyOp32
 70
     1
  0
XRECORD
  5
29F
102
{ACAD_REACTORS
330
29E
102
}
330
29E
100
AcDbXrecord
280
     1
102
RTVSPropertyOp0
 70
     1
102
RTVSPropertyOp1
 70
     1
102
RTVSPropertyOp2
 70
     1
102
RTVSPropertyOp3
 70
     1
102
RTVSPropertyOp4
 70
     1
102
RTVSPropertyOp5
 70
     1
102
RTVSPropertyOp6
 70
     1
102
RTVSPropertyOp7
 70
     1
102
RTVSPropertyOp8
 70
     1
102
RTVSPropertyOp9
 70
     1
102
RTVSPropertyOp10
 70
     1
102
RTVSPropertyOp11
 70
     1
102
RTVSPropertyOp12
 70
     1
102
RTVSPropertyOp13
 70
     1
102
RTVSPropertyOp14
 70
     1
102
RTVSPropertyOp15
 70
     1
102
RTVSPropertyOp16
 70
     1
102
RTVSPropertyOp17
 70
     1
102
RTVSPropertyOp18
 70
     1
102
RTVSPropertyOp19
 70
     1
102
RTVSPropertyOp20
 70
     1
102
RTVSPropertyOp21
 70
     1
102
RTVSPropertyOp22
 70
     1
102
RTVSPropertyOp23
 70
     1
102
RTVSPropertyOp24
 70
     1
102
RTVSPropertyOp25
 70
     1
102
RTVSPropertyOp26
 70
     1
102
RTVSPropertyOp27
 70
     1
102
RTVSPropertyOp28
 70
     1
102
RTVSPropertyOp29
 70
     1
102
RTVSPropertyOp30
 70
     1
102
RTVSPropertyOp31
 70
     1
102
RTVSPropertyOp32
 70
     1
  0
XRECORD
  5
2A7
102
{ACAD_REACTORS
330
2A6
102
}
330
2A6
100
AcDbXrecord
280
     1
102
RTVSPropertyOp0
 70
     1
102
RTVSPropertyOp1
 70
     1
102
RTVSPropertyOp2
 70
     1
102
RTVSPropertyOp3
 70
     1
102
RTVSPropertyOp4
 70
     1
102
RTVSPropertyOp5
 70
     1
102
RTVSPropertyOp6
 70
     1
102
RTVSPropertyOp7
 70
     1
102
RTVSPropertyOp8
 70
     1
102
RTVSPropertyOp9
 70
     1
102
RTVSPropertyOp10
 70
     1
102
RTVSPropertyOp11
 70
     1
102
RTVSPropertyOp12
 70
     1
102
RTVSPropertyOp13
 70
     1
102
RTVSPropertyOp14
 70
     1
102
RTVSPropertyOp15
 70
     1
102
RTVSPropertyOp16
 70
     1
102
RTVSPropertyOp17
 70
     1
102
RTVSPropertyOp18
 70
     1
102
RTVSPropertyOp19
 70
     1
102
RTVSPropertyOp20
 70
     1
102
RTVSPropertyOp21
 70
     1
102
RTVSPropertyOp22
 70
     1
102
RTVSPropertyOp23
 70
     1
102
RTVSPropertyOp24
 70
     1
102
RTVSPropertyOp25
 70
     1
102
RTVSPropertyOp26
 70
     1
102
RTVSPropertyOp27
 70
     1
102
RTVSPropertyOp28
 70
     1
102
RTVSPropertyOp29
 70
     1
102
RTVSPropertyOp30
 70
     1
102
RTVSPropertyOp31
 70
     1
102
RTVSPropertyOp32
 70
     1
  0
XRECORD
  5
28B
102
{ACAD_REACTORS
330
28A
102
}
330
28A
100
AcDbXrecord
280
     1
102
RTVSPropertyOp0
 70
     1
102
RTVSPropertyOp1
 70
     1
102
RTVSPropertyOp2
 70
     1
102
RTVSPropertyOp3
 70
     1
102
RTVSPropertyOp4
 70
     1
102
RTVSPropertyOp5
 70
     1
102
RTVSPropertyOp6
 70
     1
102
RTVSPropertyOp7
 70
     1
102
RTVSPropertyOp8
 70
     1
102
RTVSPropertyOp9
 70
     1
102
RTVSPropertyOp10
 70
     1
102
RTVSPropertyOp11
 70
     1
102
RTVSPropertyOp12
 70
     1
102
RTVSPropertyOp13
 70
     1
102
RTVSPropertyOp14
 70
     1
102
RTVSPropertyOp15
 70
     1
102
RTVSPropertyOp16
 70
     1
102
RTVSPropertyOp17
 70
     1
102
RTVSPropertyOp18
 70
     1
102
RTVSPropertyOp19
 70
     1
102
RTVSPropertyOp20
 70
     1
102
RTVSPropertyOp21
 70
     1
102
RTVSPropertyOp22
 70
     1
102
RTVSPropertyOp23
 70
     1
102
RTVSPropertyOp24
 70
     1
102
RTVSPropertyOp25
 70
     1
102
RTVSPropertyOp26
 70
     1
102
RTVSPropertyOp27
 70
     1
102
RTVSPropertyOp28
 70
     1
102
RTVSPropertyOp29
 70
     1
102
RTVSPropertyOp30
 70
     1
102
RTVSPropertyOp31
 70
     1
102
RTVSPropertyOp32
 70
     1
  0
XRECORD
  5
28D
102
{ACAD_REACTORS
330
28C
102
}
330
28C
100
AcDbXrecord
280
     1
102
RTVSPropertyOp0
 70
     1
102
RTVSPropertyOp1
 70
     1
102
RTVSPropertyOp2
 70
     1
102
RTVSPropertyOp3
 70
     1
102
RTVSPropertyOp4
 70
     1
102
RTVSPropertyOp5
 70
     1
102
RTVSPropertyOp6
 70
     1
102
RTVSPropertyOp7
 70
     1
102
RTVSPropertyOp8
 70
     1
102
RTVSPropertyOp9
 70
     1
102
RTVSPropertyOp10
 70
     1
102
RTVSPropertyOp11
 70
     1
102
RTVSPropertyOp12
 70
     1
102
RTVSPropertyOp13
 70
     1
102
RTVSPropertyOp14
 70
     1
102
RTVSPropertyOp15
 70
     1
102
RTVSPropertyOp16
 70
     1
102
RTVSPropertyOp17
 70
     1
102
RTVSPropertyOp18
 70
     1
102
RTVSPropertyOp19
 70
     1
102
RTVSPropertyOp20
 70
     1
102
RTVSPropertyOp21
 70
     1
102
RTVSPropertyOp22
 70
     1
102
RTVSPropertyOp23
 70
     1
102
RTVSPropertyOp24
 70
     1
102
RTVSPropertyOp25
 70
     1
102
RTVSPropertyOp26
 70
     1
102
RTVSPropertyOp27
 70
     1
102
RTVSPropertyOp28
 70
     1
102
RTVSPropertyOp29
 70
     1
102
RTVSPropertyOp30
 70
     1
102
RTVSPropertyOp31
 70
     1
102
RTVSPropertyOp32
 70
     1
  0
XRECORD
  5
28F
102
{ACAD_REACTORS
330
28E
102
}
330
28E
100
AcDbXrecord
280
     1
102
RTVSPropertyOp0
 70
     1
102
RTVSPropertyOp1
 70
     1
102
RTVSPropertyOp2
 70
     1
102
RTVSPropertyOp3
 70
     1
102
RTVSPropertyOp4
 70
     1
102
RTVSPropertyOp5
 70
     1
102
RTVSPropertyOp6
 70
     1
102
RTVSPropertyOp7
 70
     1
102
RTVSPropertyOp8
 70
     1
102
RTVSPropertyOp9
 70
     1
102
RTVSPropertyOp10
 70
     1
102
RTVSPropertyOp11
 70
     1
102
RTVSPropertyOp12
 70
     1
102
RTVSPropertyOp13
 70
     1
102
RTVSPropertyOp14
 70
     1
102
RTVSPropertyOp15
 70
     1
102
RTVSPropertyOp16
 70
     1
102
RTVSPropertyOp17
 70
     1
102
RTVSPropertyOp18
 70
     1
102
RTVSPropertyOp19
 70
     1
102
RTVSPropertyOp20
 70
     1
102
RTVSPropertyOp21
 70
     1
102
RTVSPropertyOp22
 70
     1
102
RTVSPropertyOp23
 70
     1
102
RTVSPropertyOp24
 70
     1
102
RTVSPropertyOp25
 70
     1
102
RTVSPropertyOp26
 70
     1
102
RTVSPropertyOp27
 70
     1
102
RTVSPropertyOp28
 70
     1
102
RTVSPropertyOp29
 70
     1
102
RTVSPropertyOp30
 70
     1
102
RTVSPropertyOp31
 70
     1
102
RTVSPropertyOp32
 70
     1
  0
XRECORD
  5
291
102
{ACAD_REACTORS
330
290
102
}
330
290
100
AcDbXrecord
280
     1
102
RTVSPropertyOp0
 70
     1
102
RTVSPropertyOp1
 70
     1
102
RTVSPropertyOp2
 70
     1
102
RTVSPropertyOp3
 70
     1
102
RTVSPropertyOp4
 70
     1
102
RTVSPropertyOp5
 70
     1
102
RTVSPropertyOp6
 70
     1
102
RTVSPropertyOp7
 70
     1
102
RTVSPropertyOp8
 70
     1
102
RTVSPropertyOp9
 70
     1
102
RTVSPropertyOp10
 70
     1
102
RTVSPropertyOp11
 70
     1
102
RTVSPropertyOp12
 70
     1
102
RTVSPropertyOp13
 70
     1
102
RTVSPropertyOp14
 70
     1
102
RTVSPropertyOp15
 70
     1
102
RTVSPropertyOp16
 70
     1
102
RTVSPropertyOp17
 70
     1
102
RTVSPropertyOp18
 70
     1
102
RTVSPropertyOp19
 70
     1
102
RTVSPropertyOp20
 70
     1
102
RTVSPropertyOp21
 70
     1
102
RTVSPropertyOp22
 70
     1
102
RTVSPropertyOp23
 70
     1
102
RTVSPropertyOp24
 70
     1
102
RTVSPropertyOp25
 70
     1
102
RTVSPropertyOp26
 70
     1
102
RTVSPropertyOp27
 70
     1
102
RTVSPropertyOp28
 70
     1
102
RTVSPropertyOp29
 70
     1
102
RTVSPropertyOp30
 70
     1
102
RTVSPropertyOp31
 70
     1
102
RTVSPropertyOp32
 70
     1
  0
XRECORD
  5
2A5
102
{ACAD_REACTORS
330
2A4
102
}
330
2A4
100
AcDbXrecord
280
     1
102
RTVSPropertyOp0
 70
     1
102
RTVSPropertyOp1
 70
     1
102
RTVSPropertyOp2
 70
     1
102
RTVSPropertyOp3
 70
     1
102
RTVSPropertyOp4
 70
     1
102
RTVSPropertyOp5
 70
     1
102
RTVSPropertyOp6
 70
     1
102
RTVSPropertyOp7
 70
     1
102
RTVSPropertyOp8
 70
     1
102
RTVSPropertyOp9
 70
     1
102
RTVSPropertyOp10
 70
     1
102
RTVSPropertyOp11
 70
     1
102
RTVSPropertyOp12
 70
     1
102
RTVSPropertyOp13
 70
     1
102
RTVSPropertyOp14
 70
     1
102
RTVSPropertyOp15
 70
     1
102
RTVSPropertyOp16
 70
     1
102
RTVSPropertyOp17
 70
     1
102
RTVSPropertyOp18
 70
     1
102
RTVSPropertyOp19
 70
     1
102
RTVSPropertyOp20
 70
     1
102
RTVSPropertyOp21
 70
     1
102
RTVSPropertyOp22
 70
     1
102
RTVSPropertyOp23
 70
     1
102
RTVSPropertyOp24
 70
     1
102
RTVSPropertyOp25
 70
     1
102
RTVSPropertyOp26
 70
     1
102
RTVSPropertyOp27
 70
     1
102
RTVSPropertyOp28
 70
     1
102
RTVSPropertyOp29
 70
     1
102
RTVSPropertyOp30
 70
     1
102
RTVSPropertyOp31
 70
     1
102
RTVSPropertyOp32
 70
     1
  0
XRECORD
  5
29B
102
{ACAD_REACTORS
330
29A
102
}
330
29A
100
AcDbXrecord
280
     1
102
RTVSPropertyOp0
 70
     1
102
RTVSPropertyOp1
 70
     1
102
RTVSPropertyOp2
 70
     1
102
RTVSPropertyOp3
 70
     1
102
RTVSPropertyOp4
 70
     1
102
RTVSPropertyOp5
 70
     1
102
RTVSPropertyOp6
 70
     1
102
RTVSPropertyOp7
 70
     1
102
RTVSPropertyOp8
 70
     1
102
RTVSPropertyOp9
 70
     1
102
RTVSPropertyOp10
 70
     1
102
RTVSPropertyOp11
 70
     1
102
RTVSPropertyOp12
 70
     1
102
RTVSPropertyOp13
 70
     1
102
RTVSPropertyOp14
 70
     1
102
RTVSPropertyOp15
 70
     1
102
RTVSPropertyOp16
 70
     1
102
RTVSPropertyOp17
 70
     1
102
RTVSPropertyOp18
 70
     1
102
RTVSPropertyOp19
 70
     1
102
RTVSPropertyOp20
 70
     1
102
RTVSPropertyOp21
 70
     1
102
RTVSPropertyOp22
 70
     1
102
RTVSPropertyOp23
 70
     1
102
RTVSPropertyOp24
 70
     1
102
RTVSPropertyOp25
 70
     1
102
RTVSPropertyOp26
 70
     1
102
RTVSPropertyOp27
 70
     1
102
RTVSPropertyOp28
 70
     1
102
RTVSPropertyOp29
 70
     1
102
RTVSPropertyOp30
 70
     1
102
RTVSPropertyOp31
 70
     1
102
RTVSPropertyOp32
 70
     1
  0
XRECORD
  5
2A3
102
{ACAD_REACTORS
330
2A2
102
}
330
2A2
100
AcDbXrecord
280
     1
102
RTVSPropertyOp0
 70
     1
102
RTVSPropertyOp1
 70
     1
102
RTVSPropertyOp2
 70
     1
102
RTVSPropertyOp3
 70
     1
102
RTVSPropertyOp4
 70
     1
102
RTVSPropertyOp5
 70
     1
102
RTVSPropertyOp6
 70
     1
102
RTVSPropertyOp7
 70
     1
102
RTVSPropertyOp8
 70
     1
102
RTVSPropertyOp9
 70
     1
102
RTVSPropertyOp10
 70
     1
102
RTVSPropertyOp11
 70
     1
102
RTVSPropertyOp12
 70
     1
102
RTVSPropertyOp13
 70
     1
102
RTVSPropertyOp14
 70
     1
102
RTVSPropertyOp15
 70
     1
102
RTVSPropertyOp16
 70
     1
102
RTVSPropertyOp17
 70
     1
102
RTVSPropertyOp18
 70
     1
102
RTVSPropertyOp19
 70
     1
102
RTVSPropertyOp20
 70
     1
102
RTVSPropertyOp21
 70
     1
102
RTVSPropertyOp22
 70
     1
102
RTVSPropertyOp23
 70
     1
102
RTVSPropertyOp24
 70
     1
102
RTVSPropertyOp25
 70
     1
102
RTVSPropertyOp26
 70
     1
102
RTVSPropertyOp27
 70
     1
102
RTVSPropertyOp28
 70
     1
102
RTVSPropertyOp29
 70
     1
102
RTVSPropertyOp30
 70
     1
102
RTVSPropertyOp31
 70
     1
102
RTVSPropertyOp32
 70
     1
  0
ENDSEC
  0
EOF
