  0
SECTION
  2
HEADER
  9
$ACADVER
  1
AC1015
  9
$ACADMAINTVER
 70
     6
  9
$DWGCODEPAGE
  3
ANSI_932
  9
$INSBASE
 10
0.0
 20
0.0
 30
0.0
  9
$EXTMIN
 10
0.0
 20
0.0
 30
0.0
  9
$EXTMAX
 10
420.0
 20
594.0
 30
0.0
  9
$LIMMIN
 10
0.0
 20
0.0
  9
$LIMMAX
 10
12.0
 20
9.0
  9
$ORTHOMODE
 70
     0
  9
$REGENMODE
 70
     1
  9
$FILLMODE
 70
     1
  9
$QTEXTMODE
 70
     0
  9
$MIRRTEXT
 70
     1
  9
$LTSCALE
 40
1.0
  9
$ATTMODE
 70
     1
  9
$TEXTSIZE
 40
0.2
  9
$TRACEWID
 40
0.05
  9
$TEXTSTYLE
  7
Standard
  9
$CLAYER
  8
0
  9
$CELTYPE
  6
ByLayer
  9
$CECOLOR
 62
   256
  9
$CELTSCALE
 40
1.0
  9
$DISPSILH
 70
     0
  9
$DIMSCALE
 40
1.0
  9
$DIMASZ
 40
0.18
  9
$DIMEXO
 40
0.0625
  9
$DIMDLI
 40
0.38
  9
$DIMRND
 40
0.0
  9
$DIMDLE
 40
0.0
  9
$DIMEXE
 40
0.18
  9
$DIMTP
 40
0.0
  9
$DIMTM
 40
0.0
  9
$DIMTXT
 40
0.18
  9
$DIMCEN
 40
0.09
  9
$DIMTSZ
 40
0.0
  9
$DIMTOL
 70
     0
  9
$DIMLIM
 70
     0
  9
$DIMTIH
 70
     1
  9
$DIMTOH
 70
     1
  9
$DIMSE1
 70
     0
  9
$DIMSE2
 70
     0
  9
$DIMTAD
 70
     0
  9
$DIMZIN
 70
     0
  9
$DIMBLK
  1

  9
$DIMASO
 70
     1
  9
$DIMSHO
 70
     1
  9
$DIMPOST
  1

  9
$DIMAPOST
  1

  9
$DIMALT
 70
     0
  9
$DIMALTD
 70
     2
  9
$DIMALTF
 40
25.4
  9
$DIMLFAC
 40
1.0
  9
$DIMTOFL
 70
     0
  9
$DIMTVP
 40
0.0
  9
$DIMTIX
 70
     0
  9
$DIMSOXD
 70
     0
  9
$DIMSAH
 70
     0
  9
$DIMBLK1
  1

  9
$DIMBLK2
  1

  9
$DIMSTYLE
  2
Standard
  9
$DIMCLRD
 70
     0
  9
$DIMCLRE
 70
     0
  9
$DIMCLRT
 70
     0
  9
$DIMTFAC
 40
1.0
  9
$DIMGAP
 40
0.09
  9
$DIMJUST
 70
     0
  9
$DIMSD1
 70
     0
  9
$DIMSD2
 70
     0
  9
$DIMTOLJ
 70
     1
  9
$DIMTZIN
 70
     0
  9
$DIMALTZ
 70
     0
  9
$DIMALTTZ
 70
     0
  9
$DIMUPT
 70
     0
  9
$DIMDEC
 70
     4
  9
$DIMTDEC
 70
     4
  9
$DIMALTU
 70
     2
  9
$DIMALTTD
 70
     2
  9
$DIMTXSTY
  7
Standard
  9
$DIMAUNIT
 70
     0
  9
$DIMADEC
 70
     0
  9
$DIMALTRND
 40
0.0
  9
$DIMAZIN
 70
     0
  9
$DIMDSEP
 70
    46
  9
$DIMATFIT
 70
     3
  9
$DIMFRAC
 70
     0
  9
$DIMLDRBLK
  1

  9
$DIMLUNIT
 70
     2
  9
$DIMLWD
 70
    -2
  9
$DIMLWE
 70
    -2
  9
$DIMTMOVE
 70
     0
  9
$LUNITS
 70
     2
  9
$LUPREC
 70
     4
  9
$SKETCHINC
 40
0.1
  9
$FILLETRAD
 40
0.5
  9
$AUNITS
 70
     0
  9
$AUPREC
 70
     0
  9
$MENU
  1
.
  9
$ELEVATION
 40
0.0
  9
$PELEVATION
 40
0.0
  9
$THICKNESS
 40
0.0
  9
$LIMCHECK
 70
     0
  9
$CHAMFERA
 40
0.5
  9
$CHAMFERB
 40
0.5
  9
$CHAMFERC
 40
1.0
  9
$CHAMFERD
 40
0.0
  9
$SKPOLY
 70
     0
  9
$TDCREATE
 40
2457186.576767824
  9
$TDUCREATE
 40
2457186.201767824
  9
$TDUPDATE
 40
2457186.576769086
  9
$TDUUPDATE
 40
2457186.201769086
  9
$TDINDWG
 40
0.0000000116
  9
$TDUSRTIMER
 40
0.0000000116
  9
$USRTIMER
 70
     1
  9
$ANGBASE
 50
0.0
  9
$ANGDIR
 70
     0
  9
$PDMODE
 70
     0
  9
$PDSIZE
 40
0.0
  9
$PLINEWID
 40
0.0
  9
$SPLFRAME
 70
     0
  9
$SPLINETYPE
 70
     6
  9
$SPLINESEGS
 70
     8
  9
$HANDSEED
  5
2D8
  9
$SURFTAB1
 70
     6
  9
$SURFTAB2
 70
     6
  9
$SURFTYPE
 70
     6
  9
$SURFU
 70
     6
  9
$SURFV
 70
     6
  9
$UCSBASE
  2

  9
$UCSNAME
  2

  9
$UCSORG
 10
0.0
 20
0.0
 30
0.0
  9
$UCSXDIR
 10
1.0
 20
0.0
 30
0.0
  9
$UCSYDIR
 10
0.0
 20
1.0
 30
0.0
  9
$UCSORTHOREF
  2

  9
$UCSORTHOVIEW
 70
     0
  9
$UCSORGTOP
 10
0.0
 20
0.0
 30
0.0
  9
$UCSORGBOTTOM
 10
0.0
 20
0.0
 30
0.0
  9
$UCSORGLEFT
 10
0.0
 20
0.0
 30
0.0
  9
$UCSORGRIGHT
 10
0.0
 20
0.0
 30
0.0
  9
$UCSORGFRONT
 10
0.0
 20
0.0
 30
0.0
  9
$UCSORGBACK
 10
0.0
 20
0.0
 30
0.0
  9
$PUCSBASE
  2

  9
$PUCSNAME
  2

  9
$PUCSORG
 10
0.0
 20
0.0
 30
0.0
  9
$PUCSXDIR
 10
1.0
 20
0.0
 30
0.0
  9
$PUCSYDIR
 10
0.0
 20
1.0
 30
0.0
  9
$PUCSORTHOREF
  2

  9
$PUCSORTHOVIEW
 70
     0
  9
$PUCSORGTOP
 10
0.0
 20
0.0
 30
0.0
  9
$PUCSORGBOTTOM
 10
0.0
 20
0.0
 30
0.0
  9
$PUCSORGLEFT
 10
0.0
 20
0.0
 30
0.0
  9
$PUCSORGRIGHT
 10
0.0
 20
0.0
 30
0.0
  9
$PUCSORGFRONT
 10
0.0
 20
0.0
 30
0.0
  9
$PUCSORGBACK
 10
0.0
 20
0.0
 30
0.0
  9
$USERI1
 70
     0
  9
$USERI2
 70
     0
  9
$USERI3
 70
     0
  9
$USERI4
 70
     0
  9
$USERI5
 70
     0
  9
$USERR1
 40
18.1
  9
$USERR2
 40
0.0
  9
$USERR3
 40
0.0
  9
$USERR4
 40
0.0
  9
$USERR5
 40
0.0
  9
$WORLDVIEW
 70
     1
  9
$SHADEDGE
 70
     3
  9
$SHADEDIF
 70
    70
  9
$TILEMODE
 70
     1
  9
$MAXACTVP
 70
    64
  9
$PINSBASE
 10
0.0
 20
0.0
 30
0.0
  9
$PLIMCHECK
 70
     0
  9
$PEXTMIN
 10
1.00000000000000E+20
 20
1.00000000000000E+20
 30
1.00000000000000E+20
  9
$PEXTMAX
 10
-1.00000000000000E+20
 20
-1.00000000000000E+20
 30
-1.00000000000000E+20
  9
$PLIMMIN
 10
0.0
 20
0.0
  9
$PLIMMAX
 10
12.0
 20
9.0
  9
$UNITMODE
 70
     0
  9
$VISRETAIN
 70
     1
  9
$PLINEGEN
 70
     0
  9
$PSLTSCALE
 70
     1
  9
$TREEDEPTH
 70
  3020
  9
$CMLSTYLE
  2
Standard
  9
$CMLJUST
 70
     0
  9
$CMLSCALE
 40
1.0
  9
$PROXYGRAPHICS
 70
     1
  9
$MEASUREMENT
 70
     1
  9
$CELWEIGHT
370
    -1
  9
$ENDCAPS
280
     0
  9
$JOINSTYLE
280
     0
  9
$LWDISPLAY
290
     0
  9
$INSUNITS
 70
     4
  9
$HYPERLINKBASE
  1

  9
$STYLESHEET
  1

  9
$XEDIT
290
     1
  9
$CEPSNTYPE
380
     0
  9
$PSTYLEMODE
290
     1
  9
$FINGERPRINTGUID
  2
{EBF609F9-647D-436D-A6B1-E282A1218F45}
  9
$VERSIONGUID
  2
{FAEB1C32-E019-11D5-929B-00C0DF256EC4}
  9
$EXTNAMES
290
     1
  9
$PSVPSCALE
 40
0.0
  9
$OLESTARTUP
290
     0
  0
ENDSEC
  0
SECTION
  2
CLASSES
  0
CLASS
  1
ACDBDICTIONARYWDFLT
  2
AcDbDictionaryWithDefault
  3
ObjectDBX Classes
 90
        0
280
     0
281
     0
  0
CLASS
  1
VISUALSTYLE
  2
AcDbVisualStyle
  3
ObjectDBX Classes
 90
     4095
280
     0
281
     0
  0
CLASS
  1
MATERIAL
  2
AcDbMaterial
  3
ObjectDBX Classes
 90
     1153
280
     0
281
     0
  0
CLASS
  1
DICTIONARYVAR
  2
AcDbDictionaryVar
  3
ObjectDBX Classes
 90
        0
280
     0
281
     0
  0
CLASS
  1
ACDBPLACEHOLDER
  2
AcDbPlaceHolder
  3
ObjectDBX Classes
 90
        0
280
     0
281
     0
  0
CLASS
  1
LAYOUT
  2
AcDbLayout
  3
ObjectDBX Classes
 90
        0
280
     0
281
     0
  0
ENDSEC
  0
SECTION
  2
TABLES
  0
TABLE
  2
VPORT
  5
8
330
0
100
AcDbSymbolTable
 70
     1
  0
VPORT
  5
29
330
8
100
AcDbSymbolTableRecord
100
AcDbViewportTableRecord
  2
*Active
 70
     0
 10
0.0
 20
0.0
 11
1.0
 21
1.0
 12
210.0
 22
297.0
 13
0.0
 23
0.0
 14
0.5
 24
0.5
 15
0.5
 25
0.5
 16
0.0
 26
0.0
 36
1.0
 17
0.0
 27
0.0
 37
0.0
 40
653.4000000000001
 41
1.60267857142857
 42
50.0
 43
0.0
 44
0.0
 50
0.0
 51
0.0
 71
     0
 72
   100
 73
     1
 74
     3
 75
     0
 76
     0
 77
     0
 78
     0
281
     0
 65
     1
110
0.0
120
0.0
130
0.0
111
1.0
121
0.0
131
0.0
112
0.0
122
1.0
132
0.0
 79
     0
146
0.0
  0
ENDTAB
  0
TABLE
  2
LTYPE
  5
5
330
0
100
AcDbSymbolTable
 70
     8
  0
LTYPE
  5
14
330
5
100
AcDbSymbolTableRecord
100
AcDbLinetypeTableRecord
  2
ByBlock
 70
     0
  3

 72
    65
 73
     0
 40
0.0
  0
LTYPE
  5
15
330
5
100
AcDbSymbolTableRecord
100
AcDbLinetypeTableRecord
  2
ByLayer
 70
     0
  3

 72
    65
 73
     0
 40
0.0
  0
LTYPE
  5
16
330
5
100
AcDbSymbolTableRecord
100
AcDbLinetypeTableRecord
  2
Continuous
 70
     0
  3
Solid line
 72
    65
 73
     0
 40
0.0
  0
LTYPE
  5
3F
330
5
100
AcDbSymbolTableRecord
100
AcDbLinetypeTableRecord
  2
DASHED
 70
     0
  3
Dashed
 72
    65
 73
     2
 40
15.0
 49
7.0
 74
     0
 49
-8.0
 74
     0
  0
LTYPE
  5
40
330
5
100
AcDbSymbolTableRecord
100
AcDbLinetypeTableRecord
  2
DOTTED
 70
     0
  3
Dotted
 72
    65
 73
     2
 40
1.0
 49
0.0
 74
     0
 49
-1.0
 74
     0
  0
LTYPE
  5
41
330
5
100
AcDbSymbolTableRecord
100
AcDbLinetypeTableRecord
  2
DOT_CENTER
 70
     0
  3
Dot_Center
 72
    65
 73
     4
 40
14.0
 49
12.0
 74
     0
 49
-1.0
 74
     0
 49
0.0
 74
     0
 49
-1.0
 74
     0
  0
LTYPE
  5
42
330
5
100
AcDbSymbolTableRecord
100
AcDbLinetypeTableRecord
  2
LONG_DASHED
 70
     0
  3
Long_Dashed
 72
    65
 73
     2
 40
15.0
 49
10.0
 74
     0
 49
-5.0
 74
     0
  0
LTYPE
  5
43
330
5
100
AcDbSymbolTableRecord
100
AcDbLinetypeTableRecord
  2
DASH_CENTER
 70
     0
  3
Dash_Center
 72
    65
 73
     4
 40
14.0
 49
11.0
 74
     0
 49
-1.0
 74
     0
 49
1.0
 74
     0
 49
-1.0
 74
     0
  0
LTYPE
  5
44
330
5
100
AcDbSymbolTableRecord
100
AcDbLinetypeTableRecord
  2
PHANTOM
 70
     0
  3
Phantom
 72
    65
 73
     6
 40
13.0
 49
10.0
 74
     0
 49
-1.0
 74
     0
 49
0.0
 74
     0
 49
-1.0
 74
     0
 49
0.0
 74
     0
 49
-1.0
 74
     0
  0
LTYPE
  5
45
330
5
100
AcDbSymbolTableRecord
100
AcDbLinetypeTableRecord
  2
CENTER_DASH_DASH
 70
     0
  3
Center_Dash_Dash
 72
    65
 73
     6
 40
14.0
 49
9.0
 74
     0
 49
-1.0
 74
     0
 49
1.0
 74
     0
 49
-1.0
 74
     0
 49
1.0
 74
     0
 49
-1.0
 74
     0
  0
ENDTAB
  0
TABLE
  2
LAYER
  5
2
330
0
100
AcDbSymbolTable
 70
     2
  0
LAYER
  5
10
330
2
100
AcDbSymbolTableRecord
100
AcDbLayerTableRecord
  2
0
 70
     0
 62
     7
  6
Continuous
370
    -3
390
F
  0
LAYER
  5
46
330
2
100
AcDbSymbolTableRecord
100
AcDbLayerTableRecord
  2
1
 70
     0
 62
     7
  6
Continuous
370
    -3
390
F
  0
ENDTAB
  0
TABLE
  2
STYLE
  5
3
330
0
100
AcDbSymbolTable
 70
     3
  0
STYLE
  5
11
330
3
100
AcDbSymbolTableRecord
100
AcDbTextStyleTableRecord
  2
Standard
 70
     0
 40
0.0
 41
1.0
 50
0.0
 71
     0
 42
0.2
  3
txt
  4

  0
STYLE
  5
AE
330
3
100
AcDbSymbolTableRecord
100
AcDbTextStyleTableRecord
  2
CONVERTER_11
 70
     0
 40
0.0
 41
0.89
 50
0.0
 71
     0
 42
0.2
  3
MS Mincho.ttf
  4

1001
ACAD
1000
MS Mincho
1071
    32785
  0
STYLE
  5
246
330
3
100
AcDbSymbolTableRecord
100
AcDbTextStyleTableRecord
  2
CONVERTER_12
 70
     0
 40
0.0
 41
0.9
 50
0.0
 71
     0
 42
0.2
  3
txt.shx
  4

  0
ENDTAB
  0
TABLE
  2
VIEW
  5
6
330
0
100
AcDbSymbolTable
 70
     0
  0
ENDTAB
  0
TABLE
  2
UCS
  5
7
330
0
100
AcDbSymbolTable
 70
     0
  0
ENDTAB
  0
TABLE
  2
APPID
  5
9
330
0
100
AcDbSymbolTable
 70
     1
  0
APPID
  5
12
330
9
100
AcDbSymbolTableRecord
100
AcDbRegAppTableRecord
  2
ACAD
 70
     0
  0
ENDTAB
  0
TABLE
  2
DIMSTYLE
  5
A
330
0
100
AcDbSymbolTable
 70
     9
100
AcDbDimStyleTable
  0
DIMSTYLE
105
27
330
A
100
AcDbSymbolTableRecord
100
AcDbDimStyleTableRecord
  2
Standard
 70
     0
178
     0
340
11
  0
DIMSTYLE
105
25C
102
{ACAD_REACTORS
330
25D
102
}
330
A
100
AcDbSymbolTableRecord
100
AcDbDimStyleTableRecord
  2
ME10_DIM_10
 70
     0
 41
7.0
 42
0.0
 44
2.0
 73
     0
 74
     0
 77
     1
 78
     8
140
7.0
147
2.0
172
     1
173
     1
174
     1
175
     1
176
     2
177
     2
271
     2
178
     7
271
     2
340
246
  0
DIMSTYLE
105
267
102
{ACAD_REACTORS
330
268
102
}
330
A
100
AcDbSymbolTableRecord
100
AcDbDimStyleTableRecord
  2
ME10_DIM_11
 70
     0
 41
7.0
 42
0.0
 44
2.0
 73
     0
 74
     0
 77
     1
 78
     8
140
7.0
147
2.0
172
     1
173
     1
174
     1
175
     1
176
     2
177
     2
271
     2
178
     7
271
     2
340
246
  0
DIMSTYLE
105
272
102
{ACAD_REACTORS
330
273
102
}
330
A
100
AcDbSymbolTableRecord
100
AcDbDimStyleTableRecord
  2
ME10_DIM_12
 70
     0
 41
7.0
 42
0.0
 44
2.0
 73
     0
 74
     0
 77
     1
 78
     8
140
7.0
147
2.0
172
     1
173
     1
174
     1
175
     1
176
     2
177
     2
271
     2
178
     7
271
     2
340
246
  0
DIMSTYLE
105
27D
102
{ACAD_REACTORS
330
27E
102
}
330
A
100
AcDbSymbolTableRecord
100
AcDbDimStyleTableRecord
  2
ME10_DIM_13
 70
     0
 41
7.0
 42
0.0
 44
2.0
 73
     0
 74
     0
 77
     1
 78
     8
140
7.0
147
2.0
172
     1
173
     1
174
     1
175
     1
176
     2
177
     2
271
     2
178
     7
271
     2
340
AE
  0
DIMSTYLE
105
288
102
{ACAD_REACTORS
330
289
102
}
330
A
100
AcDbSymbolTableRecord
100
AcDbDimStyleTableRecord
  2
ME10_DIM_14
 70
     0
 41
7.0
 42
0.0
 44
2.0
 73
     0
 74
     0
 77
     1
 78
     8
140
7.0
147
2.0
172
     1
173
     1
174
     1
175
     1
176
     2
177
     2
271
     2
178
     7
271
     2
340
246
  0
DIMSTYLE
105
295
102
{ACAD_REACTORS
330
296
102
}
330
A
100
AcDbSymbolTableRecord
100
AcDbDimStyleTableRecord
  2
ME10_DIM_15
 70
     0
 41
7.0
 42
0.0
 44
2.0
 73
     0
 74
     0
 77
     1
 78
     8
140
7.0
147
2.0
172
     1
173
     1
174
     1
175
     1
176
     2
177
     2
271
     2
178
     7
271
     2
340
246
  0
DIMSTYLE
105
2A0
102
{ACAD_REACTORS
330
2A1
102
}
330
A
100
AcDbSymbolTableRecord
100
AcDbDimStyleTableRecord
  2
ME10_DIM_16
 70
     0
 41
7.0
 42
0.0
 44
2.0
 73
     0
 74
     0
 77
     1
 78
     8
140
7.0
147
2.0
172
     1
173
     1
174
     1
175
     1
176
     2
177
     2
271
     2
178
     7
271
     2
340
246
  0
DIMSTYLE
105
2AB
102
{ACAD_REACTORS
330
2AC
102
}
330
A
100
AcDbSymbolTableRecord
100
AcDbDimStyleTableRecord
  2
ME10_DIM_17
 70
     0
 41
7.0
 42
0.0
 44
2.0
 73
     0
 74
     0
 77
     1
 78
     8
140
7.0
147
2.0
172
     1
173
     1
174
     1
175
     1
176
     2
177
     2
271
     2
178
     7
271
     2
340
246
  0
ENDTAB
  0
TABLE
  2
BLOCK_RECORD
  5
1
330
0
100
AcDbSymbolTable
 70
    16
  0
BLOCK_RECORD
  5
1F
330
1
100
AcDbSymbolTableRecord
100
AcDbBlockTableRecord
  2
*Model_Space
340
22
  0
BLOCK_RECORD
  5
1B
330
1
100
AcDbSymbolTableRecord
100
AcDbBlockTableRecord
  2
*Paper_Space
340
1E
  0
BLOCK_RECORD
  5
23
330
1
100
AcDbSymbolTableRecord
100
AcDbBlockTableRecord
  2
*Paper_Space0
340
26
  0
BLOCK_RECORD
  5
47
330
1
100
AcDbSymbolTableRecord
100
AcDbBlockTableRecord
  2
開示A4
340
0
102
{BLKREFS
331
5C
102
}
  0
BLOCK_RECORD
  5
4A
330
1
100
AcDbSymbolTableRecord
100
AcDbBlockTableRecord
  2
32-213
340
0
102
{BLKREFS
331
5D
102
}
  0
BLOCK_RECORD
  5
4D
330
1
100
AcDbSymbolTableRecord
100
AcDbBlockTableRecord
  2
37-1-13
340
0
102
{BLKREFS
331
5E
102
}
  0
BLOCK_RECORD
  5
50
330
1
100
AcDbSymbolTableRecord
100
AcDbBlockTableRecord
  2
B4111L-0-13
340
0
102
{BLKREFS
331
5F
102
}
  0
BLOCK_RECORD
  5
53
330
1
100
AcDbSymbolTableRecord
100
AcDbBlockTableRecord
  2
36-54
340
0
102
{BLKREFS
331
60
102
}
  0
BLOCK_RECORD
  5
56
330
1
100
AcDbSymbolTableRecord
100
AcDbBlockTableRecord
  2
42-15
340
0
102
{BLKREFS
331
61
102
}
  0
BLOCK_RECORD
  5
59
330
1
100
AcDbSymbolTableRecord
100
AcDbBlockTableRecord
  2
21-1D
340
0
102
{BLKREFS
331
62
102
}
  0
BLOCK_RECORD
  5
252
330
1
100
AcDbSymbolTableRecord
100
AcDbBlockTableRecord
  2
*D8
340
0
  0
BLOCK_RECORD
  5
25E
330
1
100
AcDbSymbolTableRecord
100
AcDbBlockTableRecord
  2
*D9
340
0
  0
BLOCK_RECORD
  5
269
330
1
100
AcDbSymbolTableRecord
100
AcDbBlockTableRecord
  2
*D10
340
0
  0
BLOCK_RECORD
  5
274
330
1
100
AcDbSymbolTableRecord
100
AcDbBlockTableRecord
  2
*D11
340
0
  0
BLOCK_RECORD
  5
27F
330
1
100
AcDbSymbolTableRecord
100
AcDbBlockTableRecord
  2
*D12
340
0
  0
BLOCK_RECORD
  5
28A
330
1
100
AcDbSymbolTableRecord
100
AcDbBlockTableRecord
  2
*D13
340
0
  0
BLOCK_RECORD
  5
297
330
1
100
AcDbSymbolTableRecord
100
AcDbBlockTableRecord
  2
*D14
340
0
  0
BLOCK_RECORD
  5
2A2
330
1
100
AcDbSymbolTableRecord
100
AcDbBlockTableRecord
  2
*D15
340
0
  0
ENDTAB
  0
ENDSEC
  0
SECTION
  2
BLOCKS
  0
BLOCK
  5
20
330
1F
100
AcDbEntity
  8
0
100
AcDbBlockBegin
  2
*Model_Space
 70
     0
 10
0.0
 20
0.0
 30
0.0
  3
*Model_Space
  1

  0
ENDBLK
  5
21
330
1F
100
AcDbEntity
  8
0
100
AcDbBlockEnd
  0
BLOCK
  5
1C
330
1B
100
AcDbEntity
 67
     1
  8
0
100
AcDbBlockBegin
  2
*Paper_Space
 70
     0
 10
0.0
 20
0.0
 30
0.0
  3
*Paper_Space
  1

  0
ENDBLK
  5
1D
330
1B
100
AcDbEntity
 67
     1
  8
0
100
AcDbBlockEnd
  0
BLOCK
  5
24
330
23
100
AcDbEntity
  8
0
100
AcDbBlockBegin
  2
*Paper_Space0
 70
     0
 10
0.0
 20
0.0
 30
0.0
  3
*Paper_Space0
  1

  0
ENDBLK
  5
25
330
23
100
AcDbEntity
  8
0
100
AcDbBlockEnd
  0
BLOCK
  5
48
330
47
100
AcDbEntity
  8
0
100
AcDbBlockBegin
  2
開示A4
 70
     0
 10
0.0
 20
0.0
 30
0.0
  3
開示A4
  1

  0
POINT
  5
63
330
47
100
AcDbEntity
  8
1
 62
     4
100
AcDbPoint
 10
34.0
 20
34.00000000000001
 30
0.0
  0
POINT
  5
64
330
47
100
AcDbEntity
  8
1
 62
     4
100
AcDbPoint
 10
57.0
 20
12.25
 30
0.0
  0
POINT
  5
65
330
47
100
AcDbEntity
  8
1
 62
     4
100
AcDbPoint
 10
57.0
 20
20.75000000000001
 30
0.0
  0
POINT
  5
66
330
47
100
AcDbEntity
  8
1
 62
     4
100
AcDbPoint
 10
57.0
 20
24.75000000000001
 30
0.0
  0
POINT
  5
67
330
47
100
AcDbEntity
  8
1
 62
     4
100
AcDbPoint
 10
57.0
 20
16.25
 30
0.0
  0
POINT
  5
68
330
47
100
AcDbEntity
  8
1
 62
     4
100
AcDbPoint
 10
157.5
 20
19.00000000000001
 30
0.0
  0
POINT
  5
69
330
47
100
AcDbEntity
  8
1
 62
     4
100
AcDbPoint
 10
47.5
 20
282.0000000000003
 30
0.0
  0
POINT
  5
6A
330
47
100
AcDbEntity
  8
1
 62
     4
100
AcDbPoint
 10
57.0
 20
22.75000000000001
 30
0.0
  0
POINT
  5
6B
330
47
100
AcDbEntity
  8
1
 62
     4
100
AcDbPoint
 10
57.0
 20
14.25
 30
0.0
  0
POINT
  5
6C
330
47
100
AcDbEntity
  8
1
 62
     4
100
AcDbPoint
 10
157.5
 20
12.5
 30
0.0
  0
POINT
  5
6D
330
47
100
AcDbEntity
  8
1
 62
     4
100
AcDbPoint
 10
163.25
 20
12.5
 30
0.0
  0
POINT
  5
6E
330
47
100
AcDbEntity
  8
1
 62
     4
100
AcDbPoint
 10
151.75
 20
12.5
 30
0.0
  0
POINT
  5
6F
330
47
100
AcDbEntity
  8
1
 62
     4
100
AcDbPoint
 10
134.75
 20
12.5
 30
0.0
  0
POINT
  5
70
330
47
100
AcDbEntity
  8
1
 62
     4
100
AcDbPoint
 10
146.25
 20
12.5
 30
0.0
  0
POINT
  5
71
330
47
100
AcDbEntity
  8
1
 62
     4
100
AcDbPoint
 10
140.5
 20
12.5
 30
0.0
  0
POINT
  5
72
330
47
100
AcDbEntity
  8
1
 62
     4
100
AcDbPoint
 10
140.5
 20
19.00000000000001
 30
0.0
  0
POINT
  5
73
330
47
100
AcDbEntity
  8
1
 62
     4
100
AcDbPoint
 10
117.75
 20
12.5
 30
0.0
  0
POINT
  5
74
330
47
100
AcDbEntity
  8
1
 62
     4
100
AcDbPoint
 10
129.25
 20
12.5
 30
0.0
  0
POINT
  5
75
330
47
100
AcDbEntity
  8
1
 62
     4
100
AcDbPoint
 10
123.5
 20
12.5
 30
0.0
  0
POINT
  5
76
330
47
100
AcDbEntity
  8
1
 62
     4
100
AcDbPoint
 10
123.5
 20
19.00000000000001
 30
0.0
  0
POINT
  5
77
330
47
100
AcDbEntity
  8
1
 62
     4
100
AcDbPoint
 10
100.75
 20
12.5
 30
0.0
  0
POINT
  5
78
330
47
100
AcDbEntity
  8
1
 62
     4
100
AcDbPoint
 10
112.25
 20
12.5
 30
0.0
  0
POINT
  5
79
330
47
100
AcDbEntity
  8
1
 62
     4
100
AcDbPoint
 10
106.5
 20
12.5
 30
0.0
  0
POINT
  5
7A
330
47
100
AcDbEntity
  8
1
 62
     4
100
AcDbPoint
 10
106.5
 20
19.00000000000001
 30
0.0
  0
POINT
  5
7B
330
47
100
AcDbEntity
  8
1
 62
     4
100
AcDbPoint
 10
85.25
 20
17.0
 30
0.0
  0
POINT
  5
7C
330
47
100
AcDbEntity
  8
1
 62
     4
100
AcDbPoint
 10
93.75
 20
17.0
 30
0.0
  0
LINE
  5
7D
330
47
100
AcDbEntity
  8
1
  6
Continuous
 62
     2
100
AcDbLine
 10
81.0
 20
27.00000000000001
 30
0.0
 11
81.0
 21
10.0
 31
0.0
  0
LINE
  5
7E
330
47
100
AcDbEntity
  8
1
  6
DOT_CENTER
 62
     2
100
AcDbLine
 10
187.0
 20
26.50000000000001
 30
0.0
 11
187.0
 21
20.50000000000001
 31
0.0
  0
LINE
  5
7F
330
47
100
AcDbEntity
  8
1
  6
DOT_CENTER
 62
     2
100
AcDbLine
 10
184.0
 20
23.50000000000001
 30
0.0
 11
197.0
 21
23.50000000000001
 31
0.0
  0
LINE
  5
80
330
47
100
AcDbEntity
  8
1
  6
Continuous
 62
     7
100
AcDbLine
 10
196.0
 20
21.50000000000001
 30
0.0
 11
191.0
 21
22.30000000000001
 31
0.0
  0
LINE
  5
81
330
47
100
AcDbEntity
  8
1
  6
Continuous
 62
     7
100
AcDbLine
 10
196.0
 20
25.50000000000001
 30
0.0
 11
196.0
 21
21.50000000000001
 31
0.0
  0
LINE
  5
82
330
47
100
AcDbEntity
  8
1
  6
Continuous
 62
     7
100
AcDbLine
 10
191.0
 20
24.70000000000001
 30
0.0
 11
196.0
 21
25.50000000000001
 31
0.0
  0
LINE
  5
83
330
47
100
AcDbEntity
  8
1
  6
Continuous
 62
     7
100
AcDbLine
 10
191.0
 20
24.70000000000001
 30
0.0
 11
191.0
 21
22.30000000000001
 31
0.0
  0
LINE
  5
84
330
47
100
AcDbEntity
  8
1
  6
Continuous
 62
     2
100
AcDbLine
 10
33.0
 20
27.0
 30
0.0
 11
33.0
 21
10.0
 31
0.0
  0
LINE
  5
85
330
47
100
AcDbEntity
  8
1
  6
Continuous
 62
     2
100
AcDbLine
 10
25.0
 20
18.50000000000001
 30
0.0
 11
81.0
 21
18.50000000000001
 31
0.0
  0
LINE
  5
86
330
47
100
AcDbEntity
  8
1
  6
Continuous
 62
     7
100
AcDbLine
 10
200.0
 20
287.0000000000003
 30
0.0
 11
105.0
 21
287.0000000000003
 31
0.0
  0
LINE
  5
87
330
47
100
AcDbEntity
  8
1
  6
Continuous
 62
     7
100
AcDbLine
 10
200.0
 20
10.0
 30
0.0
 11
200.0
 21
148.5
 31
0.0
  0
LINE
  5
88
330
47
100
AcDbEntity
  8
1
  6
Continuous
 62
     7
100
AcDbLine
 10
25.0
 20
10.0
 30
0.0
 11
105.0
 21
10.0
 31
0.0
  0
LINE
  5
89
330
47
100
AcDbEntity
  8
1
  6
PHANTOM
 62
     4
100
AcDbLine
 10
0.0
 20
297.0
 30
0.0
 11
0.0
 21
0.0
 31
0.0
  0
LINE
  5
8A
330
47
100
AcDbEntity
  8
1
  6
PHANTOM
 62
     4
100
AcDbLine
 10
210.0
 20
297.0
 30
0.0
 11
0.0
 21
297.0
 31
0.0
  0
LINE
  5
8B
330
47
100
AcDbEntity
  8
1
  6
PHANTOM
 62
     4
100
AcDbLine
 10
210.0
 20
0.0
 30
0.0
 11
210.0
 21
297.0
 31
0.0
  0
LINE
  5
8C
330
47
100
AcDbEntity
  8
1
  6
PHANTOM
 62
     4
100
AcDbLine
 10
0.0
 20
0.0
 30
0.0
 11
210.0
 21
0.0
 31
0.0
  0
LINE
  5
8D
330
47
100
AcDbEntity
  8
1
  6
Continuous
 62
     7
100
AcDbLine
 10
25.0
 20
41.0
 30
0.0
 11
200.0
 21
41.0
 31
0.0
  0
LINE
  5
8E
330
47
100
AcDbEntity
  8
1
  6
Continuous
 62
     7
100
AcDbLine
 10
200.0
 20
27.00000000000001
 30
0.0
 11
25.0
 21
27.00000000000001
 31
0.0
  0
LINE
  5
8F
330
47
100
AcDbEntity
  8
1
  6
Continuous
 62
     2
100
AcDbLine
 10
33.0
 20
41.00000000000001
 30
0.0
 11
33.0
 21
27.0
 31
0.0
  0
LINE
  5
90
330
47
100
AcDbEntity
  8
1
  6
Continuous
 62
     2
100
AcDbLine
 10
55.0
 20
287.0000000000003
 30
0.0
 11
55.0
 21
277.0000000000003
 31
0.0
  0
LINE
  5
91
330
47
100
AcDbEntity
  8
1
  6
Continuous
 62
     2
100
AcDbLine
 10
40.0
 20
287.0000000000003
 30
0.0
 11
40.0
 21
277.0000000000003
 31
0.0
  0
LINE
  5
92
330
47
100
AcDbEntity
  8
1
  6
Continuous
 62
     7
100
AcDbLine
 10
25.0
 20
10.0
 30
0.0
 11
25.0
 21
148.5
 31
0.0
  0
LINE
  5
93
330
47
100
AcDbEntity
  8
1
  6
Continuous
 62
     2
100
AcDbLine
 10
55.0
 20
277.0000000000003
 30
0.0
 11
25.0
 21
277.0000000000003
 31
0.0
  0
LINE
  5
94
330
47
100
AcDbEntity
  8
1
  6
Continuous
 62
     2
100
AcDbLine
 10
166.0
 20
27.00000000000001
 30
0.0
 11
166.0
 21
10.0
 31
0.0
  0
LINE
  5
95
330
47
100
AcDbEntity
  8
1
  6
Continuous
 62
     2
100
AcDbLine
 10
132.0
 20
27.00000000000001
 30
0.0
 11
132.0
 21
9.99999999999999
 31
0.0
  0
LINE
  5
96
330
47
100
AcDbEntity
  8
1
  6
Continuous
 62
     2
100
AcDbLine
 10
149.0
 20
27.00000000000001
 30
0.0
 11
149.0
 21
10.0
 31
0.0
  0
LINE
  5
97
330
47
100
AcDbEntity
  8
1
  6
Continuous
 62
     2
100
AcDbLine
 10
115.0
 20
27.00000000000001
 30
0.0
 11
115.0
 21
9.99999999999999
 31
0.0
  0
LINE
  5
98
330
47
100
AcDbEntity
  8
1
  6
Continuous
 62
     2
100
AcDbLine
 10
98.0
 20
27.00000000000001
 30
0.0
 11
98.0
 21
9.99999999999999
 31
0.0
  0
LINE
  5
99
330
47
100
AcDbEntity
  8
1
  6
Continuous
 62
     2
100
AcDbLine
 10
166.0
 20
20.00000000000001
 30
0.0
 11
200.0
 21
20.00000000000001
 31
0.0
  0
LINE
  5
9A
330
47
100
AcDbEntity
  8
1
  6
Continuous
 62
     2
100
AcDbLine
 10
105.0
 20
287.0000000000003
 30
0.0
 11
105.0
 21
292.0000000000003
 31
0.0
  0
LINE
  5
9B
330
47
100
AcDbEntity
  8
1
  6
Continuous
 62
     7
100
AcDbLine
 10
105.0
 20
287.0000000000003
 30
0.0
 11
25.0
 21
287.0000000000003
 31
0.0
  0
LINE
  5
9C
330
47
100
AcDbEntity
  8
1
  6
Continuous
 62
     2
100
AcDbLine
 10
25.0
 20
148.5
 30
0.0
 11
20.0
 21
148.5
 31
0.0
  0
LINE
  5
9D
330
47
100
AcDbEntity
  8
1
  6
Continuous
 62
     7
100
AcDbLine
 10
25.0
 20
148.5
 30
0.0
 11
25.0
 21
287.0000000000003
 31
0.0
  0
LINE
  5
9E
330
47
100
AcDbEntity
  8
1
  6
Continuous
 62
     2
100
AcDbLine
 10
200.0
 20
148.5
 30
0.0
 11
205.0
 21
148.5
 31
0.0
  0
LINE
  5
9F
330
47
100
AcDbEntity
  8
1
  6
Continuous
 62
     7
100
AcDbLine
 10
200.0
 20
148.5
 30
0.0
 11
200.0
 21
287.0000000000003
 31
0.0
  0
LINE
  5
A0
330
47
100
AcDbEntity
  8
1
  6
Continuous
 62
     2
100
AcDbLine
 10
105.0
 20
10.0
 30
0.0
 11
105.0
 21
5.0
 31
0.0
  0
LINE
  5
A1
330
47
100
AcDbEntity
  8
1
  6
Continuous
 62
     7
100
AcDbLine
 10
105.0
 20
10.0
 30
0.0
 11
200.0
 21
10.0
 31
0.0
  0
CIRCLE
  5
A2
330
47
100
AcDbEntity
  8
1
  6
DOT_CENTER
 62
     7
100
AcDbCircle
 10
89.5
 20
18.0
 30
0.0
 40
0.1000000000000227
  0
CIRCLE
  5
A3
330
47
100
AcDbEntity
  8
1
  6
DOT_CENTER
 62
     7
100
AcDbCircle
 10
89.5
 20
16.0
 30
0.0
 40
0.1000000000000227
  0
CIRCLE
  5
A4
330
47
100
AcDbEntity
  8
1
  6
Continuous
 62
     7
100
AcDbCircle
 10
187.0
 20
23.50000000000001
 30
0.0
 40
2.0
  0
CIRCLE
  5
A5
330
47
100
AcDbEntity
  8
1
  6
Continuous
 62
     7
100
AcDbCircle
 10
187.0
 20
23.50000000000001
 30
0.0
 40
1.200000000000102
  0
CIRCLE
  5
A6
330
47
100
AcDbEntity
  8
1
  6
Continuous
 62
     7
100
AcDbCircle
 10
154.5
 20
12.5
 30
0.0
 40
0.3000000000000114
  0
CIRCLE
  5
A7
330
47
100
AcDbEntity
  8
1
  6
Continuous
 62
     7
100
AcDbCircle
 10
160.5
 20
12.5
 30
0.0
 40
0.3000000000000114
  0
CIRCLE
  5
A8
330
47
100
AcDbEntity
  8
1
  6
Continuous
 62
     7
100
AcDbCircle
 10
143.5
 20
12.5
 30
0.0
 40
0.3000000000000114
  0
CIRCLE
  5
A9
330
47
100
AcDbEntity
  8
1
  6
Continuous
 62
     7
100
AcDbCircle
 10
137.5
 20
12.5
 30
0.0
 40
0.3000000000000114
  0
CIRCLE
  5
AA
330
47
100
AcDbEntity
  8
1
  6
Continuous
 62
     7
100
AcDbCircle
 10
126.5
 20
12.5
 30
0.0
 40
0.2999999999999972
  0
CIRCLE
  5
AB
330
47
100
AcDbEntity
  8
1
  6
Continuous
 62
     7
100
AcDbCircle
 10
120.5
 20
12.5
 30
0.0
 40
0.2999999999999972
  0
CIRCLE
  5
AC
330
47
100
AcDbEntity
  8
1
  6
Continuous
 62
     7
100
AcDbCircle
 10
109.5
 20
12.5
 30
0.0
 40
0.2999999999999972
  0
CIRCLE
  5
AD
330
47
100
AcDbEntity
  8
1
  6
Continuous
 62
     7
100
AcDbCircle
 10
103.5
 20
12.5
 30
0.0
 40
0.2999999999999972
  0
MTEXT
  5
AF
330
47
100
AcDbEntity
  8
1
 62
   250
100
AcDbMText
 10
25.0
 20
5.0
 30
0.0
 40
3.5
 41
0.0
 71
     4
 72
     1
  1
備考欄の文字列 原点位置=4
  7
CONVERTER_11
 73
     1
 44
0.54545454545455
  0
MTEXT
  5
B0
330
47
100
AcDbEntity
  8
1
 62
     2
100
AcDbMText
 10
89.5
 20
24.00000000000001
 30
0.0
 40
3.5
 41
0.0
 71
     5
 72
     1
  1
尺度
  7
CONVERTER_11
 73
     1
 44
0.54545454545455
  0
MTEXT
  5
B1
330
47
100
AcDbEntity
  8
1
 62
     2
100
AcDbMText
 10
135.5
 20
25.00000000000001
 30
0.0
 40
3.0
 41
0.0
 71
     5
 72
     1
  1
製図
  7
CONVERTER_11
 73
     1
 44
0.59090909090909
  0
MTEXT
  5
B2
330
47
100
AcDbEntity
  8
1
 62
     2
100
AcDbMText
 10
152.5
 20
25.00000000000001
 30
0.0
 40
3.0
 41
0.0
 71
     5
 72
     1
  1
設計
  7
CONVERTER_11
 73
     1
 44
0.59090909090909
  0
MTEXT
  5
B3
330
47
100
AcDbEntity
  8
1
 62
     2
100
AcDbMText
 10
118.5
 20
25.00000000000001
 30
0.0
 40
3.0
 41
0.0
 71
     5
 72
     1
  1
検図
  7
CONVERTER_11
 73
     1
 44
0.59090909090909
  0
MTEXT
  5
B4
330
47
100
AcDbEntity
  8
1
 62
     2
100
AcDbMText
 10
175.0
 20
23.50000000000001
 30
0.0
 40
3.5
 41
0.0
 71
     5
 72
     1
  1
第三角法
  7
CONVERTER_11
 73
     1
 44
0.54545454545455
  0
MTEXT
  5
B5
330
47
100
AcDbEntity
  8
1
 62
     2
100
AcDbMText
 10
101.5
 20
25.00000000000001
 30
0.0
 40
3.0
 41
0.0
 71
     5
 72
     1
  1
承認
  7
CONVERTER_11
 73
     1
 44
0.59090909090909
  0
MTEXT
  5
B6
330
47
100
AcDbEntity
  8
1
 62
     2
100
AcDbMText
 10
29.0
 20
14.25
 30
0.0
 40
3.5
 41
0.0
 71
     5
 72
     1
  1
品番
  7
CONVERTER_11
 73
     1
 44
0.72727272727273
  0
MTEXT
  5
B7
330
47
100
AcDbEntity
  8
1
 62
     2
100
AcDbMText
 10
29.0
 20
22.75
 30
0.0
 40
3.5
 41
0.0
 71
     5
 72
     1
  1
品名
  7
CONVERTER_11
 73
     1
 44
0.72727272727273
  0
MTEXT
  5
B8
330
47
100
AcDbEntity
  8
1
 62
     2
100
AcDbMText
 10
29.0
 20
34.00000000000001
 30
0.0
 40
3.5
 41
0.0
 71
     5
 72
     1
  1
備考
  7
CONVERTER_11
 73
     1
 44
0.45454545454545
  0
MTEXT
  5
B9
330
47
100
AcDbEntity
  8
1
 62
     2
100
AcDbMText
 10
32.5
 20
282.0000000000003
 30
0.0
 40
5.0
 41
0.0
 71
     5
 72
     1
  1
図番
  7
CONVERTER_11
 73
     1
 44
0.45454545454545
  0
MTEXT
  5
BA
330
47
100
AcDbEntity
  8
1
 62
     7
100
AcDbMText
 10
171.5
 20
15.0
 30
0.0
 40
2.5
 41
0.0
 71
     5
 72
     1
  1
株式会社
  7
CONVERTER_11
 73
     1
 44
1.0
  0
MTEXT
  5
BB
330
47
100
AcDbEntity
  8
1
 62
     7
100
AcDbMText
 10
188.5
 20
15.0
 30
0.0
 40
3.0
 41
0.0
 71
     5
 72
     1
  1
三栄水栓製作所
  7
CONVERTER_11
 73
     1
 44
1.0
  0
ENDBLK
  5
49
330
47
100
AcDbEntity
  8
0
100
AcDbBlockEnd
  0
BLOCK
  5
4B
330
4A
100
AcDbEntity
  8
0
100
AcDbBlockBegin
  2
32-213
 70
     0
 10
501.8430973375037
 20
181.2901823463719
 30
0.0
  3
32-213
  1

  0
LINE
  5
BC
330
4A
100
AcDbEntity
  8
1
  6
Continuous
 62
     7
100
AcDbLine
 10
184.8430973374914
 20
268.8619791160966
 30
0.0
 11
174.3430973374914
 21
262.7998012896055
 31
0.0
  0
LINE
  5
BD
330
4A
100
AcDbEntity
  8
1
  6
Continuous
 62
     7
100
AcDbLine
 10
173.3430973374914
 20
262.7998012896055
 30
0.0
 11
162.8430973374914
 21
268.8619791160966
 31
0.0
  0
LINE
  5
BE
330
4A
100
AcDbEntity
  8
1
  6
Continuous
 62
     7
100
AcDbLine
 10
162.3430973374914
 20
269.7280045198811
 30
0.0
 11
162.3430973374914
 21
281.8523601728632
 31
0.0
  0
LINE
  5
BF
330
4A
100
AcDbEntity
  8
1
  6
Continuous
 62
     7
100
AcDbLine
 10
162.8430973374914
 20
282.7183855766477
 30
0.0
 11
173.3430973374914
 21
288.7805634031388
 31
0.0
  0
LINE
  5
C0
330
4A
100
AcDbEntity
  8
1
  6
Continuous
 62
     7
100
AcDbLine
 10
174.3430973374914
 20
288.7805634031388
 30
0.0
 11
184.8430973374914
 21
282.7183855766476
 31
0.0
  0
LINE
  5
C1
330
4A
100
AcDbEntity
  8
1
  6
Continuous
 62
     7
100
AcDbLine
 10
185.3430973374914
 20
281.8523601728632
 30
0.0
 11
185.3430973374914
 21
269.7280045198811
 31
0.0
  0
LINE
  5
C2
330
4A
100
AcDbEntity
  8
1
  6
PHANTOM
 62
     4
100
AcDbLine
 10
173.8430973374914
 20
291.7901823463722
 30
0.0
 11
173.8430973374914
 21
264.7901823463722
 31
0.0
  0
LINE
  5
C3
330
4A
100
AcDbEntity
  8
1
  6
PHANTOM
 62
     4
100
AcDbLine
 10
157.8430973374913
 20
275.790182346372
 30
0.0
 11
189.8430973374914
 21
275.7901823463722
 31
0.0
  0
LINE
  5
C4
330
4A
100
AcDbEntity
  8
1
  6
PHANTOM
 62
     4
100
AcDbLine
 10
173.8430973374914
 20
264.7901823463722
 30
0.0
 11
173.8430973374913
 21
259.7901823463721
 31
0.0
  0
LINE
  5
C5
330
4A
100
AcDbEntity
  8
1
  6
Continuous
 62
     7
100
AcDbLine
 10
290.3430973375035
 20
264.7901823463717
 30
0.0
 11
290.3430973375035
 21
286.7901823463718
 31
0.0
  0
LINE
  5
C6
330
4A
100
AcDbEntity
  8
1
  6
Continuous
 62
     7
100
AcDbLine
 10
302.3430973375035
 20
264.7901823463717
 30
0.0
 11
302.3430973375035
 21
286.7901823463718
 31
0.0
  0
LINE
  5
C7
330
4A
100
AcDbEntity
  8
1
  6
Continuous
 62
     7
100
AcDbLine
 10
185.3430973374914
 20
400.2234674686612
 30
0.0
 11
185.3430973374914
 21
393.0223554699579
 31
0.0
  0
LINE
  5
C8
330
4A
100
AcDbEntity
  8
1
  6
Continuous
 62
     7
100
AcDbLine
 10
179.7071808686298
 20
404.2901823463841
 30
0.0
 11
162.8430973374913
 21
404.2901823463841
 31
0.0
  0
LINE
  5
C9
330
4A
100
AcDbEntity
  8
1
  6
Continuous
 62
     7
100
AcDbLine
 10
173.8430973374913
 20
392.2901823463841
 30
0.0
 11
162.8430973374913
 21
392.2901823463841
 31
0.0
  0
LINE
  5
CA
330
4A
100
AcDbEntity
  8
1
  6
PHANTOM
 62
     4
100
AcDbLine
 10
173.8430973374913
 20
392.2901823463841
 30
0.0
 11
173.8430973374913
 21
405.2901823463841
 31
0.0
  0
LINE
  5
CB
330
4A
100
AcDbEntity
  8
1
  6
Continuous
 62
     7
100
AcDbLine
 10
184.8430973374913
 20
392.2901823463841
 30
0.0
 11
173.8430973374913
 21
392.2901823463841
 31
0.0
  0
LINE
  5
CC
330
4A
100
AcDbEntity
  8
1
  6
PHANTOM
 62
     4
100
AcDbLine
 10
173.8430973374913
 20
391.2901823463841
 30
0.0
 11
173.8430973374913
 21
392.2901823463841
 31
0.0
  0
LINE
  5
CD
330
4A
100
AcDbEntity
  8
1
  6
Continuous
 62
     7
100
AcDbLine
 10
162.3430973374913
 20
393.0223554699577
 30
0.0
 11
162.3430973374913
 21
403.5580092228105
 31
0.0
  0
LINE
  5
CE
330
4A
100
AcDbEntity
  8
1
  6
Continuous
 62
     7
100
AcDbLine
 10
179.7071808686298
 20
404.2901823463841
 30
0.0
 11
167.9790138063528
 21
404.2901823463841
 31
0.0
  0
LINE
  5
CF
330
4A
100
AcDbEntity
  8
1
  6
Continuous
 62
     7
100
AcDbLine
 10
185.3430973374914
 20
400.2234674686612
 30
0.0
 11
185.3430973374914
 21
393.0223554699579
 31
0.0
  0
ARC
  5
D0
330
4A
100
AcDbEntity
  8
1
  6
Continuous
 62
     7
100
AcDbCircle
 10
173.8430973374913
 20
275.790182346372
 30
0.0
 40
13.00000000000002
100
AcDbArc
 50
327.7957724960289
 51
332.204227503973
  0
ARC
  5
D1
330
4A
100
AcDbEntity
  8
1
  6
Continuous
 62
     7
100
AcDbCircle
 10
173.8430973374913
 20
275.790182346372
 30
0.0
 40
13.00000000000017
100
AcDbArc
 50
27.79577249602833
 51
32.20422750397226
  0
ARC
  5
D2
330
4A
100
AcDbEntity
  8
1
  6
Continuous
 62
     7
100
AcDbCircle
 10
173.8430973374913
 20
275.790182346372
 30
0.0
 40
13.00000000000023
100
AcDbArc
 50
89.9999999999995
 51
92.2042275039715
  0
ARC
  5
D3
330
4A
100
AcDbEntity
  8
1
  6
Continuous
 62
     7
100
AcDbCircle
 10
173.8430973374913
 20
275.790182346372
 30
0.0
 40
13.0
100
AcDbArc
 50
147.795772496027
 51
152.2042275039712
  0
ARC
  5
D4
330
4A
100
AcDbEntity
  8
1
  6
Continuous
 62
     7
100
AcDbCircle
 10
173.8430973374913
 20
275.790182346372
 30
0.0
 40
12.99999999999981
100
AcDbArc
 50
207.7957724960275
 51
212.2042275039717
  0
ARC
  5
D5
330
4A
100
AcDbEntity
  8
1
  6
Continuous
 62
     7
100
AcDbCircle
 10
173.8430973374913
 20
275.790182346372
 30
0.0
 40
12.99999999999977
100
AcDbArc
 50
270.0000000000005
 51
272.2042275039726
  0
ARC
  5
D6
330
4A
100
AcDbEntity
  8
1
  6
Continuous
 62
     7
100
AcDbCircle
 10
173.8430973374913
 20
275.790182346372
 30
0.0
 40
13.00000000000023
100
AcDbArc
 50
87.79577249602751
 51
89.9999999999995
  0
ARC
  5
D7
330
4A
100
AcDbEntity
  8
1
  6
Continuous
 62
     7
100
AcDbCircle
 10
173.8430973374913
 20
275.790182346372
 30
0.0
 40
12.99999999999988
100
AcDbArc
 50
267.7957724960284
 51
270.0000000000005
  0
ARC
  5
D8
330
4A
100
AcDbEntity
  8
1
  6
Continuous
 62
     7
100
AcDbCircle
 10
296.3430973375035
 20
272.7901823463716
 30
0.0
 40
9.99999999999991
100
AcDbArc
 50
233.1301023541556
 51
306.8698976458444
  0
ARC
  5
D9
330
4A
100
AcDbEntity
  8
1
  6
Continuous
 62
     7
100
AcDbCircle
 10
296.3430973375035
 20
278.7901823463718
 30
0.0
 40
10.0
100
AcDbArc
 50
53.13010235415597
 51
126.869897645844
  0
ARC
  5
DA
330
4A
100
AcDbEntity
  8
1
  6
Continuous
 62
     7
100
AcDbCircle
 10
170.8430973374912
 20
398.2901823463841
 30
0.0
 40
9.999999999999943
100
AcDbArc
 50
211.788330617052
 51
216.8698976458443
  0
ARC
  5
DB
330
4A
100
AcDbEntity
  8
1
  6
Continuous
 62
     7
100
AcDbCircle
 10
170.8430973374912
 20
398.2901823463841
 30
0.0
 40
9.999999999999932
100
AcDbArc
 50
143.1301023541557
 51
148.211669382948
  0
ARC
  5
DC
330
4A
100
AcDbEntity
  8
1
  6
Continuous
 62
     7
100
AcDbCircle
 10
176.8430973374914
 20
398.2901823463841
 30
0.0
 40
9.99999999999991
100
AcDbArc
 50
323.1301023541556
 51
328.2116693829494
  0
CIRCLE
  5
DD
330
4A
100
AcDbEntity
  8
1
  6
Continuous
 62
     7
100
AcDbCircle
 10
173.8430973374913
 20
275.790182346372
 30
0.0
 40
10.99999999999977
  0
SPLINE
  5
DE
330
4A
100
AcDbEntity
  8
1
  6
Continuous
 62
     7
100
AcDbSpline
210
0.0
220
0.0
230
1.0
 70
    11
 71
     3
 72
    79
 73
    75
 74
    73
 42
0.000000001
 43
0.0000000001
 44
0.00000001
 40
0.0
 40
0.0
 40
0.0
 40
0.0
 40
0.2746255790579659
 40
0.5489296398402681
 40
0.8445351181644196
 40
1.139720926606914
 40
1.464847756185693
 40
1.789634470892293
 40
2.147784122131354
 40
2.505702207552625
 40
2.896040825075727
 40
3.286231075665135
 40
3.704624943111302
 40
4.12292726549625
 40
4.562895984538354
 40
5.002812028166836
 40
5.4563154752367
 40
5.90979486714463
 40
6.367899396567311
 40
6.826003925991338
 40
7.279483317903004
 40
7.732986764977873
 40
8.17290280861093
 40
8.612871527654592
 40
9.031173850034632
 40
9.449567717464216
 40
9.839757968021125
 40
10.23009658548602
 40
10.5880146708197
 40
10.94616432192162
 40
11.27095103644018
 40
11.59607786573604
 40
11.89126367377901
 40
12.18686915140506
 40
12.46117321008095
 40
12.73579879604155
 40
13.00262036496022
 40
13.26944193387756
 40
13.54406751983491
 40
13.81837157850577
 40
14.11397705612521
 40
14.40916286416081
 40
14.73428969344813
 40
15.05907640795833
 40
15.41722605905126
 40
15.77514414437642
 40
16.16548276183262
 40
16.55567301238162
 40
16.97406687980358
 40
17.39236920217666
 40
17.83233792121388
 40
18.27225396484144
 40
18.72575741191159
 40
19.17923680381962
 40
19.6373413332412
 40
20.09544586266256
 40
20.54892525457089
 40
21.00242870164265
 40
21.44234474527478
 40
21.88231346432218
 40
22.30061578671386
 40
22.71900965416811
 40
23.10919990476605
 40
23.49953852229743
 40
23.85745660772477
 40
24.21560625896493
 40
24.54039297366268
 40
24.86551980320882
 40
25.16070561156359
 40
25.45631108961011
 40
25.73061514883054
 40
26.00524073559637
 40
26.27206230670656
 40
26.53888386905734
 40
26.53888386905734
 40
26.53888386905734
 40
26.53888386905734
 10
291.0959588027594
 20
286.0154928017208
 30
0.0
 10
291.1137018309739
 20
286.1054820676783
 30
0.0
 10
291.1491671054238
 20
286.2853552465652
 30
0.0
 10
291.2550435123482
 20
286.5477415816368
 30
0.0
 10
291.394708383441
 20
286.8006914641289
 30
0.0
 10
291.5754776403821
 20
287.0476687094568
 30
0.0
 10
291.7887157754419
 20
287.2803539603493
 30
0.0
 10
292.039732236653
 20
287.5044692177407
 30
0.0
 10
292.318835472891
 20
287.7113297579744
 30
0.0
 10
292.6322559264453
 20
287.9063721461301
 30
0.0
 10
292.9689793049167
 20
288.0821193599349
 30
0.0
 10
293.3352618903655
 20
288.2426457396019
 30
0.0
 10
293.7199016024903
 20
288.3823841491155
 30
0.0
 10
294.1279906827
 20
288.5038522945927
 30
0.0
 10
294.549338695413
 20
288.603445169368
 30
0.0
 10
294.9869361373797
 20
288.6824105915545
 30
0.0
 10
295.4325547271295
 20
288.7387775027
 30
0.0
 10
295.8864833189793
 20
288.7730414325045
 30
0.0
 10
296.3430973275229
 20
288.7843434697401
 30
0.0
 10
296.7997113360824
 20
288.7730414324446
 30
0.0
 10
297.2536399278831
 20
288.7387775025763
 30
0.0
 10
297.6992585178054
 20
288.6824105914112
 30
0.0
 10
298.1368559591393
 20
288.6034451690936
 30
0.0
 10
298.5582039741493
 20
288.5038522946658
 30
0.0
 10
298.9662930461758
 20
288.3823841479241
 30
0.0
 10
299.3509327878236
 20
288.2426457430666
 30
0.0
 10
299.7172152701427
 20
288.0821193473759
 30
0.0
 10
300.0539390173673
 20
287.906372191286
 30
0.0
 10
300.3673582031236
 20
287.7113296053158
 30
0.0
 10
300.6464659410776
 20
287.5044697683585
 30
0.0
 10
300.8974670810967
 20
287.2803521185581
 30
0.0
 10
301.1107595229032
 20
287.0476753492205
 30
0.0
 10
301.2913436898785
 20
286.8006691987977
 30
0.0
 10
301.4316695612114
 20
286.5478225466114
 30
0.0
 10
301.5352461309549
 20
286.2850770425079
 30
0.0
 10
301.5963252879747
 20
286.0190797550915
 30
0.0
 10
301.6181184529502
 20
285.7494744902406
 30
0.0
 10
301.5963252879841
 20
285.4798692253899
 30
0.0
 10
301.5352461309735
 20
285.2138719379747
 30
0.0
 10
301.4316695612387
 20
284.9511264338729
 30
0.0
 10
301.2913436899142
 20
284.6982797816893
 30
0.0
 10
301.1107595229468
 20
284.4512736312697
 30
0.0
 10
300.8974670811476
 20
284.2185968619364
 30
0.0
 10
300.6464659411353
 20
283.9944792121412
 30
0.0
 10
300.3673582031874
 20
283.7876193751903
 30
0.0
 10
300.0539390174367
 20
283.5925767892272
 30
0.0
 10
299.7172152702171
 20
283.416829633146
 30
0.0
 10
299.3509327879023
 20
283.2563032374653
 30
0.0
 10
298.9662930462583
 20
283.1165648326191
 30
0.0
 10
298.558203974235
 20
282.9950966858914
 30
0.0
 10
298.1368559592278
 20
282.8955038114789
 30
0.0
 10
297.6992585178962
 20
282.81653838918
 30
0.0
 10
297.2536399279758
 20
282.760171478036
 30
0.0
 10
296.7997113361761
 20
282.7259075481918
 30
0.0
 10
296.3430973276215
 20
282.7146055109245
 30
0.0
 10
295.8864833190679
 20
282.7259075481894
 30
0.0
 10
295.4325547272642
 20
282.7601714780373
 30
0.0
 10
294.9869361373557
 20
282.8165383891929
 30
0.0
 10
294.5493386959789
 20
282.8955038115284
 30
0.0
 10
294.1279906811346
 20
282.9950966859665
 30
0.0
 10
293.7199016085337
 20
283.1165648328628
 30
0.0
 10
293.3352618689829
 20
283.2563032374924
 30
0.0
 10
292.9689793793779
 20
283.4168296344603
 30
0.0
 10
292.6322556582631
 20
283.5925767866571
 30
0.0
 10
292.3188363828281
 20
283.7876193868692
 30
0.0
 10
292.0397289634377
 20
283.9944791743676
 30
0.0
 10
291.788726739402
 20
284.2185969938188
 30
0.0
 10
291.575438140221
 20
284.4512731634719
 30
0.0
 10
291.394840877063
 20
284.6982813596526
 30
0.0
 10
291.25456177587
 20
284.9511207082903
 30
0.0
 10
291.1508224780908
 20
285.2138916265844
 30
0.0
 10
291.0903359099325
 20
285.4797963700676
 30
0.0
 10
291.0663898030695
 20
285.7497378613779
 30
0.0
 10
291.0861024729634
 20
285.9269078222803
 30
0.0
 10
291.0959588027594
 20
286.0154928017208
 30
0.0
 11
291.0959588027594
 21
286.0154928017208
 31
0.0
 11
291.1575356844403
 21
286.2831259464839
 31
0.0
 11
291.2571362604324
 21
286.5387085005245
 31
0.0
 11
291.40008891992
 21
286.7974499460059
 31
0.0
 11
291.5735381784802
 21
287.0363013978038
 31
0.0
 11
291.7925958239693
 21
287.2765537716328
 31
0.0
 11
292.0343808806079
 21
287.4934094756222
 31
0.0
 11
292.3216078008952
 21
287.7073530870769
 31
0.0
 11
292.6252113703831
 21
287.8969057932806
 31
0.0
 11
292.9709236155391
 21
288.0781439787027
 31
0.0
 11
293.3281515652897
 21
288.2351045583425
 31
0.0
 11
293.7212156855543
 21
288.3784713106697
 31
0.0
 11
294.1220668030987
 21
288.4980339071474
 31
0.0
 11
294.5501517738519
 21
288.5996002970279
 31
0.0
 11
294.9830538692795
 21
288.6778428763498
 31
0.0
 11
295.4329434882506
 21
288.7349804931029
 31
0.0
 11
295.885135646218
 21
288.7691244700016
 31
0.0
 11
296.3430973375035
 21
288.7805634031383
 31
0.0
 11
296.801059028789
 21
288.7691244700018
 31
0.0
 11
297.2532511867564
 21
288.7349804931031
 31
0.0
 11
297.7031408057273
 21
288.6778428763499
 31
0.0
 11
298.1360429011549
 21
288.5996002970279
 31
0.0
 11
298.5641278719081
 21
288.4980339071474
 31
0.0
 11
298.9649789894526
 21
288.3784713106697
 31
0.0
 11
299.3580431097173
 21
288.2351045583425
 31
0.0
 11
299.7152710594677
 21
288.0781439787027
 31
0.0
 11
300.0609833046238
 21
287.8969057932806
 31
0.0
 11
300.3645868741117
 21
287.707353087077
 31
0.0
 11
300.651813794399
 21
287.4934094756223
 31
0.0
 11
300.8935988510376
 21
287.276553771633
 31
0.0
 11
301.1126564965266
 21
287.0363013978038
 31
0.0
 11
301.2861057550869
 21
286.797449946006
 31
0.0
 11
301.4290584145745
 21
286.5387085005246
 31
0.0
 11
301.5286589905665
 21
286.2831259464841
 31
0.0
 11
301.5902358722474
 21
286.0154928017209
 31
0.0
 11
301.6109242139302
 21
285.7494744898928
 31
0.0
 11
301.5902358722474
 21
285.4834561780649
 31
0.0
 11
301.5286589905665
 21
285.2158230333018
 31
0.0
 11
301.4290584145745
 21
284.9602404792612
 31
0.0
 11
301.2861057550869
 21
284.7014990337798
 31
0.0
 11
301.1126564965266
 21
284.462647581982
 31
0.0
 11
300.8935988510377
 21
284.2223952081528
 31
0.0
 11
300.651813794399
 21
284.0055395041634
 31
0.0
 11
300.3645868741116
 21
283.7915958927087
 31
0.0
 11
300.0609833046238
 21
283.6020431865051
 31
0.0
 11
299.7152710594678
 21
283.420805001083
 31
0.0
 11
299.3580431097173
 21
283.2638444214431
 31
0.0
 11
298.9649789894526
 21
283.1204776691158
 31
0.0
 11
298.5641278719081
 21
283.0009150726382
 31
0.0
 11
298.1360429011549
 21
282.8993486827576
 31
0.0
 11
297.7031408057273
 21
282.8211061034358
 31
0.0
 11
297.2532511867564
 21
282.7639684866827
 31
0.0
 11
296.801059028789
 21
282.729824509784
 31
0.0
 11
296.3430973375035
 21
282.7183855766473
 31
0.0
 11
295.885135646218
 21
282.729824509784
 31
0.0
 11
295.4329434882506
 21
282.7639684866828
 31
0.0
 11
294.9830538692795
 21
282.8211061034358
 31
0.0
 11
294.5501517738518
 21
282.8993486827576
 31
0.0
 11
294.1220668030987
 21
283.0009150726382
 31
0.0
 11
293.7212156855543
 21
283.1204776691159
 31
0.0
 11
293.3281515652897
 21
283.2638444214431
 31
0.0
 11
292.970923615539
 21
283.4208050010829
 31
0.0
 11
292.6252113703831
 21
283.6020431865051
 31
0.0
 11
292.3216078008952
 21
283.7915958927087
 31
0.0
 11
292.034380880608
 21
284.0055395041634
 31
0.0
 11
291.7925958239693
 21
284.2223952081528
 31
0.0
 11
291.5735381784802
 21
284.462647581982
 31
0.0
 11
291.40008891992
 21
284.7014990337798
 31
0.0
 11
291.2571362604323
 21
284.9602404792612
 31
0.0
 11
291.1575356844403
 21
285.2158230333018
 31
0.0
 11
291.0959588027594
 21
285.4834561780648
 31
0.0
 11
291.0752704610766
 21
285.7494744898929
 31
0.0
 11
291.0959588027594
 21
286.0154928017208
 31
0.0
  0
SPLINE
  5
DF
330
4A
100
AcDbEntity
  8
1
  6
Continuous
 62
     7
100
AcDbSpline
210
0.0
220
0.0
230
1.0
 70
     8
 71
     3
 72
    45
 73
    41
 74
    39
 42
0.000000001
 43
0.0000000001
 44
0.00000001
 40
0.0
 40
0.0
 40
0.0
 40
0.0
 40
0.2639815398230855
 40
0.5283419764904589
 40
1.054652162219887
 40
1.580985058146607
 40
2.101700151031757
 40
2.622460338950427
 40
3.134495216417378
 40
3.646596358664328
 40
4.1477890510967
 40
4.649065926352609
 40
5.138470084900332
 40
5.627969497831725
 40
6.106046349977691
 40
6.584217818368301
 40
7.052873637687064
 40
7.521607351601396
 40
7.984025544089911
 40
8.446488180117967
 40
8.906737359044683
 40
9.36698653797135
 40
9.829449173999302
 40
10.29186736648775
 40
10.76060108040211
 40
11.2292568997209
 40
11.70742836811161
 40
12.18550522025758
 40
12.67500463318892
 40
13.16440879173661
 40
13.66568566699251
 40
14.16687835942495
 40
14.67897950167195
 40
15.19101437913886
 40
15.7117745670574
 40
16.23248965994255
 40
16.75882255586928
 40
17.28513274159871
 40
17.54949317826415
 40
17.81347471808485
 40
17.81347471808485
 40
17.81347471808485
 40
17.81347471808485
 10
291.0752704610766
 20
275.7901823463675
 30
0.0
 10
291.0762389724028
 20
275.8781821082178
 30
0.0
 10
291.0781773969723
 20
276.0543079391189
 30
0.0
 10
291.0988127240283
 20
276.405361383968
 30
0.0
 10
291.1483063544707
 20
276.8419881226984
 30
0.0
 10
291.247509451704
 20
277.3575061561719
 30
0.0
 10
291.385389581467
 20
277.8621244854793
 30
0.0
 10
291.5606077092436
 20
278.3499896121555
 30
0.0
 10
291.7726068551631
 20
278.8198864141265
 30
0.0
 10
292.0187128235955
 20
279.2654495241155
 30
0.0
 10
292.2985630636821
 20
279.6863370070988
 30
0.0
 10
292.6082848271675
 20
280.0761832512055
 30
0.0
 10
292.9476657579597
 20
280.4351679615174
 30
0.0
 10
293.3118552621897
 20
280.7574613243712
 30
0.0
 10
293.7005793577727
 20
281.0434378547137
 30
0.0
 10
294.1084256069175
 20
281.2882421972978
 30
0.0
 10
294.5346905842358
 20
281.4922587572455
 30
0.0
 10
294.9739481189406
 20
281.6518537039693
 30
0.0
 10
295.4246546751075
 20
281.7674555705518
 30
0.0
 10
295.8819322643349
 20
281.8366607785108
 30
0.0
 10
296.3430973375035
 20
281.8601910247207
 30
0.0
 10
296.8042624106719
 20
281.8366607785107
 30
0.0
 10
297.2615399998993
 20
281.7674555705516
 30
0.0
 10
297.7122465560662
 20
281.6518537039693
 30
0.0
 10
298.151504090771
 20
281.4922587572454
 30
0.0
 10
298.5777690680894
 20
281.2882421972978
 30
0.0
 10
298.9856153172342
 20
281.0434378547137
 30
0.0
 10
299.3743394128173
 20
280.7574613243713
 30
0.0
 10
299.7385289170471
 20
280.4351679615173
 30
0.0
 10
300.0779098478394
 20
280.0761832512055
 30
0.0
 10
300.3876316113247
 20
279.6863370070989
 30
0.0
 10
300.6674818514114
 20
279.2654495241152
 30
0.0
 10
300.9135878198438
 20
278.8198864141266
 30
0.0
 10
301.1255869657631
 20
278.3499896121554
 30
0.0
 10
301.3008050935398
 20
277.8621244854792
 30
0.0
 10
301.4386852233026
 20
277.3575061561719
 30
0.0
 10
301.5378883205361
 20
276.8419881226984
 30
0.0
 10
301.5873819509784
 20
276.4053613839686
 30
0.0
 10
301.6080172780345
 20
276.0543079391209
 30
0.0
 10
301.6099557026041
 20
275.8781821082214
 30
0.0
 10
301.6109242139302
 20
275.7901823463718
 30
0.0
 11
291.0752704610766
 21
275.7901823463675
 31
0.0
 11
291.0802727675289
 21
276.0541164926735
 31
0.0
 11
291.0952796868862
 21
276.3180506389795
 31
0.0
 11
291.1550082628939
 21
276.8409606788266
 31
0.0
 11
291.2544497298186
 21
277.3578143451806
 31
0.0
 11
291.3918536580787
 21
277.86007360966
 31
0.0
 11
291.5680084744922
 21
278.3501354978263
 31
0.0
 11
291.778772676044
 21
278.81678115282
 31
0.0
 11
292.0265356195424
 21
279.2649564577621
 31
0.0
 11
292.3042691163888
 21
279.6821593100004
 31
0.0
 11
292.6162480242585
 21
280.0745209632783
 31
0.0
 11
292.9527034587197
 21
280.4299280134056
 31
0.0
 11
293.3193938747115
 21
280.754193050607
 31
0.0
 11
293.704701555104
 21
281.0372044784019
 31
0.0
 11
294.1147476144329
 21
281.2831926543406
 31
0.0
 11
294.5376359392817
 21
281.4851920156756
 31
0.0
 11
294.978197426055
 21
281.6452447296055
 31
0.0
 11
295.4261951079874
 21
281.7598251032856
 31
0.0
 11
295.8834345603685
 21
281.8291343611106
 31
0.0
 11
296.3430973375035
 21
281.8523601728627
 31
0.0
 11
296.8027601146384
 21
281.8291343611105
 31
0.0
 11
297.2599995670193
 21
281.7598251032854
 31
0.0
 11
297.7079972489518
 21
281.6452447296053
 31
0.0
 11
298.1485587357251
 21
281.4851920156756
 31
0.0
 11
298.571447060574
 21
281.2831926543406
 31
0.0
 11
298.981493119903
 21
281.0372044784019
 31
0.0
 11
299.3668008002954
 21
280.754193050607
 31
0.0
 11
299.7334912162872
 21
280.4299280134055
 31
0.0
 11
300.0699466507483
 21
280.0745209632783
 31
0.0
 11
300.381925558618
 21
279.6821593100004
 31
0.0
 11
300.6596590554644
 21
279.264956457762
 31
0.0
 11
300.9074219989629
 21
278.8167811528199
 31
0.0
 11
301.1181862005146
 21
278.3501354978262
 31
0.0
 11
301.294341016928
 21
277.86007360966
 31
0.0
 11
301.4317449451881
 21
277.3578143451806
 31
0.0
 11
301.5311864121129
 21
276.8409606788266
 31
0.0
 11
301.5909149881206
 21
276.3180506389795
 31
0.0
 11
301.6059219074778
 21
276.0541164926754
 31
0.0
 11
301.6109242139302
 21
275.7901823463718
 31
0.0
  0
SPLINE
  5
E0
330
4A
100
AcDbEntity
  8
1
  6
Continuous
 62
     7
100
AcDbSpline
210
0.0
220
0.0
230
1.0
 70
    11
 71
     3
 72
    79
 73
    75
 74
    73
 42
0.000000001
 43
0.0000000001
 44
0.00000001
 40
0.0
 40
0.0
 40
0.0
 40
0.0
 40
0.2746255790579105
 40
0.5489296398402128
 40
0.8445351181644141
 40
1.139720926606909
 40
1.464847756185729
 40
1.789634470892291
 40
2.147784122131352
 40
2.505702207552623
 40
2.896040825075726
 40
3.286231075665133
 40
3.70462494311132
 40
4.122927265496235
 40
4.562895984538352
 40
5.002812028166835
 40
5.456315475236712
 40
5.909794867144638
 40
6.367899396567319
 40
6.82600392599135
 40
7.27948331790302
 40
7.732986764977889
 40
8.172902808610916
 40
8.61287152765459
 40
9.031173850034598
 40
9.449567717464202
 40
9.839757968021088
 40
10.23009658548601
 40
10.58801467081972
 40
10.94616432192168
 40
11.27095103644023
 40
11.59607786573605
 40
11.89126367377907
 40
12.18686915140507
 40
12.46117321008095
 40
12.7357987960415
 40
13.00262036496011
 40
13.26944193387762
 40
13.54406751983497
 40
13.81837157850578
 40
14.11397705612522
 40
14.40916286416077
 40
14.73428969344805
 40
15.05907640795829
 40
15.41722605905122
 40
15.77514414437638
 40
16.16548276183258
 40
16.55567301238156
 40
16.97406687980351
 40
17.3923692021766
 40
17.83233792121382
 40
18.2722539648414
 40
18.72575741191156
 40
19.17923680381959
 40
19.63734133324116
 40
20.09544586266253
 40
20.54892525457085
 40
21.00242870164262
 40
21.44234474527477
 40
21.88231346432216
 40
22.3006157867138
 40
22.71900965416807
 40
23.10919990476603
 40
23.49953852229741
 40
23.85745660772475
 40
24.21560625896491
 40
24.54039297366262
 40
24.8655198032088
 40
25.16070561156357
 40
25.4563110896101
 40
25.73061514883042
 40
26.00524073559636
 40
26.27206230670655
 40
26.53888386905733
 40
26.53888386905733
 40
26.53888386905733
 40
26.53888386905733
 10
291.0959588027594
 20
265.5648718910226
 30
0.0
 10
291.1137018309739
 20
265.4748826250652
 30
0.0
 10
291.1491671054238
 20
265.2950094461783
 30
0.0
 10
291.2550435123483
 20
265.0326231111067
 30
0.0
 10
291.3947083834408
 20
264.7796732286146
 30
0.0
 10
291.5754776403822
 20
264.5326959832865
 30
0.0
 10
291.7887157754419
 20
264.3000107323941
 30
0.0
 10
292.039732236653
 20
264.0758954750025
 30
0.0
 10
292.3188354728911
 20
263.8690349347692
 30
0.0
 10
292.6322559264453
 20
263.6739925466132
 30
0.0
 10
292.9689793049167
 20
263.4982453328086
 30
0.0
 10
293.3352618903655
 20
263.3377189531415
 30
0.0
 10
293.7199016024902
 20
263.1979805436278
 30
0.0
 10
294.1279906827
 20
263.0765123981508
 30
0.0
 10
294.549338695413
 20
262.9769195233754
 30
0.0
 10
294.9869361373796
 20
262.897954101189
 30
0.0
 10
295.4325547271296
 20
262.8415871900434
 30
0.0
 10
295.8864833189793
 20
262.8073232602388
 30
0.0
 10
296.343097327523
 20
262.7960212230033
 30
0.0
 10
296.7997113360823
 20
262.8073232602989
 30
0.0
 10
297.253639927883
 20
262.8415871901674
 30
0.0
 10
297.6992585178054
 20
262.8979541013325
 30
0.0
 10
298.1368559591393
 20
262.9769195236497
 30
0.0
 10
298.5582039741493
 20
263.0765123980779
 30
0.0
 10
298.9662930461759
 20
263.1979805448191
 30
0.0
 10
299.3509327878234
 20
263.337718949677
 30
0.0
 10
299.7172152701428
 20
263.4982453453675
 30
0.0
 10
300.0539390173673
 20
263.6739925014574
 30
0.0
 10
300.3673582031236
 20
263.8690350874277
 30
0.0
 10
300.6464659410776
 20
264.075894924385
 30
0.0
 10
300.8974670810966
 20
264.3000125741855
 30
0.0
 10
301.1107595229033
 20
264.5326893435229
 30
0.0
 10
301.2913436898785
 20
264.779695493946
 30
0.0
 10
301.4316695612114
 20
265.0325421461321
 30
0.0
 10
301.5352461309549
 20
265.2952876502357
 30
0.0
 10
301.5963252879748
 20
265.5612849376519
 30
0.0
 10
301.6181184529501
 20
265.8308902025029
 30
0.0
 10
301.5963252879842
 20
266.1004954673537
 30
0.0
 10
301.5352461309735
 20
266.3664927547688
 30
0.0
 10
301.4316695612386
 20
266.6292382588706
 30
0.0
 10
301.2913436899142
 20
266.8820849110542
 30
0.0
 10
301.1107595229469
 20
267.1290910614737
 30
0.0
 10
300.8974670811475
 20
267.361767830807
 30
0.0
 10
300.6464659411353
 20
267.5858854806021
 30
0.0
 10
300.3673582031873
 20
267.7927453175533
 30
0.0
 10
300.0539390174366
 20
267.9877879035161
 30
0.0
 10
299.7172152702173
 20
268.1635350595975
 30
0.0
 10
299.3509327879023
 20
268.324061455278
 30
0.0
 10
298.9662930462584
 20
268.4637998601242
 30
0.0
 10
298.558203974235
 20
268.5852680068519
 30
0.0
 10
298.1368559592278
 20
268.6848608812644
 30
0.0
 10
297.6992585178961
 20
268.7638263035635
 30
0.0
 10
297.2536399279759
 20
268.8201932147075
 30
0.0
 10
296.7997113361761
 20
268.8544571445517
 30
0.0
 10
296.3430973276216
 20
268.865759181819
 30
0.0
 10
295.886483319068
 20
268.8544571445543
 30
0.0
 10
295.4325547272642
 20
268.8201932147064
 30
0.0
 10
294.9869361373557
 20
268.7638263035506
 30
0.0
 10
294.5493386959789
 20
268.684860881215
 30
0.0
 10
294.1279906811346
 20
268.585268006777
 30
0.0
 10
293.7199016085338
 20
268.4637998598809
 30
0.0
 10
293.3352618689828
 20
268.3240614552512
 30
0.0
 10
292.9689793793779
 20
268.1635350582832
 30
0.0
 10
292.6322556582631
 20
267.9877879060865
 30
0.0
 10
292.3188363828282
 20
267.7927453058743
 30
0.0
 10
292.0397289634376
 20
267.5858855183759
 30
0.0
 10
291.7887267394019
 20
267.3617676989247
 30
0.0
 10
291.5754381402211
 20
267.1290915292716
 30
0.0
 10
291.3948408770628
 20
266.8820833330909
 30
0.0
 10
291.2545617758701
 20
266.6292439844533
 30
0.0
 10
291.1508224780908
 20
266.3664730661592
 30
0.0
 10
291.0903359099325
 20
266.100568322676
 30
0.0
 10
291.0663898030695
 20
265.8306268313656
 30
0.0
 10
291.0861024729633
 20
265.6534568704633
 30
0.0
 10
291.0959588027594
 20
265.5648718910227
 30
0.0
 11
291.0959588027594
 21
265.5648718910226
 31
0.0
 11
291.1575356844403
 21
265.2972387462596
 31
0.0
 11
291.2571362604324
 21
265.041656192219
 31
0.0
 11
291.40008891992
 21
264.7829147467376
 31
0.0
 11
291.5735381784802
 21
264.5440632949397
 31
0.0
 11
291.7925958239693
 21
264.3038109211105
 31
0.0
 11
292.0343808806079
 21
264.0869552171212
 31
0.0
 11
292.3216078008952
 21
263.8730116056665
 31
0.0
 11
292.6252113703831
 21
263.6834588994629
 31
0.0
 11
292.9709236155391
 21
263.5022207140408
 31
0.0
 11
293.3281515652897
 21
263.3452601344009
 31
0.0
 11
293.7212156855543
 21
263.2018933820736
 31
0.0
 11
294.1220668030987
 21
263.0823307855961
 31
0.0
 11
294.5501517738519
 21
262.9807643957155
 31
0.0
 11
294.9830538692795
 21
262.9025218163937
 31
0.0
 11
295.4329434882506
 21
262.8453841996405
 31
0.0
 11
295.885135646218
 21
262.8112402227418
 31
0.0
 11
296.3430973375035
 21
262.7998012896051
 31
0.0
 11
296.801059028789
 21
262.8112402227418
 31
0.0
 11
297.2532511867564
 21
262.8453841996405
 31
0.0
 11
297.7031408057273
 21
262.9025218163937
 31
0.0
 11
298.1360429011549
 21
262.9807643957155
 31
0.0
 11
298.5641278719081
 21
263.0823307855961
 31
0.0
 11
298.9649789894526
 21
263.2018933820736
 31
0.0
 11
299.3580431097173
 21
263.3452601344009
 31
0.0
 11
299.7152710594677
 21
263.5022207140407
 31
0.0
 11
300.0609833046238
 21
263.6834588994629
 31
0.0
 11
300.3645868741117
 21
263.8730116056665
 31
0.0
 11
300.651813794399
 21
264.0869552171212
 31
0.0
 11
300.8935988510376
 21
264.3038109211106
 31
0.0
 11
301.1126564965266
 21
264.5440632949397
 31
0.0
 11
301.2861057550869
 21
264.7829147467376
 31
0.0
 11
301.4290584145745
 21
265.0416561922189
 31
0.0
 11
301.5286589905665
 21
265.2972387462594
 31
0.0
 11
301.5902358722474
 21
265.5648718910226
 31
0.0
 11
301.6109242139302
 21
265.8308902028506
 31
0.0
 11
301.5902358722474
 21
266.0969085146787
 31
0.0
 11
301.5286589905665
 21
266.3645416594418
 31
0.0
 11
301.4290584145745
 21
266.6201242134823
 31
0.0
 11
301.2861057550869
 21
266.8788656589637
 31
0.0
 11
301.1126564965266
 21
267.1177171107615
 31
0.0
 11
300.8935988510377
 21
267.3579694845906
 31
0.0
 11
300.651813794399
 21
267.5748251885801
 31
0.0
 11
300.3645868741116
 21
267.7887688000347
 31
0.0
 11
300.0609833046238
 21
267.9783215062384
 31
0.0
 11
299.7152710594678
 21
268.1595596916605
 31
0.0
 11
299.3580431097173
 21
268.3165202713003
 31
0.0
 11
298.9649789894526
 21
268.4598870236276
 31
0.0
 11
298.5641278719081
 21
268.5794496201052
 31
0.0
 11
298.1360429011549
 21
268.6810160099857
 31
0.0
 11
297.7031408057273
 21
268.7592585893077
 31
0.0
 11
297.2532511867564
 21
268.8163962060609
 31
0.0
 11
296.801059028789
 21
268.8505401829595
 31
0.0
 11
296.3430973375035
 21
268.8619791160962
 31
0.0
 11
295.885135646218
 21
268.8505401829595
 31
0.0
 11
295.4329434882506
 21
268.8163962060609
 31
0.0
 11
294.9830538692795
 21
268.7592585893077
 31
0.0
 11
294.5501517738518
 21
268.6810160099858
 31
0.0
 11
294.1220668030987
 21
268.5794496201053
 31
0.0
 11
293.7212156855543
 21
268.4598870236277
 31
0.0
 11
293.3281515652897
 21
268.3165202713005
 31
0.0
 11
292.970923615539
 21
268.1595596916606
 31
0.0
 11
292.6252113703831
 21
267.9783215062384
 31
0.0
 11
292.3216078008952
 21
267.7887688000348
 31
0.0
 11
292.034380880608
 21
267.5748251885801
 31
0.0
 11
291.7925958239693
 21
267.3579694845907
 31
0.0
 11
291.5735381784802
 21
267.1177171107615
 31
0.0
 11
291.40008891992
 21
266.8788656589637
 31
0.0
 11
291.2571362604323
 21
266.6201242134823
 31
0.0
 11
291.1575356844403
 21
266.3645416594418
 31
0.0
 11
291.0959588027594
 21
266.0969085146787
 31
0.0
 11
291.0752704610766
 21
265.8308902028506
 31
0.0
 11
291.0959588027594
 21
265.5648718910227
 31
0.0
  0
SPLINE
  5
E1
330
4A
100
AcDbEntity
  8
1
  6
Continuous
 62
     7
100
AcDbSpline
210
0.0
220
0.0
230
1.0
 70
     8
 71
     3
 72
    45
 73
    41
 74
    39
 42
0.000000001
 43
0.0000000001
 44
0.00000001
 40
0.0
 40
0.0
 40
0.0
 40
0.0
 40
0.2639815398231992
 40
0.5283419764906294
 40
1.054652162219945
 40
1.580985058146609
 40
2.101700151031868
 40
2.622460338950432
 40
3.134495216417331
 40
3.64659635866433
 40
4.147789051096701
 40
4.6490659263527
 40
5.138470084900423
 40
5.627969497831891
 40
6.106046349977791
 40
6.58421781836843
 40
7.052873637687169
 40
7.521607351601501
 40
7.98402554409003
 40
8.446488180118077
 40
8.906737359044797
 40
9.366986537971464
 40
9.829449173999407
 40
10.29186736648785
 40
10.7606010804022
 40
11.22925689972104
 40
11.70742836811174
 40
12.18550522025768
 40
12.67500463318902
 40
13.16440879173683
 40
13.66568566699278
 40
14.16687835942522
 40
14.67897950167217
 40
15.19101437913908
 40
15.71177456705762
 40
16.23248965994277
 40
16.75882255586956
 40
17.28513274159887
 40
17.54949317826431
 40
17.81347471808513
 40
17.81347471808513
 40
17.81347471808513
 40
17.81347471808513
 10
291.0752704610766
 20
275.7901823463761
 30
0.0
 10
291.0762389724028
 20
275.7021825845258
 30
0.0
 10
291.0781773969723
 20
275.5260567536246
 30
0.0
 10
291.0988127240281
 20
275.1750033087755
 30
0.0
 10
291.1483063544707
 20
274.738376570045
 30
0.0
 10
291.2475094517042
 20
274.2228585365717
 30
0.0
 10
291.3853895814668
 20
273.7182402072642
 30
0.0
 10
291.5606077092435
 20
273.2303750805882
 30
0.0
 10
291.7726068551631
 20
272.760478278617
 30
0.0
 10
292.0187128235954
 20
272.3149151686283
 30
0.0
 10
292.2985630636823
 20
271.8940276856448
 30
0.0
 10
292.6082848271674
 20
271.504181441538
 30
0.0
 10
292.9476657579597
 20
271.1451967312261
 30
0.0
 10
293.3118552621896
 20
270.8229033683721
 30
0.0
 10
293.7005793577727
 20
270.5369268380298
 30
0.0
 10
294.1084256069174
 20
270.2921224954455
 30
0.0
 10
294.5346905842359
 20
270.0881059354981
 30
0.0
 10
294.9739481189406
 20
269.9285109887741
 30
0.0
 10
295.4246546751075
 20
269.8129091221917
 30
0.0
 10
295.881932264335
 20
269.7437039142326
 30
0.0
 10
296.3430973375034
 20
269.7201736680227
 30
0.0
 10
296.8042624106719
 20
269.7437039142328
 30
0.0
 10
297.2615399998993
 20
269.8129091221917
 30
0.0
 10
297.7122465560661
 20
269.9285109887741
 30
0.0
 10
298.151504090771
 20
270.0881059354979
 30
0.0
 10
298.5777690680894
 20
270.2921224954456
 30
0.0
 10
298.9856153172342
 20
270.5369268380297
 30
0.0
 10
299.3743394128173
 20
270.8229033683722
 30
0.0
 10
299.7385289170472
 20
271.1451967312261
 30
0.0
 10
300.0779098478394
 20
271.504181441538
 30
0.0
 10
300.3876316113248
 20
271.8940276856449
 30
0.0
 10
300.6674818514113
 20
272.3149151686283
 30
0.0
 10
300.9135878198439
 20
272.760478278617
 30
0.0
 10
301.1255869657631
 20
273.2303750805882
 30
0.0
 10
301.3008050935399
 20
273.7182402072643
 30
0.0
 10
301.4386852233026
 20
274.2228585365717
 30
0.0
 10
301.5378883205362
 20
274.7383765700451
 30
0.0
 10
301.5873819509783
 20
275.1750033087749
 30
0.0
 10
301.6080172780345
 20
275.5260567536226
 30
0.0
 10
301.6099557026039
 20
275.7021825845223
 30
0.0
 10
301.6109242139302
 20
275.7901823463718
 30
0.0
 11
291.0752704610766
 21
275.7901823463761
 31
0.0
 11
291.0802727675289
 21
275.52624820007
 31
0.0
 11
291.0952796868862
 21
275.2623140537639
 31
0.0
 11
291.1550082628939
 21
274.739404013917
 31
0.0
 11
291.2544497298186
 21
274.222550347563
 31
0.0
 11
291.3918536580787
 21
273.7202910830835
 31
0.0
 11
291.5680084744922
 21
273.2302291949173
 31
0.0
 11
291.778772676044
 21
272.7635835399237
 31
0.0
 11
292.0265356195424
 21
272.3154082349815
 31
0.0
 11
292.3042691163888
 21
271.8982053827432
 31
0.0
 11
292.6162480242585
 21
271.5058437294652
 31
0.0
 11
292.9527034587197
 21
271.1504366793379
 31
0.0
 11
293.3193938747115
 21
270.8261716421364
 31
0.0
 11
293.704701555104
 21
270.5431602143416
 31
0.0
 11
294.1147476144329
 21
270.2971720384029
 31
0.0
 11
294.5376359392817
 21
270.0951726770679
 31
0.0
 11
294.978197426055
 21
269.935119963138
 31
0.0
 11
295.4261951079874
 21
269.8205395894579
 31
0.0
 11
295.8834345603685
 21
269.7512303316329
 31
0.0
 11
296.3430973375035
 21
269.7280045198807
 31
0.0
 11
296.8027601146384
 21
269.7512303316329
 31
0.0
 11
297.2599995670193
 21
269.820539589458
 31
0.0
 11
297.7079972489518
 21
269.935119963138
 31
0.0
 11
298.1485587357251
 21
270.0951726770678
 31
0.0
 11
298.571447060574
 21
270.2971720384029
 31
0.0
 11
298.981493119903
 21
270.5431602143416
 31
0.0
 11
299.3668008002954
 21
270.8261716421364
 31
0.0
 11
299.7334912162872
 21
271.1504366793379
 31
0.0
 11
300.0699466507483
 21
271.5058437294653
 31
0.0
 11
300.381925558618
 21
271.8982053827432
 31
0.0
 11
300.6596590554644
 21
272.3154082349816
 31
0.0
 11
300.9074219989629
 21
272.7635835399237
 31
0.0
 11
301.1181862005146
 21
273.2302291949174
 31
0.0
 11
301.294341016928
 21
273.7202910830835
 31
0.0
 11
301.4317449451881
 21
274.222550347563
 31
0.0
 11
301.5311864121129
 21
274.739404013917
 31
0.0
 11
301.5909149881206
 21
275.262314053764
 31
0.0
 11
301.6059219074778
 21
275.5262482000681
 31
0.0
 11
301.6109242139302
 21
275.7901823463718
 31
0.0
  0
SPLINE
  5
E2
330
4A
100
AcDbEntity
  8
1
  6
Continuous
 62
     7
100
AcDbSpline
210
0.0
220
0.0
230
1.0
 70
     8
 71
     3
 72
    29
 73
    25
 74
    23
 42
0.000000001
 43
0.0000000001
 44
0.00000001
 40
0.0
 40
0.0
 40
0.0
 40
0.0
 40
0.4580629049379866
 40
0.9161250914156883
 40
1.374320999540887
 40
1.832515558251339
 40
2.290914914789878
 40
2.749312457160388
 40
3.207961097492749
 40
3.66660768057299
 40
4.12552132711049
 40
4.584432922532321
 40
5.043595335366686
 40
5.502755949537749
 40
5.962120931623854
 40
6.421484581735769
 40
6.880981574981391
 40
7.340477860528046
 40
7.800020446646921
 40
8.259563032672595
 40
8.71905931790051
 40
9.178556310492853
 40
9.61405248047717
 40
10.04938654790518
 40
10.04938654790518
 40
10.04938654790518
 40
10.04938654790518
 10
180.0506731592308
 20
393.0424413522154
 30
0.0
 10
180.2024901572338
 20
393.0596247688318
 30
0.0
 10
180.5061239132319
 20
393.0939915893338
 30
0.0
 10
180.9536477014982
 20
393.1959638808849
 30
0.0
 10
181.3911032772901
 20
393.3336277014797
 30
0.0
 10
181.8147497264356
 20
393.5100084717674
 30
0.0
 10
182.2215693463583
 20
393.7223419731636
 30
0.0
 10
182.6082914344391
 20
393.9697126939986
 30
0.0
 10
182.9721613725071
 20
394.2497375268407
 30
0.0
 10
183.3101950303793
 20
394.5607161752974
 30
0.0
 10
183.6200666282931
 20
394.8998825117491
 30
0.0
 10
183.8991414694993
 20
395.2650247431366
 30
0.0
 10
184.145605162272
 20
395.6530230939621
 30
0.0
 10
184.3572455555025
 20
396.0612309870686
 30
0.0
 10
184.5328181700283
 20
396.4862735699278
 30
0.0
 10
184.6705987847222
 20
396.9251424583163
 30
0.0
 10
184.769950221446
 20
397.3743188656534
 30
0.0
 10
184.8296876882043
 20
397.8305143276107
 30
0.0
 10
184.849809577699
 20
398.2901859659258
 30
0.0
 10
184.8296593206575
 20
398.7498359033054
 30
0.0
 10
184.770063676649
 20
399.2060964607941
 30
0.0
 10
184.6719030644289
 20
399.6472604527845
 30
0.0
 10
184.5417537258879
 20
400.0719645052289
 30
0.0
 10
184.4280493476259
 20
400.3392266957197
 30
0.0
 10
184.3712077347159
 20
400.4728329132304
 30
0.0
 11
180.0506731592308
 21
393.0424413522154
 31
0.0
 11
180.5047957741111
 21
393.1023936477451
 31
0.0
 11
180.9519195541261
 21
393.2018988914099
 31
0.0
 11
181.3887846437461
 21
393.3400740869289
 31
0.0
 11
181.8118732602066
 21
393.5159668865467
 31
0.0
 11
182.2181985100613
 21
393.7281690589253
 31
0.0
 11
182.6044030006806
 21
393.9750990059713
 31
0.0
 11
182.9678339435957
 21
394.2548784287789
 31
0.0
 11
183.3054281863015
 21
394.5653406903251
 31
0.0
 11
183.614915863192
 21
394.9041903814709
 31
0.0
 11
183.8936505733427
 21
395.2687542498321
 31
0.0
 11
184.1397889232811
 21
395.6563700833417
 31
0.0
 11
184.351200837705
 21
396.0639648237179
 31
0.0
 11
184.5265131272405
 21
396.4885608531943
 31
0.0
 11
184.6641805788836
 21
396.9268103667779
 31
0.0
 11
184.7633460138184
 21
397.3754791797033
 31
0.0
 11
184.8230835419667
 21
397.8310757826
 31
0.0
 11
184.8430973374914
 21
398.290182346384
 31
0.0
 11
184.8230835419666
 21
398.7492889101683
 31
0.0
 11
184.7633460138183
 21
399.2048855130649
 31
0.0
 11
184.6641805788836
 21
399.6535543259904
 31
0.0
 11
184.534608019774
 21
400.0693281435516
 31
0.0
 11
184.3712077347159
 21
400.4728329132304
 31
0.0
  0
SPLINE
  5
E3
330
4A
100
AcDbEntity
  8
1
  6
Continuous
 62
     7
100
AcDbSpline
210
0.0
220
0.0
230
1.0
 70
    11
 71
     3
 72
    79
 73
    75
 74
    73
 42
0.000000001
 43
0.0000000001
 44
0.00000001
 40
0.0
 40
0.0
 40
0.0
 40
0.0
 40
0.4580628981251273
 40
0.916125087261312
 40
1.374320996836239
 40
1.832515556544783
 40
2.290914913848376
 40
2.749312456851748
 40
3.207961097729005
 40
3.666607681295338
 40
4.125521328275267
 40
4.584432924108186
 40
5.043595337330317
 40
5.502755951872894
 40
5.962120934321669
 40
6.4214845847946
 40
6.880981578410769
 40
7.340477864349962
 40
7.80002045090768
 40
8.25956303745209
 40
8.71905932335131
 40
9.178556316900746
 40
9.637919967280606
 40
10.09728494960981
 40
10.55644556400688
 40
11.01560797705757
 40
11.47451957269341
 40
11.93343321945001
 40
12.39207980276603
 40
12.85072844336369
 40
13.30912598605306
 40
13.76752534299697
 40
14.22571990226823
 40
14.68391581123189
 40
15.14197799912111
 40
15.60004090624681
 40
16.05805736348875
 40
16.51607382072966
 40
16.97413672785256
 40
17.43219891573702
 40
17.89039482469403
 40
18.3485893839569
 40
18.80698874089052
 40
19.26538628356804
 40
19.72403492415216
 40
20.18268150745285
 40
20.64159515419261
 40
21.10050674981013
 40
21.55966916284122
 40
22.01882977721746
 40
22.47819475952462
 40
22.93755840988127
 40
23.39705540340641
 40
23.85655168928047
 40
24.31609427579902
 40
24.77563686233014
 40
25.23513314824214
 40
25.69463014183063
 40
26.15399379227523
 40
26.61335877469524
 40
27.0725193892084
 40
27.5316818024008
 40
27.99059339820302
 40
28.44950704515076
 40
28.90815362868236
 40
29.36680226952046
 40
29.82519981247583
 40
30.28359916971315
 40
30.74179372931076
 40
31.1999896386448
 40
31.65805182698015
 40
32.11611473472423
 40
32.57413119321838
 40
33.03214764146192
 40
33.03214764146192
 40
33.03214764146192
 40
33.03214764146192
 10
167.6355215157519
 20
393.0424413522154
 30
0.0
 10
167.4837045200069
 20
393.0596247685763
 30
0.0
 10
167.1800707629442
 20
393.0939915699734
 30
0.0
 10
166.7325469759643
 20
393.1959638663416
 30
0.0
 10
166.2950913982664
 20
393.3336276855403
 30
0.0
 10
165.871444948105
 20
393.5100084564993
 30
0.0
 10
165.464625327391
 20
393.7223419580139
 30
0.0
 10
165.0779032386777
 20
393.969712679099
 30
0.0
 10
164.7140333000877
 20
394.2497375121313
 30
0.0
 10
164.3759996416574
 20
394.5607161608217
 30
0.0
 10
164.0661280435737
 20
394.8998824973495
 30
0.0
 10
163.7870532009207
 20
395.2650247293918
 30
0.0
 10
163.5405895115864
 20
395.6530230787308
 30
0.0
 10
163.3289491036436
 20
396.0612309783859
 30
0.0
 10
163.1533765422309
 20
396.4862735378607
 30
0.0
 10
163.0155957275066
 20
396.9251425146987
 30
0.0
 10
162.9162450357673
 20
397.3743185931427
 30
0.0
 10
162.8565047867086
 20
397.8305152841471
 30
0.0
 10
162.836393280172
 20
398.2901823369269
 30
0.0
 10
162.8565047862869
 20
398.7498493897195
 30
0.0
 10
162.9162450349255
 20
399.2060460807161
 30
0.0
 10
163.0155957262356
 20
399.6552221592684
 30
0.0
 10
163.1533765405642
 20
400.0940911358318
 30
0.0
 10
163.3289491014523
 20
400.5191336965079
 30
0.0
 10
163.5405895093485
 20
400.9273415919081
 30
0.0
 10
163.7870531968441
 20
401.3153399574006
 30
0.0
 10
164.0661280443342
 20
401.6804821295231
 30
0.0
 10
164.3759996223307
 20
402.019648690002
 30
0.0
 10
164.7140333536221
 20
402.3306265038193
 30
0.0
 10
165.0779030182625
 20
402.6106544522505
 30
0.0
 10
165.4646261266586
 20
402.85801355322
 30
0.0
 10
165.8714419405379
 20
403.070390411145
 30
0.0
 10
166.2951025893798
 20
403.2466094436238
 30
0.0
 10
166.7325051835306
 20
403.3848767673153
 30
0.0
 10
167.1802266514329
 20
403.4845973819869
 30
0.0
 10
167.6349243345475
 20
403.5445484780663
 30
0.0
 10
168.0930973368434
 20
403.5647392389439
 30
0.0
 10
168.5512703391397
 20
403.5445484780951
 30
0.0
 10
169.0059680222551
 20
403.4845973820445
 30
0.0
 10
169.453689490159
 20
403.3848767674018
 30
0.0
 10
169.891092084312
 20
403.2466094437389
 30
0.0
 10
170.3147527331566
 20
403.0703904112886
 30
0.0
 10
170.7215685470393
 20
402.8580135533923
 30
0.0
 10
171.1082916554395
 20
402.6106544524512
 30
0.0
 10
171.4721613200846
 20
402.3306265040484
 30
0.0
 10
171.8101950513812
 20
402.0196486902591
 30
0.0
 10
172.1200666293837
 20
401.6804821298084
 30
0.0
 10
172.3991414768801
 20
401.3153399577138
 30
0.0
 10
172.645605164383
 20
400.9273415922492
 30
0.0
 10
172.8572455722869
 20
400.5191336968763
 30
0.0
 10
173.0328181331835
 20
400.0940911362276
 30
0.0
 10
173.1705989475212
 20
399.6552221596912
 30
0.0
 10
173.2699496388413
 20
399.2060460811662
 30
0.0
 10
173.3296898874906
 20
398.7498493901958
 30
0.0
 10
173.3498013936167
 20
398.2901823374313
 30
0.0
 10
173.3296898870927
 20
397.8305152846717
 30
0.0
 10
173.2699496380453
 20
397.3743185937136
 30
0.0
 10
173.170598946328
 20
396.925142515218
 30
0.0
 10
173.0328181315902
 20
396.486273538692
 30
0.0
 10
172.8572455703031
 20
396.0612309781689
 30
0.0
 10
172.6456051619733
 20
395.6530230825389
 30
0.0
 10
172.3991414741735
 20
395.2650247182915
 30
0.0
 10
172.1200666258988
 20
394.8998825419627
 30
0.0
 10
171.8101950489068
 20
394.5607159976674
 30
0.0
 10
171.4721613119437
 20
394.2497381240301
 30
0.0
 10
171.1082916665271
 20
393.969710399393
 30
0.0
 10
170.7215684844726
 20
393.7223504643259
 30
0.0
 10
170.3147529434337
 20
393.5099767192562
 30
0.0
 10
169.8910912747322
 20
393.3337460752626
 30
0.0
 10
169.4536924838888
 20
393.1955220792532
 30
0.0
 10
169.0059568234121
 20
393.0956398095909
 30
0.0
 10
168.5513120997811
 20
393.0362919638948
 30
0.0
 10
168.0929414678598
 20
393.0138500597286
 30
0.0
 10
167.7879948320762
 20
393.0329109230422
 30
0.0
 10
167.6355215157518
 20
393.0424413522154
 30
0.0
 11
167.6355215157519
 21
393.0424413522154
 31
0.0
 11
167.1813989008716
 21
393.1023936477451
 31
0.0
 11
166.7342751208566
 21
393.2018988914099
 31
0.0
 11
166.2974100312365
 21
393.3400740869289
 31
0.0
 11
165.874321414776
 21
393.5159668865467
 31
0.0
 11
165.4679961649214
 21
393.7281690589253
 31
0.0
 11
165.0817916743021
 21
393.9750990059713
 31
0.0
 11
164.7183607313869
 21
394.2548784287789
 31
0.0
 11
164.3807664886812
 21
394.5653406903251
 31
0.0
 11
164.0712788117907
 21
394.9041903814709
 31
0.0
 11
163.79254410164
 21
395.2687542498321
 31
0.0
 11
163.5464057517016
 21
395.6563700833417
 31
0.0
 11
163.3349938372777
 21
396.0639648237179
 31
0.0
 11
163.1596815477423
 21
396.4885608531943
 31
0.0
 11
163.022014096099
 21
396.9268103667779
 31
0.0
 11
162.9228486611642
 21
397.3754791797033
 31
0.0
 11
162.8631111330159
 21
397.8310757826
 31
0.0
 11
162.8430973374913
 21
398.290182346384
 31
0.0
 11
162.863111133016
 21
398.7492889101683
 31
0.0
 11
162.9228486611643
 21
399.2048855130649
 31
0.0
 11
163.022014096099
 21
399.6535543259904
 31
0.0
 11
163.1596815477422
 21
400.0918038395741
 31
0.0
 11
163.3349938372777
 21
400.5163998690505
 31
0.0
 11
163.5464057517016
 21
400.9239946094266
 31
0.0
 11
163.79254410164
 21
401.3116104429362
 31
0.0
 11
164.0712788117906
 21
401.6761743112975
 31
0.0
 11
164.3807664886812
 21
402.0150240024431
 31
0.0
 11
164.7183607313871
 21
402.3254862639893
 31
0.0
 11
165.0817916743021
 21
402.6052656867968
 31
0.0
 11
165.4679961649214
 21
402.8521956338429
 31
0.0
 11
165.874321414776
 21
403.0643978062217
 31
0.0
 11
166.2974100312365
 21
403.2402906058396
 31
0.0
 11
166.7342751208566
 21
403.3784658013586
 31
0.0
 11
167.1813989008716
 21
403.4779710450234
 31
0.0
 11
167.6355215157518
 21
403.5379233405529
 31
0.0
 11
168.0930973374913
 21
403.5580092228111
 31
0.0
 11
168.5506731592307
 21
403.5379233405529
 31
0.0
 11
169.004795774111
 21
403.4779710450234
 31
0.0
 11
169.451919554126
 21
403.3784658013586
 31
0.0
 11
169.8887846437461
 21
403.2402906058396
 31
0.0
 11
170.3118732602065
 21
403.0643978062217
 31
0.0
 11
170.7181985100611
 21
402.852195633843
 31
0.0
 11
171.1044030006805
 21
402.6052656867968
 31
0.0
 11
171.4678339435957
 21
402.3254862639892
 31
0.0
 11
171.8054281863014
 21
402.0150240024431
 31
0.0
 11
172.114915863192
 21
401.6761743112975
 31
0.0
 11
172.3936505733426
 21
401.3116104429362
 31
0.0
 11
172.6397889232809
 21
400.9239946094265
 31
0.0
 11
172.8512008377049
 21
400.5163998690504
 31
0.0
 11
173.0265131272404
 21
400.091803839574
 31
0.0
 11
173.1641805788836
 21
399.6535543259903
 31
0.0
 11
173.2633460138183
 21
399.2048855130649
 31
0.0
 11
173.3230835419666
 21
398.7492889101683
 31
0.0
 11
173.3430973374913
 21
398.290182346384
 31
0.0
 11
173.3230835419666
 21
397.8310757826
 31
0.0
 11
173.2633460138183
 21
397.3754791797033
 31
0.0
 11
173.1641805788836
 21
396.9268103667779
 31
0.0
 11
173.0265131272405
 21
396.4885608531943
 31
0.0
 11
172.8512008377049
 21
396.063964823718
 31
0.0
 11
172.639788923281
 21
395.6563700833419
 31
0.0
 11
172.3936505733426
 21
395.2687542498322
 31
0.0
 11
172.114915863192
 21
394.9041903814709
 31
0.0
 11
171.8054281863015
 21
394.5653406903252
 31
0.0
 11
171.4678339435956
 21
394.254878428779
 31
0.0
 11
171.1044030006805
 21
393.9750990059714
 31
0.0
 11
170.7181985100611
 21
393.7281690589252
 31
0.0
 11
170.3118732602065
 21
393.5159668865467
 31
0.0
 11
169.8887846437461
 21
393.3400740869288
 31
0.0
 11
169.4519195541261
 21
393.2018988914098
 31
0.0
 11
169.0047957741111
 21
393.1023936477451
 31
0.0
 11
168.5506731592308
 21
393.0424413522154
 31
0.0
 11
168.0930973374913
 21
393.0223554699572
 31
0.0
 11
167.6355215157518
 21
393.0424413522154
 31
0.0
  0
SPLINE
  5
E4
330
4A
100
AcDbEntity
  8
1
  6
Continuous
 62
     7
100
AcDbSpline
210
0.0
220
0.0
230
1.0
 70
     8
 71
     3
 72
    29
 73
    25
 74
    23
 42
0.000000001
 43
0.0000000001
 44
0.00000001
 40
0.0
 40
0.0
 40
0.0
 40
0.0
 40
0.4580629049379866
 40
0.9161250914156883
 40
1.374320999540887
 40
1.832515558251339
 40
2.290914914789878
 40
2.749312457160388
 40
3.207961097492749
 40
3.66660768057299
 40
4.12552132711049
 40
4.584432922532321
 40
5.043595335366686
 40
5.502755949537749
 40
5.962120931623854
 40
6.421484581735769
 40
6.880981574981391
 40
7.340477860528046
 40
7.800020446646921
 40
8.259563032672595
 40
8.71905931790051
 40
9.178556310492963
 40
9.61405248044817
 40
10.04938654784693
 40
10.04938654784693
 40
10.04938654784693
 40
10.04938654784693
 10
180.0506731592308
 20
393.0424413522154
 30
0.0
 10
180.2024901572338
 20
393.0596247688318
 30
0.0
 10
180.5061239132319
 20
393.0939915893338
 30
0.0
 10
180.9536477014982
 20
393.1959638808849
 30
0.0
 10
181.3911032772901
 20
393.3336277014797
 30
0.0
 10
181.8147497264356
 20
393.5100084717674
 30
0.0
 10
182.2215693463583
 20
393.7223419731636
 30
0.0
 10
182.6082914344391
 20
393.9697126939986
 30
0.0
 10
182.9721613725071
 20
394.2497375268407
 30
0.0
 10
183.3101950303793
 20
394.5607161752974
 30
0.0
 10
183.6200666282931
 20
394.8998825117491
 30
0.0
 10
183.8991414694993
 20
395.2650247431366
 30
0.0
 10
184.145605162272
 20
395.6530230939621
 30
0.0
 10
184.3572455555025
 20
396.0612309870686
 30
0.0
 10
184.5328181700283
 20
396.4862735699278
 30
0.0
 10
184.6705987847222
 20
396.9251424583163
 30
0.0
 10
184.769950221446
 20
397.3743188656534
 30
0.0
 10
184.8296876882043
 20
397.8305143276107
 30
0.0
 10
184.849809577699
 20
398.2901859659258
 30
0.0
 10
184.8296593206575
 20
398.7498359033054
 30
0.0
 10
184.770063676649
 20
399.2060964607944
 30
0.0
 10
184.6719030644309
 20
399.6472604527751
 30
0.0
 10
184.5417537258967
 20
400.0719645052011
 30
0.0
 10
184.4280493476449
 20
400.3392266956752
 30
0.0
 10
184.37120773474
 20
400.4728329131773
 30
0.0
 11
180.0506731592308
 21
393.0424413522154
 31
0.0
 11
180.5047957741111
 21
393.1023936477451
 31
0.0
 11
180.9519195541261
 21
393.2018988914099
 31
0.0
 11
181.3887846437461
 21
393.3400740869289
 31
0.0
 11
181.8118732602066
 21
393.5159668865467
 31
0.0
 11
182.2181985100613
 21
393.7281690589253
 31
0.0
 11
182.6044030006806
 21
393.9750990059713
 31
0.0
 11
182.9678339435957
 21
394.2548784287789
 31
0.0
 11
183.3054281863015
 21
394.5653406903251
 31
0.0
 11
183.614915863192
 21
394.9041903814709
 31
0.0
 11
183.8936505733427
 21
395.2687542498321
 31
0.0
 11
184.1397889232811
 21
395.6563700833417
 31
0.0
 11
184.351200837705
 21
396.0639648237179
 31
0.0
 11
184.5265131272405
 21
396.4885608531943
 31
0.0
 11
184.6641805788836
 21
396.9268103667779
 31
0.0
 11
184.7633460138184
 21
397.3754791797033
 31
0.0
 11
184.8230835419667
 21
397.8310757826
 31
0.0
 11
184.8430973374914
 21
398.290182346384
 31
0.0
 11
184.8230835419666
 21
398.7492889101683
 31
0.0
 11
184.7633460138183
 21
399.2048855130649
 31
0.0
 11
184.6641805788836
 21
399.6535543259905
 31
0.0
 11
184.5346080197837
 21
400.0693281435242
 31
0.0
 11
184.37120773474
 21
400.4728329131773
 31
0.0
  0
SPLINE
  5
E5
330
4A
100
AcDbEntity
  8
1
  6
Continuous
 62
     7
100
AcDbSpline
210
0.0
220
0.0
230
1.0
 70
    11
 71
     3
 72
    87
 73
    83
 74
    81
 42
0.000000001
 43
0.0000000001
 44
0.00000001
 40
0.0
 40
0.0
 40
0.0
 40
0.0
 40
0.4580164518844007
 40
0.9160329113159216
 40
1.374095819249409
 40
1.832158007736336
 40
2.2903539172181
 40
2.748548476965056
 40
3.206947834353338
 40
3.665345377461427
 40
4.123994018453574
 40
4.582640602140229
 40
5.041554249243723
 40
5.500465845201706
 40
5.95962825854947
 40
6.418788873217527
 40
6.878153855791039
 40
7.337517506387451
 40
7.797014500125528
 40
8.256510786184446
 40
8.716053372859408
 40
9.175595959517997
 40
9.635092245527888
 40
10.09458923918439
 40
10.55395288966713
 40
11.01331787209468
 40
11.47247848658527
 40
11.93164089972397
 40
12.39055249544215
 40
12.84946614227495
 40
13.30811272566077
 40
13.76676136632159
 40
14.22515890906707
 40
14.6835582660595
 40
15.14175282537165
 40
15.59994873436818
 40
16.05801092228216
 40
16.51607382942434
 40
16.97409028667406
 40
17.43210674391407
 40
17.67044652113422
 40
17.908329247438
 40
18.1462119737466
 40
18.38455175097153
 40
18.84256820821148
 40
19.30058466546121
 40
19.75864757260333
 40
20.21670976051737
 40
20.6749056695139
 40
21.13310022882608
 40
21.59149958581848
 40
22.04989712856393
 40
22.50854576922479
 40
22.96719235261058
 40
23.42610599944341
 40
23.88501759516158
 40
24.34418000830041
 40
24.8033406227909
 40
25.26270560521845
 40
25.72206925570109
 40
26.18156624935764
 40
26.64106253536754
 40
27.10060512202612
 40
27.56014770870108
 40
28.01964399476
 40
28.47914098849809
 40
28.93850463909455
 40
29.39786962166811
 40
29.85703023633615
 40
30.31619264968387
 40
30.77510424564188
 40
31.23401789274525
 40
31.69266447643192
 40
32.15131311742407
 40
32.6097106605322
 40
33.06811001792048
 40
33.52630457766741
 40
33.9845004871492
 40
34.44256267563614
 40
34.90062558356959
 40
35.35864204300349
 40
35.81665849489488
 40
35.81665849489488
 40
35.81665849489488
 40
35.81665849489488
 10
180.0506731592308
 20
393.0424413522154
 30
0.0
 10
179.8981998416944
 20
393.0329109229665
 30
0.0
 10
179.5932532046589
 20
393.0138500527078
 30
0.0
 10
179.1348825710896
 20
393.036291961098
 30
0.0
 10
178.680237847117
 20
393.0956398062798
 30
0.0
 10
178.2325021865184
 20
393.195522076412
 30
0.0
 10
177.7951033955742
 20
393.3337460725228
 30
0.0
 10
177.3714417267701
 20
393.5099767166757
 30
0.0
 10
176.9646261856284
 20
393.7223504618687
 30
0.0
 10
176.577903003471
 20
393.9697103970591
 30
0.0
 10
176.2140333579522
 20
394.2497381218147
 30
0.0
 10
175.8759996208877
 20
394.5607159955708
 30
0.0
 10
175.5661280437958
 20
394.8998825399852
 30
0.0
 10
175.287053195423
 20
395.2650247164347
 30
0.0
 10
175.040589507527
 20
395.6530230808051
 30
0.0
 10
174.8289490991033
 20
396.0612309765602
 30
0.0
 10
174.6533765377249
 20
396.4862735372117
 30
0.0
 10
174.5155957228982
 20
396.9251425138684
 30
0.0
 10
174.4162450310952
 20
397.3743185924981
 30
0.0
 10
174.3565047819651
 20
397.8305152835934
 30
0.0
 10
174.3363932753612
 20
398.290182336493
 30
0.0
 10
174.3565047814129
 20
398.7498493894007
 30
0.0
 10
174.4162450299837
 20
399.2060460805184
 30
0.0
 10
174.515595721257
 20
399.655222159189
 30
0.0
 10
174.6533765354473
 20
400.0940911358925
 30
0.0
 10
174.828949096591
 20
400.5191336966408
 30
0.0
 10
175.0405895032889
 20
400.9273415923791
 30
0.0
 10
175.2870531950273
 20
401.3153399572302
 30
0.0
 10
175.5661280264804
 20
401.6804821323756
 30
0.0
 10
175.875999664116
 20
402.0196486822182
 30
0.0
 10
176.2140331727802
 20
402.3306265363624
 30
0.0
 10
176.5779036678712
 20
402.6106543349997
 30
0.0
 10
176.9646236784647
 20
402.8580139953891
 30
0.0
 10
177.3714510503875
 20
403.0703887667534
 30
0.0
 10
177.7950685822776
 20
403.2466155837599
 30
0.0
 10
178.232632060834
 20
403.3848538613444
 30
0.0
 10
178.6797532663099
 20
403.4846828482243
 30
0.0
 10
179.136690950872
 20
403.5442295320501
 30
0.0
 10
179.5865049492636
 20
403.5659294371336
 30
0.0
 10
179.9976225193337
 20
403.5442356033104
 30
0.0
 10
180.2522388927283
 20
403.5199058841235
 30
0.0
 10
180.6576034685804
 20
403.4522608685145
 30
0.0
 10
180.2522388927221
 20
403.5199058841245
 30
0.0
 10
179.9976225193262
 20
403.5442356033119
 30
0.0
 10
179.5865049492539
 20
403.5659294371351
 30
0.0
 10
179.1366909508627
 20
403.5442295320518
 30
0.0
 10
178.6797532663004
 20
403.4846828482259
 30
0.0
 10
178.2326320608247
 20
403.384853861346
 30
0.0
 10
177.7950685822681
 20
403.2466155837614
 30
0.0
 10
177.3714510503781
 20
403.070388766755
 30
0.0
 10
176.9646236784553
 20
402.8580139953908
 30
0.0
 10
176.5779036678618
 20
402.6106543350012
 30
0.0
 10
176.2140331727708
 20
402.330626536364
 30
0.0
 10
175.8759996641065
 20
402.0196486822198
 30
0.0
 10
175.5661280264709
 20
401.6804821323772
 30
0.0
 10
175.2870531950178
 20
401.3153399572319
 30
0.0
 10
175.0405895032796
 20
400.9273415923805
 30
0.0
 10
174.8289490965815
 20
400.5191336966424
 30
0.0
 10
174.6533765354379
 20
400.0940911358941
 30
0.0
 10
174.5155957212476
 20
399.6552221591907
 30
0.0
 10
174.4162450299743
 20
399.2060460805199
 30
0.0
 10
174.3565047814034
 20
398.7498493894024
 30
0.0
 10
174.3363932753519
 20
398.2901823364946
 30
0.0
 10
174.3565047819557
 20
397.830515283595
 30
0.0
 10
174.4162450310859
 20
397.3743185924998
 30
0.0
 10
174.5155957228888
 20
396.9251425138701
 30
0.0
 10
174.6533765377155
 20
396.4862735372132
 30
0.0
 10
174.8289490990938
 20
396.0612309765617
 30
0.0
 10
175.0405895075176
 20
395.6530230808065
 30
0.0
 10
175.2870531954136
 20
395.2650247164362
 30
0.0
 10
175.5661280437862
 20
394.8998825399867
 30
0.0
 10
175.8759996208784
 20
394.5607159955725
 30
0.0
 10
176.2140333579427
 20
394.2497381218164
 30
0.0
 10
176.5779030034616
 20
393.9697103970609
 30
0.0
 10
176.964626185619
 20
393.7223504618702
 30
0.0
 10
177.3714417267607
 20
393.5099767166774
 30
0.0
 10
177.7951033955648
 20
393.3337460725243
 30
0.0
 10
178.2325021865091
 20
393.1955220764137
 30
0.0
 10
178.6802378471076
 20
393.0956398062814
 30
0.0
 10
179.1348825710811
 20
393.0362919610997
 30
0.0
 10
179.5932532046534
 20
393.0138500527093
 30
0.0
 10
179.898199841692
 20
393.0329109229669
 30
0.0
 10
180.0506731592308
 20
393.0424413522154
 30
0.0
 11
180.0506731592308
 21
393.0424413522154
 31
0.0
 11
179.5930973374914
 21
393.0223554699573
 31
0.0
 11
179.1355215157519
 21
393.0424413522154
 31
0.0
 11
178.6813989008716
 21
393.1023936477451
 31
0.0
 11
178.2342751208566
 21
393.2018988914098
 31
0.0
 11
177.7974100312366
 21
393.3400740869288
 31
0.0
 11
177.3743214147761
 21
393.5159668865467
 31
0.0
 11
176.9679961649215
 21
393.7281690589253
 31
0.0
 11
176.5817916743022
 21
393.9750990059714
 31
0.0
 11
176.2183607313871
 21
394.254878428779
 31
0.0
 11
175.8807664886812
 21
394.5653406903251
 31
0.0
 11
175.5712788117907
 21
394.904190381471
 31
0.0
 11
175.29254410164
 21
395.2687542498323
 31
0.0
 11
175.0464057517017
 21
395.6563700833419
 31
0.0
 11
174.8349938372777
 21
396.063964823718
 31
0.0
 11
174.6596815477422
 21
396.4885608531944
 31
0.0
 11
174.522014096099
 21
396.9268103667779
 31
0.0
 11
174.4228486611643
 21
397.3754791797034
 31
0.0
 11
174.363111133016
 21
397.8310757826
 31
0.0
 11
174.3430973374913
 21
398.2901823463841
 31
0.0
 11
174.363111133016
 21
398.7492889101683
 31
0.0
 11
174.4228486611643
 21
399.2048855130648
 31
0.0
 11
174.522014096099
 21
399.6535543259903
 31
0.0
 11
174.6596815477422
 21
400.091803839574
 31
0.0
 11
174.8349938372777
 21
400.5163998690504
 31
0.0
 11
175.0464057517017
 21
400.9239946094266
 31
0.0
 11
175.2925441016401
 21
401.3116104429362
 31
0.0
 11
175.5712788117908
 21
401.6761743112975
 31
0.0
 11
175.8807664886813
 21
402.0150240024431
 31
0.0
 11
176.2183607313871
 21
402.3254862639893
 31
0.0
 11
176.5817916743022
 21
402.6052656867968
 31
0.0
 11
176.9679961649216
 21
402.852195633843
 31
0.0
 11
177.3743214147761
 21
403.0643978062217
 31
0.0
 11
177.7974100312366
 21
403.2402906058396
 31
0.0
 11
178.2342751208566
 21
403.3784658013586
 31
0.0
 11
178.6813989008716
 21
403.4779710450233
 31
0.0
 11
179.1355215157519
 21
403.5379233405529
 31
0.0
 11
179.5930973374914
 21
403.558009222811
 31
0.0
 11
180.0506731592308
 21
403.5379233405529
 31
0.0
 11
180.2875660416537
 21
403.5117009890263
 31
0.0
 11
180.5225684320365
 21
403.4747947829649
 31
0.0
 11
180.287566041649
 21
403.5117009890271
 31
0.0
 11
180.0506731592214
 21
403.5379233405545
 31
0.0
 11
179.593097337482
 21
403.5580092228126
 31
0.0
 11
179.1355215157425
 21
403.5379233405545
 31
0.0
 11
178.6813989008622
 21
403.477971045025
 31
0.0
 11
178.2342751208472
 21
403.3784658013602
 31
0.0
 11
177.7974100312271
 21
403.2402906058412
 31
0.0
 11
177.3743214147667
 21
403.0643978062233
 31
0.0
 11
176.9679961649122
 21
402.8521956338446
 31
0.0
 11
176.5817916742928
 21
402.6052656867984
 31
0.0
 11
176.2183607313777
 21
402.3254862639908
 31
0.0
 11
175.8807664886718
 21
402.0150240024447
 31
0.0
 11
175.5712788117813
 21
401.6761743112991
 31
0.0
 11
175.2925441016307
 21
401.3116104429378
 31
0.0
 11
175.0464057516923
 21
400.9239946094281
 31
0.0
 11
174.8349938372683
 21
400.5163998690519
 31
0.0
 11
174.6596815477328
 21
400.0918038395756
 31
0.0
 11
174.5220140960896
 21
399.6535543259919
 31
0.0
 11
174.4228486611549
 21
399.2048855130664
 31
0.0
 11
174.3631111330066
 21
398.7492889101699
 31
0.0
 11
174.3430973374819
 21
398.2901823463857
 31
0.0
 11
174.3631111330066
 21
397.8310757826015
 31
0.0
 11
174.4228486611549
 21
397.375479179705
 31
0.0
 11
174.5220140960896
 21
396.9268103667795
 31
0.0
 11
174.6596815477328
 21
396.4885608531959
 31
0.0
 11
174.8349938372683
 21
396.0639648237195
 31
0.0
 11
175.0464057516923
 21
395.6563700833434
 31
0.0
 11
175.2925441016306
 21
395.2687542498338
 31
0.0
 11
175.5712788117812
 21
394.9041903814725
 31
0.0
 11
175.8807664886718
 21
394.5653406903268
 31
0.0
 11
176.2183607313776
 21
394.2548784287807
 31
0.0
 11
176.5817916742928
 21
393.9750990059731
 31
0.0
 11
176.9679961649121
 21
393.7281690589269
 31
0.0
 11
177.3743214147667
 21
393.5159668865483
 31
0.0
 11
177.7974100312271
 21
393.3400740869304
 31
0.0
 11
178.2342751208472
 21
393.2018988914114
 31
0.0
 11
178.6813989008622
 21
393.1023936477467
 31
0.0
 11
179.1355215157425
 21
393.0424413522171
 31
0.0
 11
179.5930973374843
 21
393.0223554699585
 31
0.0
 11
180.0506731592308
 21
393.0424413522154
 31
0.0
  0
ENDBLK
  5
4C
330
4A
100
AcDbEntity
  8
0
100
AcDbBlockEnd
  0
BLOCK
  5
4E
330
4D
100
AcDbEntity
  8
0
100
AcDbBlockBegin
  2
37-1-13
 70
     0
 10
82.0418671207203
 20
204.2944764562274
 30
0.0
  3
37-1-13
  1

  0
LINE
  5
E6
330
4D
100
AcDbEntity
  8
1
  6
Continuous
 62
     7
100
AcDbLine
 10
173.8430973374913
 20
315.290182346372
 30
0.0
 11
167.8430973374913
 21
315.290182346372
 31
0.0
  0
LINE
  5
E7
330
4D
100
AcDbEntity
  8
1
  6
Continuous
 62
     7
100
AcDbLine
 10
179.8430973374913
 20
315.290182346372
 30
0.0
 11
173.8430973374913
 21
315.290182346372
 31
0.0
  0
LINE
  5
E8
330
4D
100
AcDbEntity
  8
1
  6
Continuous
 62
     7
100
AcDbLine
 10
186.9138115517629
 20
301.290182346372
 30
0.0
 11
173.22097160716
 21
301.290182346372
 31
0.0
  0
LINE
  5
E9
330
4D
100
AcDbEntity
  8
1
  6
Continuous
 62
     7
100
AcDbLine
 10
174.4652230678223
 20
301.290182346372
 30
0.0
 11
160.77238312322
 21
301.290182346372
 31
0.0
  0
LINE
  5
EA
330
4D
100
AcDbEntity
  8
1
  6
Continuous
 62
     7
100
AcDbLine
 10
338.8430973375036
 20
308.3249196788681
 30
0.0
 11
338.8430973375036
 21
301.2542054645968
 31
0.0
  0
LINE
  5
EB
330
4D
100
AcDbEntity
  8
1
  6
Continuous
 62
     7
100
AcDbLine
 10
338.8430973375036
 20
301.2542054645968
 30
0.0
 11
325.8430973375036
 21
301.2542054645968
 31
0.0
  0
LINE
  5
EC
330
4D
100
AcDbEntity
  8
1
  6
Continuous
 62
     7
100
AcDbLine
 10
325.8430973375036
 20
301.2542054645968
 30
0.0
 11
312.8430973375036
 21
301.2542054645968
 31
0.0
  0
LINE
  5
ED
330
4D
100
AcDbEntity
  8
1
  6
Continuous
 62
     7
100
AcDbLine
 10
331.8430973375036
 20
315.2542054645968
 30
0.0
 11
319.8430973375036
 21
315.2542054645968
 31
0.0
  0
LINE
  5
EE
330
4D
100
AcDbEntity
  8
1
  6
Continuous
 62
     7
100
AcDbLine
 10
312.8430973375036
 20
308.3249196788681
 30
0.0
 11
312.8430973375036
 21
301.2542054645968
 31
0.0
  0
LINE
  5
EF
330
4D
100
AcDbEntity
  8
1
  6
Continuous
 62
     7
100
AcDbLine
 10
188.3127357313553
 20
426.8523312116942
 30
0.0
 11
187.8611209647375
 21
426.0701114904638
 31
0.0
  0
LINE
  5
F0
330
4D
100
AcDbEntity
  8
1
  6
Continuous
 62
     7
100
AcDbLine
 10
165.7960752329598
 20
415.7280334810506
 30
0.0
 11
165.3444604663416
 21
416.5102532022817
 31
0.0
  0
LINE
  5
F1
330
4D
100
AcDbEntity
  8
1
  6
Continuous
 62
     7
100
AcDbLine
 10
167.4204810481587
 20
440.7901823463723
 30
0.0
 11
168.3237105813943
 21
440.7901823463723
 31
0.0
  0
LINE
  5
F2
330
4D
100
AcDbEntity
  8
1
  6
Continuous
 62
     7
100
AcDbLine
 10
187.8611209647375
 20
429.510253202281
 30
0.0
 11
188.3127357313553
 21
428.7280334810506
 31
0.0
  0
LINE
  5
F3
330
4D
100
AcDbEntity
  8
1
  6
Continuous
 62
     7
100
AcDbLine
 10
168.323710581395
 20
414.7901823463724
 30
0.0
 11
167.4204810481587
 21
414.7901823463724
 31
0.0
  0
LINE
  5
F4
330
4D
100
AcDbEntity
  8
1
  6
Continuous
 62
     7
100
AcDbLine
 10
165.3444604663421
 20
439.0701114904637
 30
0.0
 11
165.7960752329598
 21
439.8523312116939
 31
0.0
  0
ARC
  5
F5
330
4D
100
AcDbEntity
  8
1
  6
Continuous
 62
     7
100
AcDbCircle
 10
147.9366421323765
 20
328.6966375514868
 30
0.0
 40
23.99999999999995
100
AcDbArc
 50
303.9591925000979
 51
326.0408074999025
  0
ARC
  5
F6
330
4D
100
AcDbEntity
  8
1
  6
Continuous
 62
     7
100
AcDbCircle
 10
199.7495525426063
 20
328.6966375514866
 30
0.0
 40
23.99999999999991
100
AcDbArc
 50
213.9591925000968
 51
236.0408074999018
  0
ARC
  5
F7
330
4D
100
AcDbEntity
  8
1
  6
Continuous
 62
     7
100
AcDbCircle
 10
183.3430973374913
 20
304.790182346372
 30
0.0
 40
5.000000000000138
100
AcDbArc
 50
315.5729959991959
 51
53.13010235415676
  0
ARC
  5
F8
330
4D
100
AcDbEntity
  8
1
  6
Continuous
 62
     7
100
AcDbCircle
 10
164.3430973374913
 20
304.790182346372
 30
0.0
 40
4.999999999999863
100
AcDbArc
 50
126.8698976458419
 51
224.4270040008069
  0
ARC
  5
F9
330
4D
100
AcDbEntity
  8
1
  6
Continuous
 62
     7
100
AcDbCircle
 10
351.7495525426186
 20
328.6606606697118
 30
0.0
 40
24.00000000000008
100
AcDbArc
 50
213.9591925000975
 51
236.0408074999025
  0
ARC
  5
FA
330
4D
100
AcDbEntity
  8
1
  6
Continuous
 62
     7
100
AcDbCircle
 10
335.3430973375036
 20
304.7542054645968
 30
0.0
 40
4.999999999999934
100
AcDbArc
 50
45.57299599919357
 51
53.13010235415597
  0
ARC
  5
FB
330
4D
100
AcDbEntity
  8
1
  6
Continuous
 62
     7
100
AcDbCircle
 10
299.9366421323887
 20
328.6606606697118
 30
0.0
 40
24.00000000000015
100
AcDbArc
 50
303.9591925000978
 51
326.0408074999023
  0
ARC
  5
FC
330
4D
100
AcDbEntity
  8
1
  6
Continuous
 62
     7
100
AcDbCircle
 10
316.3430973375036
 20
304.7542054645968
 30
0.0
 40
4.999999999999863
100
AcDbArc
 50
126.8698976458419
 51
134.4270040008064
  0
ARC
  5
FD
330
4D
100
AcDbEntity
  8
1
  6
Continuous
 62
     7
100
AcDbCircle
 10
173.8430973374913
 20
427.7901823463724
 30
0.0
 40
14.5
100
AcDbArc
 50
0.0
 51
3.70844472527052
  0
ARC
  5
FE
330
4D
100
AcDbEntity
  8
1
  6
Continuous
 62
     7
100
AcDbCircle
 10
173.8430973374913
 20
427.7901823463724
 30
0.0
 40
14.50000000000003
100
AcDbArc
 50
356.2915552747297
 51
0.0
  0
ARC
  5
FF
330
4D
100
AcDbEntity
  8
1
  6
Continuous
 62
     7
100
AcDbCircle
 10
173.8430973374913
 20
427.7901823463724
 30
0.0
 40
14.50000000000006
100
AcDbArc
 50
236.2915552747291
 51
243.7084447252706
  0
ARC
  5
100
330
4D
100
AcDbEntity
  8
1
  6
Continuous
 62
     7
100
AcDbCircle
 10
173.8430973374913
 20
427.7901823463724
 30
0.0
 40
14.49999999999996
100
AcDbArc
 50
116.2915552747295
 51
123.7084447252713
  0
SPLINE
  5
101
330
4D
100
AcDbEntity
  8
1
  6
Continuous
 62
     7
100
AcDbSpline
210
0.0
220
0.0
230
1.0
 70
    11
 71
     3
 72
    79
 73
    75
 74
    73
 42
0.000000001
 43
0.0000000001
 44
0.00000001
 40
0.0
 40
0.0
 40
0.0
 40
0.0
 40
0.3105305852300994
 40
0.6211096995128467
 40
0.9446853825175711
 40
1.268350829332579
 40
1.615177937220548
 40
1.96207358750062
 40
2.337982250496454
 40
2.713934410283031
 40
3.120408255190454
 40
3.526909439089253
 40
3.961816264051709
 40
4.396740380766866
 40
4.855202003460501
 40
5.313674294823806
 40
5.788867662508649
 40
6.264066850590009
 40
6.747928777579777
 40
7.231792556800998
 40
7.715656336020845
 40
8.199518263006246
 40
8.674717451079346
 40
9.14991081875036
 40
9.608383110092518
 40
10.06684473275364
 40
10.50176884942254
 40
10.93667567431779
 40
11.34317685812712
 40
11.74965070290946
 40
12.12560286253663
 40
12.50151152531602
 40
12.84840717532581
 40
13.19523428284665
 40
13.51889972917785
 40
13.84247541139055
 40
14.15305452357897
 40
14.46358511619993
 40
14.77411570882094
 40
15.08469482100941
 40
15.40827050322201
 40
15.73193594955331
 40
16.0787630570741
 40
16.42565870708385
 40
16.80156736986321
 40
17.17751952949042
 40
17.58399337427281
 40
17.99049455808208
 40
18.42540138297731
 40
18.8603254996462
 40
19.31878712230735
 40
19.77725941364956
 40
20.25245278132065
 40
20.72765196939368
 40
21.21151389637902
 40
21.69537767559892
 40
22.17924145482014
 40
22.66310338180991
 40
23.1383025698912
 40
23.61349593757611
 40
24.07196822893939
 40
24.53042985163314
 40
24.9653539683483
 40
25.40026079331073
 40
25.80676197720963
 40
26.21323582211696
 40
26.58918798190345
 40
26.9650966448992
 40
27.31199229517927
 40
27.65881940306728
 40
27.98248484988232
 40
28.30606053288702
 40
28.61663964716982
 40
28.92717023239998
 40
28.92717023239998
 40
28.92717023239998
 40
28.92717023239998
 10
324.9052462028255
 20
304.7895625717325
 30
0.0
 10
324.9010301522088
 20
304.8931476035506
 30
0.0
 10
324.8925974007693
 20
305.1003338557272
 30
0.0
 10
324.8258694676242
 20
305.4095534511545
 30
0.0
 10
324.7201620867654
 20
305.7115585984872
 30
0.0
 10
324.5716392186666
 20
306.0087187878062
 30
0.0
 10
324.3851714834237
 20
306.2928654535642
 30
0.0
 10
324.1580004280068
 20
306.5684650390136
 30
0.0
 10
323.8975669700093
 20
306.8268301591133
 30
0.0
 10
323.5991608590556
 20
307.0725981367763
 30
0.0
 10
323.2726471396753
 20
307.2980307894678
 30
0.0
 10
322.9124202814435
 20
307.5067765188994
 30
0.0
 10
322.5294070742191
 20
307.692845313235
 30
0.0
 10
322.118457316476
 20
307.8584942629312
 30
0.0
 10
321.6902080088209
 20
307.9997086836516
 30
0.0
 10
321.2410677468303
 20
308.1174548057717
 30
0.0
 10
320.7802810760141
 20
308.2095258879855
 30
0.0
 10
320.3065822072132
 20
308.2759874615341
 30
0.0
 10
319.8270233883792
 20
308.3160311149803
 30
0.0
 10
319.3430973473872
 20
308.3293639670271
 30
0.0
 10
318.8591713064
 20
308.3160311150251
 30
0.0
 10
318.3796124875538
 20
308.2759874616283
 30
0.0
 10
317.9059136187999
 20
308.2095258881385
 30
0.0
 10
317.4451269478149
 20
308.1174548059964
 30
0.0
 10
316.9959866864359
 20
307.9997086839671
 30
0.0
 10
316.5677373765517
 20
307.8584942633598
 30
0.0
 10
316.1567876267102
 20
307.6928453138056
 30
0.0
 10
315.7737743909406
 20
307.506776519643
 30
0.0
 10
315.4135476325595
 20
307.2980307904251
 30
0.0
 10
315.0870335550591
 20
307.0725981379866
 30
0.0
 10
314.7886286849107
 20
306.8268301606308
 30
0.0
 10
314.5281907912302
 20
306.5684650408899
 30
0.0
 10
314.3010350734871
 20
306.2928654558746
 30
0.0
 10
314.1145123472522
 20
306.0087187906357
 30
0.0
 10
313.9661816583846
 20
305.7115586020211
 30
0.0
 10
313.8597772990217
 20
305.4095534559359
 30
0.0
 10
313.7955511732771
 20
305.1003338594654
 30
0.0
 10
313.7736477069975
 20
304.7895625717325
 30
0.0
 10
313.7955511732771
 20
304.4787912839994
 30
0.0
 10
313.8597772990218
 20
304.1695716875292
 30
0.0
 10
313.9661816583848
 20
303.8675665414439
 30
0.0
 10
314.1145123472521
 20
303.5704063528293
 30
0.0
 10
314.3010350734871
 20
303.2862596875902
 30
0.0
 10
314.5281907912302
 20
303.0106601025752
 30
0.0
 10
314.7886286849106
 20
302.7522949828342
 30
0.0
 10
315.0870335550591
 20
302.5065270054784
 30
0.0
 10
315.4135476325595
 20
302.28109435304
 30
0.0
 10
315.7737743909407
 20
302.0723486238219
 30
0.0
 10
316.1567876267102
 20
301.8862798296595
 30
0.0
 10
316.5677373765517
 20
301.7206308801054
 30
0.0
 10
316.9959866864359
 20
301.5794164594979
 30
0.0
 10
317.4451269478149
 20
301.4616703374683
 30
0.0
 10
317.9059136187999
 20
301.3695992553262
 30
0.0
 10
318.3796124875539
 20
301.3031376818365
 30
0.0
 10
318.8591713063999
 20
301.2630940284398
 30
0.0
 10
319.3430973473872
 20
301.2497611764379
 30
0.0
 10
319.8270233883792
 20
301.2630940284846
 30
0.0
 10
320.3065822072131
 20
301.3031376819306
 30
0.0
 10
320.7802810760144
 20
301.3695992554791
 30
0.0
 10
321.24106774683
 20
301.461670337693
 30
0.0
 10
321.6902080088211
 20
301.5794164598135
 30
0.0
 10
322.1184573164758
 20
301.7206308805338
 30
0.0
 10
322.5294070742191
 20
301.8862798302303
 30
0.0
 10
322.9124202814435
 20
302.0723486245656
 30
0.0
 10
323.2726471396755
 20
302.2810943539972
 30
0.0
 10
323.5991608590555
 20
302.5065270066888
 30
0.0
 10
323.8975669700093
 20
302.7522949843517
 30
0.0
 10
324.1580004280066
 20
303.0106601044514
 30
0.0
 10
324.3851714834235
 20
303.2862596899008
 30
0.0
 10
324.5716392186666
 20
303.5704063556587
 30
0.0
 10
324.7201620867656
 20
303.8675665449778
 30
0.0
 10
324.825869467624
 20
304.1695716923106
 30
0.0
 10
324.8925974007692
 20
304.4787912877378
 30
0.0
 10
324.9010301522088
 20
304.6859775399144
 30
0.0
 10
324.9052462028255
 20
304.7895625717325
 30
0.0
 11
324.9052462028255
 21
304.7895625717325
 31
0.0
 11
324.8837395906121
 21
305.0993475208072
 31
0.0
 11
324.8207446634805
 21
305.4034708907884
 31
0.0
 11
324.7138555812018
 21
305.7088820010886
 31
0.0
 11
324.5698075819593
 21
305.9987259162225
 31
0.0
 11
324.3801378979333
 21
306.28909542831
 31
0.0
 11
324.1600595545032
 21
306.5572411253003
 31
0.0
 11
323.8937073549734
 21
306.8225029367666
 31
0.0
 11
323.6039505675839
 21
307.0620463160166
 31
0.0
 11
323.2698009251516
 21
307.2934874597307
 31
0.0
 11
322.9183777113646
 21
307.4978032380951
 31
0.0
 11
322.5273915035497
 21
307.6882598779721
 31
0.0
 11
322.1241717701645
 21
307.851271637962
 31
0.0
 11
321.6888719934408
 21
307.995150628293
 31
0.0
 11
321.2454642896198
 21
308.1117115571509
 31
0.0
 11
320.7795195855782
 21
308.2050082316142
 31
0.0
 11
320.308954351879
 21
308.2712096605065
 31
0.0
 11
319.8267760737157
 21
308.3115392087241
 31
0.0
 11
319.3430973375036
 21
308.3249196788681
 31
0.0
 11
318.8594186012916
 21
308.3115392087241
 31
0.0
 11
318.3772403231283
 21
308.2712096605065
 31
0.0
 11
317.9066750894293
 21
308.2050082316143
 31
0.0
 11
317.4407303853877
 21
308.1117115571509
 31
0.0
 11
316.9973226815667
 21
307.9951506282931
 31
0.0
 11
316.5620229048429
 21
307.851271637962
 31
0.0
 11
316.1588031714577
 21
307.6882598779721
 31
0.0
 11
315.7678169636428
 21
307.4978032380951
 31
0.0
 11
315.4163937498557
 21
307.2934874597307
 31
0.0
 11
315.0822441074235
 21
307.0620463160166
 31
0.0
 11
314.792487320034
 21
306.8225029367666
 31
0.0
 11
314.5261351205042
 21
306.5572411253003
 31
0.0
 11
314.3060567770742
 21
306.2890954283099
 31
0.0
 11
314.1163870930481
 21
305.9987259162225
 31
0.0
 11
313.9723390938056
 21
305.7088820010887
 31
0.0
 11
313.8654500115268
 21
305.4034708907884
 31
0.0
 11
313.8024550843952
 21
305.0993475208072
 31
0.0
 11
313.7809484721819
 21
304.7895625717325
 31
0.0
 11
313.8024550843952
 21
304.4797776226578
 31
0.0
 11
313.8654500115268
 21
304.1756542526765
 31
0.0
 11
313.9723390938056
 21
303.8702431423764
 31
0.0
 11
314.1163870930481
 21
303.5803992272424
 31
0.0
 11
314.3060567770742
 21
303.2900297151551
 31
0.0
 11
314.5261351205042
 21
303.0218840181647
 31
0.0
 11
314.792487320034
 21
302.7566222066984
 31
0.0
 11
315.0822441074235
 21
302.5170788274484
 31
0.0
 11
315.4163937498558
 21
302.2856376837343
 31
0.0
 11
315.7678169636428
 21
302.0813219053699
 31
0.0
 11
316.1588031714577
 21
301.890865265493
 31
0.0
 11
316.5620229048429
 21
301.7278535055031
 31
0.0
 11
316.9973226815667
 21
301.583974515172
 31
0.0
 11
317.4407303853877
 21
301.4674135863139
 31
0.0
 11
317.9066750894294
 21
301.3741169118505
 31
0.0
 11
318.3772403231283
 21
301.3079154829583
 31
0.0
 11
318.8594186012915
 21
301.2675859347408
 31
0.0
 11
319.3430973375036
 21
301.2542054645968
 31
0.0
 11
319.8267760737157
 21
301.2675859347408
 31
0.0
 11
320.308954351879
 21
301.3079154829583
 31
0.0
 11
320.7795195855781
 21
301.3741169118505
 31
0.0
 11
321.2454642896198
 21
301.4674135863139
 31
0.0
 11
321.6888719934407
 21
301.5839745151719
 31
0.0
 11
322.1241717701645
 21
301.7278535055031
 31
0.0
 11
322.5273915035497
 21
301.890865265493
 31
0.0
 11
322.9183777113646
 21
302.0813219053699
 31
0.0
 11
323.2698009251517
 21
302.2856376837344
 31
0.0
 11
323.6039505675839
 21
302.5170788274484
 31
0.0
 11
323.8937073549733
 21
302.7566222066984
 31
0.0
 11
324.160059554503
 21
303.0218840181647
 31
0.0
 11
324.3801378979331
 21
303.290029715155
 31
0.0
 11
324.5698075819593
 21
303.5803992272424
 31
0.0
 11
324.7138555812018
 21
303.8702431423763
 31
0.0
 11
324.8207446634805
 21
304.1756542526765
 31
0.0
 11
324.8837395906121
 21
304.4797776226578
 31
0.0
 11
324.9052462028255
 21
304.7895625717325
 31
0.0
  0
SPLINE
  5
102
330
4D
100
AcDbEntity
  8
1
  6
Continuous
 62
     7
100
AcDbSpline
210
0.0
220
0.0
230
1.0
 70
    11
 71
     3
 72
    79
 73
    75
 74
    73
 42
0.000000001
 43
0.0000000001
 44
0.00000001
 40
0.0
 40
0.0
 40
0.0
 40
0.0
 40
0.3105305852300955
 40
0.6211096995128427
 40
0.9446853825175322
 40
1.268350829332642
 40
1.615177937220611
 40
1.962073587500683
 40
2.337982250496517
 40
2.713934410283013
 40
3.120408255190437
 40
3.526909439089334
 40
3.961816264051689
 40
4.396740380766836
 40
4.855202003460596
 40
5.313674294823887
 40
5.788867662508785
 40
6.264066850589976
 40
6.747928777579631
 40
7.231792556800851
 40
7.715656336020755
 40
8.199518263006212
 40
8.674717451079255
 40
9.149910818750325
 40
9.608383110092538
 40
10.06684473275361
 40
10.50176884942245
 40
10.93667567431775
 40
11.34317685812703
 40
11.74965070290942
 40
12.12560286253658
 40
12.50151152531589
 40
12.84840717532571
 40
13.1952342828466
 40
13.51889972917787
 40
13.84247541139051
 40
14.15305452357892
 40
14.46358511619988
 40
14.7741157088209
 40
15.08469482100937
 40
15.40827050322195
 40
15.73193594955327
 40
16.07876305707406
 40
16.42565870708388
 40
16.80156736986316
 40
17.17751952949036
 40
17.58399337427266
 40
17.99049455808203
 40
18.42540138297726
 40
18.86032549964615
 40
19.31878712230724
 40
19.77725941364951
 40
20.25245278132054
 40
20.72765196939363
 40
21.21151389637908
 40
21.69537767559898
 40
22.17924145482015
 40
22.66310338180985
 40
23.13830256989108
 40
23.61349593757595
 40
24.07196822893928
 40
24.53042985163308
 40
24.96535396834818
 40
25.40026079331056
 40
25.80676197720946
 40
26.21323582211688
 40
26.58918798190346
 40
26.96509664489921
 40
27.31199229517921
 40
27.65881940306716
 40
27.98248484988222
 40
28.30606053288696
 40
28.61663964716975
 40
28.92717023239991
 40
28.92717023239991
 40
28.92717023239991
 40
28.92717023239991
 10
326.7809484721818
 20
304.7895625717325
 30
0.0
 10
326.7851645227985
 20
304.8931476035507
 30
0.0
 10
326.7935972742379
 20
305.1003338557271
 30
0.0
 10
326.8603252073831
 20
305.4095534511544
 30
0.0
 10
326.9660325882418
 20
305.7115585984872
 30
0.0
 10
327.1145554563409
 20
306.0087187878061
 30
0.0
 10
327.3010231915838
 20
306.2928654535643
 30
0.0
 10
327.5281942470004
 20
306.5684650390135
 30
0.0
 10
327.7886277049981
 20
306.8268301591134
 30
0.0
 10
328.0870338159518
 20
307.0725981367763
 30
0.0
 10
328.4135475353318
 20
307.2980307894678
 30
0.0
 10
328.7737743935639
 20
307.5067765188995
 30
0.0
 10
329.1567876007883
 20
307.6928453132347
 30
0.0
 10
329.5677373585314
 20
307.8584942629313
 30
0.0
 10
329.9959866661864
 20
307.9997086836515
 30
0.0
 10
330.4451269281772
 20
308.1174548057718
 30
0.0
 10
330.9059135989932
 20
308.2095258879855
 30
0.0
 10
331.3796124677942
 20
308.2759874615342
 30
0.0
 10
331.8591712866281
 20
308.3160311149803
 30
0.0
 10
332.3430973276198
 20
308.329363967027
 30
0.0
 10
332.8270233686073
 20
308.3160311150251
 30
0.0
 10
333.3065821874534
 20
308.2759874616284
 30
0.0
 10
333.7802810562074
 20
308.2095258881384
 30
0.0
 10
334.2410677271924
 20
308.1174548059963
 30
0.0
 10
334.6902079885714
 20
307.9997086839672
 30
0.0
 10
335.1184572984557
 20
307.8584942633597
 30
0.0
 10
335.529407048297
 20
307.6928453138055
 30
0.0
 10
335.9124202840667
 20
307.5067765196432
 30
0.0
 10
336.2726470424478
 20
307.298030790425
 30
0.0
 10
336.5991611199483
 20
307.0725981379867
 30
0.0
 10
336.8975659900964
 20
306.8268301606307
 30
0.0
 10
337.158003883777
 20
306.5684650408899
 30
0.0
 10
337.3851596015202
 20
306.2928654558747
 30
0.0
 10
337.5716823277552
 20
306.0087187906357
 30
0.0
 10
337.7200130166226
 20
305.7115586020211
 30
0.0
 10
337.8264173759856
 20
305.4095534559358
 30
0.0
 10
337.8906435017302
 20
305.1003338594654
 30
0.0
 10
337.9125469680098
 20
304.7895625717325
 30
0.0
 10
337.8906435017301
 20
304.4787912839994
 30
0.0
 10
337.8264173759857
 20
304.1695716875292
 30
0.0
 10
337.7200130166226
 20
303.8675665414438
 30
0.0
 10
337.5716823277551
 20
303.5704063528293
 30
0.0
 10
337.3851596015203
 20
303.2862596875902
 30
0.0
 10
337.1580038837769
 20
303.0106601025752
 30
0.0
 10
336.8975659900965
 20
302.7522949828341
 30
0.0
 10
336.5991611199483
 20
302.5065270054785
 30
0.0
 10
336.2726470424479
 20
302.2810943530399
 30
0.0
 10
335.9124202840667
 20
302.0723486238219
 30
0.0
 10
335.5294070482971
 20
301.8862798296595
 30
0.0
 10
335.1184572984557
 20
301.7206308801054
 30
0.0
 10
334.6902079885714
 20
301.579416459498
 30
0.0
 10
334.2410677271924
 20
301.4616703374684
 30
0.0
 10
333.7802810562074
 20
301.3695992553262
 30
0.0
 10
333.3065821874534
 20
301.3031376818365
 30
0.0
 10
332.8270233686073
 20
301.2630940284398
 30
0.0
 10
332.3430973276199
 20
301.2497611764379
 30
0.0
 10
331.8591712866281
 20
301.2630940284846
 30
0.0
 10
331.3796124677941
 20
301.3031376819306
 30
0.0
 10
330.9059135989932
 20
301.3695992554791
 30
0.0
 10
330.4451269281771
 20
301.461670337693
 30
0.0
 10
329.9959866661864
 20
301.5794164598135
 30
0.0
 10
329.5677373585314
 20
301.7206308805338
 30
0.0
 10
329.1567876007883
 20
301.8862798302302
 30
0.0
 10
328.7737743935638
 20
302.0723486245656
 30
0.0
 10
328.413547535332
 20
302.2810943539972
 30
0.0
 10
328.0870338159517
 20
302.5065270066888
 30
0.0
 10
327.788627704998
 20
302.7522949843517
 30
0.0
 10
327.5281942470006
 20
303.0106601044514
 30
0.0
 10
327.3010231915838
 20
303.2862596899007
 30
0.0
 10
327.1145554563408
 20
303.5704063556589
 30
0.0
 10
326.9660325882419
 20
303.8675665449778
 30
0.0
 10
326.860325207383
 20
304.1695716923105
 30
0.0
 10
326.793597274238
 20
304.4787912877379
 30
0.0
 10
326.7851645227986
 20
304.6859775399143
 30
0.0
 10
326.7809484721818
 20
304.7895625717325
 30
0.0
 11
326.7809484721818
 21
304.7895625717325
 31
0.0
 11
326.8024550843951
 21
305.0993475208072
 31
0.0
 11
326.8654500115267
 21
305.4034708907884
 31
0.0
 11
326.9723390938055
 21
305.7088820010886
 31
0.0
 11
327.1163870930481
 21
305.9987259162225
 31
0.0
 11
327.3060567770741
 21
306.28909542831
 31
0.0
 11
327.5261351205042
 21
306.5572411253003
 31
0.0
 11
327.792487320034
 21
306.8225029367667
 31
0.0
 11
328.0822441074234
 21
307.0620463160166
 31
0.0
 11
328.4163937498557
 21
307.2934874597307
 31
0.0
 11
328.7678169636428
 21
307.4978032380951
 31
0.0
 11
329.1588031714577
 21
307.688259877972
 31
0.0
 11
329.5620229048428
 21
307.851271637962
 31
0.0
 11
329.9973226815666
 21
307.9951506282931
 31
0.0
 11
330.4407303853876
 21
308.1117115571509
 31
0.0
 11
330.9066750894293
 21
308.2050082316142
 31
0.0
 11
331.3772403231283
 21
308.2712096605065
 31
0.0
 11
331.8594186012915
 21
308.3115392087241
 31
0.0
 11
332.3430973375036
 21
308.3249196788681
 31
0.0
 11
332.8267760737157
 21
308.3115392087241
 31
0.0
 11
333.308954351879
 21
308.2712096605065
 31
0.0
 11
333.7795195855779
 21
308.2050082316143
 31
0.0
 11
334.2454642896196
 21
308.1117115571509
 31
0.0
 11
334.6888719934406
 21
307.9951506282931
 31
0.0
 11
335.1241717701644
 21
307.851271637962
 31
0.0
 11
335.5273915035495
 21
307.6882598779721
 31
0.0
 11
335.9183777113645
 21
307.4978032380951
 31
0.0
 11
336.2698009251515
 21
307.2934874597307
 31
0.0
 11
336.6039505675838
 21
307.0620463160166
 31
0.0
 11
336.8937073549732
 21
306.8225029367666
 31
0.0
 11
337.160059554503
 21
306.5572411253003
 31
0.0
 11
337.3801378979331
 21
306.28909542831
 31
0.0
 11
337.5698075819592
 21
305.9987259162225
 31
0.0
 11
337.7138555812018
 21
305.7088820010886
 31
0.0
 11
337.8207446634805
 21
305.4034708907884
 31
0.0
 11
337.8837395906121
 21
305.0993475208072
 31
0.0
 11
337.9052462028254
 21
304.7895625717325
 31
0.0
 11
337.8837395906121
 21
304.4797776226578
 31
0.0
 11
337.8207446634805
 21
304.1756542526765
 31
0.0
 11
337.7138555812018
 21
303.8702431423764
 31
0.0
 11
337.5698075819592
 21
303.5803992272424
 31
0.0
 11
337.3801378979331
 21
303.2900297151551
 31
0.0
 11
337.160059554503
 21
303.0218840181647
 31
0.0
 11
336.8937073549733
 21
302.7566222066985
 31
0.0
 11
336.6039505675838
 21
302.5170788274484
 31
0.0
 11
336.2698009251516
 21
302.2856376837343
 31
0.0
 11
335.9183777113645
 21
302.0813219053699
 31
0.0
 11
335.5273915035496
 21
301.890865265493
 31
0.0
 11
335.1241717701644
 21
301.7278535055031
 31
0.0
 11
334.6888719934406
 21
301.583974515172
 31
0.0
 11
334.2454642896196
 21
301.4674135863139
 31
0.0
 11
333.779519585578
 21
301.3741169118505
 31
0.0
 11
333.308954351879
 21
301.3079154829583
 31
0.0
 11
332.8267760737157
 21
301.2675859347408
 31
0.0
 11
332.3430973375036
 21
301.2542054645968
 31
0.0
 11
331.8594186012916
 21
301.2675859347408
 31
0.0
 11
331.3772403231283
 21
301.3079154829583
 31
0.0
 11
330.9066750894293
 21
301.3741169118505
 31
0.0
 11
330.4407303853876
 21
301.4674135863139
 31
0.0
 11
329.9973226815666
 21
301.5839745151719
 31
0.0
 11
329.5620229048428
 21
301.7278535055031
 31
0.0
 11
329.1588031714577
 21
301.890865265493
 31
0.0
 11
328.7678169636428
 21
302.0813219053699
 31
0.0
 11
328.4163937498557
 21
302.2856376837344
 31
0.0
 11
328.0822441074234
 21
302.5170788274484
 31
0.0
 11
327.7924873200339
 21
302.7566222066984
 31
0.0
 11
327.5261351205042
 21
303.0218840181647
 31
0.0
 11
327.3060567770742
 21
303.290029715155
 31
0.0
 11
327.1163870930481
 21
303.5803992272424
 31
0.0
 11
326.9723390938055
 21
303.8702431423763
 31
0.0
 11
326.8654500115267
 21
304.1756542526765
 31
0.0
 11
326.8024550843952
 21
304.4797776226578
 31
0.0
 11
326.7809484721818
 21
304.7895625717325
 31
0.0
  0
SPLINE
  5
103
330
4D
100
AcDbEntity
  8
1
  6
Continuous
 62
     7
100
AcDbSpline
210
0.0
220
0.0
230
1.0
 70
     8
 71
     3
 72
    29
 73
    25
 74
    23
 42
0.000000001
 43
0.0000000001
 44
0.00000001
 40
0.0
 40
0.0
 40
0.0
 40
0.0
 40
0.6069077071334641
 40
1.212222618922084
 40
1.84266669998109
 40
2.474631891987968
 40
3.102420163135097
 40
3.729333881624405
 40
4.271042929453128
 40
4.81298531724136
 40
5.340107969104292
 40
5.866248914949069
 40
6.263874824440656
 40
6.661485222726956
 40
7.280966483141377
 40
7.902596723210385
 40
8.549168899022952
 40
9.195896755585052
 40
9.72241595671217
 40
10.24911839923945
 40
11.07897535377105
 40
11.90732205839671
 40
12.67331707894465
 40
13.44191268485689
 40
13.44191268485689
 40
13.44191268485689
 40
13.44191268485689
 10
173.8430973374913
 20
308.290182346372
 30
0.0
 10
174.045157165037
 20
308.280306973008
 30
0.0
 10
174.4487465247142
 20
308.2605821317953
 30
0.0
 10
175.060452072798
 20
308.1967917835739
 30
0.0
 10
175.6698691339402
 20
308.0626084858334
 30
0.0
 10
176.2682753089184
 20
307.8621528663069
 30
0.0
 10
176.8428378403921
 20
307.6035917500766
 30
0.0
 10
177.3577356377606
 20
307.2946623609721
 30
0.0
 10
177.8067545115166
 20
306.9408454370278
 30
0.0
 10
178.1806961138146
 20
306.5528207695109
 30
0.0
 10
178.4876620151217
 20
306.1158903664358
 30
0.0
 10
178.6949706725611
 20
305.6756763999994
 30
0.0
 10
178.8108732607814
 20
305.2489672799468
 30
0.0
 10
178.8615764656588
 20
304.7780518381447
 30
0.0
 10
178.8011201424177
 20
304.229077245904
 30
0.0
 10
178.5881729107883
 20
303.6313311805822
 30
0.0
 10
178.240935973636
 20
303.0897289354417
 30
0.0
 10
177.8195782480558
 20
302.6491209680515
 30
0.0
 10
177.3721647580755
 20
302.299247045082
 30
0.0
 10
176.8363283725302
 20
301.9703366627408
 30
0.0
 10
176.1714373231445
 20
301.6665980423385
 30
0.0
 10
175.3917762625079
 20
301.4418281766221
 30
0.0
 10
174.6093706464036
 20
301.3374413772314
 30
0.0
 10
174.0988101802298
 20
301.3060188867254
 30
0.0
 10
173.8430973374913
 20
301.2902810224587
 30
0.0
 11
173.8430973374913
 21
308.290182346372
 31
0.0
 11
174.4489833592495
 21
308.2549814806096
 31
0.0
 11
175.0504261787309
 21
308.1866244885254
 31
0.0
 11
175.6663173904721
 21
308.0519480027011
 31
0.0
 11
176.2657788520209
 21
307.8518831107559
 31
0.0
 11
176.8374776253408
 21
307.5925018725056
 31
0.0
 11
177.3740428423537
 21
307.2682819177276
 31
0.0
 11
177.7984753811329
 21
306.9316727777466
 31
0.0
 11
178.1732243564135
 21
306.540182346372
 31
0.0
 11
178.4747802423737
 21
306.1078371851533
 31
0.0
 11
178.6968005562075
 21
305.630834799537
 31
0.0
 11
178.8005612733505
 21
305.2469857694073
 31
0.0
 11
178.8423193711712
 21
304.8515742235931
 31
0.0
 11
178.7777257595497
 21
304.2354697693832
 31
0.0
 11
178.5701075893983
 21
303.6495355991065
 31
0.0
 11
178.2247349885434
 21
303.1029339651925
 31
0.0
 11
177.7804608619405
 21
302.6329579851121
 31
0.0
 11
177.3665904431657
 21
302.307483337541
 31
0.0
 11
176.9185515959414
 21
302.0305778393614
 31
0.0
 11
176.163790889304
 21
301.6856157511838
 31
0.0
 11
175.367634578916
 21
301.4569382614374
 31
0.0
 11
174.6096254483164
 21
301.3466181324228
 31
0.0
 11
173.8430973374913
 21
301.2902810224587
 31
0.0
  0
SPLINE
  5
104
330
4D
100
AcDbEntity
  8
1
  6
Continuous
 62
     7
100
AcDbSpline
210
0.0
220
0.0
230
1.0
 70
     8
 71
     3
 72
    29
 73
    25
 74
    23
 42
0.000000001
 43
0.0000000001
 44
0.00000001
 40
0.0
 40
0.0
 40
0.0
 40
0.0
 40
0.6069077071334358
 40
1.212222618922056
 40
1.842666699981018
 40
2.474631891987851
 40
3.102420163134983
 40
3.729333881624442
 40
4.271042929453121
 40
4.812985317241333
 40
5.340107969104216
 40
5.866248914948982
 40
6.263874824440584
 40
6.661485222726893
 40
7.280966483141251
 40
7.902596723210341
 40
8.54916889902291
 40
9.195896755585009
 40
9.72241595671206
 40
10.24911839923925
 40
11.07897535377099
 40
11.90732205839668
 40
12.67331707894462
 40
13.44191268485683
 40
13.44191268485683
 40
13.44191268485683
 40
13.44191268485683
 10
173.8430973374913
 20
308.290182346372
 30
0.0
 10
173.6410375099456
 20
308.2803069730081
 30
0.0
 10
173.2374481502684
 20
308.2605821317953
 30
0.0
 10
172.6257426021846
 20
308.1967917835739
 30
0.0
 10
172.0163255410425
 20
308.0626084858333
 30
0.0
 10
171.4179193660642
 20
307.8621528663069
 30
0.0
 10
170.8433568345905
 20
307.6035917500766
 30
0.0
 10
170.3284590372219
 20
307.2946623609722
 30
0.0
 10
169.879440163466
 20
306.9408454370278
 30
0.0
 10
169.5054985611679
 20
306.5528207695109
 30
0.0
 10
169.198532659861
 20
306.1158903664357
 30
0.0
 10
168.9912240024216
 20
305.6756763999995
 30
0.0
 10
168.8753214142013
 20
305.2489672799467
 30
0.0
 10
168.8246182093237
 20
304.7780518381448
 30
0.0
 10
168.8850745325649
 20
304.229077245904
 30
0.0
 10
169.0980217641944
 20
303.6313311805822
 30
0.0
 10
169.4452587013465
 20
303.0897289354416
 30
0.0
 10
169.8666164269268
 20
302.6491209680516
 30
0.0
 10
170.314029916907
 20
302.299247045082
 30
0.0
 10
170.8498663024523
 20
301.9703366627407
 30
0.0
 10
171.5147573518381
 20
301.6665980423386
 30
0.0
 10
172.2944184124747
 20
301.4418281766221
 30
0.0
 10
173.076824028579
 20
301.3374413772314
 30
0.0
 10
173.5873844947528
 20
301.3060188867255
 30
0.0
 10
173.8430973374913
 20
301.2902810224587
 30
0.0
 11
173.8430973374913
 21
308.290182346372
 31
0.0
 11
173.2372113157331
 21
308.2549814806096
 31
0.0
 11
172.6357684962517
 21
308.1866244885254
 31
0.0
 11
172.0198772845105
 21
308.051948002701
 31
0.0
 11
171.4204158229618
 21
307.8518831107559
 31
0.0
 11
170.8487170496418
 21
307.5925018725056
 31
0.0
 11
170.3121518326288
 21
307.2682819177276
 31
0.0
 11
169.8877192938497
 21
306.9316727777466
 31
0.0
 11
169.5129703185691
 21
306.540182346372
 31
0.0
 11
169.211414432609
 21
306.1078371851533
 31
0.0
 11
168.9893941187752
 21
305.630834799537
 31
0.0
 11
168.8856334016322
 21
305.2469857694073
 31
0.0
 11
168.8438753038114
 21
304.8515742235931
 31
0.0
 11
168.9084689154328
 21
304.2354697693833
 31
0.0
 11
169.1160870855843
 21
303.6495355991065
 31
0.0
 11
169.4614596864392
 21
303.1029339651925
 31
0.0
 11
169.9057338130421
 21
302.6329579851121
 31
0.0
 11
170.3196042318168
 21
302.307483337541
 31
0.0
 11
170.767643079041
 21
302.0305778393614
 31
0.0
 11
171.5224037856786
 21
301.6856157511838
 31
0.0
 11
172.3185600960666
 21
301.4569382614374
 31
0.0
 11
173.0765692266662
 21
301.3466181324228
 31
0.0
 11
173.8430973374913
 21
301.2902810224587
 31
0.0
  0
SPLINE
  5
105
330
4D
100
AcDbEntity
  8
1
  6
Continuous
 62
     7
100
AcDbSpline
210
0.0
220
0.0
230
1.0
 70
    11
 71
     3
 72
    79
 73
    75
 74
    73
 42
0.000000001
 43
0.0000000001
 44
0.00000001
 40
0.0
 40
0.0
 40
0.0
 40
0.0
 40
0.2803981055170415
 40
0.5607977780794366
 40
0.8427454767814657
 40
1.1246974659428
 40
1.409536444711831
 40
1.694381494092021
 40
1.983071303433656
 40
2.271767836809094
 40
2.564776135645448
 40
2.857790848031702
 40
3.155055692063341
 40
3.452325972452519
 40
3.753284820909458
 40
4.05424773638835
 40
4.357919800455153
 40
4.661594361771344
 40
4.966700742337893
 40
5.27180796317557
 40
5.576915184002897
 40
5.882021564538551
 40
6.185696125802658
 40
6.489368189795945
 40
6.790331105179725
 40
7.091289953518662
 40
7.388560233767464
 40
7.685825077633667
 40
7.978839789830477
 40
8.27184808844914
 40
8.560544621579837
 40
8.849234430642639
 40
9.134079479707395
 40
9.418918458106349
 40
9.700870446812832
 40
9.98281814485597
 40
10.26321781600875
 40
10.54361593035229
 40
10.82401404469589
 40
11.10441371584873
 40
11.38636141389198
 40
11.66831340259846
 40
11.95315238099739
 40
12.23799743006217
 40
12.52668723912501
 40
12.81538377225566
 40
13.10839207087431
 40
13.40140678307108
 40
13.69867162693728
 40
13.99594190718613
 40
14.29690075552504
 40
14.59786367090885
 40
14.90153573490212
 40
15.20521029616622
 40
15.51031667670188
 40
15.81542389752921
 40
16.12053111836683
 40
16.42563749893344
 40
16.72931206024961
 40
17.03298412431641
 40
17.33394703979529
 40
17.63490588825224
 40
17.93217616864137
 40
18.2294410126731
 40
18.52245572505936
 40
18.81546402389565
 40
19.10416055727105
 40
19.39285036661273
 40
19.67769541599292
 40
19.96253439476195
 40
20.24448638392329
 40
20.52643408262543
 40
20.80683375518785
 40
21.08723186070498
 40
21.08723186070498
 40
21.08723186070498
 40
21.08723186070498
 10
162.5847670882935
 20
308.290182346372
 30
0.0
 10
162.4912665482514
 20
308.287600960566
 30
0.0
 10
162.3042649454493
 20
308.2824381798613
 30
0.0
 10
162.0257805342561
 20
308.2409658312979
 30
0.0
 10
161.7518383371037
 20
308.1750656714561
 30
0.0
 10
161.4839101713349
 20
308.0828335624988
 30
0.0
 10
161.2248643834644
 20
307.96575137337
 30
0.0
 10
160.9757050890474
 20
307.8242750919709
 30
0.0
 10
160.7393950686332
 20
307.6599927461348
 30
0.0
 10
160.5166200744955
 20
307.473532598056
 30
0.0
 10
160.3101640419895
 20
307.2671081232428
 30
0.0
 10
160.1205512981495
 20
307.0413904289193
 30
0.0
 10
159.950152122031
 20
306.7990996306744
 30
0.0
 10
159.7994393142353
 20
306.5410421379306
 30
0.0
 10
159.670216177526
 20
306.2702149345379
 30
0.0
 10
159.562936504161
 20
305.9876980811248
 30
0.0
 10
159.4787820004277
 20
305.6965101106096
 30
0.0
 10
159.4181387264199
 20
305.3981313377685
 30
0.0
 10
159.3816049639733
 20
305.0953703659574
 30
0.0
 10
159.3693859330617
 20
304.7901823557749
 30
0.0
 10
159.3816049636231
 20
304.4849943455901
 30
0.0
 10
159.4181387257188
 20
304.1822333737636
 30
0.0
 10
159.4787819993731
 20
303.8838546009206
 30
0.0
 10
159.5629365027504
 20
303.5926666303169
 30
0.0
 10
159.6702161757548
 20
303.3101497771007
 30
0.0
 10
159.7994393120985
 20
303.0393225728046
 30
0.0
 10
159.9501521195219
 20
302.7812650831781
 30
0.0
 10
160.120551295261
 20
302.5389742731216
 30
0.0
 10
160.310164038712
 20
302.3132566219597
 30
0.0
 10
160.5166200708187
 20
302.1068319869657
 30
0.0
 10
160.7393950645425
 20
301.9203724278174
 30
0.0
 10
160.9757050845244
 20
301.7560879001319
 30
0.0
 10
161.2248643784787
 20
301.6146196570837
 30
0.0
 10
161.4839101658392
 20
301.4975076534999
 30
0.0
 10
161.751838330973
 20
301.4053857350411
 30
0.0
 10
162.0257805271727
 20
301.3390759694835
 30
0.0
 10
162.3042649402093
 20
301.2991243043938
 30
0.0
 10
162.5847670882935
 20
301.2857113947728
 30
0.0
 10
162.8652692363777
 20
301.2991243043936
 30
0.0
 10
163.1437536494144
 20
301.3390759694835
 30
0.0
 10
163.4176958456142
 20
301.405385735041
 30
0.0
 10
163.685624010748
 20
301.4975076535001
 30
0.0
 10
163.9446697981084
 20
301.6146196570837
 30
0.0
 10
164.1938290920629
 20
301.7560879001318
 30
0.0
 10
164.4301391120447
 20
301.9203724278176
 30
0.0
 10
164.6529141057685
 20
302.1068319869656
 30
0.0
 10
164.8593701378752
 20
302.3132566219597
 30
0.0
 10
165.0489828813261
 20
302.5389742731216
 30
0.0
 10
165.2193820570652
 20
302.7812650831781
 30
0.0
 10
165.3700948644887
 20
303.0393225728045
 30
0.0
 10
165.4993180008325
 20
303.3101497771008
 30
0.0
 10
165.6065976738368
 20
303.5926666303167
 30
0.0
 10
165.6907521772139
 20
303.8838546009206
 30
0.0
 10
165.7513954508682
 20
304.1822333737635
 30
0.0
 10
165.787929212964
 20
304.48499434559
 30
0.0
 10
165.8001482435255
 20
304.7901823557749
 30
0.0
 10
165.7879292126139
 20
305.0953703659574
 30
0.0
 10
165.7513954501671
 20
305.3981313377685
 30
0.0
 10
165.6907521761596
 20
305.6965101106097
 30
0.0
 10
165.6065976724262
 20
305.9876980811247
 30
0.0
 10
165.4993179990612
 20
306.2702149345379
 30
0.0
 10
165.3700948623519
 20
306.5410421379305
 30
0.0
 10
165.219382054556
 20
306.7990996306744
 30
0.0
 10
165.0489828784376
 20
307.0413904289193
 30
0.0
 10
164.8593701345977
 20
307.2671081232428
 30
0.0
 10
164.6529141020917
 20
307.473532598056
 30
0.0
 10
164.430139107954
 20
307.6599927461348
 30
0.0
 10
164.1938290875398
 20
307.8242750919709
 30
0.0
 10
163.9446697931228
 20
307.96575137337
 30
0.0
 10
163.6856240052524
 20
308.0828335624989
 30
0.0
 10
163.4176958394835
 20
308.1750656714562
 30
0.0
 10
163.1437536423309
 20
308.240965831298
 30
0.0
 10
162.8652692311378
 20
308.2824381798613
 30
0.0
 10
162.6782676283356
 20
308.287600960566
 30
0.0
 10
162.5847670882935
 20
308.290182346372
 30
0.0
 11
162.5847670882935
 21
308.290182346372
 31
0.0
 11
162.3046870894239
 21
308.2768295610739
 31
0.0
 11
162.0271292810452
 21
308.2370094819147
 31
0.0
 11
161.7530778766664
 21
308.1707498991907
 31
0.0
 11
161.486435016392
 21
308.0791065191226
 31
0.0
 11
161.226846591856
 21
307.9618585188375
 31
0.0
 11
160.9791130159605
 21
307.8212712596175
 31
0.0
 11
160.7420125313515
 21
307.6565740642655
 31
0.0
 11
160.5205780020166
 21
307.4713378972884
 31
0.0
 11
160.3132946127069
 21
307.264245020373
 31
0.0
 11
160.1247623289293
 21
307.0399389802747
 31
0.0
 11
159.9536737823557
 21
306.796844149574
 31
0.0
 11
159.8036926556328
 21
306.540182346372
 31
0.0
 11
159.6740158757584
 21
306.2685941264008
 31
0.0
 11
159.567124521681
 21
305.9872528480117
 31
0.0
 11
159.4827584603508
 21
305.6955353644664
 31
0.0
 11
159.422245930115
 21
305.3979509682062
 31
0.0
 11
159.385666981552
 21
305.095045233672
 31
0.0
 11
159.3734589436273
 21
304.790182346372
 31
0.0
 11
159.385666981552
 21
304.4853194590719
 31
0.0
 11
159.422245930115
 21
304.1824137245375
 31
0.0
 11
159.4827584603507
 21
303.8848293282774
 31
0.0
 11
159.567124521681
 21
303.5931118447321
 31
0.0
 11
159.6740158757584
 21
303.3117705663431
 31
0.0
 11
159.8036926556328
 21
303.040182346372
 31
0.0
 11
159.9536737823558
 21
302.7835205431699
 31
0.0
 11
160.1247623289293
 21
302.540425712469
 31
0.0
 11
160.3132946127069
 21
302.3161196723707
 31
0.0
 11
160.5205780020166
 21
302.1090267954554
 31
0.0
 11
160.7420125313515
 21
301.9237906284783
 31
0.0
 11
160.9791130159605
 21
301.7590934331262
 31
0.0
 11
161.226846591856
 21
301.6185061739063
 31
0.0
 11
161.486435016392
 21
301.5012581736211
 31
0.0
 11
161.7530778766664
 21
301.4096147935531
 31
0.0
 11
162.0271292810452
 21
301.3433552108292
 31
0.0
 11
162.3046870894239
 21
301.3035351316701
 31
0.0
 11
162.5847670882935
 21
301.290182346372
 31
0.0
 11
162.8648470871632
 21
301.3035351316701
 31
0.0
 11
163.1424048955419
 21
301.3433552108292
 31
0.0
 11
163.4164562999208
 21
301.4096147935531
 31
0.0
 11
163.6830991601952
 21
301.5012581736211
 31
0.0
 11
163.9426875847312
 21
301.6185061739063
 31
0.0
 11
164.1904211606267
 21
301.7590934331262
 31
0.0
 11
164.4275216452357
 21
301.9237906284783
 31
0.0
 11
164.6489561745706
 21
302.1090267954554
 31
0.0
 11
164.8562395638803
 21
302.3161196723707
 31
0.0
 11
165.0447718476578
 21
302.540425712469
 31
0.0
 11
165.2158603942314
 21
302.7835205431699
 31
0.0
 11
165.3658415209544
 21
303.040182346372
 31
0.0
 11
165.4955183008288
 21
303.3117705663431
 31
0.0
 11
165.6024096549062
 21
303.5931118447321
 31
0.0
 11
165.6867757162364
 21
303.8848293282774
 31
0.0
 11
165.7472882464721
 21
304.1824137245375
 31
0.0
 11
165.7838671950352
 21
304.4853194590719
 31
0.0
 11
165.7960752329599
 21
304.790182346372
 31
0.0
 11
165.7838671950352
 21
305.095045233672
 31
0.0
 11
165.7472882464721
 21
305.3979509682062
 31
0.0
 11
165.6867757162364
 21
305.6955353644664
 31
0.0
 11
165.6024096549062
 21
305.9872528480117
 31
0.0
 11
165.4955183008288
 21
306.2685941264008
 31
0.0
 11
165.3658415209544
 21
306.540182346372
 31
0.0
 11
165.2158603942314
 21
306.7968441495739
 31
0.0
 11
165.0447718476578
 21
307.0399389802747
 31
0.0
 11
164.8562395638803
 21
307.2642450203731
 31
0.0
 11
164.6489561745706
 21
307.4713378972884
 31
0.0
 11
164.4275216452358
 21
307.6565740642655
 31
0.0
 11
164.1904211606267
 21
307.8212712596175
 31
0.0
 11
163.9426875847312
 21
307.9618585188375
 31
0.0
 11
163.6830991601952
 21
308.0791065191226
 31
0.0
 11
163.4164562999208
 21
308.1707498991907
 31
0.0
 11
163.1424048955419
 21
308.2370094819147
 31
0.0
 11
162.8648470871632
 21
308.2768295610739
 31
0.0
 11
162.5847670882935
 21
308.290182346372
 31
0.0
  0
SPLINE
  5
106
330
4D
100
AcDbEntity
  8
1
  6
Continuous
 62
     7
100
AcDbSpline
210
0.0
220
0.0
230
1.0
 70
    11
 71
     3
 72
    79
 73
    75
 74
    73
 42
0.000000001
 43
0.0000000001
 44
0.00000001
 40
0.0
 40
0.0
 40
0.0
 40
0.0
 40
0.2803981055170415
 40
0.5607977780794366
 40
0.842745476781521
 40
1.124697465942802
 40
1.409536444711833
 40
1.694381494092023
 40
1.983071303433658
 40
2.271767836809095
 40
2.564776135645469
 40
2.857790848031705
 40
3.155055692063343
 40
3.452325972452522
 40
3.753284820909473
 40
4.054247736388355
 40
4.357919800455198
 40
4.661594361771378
 40
4.966700742337919
 40
5.271807963175595
 40
5.576915184002921
 40
5.882021564538568
 40
6.185696125802631
 40
6.489368189795981
 40
6.79033110517975
 40
7.091289953518699
 40
7.388560233767486
 40
7.685825077633705
 40
7.978839789830497
 40
8.271848088449179
 40
8.560544621579876
 40
8.849234430642678
 40
9.13407947970741
 40
9.418918458106388
 40
9.700870446812818
 40
9.982818144856012
 40
10.26321781600879
 40
10.54361593035233
 40
10.82401404469587
 40
11.10441371584869
 40
11.38636141389191
 40
11.66831340259839
 40
11.95315238099737
 40
12.2379974300622
 40
12.52668723912506
 40
12.81538377225569
 40
13.10839207087432
 40
13.40140678307103
 40
13.69867162693731
 40
13.99594190718608
 40
14.29690075552497
 40
14.5978636709088
 40
14.90153573490207
 40
15.20521029616619
 40
15.51031667670184
 40
15.81542389752917
 40
16.12053111836679
 40
16.42563749893339
 40
16.72931206024958
 40
17.03298412431639
 40
17.33394703979527
 40
17.63490588825222
 40
17.9321761686414
 40
18.22944101267308
 40
18.52245572505934
 40
18.81546402389555
 40
19.10416055727097
 40
19.39285036661263
 40
19.67769541599289
 40
19.96253439476195
 40
20.24448638392331
 40
20.52643408262539
 40
20.80683375518779
 40
21.08723186070486
 40
21.08723186070486
 40
21.08723186070486
 40
21.08723186070486
 10
185.1014275866891
 20
308.290182346372
 30
0.0
 10
185.1949281267313
 20
308.287600960566
 30
0.0
 10
185.3819297295333
 20
308.2824381798613
 30
0.0
 10
185.6604141407265
 20
308.240965831298
 30
0.0
 10
185.934356337879
 20
308.1750656714561
 30
0.0
 10
186.2022845036477
 20
308.0828335624988
 30
0.0
 10
186.4613302915183
 20
307.96575137337
 30
0.0
 10
186.7104895859351
 20
307.8242750919709
 30
0.0
 10
186.9467996063494
 20
307.6599927461348
 30
0.0
 10
187.1695746004871
 20
307.4735325980558
 30
0.0
 10
187.3760306329931
 20
307.2671081232429
 30
0.0
 10
187.5656433768331
 20
307.0413904289193
 30
0.0
 10
187.7360425529515
 20
306.7990996306743
 30
0.0
 10
187.8867553607473
 20
306.5410421379306
 30
0.0
 10
188.0159784974566
 20
306.270214934538
 30
0.0
 10
188.1232581708215
 20
305.9876980811247
 30
0.0
 10
188.2074126745551
 20
305.6965101106097
 30
0.0
 10
188.2680559485627
 20
305.3981313377685
 30
0.0
 10
188.3045897110094
 20
305.0953703659575
 30
0.0
 10
188.3168087419209
 20
304.7901823557748
 30
0.0
 10
188.3045897113594
 20
304.4849943455901
 30
0.0
 10
188.2680559492639
 20
304.1822333737635
 30
0.0
 10
188.2074126756094
 20
303.8838546009206
 30
0.0
 10
188.1232581722322
 20
303.5926666303168
 30
0.0
 10
188.0159784992278
 20
303.3101497771007
 30
0.0
 10
187.8867553628841
 20
303.0393225728046
 30
0.0
 10
187.7360425554607
 20
302.781265083178
 30
0.0
 10
187.5656433797216
 20
302.5389742731217
 30
0.0
 10
187.3760306362706
 20
302.3132566219596
 30
0.0
 10
187.1695746041639
 20
302.1068319869657
 30
0.0
 10
186.9467996104401
 20
301.9203724278174
 30
0.0
 10
186.7104895904582
 20
301.7560879001319
 30
0.0
 10
186.4613302965038
 20
301.6146196570836
 30
0.0
 10
186.2022845091435
 20
301.4975076535
 30
0.0
 10
185.9343563440096
 20
301.405385735041
 30
0.0
 10
185.6604141478099
 20
301.3390759694835
 30
0.0
 10
185.3819297347733
 20
301.2991243043937
 30
0.0
 10
185.1014275866891
 20
301.2857113947728
 30
0.0
 10
184.8209254386049
 20
301.2991243043938
 30
0.0
 10
184.5424410255683
 20
301.3390759694834
 30
0.0
 10
184.2684988293685
 20
301.4053857350411
 30
0.0
 10
184.0005706642347
 20
301.4975076535
 30
0.0
 10
183.7415248768742
 20
301.6146196570837
 30
0.0
 10
183.4923655829197
 20
301.7560879001319
 30
0.0
 10
183.256055562938
 20
301.9203724278177
 30
0.0
 10
183.0332805692141
 20
302.1068319869656
 30
0.0
 10
182.8268245371075
 20
302.3132566219597
 30
0.0
 10
182.6372117936566
 20
302.5389742731217
 30
0.0
 10
182.4668126179175
 20
302.7812650831781
 30
0.0
 10
182.3160998104939
 20
303.0393225728046
 30
0.0
 10
182.1868766741502
 20
303.3101497771006
 30
0.0
 10
182.0795970011459
 20
303.5926666303167
 30
0.0
 10
181.9954424977688
 20
303.8838546009208
 30
0.0
 10
181.9347992241143
 20
304.1822333737634
 30
0.0
 10
181.8982654620187
 20
304.4849943455902
 30
0.0
 10
181.8860464314571
 20
304.7901823557748
 30
0.0
 10
181.8982654623688
 20
305.0953703659575
 30
0.0
 10
181.9347992248154
 20
305.3981313377685
 30
0.0
 10
181.9954424988231
 20
305.6965101106097
 30
0.0
 10
182.0795970025565
 20
305.9876980811246
 30
0.0
 10
182.1868766759215
 20
306.2702149345379
 30
0.0
 10
182.3160998126308
 20
306.5410421379307
 30
0.0
 10
182.4668126204267
 20
306.7990996306743
 30
0.0
 10
182.6372117965451
 20
307.0413904289194
 30
0.0
 10
182.826824540385
 20
307.2671081232428
 30
0.0
 10
183.0332805728909
 20
307.473532598056
 30
0.0
 10
183.2560555670286
 20
307.6599927461348
 30
0.0
 10
183.4923655874428
 20
307.8242750919709
 30
0.0
 10
183.7415248818598
 20
307.9657513733699
 30
0.0
 10
184.0005706697305
 20
308.082833562499
 30
0.0
 10
184.2684988354991
 20
308.175065671456
 30
0.0
 10
184.5424410326518
 20
308.2409658312981
 30
0.0
 10
184.8209254438448
 20
308.2824381798611
 30
0.0
 10
185.007927046647
 20
308.287600960566
 30
0.0
 10
185.1014275866891
 20
308.290182346372
 30
0.0
 11
185.1014275866891
 21
308.290182346372
 31
0.0
 11
185.3815075855587
 21
308.2768295610739
 31
0.0
 11
185.6590653939374
 21
308.2370094819147
 31
0.0
 11
185.9331167983163
 21
308.1707498991907
 31
0.0
 11
186.1997596585906
 21
308.0791065191226
 31
0.0
 11
186.4593480831266
 21
307.9618585188375
 31
0.0
 11
186.7070816590221
 21
307.8212712596175
 31
0.0
 11
186.9441821436311
 21
307.6565740642655
 31
0.0
 11
187.165616672966
 21
307.4713378972884
 31
0.0
 11
187.3729000622758
 21
307.264245020373
 31
0.0
 11
187.5614323460533
 21
307.0399389802747
 31
0.0
 11
187.7325208926269
 21
306.796844149574
 31
0.0
 11
187.8825020193498
 21
306.540182346372
 31
0.0
 11
188.0121787992242
 21
306.2685941264008
 31
0.0
 11
188.1190701533016
 21
305.9872528480117
 31
0.0
 11
188.2034362146319
 21
305.6955353644664
 31
0.0
 11
188.2639487448677
 21
305.3979509682062
 31
0.0
 11
188.3005276934306
 21
305.095045233672
 31
0.0
 11
188.3127357313553
 21
304.790182346372
 31
0.0
 11
188.3005276934306
 21
304.4853194590719
 31
0.0
 11
188.2639487448677
 21
304.1824137245375
 31
0.0
 11
188.2034362146319
 21
303.8848293282775
 31
0.0
 11
188.1190701533016
 21
303.5931118447321
 31
0.0
 11
188.0121787992242
 21
303.3117705663431
 31
0.0
 11
187.8825020193498
 21
303.040182346372
 31
0.0
 11
187.7325208926269
 21
302.7835205431699
 31
0.0
 11
187.5614323460533
 21
302.540425712469
 31
0.0
 11
187.3729000622758
 21
302.3161196723707
 31
0.0
 11
187.165616672966
 21
302.1090267954554
 31
0.0
 11
186.9441821436311
 21
301.9237906284783
 31
0.0
 11
186.7070816590221
 21
301.7590934331262
 31
0.0
 11
186.4593480831267
 21
301.6185061739063
 31
0.0
 11
186.1997596585906
 21
301.5012581736211
 31
0.0
 11
185.9331167983163
 21
301.4096147935531
 31
0.0
 11
185.6590653939374
 21
301.3433552108292
 31
0.0
 11
185.3815075855587
 21
301.3035351316701
 31
0.0
 11
185.1014275866891
 21
301.290182346372
 31
0.0
 11
184.8213475878195
 21
301.3035351316701
 31
0.0
 11
184.5437897794408
 21
301.3433552108292
 31
0.0
 11
184.2697383750619
 21
301.4096147935531
 31
0.0
 11
184.0030955147875
 21
301.5012581736211
 31
0.0
 11
183.7435070902515
 21
301.6185061739063
 31
0.0
 11
183.4957735143559
 21
301.7590934331262
 31
0.0
 11
183.2586730297469
 21
301.9237906284783
 31
0.0
 11
183.037238500412
 21
302.1090267954554
 31
0.0
 11
182.8299551111024
 21
302.3161196723707
 31
0.0
 11
182.6414228273249
 21
302.540425712469
 31
0.0
 11
182.4703342807513
 21
302.7835205431699
 31
0.0
 11
182.3203531540283
 21
303.040182346372
 31
0.0
 11
182.1906763741539
 21
303.3117705663431
 31
0.0
 11
182.0837850200765
 21
303.5931118447321
 31
0.0
 11
181.9994189587463
 21
303.8848293282774
 31
0.0
 11
181.9389064285105
 21
304.1824137245375
 31
0.0
 11
181.9023274799475
 21
304.4853194590719
 31
0.0
 11
181.8901194420228
 21
304.790182346372
 31
0.0
 11
181.9023274799475
 21
305.095045233672
 31
0.0
 11
181.9389064285105
 21
305.3979509682062
 31
0.0
 11
181.9994189587463
 21
305.6955353644664
 31
0.0
 11
182.0837850200765
 21
305.9872528480117
 31
0.0
 11
182.1906763741539
 21
306.2685941264008
 31
0.0
 11
182.3203531540283
 21
306.540182346372
 31
0.0
 11
182.4703342807513
 21
306.796844149574
 31
0.0
 11
182.6414228273249
 21
307.0399389802747
 31
0.0
 11
182.8299551111024
 21
307.2642450203731
 31
0.0
 11
183.037238500412
 21
307.4713378972884
 31
0.0
 11
183.2586730297469
 21
307.6565740642655
 31
0.0
 11
183.4957735143559
 21
307.8212712596175
 31
0.0
 11
183.7435070902515
 21
307.9618585188375
 31
0.0
 11
184.0030955147875
 21
308.0791065191226
 31
0.0
 11
184.2697383750619
 21
308.1707498991907
 31
0.0
 11
184.5437897794408
 21
308.2370094819147
 31
0.0
 11
184.8213475878195
 21
308.2768295610739
 31
0.0
 11
185.1014275866891
 21
308.290182346372
 31
0.0
  0
ENDBLK
  5
4F
330
4D
100
AcDbEntity
  8
0
100
AcDbBlockEnd
  0
BLOCK
  5
51
330
50
100
AcDbEntity
  8
0
100
AcDbBlockBegin
  2
B4111L-0-13
 70
     0
 10
1389.661504197504
 20
181.2901823463719
 30
0.0
  3
B4111L-0-13
  1

  0
LINE
  5
107
330
50
100
AcDbEntity
  8
1
  6
PHANTOM
 62
     4
100
AcDbLine
 10
207.6819841702899
 20
275.790182346372
 30
0.0
 11
211.8430973374914
 21
275.790182346372
 31
0.0
  0
LINE
  5
108
330
50
100
AcDbEntity
  8
1
  6
PHANTOM
 62
     4
100
AcDbLine
 10
200.0042105046927
 20
275.790182346372
 30
0.0
 11
207.6819841702899
 21
275.790182346372
 31
0.0
  0
LINE
  5
109
330
50
100
AcDbEntity
  8
1
  6
Continuous
 62
     7
100
AcDbLine
 10
200.0042105046927
 20
275.790182346372
 30
0.0
 11
207.6819841702899
 21
275.790182346372
 31
0.0
  0
LINE
  5
10A
330
50
100
AcDbEntity
  8
1
  6
Continuous
 62
     7
100
AcDbLine
 10
187.8785105488389
 20
425.7901823463712
 30
0.0
 11
192.7530973374889
 21
425.7901823463712
 31
0.0
  0
LINE
  5
10B
330
50
100
AcDbEntity
  8
1
  6
Continuous
 62
     7
100
AcDbLine
 10
192.7530973374889
 20
425.7901823463712
 30
0.0
 11
192.7530973374889
 21
429.7901823463712
 31
0.0
  0
LINE
  5
10C
330
50
100
AcDbEntity
  8
1
  6
Continuous
 62
     7
100
AcDbLine
 10
192.7530973374889
 20
429.7901823463712
 30
0.0
 11
187.8785105488389
 21
429.7901823463712
 31
0.0
  0
LINE
  5
10D
330
50
100
AcDbEntity
  8
1
  6
Continuous
 62
     7
100
AcDbLine
 10
316.7607678503557
 20
273.7901823463721
 30
0.0
 11
334.9254268246518
 21
273.7901823463721
 31
0.0
  0
LINE
  5
10E
330
50
100
AcDbEntity
  8
1
  6
Continuous
 62
     7
100
AcDbLine
 10
333.3486508369676
 20
288.790182346372
 30
0.0
 11
340.8542043364336
 21
275.790182346372
 31
0.0
  0
LINE
  5
10F
330
50
100
AcDbEntity
  8
1
  6
Continuous
 62
     7
100
AcDbLine
 10
340.8542043364336
 20
275.790182346372
 30
0.0
 11
333.3486508369676
 21
262.7901823463721
 31
0.0
  0
LINE
  5
110
330
50
100
AcDbEntity
  8
1
  6
Continuous
 62
     7
100
AcDbLine
 10
318.3375438380378
 20
288.790182346372
 30
0.0
 11
333.3486508369676
 21
288.790182346372
 31
0.0
  0
LINE
  5
111
330
50
100
AcDbEntity
  8
1
  6
Continuous
 62
     7
100
AcDbLine
 10
310.8319903385727
 20
275.790182346372
 30
0.0
 11
318.3375438380378
 21
288.790182346372
 31
0.0
  0
LINE
  5
112
330
50
100
AcDbEntity
  8
1
  6
Continuous
 62
     7
100
AcDbLine
 10
318.3375438380378
 20
262.7901823463721
 30
0.0
 11
310.8319903385727
 21
275.790182346372
 31
0.0
  0
LINE
  5
113
330
50
100
AcDbEntity
  8
1
  6
Continuous
 62
     7
100
AcDbLine
 10
333.3486508369676
 20
262.7901823463721
 30
0.0
 11
318.3375438380378
 21
262.7901823463721
 31
0.0
  0
LINE
  5
114
330
50
100
AcDbEntity
  8
1
  6
Continuous
 62
     2
100
AcDbLine
 10
337.8430973375036
 20
298.491144240695
 30
0.0
 11
337.0300973375026
 21
299.7901823463718
 31
0.0
  0
LINE
  5
115
330
50
100
AcDbEntity
  8
1
  6
Continuous
 62
     2
100
AcDbLine
 10
337.0300973375026
 20
301.2542054645968
 30
0.0
 11
337.0300973375026
 21
299.7901823463718
 31
0.0
  0
LINE
  5
116
330
50
100
AcDbEntity
  8
1
  6
Continuous
 62
     7
100
AcDbLine
 10
337.8430973375036
 20
298.491144240695
 30
0.0
 11
337.8430973375036
 21
301.2542054645968
 31
0.0
  0
LINE
  5
117
330
50
100
AcDbEntity
  8
1
  6
Continuous
 62
     7
100
AcDbLine
 10
311.8430973375036
 20
264.5401823463718
 30
0.0
 11
312.3825067115317
 21
264.5401823463718
 31
0.0
  0
LINE
  5
118
330
50
100
AcDbEntity
  8
1
  6
Continuous
 62
     7
100
AcDbLine
 10
339.1212188970378
 20
297.2130226811611
 30
0.0
 11
340.1075179265146
 21
278.3933160847302
 31
0.0
  0
LINE
  5
119
330
50
100
AcDbEntity
  8
1
  6
Continuous
 62
     2
100
AcDbLine
 10
314.6560973375037
 20
299.7901823463718
 30
0.0
 11
314.6560973375037
 21
301.2542054645968
 31
0.0
  0
LINE
  5
11A
330
50
100
AcDbEntity
  8
1
  6
Continuous
 62
     7
100
AcDbLine
 10
311.8430973375036
 20
264.5401823463718
 30
0.0
 11
311.8430973375036
 21
265.3126823463719
 31
0.0
  0
LINE
  5
11B
330
50
100
AcDbEntity
  8
1
  6
Continuous
 62
     7
100
AcDbLine
 10
337.8430973375036
 20
298.491144240695
 30
0.0
 11
339.1212188970378
 21
297.2130226811611
 31
0.0
  0
LINE
  5
11C
330
50
100
AcDbEntity
  8
1
  6
Continuous
 62
     7
100
AcDbLine
 10
312.5649757779697
 20
297.2130226811609
 30
0.0
 11
313.8430973375036
 21
298.491144240695
 31
0.0
  0
LINE
  5
11D
330
50
100
AcDbEntity
  8
1
  6
Continuous
 62
     7
100
AcDbLine
 10
309.8304542991077
 20
265.3126823463719
 30
0.0
 11
309.8304542991077
 21
266.4746823463719
 31
0.0
  0
LINE
  5
11E
330
50
100
AcDbEntity
  8
1
  6
Continuous
 62
     7
100
AcDbLine
 10
337.0300973375026
 20
299.7901823463718
 30
0.0
 11
337.8430973375036
 21
299.790182346372
 31
0.0
  0
LINE
  5
11F
330
50
100
AcDbEntity
  8
1
  6
Continuous
 62
     7
100
AcDbLine
 10
311.8430973375036
 20
265.3126823463719
 30
0.0
 11
302.3430973375035
 21
265.3126823463719
 31
0.0
  0
LINE
  5
120
330
50
100
AcDbEntity
  8
1
  6
Continuous
 62
     2
100
AcDbLine
 10
302.3430973375035
 20
266.4746823463719
 30
0.0
 11
309.8304542991077
 21
266.4746823463719
 31
0.0
  0
LINE
  5
121
330
50
100
AcDbEntity
  8
1
  6
Continuous
 62
     2
100
AcDbLine
 10
311.8430973375036
 20
265.3126823463719
 30
0.0
 11
309.8304542991077
 21
266.4746823463719
 31
0.0
  0
LINE
  5
122
330
50
100
AcDbEntity
  8
1
  6
Continuous
 62
     7
100
AcDbLine
 10
309.8304542991088
 20
285.1056823463717
 30
0.0
 11
309.8304542991088
 21
286.2676823463715
 31
0.0
  0
LINE
  5
123
330
50
100
AcDbEntity
  8
1
  6
Continuous
 62
     7
100
AcDbLine
 10
313.8430973375036
 20
301.2542054645968
 30
0.0
 11
313.8430973375036
 21
298.6002634415712
 31
0.0
  0
LINE
  5
124
330
50
100
AcDbEntity
  8
1
  6
Continuous
 62
     7
100
AcDbLine
 10
313.8430973375036
 20
299.7901823463718
 30
0.0
 11
314.6560973375037
 21
299.7901823463718
 31
0.0
  0
LINE
  5
125
330
50
100
AcDbEntity
  8
1
  6
Continuous
 62
     7
100
AcDbLine
 10
313.8430973375036
 20
299.7901823463718
 30
0.0
 11
313.8430973375036
 21
298.6002634415712
 31
0.0
  0
LINE
  5
126
330
50
100
AcDbEntity
  8
1
  6
Continuous
 62
     2
100
AcDbLine
 10
314.6560973375037
 20
299.7901823463718
 30
0.0
 11
313.8430973375036
 21
298.491144240695
 31
0.0
  0
LINE
  5
127
330
50
100
AcDbEntity
  8
1
  6
Continuous
 62
     7
100
AcDbLine
 10
302.3430973375035
 20
286.2676823463715
 30
0.0
 11
311.8430973375036
 21
286.2676823463715
 31
0.0
  0
LINE
  5
128
330
50
100
AcDbEntity
  8
1
  6
Continuous
 62
     2
100
AcDbLine
 10
302.3430973375035
 20
285.1056823463717
 30
0.0
 11
309.8304542991088
 21
285.1056823463717
 31
0.0
  0
LINE
  5
129
330
50
100
AcDbEntity
  8
1
  6
Continuous
 62
     2
100
AcDbLine
 10
309.8304542991088
 20
285.1056823463717
 30
0.0
 11
311.8430973375036
 21
286.2676823463715
 31
0.0
  0
LINE
  5
12A
330
50
100
AcDbEntity
  8
1
  6
Continuous
 62
     7
100
AcDbLine
 10
313.8430973375036
 20
298.6002634415712
 30
0.0
 11
313.8430973375036
 21
298.491144240695
 31
0.0
  0
LINE
  5
12B
330
50
100
AcDbEntity
  8
1
  6
Continuous
 62
     7
100
AcDbLine
 10
313.8430973375036
 20
298.6002634415712
 30
0.0
 11
313.8430973375036
 21
298.491144240695
 31
0.0
  0
LINE
  5
12C
330
50
100
AcDbEntity
  8
1
  6
Continuous
 62
     7
100
AcDbLine
 10
314.6560973375037
 20
299.7901823463718
 30
0.0
 11
337.0300973375026
 21
299.7901823463718
 31
0.0
  0
LINE
  5
12D
330
50
100
AcDbEntity
  8
1
  6
Continuous
 62
     7
100
AcDbLine
 10
337.8430973375036
 20
298.491144240695
 30
0.0
 11
313.8430973375036
 21
298.491144240695
 31
0.0
  0
LINE
  5
12E
330
50
100
AcDbEntity
  8
1
  6
Continuous
 62
     7
100
AcDbLine
 10
312.5649757779697
 20
297.2130226811609
 30
0.0
 11
339.1212188970378
 21
297.2130226811611
 31
0.0
  0
LINE
  5
12F
330
50
100
AcDbEntity
  8
1
  6
Continuous
 62
     7
100
AcDbLine
 10
311.8430973375036
 20
286.2676823463715
 30
0.0
 11
311.8430973375036
 21
277.5414710404074
 31
0.0
  0
LINE
  5
130
330
50
100
AcDbEntity
  8
1
  6
Continuous
 62
     7
100
AcDbLine
 10
309.8304542991077
 20
266.4746823463719
 30
0.0
 11
309.8304542991088
 21
285.1056823463717
 31
0.0
  0
LINE
  5
131
330
50
100
AcDbEntity
  8
1
  6
Continuous
 62
     7
100
AcDbLine
 10
311.8430973375036
 20
274.0388936523365
 30
0.0
 11
311.8430973375036
 21
265.3126823463719
 31
0.0
  0
LINE
  5
132
330
50
100
AcDbEntity
  8
1
  6
Continuous
 62
     7
100
AcDbLine
 10
311.8430973375027
 20
292.0076957421501
 30
0.0
 11
311.8430973375036
 21
286.2676823463715
 31
0.0
  0
LINE
  5
133
330
50
100
AcDbEntity
  8
1
  6
Continuous
 62
     7
100
AcDbLine
 10
312.4291595513398
 20
294.6214946964286
 30
0.0
 11
312.5649757779697
 21
297.2130226811609
 31
0.0
  0
LINE
  5
134
330
50
100
AcDbEntity
  8
1
  6
Continuous
 62
     7
100
AcDbLine
 10
185.8430973374913
 20
301.290182346372
 30
0.0
 11
185.8430973374913
 21
298.491144240695
 31
0.0
  0
LINE
  5
135
330
50
100
AcDbEntity
  8
1
  6
Continuous
 62
     7
100
AcDbLine
 10
208.8430973374914
 20
275.790182346372
 30
0.0
 11
208.8430973374914
 21
286.5226823463718
 31
0.0
  0
LINE
  5
136
330
50
100
AcDbEntity
  8
1
  6
Continuous
 62
     7
100
AcDbLine
 10
208.8430973374914
 20
275.790182346372
 30
0.0
 11
208.8430973374914
 21
265.057682346372
 31
0.0
  0
LINE
  5
137
330
50
100
AcDbEntity
  8
1
  6
Continuous
 62
     7
100
AcDbLine
 10
163.3612242735105
 20
404.2901823463841
 30
0.0
 11
163.3612242735105
 21
413.7901823463841
 31
0.0
  0
LINE
  5
138
330
50
100
AcDbEntity
  8
1
  6
Continuous
 62
     2
100
AcDbLine
 10
164.5232242735104
 20
404.2901823463841
 30
0.0
 11
164.5232242735104
 21
411.7775393079892
 31
0.0
  0
LINE
  5
139
330
50
100
AcDbEntity
  8
1
  6
Continuous
 62
     7
100
AcDbLine
 10
150.073573515552
 20
282.590182346372
 30
0.0
 11
150.0711735004732
 21
282.590182346372
 31
0.0
  0
LINE
  5
13A
330
50
100
AcDbEntity
  8
1
  6
Continuous
 62
     7
100
AcDbLine
 10
150.0711735004771
 20
282.590182346372
 30
0.0
 11
150.0711735004732
 21
282.590182346372
 31
0.0
  0
LINE
  5
13B
330
50
100
AcDbEntity
  8
1
  6
Continuous
 62
     7
100
AcDbLine
 10
151.816769232716
 20
265.3126823463844
 30
0.0
 11
142.0050973374912
 21
265.3126823463844
 31
0.0
  0
LINE
  5
13C
330
50
100
AcDbEntity
  8
1
  6
PHANTOM
 62
     4
100
AcDbLine
 10
137.8430973374913
 20
275.790182346372
 30
0.0
 11
200.0042105046927
 21
275.790182346372
 31
0.0
  0
LINE
  5
13D
330
50
100
AcDbEntity
  8
1
  6
Continuous
 62
     7
100
AcDbLine
 10
150.0711735004732
 20
282.590182346372
 30
0.0
 11
150.0711735004709
 21
282.590182346372
 31
0.0
  0
LINE
  5
13E
330
50
100
AcDbEntity
  8
1
  6
Continuous
 62
     7
100
AcDbLine
 10
152.4401232732972
 20
287.040182346372
 30
0.0
 11
152.262772315658
 21
287.040182346372
 31
0.0
  0
LINE
  5
13F
330
50
100
AcDbEntity
  8
1
  6
PHANTOM
 62
     4
100
AcDbLine
 10
173.8430973374913
 20
259.7901823463721
 30
0.0
 11
173.8430973374913
 21
264.7901823463721
 31
0.0
  0
LINE
  5
140
330
50
100
AcDbEntity
  8
1
  6
PHANTOM
 62
     4
100
AcDbLine
 10
211.8430973374913
 20
427.7901823463718
 30
0.0
 11
137.8430973374913
 21
427.7901823463718
 31
0.0
  0
LINE
  5
141
330
50
100
AcDbEntity
  8
1
  6
PHANTOM
 62
     4
100
AcDbLine
 10
173.8430973374913
 20
264.7901823463721
 30
0.0
 11
173.8430973374913
 21
308.790182346372
 31
0.0
  0
LINE
  5
142
330
50
100
AcDbEntity
  8
1
  6
Continuous
 62
     7
100
AcDbLine
 10
207.6819841702898
 20
435.2957358458367
 30
0.0
 11
200.0042105046925
 21
435.2957358458367
 31
0.0
  0
LINE
  5
143
330
50
100
AcDbEntity
  8
1
  6
Continuous
 62
     7
100
AcDbLine
 10
207.6819841702898
 20
420.2846288469069
 30
0.0
 11
200.0042105046925
 21
420.2846288469069
 31
0.0
  0
LINE
  5
144
330
50
100
AcDbEntity
  8
1
  6
Continuous
 62
     7
100
AcDbLine
 10
142.0050973374912
 20
438.2676823463718
 30
0.0
 11
151.8167692327159
 21
438.2676823463718
 31
0.0
  0
LINE
  5
145
330
50
100
AcDbEntity
  8
1
  6
Continuous
 62
     7
100
AcDbLine
 10
142.0050973374912
 20
417.3126823463718
 30
0.0
 11
151.816769232716
 21
417.3126823463718
 31
0.0
  0
LINE
  5
146
330
50
100
AcDbEntity
  8
1
  6
Continuous
 62
     7
100
AcDbLine
 10
140.8430973374913
 20
418.4521823463718
 30
0.0
 11
140.8430973374913
 21
437.128182346372
 31
0.0
  0
LINE
  5
147
330
50
100
AcDbEntity
  8
1
  6
Continuous
 62
     7
100
AcDbLine
 10
208.8430973374913
 20
416.5318520971742
 30
0.0
 11
208.8430973374913
 21
439.0485125955687
 31
0.0
  0
LINE
  5
148
330
50
100
AcDbEntity
  8
1
  6
Continuous
 62
     7
100
AcDbLine
 10
207.6819841702898
 20
412.7790753474417
 30
0.0
 11
200.0042105046925
 21
412.7790753474417
 31
0.0
  0
LINE
  5
149
330
50
100
AcDbEntity
  8
1
  6
Continuous
 62
     7
100
AcDbLine
 10
207.6819841702921
 20
442.8012893453021
 30
0.0
 11
207.6819841702898
 21
442.8012893453016
 31
0.0
  0
LINE
  5
14A
330
50
100
AcDbEntity
  8
1
  6
Continuous
 62
     7
100
AcDbLine
 10
161.8430973374913
 20
299.790182346372
 30
0.0
 11
161.8430973374913
 21
301.290182346372
 31
0.0
  0
LINE
  5
14B
330
50
100
AcDbEntity
  8
1
  6
Continuous
 62
     7
100
AcDbLine
 10
161.8430973374913
 20
299.790182346372
 30
0.0
 11
162.5930973374912
 21
299.790182346372
 31
0.0
  0
LINE
  5
14C
330
50
100
AcDbEntity
  8
1
  6
Continuous
 62
     7
100
AcDbLine
 10
161.8430973374912
 20
298.491144240695
 30
0.0
 11
161.8430973374913
 21
299.790182346372
 31
0.0
  0
LINE
  5
14D
330
50
100
AcDbEntity
  8
1
  6
Continuous
 62
     7
100
AcDbLine
 10
185.8430973374913
 20
299.790182346372
 30
0.0
 11
185.0930973374913
 21
299.790182346372
 31
0.0
  0
LINE
  5
14E
330
50
100
AcDbEntity
  8
1
  6
Continuous
 62
     2
100
AcDbLine
 10
162.5930973374912
 20
299.790182346372
 30
0.0
 11
162.5930973374912
 21
301.290182346372
 31
0.0
  0
LINE
  5
14F
330
50
100
AcDbEntity
  8
1
  6
Continuous
 62
     2
100
AcDbLine
 10
185.0930973374913
 20
299.790182346372
 30
0.0
 11
185.0930973374913
 21
301.290182346372
 31
0.0
  0
LINE
  5
150
330
50
100
AcDbEntity
  8
1
  6
Continuous
 62
     2
100
AcDbLine
 10
185.8430973374913
 20
298.491144240695
 30
0.0
 11
185.0930973374913
 21
299.790182346372
 31
0.0
  0
LINE
  5
151
330
50
100
AcDbEntity
  8
1
  6
Continuous
 62
     2
100
AcDbLine
 10
161.8430973374912
 20
298.491144240695
 30
0.0
 11
162.5930973374912
 21
299.790182346372
 31
0.0
  0
LINE
  5
152
330
50
100
AcDbEntity
  8
1
  6
Continuous
 62
     7
100
AcDbLine
 10
208.8430973374914
 20
286.5226823463718
 30
0.0
 11
208.8430973374914
 21
288.790182346372
 31
0.0
  0
LINE
  5
153
330
50
100
AcDbEntity
  8
1
  6
Continuous
 62
     7
100
AcDbLine
 10
208.8430973374914
 20
265.057682346372
 30
0.0
 11
208.8430973374914
 21
262.7901823463721
 31
0.0
  0
LINE
  5
154
330
50
100
AcDbEntity
  8
1
  6
Continuous
 62
     7
100
AcDbLine
 10
197.0891128911201
 20
414.7901823463718
 30
0.0
 11
193.0749704014724
 21
414.7901823463718
 31
0.0
  0
LINE
  5
155
330
50
100
AcDbEntity
  8
1
  6
Continuous
 62
     7
100
AcDbLine
 10
142.0050973374912
 20
437.1281823463718
 30
0.0
 11
142.0050973374912
 21
417.3126823463718
 31
0.0
  0
LINE
  5
156
330
50
100
AcDbEntity
  8
1
  6
Continuous
 62
     2
100
AcDbLine
 10
149.8430973374913
 20
418.4521823463718
 30
0.0
 11
140.8430973374913
 21
418.4521823463718
 31
0.0
  0
LINE
  5
157
330
50
100
AcDbEntity
  8
1
  6
Continuous
 62
     7
100
AcDbLine
 10
149.8430973374913
 20
417.3126823463718
 30
0.0
 11
149.8430973374913
 21
418.4521823463718
 31
0.0
  0
LINE
  5
158
330
50
100
AcDbEntity
  8
1
  6
Continuous
 62
     7
100
AcDbLine
 10
149.8430973374913
 20
418.4521823463718
 30
0.0
 11
149.8430973374913
 21
421.3105760714803
 31
0.0
  0
LINE
  5
159
330
50
100
AcDbEntity
  8
1
  6
Continuous
 62
     2
100
AcDbLine
 10
140.8430973374913
 20
437.128182346372
 30
0.0
 11
142.0050973374912
 21
437.1281823463718
 31
0.0
  0
LINE
  5
15A
330
50
100
AcDbEntity
  8
1
  6
Continuous
 62
     7
100
AcDbLine
 10
142.0050973374912
 20
437.1281823463718
 30
0.0
 11
142.0050973374912
 21
438.2676823463718
 31
0.0
  0
LINE
  5
15B
330
50
100
AcDbEntity
  8
1
  6
Continuous
 62
     7
100
AcDbLine
 10
140.8430973374913
 20
437.128182346372
 30
0.0
 11
142.0050973374912
 21
438.2676823463718
 31
0.0
  0
LINE
  5
15C
330
50
100
AcDbEntity
  8
1
  6
Continuous
 62
     7
100
AcDbLine
 10
140.8430973374913
 20
418.4521823463718
 30
0.0
 11
142.0050973374912
 21
417.3126823463718
 31
0.0
  0
LINE
  5
15D
330
50
100
AcDbEntity
  8
1
  6
Continuous
 62
     7
100
AcDbLine
 10
200.0042105046925
 20
442.8012893453016
 30
0.0
 11
200.0042105046903
 21
442.8012893453021
 31
0.0
  0
LINE
  5
15E
330
50
100
AcDbEntity
  8
1
  6
Continuous
 62
     7
100
AcDbLine
 10
207.6819841702898
 20
442.8012893453016
 30
0.0
 11
200.0042105046925
 21
442.8012893453016
 31
0.0
  0
LINE
  5
15F
330
50
100
AcDbEntity
  8
1
  6
Continuous
 62
     7
100
AcDbLine
 10
195.1543577879469
 20
288.790182346372
 30
0.0
 11
208.8430973374914
 21
288.790182346372
 31
0.0
  0
LINE
  5
160
330
50
100
AcDbEntity
  8
1
  6
Continuous
 62
     7
100
AcDbLine
 10
185.8430973374913
 20
298.491144240695
 30
0.0
 11
187.1212188970256
 21
297.2130226811606
 31
0.0
  0
LINE
  5
161
330
50
100
AcDbEntity
  8
1
  6
Continuous
 62
     7
100
AcDbLine
 10
160.5649757779567
 20
297.2130226811606
 30
0.0
 11
161.8430973374912
 21
298.491144240695
 31
0.0
  0
LINE
  5
162
330
50
100
AcDbEntity
  8
1
  6
Continuous
 62
     7
100
AcDbLine
 10
162.063878348101
 20
262.7901823463721
 30
0.0
 11
208.8430973374914
 21
262.7901823463721
 31
0.0
  0
LINE
  5
163
330
50
100
AcDbEntity
  8
1
  6
Continuous
 62
     2
100
AcDbLine
 10
151.816769232716
 20
417.3126823463718
 30
0.0
 11
149.8430973374913
 21
418.4521823463718
 31
0.0
  0
LINE
  5
164
330
50
100
AcDbEntity
  8
1
  6
Continuous
 62
     7
100
AcDbLine
 10
160.6563186352847
 20
413.7901823463982
 30
0.0
 11
163.3699704014721
 21
413.7901823463716
 31
0.0
  0
LINE
  5
165
330
50
100
AcDbEntity
  8
1
  6
Continuous
 62
     2
100
AcDbLine
 10
164.5232242735104
 20
411.7775393079892
 30
0.0
 11
163.3699704014721
 21
413.7901823463716
 31
0.0
  0
LINE
  5
166
330
50
100
AcDbEntity
  8
1
  6
Continuous
 62
     7
100
AcDbLine
 10
164.5232242735104
 20
411.7775393079892
 30
0.0
 11
163.3612242735105
 21
411.7775393079893
 31
0.0
  0
LINE
  5
167
330
50
100
AcDbEntity
  8
1
  6
PHANTOM
 62
     4
100
AcDbLine
 10
173.8430973374913
 20
393.2901823463841
 30
0.0
 11
173.8430973374913
 21
445.290182346372
 31
0.0
  0
LINE
  5
168
330
50
100
AcDbEntity
  8
1
  6
Continuous
 62
     7
100
AcDbLine
 10
152.2627723156579
 20
416.5401823463841
 30
0.0
 11
154.6199704014722
 21
416.5401823463841
 31
0.0
  0
LINE
  5
169
330
50
100
AcDbEntity
  8
1
  6
Continuous
 62
     2
100
AcDbLine
 10
149.8430973374913
 20
437.128182346372
 30
0.0
 11
151.8167692327159
 21
438.2676823463718
 31
0.0
  0
LINE
  5
16A
330
50
100
AcDbEntity
  8
1
  6
Continuous
 62
     7
100
AcDbLine
 10
151.816769232716
 20
417.3126823463718
 30
0.0
 11
151.816769232716
 21
420.7817322810309
 31
0.0
  0
LINE
  5
16B
330
50
100
AcDbEntity
  8
1
  6
Continuous
 62
     2
100
AcDbLine
 10
149.8430973374913
 20
266.4521823463842
 30
0.0
 11
140.8430973374913
 21
266.4521823463842
 31
0.0
  0
LINE
  5
16C
330
50
100
AcDbEntity
  8
1
  6
Continuous
 62
     2
100
AcDbLine
 10
151.816769232716
 20
265.3126823463844
 30
0.0
 11
149.8430973374913
 21
266.4521823463842
 31
0.0
  0
LINE
  5
16D
330
50
100
AcDbEntity
  8
1
  6
Continuous
 62
     2
100
AcDbLine
 10
149.8430973374913
 20
285.1281823463842
 30
0.0
 11
151.816769232716
 21
286.2676823463842
 31
0.0
  0
LINE
  5
16E
330
50
100
AcDbEntity
  8
1
  6
Continuous
 62
     7
100
AcDbLine
 10
149.8430973374913
 20
285.1281823463842
 30
0.0
 11
149.8430973374913
 21
286.2676823463842
 31
0.0
  0
LINE
  5
16F
330
50
100
AcDbEntity
  8
1
  6
Continuous
 62
     2
100
AcDbLine
 10
140.8430973374913
 20
285.1281823463842
 30
0.0
 11
149.8430973374913
 21
285.1281823463842
 31
0.0
  0
LINE
  5
170
330
50
100
AcDbEntity
  8
1
  6
Continuous
 62
     7
100
AcDbLine
 10
151.816769232716
 20
286.2676823463842
 30
0.0
 11
142.0050973374912
 21
286.2676823463842
 31
0.0
  0
LINE
  5
171
330
50
100
AcDbEntity
  8
1
  6
Continuous
 62
     7
100
AcDbLine
 10
142.0050973374912
 20
286.2676823463842
 30
0.0
 11
140.8430973374913
 21
285.1281823463842
 31
0.0
  0
LINE
  5
172
330
50
100
AcDbEntity
  8
1
  6
Continuous
 62
     7
100
AcDbLine
 10
151.816769232716
 20
286.2676823463842
 30
0.0
 11
142.0050973374912
 21
286.2676823463842
 31
0.0
  0
LINE
  5
173
330
50
100
AcDbEntity
  8
1
  6
Continuous
 62
     7
100
AcDbLine
 10
142.0050973374912
 20
265.3126823463844
 30
0.0
 11
140.8430973374913
 21
266.4521823463842
 31
0.0
  0
LINE
  5
174
330
50
100
AcDbEntity
  8
1
  6
Continuous
 62
     7
100
AcDbLine
 10
153.5468538426961
 20
264.5401823463721
 30
0.0
 11
152.2627723156722
 21
264.5401823463721
 31
0.0
  0
LINE
  5
175
330
50
100
AcDbEntity
  8
1
  6
Continuous
 62
     7
100
AcDbLine
 10
149.8430973374913
 20
265.3126823463844
 30
0.0
 11
149.8430973374913
 21
266.4521823463842
 31
0.0
  0
LINE
  5
176
330
50
100
AcDbEntity
  8
1
  6
Continuous
 62
     7
100
AcDbLine
 10
140.8430973374913
 20
269.2901823463721
 30
0.0
 11
140.8430973374913
 21
266.4521823463842
 31
0.0
  0
LINE
  5
177
330
50
100
AcDbEntity
  8
1
  6
Continuous
 62
     7
100
AcDbLine
 10
140.8430973374913
 20
282.2901823463684
 30
0.0
 11
140.8430973374913
 21
285.1281823463842
 31
0.0
  0
LINE
  5
178
330
50
100
AcDbEntity
  8
1
  6
Continuous
 62
     7
100
AcDbLine
 10
160.4291595513269
 20
294.6214946964218
 30
0.0
 11
160.5649757779567
 21
297.2130226811606
 31
0.0
  0
LINE
  5
179
330
50
100
AcDbEntity
  8
1
  6
Continuous
 62
     2
100
AcDbLine
 10
142.0050973374912
 20
437.1281823463718
 30
0.0
 11
149.8430973374913
 21
437.128182346372
 31
0.0
  0
LINE
  5
17A
330
50
100
AcDbEntity
  8
1
  6
Continuous
 62
     7
100
AcDbLine
 10
140.8430973374913
 20
269.2901823463757
 30
0.0
 11
140.8430973374913
 21
282.2901823463684
 31
0.0
  0
LINE
  5
17B
330
50
100
AcDbEntity
  8
1
  6
Continuous
 62
     7
100
AcDbLine
 10
140.8430973374913
 20
269.2901823463721
 30
0.0
 11
140.8430973374913
 21
269.2901823463757
 31
0.0
  0
LINE
  5
17C
330
50
100
AcDbEntity
  8
1
  6
Continuous
 62
     7
100
AcDbLine
 10
152.262772315658
 20
287.040182346372
 30
0.0
 11
151.816769232716
 21
286.2676823463842
 31
0.0
  0
LINE
  5
17D
330
50
100
AcDbEntity
  8
1
  6
Continuous
 62
     7
100
AcDbLine
 10
160.4291595513269
 20
294.6214946964218
 30
0.0
 11
160.4291595513274
 21
294.6214946964284
 31
0.0
  0
LINE
  5
17E
330
50
100
AcDbEntity
  8
1
  6
Continuous
 62
     7
100
AcDbLine
 10
151.816769232716
 20
265.3126823463844
 30
0.0
 11
152.2627723156722
 21
264.5401823463721
 31
0.0
  0
LINE
  5
17F
330
50
100
AcDbEntity
  8
1
  6
Continuous
 62
     7
100
AcDbLine
 10
151.8167692327159
 20
438.2676823463718
 30
0.0
 11
152.2627723156579
 21
439.0401823463841
 31
0.0
  0
LINE
  5
180
330
50
100
AcDbEntity
  8
1
  6
Continuous
 62
     7
100
AcDbLine
 10
151.816769232716
 20
417.3126823463718
 30
0.0
 11
152.2627723156579
 21
416.5401823463841
 31
0.0
  0
LINE
  5
181
330
50
100
AcDbEntity
  8
1
  6
Continuous
 62
     7
100
AcDbLine
 10
152.2627723156579
 20
416.5401823463841
 30
0.0
 11
152.2627723156579
 21
420.6622261151348
 31
0.0
  0
LINE
  5
182
330
50
100
AcDbEntity
  8
1
  6
Continuous
 62
     7
100
AcDbLine
 10
152.2627723156579
 20
439.0401823463841
 30
0.0
 11
152.262772315672
 21
439.0401823463841
 31
0.0
  0
LINE
  5
183
330
50
100
AcDbEntity
  8
1
  6
Continuous
 62
     7
100
AcDbLine
 10
187.1212188970256
 20
297.2130226811606
 30
0.0
 11
187.1653215099104
 21
296.3714946964283
 31
0.0
  0
LINE
  5
184
330
50
100
AcDbEntity
  8
1
  6
Continuous
 62
     7
100
AcDbLine
 10
169.7543062451426
 20
413.7901823463716
 30
0.0
 11
163.3699704014721
 21
413.7901823463716
 31
0.0
  0
LINE
  5
185
330
50
100
AcDbEntity
  8
1
  6
Continuous
 62
     7
100
AcDbLine
 10
172.1841292648096
 20
411.7775393079891
 30
0.0
 11
164.5232242735104
 21
411.7775393079892
 31
0.0
  0
LINE
  5
186
330
50
100
AcDbEntity
  8
1
  6
Continuous
 62
     7
100
AcDbLine
 10
149.8430973374913
 20
434.2697886212637
 30
0.0
 11
149.8430973374913
 21
438.2676823463718
 31
0.0
  0
LINE
  5
187
330
50
100
AcDbEntity
  8
1
  6
Continuous
 62
     7
100
AcDbLine
 10
151.816769232716
 20
434.7986324117131
 30
0.0
 11
151.8167692327159
 21
438.2676823463718
 31
0.0
  0
LINE
  5
188
330
50
100
AcDbEntity
  8
1
  6
Continuous
 62
     7
100
AcDbLine
 10
152.2627723156579
 20
434.9181385776091
 30
0.0
 11
152.2627723156579
 21
439.0401823463841
 31
0.0
  0
LINE
  5
189
330
50
100
AcDbEntity
  8
1
  6
Continuous
 62
     7
100
AcDbLine
 10
197.0891128911298
 20
440.7901823463716
 30
0.0
 11
190.2368237323343
 21
440.7901823463716
 31
0.0
  0
LINE
  5
18A
330
50
100
AcDbEntity
  8
1
  6
Continuous
 62
     7
100
AcDbLine
 10
200.0042105046925
 20
442.8012893453016
 30
0.0
 11
200.0042105046903
 21
442.8012893453021
 31
0.0
  0
LINE
  5
18B
330
50
100
AcDbEntity
  8
1
  6
Continuous
 62
     7
100
AcDbLine
 10
152.262772315672
 20
439.0401823463841
 30
0.0
 11
156.110711711218
 21
439.0401823463841
 31
0.0
  0
LINE
  5
18C
330
50
100
AcDbEntity
  8
1
  6
Continuous
 62
     7
100
AcDbLine
 10
152.2627723156579
 20
416.5401823463841
 30
0.0
 11
152.2627723156579
 21
420.6622261151348
 31
0.0
  0
LINE
  5
18D
330
50
100
AcDbEntity
  8
1
  6
Continuous
 62
     7
100
AcDbLine
 10
151.816769232716
 20
417.3126823463718
 30
0.0
 11
151.816769232716
 21
420.7817322810309
 31
0.0
  0
LINE
  5
18E
330
50
100
AcDbEntity
  8
1
  6
Continuous
 62
     2
100
AcDbLine
 10
164.5232242735104
 20
404.2901823463841
 30
0.0
 11
164.5232242735104
 21
411.7775393079892
 31
0.0
  0
LINE
  5
18F
330
50
100
AcDbEntity
  8
1
  6
Continuous
 62
     7
100
AcDbLine
 10
163.3612242735105
 20
404.2901823463841
 30
0.0
 11
163.3612242735105
 21
413.7901823463841
 31
0.0
  0
LINE
  5
190
330
50
100
AcDbEntity
  8
1
  6
Continuous
 62
     7
100
AcDbLine
 10
185.8430973374913
 20
298.491144240695
 30
0.0
 11
161.8430973374912
 21
298.491144240695
 31
0.0
  0
LINE
  5
191
330
50
100
AcDbEntity
  8
1
  6
Continuous
 62
     7
100
AcDbLine
 10
162.5930973374912
 20
299.790182346372
 30
0.0
 11
185.0930973374913
 21
299.790182346372
 31
0.0
  0
LINE
  5
192
330
50
100
AcDbEntity
  8
1
  6
Continuous
 62
     7
100
AcDbLine
 10
151.816769232716
 20
265.3126823463844
 30
0.0
 11
151.816769232716
 21
286.2676823463842
 31
0.0
  0
LINE
  5
193
330
50
100
AcDbEntity
  8
1
  6
Continuous
 62
     7
100
AcDbLine
 10
149.8430973374913
 20
266.4521823463842
 30
0.0
 11
149.8430973374913
 21
285.1281823463842
 31
0.0
  0
LINE
  5
194
330
50
100
AcDbEntity
  8
1
  6
Continuous
 62
     7
100
AcDbLine
 10
169.7543062451426
 20
413.7901823463716
 30
0.0
 11
163.3699704014721
 21
413.7901823463716
 31
0.0
  0
LINE
  5
195
330
50
100
AcDbEntity
  8
1
  6
Continuous
 62
     7
100
AcDbLine
 10
172.1841292648096
 20
411.7775393079891
 30
0.0
 11
164.5232242735104
 21
411.7775393079892
 31
0.0
  0
LINE
  5
196
330
50
100
AcDbEntity
  8
1
  6
Continuous
 62
     7
100
AcDbLine
 10
169.7543062451426
 20
413.7901823463716
 30
0.0
 11
163.3699704014721
 21
413.7901823463716
 31
0.0
  0
LINE
  5
197
330
50
100
AcDbEntity
  8
1
  6
Continuous
 62
     7
100
AcDbLine
 10
149.8430973374913
 20
418.4521823463718
 30
0.0
 11
149.8430973374913
 21
421.3105760714803
 31
0.0
  0
LINE
  5
198
330
50
100
AcDbEntity
  8
1
  6
Continuous
 62
     7
100
AcDbLine
 10
149.8430973374913
 20
434.2697886212637
 30
0.0
 11
149.8430973374913
 21
438.2676823463718
 31
0.0
  0
LINE
  5
199
330
50
100
AcDbEntity
  8
1
  6
Continuous
 62
     7
100
AcDbLine
 10
151.816769232716
 20
434.7986324117131
 30
0.0
 11
151.8167692327159
 21
438.2676823463718
 31
0.0
  0
LINE
  5
19A
330
50
100
AcDbEntity
  8
1
  6
Continuous
 62
     7
100
AcDbLine
 10
152.2627723156579
 20
434.9181385776091
 30
0.0
 11
152.2627723156579
 21
439.0401823463841
 31
0.0
  0
LINE
  5
19B
330
50
100
AcDbEntity
  8
1
  6
Continuous
 62
     7
100
AcDbLine
 10
192.50282438564
 20
291.9644938318673
 30
0.0
 11
192.6186570492105
 21
290.6405204288887
 31
0.0
  0
LINE
  5
19C
330
50
100
AcDbEntity
  8
1
  6
Continuous
 62
     7
100
AcDbLine
 10
189.2382780048473
 20
293.790182346372
 30
0.0
 11
190.5104349894563
 21
293.790182346372
 31
0.0
  0
LINE
  5
19D
330
50
100
AcDbEntity
  8
1
  6
Continuous
 62
     7
100
AcDbLine
 10
328.0028243856513
 20
291.9644938318673
 30
0.0
 11
328.2805406551323
 21
288.790182346372
 31
0.0
  0
LINE
  5
19E
330
50
100
AcDbEntity
  8
1
  6
Continuous
 62
     7
100
AcDbLine
 10
323.4056540198731
 20
288.790182346372
 30
0.0
 11
323.6833702893541
 21
291.9644938318673
 31
0.0
  0
LINE
  5
19F
330
50
100
AcDbEntity
  8
1
  6
Continuous
 62
     7
100
AcDbLine
 10
325.6757596855376
 20
293.790182346372
 30
0.0
 11
326.0104349894678
 21
293.790182346372
 31
0.0
  0
ARC
  5
1A0
330
50
100
AcDbEntity
  8
1
  6
Continuous
 62
     7
100
AcDbCircle
 10
325.8430973375036
 20
275.790182346372
 30
0.0
 40
9.29993058646792
100
AcDbArc
 50
12.41877567666827
 51
167.5812243233313
  0
ARC
  5
1A1
330
50
100
AcDbEntity
  8
1
  6
Continuous
 62
     7
100
AcDbCircle
 10
325.8430973375036
 20
275.790182346372
 30
0.0
 40
9.299930586467585
100
AcDbArc
 50
167.5812243233313
 51
12.41877567666827
  0
ARC
  5
1A2
330
50
100
AcDbEntity
  8
1
  6
Continuous
 62
     7
100
AcDbCircle
 10
325.8430973375036
 20
275.790182346372
 30
0.0
 40
12.9999999999997
100
AcDbArc
 50
53.70321870117398
 51
126.2967812988284
  0
ARC
  5
1A3
330
50
100
AcDbEntity
  8
1
  6
Continuous
 62
     7
100
AcDbCircle
 10
325.8430973375036
 20
275.790182346372
 30
0.0
 40
13.0
100
AcDbArc
 50
180.0000000000007
 51
233.7032187011717
  0
ARC
  5
1A4
330
50
100
AcDbEntity
  8
1
  6
Continuous
 62
     7
100
AcDbCircle
 10
325.8430973375036
 20
275.790182346372
 30
0.0
 40
13.0000000000001
100
AcDbArc
 50
126.2967812988284
 51
180.0000000000007
  0
ARC
  5
1A5
330
50
100
AcDbEntity
  8
1
  6
Continuous
 62
     7
100
AcDbCircle
 10
325.8430973375036
 20
275.790182346372
 30
0.0
 40
12.99999999999975
100
AcDbArc
 50
306.2967812988259
 51
53.70321870117398
  0
ARC
  5
1A6
330
50
100
AcDbEntity
  8
1
  6
Continuous
 62
     7
100
AcDbCircle
 10
325.8430973375036
 20
275.790182346372
 30
0.0
 40
13.00000000000015
100
AcDbArc
 50
233.7032187011717
 51
306.2967812988259
  0
ARC
  5
1A7
330
50
100
AcDbEntity
  8
1
  6
Continuous
 62
     7
100
AcDbCircle
 10
325.8430973375036
 20
275.790182346372
 30
0.0
 40
14.49999999999906
100
AcDbArc
 50
3.70844472526874
 51
10.34217893694689
  0
ARC
  5
1A8
330
50
100
AcDbEntity
  8
1
  6
Continuous
 62
     7
100
AcDbCircle
 10
312.3825067115317
 20
249.5401823463718
 30
0.0
 40
15.00000000000002
100
AcDbArc
 50
68.23482288898433
 51
90.0
  0
ARC
  5
1A9
330
50
100
AcDbEntity
  8
1
  6
Continuous
 62
     7
100
AcDbCircle
 10
325.8430973375036
 20
275.790182346372
 30
0.0
 40
14.50000000000003
100
AcDbArc
 50
303.708444725269
 51
356.291555274731
  0
ARC
  5
1AA
330
50
100
AcDbEntity
  8
1
  6
Continuous
 62
     7
100
AcDbCircle
 10
304.4401232733016
 20
295.040182346372
 30
0.0
 40
8.000000000001204
100
AcDbArc
 50
337.7244798402211
 51
357.0000000000019
  0
ARC
  5
1AB
330
50
100
AcDbEntity
  8
1
  6
Continuous
 62
     7
100
AcDbCircle
 10
152.4401232732972
 20
295.040182346365
 30
0.0
 40
7.999999999993008
100
AcDbArc
 50
270.0
 51
327.9448653073798
  0
ARC
  5
1AC
330
50
100
AcDbEntity
  8
1
  6
Continuous
 62
     7
100
AcDbCircle
 10
152.4401232732972
 20
295.040182346365
 30
0.0
 40
7.999999999990838
100
AcDbArc
 50
327.9448653073798
 51
356.9999999999999
  0
ARC
  5
1AD
330
50
100
AcDbEntity
  8
1
  6
Continuous
 62
     7
100
AcDbCircle
 10
197.0891128911201
 20
411.7901823463591
 30
0.0
 40
3.000000000012552
100
AcDbArc
 50
29.44661342154899
 51
90.0
  0
ARC
  5
1AE
330
50
100
AcDbEntity
  8
1
  6
Continuous
 62
     7
100
AcDbCircle
 10
184.0042105046928
 20
427.7901823463718
 30
0.0
 40
24.83888683279847
100
AcDbArc
 50
342.4120462260069
 51
17.58795377399319
  0
ARC
  5
1AF
330
50
100
AcDbEntity
  8
1
  6
Continuous
 62
     7
100
AcDbCircle
 10
202.1979581915895
 20
439.0485125955687
 30
0.0
 40
6.645139145901794
100
AcDbArc
 50
0.0
 51
34.38424746803627
  0
ARC
  5
1B0
330
50
100
AcDbEntity
  8
1
  6
Continuous
 62
     7
100
AcDbCircle
 10
202.1979581915904
 20
416.5318520971742
 30
0.0
 40
6.645139145900885
100
AcDbArc
 50
0.0
 51
34.38424746803949
  0
ARC
  5
1B1
330
50
100
AcDbEntity
  8
1
  6
Continuous
 62
     7
100
AcDbCircle
 10
223.6819841702896
 20
427.7901823463718
 30
0.0
 40
24.83888683279855
100
AcDbArc
 50
162.4120462260069
 51
197.5879537739931
  0
ARC
  5
1B2
330
50
100
AcDbEntity
  8
1
  6
Continuous
 62
     7
100
AcDbCircle
 10
205.488236483392
 20
416.5318520971742
 30
0.0
 40
6.645139145900714
100
AcDbArc
 50
180.0
 51
214.3842474680375
  0
ARC
  5
1B3
330
50
100
AcDbEntity
  8
1
  6
Continuous
 62
     7
100
AcDbCircle
 10
205.4882364833929
 20
439.0485125955687
 30
0.0
 40
6.645139145901624
100
AcDbArc
 50
180.0
 51
214.3842474680294
  0
ARC
  5
1B4
330
50
100
AcDbEntity
  8
1
  6
Continuous
 62
     7
100
AcDbCircle
 10
205.4882364833929
 20
439.0485125955687
 30
0.0
 40
6.645139145901818
100
AcDbArc
 50
145.6157525319641
 51
180.0
  0
ARC
  5
1B5
330
50
100
AcDbEntity
  8
1
  6
Continuous
 62
     7
100
AcDbCircle
 10
202.1979581915895
 20
439.0485125955687
 30
0.0
 40
6.645139145901234
100
AcDbArc
 50
325.6157525319702
 51
0.0
  0
ARC
  5
1B6
330
50
100
AcDbEntity
  8
1
  6
Continuous
 62
     7
100
AcDbCircle
 10
202.1979581915904
 20
416.5318520971742
 30
0.0
 40
6.645139145900772
100
AcDbArc
 50
325.6157525319621
 51
0.0
  0
ARC
  5
1B7
330
50
100
AcDbEntity
  8
1
  6
Continuous
 62
     7
100
AcDbCircle
 10
205.488236483392
 20
416.5318520971742
 30
0.0
 40
6.645139145900972
100
AcDbArc
 50
145.6157525319609
 51
180.0
  0
ARC
  5
1B8
330
50
100
AcDbEntity
  8
1
  6
Continuous
 62
     7
100
AcDbCircle
 10
173.8430973374913
 20
311.290182346372
 30
0.0
 40
50.00000000000002
100
AcDbArc
 50
251.8051276612327
 51
255.4856969184413
  0
ARC
  5
1B9
330
50
100
AcDbEntity
  8
1
  6
Continuous
 62
     7
100
AcDbCircle
 10
154.6199704014722
 20
408.5401823463841
 30
0.0
 40
7.999999999999959
100
AcDbArc
 50
41.01449966586458
 51
90.0
  0
LINE
  5
1BA
330
50
100
AcDbEntity
  8
1
  6
Continuous
 62
     7
100
AcDbLine
 10
160.6563186352971
 20
413.7901823463841
 30
0.0
 11
160.6563186352847
 21
413.7901823463982
 31
0.0
  0
ARC
  5
1BB
330
50
100
AcDbEntity
  8
1
  6
Continuous
 62
     7
100
AcDbCircle
 10
193.0749704013791
 20
406.7901823467329
 30
0.0
 40
7.999999999638931
100
AcDbArc
 50
89.99999999933172
 51
109.8105225356462
  0
ARC
  5
1BC
330
50
100
AcDbEntity
  8
1
  6
Continuous
 62
     7
100
AcDbCircle
 10
197.0891128911307
 20
443.7901823463695
 30
0.0
 40
2.999999999997897
100
AcDbArc
 50
269.9999999999826
 51
330.5533865786379
  0
ARC
  5
1BD
330
50
100
AcDbEntity
  8
1
  6
Continuous
 62
     7
100
AcDbCircle
 10
173.8430973374913
 20
392.29018234638
 30
0.0
 40
49.99999999999258
100
AcDbArc
 50
94.13029832017612
 51
110.7718550452923
  0
ARC
  5
1BE
330
50
100
AcDbEntity
  8
1
  6
Continuous
 62
     7
100
AcDbCircle
 10
173.8430973374913
 20
392.29018234638
 30
0.0
 40
49.99999999999258
100
AcDbArc
 50
94.13029832017612
 51
110.7718550452923
  0
ARC
  5
1BF
330
50
100
AcDbEntity
  8
1
  6
Continuous
 62
     7
100
AcDbCircle
 10
173.8430973374913
 20
392.29018234638
 30
0.0
 40
49.99999999999258
100
AcDbArc
 50
94.13029832017612
 51
110.7718550452923
  0
ARC
  5
1C0
330
50
100
AcDbEntity
  8
1
  6
Continuous
 62
     7
100
AcDbCircle
 10
173.8430973374913
 20
392.29018234638
 30
0.0
 40
49.99999999999258
100
AcDbArc
 50
94.13029832017612
 51
110.7718550452923
  0
ARC
  5
1C1
330
50
100
AcDbEntity
  8
1
  6
Continuous
 62
     7
100
AcDbCircle
 10
217.181984170292
 20
282.290182346372
 30
0.0
 40
18.36643427850263
100
AcDbArc
 50
159.2735604049808
 51
200.7264395950192
  0
ARC
  5
1C2
330
50
100
AcDbEntity
  8
1
  6
Continuous
 62
     7
100
AcDbCircle
 10
217.181984170292
 20
269.2901823463721
 30
0.0
 40
18.36643427850259
100
AcDbArc
 50
159.2735604049811
 51
200.7264395950192
  0
ARC
  5
1C3
330
50
100
AcDbEntity
  8
1
  6
Continuous
 62
     7
100
AcDbCircle
 10
190.5042105046923
 20
282.290182346372
 30
0.0
 40
18.36643427850104
100
AcDbArc
 50
339.2735604049789
 51
20.72643959502113
  0
ARC
  5
1C4
330
50
100
AcDbEntity
  8
1
  6
Continuous
 62
     7
100
AcDbCircle
 10
190.5042105046923
 20
269.2901823463721
 30
0.0
 40
18.36643427850104
100
AcDbArc
 50
339.2735604049789
 51
20.7264395950208
  0
ARC
  5
1C5
330
50
100
AcDbEntity
  8
1
  6
Continuous
 62
     7
100
AcDbCircle
 10
195.1543577879469
 20
296.790182346372
 30
0.0
 40
8.000000000000382
100
AcDbArc
 50
264.8046422721034
 51
270.0
  0
ARC
  5
1C6
330
50
100
AcDbEntity
  8
1
  6
Continuous
 62
     7
100
AcDbCircle
 10
195.1543577879469
 20
296.790182346372
 30
0.0
 40
7.999999999999925
100
AcDbArc
 50
183.0000000000011
 51
189.5940682268594
  0
CIRCLE
  5
1C7
330
50
100
AcDbEntity
  8
1
  6
Continuous
 62
     2
100
AcDbCircle
 10
325.8430973375036
 20
275.790182346372
 30
0.0
 40
10.5
  0
ARC
  5
1C8
330
50
100
AcDbEntity
  8
1
  6
Continuous
 62
     7
100
AcDbCircle
 10
153.5468538426961
 20
249.5401823463721
 30
0.0
 40
15.0
100
AcDbArc
 50
71.80512766123326
 51
90.0
  0
ARC
  5
1C9
330
50
100
AcDbEntity
  8
1
  6
Continuous
 62
     7
100
AcDbCircle
 10
162.063878348101
 20
265.7901823463721
 30
0.0
 40
3.000000000000054
100
AcDbArc
 50
255.4856969184428
 51
270.0
  0
ARC
  5
1CA
330
50
100
AcDbEntity
  8
1
  6
Continuous
 62
     7
100
AcDbCircle
 10
189.2382780048473
 20
295.790182346372
 30
0.0
 40
2.000000000000451
100
AcDbArc
 50
189.5940682268561
 51
270.0
  0
ARC
  5
1CB
330
50
100
AcDbEntity
  8
1
  6
Continuous
 62
     7
100
AcDbCircle
 10
190.5104349894563
 20
291.790182346372
 30
0.0
 40
2.000000000000218
100
AcDbArc
 50
4.99999999999925
 51
90.0
  0
ARC
  5
1CC
330
50
100
AcDbEntity
  8
1
  6
Continuous
 62
     7
100
AcDbCircle
 10
194.611046445394
 20
290.8148319143841
 30
0.0
 40
2.00000000000003
100
AcDbArc
 50
185.000000000003
 51
264.8046422721
  0
ARC
  5
1CD
330
50
100
AcDbEntity
  8
1
  6
Continuous
 62
     7
100
AcDbCircle
 10
325.6757596855376
 20
291.790182346372
 30
0.0
 40
2.0
100
AcDbArc
 50
90.0
 51
175.0000000000003
  0
ARC
  5
1CE
330
50
100
AcDbEntity
  8
1
  6
Continuous
 62
     7
100
AcDbCircle
 10
326.0104349894678
 20
291.790182346372
 30
0.0
 40
2.00000000000002
100
AcDbArc
 50
4.99999999999974
 51
90.0
  0
ENDBLK
  5
52
330
50
100
AcDbEntity
  8
0
100
AcDbBlockEnd
  0
BLOCK
  5
54
330
53
100
AcDbEntity
  8
0
100
AcDbBlockBegin
  2
36-54
 70
     0
 10
1403.049870261586
 20
698.7320983050794
 30
0.0
  3
36-54
  1

  0
LINE
  5
1CF
330
53
100
AcDbEntity
  8
1
  6
Continuous
 62
     7
100
AcDbLine
 10
330.5930973375036
 20
315.2542054645968
 30
0.0
 11
330.5930973375036
 21
318.2901823463719
 31
0.0
  0
LINE
  5
1D0
330
53
100
AcDbEntity
  8
1
  6
Continuous
 62
     7
100
AcDbLine
 10
321.0930973374911
 20
315.2542054645968
 30
0.0
 11
321.0930973374911
 21
318.2901823463719
 31
0.0
  0
LINE
  5
1D1
330
53
100
AcDbEntity
  8
1
  6
Continuous
 62
     7
100
AcDbLine
 10
169.0930973374788
 20
315.2542054645968
 30
0.0
 11
169.0930973374788
 21
318.2901823463719
 31
0.0
  0
LINE
  5
1D2
330
53
100
AcDbEntity
  8
1
  6
Continuous
 62
     7
100
AcDbLine
 10
178.5930973374913
 20
315.2542054645968
 30
0.0
 11
178.5930973374913
 21
318.2901823463719
 31
0.0
  0
ENDBLK
  5
55
330
53
100
AcDbEntity
  8
0
100
AcDbBlockEnd
  0
BLOCK
  5
57
330
56
100
AcDbEntity
  8
0
100
AcDbBlockBegin
  2
42-15
 70
     0
 10
608.2575635923145
 20
571.9764017366708
 30
0.0
  3
42-15
  1

  0
LINE
  5
1D3
330
56
100
AcDbEntity
  8
1
  6
Continuous
 62
     7
100
AcDbLine
 10
332.8430973375036
 20
332.0840821240377
 30
0.0
 11
318.8430973375036
 21
332.0840821240377
 31
0.0
  0
LINE
  5
1D4
330
56
100
AcDbEntity
  8
1
  6
Continuous
 62
     2
100
AcDbLine
 10
324.8430973375036
 20
331.3264202262089
 30
0.0
 11
324.8430973375036
 21
330.2611811355986
 31
0.0
  0
LINE
  5
1D5
330
56
100
AcDbEntity
  8
1
  6
Continuous
 62
     2
100
AcDbLine
 10
323.8430973375036
 20
331.5697354359417
 30
0.0
 11
323.8430973375036
 21
330.0016449118836
 31
0.0
  0
LINE
  5
1D6
330
56
100
AcDbEntity
  8
1
  6
Continuous
 62
     2
100
AcDbLine
 10
322.8430973375036
 20
331.7806086177101
 30
0.0
 11
322.8430973375036
 21
329.6447826042754
 31
0.0
  0
LINE
  5
1D7
330
56
100
AcDbEntity
  8
1
  6
Continuous
 62
     2
100
AcDbLine
 10
321.8430973375036
 20
331.8941557155854
 30
0.0
 11
321.8430973375036
 21
329.4501304364892
 31
0.0
  0
LINE
  5
1D8
330
56
100
AcDbEntity
  8
1
  6
Continuous
 62
     2
100
AcDbLine
 10
320.8430973375036
 20
332.0840821240377
 30
0.0
 11
320.8430973375036
 21
329.2840821240376
 31
0.0
  0
LINE
  5
1D9
330
56
100
AcDbEntity
  8
1
  6
Continuous
 62
     2
100
AcDbLine
 10
319.8430973375036
 20
332.0840821240377
 30
0.0
 11
319.8430973375036
 21
329.2840821240376
 31
0.0
  0
LINE
  5
1DA
330
56
100
AcDbEntity
  8
1
  6
Continuous
 62
     7
100
AcDbLine
 10
318.8430973375036
 20
332.0840821240377
 30
0.0
 11
319.8430973375035
 21
332.3534043230609
 31
0.0
  0
LINE
  5
1DB
330
56
100
AcDbEntity
  8
1
  6
Continuous
 62
     7
100
AcDbLine
 10
318.8430973375036
 20
329.2840821240376
 30
0.0
 11
318.8430973375036
 21
332.0840821240377
 31
0.0
  0
LINE
  5
1DC
330
56
100
AcDbEntity
  8
1
  6
PHANTOM
 62
     4
100
AcDbLine
 10
325.8430973375036
 20
316.042209431987
 30
0.0
 11
325.8430973375036
 21
333.9499553505345
 31
0.0
  0
LINE
  5
1DD
330
56
100
AcDbEntity
  8
1
  6
Continuous
 62
     2
100
AcDbLine
 10
319.3430973375036
 20
332.0840821240377
 30
0.0
 11
319.3430973375036
 21
329.2840821240376
 31
0.0
  0
LINE
  5
1DE
330
56
100
AcDbEntity
  8
1
  6
Continuous
 62
     2
100
AcDbLine
 10
320.3430973375036
 20
332.0840821240377
 30
0.0
 11
320.3430973375036
 21
329.2840821240376
 31
0.0
  0
LINE
  5
1DF
330
56
100
AcDbEntity
  8
1
  6
Continuous
 62
     7
100
AcDbLine
 10
318.8430973375036
 20
329.2840821240376
 30
0.0
 11
332.8430973375036
 21
329.2840821240376
 31
0.0
  0
LINE
  5
1E0
330
56
100
AcDbEntity
  8
1
  6
Continuous
 62
     2
100
AcDbLine
 10
321.3430973375036
 20
331.9396698890155
 30
0.0
 11
321.3430973375036
 21
329.3896694502251
 31
0.0
  0
LINE
  5
1E1
330
56
100
AcDbEntity
  8
1
  6
Continuous
 62
     2
100
AcDbLine
 10
322.3430973375036
 20
331.8083004413026
 30
0.0
 11
322.3430973375036
 21
329.5385548242998
 31
0.0
  0
LINE
  5
1E2
330
56
100
AcDbEntity
  8
1
  6
Continuous
 62
     2
100
AcDbLine
 10
323.3430973375036
 20
331.6156252513237
 30
0.0
 11
323.3430973375036
 21
329.897631314715
 31
0.0
  0
LINE
  5
1E3
330
56
100
AcDbEntity
  8
1
  6
Continuous
 62
     2
100
AcDbLine
 10
324.3430973375036
 20
331.3704022822594
 30
0.0
 11
324.3430973375036
 21
330.2216759524069
 31
0.0
  0
LINE
  5
1E4
330
56
100
AcDbEntity
  8
1
  6
Continuous
 62
     7
100
AcDbLine
 10
332.8430973375036
 20
332.0840821240377
 30
0.0
 11
332.8430973375036
 21
329.2840821240376
 31
0.0
  0
LINE
  5
1E5
330
56
100
AcDbEntity
  8
1
  6
Continuous
 62
     7
100
AcDbLine
 10
332.8430973375036
 20
332.0840821240377
 30
0.0
 11
331.5930973375036
 21
332.4138478442415
 31
0.0
  0
LINE
  5
1E6
330
56
100
AcDbEntity
  8
1
  6
Continuous
 62
     7
100
AcDbLine
 10
180.8430973374913
 20
332.0901823463721
 30
0.0
 11
166.8430973374913
 21
332.0901823463719
 31
0.0
  0
LINE
  5
1E7
330
56
100
AcDbEntity
  8
1
  6
Continuous
 62
     2
100
AcDbLine
 10
172.8430973374913
 20
331.3325204485432
 30
0.0
 11
172.8430973374913
 21
330.2672813579327
 31
0.0
  0
LINE
  5
1E8
330
56
100
AcDbEntity
  8
1
  6
Continuous
 62
     2
100
AcDbLine
 10
171.8430973374913
 20
331.575835658276
 30
0.0
 11
171.8430973374913
 21
330.0077451342179
 31
0.0
  0
LINE
  5
1E9
330
56
100
AcDbEntity
  8
1
  6
Continuous
 62
     2
100
AcDbLine
 10
170.8430973374913
 20
331.7867088400443
 30
0.0
 11
170.8430973374913
 21
329.6508828266098
 31
0.0
  0
LINE
  5
1EA
330
56
100
AcDbEntity
  8
1
  6
Continuous
 62
     2
100
AcDbLine
 10
169.8430973374913
 20
331.9002559379197
 30
0.0
 11
169.8430973374913
 21
329.4562306588235
 31
0.0
  0
LINE
  5
1EB
330
56
100
AcDbEntity
  8
1
  6
Continuous
 62
     2
100
AcDbLine
 10
168.8430973374913
 20
332.0901823463719
 30
0.0
 11
168.8430973374913
 21
329.290182346372
 31
0.0
  0
LINE
  5
1EC
330
56
100
AcDbEntity
  8
1
  6
Continuous
 62
     2
100
AcDbLine
 10
167.8430973374913
 20
332.0901823463719
 30
0.0
 11
167.8430973374913
 21
329.290182346372
 31
0.0
  0
LINE
  5
1ED
330
56
100
AcDbEntity
  8
1
  6
Continuous
 62
     7
100
AcDbLine
 10
166.8430973374913
 20
332.0901823463719
 30
0.0
 11
167.8430973374912
 21
332.3595045453952
 31
0.0
  0
LINE
  5
1EE
330
56
100
AcDbEntity
  8
1
  6
Continuous
 62
     7
100
AcDbLine
 10
166.8430973374913
 20
329.290182346372
 30
0.0
 11
166.8430973374913
 21
332.0901823463719
 31
0.0
  0
LINE
  5
1EF
330
56
100
AcDbEntity
  8
1
  6
PHANTOM
 62
     4
100
AcDbLine
 10
173.8430973374913
 20
316.1174366290906
 30
0.0
 11
173.8430973374913
 21
334.0251825476382
 31
0.0
  0
LINE
  5
1F0
330
56
100
AcDbEntity
  8
1
  6
Continuous
 62
     2
100
AcDbLine
 10
167.3430973374913
 20
332.0901823463719
 30
0.0
 11
167.3430973374913
 21
329.290182346372
 31
0.0
  0
LINE
  5
1F1
330
56
100
AcDbEntity
  8
1
  6
Continuous
 62
     2
100
AcDbLine
 10
168.3430973374913
 20
332.0901823463719
 30
0.0
 11
168.3430973374913
 21
329.290182346372
 31
0.0
  0
LINE
  5
1F2
330
56
100
AcDbEntity
  8
1
  6
Continuous
 62
     7
100
AcDbLine
 10
166.8430973374913
 20
329.290182346372
 30
0.0
 11
180.8430973374913
 21
329.290182346372
 31
0.0
  0
LINE
  5
1F3
330
56
100
AcDbEntity
  8
1
  6
Continuous
 62
     2
100
AcDbLine
 10
169.3430973374913
 20
331.9457701113497
 30
0.0
 11
169.3430973374913
 21
329.3957696725595
 31
0.0
  0
LINE
  5
1F4
330
56
100
AcDbEntity
  8
1
  6
Continuous
 62
     2
100
AcDbLine
 10
170.3430973374913
 20
331.8144006636369
 30
0.0
 11
170.3430973374913
 21
329.544655046634
 31
0.0
  0
LINE
  5
1F5
330
56
100
AcDbEntity
  8
1
  6
Continuous
 62
     2
100
AcDbLine
 10
171.3430973374913
 20
331.621725473658
 30
0.0
 11
171.3430973374913
 21
329.9037315370493
 31
0.0
  0
LINE
  5
1F6
330
56
100
AcDbEntity
  8
1
  6
Continuous
 62
     2
100
AcDbLine
 10
172.3430973374913
 20
331.3765025045937
 30
0.0
 11
172.3430973374913
 21
330.2277761747412
 31
0.0
  0
LINE
  5
1F7
330
56
100
AcDbEntity
  8
1
  6
Continuous
 62
     7
100
AcDbLine
 10
180.8430973374913
 20
332.0901823463721
 30
0.0
 11
180.8430973374913
 21
329.290182346372
 31
0.0
  0
LINE
  5
1F8
330
56
100
AcDbEntity
  8
1
  6
Continuous
 62
     7
100
AcDbLine
 10
180.8430973374913
 20
332.0901823463721
 30
0.0
 11
179.5930973374913
 21
332.4199480665757
 31
0.0
  0
ARC
  5
1F9
330
56
100
AcDbEntity
  8
1
  6
Continuous
 62
     7
100
AcDbCircle
 10
325.8430973375036
 20
308.0840821240377
 30
0.0
 40
25.0
100
AcDbArc
 50
90.0
 51
103.297071747209
  0
ARC
  5
1FA
330
56
100
AcDbEntity
  8
1
  6
Continuous
 62
     7
100
AcDbCircle
 10
325.8430973375036
 20
308.0840821240377
 30
0.0
 40
25.00000000000007
100
AcDbArc
 50
103.297071747209
 51
103.8865403626293
  0
ARC
  5
1FB
330
56
100
AcDbEntity
  8
1
  6
Continuous
 62
     7
100
AcDbCircle
 10
325.8430973375036
 20
308.0840821240377
 30
0.0
 40
25.00000000000007
100
AcDbArc
 50
76.70292825279098
 51
90.0
  0
ARC
  5
1FC
330
56
100
AcDbEntity
  8
1
  6
Continuous
 62
     7
100
AcDbCircle
 10
173.8430973374913
 20
308.0901823463721
 30
0.0
 40
25.0
100
AcDbArc
 50
90.0
 51
103.2970717472091
  0
ARC
  5
1FD
330
56
100
AcDbEntity
  8
1
  6
Continuous
 62
     7
100
AcDbCircle
 10
173.8430973374913
 20
308.0901823463721
 30
0.0
 40
24.99999999999991
100
AcDbArc
 50
103.2970717472091
 51
103.8865403626292
  0
ARC
  5
1FE
330
56
100
AcDbEntity
  8
1
  6
Continuous
 62
     7
100
AcDbCircle
 10
173.8430973374913
 20
308.0901823463721
 30
0.0
 40
24.99999999999991
100
AcDbArc
 50
76.7029282527909
 51
90.0
  0
CIRCLE
  5
1FF
330
56
100
AcDbEntity
  8
0
  6
Continuous
 62
     7
100
AcDbCircle
 10
173.8430973374913
 20
427.7901823463719
 30
0.0
 40
7.0
  0
ENDBLK
  5
58
330
56
100
AcDbEntity
  8
0
100
AcDbBlockEnd
  0
BLOCK
  5
5A
330
59
100
AcDbEntity
  8
0
100
AcDbBlockBegin
  2
21-1D
 70
     0
 10
716.1429349585546
 20
480.5953528673273
 30
0.0
  3
21-1D
  1

  0
LINE
  5
200
330
59
100
AcDbEntity
  8
1
  6
Continuous
 62
     7
100
AcDbLine
 10
143.4182815411018
 20
318.290182346372
 30
0.0
 11
178.5930973374913
 21
318.290182346372
 31
0.0
  0
LINE
  5
201
330
59
100
AcDbEntity
  8
1
  6
Continuous
 62
     7
100
AcDbLine
 10
147.2901830668761
 20
433.5857373041069
 30
0.0
 11
159.6233325377963
 21
436.8903947449724
 31
0.0
  0
LINE
  5
202
330
59
100
AcDbEntity
  8
1
  6
PHANTOM
 62
     4
100
AcDbLine
 10
173.8430973374913
 20
455.7901823463726
 30
0.0
 11
173.8430973374913
 21
399.7901823463725
 31
0.0
  0
LINE
  5
203
330
59
100
AcDbEntity
  8
1
  6
PHANTOM
 62
     4
100
AcDbLine
 10
192.3424289697227
 20
395.7484000532816
 30
0.0
 11
163.1555606145344
 21
446.3015389582922
 31
0.0
  0
LINE
  5
204
330
59
100
AcDbEntity
  8
1
  6
Continuous
 62
     7
100
AcDbLine
 10
147.2901830668761
 20
421.994627388638
 30
0.0
 11
159.6233325377963
 21
418.6899699477729
 31
0.0
  0
LINE
  5
205
330
59
100
AcDbEntity
  8
1
  6
Continuous
 62
     7
100
AcDbLine
 10
182.1004566503721
 20
401.8969065646422
 30
0.0
 11
173.0719646203173
 21
410.9253985946972
 31
0.0
  0
LINE
  5
206
330
59
100
AcDbEntity
  8
1
  6
Continuous
 62
     7
100
AcDbLine
 10
192.3424289697227
 20
406.9319566197562
 30
0.0
 11
188.8339948543605
 21
420.0256109932968
 31
0.0
  0
LINE
  5
207
330
59
100
AcDbEntity
  8
1
  6
Continuous
 62
     7
100
AcDbLine
 10
192.1386522952258
 20
447.8879031703684
 30
0.0
 11
188.8339948543605
 21
435.5547536994482
 31
0.0
  0
LINE
  5
208
330
59
100
AcDbEntity
  8
1
  6
Continuous
 62
     7
100
AcDbLine
 10
182.1004566503721
 20
453.6834581281028
 30
0.0
 11
173.0719646203173
 21
444.6549660980479
 31
0.0
  0
LINE
  5
209
330
59
100
AcDbEntity
  8
1
  6
PHANTOM
 62
     4
100
AcDbLine
 10
192.3424289697227
 20
459.8319646394637
 30
0.0
 11
162.7891311110158
 21
408.6441512169665
 31
0.0
  0
LINE
  5
20A
330
59
100
AcDbEntity
  8
1
  6
Continuous
 62
     7
100
AcDbLine
 10
187.6353887409819
 20
318.290182346372
 30
0.0
 11
186.0700321098901
 21
318.290182346372
 31
0.0
  0
LINE
  5
20B
330
59
100
AcDbEntity
  8
1
  6
Continuous
 62
     7
100
AcDbLine
 10
178.5930973374913
 20
318.290182346372
 30
0.0
 11
187.6353887409819
 21
318.290182346372
 31
0.0
  0
LINE
  5
20C
330
59
100
AcDbEntity
  8
1
  6
Continuous
 62
     7
100
AcDbLine
 10
169.0930973374913
 20
318.290182346372
 30
0.0
 11
168.0930973374913
 21
318.290182346372
 31
0.0
  0
LINE
  5
20D
330
59
100
AcDbEntity
  8
1
  6
Continuous
 62
     7
100
AcDbLine
 10
143.3750556057235
 20
322.0752621017227
 30
0.0
 11
142.923147506731
 21
318.8597688968521
 31
0.0
  0
LINE
  5
20E
330
59
100
AcDbEntity
  8
1
  6
Continuous
 62
     7
100
AcDbLine
 10
187.6353887409819
 20
318.290182346372
 30
0.0
 11
191.7678716254172
 21
318.290182346372
 31
0.0
  0
LINE
  5
20F
330
59
100
AcDbEntity
  8
1
  6
Continuous
 62
     7
100
AcDbLine
 10
191.6457831918427
 20
323.2492589521156
 30
0.0
 11
192.2630006858502
 21
318.8598042790846
 31
0.0
  0
LINE
  5
210
330
59
100
AcDbEntity
  8
1
  6
PHANTOM
 62
     4
100
AcDbLine
 10
139.8430973374913
 20
427.7901823463726
 30
0.0
 11
190.8117696430323
 21
427.7901823463726
 31
0.0
  0
LINE
  5
211
330
59
100
AcDbEntity
  8
1
  6
Continuous
 62
     7
100
AcDbLine
 10
320.0930973374911
 20
318.2901823463719
 30
0.0
 11
321.0930973374911
 21
318.2901823463719
 31
0.0
  0
LINE
  5
212
330
59
100
AcDbEntity
  8
1
  6
Continuous
 62
     7
100
AcDbLine
 10
331.5930973374911
 20
318.2901823463719
 30
0.0
 11
320.0930973374911
 21
318.2901823463719
 31
0.0
  0
LINE
  5
213
330
59
100
AcDbEntity
  8
0
  6
Continuous
 62
     7
100
AcDbLine
 10
298.2725124121201
 20
318.8597688968517
 30
0.0
 11
298.7939296142349
 21
322.5698450695091
 31
0.0
  0
LINE
  5
214
330
59
100
AcDbEntity
  8
1
  6
Continuous
 62
     7
100
AcDbLine
 10
298.7676464464907
 20
318.2901823463719
 30
0.0
 11
320.0930973374911
 21
318.2901823463719
 31
0.0
  0
LINE
  5
215
330
59
100
AcDbEntity
  8
0
  6
Continuous
 62
     7
100
AcDbLine
 10
352.8922650607474
 20
322.5698450695091
 30
0.0
 11
353.4136822628622
 21
318.8597688968517
 31
0.0
  0
LINE
  5
216
330
59
100
AcDbEntity
  8
1
  6
Continuous
 62
     7
100
AcDbLine
 10
331.5930973374911
 20
318.2901823463719
 30
0.0
 11
330.5930973374911
 21
318.2901823463719
 31
0.0
  0
LINE
  5
217
330
59
100
AcDbEntity
  8
1
  6
Continuous
 62
     7
100
AcDbLine
 10
330.5930973374911
 20
318.2901823463719
 30
0.0
 11
331.5930973374911
 21
318.2901823463719
 31
0.0
  0
LINE
  5
218
330
59
100
AcDbEntity
  8
1
  6
Continuous
 62
     7
100
AcDbLine
 10
331.5930973374911
 20
318.2901823463719
 30
0.0
 11
352.9185482284915
 21
318.2901823463719
 31
0.0
  0
ARC
  5
219
330
59
100
AcDbEntity
  8
1
  6
Continuous
 62
     7
100
AcDbCircle
 10
148.8430973374913
 20
427.7901823463726
 30
0.0
 40
6.0
100
AcDbArc
 50
180.0
 51
254.9999999999999
  0
ARC
  5
21A
330
59
100
AcDbEntity
  8
1
  6
Continuous
 62
     7
100
AcDbCircle
 10
186.3430973374913
 20
406.1395472517615
 30
0.0
 40
5.999999999999908
100
AcDbArc
 50
225.0000000000006
 51
7.52424107894154
  0
ARC
  5
21B
330
59
100
AcDbEntity
  8
1
  6
Continuous
 62
     7
100
AcDbCircle
 10
186.3430973374913
 20
449.4408174409834
 30
0.0
 40
6.000000000000054
100
AcDbArc
 50
345.0000000000017
 51
134.9999999999983
  0
ARC
  5
21C
330
59
100
AcDbEntity
  8
1
  6
Continuous
 62
     7
100
AcDbCircle
 10
148.8430973374913
 20
427.7901823463726
 30
0.0
 40
5.999999999999894
100
AcDbArc
 50
105.0000000000009
 51
180.0
  0
ARC
  5
21D
330
59
100
AcDbEntity
  8
1
  6
Continuous
 62
     7
100
AcDbCircle
 10
174.207293002738
 20
254.3783613376728
 30
0.0
 40
75.00000000000001
100
AcDbArc
 50
80.40850751733483
 51
87.22136103403739
  0
ARC
  5
21E
330
59
100
AcDbEntity
  8
1
  6
Continuous
 62
     7
100
AcDbCircle
 10
173.8430973374913
 20
179.2901823463721
 30
0.0
 40
150.0533238552216
100
AcDbArc
 50
88.4724745577881
 51
99.80290179376779
  0
ARC
  5
21F
330
59
100
AcDbEntity
  8
0
  6
Continuous
 62
     7
100
AcDbCircle
 10
304.7355380266842
 20
321.7348064637488
 30
0.0
 40
6.000000000000107
100
AcDbArc
 50
98.42880002282301
 51
172.0000000000007
  0
ARC
  5
220
330
59
100
AcDbEntity
  8
0
  6
Continuous
 62
     7
100
AcDbCircle
 10
325.8430973374904
 20
179.2901823463788
 30
0.0
 40
149.9999999999931
100
AcDbArc
 50
89.99999999999974
 51
98.42880002282493
  0
ARC
  5
221
330
59
100
AcDbEntity
  8
0
  6
Continuous
 62
     7
100
AcDbCircle
 10
325.8430973374919
 20
179.2901823463788
 30
0.0
 40
149.9999999999932
100
AcDbArc
 50
81.57119997717508
 51
90.0000000000003
  0
ARC
  5
222
330
59
100
AcDbEntity
  8
0
  6
Continuous
 62
     7
100
AcDbCircle
 10
346.950656648298
 20
321.7348064637488
 30
0.0
 40
5.999999999999964
100
AcDbArc
 50
7.99999999999919
 51
81.57119997717594
  0
ARC
  5
223
330
59
100
AcDbEntity
  8
0
  6
Continuous
 62
     7
100
AcDbCircle
 10
151.8587611847208
 20
465.8681695336445
 30
0.0
 40
30.00000000000001
100
AcDbArc
 50
284.9999999999998
 51
314.9999999999998
  0
ARC
  5
224
330
59
100
AcDbEntity
  8
0
  6
Continuous
 62
     7
100
AcDbCircle
 10
217.8117696430324
 20
427.7901823463726
 30
0.0
 40
29.99999999999985
100
AcDbArc
 50
165.0
 51
195.0000000000003
  0
ARC
  5
225
330
59
100
AcDbEntity
  8
0
  6
Continuous
 62
     7
100
AcDbCircle
 10
151.8587611847208
 20
389.7121951591007
 30
0.0
 40
30.00000000000008
100
AcDbArc
 50
45.0
 51
75.00000000000031
  0
ARC
  5
226
330
59
100
AcDbEntity
  8
1
  6
Continuous
 62
     7
100
AcDbCircle
 10
143.4182815411018
 20
318.790182346372
 30
0.0
 40
0.5000000000000303
100
AcDbArc
 50
171.9999999999932
 51
270.0
  0
ARC
  5
227
330
59
100
AcDbEntity
  8
1
  6
Continuous
 62
     7
100
AcDbCircle
 10
149.3166640181728
 20
321.2402234959623
 30
0.0
 40
6.000000000000019
100
AcDbArc
 50
99.8029017937678
 51
171.9999999999996
  0
ARC
  5
228
330
59
100
AcDbEntity
  8
1
  6
Continuous
 62
     7
100
AcDbCircle
 10
185.7042344666455
 20
322.4137957595642
 30
0.0
 40
6.000000000000063
100
AcDbArc
 50
8.00409437170091
 51
80.40850751733541
  0
ARC
  5
229
330
59
100
AcDbEntity
  8
1
  6
Continuous
 62
     7
100
AcDbCircle
 10
191.7678716254172
 20
318.790182346372
 30
0.0
 40
0.5
100
AcDbArc
 50
270.0
 51
8.00409437170165
  0
ARC
  5
22A
330
59
100
AcDbEntity
  8
0
  6
Continuous
 62
     7
100
AcDbCircle
 10
298.7676464464907
 20
318.7901823463719
 30
0.0
 40
0.4999999999997858
100
AcDbArc
 50
172.0000000000287
 51
270.0
  0
ARC
  5
22B
330
59
100
AcDbEntity
  8
0
  6
Continuous
 62
     7
100
AcDbCircle
 10
352.9185482284915
 20
318.7901823463719
 30
0.0
 40
0.5
100
AcDbArc
 50
270.0
 51
7.99999999996953
  0
ENDBLK
  5
5B
330
59
100
AcDbEntity
  8
0
100
AcDbBlockEnd
  0
BLOCK
  5
25A
330
252
100
AcDbEntity
  8
0
100
AcDbBlockBegin
  2
*D8
 70
     1
 10
0.0
 20
0.0
 30
0.0
  3
*D8
  1

  0
LINE
  5
253
330
252
100
AcDbEntity
  8
1
  6
Continuous
 62
     2
100
AcDbLine
 10
185.3430973374914
 20
372.2901823463841
 30
0.0
 11
198.053723931114
 21
372.2901823463841
 31
0.0
  0
LINE
  5
254
330
252
100
AcDbEntity
  8
1
  6
Continuous
 62
     2
100
AcDbLine
 10
162.3430973374913
 20
372.2901823463841
 30
0.0
 11
185.3430973374914
 21
372.2901823463841
 31
0.0
  0
LINE
  5
255
330
252
100
AcDbEntity
  8
1
  6
Continuous
 62
     2
100
AcDbLine
 10
162.3430973374913
 20
393.0223554699577
 30
0.0
 11
162.3430973374913
 21
370.2901823463841
 31
0.0
  0
LINE
  5
256
330
252
100
AcDbEntity
  8
1
  6
Continuous
 62
     2
100
AcDbLine
 10
185.3430973374914
 20
393.0223554699579
 30
0.0
 11
185.3430973374914
 21
370.2901823463841
 31
0.0
  0
SOLID
  5
257
330
252
100
AcDbEntity
  8
1
 62
     2
100
AcDbTrace
 10
169.3430973374913
 20
373.2117498294958
 30
0.0
 11
169.3430973374913
 21
371.3686148632723
 31
0.0
 12
162.3430973374913
 22
372.2901823463841
 32
0.0
 13
162.3430973374913
 23
372.2901823463841
 33
0.0
  0
SOLID
  5
258
330
252
100
AcDbEntity
  8
1
 62
     2
100
AcDbTrace
 10
178.3430973374914
 20
371.3686148632723
 30
0.0
 11
178.3430973374914
 21
373.2117498294958
 31
0.0
 12
185.3430973374914
 22
372.2901823463841
 32
0.0
 13
185.3430973374914
 23
372.2901823463841
 33
0.0
  0
MTEXT
  5
259
330
252
100
AcDbEntity
  8
1
 62
     7
100
AcDbMText
 10
187.553723931114
 20
374.2901823463841
 30
0.0
 40
7.0
 41
0.0
 71
     7
 72
     1
  1
23
  7
CONVERTER_12
 11
0.9999999999970619
 21
2.424068405545306E-6
 31
0.0
 73
     1
 44
0.60024009603842
  0
ENDBLK
  5
25B
330
252
100
AcDbEntity
  8
0
100
AcDbBlockEnd
  0
BLOCK
  5
265
330
25E
100
AcDbEntity
  8
0
100
AcDbBlockBegin
  2
*D9
 70
     1
 10
0.0
 20
0.0
 30
0.0
  3
*D9
  1

  0
LINE
  5
25F
330
25E
100
AcDbEntity
  8
1
  6
Continuous
 62
     2
100
AcDbLine
 10
208.8430973374913
 20
356.2901823463841
 30
0.0
 11
173.8430973374913
 21
356.2901823463841
 31
0.0
  0
LINE
  5
260
330
25E
100
AcDbEntity
  8
1
  6
Continuous
 62
     2
100
AcDbLine
 10
173.8430973374913
 20
392.2901823463841
 30
0.0
 11
173.8430973374913
 21
354.2901823463841
 31
0.0
  0
LINE
  5
261
330
25E
100
AcDbEntity
  8
1
  6
Continuous
 62
     2
100
AcDbLine
 10
208.8430973374913
 20
416.5318520971742
 30
0.0
 11
208.8430973374913
 21
354.2901823463841
 31
0.0
  0
SOLID
  5
262
330
25E
100
AcDbEntity
  8
1
 62
     2
100
AcDbTrace
 10
201.8430973374913
 20
355.3686148632723
 30
0.0
 11
201.8430973374913
 21
357.2117498294958
 31
0.0
 12
208.8430973374913
 22
356.2901823463841
 32
0.0
 13
208.8430973374913
 23
356.2901823463841
 33
0.0
  0
SOLID
  5
263
330
25E
100
AcDbEntity
  8
1
 62
     2
100
AcDbTrace
 10
180.8430973374913
 20
357.2117498294958
 30
0.0
 11
180.8430973374913
 21
355.3686148632723
 31
0.0
 12
173.8430973374913
 22
356.2901823463841
 32
0.0
 13
173.8430973374913
 23
356.2901823463841
 33
0.0
  0
MTEXT
  5
264
330
25E
100
AcDbEntity
  8
1
 62
     7
100
AcDbMText
 10
186.993053296047
 20
358.2901823463841
 30
0.0
 40
7.0
 41
0.0
 71
     7
 72
     1
  1
35
  7
CONVERTER_12
 11
0.9999999999970619
 21
2.424068405545306E-6
 31
0.0
 73
     1
 44
0.60024009603842
  0
ENDBLK
  5
266
330
25E
100
AcDbEntity
  8
0
100
AcDbBlockEnd
  0
BLOCK
  5
270
330
269
100
AcDbEntity
  8
0
100
AcDbBlockBegin
  2
*D10
 70
     1
 10
0.0
 20
0.0
 30
0.0
  3
*D10
  1

  0
LINE
  5
26A
330
269
100
AcDbEntity
  8
1
  6
Continuous
 62
     2
100
AcDbLine
 10
140.8430973374913
 20
356.2901823463841
 30
0.0
 11
173.8430973374913
 21
356.2901823463841
 31
0.0
  0
LINE
  5
26B
330
269
100
AcDbEntity
  8
1
  6
Continuous
 62
     2
100
AcDbLine
 10
173.8430973374913
 20
392.2901823463841
 30
0.0
 11
173.8430973374913
 21
354.2901823463841
 31
0.0
  0
LINE
  5
26C
330
269
100
AcDbEntity
  8
1
  6
Continuous
 62
     2
100
AcDbLine
 10
140.8430973374913
 20
418.4521823463718
 30
0.0
 11
140.8430973374913
 21
354.2901823463841
 31
0.0
  0
SOLID
  5
26D
330
269
100
AcDbEntity
  8
1
 62
     2
100
AcDbTrace
 10
147.8430973374913
 20
357.2117498294958
 30
0.0
 11
147.8430973374913
 21
355.3686148632723
 31
0.0
 12
140.8430973374913
 22
356.2901823463841
 32
0.0
 13
140.8430973374913
 23
356.2901823463841
 33
0.0
  0
SOLID
  5
26E
330
269
100
AcDbEntity
  8
1
 62
     2
100
AcDbTrace
 10
166.8430973374913
 20
355.3686148632723
 30
0.0
 11
166.8430973374913
 21
357.2117498294958
 31
0.0
 12
173.8430973374913
 22
356.2901823463841
 32
0.0
 13
173.8430973374913
 23
356.2901823463841
 33
0.0
  0
MTEXT
  5
26F
330
269
100
AcDbEntity
  8
1
 62
     7
100
AcDbMText
 10
150.33373440998
 20
358.2901823463841
 30
0.0
 40
7.0
 41
0.0
 71
     7
 72
     1
  1
33
  7
CONVERTER_12
 11
0.9999999999970619
 21
2.424068405545306E-6
 31
0.0
 73
     1
 44
0.60024009603842
  0
ENDBLK
  5
271
330
269
100
AcDbEntity
  8
0
100
AcDbBlockEnd
  0
BLOCK
  5
27B
330
274
100
AcDbEntity
  8
0
100
AcDbBlockBegin
  2
*D11
 70
     1
 10
0.0
 20
0.0
 30
0.0
  3
*D11
  1

  0
LINE
  5
275
330
274
100
AcDbEntity
  8
1
  6
Continuous
 62
     2
100
AcDbLine
 10
373.4136822628622
 20
275.790182346372
 30
0.0
 11
373.4136822628622
 21
333.0840821240377
 31
0.0
  0
LINE
  5
276
330
274
100
AcDbEntity
  8
1
  6
Continuous
 62
     2
100
AcDbLine
 10
343.3430973375036
 20
275.790182346372
 30
0.0
 11
375.4136822628622
 21
275.790182346372
 31
0.0
  0
LINE
  5
277
330
274
100
AcDbEntity
  8
1
  6
Continuous
 62
     2
100
AcDbLine
 10
325.8430973375036
 20
333.0840821240377
 30
0.0
 11
375.4136822628622
 21
333.0840821240377
 31
0.0
  0
SOLID
  5
278
330
274
100
AcDbEntity
  8
1
 62
     2
100
AcDbTrace
 10
372.4921147797505
 20
282.790182346372
 30
0.0
 11
374.335249745974
 21
282.790182346372
 31
0.0
 12
373.4136822628622
 22
275.790182346372
 32
0.0
 13
373.4136822628622
 23
275.790182346372
 33
0.0
  0
SOLID
  5
279
330
274
100
AcDbEntity
  8
1
 62
     2
100
AcDbTrace
 10
374.335249745974
 20
326.0840821240377
 30
0.0
 11
372.4921147797505
 21
326.0840821240377
 31
0.0
 12
373.4136822628622
 22
333.0840821240377
 32
0.0
 13
373.4136822628622
 23
333.0840821240377
 33
0.0
  0
MTEXT
  5
27A
330
274
100
AcDbEntity
  8
1
 62
     7
100
AcDbMText
 10
371.4136822628622
 20
284.870476050761
 30
0.0
 40
7.0
 41
0.0
 71
     7
 72
     1
  1
58リフト5
  7
CONVERTER_11
 11
0.0
 21
1.0
 31
0.0
 73
     1
 44
0.45454545454545
  0
ENDBLK
  5
27C
330
274
100
AcDbEntity
  8
0
100
AcDbBlockEnd
  0
BLOCK
  5
286
330
27F
100
AcDbEntity
  8
0
100
AcDbBlockBegin
  2
*D12
 70
     1
 10
0.0
 20
0.0
 30
0.0
  3
*D12
  1

  0
LINE
  5
280
330
27F
100
AcDbEntity
  8
1
  6
Continuous
 62
     2
100
AcDbLine
 10
290.3430973375035
 20
242.7901823463721
 30
0.0
 11
325.8430973375027
 21
242.7901823463721
 31
0.0
  0
LINE
  5
281
330
27F
100
AcDbEntity
  8
1
  6
Continuous
 62
     2
100
AcDbLine
 10
290.3430973375035
 20
264.7901823463718
 30
0.0
 11
290.3430973375035
 21
240.7901823463721
 31
0.0
  0
LINE
  5
282
330
27F
100
AcDbEntity
  8
1
  6
Continuous
 62
     2
100
AcDbLine
 10
325.8430973375027
 20
256.7901823463721
 30
0.0
 11
325.8430973375027
 21
240.7901823463721
 31
0.0
  0
SOLID
  5
283
330
27F
100
AcDbEntity
  8
1
 62
     2
100
AcDbTrace
 10
297.3430973375035
 20
243.7117498294839
 30
0.0
 11
297.3430973375035
 21
241.8686148632603
 31
0.0
 12
290.3430973375035
 22
242.7901823463721
 32
0.0
 13
290.3430973375035
 23
242.7901823463721
 33
0.0
  0
SOLID
  5
284
330
27F
100
AcDbEntity
  8
1
 62
     2
100
AcDbTrace
 10
318.8430973375027
 20
241.8686148632603
 30
0.0
 11
318.8430973375027
 21
243.7117498294839
 31
0.0
 12
325.8430973375027
 22
242.7901823463721
 32
0.0
 13
325.8430973375027
 23
242.7901823463721
 33
0.0
  0
MTEXT
  5
285
330
27F
100
AcDbEntity
  8
1
 62
     7
100
AcDbMText
 10
303.48106143311
 20
244.7901823463721
 30
0.0
 40
7.0
 41
0.0
 71
     7
 72
     1
  1
36
  7
CONVERTER_12
 11
0.9999999999970619
 21
2.424068405545306E-6
 31
0.0
 73
     1
 44
0.60024009603842
  0
ENDBLK
  5
287
330
27F
100
AcDbEntity
  8
0
100
AcDbBlockEnd
  0
BLOCK
  5
293
330
28A
100
AcDbEntity
  8
0
100
AcDbBlockBegin
  2
*D13
 70
     1
 10
0.0
 20
0.0
 30
0.0
  3
*D13
  1

  0
LINE
  5
28B
330
28A
100
AcDbEntity
  8
1
  6
Continuous
 62
     2
100
AcDbLine
 10
149.8430973374913
 20
458.2676823463718
 30
0.0
 11
163.8430973374913
 21
458.2676823463718
 31
0.0
  0
LINE
  5
28C
330
28A
100
AcDbEntity
  8
1
  6
Continuous
 62
     2
100
AcDbLine
 10
140.8430973374913
 20
458.2676823463718
 30
0.0
 11
149.8430973374913
 21
458.2676823463718
 31
0.0
  0
LINE
  5
28D
330
28A
100
AcDbEntity
  8
1
  6
Continuous
 62
     2
100
AcDbLine
 10
126.8430973374913
 20
458.2676823463718
 30
0.0
 11
140.8430973374913
 21
458.2676823463718
 31
0.0
  0
LINE
  5
28E
330
28A
100
AcDbEntity
  8
1
  6
Continuous
 62
     2
100
AcDbLine
 10
140.8430973374913
 20
437.128182346372
 30
0.0
 11
140.8430973374913
 21
460.2676823463718
 31
0.0
  0
LINE
  5
28F
330
28A
100
AcDbEntity
  8
1
  6
Continuous
 62
     2
100
AcDbLine
 10
149.8430973374913
 20
438.2676823463718
 30
0.0
 11
149.8430973374913
 21
460.2676823463718
 31
0.0
  0
SOLID
  5
290
330
28A
100
AcDbEntity
  8
1
 62
     2
100
AcDbTrace
 10
133.8430973374913
 20
457.3461148632601
 30
0.0
 11
133.8430973374913
 21
459.1892498294836
 31
0.0
 12
140.8430973374913
 22
458.2676823463718
 32
0.0
 13
140.8430973374913
 23
458.2676823463718
 33
0.0
  0
SOLID
  5
291
330
28A
100
AcDbEntity
  8
1
 62
     2
100
AcDbTrace
 10
156.8430973374913
 20
459.1892498294836
 30
0.0
 11
156.8430973374913
 21
457.3461148632601
 31
0.0
 12
149.8430973374913
 22
458.2676823463718
 32
0.0
 13
149.8430973374913
 23
458.2676823463718
 33
0.0
  0
MTEXT
  5
292
330
28A
100
AcDbEntity
  8
1
 62
     7
100
AcDbMText
 10
143.330253251234
 20
460.2676823463718
 30
0.0
 40
7.0
 41
0.0
 71
     7
 72
     1
  1
9
  7
CONVERTER_12
 11
0.9999999999970619
 21
2.424068405545306E-6
 31
0.0
 73
     1
 44
0.60024009603842
  0
ENDBLK
  5
294
330
28A
100
AcDbEntity
  8
0
100
AcDbBlockEnd
  0
BLOCK
  5
29E
330
297
100
AcDbEntity
  8
0
100
AcDbBlockBegin
  2
*D14
 70
     1
 10
0.0
 20
0.0
 30
0.0
  3
*D14
  1

  0
LINE
  5
298
330
297
100
AcDbEntity
  8
0
  6
Continuous
 62
     2
100
AcDbLine
 10
140.8430973374913
 20
242.7901823463721
 30
0.0
 11
208.8430973374914
 21
242.7901823463721
 31
0.0
  0
LINE
  5
299
330
297
100
AcDbEntity
  8
0
  6
Continuous
 62
     2
100
AcDbLine
 10
208.8430973374914
 20
262.7901823463721
 30
0.0
 11
208.8430973374914
 21
240.7901823463721
 31
0.0
  0
LINE
  5
29A
330
297
100
AcDbEntity
  8
0
  6
Continuous
 62
     2
100
AcDbLine
 10
140.8430973374913
 20
266.4521823463842
 30
0.0
 11
140.8430973374913
 21
240.7901823463721
 31
0.0
  0
SOLID
  5
29B
330
297
100
AcDbEntity
  8
0
 62
     2
100
AcDbTrace
 10
147.8430973374913
 20
243.7117498294839
 30
0.0
 11
147.8430973374913
 21
241.8686148632603
 31
0.0
 12
140.8430973374913
 22
242.7901823463721
 32
0.0
 13
140.8430973374913
 23
242.7901823463721
 33
0.0
  0
SOLID
  5
29C
330
297
100
AcDbEntity
  8
0
 62
     2
100
AcDbTrace
 10
201.8430973374914
 20
241.8686148632603
 30
0.0
 11
201.8430973374914
 21
243.7117498294839
 31
0.0
 12
208.8430973374914
 22
242.7901823463721
 32
0.0
 13
208.8430973374914
 23
242.7901823463721
 33
0.0
  0
MTEXT
  5
29D
330
297
100
AcDbEntity
  8
0
 62
     7
100
AcDbMText
 10
167.482605620633
 20
244.7901823463721
 30
0.0
 40
7.0
 41
0.0
 71
     7
 72
     1
  1
68
  7
CONVERTER_12
 11
0.9999999999970619
 21
2.424068405545306E-6
 31
0.0
 73
     1
 44
0.60024009603842
  0
ENDBLK
  5
29F
330
297
100
AcDbEntity
  8
0
100
AcDbBlockEnd
  0
BLOCK
  5
2A9
330
2A2
100
AcDbEntity
  8
0
100
AcDbBlockBegin
  2
*D15
 70
     1
 10
0.0
 20
0.0
 30
0.0
  3
*D15
  1

  0
LINE
  5
2A3
330
2A2
100
AcDbEntity
  8
0
  6
Continuous
 62
     2
100
AcDbLine
 10
228.8430973374914
 20
288.790182346372
 30
0.0
 11
228.8430973374914
 21
262.790182346372
 31
0.0
  0
LINE
  5
2A4
330
2A2
100
AcDbEntity
  8
0
  6
Continuous
 62
     2
100
AcDbLine
 10
208.8430973374914
 20
288.790182346372
 30
0.0
 11
230.8430973374914
 21
288.790182346372
 31
0.0
  0
LINE
  5
2A5
330
2A2
100
AcDbEntity
  8
0
  6
Continuous
 62
     2
100
AcDbLine
 10
208.8430973374914
 20
262.790182346372
 30
0.0
 11
230.8430973374914
 21
262.790182346372
 31
0.0
  0
SOLID
  5
2A6
330
2A2
100
AcDbEntity
  8
0
 62
     2
100
AcDbTrace
 10
229.7646648206032
 20
281.790182346372
 30
0.0
 11
227.9215298543796
 21
281.790182346372
 31
0.0
 12
228.8430973374914
 22
288.790182346372
 32
0.0
 13
228.8430973374914
 23
288.790182346372
 33
0.0
  0
SOLID
  5
2A7
330
2A2
100
AcDbEntity
  8
0
 62
     2
100
AcDbTrace
 10
227.9215298543796
 20
269.790182346372
 30
0.0
 11
229.7646648206032
 21
269.790182346372
 31
0.0
 12
228.8430973374914
 22
262.790182346372
 32
0.0
 13
228.8430973374914
 23
262.790182346372
 33
0.0
  0
MTEXT
  5
2A8
330
2A2
100
AcDbEntity
  8
0
 62
     7
100
AcDbMText
 10
226.8430973374914
 20
270.305271975254
 30
0.0
 40
7.0
 41
0.0
 71
     7
 72
     1
  1
26
  7
CONVERTER_12
 11
0.0
 21
1.0
 31
0.0
 73
     1
 44
0.60024009603842
  0
ENDBLK
  5
2AA
330
2A2
100
AcDbEntity
  8
0
100
AcDbBlockEnd
  0
ENDSEC
  0
SECTION
  2
ENTITIES
  0
INSERT
  5
5C
330
1F
100
AcDbEntity
  8
1
100
AcDbBlockReference
  2
開示A4
 10
0.0
 20
0.0
 30
0.0
 41
2.0
 42
2.0
 43
2.0
  0
INSERT
  5
5D
330
1F
100
AcDbEntity
  8
1
100
AcDbBlockReference
  2
32-213
 10
501.8430973375037
 20
181.2901823463719
 30
0.0
  0
INSERT
  5
5E
330
1F
100
AcDbEntity
  8
0
100
AcDbBlockReference
  2
37-1-13
 10
82.0418671207203
 20
204.2944764562274
 30
0.0
  0
INSERT
  5
5F
330
1F
100
AcDbEntity
  8
1
100
AcDbBlockReference
  2
B4111L-0-13
 10
1389.661504197504
 20
181.2901823463719
 30
0.0
  0
INSERT
  5
60
330
1F
100
AcDbEntity
  8
1
100
AcDbBlockReference
  2
36-54
 10
1403.049870261586
 20
698.7320983050794
 30
0.0
  0
INSERT
  5
61
330
1F
100
AcDbEntity
  8
0
100
AcDbBlockReference
  2
42-15
 10
608.2575635923145
 20
571.9764017366708
 30
0.0
  0
INSERT
  5
62
330
1F
100
AcDbEntity
  8
0
100
AcDbBlockReference
  2
21-1D
 10
716.1429349585546
 20
480.5953528673273
 30
0.0
  0
LINE
  5
22C
330
1F
100
AcDbEntity
  8
0
  6
Continuous
 62
     7
100
AcDbLine
 10
262.9742944855921
 20
543.038467965741
 30
0.0
 11
262.9742944855921
 21
495.0384679657411
 31
0.0
  0
LINE
  5
22D
330
1F
100
AcDbEntity
  8
0
  6
Continuous
 62
     2
100
AcDbLine
 10
262.9742944855921
 20
511.038467965741
 30
0.0
 11
383.9742944855921
 21
511.038467965741
 31
0.0
  0
LINE
  5
22E
330
1F
100
AcDbEntity
  8
0
  6
Continuous
 62
     2
100
AcDbLine
 10
262.9742944855921
 20
527.038467965741
 30
0.0
 11
383.9742944855921
 21
527.038467965741
 31
0.0
  0
LINE
  5
22F
330
1F
100
AcDbEntity
  8
0
  6
Continuous
 62
     7
100
AcDbLine
 10
262.9742944855921
 20
543.038467965741
 30
0.0
 11
383.9742944855921
 21
543.038467965741
 31
0.0
  0
LINE
  5
230
330
1F
100
AcDbEntity
  8
1
  6
Continuous
 62
     2
100
AcDbLine
 10
335.4742944855921
 20
495.0384679657411
 30
0.0
 11
335.4742944855921
 21
543.038467965741
 31
0.0
  0
LINE
  5
231
330
1F
100
AcDbEntity
  8
0
  6
Continuous
 62
     7
100
AcDbLine
 10
262.9742944855921
 20
495.0384679657411
 30
0.0
 11
383.9742944855922
 21
495.0384679657413
 31
0.0
  0
LINE
  5
232
330
1F
100
AcDbEntity
  8
0
  6
Continuous
 62
     7
100
AcDbLine
 10
383.9742944855921
 20
543.038467965741
 30
0.0
 11
383.9742944855922
 21
495.0384679657413
 31
0.0
  0
LINE
  5
233
330
1F
100
AcDbEntity
  8
0
  6
PHANTOM
 62
     4
100
AcDbLine
 10
173.8430973374884
 20
410.6863922353838
 30
0.0
 11
173.8430973374884
 21
390.5172237542259
 31
0.0
  0
LINE
  5
234
330
1F
100
AcDbEntity
  8
0
  6
DASH_CENTER
 62
     2
100
AcDbLine
 10
287.3430973375039
 20
275.790182346372
 30
0.0
 11
343.3430973375036
 21
275.790182346372
 31
0.0
  0
LINE
  5
235
330
1F
100
AcDbEntity
  8
1
  6
DASH_CENTER
 62
     2
100
AcDbLine
 10
325.8430973375027
 20
256.7901823463721
 30
0.0
 11
325.8430973375027
 21
334.0251825476382
 31
0.0
  0
LINE
  5
236
330
1F
100
AcDbEntity
  8
0
  6
DASH_CENTER
 62
     2
100
AcDbLine
 10
137.8430973374913
 20
275.790182346372
 30
0.0
 11
173.8430973374913
 21
275.790182346372
 31
0.0
  0
LINE
  5
237
330
1F
100
AcDbEntity
  8
0
  6
DASH_CENTER
 62
     2
100
AcDbLine
 10
137.8430973374913
 20
427.7901823463718
 30
0.0
 11
211.8430973374913
 21
427.7901823463718
 31
0.0
  0
LINE
  5
238
330
1F
100
AcDbEntity
  8
0
  6
DASH_CENTER
 62
     2
100
AcDbLine
 10
173.8430973374913
 20
448.4260988152215
 30
0.0
 11
173.8430973374913
 21
390.5172237542259
 31
0.0
  0
LINE
  5
239
330
1F
100
AcDbEntity
  8
1
  6
DASH_CENTER
 62
     2
100
AcDbLine
 10
173.8430973374913
 20
334.0251825476382
 30
0.0
 11
173.8430973374913
 21
275.1901823463722
 31
0.0
  0
LINE
  5
23A
330
1F
100
AcDbEntity
  8
1
  6
DASH_CENTER
 62
     2
100
AcDbLine
 10
173.8430973374913
 20
275.1901823463722
 30
0.0
 11
173.8430973374913
 21
259.7901823463721
 31
0.0
  0
LINE
  5
23B
330
1F
100
AcDbEntity
  8
0
  6
DASH_CENTER
 62
     2
100
AcDbLine
 10
173.8430973374913
 20
275.790182346372
 30
0.0
 11
211.8430973374914
 21
275.790182346372
 31
0.0
  0
SOLID
  5
23C
330
1F
100
AcDbEntity
  8
1
 62
     2
100
AcDbTrace
 10
213.1411981891679
 20
259.4562882614369
 30
0.0
 11
211.544996485815
 21
258.5347207783251
 31
0.0
 12
208.8430973374914
 22
265.057682346372
 32
0.0
 13
208.8430973374914
 23
265.057682346372
 33
0.0
  0
LEADER
  5
23D
330
1F
100
AcDbEntity
  8
1
  6
Continuous
 62
     2
100
AcDbLeader
  3
Standard
 71
     0
 76
     3
 10
208.8430973374914
 20
265.057682346372
 30
0.0
 10
223.8952269415438
 20
238.9866291100416
 30
0.0
 10
254.9647712449548
 20
238.9866291100416
 30
0.0
  0
SOLID
  5
23E
330
1F
100
AcDbEntity
  8
1
 62
     2
100
AcDbTrace
 10
160.6593251251869
 20
402.517220778331
 30
0.0
 11
159.063123421834
 21
403.4387882614428
 31
0.0
 12
163.3612242735105
 22
409.0401823463779
 32
0.0
 13
163.3612242735105
 23
409.0401823463779
 33
0.0
  0
LEADER
  5
23F
330
1F
100
AcDbEntity
  8
1
  6
Continuous
 62
     2
100
AcDbLeader
  3
Standard
 71
     0
 76
     3
 10
163.3612242735105
 20
409.0401823463779
 30
0.0
 10
132.9059975737613
 20
356.2901823463841
 30
0.0
 10
110.4500823843843
 20
356.2901823463841
 30
0.0
  0
SOLID
  5
240
330
1F
100
AcDbEntity
  8
1
 62
     2
100
AcDbTrace
 10
141.6259964858148
 20
291.869076431307
 30
0.0
 11
143.2221981891677
 21
292.7906439144188
 31
0.0
 12
145.9240973374913
 22
286.2676823463719
 32
0.0
 13
145.9240973374913
 23
286.2676823463719
 33
0.0
  0
LEADER
  5
241
330
1F
100
AcDbEntity
  8
1
  6
Continuous
 62
     2
100
AcDbLeader
  3
Standard
 71
     0
 76
     3
 10
145.9240973374913
 20
286.2676823463719
 30
0.0
 10
134.5151023714303
 20
306.0286412908871
 30
0.0
 10
110.7381511974513
 20
306.0286412908871
 30
0.0
  0
MTEXT
  5
242
330
1F
100
AcDbEntity
  8
1
 62
     7
100
AcDbMText
 10
359.7242944855921
 20
503.2633301028342
 30
0.0
 40
7.0
 41
0.0
 71
     5
 72
     1
  1
赤
  7
CONVERTER_11
 73
     1
 44
0.54545454545455
  0
MTEXT
  5
243
330
1F
100
AcDbEntity
  8
1
 62
     7
100
AcDbMText
 10
359.7242944855921
 20
519.2633301028342
 30
0.0
 40
7.0
 41
0.0
 71
     5
 72
     1
  1
無地
  7
CONVERTER_11
 73
     1
 44
0.54545454545455
  0
MTEXT
  5
244
330
1F
100
AcDbEntity
  8
1
 62
     2
100
AcDbMText
 10
359.7242944855921
 20
536.0384679657415
 30
0.0
 40
7.0
 41
0.0
 71
     5
 72
     1
  1
ビスの色
  7
CONVERTER_11
 73
     1
 44
0.54545454545455
  0
MTEXT
  5
245
330
1F
100
AcDbEntity
  8
1
 62
     2
100
AcDbMText
 10
299.2242944855921
 20
535.038467965741
 30
0.0
 40
7.0
 41
0.0
 71
     5
 72
     1
  1
品番
  7
CONVERTER_11
 73
     1
 44
0.54545454545455
  0
MTEXT
  5
247
330
1F
100
AcDbEntity
  8
1
 62
     7
100
AcDbMText
 10
299.2242944855921
 20
519.2633301028342
 30
0.0
 40
7.0
 41
0.0
 71
     5
 72
     1
  1
B4111-L-13
  7
CONVERTER_12
 73
     1
 44
0.7202881152461
  0
MTEXT
  5
248
330
1F
100
AcDbEntity
  8
1
 62
     7
100
AcDbMText
 10
299.2242944855921
 20
503.2633301028342
 30
0.0
 40
7.0
 41
0.0
 71
     5
 72
     1
  1
B4111-L-13-R
  7
CONVERTER_12
 73
     1
 44
0.7202881152461
  0
MTEXT
  5
249
330
1F
100
AcDbEntity
  8
1
 62
     7
100
AcDbMText
 10
239.4299990932493
 20
244.9866291100416
 30
0.0
 40
7.0
 41
0.0
 71
     5
 72
     1
  1
Rc1/2
  7
CONVERTER_12
 73
     1
 44
0.7202881152461
  0
MTEXT
  5
24A
330
1F
100
AcDbEntity
  8
1
 62
     7
100
AcDbMText
 10
122.1780399790728
 20
362.2901823463841
 30
0.0
 40
7.0
 41
0.0
 71
     5
 72
     1
  1
G1/2
  7
CONVERTER_12
 73
     1
 44
0.7202881152461
  0
MTEXT
  5
24B
330
1F
100
AcDbEntity
  8
1
 62
     7
100
AcDbMText
 10
123.1469449147847
 20
312.0286412908871
 30
0.0
 40
7.0
 41
0.0
 71
     5
 72
     1
  1
G1/2
  7
CONVERTER_12
 73
     1
 44
0.7202881152461
  0
MTEXT
  5
24C
330
1F
100
AcDbEntity
  8
1
 62
     7
100
AcDbMText
 10
114.0
 20
45.50000000000002
 30
0.0
 40
7.0
 41
0.0
 71
     5
 72
     1
  1
ストレート分岐バルブ
  7
CONVERTER_11
 73
     1
 44
0.54545454545455
  0
MTEXT
  5
24D
330
1F
100
AcDbEntity
  8
1
 62
     7
100
AcDbMText
 10
114.0
 20
28.5
 30
0.0
 40
7.0
 41
0.0
 71
     5
 72
     1
  1
B4111-L-13-(色)
  7
CONVERTER_11
 73
     1
 44
0.54545454545455
  0
MTEXT
  5
24E
330
1F
100
AcDbEntity
  8
1
 62
     7
100
AcDbMText
 10
170.5
 20
34.0
 30
0.0
 40
7.0
 41
0.0
 71
     5
 72
     1
  1
1
  7
CONVERTER_12
 73
     1
 44
0.7202881152461
  0
MTEXT
  5
24F
330
1F
100
AcDbEntity
  8
1
 62
     7
100
AcDbMText
 10
187.5
 20
34.0
 30
0.0
 40
7.0
 41
0.0
 71
     5
 72
     1
  1
2
  7
CONVERTER_12
 73
     1
 44
0.7202881152461
  0
MTEXT
  5
250
330
1F
100
AcDbEntity
  8
1
 62
     7
100
AcDbMText
 10
68.0
 20
75.0
 30
0.0
 40
7.0
 41
0.0
 71
     4
 72
     1
  1
JIS
  7
CONVERTER_12
 73
     1
 44
0.7202881152461
  0
MTEXT
  5
251
330
1F
100
AcDbEntity
  8
1
 62
     7
100
AcDbMText
 10
68.0
 20
61.00000000000001
 30
0.0
 40
7.0
 41
0.0
 71
     4
 72
     1
  1
共用形
  7
CONVERTER_11
 73
     1
 44
0.54545454545455
  0
DIMENSION
  5
25D
330
1F
100
AcDbEntity
  8
1
100
AcDbDimension
  2
*D8
 10
162.3430973374913
 20
372.2901823463841
 30
0.0
 11
192.803723931114
 21
377.7901823463841
 31
0.0
 70
    33
  1
<>
 71
     5
 42
-1.0
 53
0.00013888888889
  3
ME10_DIM_10
100
AcDbAlignedDimension
 13
185.3430973374914
 23
393.0223554699579
 33
0.0
 14
162.3430973374913
 24
393.0223554699577
 34
0.0
  0
DIMENSION
  5
268
330
1F
100
AcDbEntity
  8
1
100
AcDbDimension
  2
*D9
 10
208.8430973374913
 20
356.2901823463841
 30
0.0
 11
192.243053296047
 21
361.7901823463841
 31
0.0
 70
    32
  1
<>
 71
     5
 42
-1.0
 53
0.00013888888889
  3
ME10_DIM_11
100
AcDbAlignedDimension
 13
173.8430973374913
 23
392.2901823463841
 33
0.0
 14
208.8430973374913
 24
416.5318520971742
 34
0.0
100
AcDbRotatedDimension
  0
DIMENSION
  5
273
330
1F
100
AcDbEntity
  8
1
100
AcDbDimension
  2
*D10
 10
140.8430973374913
 20
356.2901823463841
 30
0.0
 11
155.58373440998
 21
361.7901823463841
 31
0.0
 70
    32
  1
<>
 71
     5
 42
-1.0
 53
0.00013888888889
  3
ME10_DIM_12
100
AcDbAlignedDimension
 13
173.8430973374913
 23
392.2901823463841
 33
0.0
 14
140.8430973374913
 24
418.4521823463718
 34
0.0
100
AcDbRotatedDimension
  0
DIMENSION
  5
27E
330
1F
100
AcDbEntity
  8
1
100
AcDbDimension
  2
*D11
 10
373.4136822628622
 20
275.790182346372
 30
0.0
 11
367.9136822628622
 21
303.770476050761
 31
0.0
 70
    32
  1
58リフト5
 71
     5
 42
-1.0
 53
90.0
  3
ME10_DIM_13
100
AcDbAlignedDimension
 13
325.8430973375036
 23
333.0840821240377
 33
0.0
 14
343.3430973375036
 24
275.790182346372
 34
0.0
 50
90.0
100
AcDbRotatedDimension
  0
DIMENSION
  5
289
330
1F
100
AcDbEntity
  8
1
100
AcDbDimension
  2
*D12
 10
290.3430973375035
 20
242.7901823463721
 30
0.0
 11
308.73106143311
 21
248.2901823463721
 31
0.0
 70
    32
  1
36
 71
     5
 42
-1.0
 53
0.00013888888889
  3
ME10_DIM_14
100
AcDbAlignedDimension
 13
325.8430973375027
 23
256.7901823463721
 33
0.0
 14
290.3430973375035
 24
264.7901823463717
 34
0.0
100
AcDbRotatedDimension
  0
DIMENSION
  5
296
330
1F
100
AcDbEntity
  8
1
100
AcDbDimension
  2
*D13
 10
140.8430973374913
 20
458.2676823463718
 30
0.0
 11
145.430253251234
 21
463.7676823463718
 31
0.0
 70
    32
  1
<>
 71
     5
 42
-1.0
 53
0.00013888888889
  3
ME10_DIM_15
100
AcDbAlignedDimension
 13
149.8430973374913
 23
438.2676823463718
 33
0.0
 14
140.8430973374913
 24
437.128182346372
 34
0.0
100
AcDbRotatedDimension
  0
DIMENSION
  5
2A1
330
1F
100
AcDbEntity
  8
0
100
AcDbDimension
  2
*D14
 10
140.8430973374913
 20
242.7901823463721
 30
0.0
 11
172.732605620633
 21
248.2901823463721
 31
0.0
 70
    32
  1
<>
 71
     5
 42
-1.0
 53
0.00013888888889
  3
ME10_DIM_16
100
AcDbAlignedDimension
 13
208.8430973374914
 23
262.7901823463721
 33
0.0
 14
140.8430973374913
 24
266.4521823463842
 34
0.0
100
AcDbRotatedDimension
  0
DIMENSION
  5
2AC
330
1F
100
AcDbEntity
  8
0
100
AcDbDimension
  2
*D15
 10
228.8430973374914
 20
288.790182346372
 30
0.0
 11
223.3430973374914
 21
275.555271975254
 31
0.0
 70
    32
  1
<>
 71
     5
 42
-1.0
 53
90.0
  3
ME10_DIM_17
100
AcDbAlignedDimension
 13
208.8430973374914
 23
262.7901823463721
 33
0.0
 14
208.8430973374914
 24
288.790182346372
 34
0.0
 50
90.0
100
AcDbRotatedDimension
  0
ENDSEC
  0
SECTION
  2
OBJECTS
  0
DICTIONARY
  5
C
330
0
100
AcDbDictionary
281
     1
  3
ACAD_GROUP
350
D
  3
ACAD_LAYOUT
350
1A
  3
ACAD_MATERIAL
350
3B
  3
ACAD_MLEADERSTYLE
350
2AF
  3
ACAD_MLINESTYLE
350
17
  3
ACAD_PLOTSETTINGS
350
19
  3
ACAD_PLOTSTYLENAME
350
E
  3
ACAD_VISUALSTYLE
350
2A
  3
AcDbVariableDictionary
350
2AD
  0
DICTIONARY
  5
D
102
{ACAD_REACTORS
330
C
102
}
330
C
100
AcDbDictionary
281
     1
  0
DICTIONARY
  5
1A
102
{ACAD_REACTORS
330
C
102
}
330
C
100
AcDbDictionary
281
     1
  3
Layout1
350
1E
  3
Layout2
350
26
  3
Model
350
22
  0
DICTIONARY
  5
3B
102
{ACAD_REACTORS
330
C
102
}
330
C
100
AcDbDictionary
281
     1
  3
ByBlock
350
3D
  3
ByLayer
350
3C
  3
Global
350
3E
  0
DICTIONARY
  5
2AF
102
{ACAD_REACTORS
330
C
102
}
330
C
100
AcDbDictionary
281
     1
  0
DICTIONARY
  5
17
102
{ACAD_REACTORS
330
C
102
}
330
C
100
AcDbDictionary
281
     1
  3
Standard
350
18
  0
DICTIONARY
  5
19
102
{ACAD_REACTORS
330
C
102
}
330
C
100
AcDbDictionary
281
     1
  0
ACDBDICTIONARYWDFLT
  5
E
102
{ACAD_REACTORS
330
C
102
}
330
C
100
AcDbDictionary
281
     1
  3
Normal
350
F
100
AcDbDictionaryWithDefault
340
F
  0
DICTIONARY
  5
2A
102
{ACAD_REACTORS
330
C
102
}
330
C
100
AcDbDictionary
281
     1
  3
2dWireframe
350
2F
  3
3D Hidden
350
31
  3
3dWireframe
350
30
  3
Basic
350
32
  3
Brighten
350
36
  3
ColorChange
350
3A
  3
Conceptual
350
34
  3
Dim
350
35
  3
Facepattern
350
39
  3
Flat
350
2B
  3
FlatWithEdges
350
2C
  3
Gouraud
350
2D
  3
GouraudWithEdges
350
2E
  3
Linepattern
350
38
  3
Realistic
350
33
  3
Thicken
350
37
  0
DICTIONARY
  5
2AD
102
{ACAD_REACTORS
330
C
102
}
330
C
100
AcDbDictionary
281
     1
  3
DIMASSOC
350
2B0
  3
HIDETEXT
350
2B1
  0
LAYOUT
  5
1E
102
{ACAD_REACTORS
330
1A
102
}
330
1A
100
AcDbPlotSettings
  1

  2
none_device
  4

  6

 40
0.0
 41
0.0
 42
0.0
 43
0.0
 44
0.0
 45
0.0
 46
0.0
 47
0.0
 48
0.0
 49
0.0
140
0.0
141
0.0
142
1.0
143
1.0
 70
   688
 72
     0
 73
     0
 74
     5
  7

 75
    16
147
1.0
148
0.0
149
0.0
100
AcDbLayout
  1
Layout1
 70
     1
 71
     1
 10
0.0
 20
0.0
 11
12.0
 21
9.0
 12
0.0
 22
0.0
 32
0.0
 14
1.00000000000000E+20
 24
1.00000000000000E+20
 34
1.00000000000000E+20
 15
-1.00000000000000E+20
 25
-1.00000000000000E+20
 35
-1.00000000000000E+20
146
0.0
 13
0.0
 23
0.0
 33
0.0
 16
1.0
 26
0.0
 36
0.0
 17
0.0
 27
1.0
 37
0.0
 76
     0
330
1B
  0
LAYOUT
  5
26
102
{ACAD_REACTORS
330
1A
102
}
330
1A
100
AcDbPlotSettings
  1

  2
none_device
  4

  6

 40
0.0
 41
0.0
 42
0.0
 43
0.0
 44
0.0
 45
0.0
 46
0.0
 47
0.0
 48
0.0
 49
0.0
140
0.0
141
0.0
142
1.0
143
1.0
 70
   688
 72
     0
 73
     0
 74
     5
  7

 75
    16
147
1.0
148
0.0
149
0.0
100
AcDbLayout
  1
Layout2
 70
     1
 71
     2
 10
0.0
 20
0.0
 11
0.0
 21
0.0
 12
0.0
 22
0.0
 32
0.0
 14
0.0
 24
0.0
 34
0.0
 15
0.0
 25
0.0
 35
0.0
146
0.0
 13
0.0
 23
0.0
 33
0.0
 16
1.0
 26
0.0
 36
0.0
 17
0.0
 27
1.0
 37
0.0
 76
     0
330
23
  0
LAYOUT
  5
22
102
{ACAD_REACTORS
330
1A
102
}
330
1A
100
AcDbPlotSettings
  1

  2
none_device
  4

  6

 40
0.0
 41
0.0
 42
0.0
 43
0.0
 44
0.0
 45
0.0
 46
0.0
 47
0.0
 48
0.0
 49
0.0
140
0.0
141
0.0
142
1.0
143
1.0
 70
  1712
 72
     0
 73
     0
 74
     0
  7

 75
     0
147
1.0
148
0.0
149
0.0
100
AcDbLayout
  1
Model
 70
     1
 71
     0
 10
0.0
 20
0.0
 11
12.0
 21
9.0
 12
0.0
 22
0.0
 32
0.0
 14
0.0
 24
0.0
 34
0.0
 15
420.0
 25
594.0
 35
0.0
146
0.0
 13
0.0
 23
0.0
 33
0.0
 16
1.0
 26
0.0
 36
0.0
 17
0.0
 27
1.0
 37
0.0
 76
     0
330
1F
331
29
  0
MATERIAL
  5
3D
102
{ACAD_REACTORS
330
3B
102
}
102
{ACAD_XDICTIONARY
360
2D4
102
}
330
3B
100
AcDbMaterial
  1
ByBlock
  0
MATERIAL
  5
3C
102
{ACAD_REACTORS
330
3B
102
}
102
{ACAD_XDICTIONARY
360
2D2
102
}
330
3B
100
AcDbMaterial
  1
ByLayer
  0
MATERIAL
  5
3E
102
{ACAD_REACTORS
330
3B
102
}
102
{ACAD_XDICTIONARY
360
2D6
102
}
330
3B
100
AcDbMaterial
  1
Global
  0
MLINESTYLE
  5
18
102
{ACAD_REACTORS
330
17
102
}
330
17
100
AcDbMlineStyle
  2
Standard
 70
     0
  3

 62
   256
 51
90.0
 52
90.0
 71
     2
 49
0.5
 62
   256
  6
BYLAYER
 49
-0.5
 62
   256
  6
BYLAYER
  0
ACDBPLACEHOLDER
  5
F
102
{ACAD_REACTORS
330
E
102
}
330
E
  0
VISUALSTYLE
  5
2F
102
{ACAD_REACTORS
330
2A
102
}
102
{ACAD_XDICTIONARY
360
2BA
102
}
330
2A
100
AcDbVisualStyle
  2
2dWireframe
 70
     4
 71
     0
 72
     2
 73
     0
 90
        0
 40
-0.6
 41
-30.0
 62
     5
 63
     7
 74
     1
 91
        4
 64
     7
 65
   257
 75
     1
175
     1
 42
1.0
 92
        0
 66
   257
 43
1.0
 76
     1
 77
     6
 78
     2
 67
     7
 79
     5
170
     0
171
     0
290
     0
174
     0
 93
        1
 44
0.0
173
     0
291
     0
 45
0.0
1001
ACAD
1000
AcDbSavedByObjectVersion
1070
     0
  0
VISUALSTYLE
  5
31
102
{ACAD_REACTORS
330
2A
102
}
102
{ACAD_XDICTIONARY
360
2BE
102
}
330
2A
100
AcDbVisualStyle
  2
3D Hidden
 70
     6
 71
     1
 72
     2
 73
     2
 90
        0
 40
-0.6
 41
-30.0
 62
     5
 63
     7
 74
     2
 91
        2
 64
     7
 65
   257
 75
     2
175
     1
 42
40.0
 92
        0
 66
   257
 43
1.0
 76
     1
 77
     6
 78
     2
 67
     7
 79
     3
170
     0
171
     0
290
     0
174
     0
 93
        1
 44
0.0
173
     0
291
     0
 45
0.0
1001
ACAD
1000
AcDbSavedByObjectVersion
1070
     0
  0
VISUALSTYLE
  5
30
102
{ACAD_REACTORS
330
2A
102
}
102
{ACAD_XDICTIONARY
360
2BC
102
}
330
2A
100
AcDbVisualStyle
  2
3dWireframe
 70
     5
 71
     0
 72
     2
 73
     0
 90
        0
 40
-0.6
 41
-30.0
 62
     5
 63
     7
 74
     1
 91
        4
 64
     7
 65
   257
 75
     1
175
     1
 42
1.0
 92
        0
 66
   257
 43
1.0
 76
     1
 77
     6
 78
     2
 67
     7
 79
     5
170
     0
171
     0
290
     0
174
     0
 93
        1
 44
0.0
173
     0
291
     0
 45
0.0
1001
ACAD
1000
AcDbSavedByObjectVersion
1070
     0
  0
VISUALSTYLE
  5
32
102
{ACAD_REACTORS
330
2A
102
}
102
{ACAD_XDICTIONARY
360
2C0
102
}
330
2A
100
AcDbVisualStyle
  2
Basic
 70
     7
 71
     1
 72
     0
 73
     1
 90
        0
 40
-0.6
 41
-30.0
 62
     5
 63
     7
 74
     0
 91
        4
 64
     7
 65
   257
 75
     1
175
     1
 42
1.0
 92
        8
 66
     7
 43
1.0
 76
     1
 77
     6
 78
     2
 67
     7
 79
     5
170
     0
171
     0
290
     0
174
     0
 93
        1
 44
0.0
173
     0
291
     1
 45
0.0
1001
ACAD
1000
AcDbSavedByObjectVersion
1070
     0
  0
VISUALSTYLE
  5
36
102
{ACAD_REACTORS
330
2A
102
}
102
{ACAD_XDICTIONARY
360
2C8
102
}
330
2A
100
AcDbVisualStyle
  2
Brighten
 70
    12
 71
     2
 72
     2
 73
     0
 90
        0
 40
-0.6
 41
-30.0
 62
     5
 63
     7
 74
     1
 91
        4
 64
     7
 65
   257
 75
     1
175
     1
 42
1.0
 92
        8
 66
     7
 43
1.0
 76
     1
 77
     6
 78
     2
 67
     7
 79
     5
170
     0
171
     0
290
     0
174
     0
 93
        1
 44
50.0
173
     0
291
     1
 45
0.0
1001
ACAD
1000
AcDbSavedByObjectVersion
1070
     0
  0
VISUALSTYLE
  5
3A
102
{ACAD_REACTORS
330
2A
102
}
102
{ACAD_XDICTIONARY
360
2D0
102
}
330
2A
100
AcDbVisualStyle
  2
ColorChange
 70
    16
 71
     2
 72
     2
 73
     3
 90
        0
 40
-0.6
 41
-30.0
 62
     5
 63
     8
 74
     1
 91
        4
 64
     7
 65
   257
 75
     1
175
     1
 42
1.0
 92
        8
 66
     8
 43
1.0
 76
     1
 77
     6
 78
     2
 67
     7
 79
     5
170
     0
171
     0
290
     0
174
     0
 93
        1
 44
0.0
173
     0
291
     1
 45
0.0
1001
ACAD
1000
AcDbSavedByObjectVersion
1070
     0
  0
VISUALSTYLE
  5
34
102
{ACAD_REACTORS
330
2A
102
}
102
{ACAD_XDICTIONARY
360
2C4
102
}
330
2A
100
AcDbVisualStyle
  2
Conceptual
 70
     9
 71
     3
 72
     2
 73
     0
 90
        0
 40
-0.6
 41
-30.0
 62
     5
 63
     7
 74
     2
 91
        2
 64
     7
 65
   257
 75
     1
175
     1
 42
40.0
 92
        8
 66
     7
 43
1.0
 76
     1
 77
     6
 78
     2
 67
     7
 79
     3
170
     0
171
     0
290
     0
174
     0
 93
        1
 44
0.0
173
     0
291
     0
 45
0.0
1001
ACAD
1000
AcDbSavedByObjectVersion
1070
     0
  0
VISUALSTYLE
  5
35
102
{ACAD_REACTORS
330
2A
102
}
102
{ACAD_XDICTIONARY
360
2C6
102
}
330
2A
100
AcDbVisualStyle
  2
Dim
 70
    11
 71
     2
 72
     2
 73
     0
 90
        0
 40
-0.6
 41
-30.0
 62
     5
 63
     7
 74
     1
 91
        4
 64
     7
 65
   257
 75
     1
175
     1
 42
1.0
 92
        8
 66
     7
 43
1.0
 76
     1
 77
     6
 78
     2
 67
     7
 79
     5
170
     0
171
     0
290
     0
174
     0
 93
        1
 44
-50.0
173
     0
291
     1
 45
0.0
1001
ACAD
1000
AcDbSavedByObjectVersion
1070
     0
  0
VISUALSTYLE
  5
39
102
{ACAD_REACTORS
330
2A
102
}
102
{ACAD_XDICTIONARY
360
2CE
102
}
330
2A
100
AcDbVisualStyle
  2
Facepattern
 70
    15
 71
     2
 72
     2
 73
     0
 90
        0
 40
-0.6
 41
-30.0
 62
     5
 63
     7
 74
     1
 91
        4
 64
     7
 65
   257
 75
     1
175
     1
 42
1.0
 92
        8
 66
     7
 43
1.0
 76
     1
 77
     6
 78
     2
 67
     7
 79
     5
170
     0
171
     0
290
     0
174
     0
 93
        1
 44
0.0
173
     0
291
     1
 45
0.0
1001
ACAD
1000
AcDbSavedByObjectVersion
1070
     0
  0
VISUALSTYLE
  5
2B
102
{ACAD_REACTORS
330
2A
102
}
102
{ACAD_XDICTIONARY
360
2B2
102
}
330
2A
100
AcDbVisualStyle
  2
Flat
 70
     0
 71
     2
 72
     1
 73
     1
 90
        2
 40
-0.6
 41
30.0
 62
     5
 63
     7
 74
     0
 91
        4
 64
     7
 65
   257
 75
     1
175
     1
 42
1.0
 92
        8
 66
     7
 43
1.0
 76
     1
 77
     6
 78
     2
 67
     7
 79
     5
170
     0
171
     0
290
     0
174
     0
 93
       13
 44
0.0
173
     0
291
     1
 45
0.0
1001
ACAD
1000
AcDbSavedByObjectVersion
1070
     0
  0
VISUALSTYLE
  5
2C
102
{ACAD_REACTORS
330
2A
102
}
102
{ACAD_XDICTIONARY
360
2B4
102
}
330
2A
100
AcDbVisualStyle
  2
FlatWithEdges
 70
     1
 71
     2
 72
     1
 73
     1
 90
        2
 40
-0.6
 41
30.0
 62
     5
 63
     7
 74
     1
 91
        4
 64
     7
 65
   257
 75
     1
175
     1
 42
1.0
 92
        0
 66
   257
 43
1.0
 76
     1
 77
     6
 78
     2
 67
     7
 79
     5
170
     0
171
     0
290
     0
174
     0
 93
       13
 44
0.0
173
     0
291
     1
 45
0.0
1001
ACAD
1000
AcDbSavedByObjectVersion
1070
     0
  0
VISUALSTYLE
  5
2D
102
{ACAD_REACTORS
330
2A
102
}
102
{ACAD_XDICTIONARY
360
2B6
102
}
330
2A
100
AcDbVisualStyle
  2
Gouraud
 70
     2
 71
     2
 72
     2
 73
     1
 90
        2
 40
-0.6
 41
30.0
 62
     5
 63
     7
 74
     0
 91
        4
 64
     7
 65
   257
 75
     1
175
     1
 42
1.0
 92
        0
 66
     7
 43
1.0
 76
     1
 77
     6
 78
     2
 67
     7
 79
     5
170
     0
171
     0
290
     0
174
     0
 93
       13
 44
0.0
173
     0
291
     1
 45
0.0
1001
ACAD
1000
AcDbSavedByObjectVersion
1070
     0
  0
VISUALSTYLE
  5
2E
102
{ACAD_REACTORS
330
2A
102
}
102
{ACAD_XDICTIONARY
360
2B8
102
}
330
2A
100
AcDbVisualStyle
  2
GouraudWithEdges
 70
     3
 71
     2
 72
     2
 73
     1
 90
        2
 40
-0.6
 41
30.0
 62
     5
 63
     7
 74
     1
 91
        4
 64
     7
 65
   257
 75
     1
175
     1
 42
1.0
 92
        0
 66
   257
 43
1.0
 76
     1
 77
     6
 78
     2
 67
     7
 79
     5
170
     0
171
     0
290
     0
174
     0
 93
       13
 44
0.0
173
     0
291
     1
 45
0.0
1001
ACAD
1000
AcDbSavedByObjectVersion
1070
     0
  0
VISUALSTYLE
  5
38
102
{ACAD_REACTORS
330
2A
102
}
102
{ACAD_XDICTIONARY
360
2CC
102
}
330
2A
100
AcDbVisualStyle
  2
Linepattern
 70
    14
 71
     2
 72
     2
 73
     0
 90
        0
 40
-0.6
 41
-30.0
 62
     5
 63
     7
 74
     1
 91
        4
 64
     7
 65
   257
 75
     7
175
     7
 42
1.0
 92
        8
 66
     7
 43
1.0
 76
     1
 77
     6
 78
     2
 67
     7
 79
     5
170
     0
171
     0
290
     0
174
     0
 93
        1
 44
0.0
173
     0
291
     1
 45
0.0
1001
ACAD
1000
AcDbSavedByObjectVersion
1070
     0
  0
VISUALSTYLE
  5
33
102
{ACAD_REACTORS
330
2A
102
}
102
{ACAD_XDICTIONARY
360
2C2
102
}
330
2A
100
AcDbVisualStyle
  2
Realistic
 70
     8
 71
     2
 72
     2
 73
     0
 90
        0
 40
-0.6
 41
-30.0
 62
     5
 63
     7
 74
     1
 91
        0
 64
     7
 65
   257
 75
     1
175
     1
 42
1.0
 92
        8
 66
     8
 43
1.0
 76
     1
 77
     6
 78
     2
 67
     7
 79
     5
170
     0
171
     0
290
     0
174
     0
 93
       13
 44
0.0
173
     0
291
     0
 45
0.0
1001
ACAD
1000
AcDbSavedByObjectVersion
1070
     0
  0
VISUALSTYLE
  5
37
102
{ACAD_REACTORS
330
2A
102
}
102
{ACAD_XDICTIONARY
360
2CA
102
}
330
2A
100
AcDbVisualStyle
  2
Thicken
 70
    13
 71
     2
 72
     2
 73
     0
 90
        0
 40
-0.6
 41
-30.0
 62
     5
 63
     7
 74
     1
 91
        4
 64
     7
 65
   257
 75
     1
175
     1
 42
1.0
 92
       12
 66
     7
 43
1.0
 76
     1
 77
     6
 78
     2
 67
     7
 79
     5
170
     0
171
     0
290
     0
174
     0
 93
        1
 44
0.0
173
     0
291
     1
 45
0.0
1001
ACAD
1000
AcDbSavedByObjectVersion
1070
     0
  0
DICTIONARYVAR
  5
2B0
102
{ACAD_REACTORS
330
2AD
102
}
330
2AD
100
DictionaryVariables
280
     0
  1
2
  0
DICTIONARYVAR
  5
2B1
102
{ACAD_REACTORS
330
2AD
102
}
330
2AD
100
DictionaryVariables
280
     0
  1
1
  0
DICTIONARY
  5
2D4
330
3D
100
AcDbDictionary
280
     1
281
     1
  3
ACAD_XREC_ROUNDTRIP
360
2D5
  0
DICTIONARY
  5
2D2
330
3C
100
AcDbDictionary
280
     1
281
     1
  3
ACAD_XREC_ROUNDTRIP
360
2D3
  0
DICTIONARY
  5
2D6
330
3E
100
AcDbDictionary
280
     1
281
     1
  3
ACAD_XREC_ROUNDTRIP
360
2D7
  0
DICTIONARY
  5
2BA
330
2F
100
AcDbDictionary
280
     1
281
     1
  3
ACAD_XREC_ROUNDTRIP
360
2BB
  0
DICTIONARY
  5
2BE
330
31
100
AcDbDictionary
280
     1
281
     1
  3
ACAD_XREC_ROUNDTRIP
360
2BF
  0
DICTIONARY
  5
2BC
330
30
100
AcDbDictionary
280
     1
281
     1
  3
ACAD_XREC_ROUNDTRIP
360
2BD
  0
DICTIONARY
  5
2C0
330
32
100
AcDbDictionary
280
     1
281
     1
  3
ACAD_XREC_ROUNDTRIP
360
2C1
  0
DICTIONARY
  5
2C8
330
36
100
AcDbDictionary
280
     1
281
     1
  3
ACAD_XREC_ROUNDTRIP
360
2C9
  0
DICTIONARY
  5
2D0
330
3A
100
AcDbDictionary
280
     1
281
     1
  3
ACAD_XREC_ROUNDTRIP
360
2D1
  0
DICTIONARY
  5
2C4
330
34
100
AcDbDictionary
280
     1
281
     1
  3
ACAD_XREC_ROUNDTRIP
360
2C5
  0
DICTIONARY
  5
2C6
330
35
100
AcDbDictionary
280
     1
281
     1
  3
ACAD_XREC_ROUNDTRIP
360
2C7
  0
DICTIONARY
  5
2CE
330
39
100
AcDbDictionary
280
     1
281
     1
  3
ACAD_XREC_ROUNDTRIP
360
2CF
  0
DICTIONARY
  5
2B2
330
2B
100
AcDbDictionary
280
     1
281
     1
  3
ACAD_XREC_ROUNDTRIP
360
2B3
  0
DICTIONARY
  5
2B4
330
2C
100
AcDbDictionary
280
     1
281
     1
  3
ACAD_XREC_ROUNDTRIP
360
2B5
  0
DICTIONARY
  5
2B6
330
2D
100
AcDbDictionary
280
     1
281
     1
  3
ACAD_XREC_ROUNDTRIP
360
2B7
  0
DICTIONARY
  5
2B8
330
2E
100
AcDbDictionary
280
     1
281
     1
  3
ACAD_XREC_ROUNDTRIP
360
2B9
  0
DICTIONARY
  5
2CC
330
38
100
AcDbDictionary
280
     1
281
     1
  3
ACAD_XREC_ROUNDTRIP
360
2CD
  0
DICTIONARY
  5
2C2
330
33
100
AcDbDictionary
280
     1
281
     1
  3
ACAD_XREC_ROUNDTRIP
360
2C3
  0
DICTIONARY
  5
2CA
330
37
100
AcDbDictionary
280
     1
281
     1
  3
ACAD_XREC_ROUNDTRIP
360
2CB
  0
XRECORD
  5
2D5
102
{ACAD_REACTORS
330
2D4
102
}
330
2D4
100
AcDbXrecord
280
     1
102
MATERIAL
148
0.0
149
0.0
149
0.0
 93
        0
 94
      127
282
     0
 72
     1
 77
     1
171
     1
175
     1
179
     1
273
     0
  0
XRECORD
  5
2D3
102
{ACAD_REACTORS
330
2D2
102
}
330
2D2
100
AcDbXrecord
280
     1
102
MATERIAL
148
0.0
149
0.0
149
0.0
 93
        0
 94
      127
282
     0
 72
     1
 77
     1
171
     1
175
     1
179
     1
273
     0
  0
XRECORD
  5
2D7
102
{ACAD_REACTORS
330
2D6
102
}
330
2D6
100
AcDbXrecord
280
     1
102
MATERIAL
148
0.0
149
0.0
149
0.0
 93
        0
 94
      127
282
     0
 72
     1
 77
     1
171
     1
175
     1
179
     1
273
     0
  0
XRECORD
  5
2BB
102
{ACAD_REACTORS
330
2BA
102
}
330
2BA
100
AcDbXrecord
280
     1
102
RTVSPropertyOp0
 70
     1
102
RTVSPropertyOp1
 70
     1
102
RTVSPropertyOp2
 70
     1
102
RTVSPropertyOp3
 70
     1
102
RTVSPropertyOp4
 70
     1
102
RTVSPropertyOp5
 70
     1
102
RTVSPropertyOp6
 70
     1
102
RTVSPropertyOp7
 70
     1
102
RTVSPropertyOp8
 70
     1
102
RTVSPropertyOp9
 70
     1
102
RTVSPropertyOp10
 70
     1
102
RTVSPropertyOp11
 70
     1
102
RTVSPropertyOp12
 70
     1
102
RTVSPropertyOp13
 70
     1
102
RTVSPropertyOp14
 70
     1
102
RTVSPropertyOp15
 70
     1
102
RTVSPropertyOp16
 70
     1
102
RTVSPropertyOp17
 70
     1
102
RTVSPropertyOp18
 70
     1
102
RTVSPropertyOp19
 70
     1
102
RTVSPropertyOp20
 70
     1
102
RTVSPropertyOp21
 70
     1
102
RTVSPropertyOp22
 70
     1
102
RTVSPropertyOp23
 70
     1
102
RTVSPropertyOp24
 70
     1
102
RTVSPropertyOp25
 70
     1
102
RTVSPropertyOp26
 70
     1
102
RTVSPropertyOp27
 70
     1
102
RTVSPropertyOp28
 70
     1
102
RTVSPropertyOp29
 70
     1
102
RTVSPropertyOp30
 70
     1
102
RTVSPropertyOp31
 70
     1
102
RTVSPropertyOp32
 70
     1
  0
XRECORD
  5
2BF
102
{ACAD_REACTORS
330
2BE
102
}
330
2BE
100
AcDbXrecord
280
     1
102
RTVSPropertyOp0
 70
     1
102
RTVSPropertyOp1
 70
     1
102
RTVSPropertyOp2
 70
     1
102
RTVSPropertyOp3
 70
     1
102
RTVSPropertyOp4
 70
     1
102
RTVSPropertyOp5
 70
     1
102
RTVSPropertyOp6
 70
     1
102
RTVSPropertyOp7
 70
     1
102
RTVSPropertyOp8
 70
     1
102
RTVSPropertyOp9
 70
     1
102
RTVSPropertyOp10
 70
     1
102
RTVSPropertyOp11
 70
     1
102
RTVSPropertyOp12
 70
     1
102
RTVSPropertyOp13
 70
     1
102
RTVSPropertyOp14
 70
     1
102
RTVSPropertyOp15
 70
     1
102
RTVSPropertyOp16
 70
     1
102
RTVSPropertyOp17
 70
     1
102
RTVSPropertyOp18
 70
     1
102
RTVSPropertyOp19
 70
     1
102
RTVSPropertyOp20
 70
     1
102
RTVSPropertyOp21
 70
     1
102
RTVSPropertyOp22
 70
     1
102
RTVSPropertyOp23
 70
     1
102
RTVSPropertyOp24
 70
     1
102
RTVSPropertyOp25
 70
     1
102
RTVSPropertyOp26
 70
     1
102
RTVSPropertyOp27
 70
     1
102
RTVSPropertyOp28
 70
     1
102
RTVSPropertyOp29
 70
     1
102
RTVSPropertyOp30
 70
     1
102
RTVSPropertyOp31
 70
     1
102
RTVSPropertyOp32
 70
     1
  0
XRECORD
  5
2BD
102
{ACAD_REACTORS
330
2BC
102
}
330
2BC
100
AcDbXrecord
280
     1
102
RTVSPropertyOp0
 70
     1
102
RTVSPropertyOp1
 70
     1
102
RTVSPropertyOp2
 70
     1
102
RTVSPropertyOp3
 70
     1
102
RTVSPropertyOp4
 70
     1
102
RTVSPropertyOp5
 70
     1
102
RTVSPropertyOp6
 70
     1
102
RTVSPropertyOp7
 70
     1
102
RTVSPropertyOp8
 70
     1
102
RTVSPropertyOp9
 70
     1
102
RTVSPropertyOp10
 70
     1
102
RTVSPropertyOp11
 70
     1
102
RTVSPropertyOp12
 70
     1
102
RTVSPropertyOp13
 70
     1
102
RTVSPropertyOp14
 70
     1
102
RTVSPropertyOp15
 70
     1
102
RTVSPropertyOp16
 70
     1
102
RTVSPropertyOp17
 70
     1
102
RTVSPropertyOp18
 70
     1
102
RTVSPropertyOp19
 70
     1
102
RTVSPropertyOp20
 70
     1
102
RTVSPropertyOp21
 70
     1
102
RTVSPropertyOp22
 70
     1
102
RTVSPropertyOp23
 70
     1
102
RTVSPropertyOp24
 70
     1
102
RTVSPropertyOp25
 70
     1
102
RTVSPropertyOp26
 70
     1
102
RTVSPropertyOp27
 70
     1
102
RTVSPropertyOp28
 70
     1
102
RTVSPropertyOp29
 70
     1
102
RTVSPropertyOp30
 70
     1
102
RTVSPropertyOp31
 70
     1
102
RTVSPropertyOp32
 70
     1
  0
XRECORD
  5
2C1
102
{ACAD_REACTORS
330
2C0
102
}
330
2C0
100
AcDbXrecord
280
     1
102
RTVSPropertyOp0
 70
     1
102
RTVSPropertyOp1
 70
     1
102
RTVSPropertyOp2
 70
     1
102
RTVSPropertyOp3
 70
     1
102
RTVSPropertyOp4
 70
     1
102
RTVSPropertyOp5
 70
     1
102
RTVSPropertyOp6
 70
     1
102
RTVSPropertyOp7
 70
     1
102
RTVSPropertyOp8
 70
     1
102
RTVSPropertyOp9
 70
     1
102
RTVSPropertyOp10
 70
     1
102
RTVSPropertyOp11
 70
     1
102
RTVSPropertyOp12
 70
     1
102
RTVSPropertyOp13
 70
     1
102
RTVSPropertyOp14
 70
     1
102
RTVSPropertyOp15
 70
     1
102
RTVSPropertyOp16
 70
     1
102
RTVSPropertyOp17
 70
     1
102
RTVSPropertyOp18
 70
     1
102
RTVSPropertyOp19
 70
     1
102
RTVSPropertyOp20
 70
     1
102
RTVSPropertyOp21
 70
     1
102
RTVSPropertyOp22
 70
     1
102
RTVSPropertyOp23
 70
     1
102
RTVSPropertyOp24
 70
     1
102
RTVSPropertyOp25
 70
     1
102
RTVSPropertyOp26
 70
     1
102
RTVSPropertyOp27
 70
     1
102
RTVSPropertyOp28
 70
     1
102
RTVSPropertyOp29
 70
     1
102
RTVSPropertyOp30
 70
     1
102
RTVSPropertyOp31
 70
     1
102
RTVSPropertyOp32
 70
     1
  0
XRECORD
  5
2C9
102
{ACAD_REACTORS
330
2C8
102
}
330
2C8
100
AcDbXrecord
280
     1
102
RTVSPropertyOp0
 70
     1
102
RTVSPropertyOp1
 70
     1
102
RTVSPropertyOp2
 70
     1
102
RTVSPropertyOp3
 70
     1
102
RTVSPropertyOp4
 70
     1
102
RTVSPropertyOp5
 70
     1
102
RTVSPropertyOp6
 70
     1
102
RTVSPropertyOp7
 70
     1
102
RTVSPropertyOp8
 70
     1
102
RTVSPropertyOp9
 70
     1
102
RTVSPropertyOp10
 70
     1
102
RTVSPropertyOp11
 70
     1
102
RTVSPropertyOp12
 70
     1
102
RTVSPropertyOp13
 70
     1
102
RTVSPropertyOp14
 70
     1
102
RTVSPropertyOp15
 70
     1
102
RTVSPropertyOp16
 70
     1
102
RTVSPropertyOp17
 70
     1
102
RTVSPropertyOp18
 70
     1
102
RTVSPropertyOp19
 70
     1
102
RTVSPropertyOp20
 70
     1
102
RTVSPropertyOp21
 70
     1
102
RTVSPropertyOp22
 70
     1
102
RTVSPropertyOp23
 70
     1
102
RTVSPropertyOp24
 70
     1
102
RTVSPropertyOp25
 70
     1
102
RTVSPropertyOp26
 70
     1
102
RTVSPropertyOp27
 70
     1
102
RTVSPropertyOp28
 70
     1
102
RTVSPropertyOp29
 70
     1
102
RTVSPropertyOp30
 70
     1
102
RTVSPropertyOp31
 70
     1
102
RTVSPropertyOp32
 70
     1
  0
XRECORD
  5
2D1
102
{ACAD_REACTORS
330
2D0
102
}
330
2D0
100
AcDbXrecord
280
     1
102
RTVSPropertyOp0
 70
     1
102
RTVSPropertyOp1
 70
     1
102
RTVSPropertyOp2
 70
     1
102
RTVSPropertyOp3
 70
     1
102
RTVSPropertyOp4
 70
     1
102
RTVSPropertyOp5
 70
     1
102
RTVSPropertyOp6
 70
     1
102
RTVSPropertyOp7
 70
     1
102
RTVSPropertyOp8
 70
     1
102
RTVSPropertyOp9
 70
     1
102
RTVSPropertyOp10
 70
     1
102
RTVSPropertyOp11
 70
     1
102
RTVSPropertyOp12
 70
     1
102
RTVSPropertyOp13
 70
     1
102
RTVSPropertyOp14
 70
     1
102
RTVSPropertyOp15
 70
     1
102
RTVSPropertyOp16
 70
     1
102
RTVSPropertyOp17
 70
     1
102
RTVSPropertyOp18
 70
     1
102
RTVSPropertyOp19
 70
     1
102
RTVSPropertyOp20
 70
     1
102
RTVSPropertyOp21
 70
     1
102
RTVSPropertyOp22
 70
     1
102
RTVSPropertyOp23
 70
     1
102
RTVSPropertyOp24
 70
     1
102
RTVSPropertyOp25
 70
     1
102
RTVSPropertyOp26
 70
     1
102
RTVSPropertyOp27
 70
     1
102
RTVSPropertyOp28
 70
     1
102
RTVSPropertyOp29
 70
     1
102
RTVSPropertyOp30
 70
     1
102
RTVSPropertyOp31
 70
     1
102
RTVSPropertyOp32
 70
     1
  0
XRECORD
  5
2C5
102
{ACAD_REACTORS
330
2C4
102
}
330
2C4
100
AcDbXrecord
280
     1
102
RTVSPropertyOp0
 70
     1
102
RTVSPropertyOp1
 70
     1
102
RTVSPropertyOp2
 70
     1
102
RTVSPropertyOp3
 70
     1
102
RTVSPropertyOp4
 70
     1
102
RTVSPropertyOp5
 70
     1
102
RTVSPropertyOp6
 70
     1
102
RTVSPropertyOp7
 70
     1
102
RTVSPropertyOp8
 70
     1
102
RTVSPropertyOp9
 70
     1
102
RTVSPropertyOp10
 70
     1
102
RTVSPropertyOp11
 70
     1
102
RTVSPropertyOp12
 70
     1
102
RTVSPropertyOp13
 70
     1
102
RTVSPropertyOp14
 70
     1
102
RTVSPropertyOp15
 70
     1
102
RTVSPropertyOp16
 70
     1
102
RTVSPropertyOp17
 70
     1
102
RTVSPropertyOp18
 70
     1
102
RTVSPropertyOp19
 70
     1
102
RTVSPropertyOp20
 70
     1
102
RTVSPropertyOp21
 70
     1
102
RTVSPropertyOp22
 70
     1
102
RTVSPropertyOp23
 70
     1
102
RTVSPropertyOp24
 70
     1
102
RTVSPropertyOp25
 70
     1
102
RTVSPropertyOp26
 70
     1
102
RTVSPropertyOp27
 70
     1
102
RTVSPropertyOp28
 70
     1
102
RTVSPropertyOp29
 70
     1
102
RTVSPropertyOp30
 70
     1
102
RTVSPropertyOp31
 70
     1
102
RTVSPropertyOp32
 70
     1
  0
XRECORD
  5
2C7
102
{ACAD_REACTORS
330
2C6
102
}
330
2C6
100
AcDbXrecord
280
     1
102
RTVSPropertyOp0
 70
     1
102
RTVSPropertyOp1
 70
     1
102
RTVSPropertyOp2
 70
     1
102
RTVSPropertyOp3
 70
     1
102
RTVSPropertyOp4
 70
     1
102
RTVSPropertyOp5
 70
     1
102
RTVSPropertyOp6
 70
     1
102
RTVSPropertyOp7
 70
     1
102
RTVSPropertyOp8
 70
     1
102
RTVSPropertyOp9
 70
     1
102
RTVSPropertyOp10
 70
     1
102
RTVSPropertyOp11
 70
     1
102
RTVSPropertyOp12
 70
     1
102
RTVSPropertyOp13
 70
     1
102
RTVSPropertyOp14
 70
     1
102
RTVSPropertyOp15
 70
     1
102
RTVSPropertyOp16
 70
     1
102
RTVSPropertyOp17
 70
     1
102
RTVSPropertyOp18
 70
     1
102
RTVSPropertyOp19
 70
     1
102
RTVSPropertyOp20
 70
     1
102
RTVSPropertyOp21
 70
     1
102
RTVSPropertyOp22
 70
     1
102
RTVSPropertyOp23
 70
     1
102
RTVSPropertyOp24
 70
     1
102
RTVSPropertyOp25
 70
     1
102
RTVSPropertyOp26
 70
     1
102
RTVSPropertyOp27
 70
     1
102
RTVSPropertyOp28
 70
     1
102
RTVSPropertyOp29
 70
     1
102
RTVSPropertyOp30
 70
     1
102
RTVSPropertyOp31
 70
     1
102
RTVSPropertyOp32
 70
     1
  0
XRECORD
  5
2CF
102
{ACAD_REACTORS
330
2CE
102
}
330
2CE
100
AcDbXrecord
280
     1
102
RTVSPropertyOp0
 70
     1
102
RTVSPropertyOp1
 70
     1
102
RTVSPropertyOp2
 70
     1
102
RTVSPropertyOp3
 70
     1
102
RTVSPropertyOp4
 70
     1
102
RTVSPropertyOp5
 70
     1
102
RTVSPropertyOp6
 70
     1
102
RTVSPropertyOp7
 70
     1
102
RTVSPropertyOp8
 70
     1
102
RTVSPropertyOp9
 70
     1
102
RTVSPropertyOp10
 70
     1
102
RTVSPropertyOp11
 70
     1
102
RTVSPropertyOp12
 70
     1
102
RTVSPropertyOp13
 70
     1
102
RTVSPropertyOp14
 70
     1
102
RTVSPropertyOp15
 70
     1
102
RTVSPropertyOp16
 70
     1
102
RTVSPropertyOp17
 70
     1
102
RTVSPropertyOp18
 70
     1
102
RTVSPropertyOp19
 70
     1
102
RTVSPropertyOp20
 70
     1
102
RTVSPropertyOp21
 70
     1
102
RTVSPropertyOp22
 70
     1
102
RTVSPropertyOp23
 70
     1
102
RTVSPropertyOp24
 70
     1
102
RTVSPropertyOp25
 70
     1
102
RTVSPropertyOp26
 70
     1
102
RTVSPropertyOp27
 70
     1
102
RTVSPropertyOp28
 70
     1
102
RTVSPropertyOp29
 70
     1
102
RTVSPropertyOp30
 70
     1
102
RTVSPropertyOp31
 70
     1
102
RTVSPropertyOp32
 70
     1
  0
XRECORD
  5
2B3
102
{ACAD_REACTORS
330
2B2
102
}
330
2B2
100
AcDbXrecord
280
     1
102
RTVSPropertyOp0
 70
     1
102
RTVSPropertyOp1
 70
     1
102
RTVSPropertyOp2
 70
     1
102
RTVSPropertyOp3
 70
     1
102
RTVSPropertyOp4
 70
     1
102
RTVSPropertyOp5
 70
     1
102
RTVSPropertyOp6
 70
     1
102
RTVSPropertyOp7
 70
     1
102
RTVSPropertyOp8
 70
     1
102
RTVSPropertyOp9
 70
     1
102
RTVSPropertyOp10
 70
     1
102
RTVSPropertyOp11
 70
     1
102
RTVSPropertyOp12
 70
     1
102
RTVSPropertyOp13
 70
     1
102
RTVSPropertyOp14
 70
     1
102
RTVSPropertyOp15
 70
     1
102
RTVSPropertyOp16
 70
     1
102
RTVSPropertyOp17
 70
     1
102
RTVSPropertyOp18
 70
     1
102
RTVSPropertyOp19
 70
     1
102
RTVSPropertyOp20
 70
     1
102
RTVSPropertyOp21
 70
     1
102
RTVSPropertyOp22
 70
     1
102
RTVSPropertyOp23
 70
     1
102
RTVSPropertyOp24
 70
     1
102
RTVSPropertyOp25
 70
     1
102
RTVSPropertyOp26
 70
     1
102
RTVSPropertyOp27
 70
     1
102
RTVSPropertyOp28
 70
     1
102
RTVSPropertyOp29
 70
     1
102
RTVSPropertyOp30
 70
     1
102
RTVSPropertyOp31
 70
     1
102
RTVSPropertyOp32
 70
     1
  0
XRECORD
  5
2B5
102
{ACAD_REACTORS
330
2B4
102
}
330
2B4
100
AcDbXrecord
280
     1
102
RTVSPropertyOp0
 70
     1
102
RTVSPropertyOp1
 70
     1
102
RTVSPropertyOp2
 70
     1
102
RTVSPropertyOp3
 70
     1
102
RTVSPropertyOp4
 70
     1
102
RTVSPropertyOp5
 70
     1
102
RTVSPropertyOp6
 70
     1
102
RTVSPropertyOp7
 70
     1
102
RTVSPropertyOp8
 70
     1
102
RTVSPropertyOp9
 70
     1
102
RTVSPropertyOp10
 70
     1
102
RTVSPropertyOp11
 70
     1
102
RTVSPropertyOp12
 70
     1
102
RTVSPropertyOp13
 70
     1
102
RTVSPropertyOp14
 70
     1
102
RTVSPropertyOp15
 70
     1
102
RTVSPropertyOp16
 70
     1
102
RTVSPropertyOp17
 70
     1
102
RTVSPropertyOp18
 70
     1
102
RTVSPropertyOp19
 70
     1
102
RTVSPropertyOp20
 70
     1
102
RTVSPropertyOp21
 70
     1
102
RTVSPropertyOp22
 70
     1
102
RTVSPropertyOp23
 70
     1
102
RTVSPropertyOp24
 70
     1
102
RTVSPropertyOp25
 70
     1
102
RTVSPropertyOp26
 70
     1
102
RTVSPropertyOp27
 70
     1
102
RTVSPropertyOp28
 70
     1
102
RTVSPropertyOp29
 70
     1
102
RTVSPropertyOp30
 70
     1
102
RTVSPropertyOp31
 70
     1
102
RTVSPropertyOp32
 70
     1
  0
XRECORD
  5
2B7
102
{ACAD_REACTORS
330
2B6
102
}
330
2B6
100
AcDbXrecord
280
     1
102
RTVSPropertyOp0
 70
     1
102
RTVSPropertyOp1
 70
     1
102
RTVSPropertyOp2
 70
     1
102
RTVSPropertyOp3
 70
     1
102
RTVSPropertyOp4
 70
     1
102
RTVSPropertyOp5
 70
     1
102
RTVSPropertyOp6
 70
     1
102
RTVSPropertyOp7
 70
     1
102
RTVSPropertyOp8
 70
     1
102
RTVSPropertyOp9
 70
     1
102
RTVSPropertyOp10
 70
     1
102
RTVSPropertyOp11
 70
     1
102
RTVSPropertyOp12
 70
     1
102
RTVSPropertyOp13
 70
     1
102
RTVSPropertyOp14
 70
     1
102
RTVSPropertyOp15
 70
     1
102
RTVSPropertyOp16
 70
     1
102
RTVSPropertyOp17
 70
     1
102
RTVSPropertyOp18
 70
     1
102
RTVSPropertyOp19
 70
     1
102
RTVSPropertyOp20
 70
     1
102
RTVSPropertyOp21
 70
     1
102
RTVSPropertyOp22
 70
     1
102
RTVSPropertyOp23
 70
     1
102
RTVSPropertyOp24
 70
     1
102
RTVSPropertyOp25
 70
     1
102
RTVSPropertyOp26
 70
     1
102
RTVSPropertyOp27
 70
     1
102
RTVSPropertyOp28
 70
     1
102
RTVSPropertyOp29
 70
     1
102
RTVSPropertyOp30
 70
     1
102
RTVSPropertyOp31
 70
     1
102
RTVSPropertyOp32
 70
     1
  0
XRECORD
  5
2B9
102
{ACAD_REACTORS
330
2B8
102
}
330
2B8
100
AcDbXrecord
280
     1
102
RTVSPropertyOp0
 70
     1
102
RTVSPropertyOp1
 70
     1
102
RTVSPropertyOp2
 70
     1
102
RTVSPropertyOp3
 70
     1
102
RTVSPropertyOp4
 70
     1
102
RTVSPropertyOp5
 70
     1
102
RTVSPropertyOp6
 70
     1
102
RTVSPropertyOp7
 70
     1
102
RTVSPropertyOp8
 70
     1
102
RTVSPropertyOp9
 70
     1
102
RTVSPropertyOp10
 70
     1
102
RTVSPropertyOp11
 70
     1
102
RTVSPropertyOp12
 70
     1
102
RTVSPropertyOp13
 70
     1
102
RTVSPropertyOp14
 70
     1
102
RTVSPropertyOp15
 70
     1
102
RTVSPropertyOp16
 70
     1
102
RTVSPropertyOp17
 70
     1
102
RTVSPropertyOp18
 70
     1
102
RTVSPropertyOp19
 70
     1
102
RTVSPropertyOp20
 70
     1
102
RTVSPropertyOp21
 70
     1
102
RTVSPropertyOp22
 70
     1
102
RTVSPropertyOp23
 70
     1
102
RTVSPropertyOp24
 70
     1
102
RTVSPropertyOp25
 70
     1
102
RTVSPropertyOp26
 70
     1
102
RTVSPropertyOp27
 70
     1
102
RTVSPropertyOp28
 70
     1
102
RTVSPropertyOp29
 70
     1
102
RTVSPropertyOp30
 70
     1
102
RTVSPropertyOp31
 70
     1
102
RTVSPropertyOp32
 70
     1
  0
XRECORD
  5
2CD
102
{ACAD_REACTORS
330
2CC
102
}
330
2CC
100
AcDbXrecord
280
     1
102
RTVSPropertyOp0
 70
     1
102
RTVSPropertyOp1
 70
     1
102
RTVSPropertyOp2
 70
     1
102
RTVSPropertyOp3
 70
     1
102
RTVSPropertyOp4
 70
     1
102
RTVSPropertyOp5
 70
     1
102
RTVSPropertyOp6
 70
     1
102
RTVSPropertyOp7
 70
     1
102
RTVSPropertyOp8
 70
     1
102
RTVSPropertyOp9
 70
     1
102
RTVSPropertyOp10
 70
     1
102
RTVSPropertyOp11
 70
     1
102
RTVSPropertyOp12
 70
     1
102
RTVSPropertyOp13
 70
     1
102
RTVSPropertyOp14
 70
     1
102
RTVSPropertyOp15
 70
     1
102
RTVSPropertyOp16
 70
     1
102
RTVSPropertyOp17
 70
     1
102
RTVSPropertyOp18
 70
     1
102
RTVSPropertyOp19
 70
     1
102
RTVSPropertyOp20
 70
     1
102
RTVSPropertyOp21
 70
     1
102
RTVSPropertyOp22
 70
     1
102
RTVSPropertyOp23
 70
     1
102
RTVSPropertyOp24
 70
     1
102
RTVSPropertyOp25
 70
     1
102
RTVSPropertyOp26
 70
     1
102
RTVSPropertyOp27
 70
     1
102
RTVSPropertyOp28
 70
     1
102
RTVSPropertyOp29
 70
     1
102
RTVSPropertyOp30
 70
     1
102
RTVSPropertyOp31
 70
     1
102
RTVSPropertyOp32
 70
     1
  0
XRECORD
  5
2C3
102
{ACAD_REACTORS
330
2C2
102
}
330
2C2
100
AcDbXrecord
280
     1
102
RTVSPropertyOp0
 70
     1
102
RTVSPropertyOp1
 70
     1
102
RTVSPropertyOp2
 70
     1
102
RTVSPropertyOp3
 70
     1
102
RTVSPropertyOp4
 70
     1
102
RTVSPropertyOp5
 70
     1
102
RTVSPropertyOp6
 70
     1
102
RTVSPropertyOp7
 70
     1
102
RTVSPropertyOp8
 70
     1
102
RTVSPropertyOp9
 70
     1
102
RTVSPropertyOp10
 70
     1
102
RTVSPropertyOp11
 70
     1
102
RTVSPropertyOp12
 70
     1
102
RTVSPropertyOp13
 70
     1
102
RTVSPropertyOp14
 70
     1
102
RTVSPropertyOp15
 70
     1
102
RTVSPropertyOp16
 70
     1
102
RTVSPropertyOp17
 70
     1
102
RTVSPropertyOp18
 70
     1
102
RTVSPropertyOp19
 70
     1
102
RTVSPropertyOp20
 70
     1
102
RTVSPropertyOp21
 70
     1
102
RTVSPropertyOp22
 70
     1
102
RTVSPropertyOp23
 70
     1
102
RTVSPropertyOp24
 70
     1
102
RTVSPropertyOp25
 70
     1
102
RTVSPropertyOp26
 70
     1
102
RTVSPropertyOp27
 70
     1
102
RTVSPropertyOp28
 70
     1
102
RTVSPropertyOp29
 70
     1
102
RTVSPropertyOp30
 70
     1
102
RTVSPropertyOp31
 70
     1
102
RTVSPropertyOp32
 70
     1
  0
XRECORD
  5
2CB
102
{ACAD_REACTORS
330
2CA
102
}
330
2CA
100
AcDbXrecord
280
     1
102
RTVSPropertyOp0
 70
     1
102
RTVSPropertyOp1
 70
     1
102
RTVSPropertyOp2
 70
     1
102
RTVSPropertyOp3
 70
     1
102
RTVSPropertyOp4
 70
     1
102
RTVSPropertyOp5
 70
     1
102
RTVSPropertyOp6
 70
     1
102
RTVSPropertyOp7
 70
     1
102
RTVSPropertyOp8
 70
     1
102
RTVSPropertyOp9
 70
     1
102
RTVSPropertyOp10
 70
     1
102
RTVSPropertyOp11
 70
     1
102
RTVSPropertyOp12
 70
     1
102
RTVSPropertyOp13
 70
     1
102
RTVSPropertyOp14
 70
     1
102
RTVSPropertyOp15
 70
     1
102
RTVSPropertyOp16
 70
     1
102
RTVSPropertyOp17
 70
     1
102
RTVSPropertyOp18
 70
     1
102
RTVSPropertyOp19
 70
     1
102
RTVSPropertyOp20
 70
     1
102
RTVSPropertyOp21
 70
     1
102
RTVSPropertyOp22
 70
     1
102
RTVSPropertyOp23
 70
     1
102
RTVSPropertyOp24
 70
     1
102
RTVSPropertyOp25
 70
     1
102
RTVSPropertyOp26
 70
     1
102
RTVSPropertyOp27
 70
     1
102
RTVSPropertyOp28
 70
     1
102
RTVSPropertyOp29
 70
     1
102
RTVSPropertyOp30
 70
     1
102
RTVSPropertyOp31
 70
     1
102
RTVSPropertyOp32
 70
     1
  0
ENDSEC
  0
EOF
