  0
SECTION
  2
HEADER
  9
$ACADVER
  1
AC1015
  9
$ACADMAINTVER
 70
     6
  9
$DWGCODEPAGE
  3
ANSI_932
  9
$INSBASE
 10
0.0
 20
0.0
 30
0.0
  9
$EXTMIN
 10
0.0
 20
0.0
 30
0.0
  9
$EXTMAX
 10
420.0
 20
594.0
 30
0.0
  9
$LIMMIN
 10
0.0
 20
0.0
  9
$LIMMAX
 10
12.0
 20
9.0
  9
$ORTHOMODE
 70
     0
  9
$REGENMODE
 70
     1
  9
$FILLMODE
 70
     1
  9
$QTEXTMODE
 70
     0
  9
$MIRRTEXT
 70
     1
  9
$LTSCALE
 40
1.0
  9
$ATTMODE
 70
     1
  9
$TEXTSIZE
 40
0.2
  9
$TRACEWID
 40
0.05
  9
$TEXTSTYLE
  7
Standard
  9
$CLAYER
  8
0
  9
$CELTYPE
  6
ByLayer
  9
$CECOLOR
 62
   256
  9
$CELTSCALE
 40
1.0
  9
$DISPSILH
 70
     0
  9
$DIMSCALE
 40
1.0
  9
$DIMASZ
 40
0.18
  9
$DIMEXO
 40
0.0625
  9
$DIMDLI
 40
0.38
  9
$DIMRND
 40
0.0
  9
$DIMDLE
 40
0.0
  9
$DIMEXE
 40
0.18
  9
$DIMTP
 40
0.0
  9
$DIMTM
 40
0.0
  9
$DIMTXT
 40
0.18
  9
$DIMCEN
 40
0.09
  9
$DIMTSZ
 40
0.0
  9
$DIMTOL
 70
     0
  9
$DIMLIM
 70
     0
  9
$DIMTIH
 70
     1
  9
$DIMTOH
 70
     1
  9
$DIMSE1
 70
     0
  9
$DIMSE2
 70
     0
  9
$DIMTAD
 70
     0
  9
$DIMZIN
 70
     0
  9
$DIMBLK
  1

  9
$DIMASO
 70
     1
  9
$DIMSHO
 70
     1
  9
$DIMPOST
  1

  9
$DIMAPOST
  1

  9
$DIMALT
 70
     0
  9
$DIMALTD
 70
     2
  9
$DIMALTF
 40
25.4
  9
$DIMLFAC
 40
1.0
  9
$DIMTOFL
 70
     0
  9
$DIMTVP
 40
0.0
  9
$DIMTIX
 70
     0
  9
$DIMSOXD
 70
     0
  9
$DIMSAH
 70
     0
  9
$DIMBLK1
  1

  9
$DIMBLK2
  1

  9
$DIMSTYLE
  2
Standard
  9
$DIMCLRD
 70
     0
  9
$DIMCLRE
 70
     0
  9
$DIMCLRT
 70
     0
  9
$DIMTFAC
 40
1.0
  9
$DIMGAP
 40
0.09
  9
$DIMJUST
 70
     0
  9
$DIMSD1
 70
     0
  9
$DIMSD2
 70
     0
  9
$DIMTOLJ
 70
     1
  9
$DIMTZIN
 70
     0
  9
$DIMALTZ
 70
     0
  9
$DIMALTTZ
 70
     0
  9
$DIMUPT
 70
     0
  9
$DIMDEC
 70
     4
  9
$DIMTDEC
 70
     4
  9
$DIMALTU
 70
     2
  9
$DIMALTTD
 70
     2
  9
$DIMTXSTY
  7
Standard
  9
$DIMAUNIT
 70
     0
  9
$DIMADEC
 70
     0
  9
$DIMALTRND
 40
0.0
  9
$DIMAZIN
 70
     0
  9
$DIMDSEP
 70
    46
  9
$DIMATFIT
 70
     3
  9
$DIMFRAC
 70
     0
  9
$DIMLDRBLK
  1

  9
$DIMLUNIT
 70
     2
  9
$DIMLWD
 70
    -2
  9
$DIMLWE
 70
    -2
  9
$DIMTMOVE
 70
     0
  9
$LUNITS
 70
     2
  9
$LUPREC
 70
     4
  9
$SKETCHINC
 40
0.1
  9
$FILLETRAD
 40
0.5
  9
$AUNITS
 70
     0
  9
$AUPREC
 70
     0
  9
$MENU
  1
.
  9
$ELEVATION
 40
0.0
  9
$PELEVATION
 40
0.0
  9
$THICKNESS
 40
0.0
  9
$LIMCHECK
 70
     0
  9
$CHAMFERA
 40
0.5
  9
$CHAMFERB
 40
0.5
  9
$CHAMFERC
 40
1.0
  9
$CHAMFERD
 40
0.0
  9
$SKPOLY
 70
     0
  9
$TDCREATE
 40
2457186.576997847
  9
$TDUCREATE
 40
2457186.201997847
  9
$TDUPDATE
 40
2457186.576999109
  9
$TDUUPDATE
 40
2457186.201999109
  9
$TDINDWG
 40
0.0000000116
  9
$TDUSRTIMER
 40
0.0000000116
  9
$USRTIMER
 70
     1
  9
$ANGBASE
 50
0.0
  9
$ANGDIR
 70
     0
  9
$PDMODE
 70
     0
  9
$PDSIZE
 40
0.0
  9
$PLINEWID
 40
0.0
  9
$SPLFRAME
 70
     0
  9
$SPLINETYPE
 70
     6
  9
$SPLINESEGS
 70
     8
  9
$HANDSEED
  5
2C5
  9
$SURFTAB1
 70
     6
  9
$SURFTAB2
 70
     6
  9
$SURFTYPE
 70
     6
  9
$SURFU
 70
     6
  9
$SURFV
 70
     6
  9
$UCSBASE
  2

  9
$UCSNAME
  2

  9
$UCSORG
 10
0.0
 20
0.0
 30
0.0
  9
$UCSXDIR
 10
1.0
 20
0.0
 30
0.0
  9
$UCSYDIR
 10
0.0
 20
1.0
 30
0.0
  9
$UCSORTHOREF
  2

  9
$UCSORTHOVIEW
 70
     0
  9
$UCSORGTOP
 10
0.0
 20
0.0
 30
0.0
  9
$UCSORGBOTTOM
 10
0.0
 20
0.0
 30
0.0
  9
$UCSORGLEFT
 10
0.0
 20
0.0
 30
0.0
  9
$UCSORGRIGHT
 10
0.0
 20
0.0
 30
0.0
  9
$UCSORGFRONT
 10
0.0
 20
0.0
 30
0.0
  9
$UCSORGBACK
 10
0.0
 20
0.0
 30
0.0
  9
$PUCSBASE
  2

  9
$PUCSNAME
  2

  9
$PUCSORG
 10
0.0
 20
0.0
 30
0.0
  9
$PUCSXDIR
 10
1.0
 20
0.0
 30
0.0
  9
$PUCSYDIR
 10
0.0
 20
1.0
 30
0.0
  9
$PUCSORTHOREF
  2

  9
$PUCSORTHOVIEW
 70
     0
  9
$PUCSORGTOP
 10
0.0
 20
0.0
 30
0.0
  9
$PUCSORGBOTTOM
 10
0.0
 20
0.0
 30
0.0
  9
$PUCSORGLEFT
 10
0.0
 20
0.0
 30
0.0
  9
$PUCSORGRIGHT
 10
0.0
 20
0.0
 30
0.0
  9
$PUCSORGFRONT
 10
0.0
 20
0.0
 30
0.0
  9
$PUCSORGBACK
 10
0.0
 20
0.0
 30
0.0
  9
$USERI1
 70
     0
  9
$USERI2
 70
     0
  9
$USERI3
 70
     0
  9
$USERI4
 70
     0
  9
$USERI5
 70
     0
  9
$USERR1
 40
18.1
  9
$USERR2
 40
0.0
  9
$USERR3
 40
0.0
  9
$USERR4
 40
0.0
  9
$USERR5
 40
0.0
  9
$WORLDVIEW
 70
     1
  9
$SHADEDGE
 70
     3
  9
$SHADEDIF
 70
    70
  9
$TILEMODE
 70
     1
  9
$MAXACTVP
 70
    64
  9
$PINSBASE
 10
0.0
 20
0.0
 30
0.0
  9
$PLIMCHECK
 70
     0
  9
$PEXTMIN
 10
1.00000000000000E+20
 20
1.00000000000000E+20
 30
1.00000000000000E+20
  9
$PEXTMAX
 10
-1.00000000000000E+20
 20
-1.00000000000000E+20
 30
-1.00000000000000E+20
  9
$PLIMMIN
 10
0.0
 20
0.0
  9
$PLIMMAX
 10
12.0
 20
9.0
  9
$UNITMODE
 70
     0
  9
$VISRETAIN
 70
     1
  9
$PLINEGEN
 70
     0
  9
$PSLTSCALE
 70
     1
  9
$TREEDEPTH
 70
  3020
  9
$CMLSTYLE
  2
Standard
  9
$CMLJUST
 70
     0
  9
$CMLSCALE
 40
1.0
  9
$PROXYGRAPHICS
 70
     1
  9
$MEASUREMENT
 70
     1
  9
$CELWEIGHT
370
    -1
  9
$ENDCAPS
280
     0
  9
$JOINSTYLE
280
     0
  9
$LWDISPLAY
290
     0
  9
$INSUNITS
 70
     4
  9
$HYPERLINKBASE
  1

  9
$STYLESHEET
  1

  9
$XEDIT
290
     1
  9
$CEPSNTYPE
380
     0
  9
$PSTYLEMODE
290
     1
  9
$FINGERPRINTGUID
  2
{9FE00ADE-74DC-4760-9E50-E56EB326606A}
  9
$VERSIONGUID
  2
{FAEB1C32-E019-11D5-929B-00C0DF256EC4}
  9
$EXTNAMES
290
     1
  9
$PSVPSCALE
 40
0.0
  9
$OLESTARTUP
290
     0
  0
ENDSEC
  0
SECTION
  2
CLASSES
  0
CLASS
  1
ACDBDICTIONARYWDFLT
  2
AcDbDictionaryWithDefault
  3
ObjectDBX Classes
 90
        0
280
     0
281
     0
  0
CLASS
  1
VISUALSTYLE
  2
AcDbVisualStyle
  3
ObjectDBX Classes
 90
     4095
280
     0
281
     0
  0
CLASS
  1
MATERIAL
  2
AcDbMaterial
  3
ObjectDBX Classes
 90
     1153
280
     0
281
     0
  0
CLASS
  1
DICTIONARYVAR
  2
AcDbDictionaryVar
  3
ObjectDBX Classes
 90
        0
280
     0
281
     0
  0
CLASS
  1
ACDBPLACEHOLDER
  2
AcDbPlaceHolder
  3
ObjectDBX Classes
 90
        0
280
     0
281
     0
  0
CLASS
  1
LAYOUT
  2
AcDbLayout
  3
ObjectDBX Classes
 90
        0
280
     0
281
     0
  0
ENDSEC
  0
SECTION
  2
TABLES
  0
TABLE
  2
VPORT
  5
8
330
0
100
AcDbSymbolTable
 70
     1
  0
VPORT
  5
29
330
8
100
AcDbSymbolTableRecord
100
AcDbViewportTableRecord
  2
*Active
 70
     0
 10
0.0
 20
0.0
 11
1.0
 21
1.0
 12
210.0
 22
297.0
 13
0.0
 23
0.0
 14
0.5
 24
0.5
 15
0.5
 25
0.5
 16
0.0
 26
0.0
 36
1.0
 17
0.0
 27
0.0
 37
0.0
 40
653.4000000000001
 41
1.60267857142857
 42
50.0
 43
0.0
 44
0.0
 50
0.0
 51
0.0
 71
     0
 72
   100
 73
     1
 74
     3
 75
     0
 76
     0
 77
     0
 78
     0
281
     0
 65
     1
110
0.0
120
0.0
130
0.0
111
1.0
121
0.0
131
0.0
112
0.0
122
1.0
132
0.0
 79
     0
146
0.0
  0
ENDTAB
  0
TABLE
  2
LTYPE
  5
5
330
0
100
AcDbSymbolTable
 70
     8
  0
LTYPE
  5
14
330
5
100
AcDbSymbolTableRecord
100
AcDbLinetypeTableRecord
  2
ByBlock
 70
     0
  3

 72
    65
 73
     0
 40
0.0
  0
LTYPE
  5
15
330
5
100
AcDbSymbolTableRecord
100
AcDbLinetypeTableRecord
  2
ByLayer
 70
     0
  3

 72
    65
 73
     0
 40
0.0
  0
LTYPE
  5
16
330
5
100
AcDbSymbolTableRecord
100
AcDbLinetypeTableRecord
  2
Continuous
 70
     0
  3
Solid line
 72
    65
 73
     0
 40
0.0
  0
LTYPE
  5
3F
330
5
100
AcDbSymbolTableRecord
100
AcDbLinetypeTableRecord
  2
DASHED
 70
     0
  3
Dashed
 72
    65
 73
     2
 40
15.0
 49
7.0
 74
     0
 49
-8.0
 74
     0
  0
LTYPE
  5
40
330
5
100
AcDbSymbolTableRecord
100
AcDbLinetypeTableRecord
  2
DOTTED
 70
     0
  3
Dotted
 72
    65
 73
     2
 40
1.0
 49
0.0
 74
     0
 49
-1.0
 74
     0
  0
LTYPE
  5
41
330
5
100
AcDbSymbolTableRecord
100
AcDbLinetypeTableRecord
  2
DOT_CENTER
 70
     0
  3
Dot_Center
 72
    65
 73
     4
 40
14.0
 49
12.0
 74
     0
 49
-1.0
 74
     0
 49
0.0
 74
     0
 49
-1.0
 74
     0
  0
LTYPE
  5
42
330
5
100
AcDbSymbolTableRecord
100
AcDbLinetypeTableRecord
  2
LONG_DASHED
 70
     0
  3
Long_Dashed
 72
    65
 73
     2
 40
15.0
 49
10.0
 74
     0
 49
-5.0
 74
     0
  0
LTYPE
  5
43
330
5
100
AcDbSymbolTableRecord
100
AcDbLinetypeTableRecord
  2
DASH_CENTER
 70
     0
  3
Dash_Center
 72
    65
 73
     4
 40
14.0
 49
11.0
 74
     0
 49
-1.0
 74
     0
 49
1.0
 74
     0
 49
-1.0
 74
     0
  0
LTYPE
  5
44
330
5
100
AcDbSymbolTableRecord
100
AcDbLinetypeTableRecord
  2
PHANTOM
 70
     0
  3
Phantom
 72
    65
 73
     6
 40
13.0
 49
10.0
 74
     0
 49
-1.0
 74
     0
 49
0.0
 74
     0
 49
-1.0
 74
     0
 49
0.0
 74
     0
 49
-1.0
 74
     0
  0
LTYPE
  5
45
330
5
100
AcDbSymbolTableRecord
100
AcDbLinetypeTableRecord
  2
CENTER_DASH_DASH
 70
     0
  3
Center_Dash_Dash
 72
    65
 73
     6
 40
14.0
 49
9.0
 74
     0
 49
-1.0
 74
     0
 49
1.0
 74
     0
 49
-1.0
 74
     0
 49
1.0
 74
     0
 49
-1.0
 74
     0
  0
ENDTAB
  0
TABLE
  2
LAYER
  5
2
330
0
100
AcDbSymbolTable
 70
     2
  0
LAYER
  5
10
330
2
100
AcDbSymbolTableRecord
100
AcDbLayerTableRecord
  2
0
 70
     0
 62
     7
  6
Continuous
370
    -3
390
F
  0
LAYER
  5
46
330
2
100
AcDbSymbolTableRecord
100
AcDbLayerTableRecord
  2
1
 70
     0
 62
     7
  6
Continuous
370
    -3
390
F
  0
ENDTAB
  0
TABLE
  2
STYLE
  5
3
330
0
100
AcDbSymbolTable
 70
     3
  0
STYLE
  5
11
330
3
100
AcDbSymbolTableRecord
100
AcDbTextStyleTableRecord
  2
Standard
 70
     0
 40
0.0
 41
1.0
 50
0.0
 71
     0
 42
0.2
  3
txt
  4

  0
STYLE
  5
D4
330
3
100
AcDbSymbolTableRecord
100
AcDbTextStyleTableRecord
  2
CONVERTER_11
 70
     0
 40
0.0
 41
0.89
 50
0.0
 71
     0
 42
0.2
  3
MS Mincho.ttf
  4

1001
ACAD
1000
MS Mincho
1071
    32785
  0
STYLE
  5
230
330
3
100
AcDbSymbolTableRecord
100
AcDbTextStyleTableRecord
  2
CONVERTER_12
 70
     0
 40
0.0
 41
0.9
 50
0.0
 71
     0
 42
0.2
  3
txt.shx
  4

  0
ENDTAB
  0
TABLE
  2
VIEW
  5
6
330
0
100
AcDbSymbolTable
 70
     0
  0
ENDTAB
  0
TABLE
  2
UCS
  5
7
330
0
100
AcDbSymbolTable
 70
     0
  0
ENDTAB
  0
TABLE
  2
APPID
  5
9
330
0
100
AcDbSymbolTable
 70
     1
  0
APPID
  5
12
330
9
100
AcDbSymbolTableRecord
100
AcDbRegAppTableRecord
  2
ACAD
 70
     0
  0
ENDTAB
  0
TABLE
  2
DIMSTYLE
  5
A
330
0
100
AcDbSymbolTable
 70
     9
100
AcDbDimStyleTable
  0
DIMSTYLE
105
27
330
A
100
AcDbSymbolTableRecord
100
AcDbDimStyleTableRecord
  2
Standard
 70
     0
178
     0
340
11
  0
DIMSTYLE
105
248
102
{ACAD_REACTORS
330
249
102
}
330
A
100
AcDbSymbolTableRecord
100
AcDbDimStyleTableRecord
  2
ME10_DIM_10
 70
     0
 41
7.0
 42
0.0
 44
2.0
 73
     0
 74
     0
 77
     1
 78
     8
140
7.0
147
2.0
172
     1
173
     1
174
     1
175
     1
176
     2
177
     2
271
     2
178
     7
271
     2
340
230
  0
DIMSTYLE
105
253
102
{ACAD_REACTORS
330
254
102
}
330
A
100
AcDbSymbolTableRecord
100
AcDbDimStyleTableRecord
  2
ME10_DIM_11
 70
     0
 41
7.0
 42
0.0
 44
2.0
 73
     0
 74
     0
 77
     1
 78
     8
140
7.0
147
2.0
172
     1
173
     1
174
     1
175
     1
176
     2
177
     2
271
     2
178
     7
271
     2
340
230
  0
DIMSTYLE
105
25E
102
{ACAD_REACTORS
330
25F
102
}
330
A
100
AcDbSymbolTableRecord
100
AcDbDimStyleTableRecord
  2
ME10_DIM_12
 70
     0
 41
7.0
 42
0.0
 44
2.0
 73
     0
 74
     0
 77
     1
 78
     8
140
7.0
147
2.0
172
     1
173
     1
174
     1
175
     1
176
     2
177
     2
271
     2
178
     7
271
     2
340
230
  0
DIMSTYLE
105
269
102
{ACAD_REACTORS
330
26A
102
}
330
A
100
AcDbSymbolTableRecord
100
AcDbDimStyleTableRecord
  2
ME10_DIM_13
 70
     0
 41
7.0
 42
0.0
 44
2.0
 73
     0
 74
     0
 77
     1
 78
     8
140
7.0
147
2.0
172
     1
173
     1
174
     1
175
     1
176
     2
177
     2
271
     2
178
     7
271
     2
340
230
  0
DIMSTYLE
105
274
102
{ACAD_REACTORS
330
275
102
}
330
A
100
AcDbSymbolTableRecord
100
AcDbDimStyleTableRecord
  2
ME10_DIM_14
 70
     0
 41
7.0
 42
0.0
 44
2.0
 73
     0
 74
     0
 77
     1
 78
     8
140
7.0
147
2.0
172
     1
173
     1
174
     1
175
     1
176
     2
177
     2
271
     2
178
     7
271
     2
340
230
  0
DIMSTYLE
105
27F
102
{ACAD_REACTORS
330
280
102
}
330
A
100
AcDbSymbolTableRecord
100
AcDbDimStyleTableRecord
  2
ME10_DIM_15
 70
     0
 41
7.0
 42
0.0
 44
2.0
 73
     0
 74
     0
 77
     1
 78
     8
140
7.0
147
2.0
172
     1
173
     1
174
     1
175
     1
176
     2
177
     2
271
     2
178
     7
271
     2
340
230
  0
DIMSTYLE
105
28C
102
{ACAD_REACTORS
330
28D
102
}
330
A
100
AcDbSymbolTableRecord
100
AcDbDimStyleTableRecord
  2
ME10_DIM_16
 70
     0
 41
7.0
 42
0.0
 44
2.0
 73
     0
 74
     0
 77
     1
 78
     8
140
7.0
147
2.0
172
     1
173
     1
174
     1
175
     1
176
     2
177
     2
271
     2
178
     7
271
     2
340
230
  0
DIMSTYLE
105
298
102
{ACAD_REACTORS
330
299
102
}
330
A
100
AcDbSymbolTableRecord
100
AcDbDimStyleTableRecord
  2
ME10_DIM_17
 70
     0
 41
7.0
 42
0.0
 44
2.0
 73
     0
 74
     0
 77
     1
 78
     8
140
7.0
147
2.0
172
     1
173
     1
174
     1
175
     1
176
     2
177
     2
271
     2
178
     7
271
     2
340
D4
  0
ENDTAB
  0
TABLE
  2
BLOCK_RECORD
  5
1
330
0
100
AcDbSymbolTable
 70
    17
  0
BLOCK_RECORD
  5
1F
330
1
100
AcDbSymbolTableRecord
100
AcDbBlockTableRecord
  2
*Model_Space
340
22
  0
BLOCK_RECORD
  5
1B
330
1
100
AcDbSymbolTableRecord
100
AcDbBlockTableRecord
  2
*Paper_Space
340
1E
  0
BLOCK_RECORD
  5
23
330
1
100
AcDbSymbolTableRecord
100
AcDbBlockTableRecord
  2
*Paper_Space0
340
26
  0
BLOCK_RECORD
  5
47
330
1
100
AcDbSymbolTableRecord
100
AcDbBlockTableRecord
  2
B41A-24-1
340
0
102
{BLKREFS
331
63
102
}
  0
BLOCK_RECORD
  5
4A
330
1
100
AcDbSymbolTableRecord
100
AcDbBlockTableRecord
  2
開示A4
340
0
102
{BLKREFS
331
64
102
}
  0
BLOCK_RECORD
  5
4D
330
1
100
AcDbSymbolTableRecord
100
AcDbBlockTableRecord
  2
B4111R-0-13
340
0
102
{BLKREFS
331
65
102
}
  0
BLOCK_RECORD
  5
50
330
1
100
AcDbSymbolTableRecord
100
AcDbBlockTableRecord
  2
42-15
340
0
102
{BLKREFS
331
5D
102
}
  0
BLOCK_RECORD
  5
53
330
1
100
AcDbSymbolTableRecord
100
AcDbBlockTableRecord
  2
21-1C
340
0
102
{BLKREFS
331
5E
102
}
  0
BLOCK_RECORD
  5
56
330
1
100
AcDbSymbolTableRecord
100
AcDbBlockTableRecord
  2
37-1-13
340
0
102
{BLKREFS
331
5F
102
}
  0
BLOCK_RECORD
  5
59
330
1
100
AcDbSymbolTableRecord
100
AcDbBlockTableRecord
  2
36-1A-13-M11
340
0
102
{BLKREFS
331
60
102
}
  0
BLOCK_RECORD
  5
5C
330
1
100
AcDbSymbolTableRecord
100
AcDbBlockTableRecord
  2
R10AK-13Z
340
0
102
{BLKREFS
331
66
102
}
  0
BLOCK_RECORD
  5
23F
330
1
100
AcDbSymbolTableRecord
100
AcDbBlockTableRecord
  2
*D9
340
0
  0
BLOCK_RECORD
  5
24A
330
1
100
AcDbSymbolTableRecord
100
AcDbBlockTableRecord
  2
*D10
340
0
  0
BLOCK_RECORD
  5
255
330
1
100
AcDbSymbolTableRecord
100
AcDbBlockTableRecord
  2
*D11
340
0
  0
BLOCK_RECORD
  5
260
330
1
100
AcDbSymbolTableRecord
100
AcDbBlockTableRecord
  2
*D12
340
0
  0
BLOCK_RECORD
  5
26B
330
1
100
AcDbSymbolTableRecord
100
AcDbBlockTableRecord
  2
*D13
340
0
  0
BLOCK_RECORD
  5
276
330
1
100
AcDbSymbolTableRecord
100
AcDbBlockTableRecord
  2
*D14
340
0
  0
BLOCK_RECORD
  5
281
330
1
100
AcDbSymbolTableRecord
100
AcDbBlockTableRecord
  2
*D15
340
0
  0
BLOCK_RECORD
  5
28E
330
1
100
AcDbSymbolTableRecord
100
AcDbBlockTableRecord
  2
*D16
340
0
  0
ENDTAB
  0
ENDSEC
  0
SECTION
  2
BLOCKS
  0
BLOCK
  5
20
330
1F
100
AcDbEntity
  8
0
100
AcDbBlockBegin
  2
*Model_Space
 70
     0
 10
0.0
 20
0.0
 30
0.0
  3
*Model_Space
  1

  0
ENDBLK
  5
21
330
1F
100
AcDbEntity
  8
0
100
AcDbBlockEnd
  0
BLOCK
  5
1C
330
1B
100
AcDbEntity
 67
     1
  8
0
100
AcDbBlockBegin
  2
*Paper_Space
 70
     0
 10
0.0
 20
0.0
 30
0.0
  3
*Paper_Space
  1

  0
ENDBLK
  5
1D
330
1B
100
AcDbEntity
 67
     1
  8
0
100
AcDbBlockEnd
  0
BLOCK
  5
24
330
23
100
AcDbEntity
  8
0
100
AcDbBlockBegin
  2
*Paper_Space0
 70
     0
 10
0.0
 20
0.0
 30
0.0
  3
*Paper_Space0
  1

  0
ENDBLK
  5
25
330
23
100
AcDbEntity
  8
0
100
AcDbBlockEnd
  0
BLOCK
  5
48
330
47
100
AcDbEntity
  8
0
100
AcDbBlockBegin
  2
B41A-24-1
 70
     0
 10
167.3282194634427
 20
588.5791915899733
 30
0.0
  3
B41A-24-1
  1

  0
LINE
  5
67
330
47
100
AcDbEntity
  8
1
  6
Continuous
 62
     7
100
AcDbLine
 10
308.7500000000119
 20
373.8640835311383
 30
0.0
 11
308.7500000000119
 21
368.000000000003
 31
0.0
  0
LINE
  5
68
330
47
100
AcDbEntity
  8
1
  6
Continuous
 62
     7
100
AcDbLine
 10
308.7500000000119
 20
368.000000000003
 30
0.0
 11
308.7500000000119
 21
357.0000000000031
 31
0.0
  0
LINE
  5
69
330
47
100
AcDbEntity
  8
1
  6
Continuous
 62
     7
100
AcDbLine
 10
296.7500000000119
 20
368.000000000003
 30
0.0
 11
296.7500000000119
 21
357.0000000000031
 31
0.0
  0
LINE
  5
6A
330
47
100
AcDbEntity
  8
1
  6
PHANTOM
 62
     4
100
AcDbLine
 10
308.7500000000119
 20
368.000000000003
 30
0.0
 11
295.7500000000119
 21
368.000000000003
 31
0.0
  0
LINE
  5
6B
330
47
100
AcDbEntity
  8
1
  6
DOT_CENTER
 62
     2
100
AcDbLine
 10
309.7500000000119
 20
368.000000000003
 30
0.0
 11
308.7500000000119
 21
368.000000000003
 31
0.0
  0
LINE
  5
6C
330
47
100
AcDbEntity
  8
1
  6
Continuous
 62
     7
100
AcDbLine
 10
296.7500000000119
 20
379.000000000003
 30
0.0
 11
296.7500000000119
 21
368.000000000003
 31
0.0
  0
LINE
  5
6D
330
47
100
AcDbEntity
  8
0
  6
Continuous
 62
     7
100
AcDbLine
 10
308.7499999999994
 20
223.8786996130601
 30
0.0
 11
308.7499999999996
 21
241.1286996130602
 31
0.0
  0
LINE
  5
6E
330
47
100
AcDbEntity
  8
1
  6
Continuous
 62
     7
100
AcDbLine
 10
296.7499999999997
 20
223.8786996130601
 30
0.0
 11
308.7499999999994
 21
223.8786996130601
 31
0.0
  0
LINE
  5
6F
330
47
100
AcDbEntity
  8
1
  6
Continuous
 62
     7
100
AcDbLine
 10
308.7499999999996
 20
246.8786996130602
 30
0.0
 11
296.7499999999997
 21
246.8786996130602
 31
0.0
  0
LINE
  5
70
330
47
100
AcDbEntity
  8
0
  6
Continuous
 62
     7
100
AcDbLine
 10
296.7499999999997
 20
223.8786996130601
 30
0.0
 11
296.7499999999997
 21
246.8786996130602
 31
0.0
  0
LINE
  5
71
330
47
100
AcDbEntity
  8
0
  6
Continuous
 62
     7
100
AcDbLine
 10
308.7499999999996
 20
241.1286996130602
 30
0.0
 11
308.7499999999996
 21
246.8786996130602
 31
0.0
  0
LINE
  5
72
330
47
100
AcDbEntity
  8
1
  6
Continuous
 62
     7
100
AcDbLine
 10
154.7443211136135
 20
246.8786996130602
 30
0.0
 11
165.7556788863861
 21
246.8786996130602
 31
0.0
  0
LINE
  5
73
330
47
100
AcDbEntity
  8
1
  6
Continuous
 62
     7
100
AcDbLine
 10
153.0435472996719
 20
245.8967573937503
 30
0.0
 11
147.5378684132857
 21
236.3606418323699
 31
0.0
  0
LINE
  5
74
330
47
100
AcDbEntity
  8
1
  6
Continuous
 62
     7
100
AcDbLine
 10
172.962131586714
 20
236.3606418323699
 30
0.0
 11
167.4564527003278
 21
245.8967573937503
 31
0.0
  0
LINE
  5
75
330
47
100
AcDbEntity
  8
1
  6
Continuous
 62
     7
100
AcDbLine
 10
153.0435472996719
 20
224.8606418323699
 30
0.0
 11
147.5378684132857
 21
234.3967573937503
 31
0.0
  0
LINE
  5
76
330
47
100
AcDbEntity
  8
1
  6
Continuous
 62
     7
100
AcDbLine
 10
167.4564527003278
 20
224.8606418323699
 30
0.0
 11
172.962131586714
 21
234.3967573937503
 31
0.0
  0
LINE
  5
77
330
47
100
AcDbEntity
  8
1
  6
Continuous
 62
     7
100
AcDbLine
 10
154.7443211136135
 20
223.8786996130602
 30
0.0
 11
165.7556788863861
 21
223.8786996130602
 31
0.0
  0
ARC
  5
78
330
47
100
AcDbEntity
  8
1
  6
Continuous
 62
     7
100
AcDbCircle
 10
302.7500000000119
 20
371.0000000000031
 30
0.0
 40
9.999999999999964
100
AcDbArc
 50
79.29094656292486
 51
126.8698976458444
  0
ARC
  5
79
330
47
100
AcDbEntity
  8
1
  6
Continuous
 62
     7
100
AcDbCircle
 10
302.7500000000119
 20
365.000000000003
 30
0.0
 40
9.99999999999991
100
AcDbArc
 50
233.1301023541556
 51
306.8698976458444
  0
ARC
  5
7A
330
47
100
AcDbEntity
  8
1
  6
Continuous
 62
     7
100
AcDbCircle
 10
160.2499999999998
 20
235.3786996130602
 30
0.0
 40
12.75
100
AcDbArc
 50
55.58298737048329
 51
64.41701262951624
  0
ARC
  5
7B
330
47
100
AcDbEntity
  8
1
  6
Continuous
 62
     7
100
AcDbCircle
 10
160.2499999999998
 20
235.3786996130602
 30
0.0
 40
12.75
100
AcDbArc
 50
115.5829873704838
 51
124.4170126295164
  0
ARC
  5
7C
330
47
100
AcDbEntity
  8
1
  6
Continuous
 62
     7
100
AcDbCircle
 10
160.2499999999998
 20
235.3786996130602
 30
0.0
 40
12.75
100
AcDbArc
 50
0.0
 51
4.41701262951559
  0
ARC
  5
7D
330
47
100
AcDbEntity
  8
1
  6
Continuous
 62
     7
100
AcDbCircle
 10
160.2499999999998
 20
235.3786996130602
 30
0.0
 40
12.75000000000001
100
AcDbArc
 50
355.5829873704835
 51
0.0
  0
ARC
  5
7E
330
47
100
AcDbEntity
  8
1
  6
Continuous
 62
     7
100
AcDbCircle
 10
160.2499999999998
 20
235.3786996130602
 30
0.0
 40
12.75000000000012
100
AcDbArc
 50
235.5829873704841
 51
244.4170126295162
  0
ARC
  5
7F
330
47
100
AcDbEntity
  8
1
  6
Continuous
 62
     7
100
AcDbCircle
 10
160.2499999999998
 20
235.3786996130602
 30
0.0
 40
12.75
100
AcDbArc
 50
295.5829873704838
 51
304.4170126295163
  0
ARC
  5
80
330
47
100
AcDbEntity
  8
1
  6
Continuous
 62
     7
100
AcDbCircle
 10
160.2499999999998
 20
235.3786996130602
 30
0.0
 40
12.75
100
AcDbArc
 50
180.0
 51
184.4170126295165
  0
ARC
  5
81
330
47
100
AcDbEntity
  8
1
  6
Continuous
 62
     7
100
AcDbCircle
 10
160.2499999999998
 20
235.3786996130602
 30
0.0
 40
12.74999999999988
100
AcDbArc
 50
175.5829873704844
 51
180.0
  0
CIRCLE
  5
82
330
47
100
AcDbEntity
  8
1
  6
Continuous
 62
     7
100
AcDbCircle
 10
160.2499999999998
 20
235.3786996130602
 30
0.0
 40
11.04398391922541
  0
SPLINE
  5
83
330
47
100
AcDbEntity
  8
1
  6
Continuous
 62
     7
100
AcDbSpline
210
0.0
220
0.0
230
1.0
 70
     8
 71
     3
 72
    59
 73
    55
 74
    53
 42
0.000000001
 43
0.0000000001
 44
0.00000001
 40
0.0
 40
0.0
 40
0.0
 40
0.0
 40
0.2524665743471658
 40
0.505096774241606
 40
0.9586002210444011
 40
1.412079612850399
 40
1.87018414220154
 40
2.328288671562708
 40
2.781768063410474
 40
3.235271510416804
 40
3.67518755397596
 40
4.115156272937365
 40
4.533458595229885
 40
4.951852462562138
 40
5.342042713017685
 40
5.732381330369733
 40
6.090299415587749
 40
6.448449066560865
 40
6.773235780948853
 40
7.098362610098803
 40
7.393548417994285
 40
7.689153895456923
 40
7.963457953967643
 40
8.238083539751182
 40
8.504905108491108
 40
8.771726677228452
 40
9.046352263004806
 40
9.320656321504332
 40
9.61626179895282
 40
9.911447606833741
 40
10.23657443596862
 40
10.56136115034411
 40
10.91951080130703
 40
11.27742888651957
 40
11.66776750387102
 40
12.05795775433207
 40
12.4763516216771
 40
12.89465394398973
 40
13.33462266298003
 40
13.77453870657638
 40
14.22804215362991
 40
14.68152154553488
 40
15.13962607496584
 40
15.59773060440606
 40
16.05120999633935
 40
16.50471344343762
 40
16.94462948709235
 40
17.38459820615305
 40
17.8029005285443
 40
18.22129439598438
 40
18.61148464657243
 40
19.00182326415921
 40
19.12361944661969
 40
19.24525859934091
 40
19.24525859934091
 40
19.24525859934091
 40
19.24525859934091
 10
304.6066629946608
 20
380.7958442313293
 30
0.0
 10
304.5242618521336
 20
380.8129747928161
 30
0.0
 10
304.3594061608805
 20
380.8472470112998
 30
0.0
 10
304.0441595775085
 20
380.8998302226368
 30
0.0
 10
303.6605552978443
 20
380.9486728624041
 30
0.0
 10
303.2066105794376
 20
380.9828380244404
 30
0.0
 10
302.7500009350176
 20
380.9941667894511
 30
0.0
 10
302.2933857556804
 20
380.9828575815401
 30
0.0
 10
301.8394574746774
 20
380.9485955550043
 30
0.0
 10
301.3938388023331
 20
380.8922281389101
 30
0.0
 10
300.9562413825117
 20
380.8132628482203
 30
0.0
 10
300.5348933619121
 20
380.7136699394357
 30
0.0
 10
300.126804291369
 20
380.5922018016668
 30
0.0
 10
299.7421645493911
 20
380.4524633946796
 30
0.0
 10
299.3758820672074
 20
380.2919369997262
 30
0.0
 10
299.0391583199983
 20
380.1161898436508
 30
0.0
 10
298.7257391342846
 20
379.9211472578838
 30
0.0
 10
298.4466313963616
 20
379.7142874210833
 30
0.0
 10
298.1956302563711
 20
379.4901697714566
 30
0.0
 10
297.982337814587
 20
379.2574930022897
 30
0.0
 10
297.8017536476286
 20
379.0104868520432
 30
0.0
 10
297.6614277763051
 20
378.7576402000334
 30
0.0
 10
297.5578512065637
 20
378.49489469611
 30
0.0
 10
297.496772049538
 20
378.228897408873
 30
0.0
 10
297.4749788845496
 20
377.959292144202
 30
0.0
 10
297.4967720494951
 20
377.6896868795298
 30
0.0
 10
297.5578512064784
 20
377.4236895922901
 30
0.0
 10
297.6614277761789
 20
377.1609440883621
 30
0.0
 10
297.8017536474637
 20
376.9080974363458
 30
0.0
 10
297.9823378143851
 20
376.6610912860902
 30
0.0
 10
298.1956302561352
 20
376.4284145169117
 30
0.0
 10
298.4466313960948
 20
376.2042968672666
 30
0.0
 10
298.7257391339891
 20
375.9974370304546
 30
0.0
 10
299.0391583196855
 20
375.802394444624
 30
0.0
 10
299.3758820668528
 20
375.6266472886631
 30
0.0
 10
299.7421645491179
 20
375.466120893094
 30
0.0
 10
300.1268042907178
 20
375.3263824883428
 30
0.0
 10
300.5348933626979
 20
375.2049143417065
 30
0.0
 10
300.956241377689
 20
375.1053214673314
 30
0.0
 10
301.3938388189372
 20
375.0263560451953
 30
0.0
 10
301.8394574090738
 20
374.9699891336451
 30
0.0
 10
302.2933860000027
 20
374.9357252054444
 30
0.0
 10
302.7500000118336
 20
374.9244231619876
 30
0.0
 10
303.2066140082213
 20
374.935725222199
 30
0.0
 10
303.6605426450794
 20
374.9699890669993
 30
0.0
 10
304.1061610690132
 20
375.0263562913352
 30
0.0
 10
304.5437591121883
 20
375.1053205779502
 30
0.0
 10
304.9651049321137
 20
375.2049175944042
 30
0.0
 10
305.3732018111999
 20
375.3263710094355
 30
0.0
 10
305.7578133713353
 20
375.466162591998
 30
0.0
 10
306.1241942813485
 20
375.6265032577151
 30
0.0
 10
306.3908001961615
 20
375.7663256065745
 30
0.0
 10
306.5732457204793
 20
375.8728898159823
 30
0.0
 10
306.6417863345707
 20
375.9163386108323
 30
0.0
 10
306.6760345335342
 20
375.9380489976431
 30
0.0
 11
304.6066629946608
 21
380.7958442313293
 31
0.0
 11
304.3591469787681
 21
380.8455955886619
 31
0.0
 11
304.1100434682359
 21
380.8876605299811
 31
0.0
 11
303.6601538492647
 21
380.9447981467342
 31
0.0
 11
303.2079616912974
 21
380.978942123633
 31
0.0
 11
302.7500000000119
 21
380.9903810567696
 31
0.0
 11
302.2920383087264
 21
380.978942123633
 31
0.0
 11
301.8398461507591
 21
380.9447981467343
 31
0.0
 11
301.389956531788
 21
380.8876605299811
 31
0.0
 11
300.9570544363604
 21
380.8094179506591
 31
0.0
 11
300.5289694656072
 21
380.7078515607785
 31
0.0
 11
300.1281183480627
 21
380.5882889643009
 31
0.0
 11
299.7350542277981
 21
380.4449222119737
 31
0.0
 11
299.3778262780475
 21
380.2879616323339
 31
0.0
 11
299.0321140328915
 21
380.1067234469117
 31
0.0
 11
298.7285104634038
 21
379.9171707407081
 31
0.0
 11
298.4412835431165
 21
379.7032271292535
 31
0.0
 11
298.1994984864778
 21
379.4863714252642
 31
0.0
 11
297.9804408409888
 21
379.246119051435
 31
0.0
 11
297.8069915824285
 21
379.0072675996371
 31
0.0
 11
297.6640389229408
 21
378.7485261541558
 31
0.0
 11
297.5644383469488
 21
378.4929436001152
 31
0.0
 11
297.5028614652679
 21
378.2253104553521
 31
0.0
 11
297.4821731235852
 21
377.9592921435241
 31
0.0
 11
297.5028614652679
 21
377.693273831696
 31
0.0
 11
297.5644383469488
 21
377.4256406869329
 31
0.0
 11
297.6640389229408
 21
377.1700581328923
 31
0.0
 11
297.8069915824285
 21
376.9113166874111
 31
0.0
 11
297.9804408409888
 21
376.6724652356132
 31
0.0
 11
298.1994984864778
 21
376.4322128617841
 31
0.0
 11
298.4412835431165
 21
376.2153571577946
 31
0.0
 11
298.7285104634037
 21
376.0014135463399
 31
0.0
 11
299.0321140328916
 21
375.8118608401363
 31
0.0
 11
299.3778262780476
 21
375.6306226547141
 31
0.0
 11
299.7350542277981
 21
375.4736620750743
 31
0.0
 11
300.1281183480627
 21
375.330295322747
 31
0.0
 11
300.5289694656072
 21
375.2107327262694
 31
0.0
 11
300.9570544363604
 21
375.1091663363889
 31
0.0
 11
301.389956531788
 21
375.030923757067
 31
0.0
 11
301.8398461507591
 21
374.9737861403139
 31
0.0
 11
302.2920383087264
 21
374.9396421634152
 31
0.0
 11
302.7500000000119
 21
374.9282032302786
 31
0.0
 11
303.2079616912974
 21
374.9396421634152
 31
0.0
 11
303.6601538492648
 21
374.9737861403139
 31
0.0
 11
304.1100434682359
 21
375.0309237570669
 31
0.0
 11
304.5429455636634
 21
375.1091663363888
 31
0.0
 11
304.9710305344166
 21
375.2107327262694
 31
0.0
 11
305.3718816519611
 21
375.330295322747
 31
0.0
 11
305.7649457722257
 21
375.4736620750742
 31
0.0
 11
306.1221737219761
 21
375.630622654714
 31
0.0
 11
306.4678859671321
 21
375.8118608401361
 31
0.0
 11
306.572906046324
 21
375.8735462778351
 31
0.0
 11
306.6760345335342
 21
375.9380489976431
 31
0.0
  0
SPLINE
  5
84
330
47
100
AcDbEntity
  8
1
  6
Continuous
 62
     7
100
AcDbSpline
210
0.0
220
0.0
230
1.0
 70
     8
 71
     3
 72
    45
 73
    41
 74
    39
 42
0.000000001
 43
0.0000000001
 44
0.00000001
 40
0.0
 40
0.0
 40
0.0
 40
0.0
 40
0.2639815398230287
 40
0.5283419764903453
 40
1.05465216221971
 40
1.580985058146508
 40
2.101700151031713
 40
2.622460338950277
 40
3.134495216417129
 40
3.646596358664233
 40
4.147789051096589
 40
4.649065926352498
 40
5.138470084900141
 40
5.627969497831529
 40
6.106046349977417
 40
6.584217818368172
 40
7.052873637686987
 40
7.521607351601372
 40
7.984025544089846
 40
8.446488180117838
 40
8.906737359044563
 40
9.366986537971291
 40
9.829449173999292
 40
10.29186736648776
 40
10.76060108040206
 40
11.22925689972085
 40
11.70742836811156
 40
12.18550522025744
 40
12.67500463318891
 40
13.16440879173651
 40
13.66568566699246
 40
14.16687835942494
 40
14.67897950167194
 40
15.19101437913882
 40
15.71177456705738
 40
16.23248965994254
 40
16.75882255586928
 40
17.28513274159853
 40
17.54949317826397
 40
17.81347471808478
 40
17.81347471808478
 40
17.81347471808478
 40
17.81347471808478
 10
308.0178268764387
 20
368.0000000000073
 30
0.0
 10
308.0168583651125
 20
367.9120002381571
 30
0.0
 10
308.0149199405432
 20
367.7358744072561
 30
0.0
 10
307.9942846134868
 20
367.3848209624067
 30
0.0
 10
307.9447909830449
 20
366.9481942236766
 30
0.0
 10
307.8455878858111
 20
366.432676190203
 30
0.0
 10
307.7077077560484
 20
365.9280578608955
 30
0.0
 10
307.5324896282717
 20
365.4401927342196
 30
0.0
 10
307.3204904823522
 20
364.9702959322483
 30
0.0
 10
307.0743845139198
 20
364.5247328222595
 30
0.0
 10
306.7945342738332
 20
364.1038453392761
 30
0.0
 10
306.4848125103479
 20
363.7139990951692
 30
0.0
 10
306.1454315795557
 20
363.3550143848576
 30
0.0
 10
305.7812420753257
 20
363.0327210220035
 30
0.0
 10
305.3925179797429
 20
362.7467444916613
 30
0.0
 10
304.9846717305978
 20
362.501940149077
 30
0.0
 10
304.5584067532795
 20
362.2979235891295
 30
0.0
 10
304.1191492185748
 20
362.1383286424057
 30
0.0
 10
303.6684426624078
 20
362.022726775823
 30
0.0
 10
303.2111650731803
 20
361.9535215678641
 30
0.0
 10
302.7500000000119
 20
361.9299913216539
 30
0.0
 10
302.2888349268434
 20
361.9535215678642
 30
0.0
 10
301.831557337616
 20
362.0227267758231
 30
0.0
 10
301.3808507814491
 20
362.1383286424057
 30
0.0
 10
300.9415932467444
 20
362.2979235891295
 30
0.0
 10
300.5153282694258
 20
362.501940149077
 30
0.0
 10
300.1074820202811
 20
362.7467444916612
 30
0.0
 10
299.7187579246981
 20
363.0327210220035
 30
0.0
 10
299.3545684204681
 20
363.3550143848574
 30
0.0
 10
299.015187489676
 20
363.7139990951695
 30
0.0
 10
298.7054657261907
 20
364.1038453392759
 30
0.0
 10
298.4256154861039
 20
364.5247328222596
 30
0.0
 10
298.1795095176717
 20
364.9702959322485
 30
0.0
 10
297.9675103717522
 20
365.4401927342195
 30
0.0
 10
297.7922922439755
 20
365.9280578608957
 30
0.0
 10
297.6544121142125
 20
366.4326761902028
 30
0.0
 10
297.5552090169791
 20
366.9481942236765
 30
0.0
 10
297.5057153865368
 20
367.3848209624061
 30
0.0
 10
297.4850800594809
 20
367.7358744072538
 30
0.0
 10
297.4831416349114
 20
367.9120002381535
 30
0.0
 10
297.4821731235851
 20
368.000000000003
 30
0.0
 11
308.0178268764387
 21
368.0000000000073
 31
0.0
 11
308.0128245699864
 21
367.7360658537013
 31
0.0
 11
307.9978176506291
 21
367.4721317073954
 31
0.0
 11
307.9380890746215
 21
366.9492216675483
 31
0.0
 11
307.8386476076967
 21
366.4323680011943
 31
0.0
 11
307.7012436794365
 21
365.9301087367148
 31
0.0
 11
307.525088863023
 21
365.4400468485487
 31
0.0
 11
307.3143246614713
 21
364.973401193555
 31
0.0
 11
307.0665617179728
 21
364.5252258886128
 31
0.0
 11
306.7888282211266
 21
364.1080230363744
 31
0.0
 11
306.4768493132568
 21
363.7156613830965
 31
0.0
 11
306.1403938787957
 21
363.3602543329693
 31
0.0
 11
305.773703462804
 21
363.0359892957678
 31
0.0
 11
305.3883957824115
 21
362.752977867973
 31
0.0
 11
304.9783497230825
 21
362.5069896920343
 31
0.0
 11
304.5554613982336
 21
362.3049903306992
 31
0.0
 11
304.1148999114603
 21
362.1449376167694
 31
0.0
 11
303.6669022295279
 21
362.0303572430893
 31
0.0
 11
303.2096627771468
 21
361.9610479852643
 31
0.0
 11
302.7500000000119
 21
361.937822173512
 31
0.0
 11
302.2903372228769
 21
361.9610479852643
 31
0.0
 11
301.8330977704959
 21
362.0303572430894
 31
0.0
 11
301.3851000885635
 21
362.1449376167695
 31
0.0
 11
300.9445386017902
 21
362.3049903306992
 31
0.0
 11
300.5216502769413
 21
362.5069896920343
 31
0.0
 11
300.1116042176124
 21
362.752977867973
 31
0.0
 11
299.7262965372199
 21
363.0359892957678
 31
0.0
 11
299.3596061212281
 21
363.3602543329693
 31
0.0
 11
299.0231506867671
 21
363.7156613830965
 31
0.0
 11
298.7111717788973
 21
364.1080230363744
 31
0.0
 11
298.4334382820509
 21
364.5252258886129
 31
0.0
 11
298.1856753385525
 21
364.973401193555
 31
0.0
 11
297.9749111370008
 21
365.4400468485487
 31
0.0
 11
297.7987563205873
 21
365.9301087367148
 31
0.0
 11
297.6613523923271
 21
366.4323680011943
 31
0.0
 11
297.5619109254023
 21
366.9492216675483
 31
0.0
 11
297.5021823493947
 21
367.4721317073952
 31
0.0
 11
297.4871754300375
 21
367.7360658536993
 31
0.0
 11
297.4821731235851
 21
368.000000000003
 31
0.0
  0
SPLINE
  5
85
330
47
100
AcDbEntity
  8
1
  6
Continuous
 62
     7
100
AcDbSpline
210
0.0
220
0.0
230
1.0
 70
    11
 71
     3
 72
    79
 73
    75
 74
    73
 42
0.000000001
 43
0.0000000001
 44
0.00000001
 40
0.0
 40
0.0
 40
0.0
 40
0.0
 40
0.2746255790579659
 40
0.5489296398403212
 40
0.8445351181645001
 40
1.139720926607028
 40
1.464847756185768
 40
1.789634470892368
 40
2.147784122131509
 40
2.505702207552683
 40
2.896040825075836
 40
3.286231075665169
 40
3.704624943111428
 40
4.12292726549636
 40
4.562895984538422
 40
5.002812028166894
 40
5.456315475236821
 40
5.909794867144685
 40
6.367899396567308
 40
6.826003925991283
 40
7.279483317903002
 40
7.73298676497792
 40
8.172902808610992
 40
8.612871527654624
 40
9.031173850034687
 40
9.449567717464257
 40
9.839757968021248
 40
10.23009658548609
 40
10.58801467081969
 40
10.94616432192165
 40
11.27095103644021
 40
11.5960778657361
 40
11.89126367377908
 40
12.18686915140511
 40
12.46117321008099
 40
12.7357987960416
 40
13.00262036496032
 40
13.26944193387771
 40
13.54406751983506
 40
13.81837157850586
 40
14.11397705612543
 40
14.40916286416098
 40
14.7342896934483
 40
15.05907640795849
 40
15.41722605905131
 40
15.7751441443765
 40
16.1654827618327
 40
16.55567301238167
 40
16.97406687980358
 40
17.39236920217673
 40
17.8323379212139
 40
18.27225396484153
 40
18.72575741191174
 40
19.17923680381972
 40
19.63734133324129
 40
20.09544586266271
 40
20.54892525457099
 40
21.00242870164275
 40
21.44234474527478
 40
21.88231346432228
 40
22.30061578671395
 40
22.71900965416824
 40
23.1091999047661
 40
23.49953852229756
 40
23.85745660772482
 40
24.21560625896501
 40
24.54039297366273
 40
24.86551980320882
 40
25.16070561156356
 40
25.45631108961016
 40
25.73061514883056
 40
26.00524073559644
 40
26.27206230670652
 40
26.53888386905741
 40
26.53888386905741
 40
26.53888386905741
 40
26.53888386905741
 10
307.997138534756
 20
357.774689544654
 30
0.0
 10
307.9793955065414
 20
357.6847002786965
 30
0.0
 10
307.9439302320916
 20
357.5048270998096
 30
0.0
 10
307.838053825167
 20
357.2424407647378
 30
0.0
 10
307.6983889540745
 20
356.9894908822459
 30
0.0
 10
307.517619697133
 20
356.7425136369179
 30
0.0
 10
307.3043815620734
 20
356.5098283860256
 30
0.0
 10
307.0533651008622
 20
356.2857131286339
 30
0.0
 10
306.7742618646243
 20
356.0788525884004
 30
0.0
 10
306.46084141107
 20
355.8838102002445
 30
0.0
 10
306.1241180325986
 20
355.7080629864399
 30
0.0
 10
305.7578354471498
 20
355.5475366067728
 30
0.0
 10
305.3731957350251
 20
355.4077981972591
 30
0.0
 10
304.9651066548153
 20
355.2863300517821
 30
0.0
 10
304.5437586421024
 20
355.1867371770066
 30
0.0
 10
304.1061612001357
 20
355.1077717548204
 30
0.0
 10
303.6605426103858
 20
355.0514048436747
 30
0.0
 10
303.206614018536
 20
355.0171409138703
 30
0.0
 10
302.7500000099925
 20
355.0058388766346
 30
0.0
 10
302.2933860014331
 20
355.0171409139305
 30
0.0
 10
301.8394574096323
 20
355.0514048437986
 30
0.0
 10
301.39383881971
 20
355.1077717549638
 30
0.0
 10
300.956241378376
 20
355.1867371772808
 30
0.0
 10
300.5348933633661
 20
355.2863300517091
 30
0.0
 10
300.1268042913395
 20
355.4077981984503
 30
0.0
 10
299.7421645496919
 20
355.5475366033083
 30
0.0
 10
299.3758820673725
 20
355.7080629989989
 30
0.0
 10
299.0391583201481
 20
355.8838101550887
 30
0.0
 10
298.7257391343919
 20
356.0788527410591
 30
0.0
 10
298.4466313964379
 20
356.2857125780164
 30
0.0
 10
298.1956302564187
 20
356.5098302278167
 30
0.0
 10
297.9823378146122
 20
356.7425069971544
 30
0.0
 10
297.8017536476368
 20
356.9895131475771
 30
0.0
 10
297.661427776304
 20
357.2423597997633
 30
0.0
 10
297.5578512065604
 20
357.5051053038669
 30
0.0
 10
297.4967720495405
 20
357.7711025912834
 30
0.0
 10
297.4749788845653
 20
358.0407078561344
 30
0.0
 10
297.4967720495311
 20
358.310313120985
 30
0.0
 10
297.5578512065419
 20
358.5763104084002
 30
0.0
 10
297.6614277762767
 20
358.839055912502
 30
0.0
 10
297.8017536476011
 20
359.0919025646855
 30
0.0
 10
297.9823378145686
 20
359.3389087151052
 30
0.0
 10
298.1956302563678
 20
359.5715854844383
 30
0.0
 10
298.4466313963802
 20
359.7957031342335
 30
0.0
 10
298.7257391343281
 20
360.0025629711845
 30
0.0
 10
299.0391583200786
 20
360.1976055571475
 30
0.0
 10
299.3758820672981
 20
360.3733527132288
 30
0.0
 10
299.7421645496131
 20
360.5338791089093
 30
0.0
 10
300.126804291257
 20
360.6736175137556
 30
0.0
 10
300.5348933632803
 20
360.7950856604834
 30
0.0
 10
300.9562413782876
 20
360.8946785348958
 30
0.0
 10
301.3938388196192
 20
360.9736439571948
 30
0.0
 10
301.8394574095395
 20
361.0300108683389
 30
0.0
 10
302.2933860013392
 20
361.064274798183
 30
0.0
 10
302.7500000098938
 20
361.0755768354504
 30
0.0
 10
303.2066140184475
 20
361.0642747981857
 30
0.0
 10
303.6605426102511
 20
361.0300108683376
 30
0.0
 10
304.1061612001598
 20
360.973643957182
 30
0.0
 10
304.5437586415363
 20
360.8946785348462
 30
0.0
 10
304.9651066563808
 20
360.7950856604085
 30
0.0
 10
305.3731957289815
 20
360.6736175135121
 30
0.0
 10
305.7578354685326
 20
360.5338791088825
 30
0.0
 10
306.1241179581372
 20
360.3733527119141
 30
0.0
 10
306.4608416792523
 20
360.1976055597179
 30
0.0
 10
306.7742609546871
 20
360.0025629595053
 30
0.0
 10
307.0533683740778
 20
359.7957031720073
 30
0.0
 10
307.3043705981135
 20
359.5715853525561
 30
0.0
 10
307.5176591972943
 20
359.338909182903
 30
0.0
 10
307.6982564604525
 20
359.0919009867224
 30
0.0
 10
307.8385355616452
 20
358.8390616380846
 30
0.0
 10
307.9422748594246
 20
358.5762907197904
 30
0.0
 10
308.0027614275828
 20
358.3103859763073
 30
0.0
 10
308.0267075344459
 20
358.0404444849971
 30
0.0
 10
308.0069948645521
 20
357.8632745240947
 30
0.0
 10
307.997138534756
 20
357.774689544654
 30
0.0
 11
307.997138534756
 21
357.774689544654
 31
0.0
 11
307.9355616530751
 21
357.5070563998909
 31
0.0
 11
307.835961077083
 21
357.2514738458502
 31
0.0
 11
307.6930084175953
 21
356.9927324003689
 31
0.0
 11
307.519559159035
 21
356.753880948571
 31
0.0
 11
307.300501513546
 21
356.5136285747419
 31
0.0
 11
307.0587164569074
 21
356.2967728707525
 31
0.0
 11
306.77148953662
 21
356.0828292592978
 31
0.0
 11
306.4678859671322
 21
355.8932765530942
 31
0.0
 11
306.1221737219762
 21
355.7120383676721
 31
0.0
 11
305.7649457722257
 21
355.5550777880322
 31
0.0
 11
305.371881651961
 21
355.4117110357049
 31
0.0
 11
304.9710305344166
 21
355.2921484392273
 31
0.0
 11
304.5429455636635
 21
355.1905820493467
 31
0.0
 11
304.1100434682359
 21
355.1123394700249
 31
0.0
 11
303.6601538492647
 21
355.0552018532718
 31
0.0
 11
303.2079616912974
 21
355.0210578763732
 31
0.0
 11
302.7500000000119
 21
355.0096189432365
 31
0.0
 11
302.2920383087264
 21
355.0210578763732
 31
0.0
 11
301.8398461507591
 21
355.0552018532719
 31
0.0
 11
301.389956531788
 21
355.1123394700249
 31
0.0
 11
300.9570544363604
 21
355.1905820493467
 31
0.0
 11
300.5289694656072
 21
355.2921484392274
 31
0.0
 11
300.1281183480627
 21
355.4117110357049
 31
0.0
 11
299.7350542277981
 21
355.5550777880322
 31
0.0
 11
299.3778262780475
 21
355.7120383676721
 31
0.0
 11
299.0321140328915
 21
355.8932765530942
 31
0.0
 11
298.7285104634038
 21
356.0828292592979
 31
0.0
 11
298.4412835431165
 21
356.2967728707525
 31
0.0
 11
298.1994984864778
 21
356.5136285747419
 31
0.0
 11
297.9804408409888
 21
356.753880948571
 31
0.0
 11
297.8069915824285
 21
356.9927324003688
 31
0.0
 11
297.6640389229408
 21
357.2514738458501
 31
0.0
 11
297.5644383469488
 21
357.5070563998907
 31
0.0
 11
297.5028614652679
 21
357.7746895446539
 31
0.0
 11
297.4821731235852
 21
358.040707856482
 31
0.0
 11
297.5028614652679
 21
358.30672616831
 31
0.0
 11
297.5644383469488
 21
358.5743593130731
 31
0.0
 11
297.6640389229408
 21
358.8299418671136
 31
0.0
 11
297.8069915824285
 21
359.0886833125951
 31
0.0
 11
297.9804408409888
 21
359.3275347643929
 31
0.0
 11
298.1994984864778
 21
359.567787138222
 31
0.0
 11
298.4412835431165
 21
359.7846428422114
 31
0.0
 11
298.7285104634037
 21
359.998586453666
 31
0.0
 11
299.0321140328916
 21
360.1881391598697
 31
0.0
 11
299.3778262780476
 21
360.3693773452918
 31
0.0
 11
299.7350542277981
 21
360.5263379249316
 31
0.0
 11
300.1281183480627
 21
360.6697046772589
 31
0.0
 11
300.5289694656072
 21
360.7892672737365
 31
0.0
 11
300.9570544363604
 21
360.8908336636171
 31
0.0
 11
301.389956531788
 21
360.969076242939
 31
0.0
 11
301.8398461507591
 21
361.0262138596922
 31
0.0
 11
302.2920383087264
 21
361.0603578365909
 31
0.0
 11
302.7500000000119
 21
361.0717967697276
 31
0.0
 11
303.2079616912974
 21
361.0603578365909
 31
0.0
 11
303.6601538492648
 21
361.0262138596921
 31
0.0
 11
304.1100434682359
 21
360.969076242939
 31
0.0
 11
304.5429455636634
 21
360.8908336636172
 31
0.0
 11
304.9710305344166
 21
360.7892672737366
 31
0.0
 11
305.3718816519611
 21
360.669704677259
 31
0.0
 11
305.7649457722257
 21
360.5263379249317
 31
0.0
 11
306.1221737219762
 21
360.3693773452918
 31
0.0
 11
306.4678859671322
 21
360.1881391598697
 31
0.0
 11
306.77148953662
 21
359.998586453666
 31
0.0
 11
307.0587164569074
 21
359.7846428422114
 31
0.0
 11
307.3005015135461
 21
359.5677871382221
 31
0.0
 11
307.5195591590351
 21
359.3275347643929
 31
0.0
 11
307.6930084175953
 21
359.088683312595
 31
0.0
 11
307.835961077083
 21
358.8299418671136
 31
0.0
 11
307.9355616530751
 21
358.5743593130731
 31
0.0
 11
307.997138534756
 21
358.30672616831
 31
0.0
 11
308.0178268764388
 21
358.0407078564821
 31
0.0
 11
307.997138534756
 21
357.774689544654
 31
0.0
  0
SPLINE
  5
86
330
47
100
AcDbEntity
  8
1
  6
Continuous
 62
     7
100
AcDbSpline
210
0.0
220
0.0
230
1.0
 70
     8
 71
     3
 72
    45
 73
    41
 74
    39
 42
0.000000001
 43
0.0000000001
 44
0.00000001
 40
0.0
 40
0.0
 40
0.0
 40
0.0
 40
0.2639815398231992
 40
0.5283419764905726
 40
1.054652162219938
 40
1.580985058146679
 40
2.101700151031939
 40
2.622460338950503
 40
3.134495216417459
 40
3.646596358664413
 40
4.147789051096675
 40
4.649065926352673
 40
5.138470084900399
 40
5.627969497831824
 40
6.106046349977712
 40
6.584217818368409
 40
7.052873637687224
 40
7.52160735160159
 40
7.984025544090064
 40
8.446488180118056
 40
8.906737359044772
 40
9.366986537971492
 40
9.829449173999484
 40
10.29186736648793
 40
10.76060108040222
 40
11.22925689972104
 40
11.70742836811177
 40
12.18550522025766
 40
12.67500463318913
 40
13.16440879173677
 40
13.66568566699281
 40
14.16687835942529
 40
14.67897950167224
 40
15.19101437913906
 40
15.71177456705757
 40
16.23248965994274
 40
16.75882255586952
 40
17.28513274159889
 40
17.54949317826433
 40
17.81347471808503
 40
17.81347471808503
 40
17.81347471808503
 40
17.81347471808503
 10
308.0178268764387
 20
367.9999999999986
 30
0.0
 10
308.0168583651125
 20
368.0879997618489
 30
0.0
 10
308.0149199405431
 20
368.26412559275
 30
0.0
 10
307.9942846134869
 20
368.615179037599
 30
0.0
 10
307.9447909830448
 20
369.0518057763296
 30
0.0
 10
307.8455878858111
 20
369.567323809803
 30
0.0
 10
307.7077077560483
 20
370.0719421391105
 30
0.0
 10
307.5324896282716
 20
370.5598072657866
 30
0.0
 10
307.3204904823523
 20
371.0297040677578
 30
0.0
 10
307.0743845139198
 20
371.4752671777464
 30
0.0
 10
306.7945342738331
 20
371.89615466073
 30
0.0
 10
306.484812510348
 20
372.2860009048367
 30
0.0
 10
306.1454315795556
 20
372.6449856151485
 30
0.0
 10
305.7812420753258
 20
372.9672789780026
 30
0.0
 10
305.3925179797428
 20
373.2532555083451
 30
0.0
 10
304.9846717305978
 20
373.4980598509289
 30
0.0
 10
304.5584067532797
 20
373.7020764108768
 30
0.0
 10
304.1191492185746
 20
373.8616713576004
 30
0.0
 10
303.6684426624078
 20
373.977273224183
 30
0.0
 10
303.2111650731803
 20
374.046478432142
 30
0.0
 10
302.7500000000119
 20
374.0700086783519
 30
0.0
 10
302.2888349268434
 20
374.0464784321418
 30
0.0
 10
301.831557337616
 20
373.977273224183
 30
0.0
 10
301.3808507814491
 20
373.8616713576005
 30
0.0
 10
300.9415932467442
 20
373.7020764108768
 30
0.0
 10
300.5153282694259
 20
373.4980598509292
 30
0.0
 10
300.1074820202811
 20
373.253255508345
 30
0.0
 10
299.718757924698
 20
372.9672789780025
 30
0.0
 10
299.3545684204682
 20
372.6449856151486
 30
0.0
 10
299.015187489676
 20
372.2860009048367
 30
0.0
 10
298.7054657261907
 20
371.89615466073
 30
0.0
 10
298.4256154861039
 20
371.4752671777463
 30
0.0
 10
298.1795095176716
 20
371.0297040677576
 30
0.0
 10
297.9675103717522
 20
370.5598072657864
 30
0.0
 10
297.7922922439755
 20
370.0719421391105
 30
0.0
 10
297.6544121142126
 20
369.5673238098029
 30
0.0
 10
297.5552090169791
 20
369.0518057763296
 30
0.0
 10
297.505715386537
 20
368.6151790375999
 30
0.0
 10
297.4850800594808
 20
368.2641255927521
 30
0.0
 10
297.4831416349114
 20
368.0879997618526
 30
0.0
 10
297.4821731235851
 20
368.000000000003
 30
0.0
 11
308.0178268764387
 21
367.9999999999986
 31
0.0
 11
308.0128245699864
 21
368.2639341463047
 31
0.0
 11
307.9978176506291
 21
368.5278682926107
 31
0.0
 11
307.9380890746215
 21
369.0507783324578
 31
0.0
 11
307.8386476076967
 21
369.5676319988117
 31
0.0
 11
307.7012436794365
 21
370.0698912632913
 31
0.0
 11
307.525088863023
 21
370.5599531514574
 31
0.0
 11
307.3143246614713
 21
371.0265988064512
 31
0.0
 11
307.0665617179728
 21
371.4747741113932
 31
0.0
 11
306.7888282211266
 21
371.8919769636315
 31
0.0
 11
306.4768493132568
 21
372.2843386169095
 31
0.0
 11
306.1403938787957
 21
372.6397456670368
 31
0.0
 11
305.773703462804
 21
372.9640107042384
 31
0.0
 11
305.3883957824115
 21
373.2470221320332
 31
0.0
 11
304.9783497230825
 21
373.4930103079718
 31
0.0
 11
304.5554613982336
 21
373.6950096693068
 31
0.0
 11
304.1148999114603
 21
373.8550623832366
 31
0.0
 11
303.6669022295279
 21
373.9696427569168
 31
0.0
 11
303.2096627771468
 21
374.0389520147418
 31
0.0
 11
302.7500000000119
 21
374.0621778264939
 31
0.0
 11
302.2903372228769
 21
374.0389520147417
 31
0.0
 11
301.8330977704959
 21
373.9696427569167
 31
0.0
 11
301.3851000885635
 21
373.8550623832367
 31
0.0
 11
300.9445386017902
 21
373.695009669307
 31
0.0
 11
300.5216502769413
 21
373.4930103079719
 31
0.0
 11
300.1116042176124
 21
373.2470221320331
 31
0.0
 11
299.7262965372199
 21
372.9640107042383
 31
0.0
 11
299.3596061212281
 21
372.6397456670368
 31
0.0
 11
299.0231506867671
 21
372.2843386169095
 31
0.0
 11
298.7111717788973
 21
371.8919769636315
 31
0.0
 11
298.4334382820509
 21
371.474774111393
 31
0.0
 11
298.1856753385525
 21
371.0265988064509
 31
0.0
 11
297.9749111370008
 21
370.5599531514573
 31
0.0
 11
297.7987563205873
 21
370.0698912632913
 31
0.0
 11
297.6613523923271
 21
369.5676319988118
 31
0.0
 11
297.5619109254023
 21
369.0507783324578
 31
0.0
 11
297.5021823493947
 21
368.5278682926107
 31
0.0
 11
297.4871754300375
 21
368.2639341463066
 31
0.0
 11
297.4821731235851
 21
368.000000000003
 31
0.0
  0
SPLINE
  5
87
330
47
100
AcDbEntity
  8
1
  6
Continuous
 62
     7
100
AcDbSpline
210
0.0
220
0.0
230
1.0
 70
    11
 71
     3
 72
    75
 73
    71
 74
    69
 42
0.000000001
 43
0.0000000001
 44
0.00000001
 40
0.0
 40
0.0
 40
0.0
 40
0.0
 40
0.8400587655890687
 40
1.680178480190193
 40
2.117385743936038
 40
2.554623586278729
 40
3.00879168680653
 40
3.46298712011964
 40
3.935711173452234
 40
4.408461484611143
 40
4.899048315182001
 40
5.389652077008837
 40
5.895427911915343
 40
6.401215977756473
 40
6.917979533547153
 40
7.434749836098513
 40
7.957266977156802
 40
8.479786374626622
 40
9.002305761173067
 40
9.524822912194184
 40
10.0415932633085
 40
10.55835677389007
 40
11.06414468549801
 40
11.56992065989496
 40
12.06052486461193
 40
12.55111131309254
 40
13.02386050625382
 40
13.49658542786816
 40
13.95078297880913
 40
14.40494995238119
 40
14.84218749799203
 40
15.27939124663023
 40
15.70360262544589
 40
16.12778535212592
 40
16.54489441625774
 40
16.96199188177951
 40
17.37908934730126
 40
17.79619841143315
 40
18.22038113811317
 40
18.64459251692887
 40
19.08179626556702
 40
19.51903381117797
 40
19.97320078474999
 40
20.42739833569096
 40
20.90012325730523
 40
21.37287245046656
 40
21.86345889894721
 40
22.35406310366418
 40
22.85983907806101
 40
23.3656269896691
 40
23.8823905002506
 40
24.39916085136491
 40
24.92167800238608
 40
25.44419738893247
 40
25.96671678640223
 40
26.48923392746058
 40
27.00600423001187
 40
27.52276778580266
 40
28.02855585164379
 40
28.53433168655037
 40
29.02493544837716
 40
29.51552227894806
 40
29.98827259010687
 40
30.46099664343944
 40
30.91519207675257
 40
31.36936017728037
 40
31.80659801962308
 40
32.24380528336896
 40
33.08392499797014
 40
33.9239837635591
 40
33.9239837635591
 40
33.9239837635591
 40
33.9239837635591
 10
308.7499999999995
 20
229.6286996130602
 30
0.0
 10
308.7319166886333
 20
229.3481499182801
 30
0.0
 10
308.6957487599059
 20
228.787030173481
 30
0.0
 10
308.4562752106962
 20
228.1137857658362
 30
0.0
 10
308.1923869519991
 20
227.6066401643686
 30
0.0
 10
307.9485355521437
 20
227.235893820431
 30
0.0
 10
307.6671180070405
 20
226.8858334238166
 30
0.0
 10
307.3464752915653
 20
226.5546290991563
 30
0.0
 10
306.9931527512155
 20
226.2490213327177
 30
0.0
 10
306.6054101243697
 20
225.9673962175478
 30
0.0
 10
306.1909028498177
 20
225.7152375634054
 30
0.0
 10
305.7480366545943
 20
225.4915774387473
 30
0.0
 10
305.2847526022846
 20
225.3003354928528
 30
0.0
 10
304.8003137344449
 20
225.1412572819733
 30
0.0
 10
304.3021035430344
 20
225.0166673176221
 30
0.0
 10
303.7908304214056
 20
224.9268159135188
 30
0.0
 10
303.2726237662841
 20
224.8726849649808
 30
0.0
 10
302.7500000131405
 20
224.8546202530209
 30
0.0
 10
302.2273762574144
 20
224.8726849817258
 30
0.0
 10
301.7091695869902
 20
224.9268159255917
 30
0.0
 10
301.1978964498959
 20
225.0166672584057
 30
0.0
 10
300.699686301892
 20
225.1412572254469
 30
0.0
 10
300.2152475539386
 20
225.3003357167152
 30
0.0
 10
299.751963333671
 20
225.4915776552098
 30
0.0
 10
299.3090966828018
 20
225.7152367142318
 30
0.0
 10
298.8945892632038
 20
225.9673955258953
 30
0.0
 10
298.5068512332126
 20
226.2490240589505
 30
0.0
 10
298.1535214055631
 20
226.5546319114027
 30
0.0
 10
297.8328892597874
 20
226.8858218105799
 30
0.0
 10
297.5513893084791
 20
227.2358968837948
 30
0.0
 10
297.3078941876462
 20
227.6066388285757
 30
0.0
 10
297.1068913301771
 20
227.9908862156417
 30
0.0
 10
296.9482551805743
 20
228.3897953788528
 30
0.0
 10
296.8341983188874
 20
228.7967713014864
 30
0.0
 10
296.7654563530149
 20
229.2113967372399
 30
0.0
 10
296.7422719459425
 20
229.6286996130601
 30
0.0
 10
296.7654563530151
 20
230.0460024888805
 30
0.0
 10
296.8341983188872
 20
230.460627924634
 30
0.0
 10
296.9482551805743
 20
230.8676038472676
 30
0.0
 10
297.1068913301768
 20
231.2665130104787
 30
0.0
 10
297.3078941876462
 20
231.6507603975447
 30
0.0
 10
297.5513893084791
 20
232.0215023423254
 30
0.0
 10
297.8328892597874
 20
232.3715774155406
 30
0.0
 10
298.1535214055631
 20
232.7027673147176
 30
0.0
 10
298.5068512332124
 20
233.0083751671699
 30
0.0
 10
298.8945892632037
 20
233.2900037002252
 30
0.0
 10
299.3090966828019
 20
233.5421625118886
 30
0.0
 10
299.751963333671
 20
233.7658215709106
 30
0.0
 10
300.2152475539385
 20
233.9570635094054
 30
0.0
 10
300.699686301892
 20
234.1161420006734
 30
0.0
 10
301.1978964498959
 20
234.2407319677147
 30
0.0
 10
301.7091695869902
 20
234.3305833005287
 30
0.0
 10
302.2273762574145
 20
234.3847142443944
 30
0.0
 10
302.7500000131404
 20
234.4027789730995
 30
0.0
 10
303.2726237662842
 20
234.3847142611396
 30
0.0
 10
303.7908304214055
 20
234.3305833126016
 30
0.0
 10
304.3021035430344
 20
234.2407319084985
 30
0.0
 10
304.8003137344449
 20
234.1161419441472
 30
0.0
 10
305.2847526022846
 20
233.9570637332676
 30
0.0
 10
305.7480366545943
 20
233.7658217873732
 30
0.0
 10
306.1909028498178
 20
233.5421616627149
 30
0.0
 10
306.6054101243698
 20
233.2900030085727
 30
0.0
 10
306.9931527512153
 20
233.0083778934025
 30
0.0
 10
307.3464752915654
 20
232.7027701269641
 30
0.0
 10
307.6671180070405
 20
232.3715658023039
 30
0.0
 10
307.9485355521437
 20
232.0215054056895
 30
0.0
 10
308.192386951999
 20
231.6507590617518
 30
0.0
 10
308.4562752106964
 20
231.1436134602842
 30
0.0
 10
308.6957487599058
 20
230.4703690526393
 30
0.0
 10
308.7319166886334
 20
229.9092493078403
 30
0.0
 10
308.7499999999995
 20
229.6286996130602
 30
0.0
 11
308.7499999999995
 21
229.6286996130602
 31
0.0
 11
308.6572883434408
 21
228.7937724946964
 31
0.0
 11
308.388155724715
 21
227.9979278075234
 31
0.0
 11
308.185914971331
 21
227.6103083177171
 31
0.0
 11
307.9461524227062
 21
227.2446707227151
 31
0.0
 11
307.661894590321
 21
226.8904587125649
 31
0.0
 11
307.3462666587134
 21
226.5638511493631
 31
0.0
 11
306.989006257751
 21
226.2542820352146
 31
0.0
 11
306.6067256581188
 21
225.9761554456922
 31
0.0
 11
306.1877827414355
 21
225.7208864290472
 31
0.0
 11
305.7499999999995
 21
225.4994404482705
 31
0.0
 11
305.2825909456693
 21
225.3062100906685
 31
0.0
 11
304.8021208599536
 21
225.1481909010649
 31
0.0
 11
304.3008356992472
 21
225.0226609832723
 31
0.0
 11
303.7918890660011
 21
224.9330793438264
 31
0.0
 11
303.2722062482954
 21
224.8787292591178
 31
0.0
 11
302.7499999999996
 21
224.86064183237
 31
0.0
 11
302.2277937630664
 21
224.8787292717941
 31
0.0
 11
301.708110933998
 21
224.9330793438263
 31
0.0
 11
301.1991642448133
 21
225.0226609458012
 31
0.0
 11
300.6978791400455
 21
225.1481909010648
 31
0.0
 11
300.217409260445
 21
225.3062102239135
 31
0.0
 11
299.7499999999995
 21
225.4994404482705
 31
0.0
 11
299.3122165218158
 21
225.7208859539803
 31
0.0
 11
298.8932743418804
 21
225.9761554456923
 31
0.0
 11
298.5109963458727
 21
226.2542837137681
 31
0.0
 11
298.1537333412857
 21
226.563851149363
 31
0.0
 11
297.8380962549359
 21
226.890452810591
 31
0.0
 11
297.553847577293
 21
227.2446707227152
 31
0.0
 11
297.3141172898193
 21
227.6103291161499
 31
0.0
 11
297.1118442752842
 21
227.9979278075235
 31
0.0
 11
296.9553080291127
 21
228.3922014405404
 31
0.0
 11
296.8411534819264
 21
228.8007350684328
 31
0.0
 11
296.7729843724268
 21
229.2122359117365
 31
0.0
 11
296.7499999999996
 21
229.6286996130602
 31
0.0
 11
296.7729843724269
 21
230.0451633143838
 31
0.0
 11
296.8411534819264
 21
230.4566641576876
 31
0.0
 11
296.9553080291126
 21
230.86519778558
 31
0.0
 11
297.1118442752842
 21
231.2594714185969
 31
0.0
 11
297.3141172898192
 21
231.6470701099705
 31
0.0
 11
297.553847577293
 21
232.0127285034053
 31
0.0
 11
297.838096254936
 21
232.3669464155294
 31
0.0
 11
298.1537333412858
 21
232.6935480767573
 31
0.0
 11
298.5109963458727
 21
233.0031155123523
 31
0.0
 11
298.8932743418804
 21
233.2812437804281
 31
0.0
 11
299.3122165218158
 21
233.5365132721402
 31
0.0
 11
299.7499999999995
 21
233.75795877785
 31
0.0
 11
300.2174092604449
 21
233.951189002207
 31
0.0
 11
300.6978791400456
 21
234.1092083250556
 31
0.0
 11
301.1991642448133
 21
234.2347382803192
 31
0.0
 11
301.708110933998
 21
234.324319882294
 31
0.0
 11
302.2277937630664
 21
234.3786699543262
 31
0.0
 11
302.7499999999996
 21
234.3967573937504
 31
0.0
 11
303.2722062482954
 21
234.3786699670026
 31
0.0
 11
303.7918890660011
 21
234.324319882294
 31
0.0
 11
304.3008356992472
 21
234.2347382428482
 31
0.0
 11
304.8021208599536
 21
234.1092083250556
 31
0.0
 11
305.2825909456693
 21
233.951189135452
 31
0.0
 11
305.7499999999997
 21
233.7579587778499
 31
0.0
 11
306.1877827414356
 21
233.5365127970732
 31
0.0
 11
306.6067256581188
 21
233.2812437804281
 31
0.0
 11
306.9890062577509
 21
233.0031171909057
 31
0.0
 11
307.3462666587134
 21
232.6935480767573
 31
0.0
 11
307.661894590321
 21
232.3669405135556
 31
0.0
 11
307.9461524227062
 21
232.0127285034053
 31
0.0
 11
308.185914971331
 21
231.6470909084032
 31
0.0
 11
308.388155724715
 21
231.2594714185969
 31
0.0
 11
308.6572883434408
 21
230.4636267314239
 31
0.0
 11
308.7499999999995
 21
229.6286996130602
 31
0.0
  0
SPLINE
  5
88
330
47
100
AcDbEntity
  8
1
  6
Continuous
 62
     7
100
AcDbSpline
210
0.0
220
0.0
230
1.0
 70
    11
 71
     3
 72
    75
 73
    71
 74
    69
 42
0.000000001
 43
0.0000000001
 44
0.00000001
 40
0.0
 40
0.0
 40
0.0
 40
0.0
 40
0.8400587655889117
 40
1.680178480190063
 40
2.117385743935958
 40
2.554623586278673
 40
3.008791686806518
 40
3.462987120119648
 40
3.935711173452187
 40
4.408461484611045
 40
4.899048315181918
 40
5.389652077008753
 40
5.895427911915281
 40
6.401215977756427
 40
6.917979533547101
 40
7.434749836098451
 40
7.95726697715674
 40
8.47978637462656
 40
9.002305761173007
 40
9.524822912194118
 40
10.04159326330844
 40
10.55835677389002
 40
11.06414468549793
 40
11.56992065989487
 40
12.06052486461184
 40
12.55111131309245
 40
13.02386050625376
 40
13.49658542786816
 40
13.95078297880909
 40
14.40494995238108
 40
14.84218749799195
 40
15.2793912466302
 40
15.70360262544582
 40
16.12778535212586
 40
16.54489441625777
 40
16.96199188177945
 40
17.37908934730117
 40
17.79619841143314
 40
18.22038113811313
 40
18.64459251692881
 40
19.08179626556701
 40
19.51903381117793
 40
19.97320078474995
 40
20.42739833569091
 40
20.90012325730521
 40
21.37287245046654
 40
21.86345889894718
 40
22.35406310366414
 40
22.85983907806099
 40
23.36562698966905
 40
23.88239050025055
 40
24.39916085136487
 40
24.92167800238604
 40
25.44419738893243
 40
25.96671678640219
 40
26.48923392746053
 40
27.00600423001184
 40
27.52276778580264
 40
28.02855585164377
 40
28.53433168655032
 40
29.02493544837713
 40
29.515522278948
 40
29.9882725901068
 40
30.46099664343944
 40
30.91519207675257
 40
31.36936017728042
 40
31.80659801962311
 40
32.24380528336898
 40
33.08392499797006
 40
33.92398376355914
 40
33.92398376355914
 40
33.92398376355914
 40
33.92398376355914
 10
308.7499999999996
 20
241.1286996130602
 30
0.0
 10
308.7319166886334
 20
241.4092493078402
 30
0.0
 10
308.6957487599059
 20
241.9703690526393
 30
0.0
 10
308.4562752106962
 20
242.643613460284
 30
0.0
 10
308.192386951999
 20
243.1507590617517
 30
0.0
 10
307.9485355521437
 20
243.5215054056894
 30
0.0
 10
307.6671180070406
 20
243.8715658023039
 30
0.0
 10
307.3464752915653
 20
244.2027701269641
 30
0.0
 10
306.9931527512155
 20
244.5083778934027
 30
0.0
 10
306.6054101243696
 20
244.7900030085724
 30
0.0
 10
306.1909028498177
 20
245.0421616627149
 30
0.0
 10
305.7480366545942
 20
245.265821787373
 30
0.0
 10
305.2847526022846
 20
245.4570637332676
 30
0.0
 10
304.8003137344449
 20
245.6161419441471
 30
0.0
 10
304.3021035430343
 20
245.7407319084984
 30
0.0
 10
303.7908304214056
 20
245.8305833126016
 30
0.0
 10
303.2726237662842
 20
245.8847142611395
 30
0.0
 10
302.7500000131404
 20
245.9027789730994
 30
0.0
 10
302.2273762574146
 20
245.8847142443946
 30
0.0
 10
301.7091695869902
 20
245.8305833005287
 30
0.0
 10
301.1978964498959
 20
245.7407319677146
 30
0.0
 10
300.699686301892
 20
245.6161420006733
 30
0.0
 10
300.2152475539385
 20
245.4570635094053
 30
0.0
 10
299.751963333671
 20
245.2658215709106
 30
0.0
 10
299.3090966828019
 20
245.0421625118885
 30
0.0
 10
298.8945892632037
 20
244.7900037002253
 30
0.0
 10
298.5068512332126
 20
244.5083751671698
 30
0.0
 10
298.1535214055631
 20
244.2027673147176
 30
0.0
 10
297.8328892597873
 20
243.8715774155405
 30
0.0
 10
297.5513893084791
 20
243.5215023423255
 30
0.0
 10
297.3078941876462
 20
243.1507603975447
 30
0.0
 10
297.106891330177
 20
242.7665130104787
 30
0.0
 10
296.9482551805744
 20
242.3676038472676
 30
0.0
 10
296.8341983188873
 20
241.9606279246339
 30
0.0
 10
296.7654563530149
 20
241.5460024888806
 30
0.0
 10
296.7422719459426
 20
241.1286996130601
 30
0.0
 10
296.7654563530151
 20
240.7113967372399
 30
0.0
 10
296.8341983188873
 20
240.2967713014863
 30
0.0
 10
296.9482551805742
 20
239.8897953788526
 30
0.0
 10
297.1068913301769
 20
239.4908862156416
 30
0.0
 10
297.3078941876461
 20
239.1066388285756
 30
0.0
 10
297.5513893084792
 20
238.7358968837949
 30
0.0
 10
297.8328892597873
 20
238.3858218105798
 30
0.0
 10
298.1535214055633
 20
238.0546319114028
 30
0.0
 10
298.5068512332124
 20
237.7490240589503
 30
0.0
 10
298.8945892632038
 20
237.4673955258951
 30
0.0
 10
299.3090966828017
 20
237.2152367142316
 30
0.0
 10
299.7519633336711
 20
236.9915776552099
 30
0.0
 10
300.2152475539384
 20
236.8003357167149
 30
0.0
 10
300.6996863018921
 20
236.641257225447
 30
0.0
 10
301.1978964498959
 20
236.5166672584056
 30
0.0
 10
301.7091695869904
 20
236.4268159255918
 30
0.0
 10
302.2273762574145
 20
236.3726849817258
 30
0.0
 10
302.7500000131404
 20
236.3546202530208
 30
0.0
 10
303.2726237662841
 20
236.3726849649807
 30
0.0
 10
303.7908304214056
 20
236.4268159135186
 30
0.0
 10
304.3021035430343
 20
236.516667317622
 30
0.0
 10
304.8003137344449
 20
236.6412572819731
 30
0.0
 10
305.2847526022846
 20
236.8003354928528
 30
0.0
 10
305.7480366545944
 20
236.9915774387471
 30
0.0
 10
306.1909028498176
 20
237.2152375634053
 30
0.0
 10
306.6054101243698
 20
237.4673962175478
 30
0.0
 10
306.9931527512153
 20
237.7490213327176
 30
0.0
 10
307.3464752915654
 20
238.0546290991563
 30
0.0
 10
307.6671180070404
 20
238.3858334238165
 30
0.0
 10
307.9485355521438
 20
238.7358938204311
 30
0.0
 10
308.192386951999
 20
239.1066401643686
 30
0.0
 10
308.4562752106963
 20
239.6137857658362
 30
0.0
 10
308.6957487599059
 20
240.2870301734811
 30
0.0
 10
308.7319166886334
 20
240.8481499182801
 30
0.0
 10
308.7499999999996
 20
241.1286996130602
 30
0.0
 11
308.7499999999996
 21
241.1286996130602
 31
0.0
 11
308.6572883434408
 21
241.9636267314239
 31
0.0
 11
308.388155724715
 21
242.7594714185968
 31
0.0
 11
308.185914971331
 21
243.1470909084032
 31
0.0
 11
307.9461524227062
 21
243.5127285034052
 31
0.0
 11
307.661894590321
 21
243.8669405135556
 31
0.0
 11
307.3462666587134
 21
244.1935480767573
 31
0.0
 11
306.989006257751
 21
244.5031171909058
 31
0.0
 11
306.6067256581188
 21
244.781243780428
 31
0.0
 11
306.1877827414355
 21
245.0365127970731
 31
0.0
 11
305.7499999999995
 21
245.2579587778498
 31
0.0
 11
305.2825909456693
 21
245.4511891354519
 31
0.0
 11
304.8021208599536
 21
245.6092083250555
 31
0.0
 11
304.3008356992472
 21
245.734738242848
 31
0.0
 11
303.7918890660011
 21
245.824319882294
 31
0.0
 11
303.2722062482954
 21
245.8786699670025
 31
0.0
 11
302.7499999999996
 21
245.8967573937504
 31
0.0
 11
302.2277937630664
 21
245.8786699543262
 31
0.0
 11
301.708110933998
 21
245.824319882294
 31
0.0
 11
301.1991642448133
 21
245.7347382803192
 31
0.0
 11
300.6978791400455
 21
245.6092083250555
 31
0.0
 11
300.217409260445
 21
245.4511890022069
 31
0.0
 11
299.7499999999995
 21
245.2579587778499
 31
0.0
 11
299.3122165218158
 21
245.0365132721402
 31
0.0
 11
298.8932743418804
 21
244.7812437804281
 31
0.0
 11
298.5109963458727
 21
244.5031155123523
 31
0.0
 11
298.1537333412857
 21
244.1935480767572
 31
0.0
 11
297.8380962549359
 21
243.8669464155293
 31
0.0
 11
297.553847577293
 21
243.5127285034052
 31
0.0
 11
297.3141172898193
 21
243.1470701099705
 31
0.0
 11
297.1118442752842
 21
242.7594714185968
 31
0.0
 11
296.9553080291127
 21
242.36519778558
 31
0.0
 11
296.8411534819264
 21
241.9566641576876
 31
0.0
 11
296.7729843724268
 21
241.5451633143837
 31
0.0
 11
296.7499999999996
 21
241.1286996130602
 31
0.0
 11
296.7729843724269
 21
240.7122359117366
 31
0.0
 11
296.8411534819264
 21
240.3007350684327
 31
0.0
 11
296.9553080291126
 21
239.8922014405403
 31
0.0
 11
297.1118442752842
 21
239.4979278075234
 31
0.0
 11
297.3141172898192
 21
239.1103291161498
 31
0.0
 11
297.553847577293
 21
238.7446707227151
 31
0.0
 11
297.838096254936
 21
238.390452810591
 31
0.0
 11
298.1537333412858
 21
238.063851149363
 31
0.0
 11
298.5109963458727
 21
237.754283713768
 31
0.0
 11
298.8932743418804
 21
237.4761554456922
 31
0.0
 11
299.3122165218158
 21
237.2208859539801
 31
0.0
 11
299.7499999999995
 21
236.9994404482704
 31
0.0
 11
300.2174092604449
 21
236.8062102239133
 31
0.0
 11
300.6978791400456
 21
236.6481909010648
 31
0.0
 11
301.1991642448133
 21
236.5226609458012
 31
0.0
 11
301.708110933998
 21
236.4330793438263
 31
0.0
 11
302.2277937630664
 21
236.3787292717941
 31
0.0
 11
302.7499999999996
 21
236.3606418323699
 31
0.0
 11
303.2722062482954
 21
236.3787292591177
 31
0.0
 11
303.7918890660011
 21
236.4330793438262
 31
0.0
 11
304.3008356992472
 21
236.5226609832722
 31
0.0
 11
304.8021208599536
 21
236.6481909010648
 31
0.0
 11
305.2825909456693
 21
236.8062100906684
 31
0.0
 11
305.7499999999997
 21
236.9994404482704
 31
0.0
 11
306.1877827414356
 21
237.2208864290471
 31
0.0
 11
306.6067256581188
 21
237.4761554456922
 31
0.0
 11
306.9890062577509
 21
237.7542820352145
 31
0.0
 11
307.3462666587134
 21
238.063851149363
 31
0.0
 11
307.661894590321
 21
238.3904587125648
 31
0.0
 11
307.9461524227062
 21
238.7446707227151
 31
0.0
 11
308.185914971331
 21
239.1103083177172
 31
0.0
 11
308.388155724715
 21
239.4979278075235
 31
0.0
 11
308.6572883434408
 21
240.2937724946964
 31
0.0
 11
308.7499999999996
 21
241.1286996130602
 31
0.0
  0
ENDBLK
  5
49
330
47
100
AcDbEntity
  8
0
100
AcDbBlockEnd
  0
BLOCK
  5
4B
330
4A
100
AcDbEntity
  8
0
100
AcDbBlockBegin
  2
開示A4
 70
     0
 10
0.0
 20
0.0
 30
0.0
  3
開示A4
  1

  0
POINT
  5
89
330
4A
100
AcDbEntity
  8
1
 62
     4
100
AcDbPoint
 10
34.0
 20
34.00000000000001
 30
0.0
  0
POINT
  5
8A
330
4A
100
AcDbEntity
  8
1
 62
     4
100
AcDbPoint
 10
57.0
 20
12.25
 30
0.0
  0
POINT
  5
8B
330
4A
100
AcDbEntity
  8
1
 62
     4
100
AcDbPoint
 10
57.0
 20
20.75000000000001
 30
0.0
  0
POINT
  5
8C
330
4A
100
AcDbEntity
  8
1
 62
     4
100
AcDbPoint
 10
57.0
 20
24.75000000000001
 30
0.0
  0
POINT
  5
8D
330
4A
100
AcDbEntity
  8
1
 62
     4
100
AcDbPoint
 10
57.0
 20
16.25
 30
0.0
  0
POINT
  5
8E
330
4A
100
AcDbEntity
  8
1
 62
     4
100
AcDbPoint
 10
157.5
 20
19.00000000000001
 30
0.0
  0
POINT
  5
8F
330
4A
100
AcDbEntity
  8
1
 62
     4
100
AcDbPoint
 10
47.5
 20
282.0000000000003
 30
0.0
  0
POINT
  5
90
330
4A
100
AcDbEntity
  8
1
 62
     4
100
AcDbPoint
 10
57.0
 20
22.75000000000001
 30
0.0
  0
POINT
  5
91
330
4A
100
AcDbEntity
  8
1
 62
     4
100
AcDbPoint
 10
57.0
 20
14.25
 30
0.0
  0
POINT
  5
92
330
4A
100
AcDbEntity
  8
1
 62
     4
100
AcDbPoint
 10
157.5
 20
12.5
 30
0.0
  0
POINT
  5
93
330
4A
100
AcDbEntity
  8
1
 62
     4
100
AcDbPoint
 10
163.25
 20
12.5
 30
0.0
  0
POINT
  5
94
330
4A
100
AcDbEntity
  8
1
 62
     4
100
AcDbPoint
 10
151.75
 20
12.5
 30
0.0
  0
POINT
  5
95
330
4A
100
AcDbEntity
  8
1
 62
     4
100
AcDbPoint
 10
134.75
 20
12.5
 30
0.0
  0
POINT
  5
96
330
4A
100
AcDbEntity
  8
1
 62
     4
100
AcDbPoint
 10
146.25
 20
12.5
 30
0.0
  0
POINT
  5
97
330
4A
100
AcDbEntity
  8
1
 62
     4
100
AcDbPoint
 10
140.5
 20
12.5
 30
0.0
  0
POINT
  5
98
330
4A
100
AcDbEntity
  8
1
 62
     4
100
AcDbPoint
 10
140.5
 20
19.00000000000001
 30
0.0
  0
POINT
  5
99
330
4A
100
AcDbEntity
  8
1
 62
     4
100
AcDbPoint
 10
117.75
 20
12.5
 30
0.0
  0
POINT
  5
9A
330
4A
100
AcDbEntity
  8
1
 62
     4
100
AcDbPoint
 10
129.25
 20
12.5
 30
0.0
  0
POINT
  5
9B
330
4A
100
AcDbEntity
  8
1
 62
     4
100
AcDbPoint
 10
123.5
 20
12.5
 30
0.0
  0
POINT
  5
9C
330
4A
100
AcDbEntity
  8
1
 62
     4
100
AcDbPoint
 10
123.5
 20
19.00000000000001
 30
0.0
  0
POINT
  5
9D
330
4A
100
AcDbEntity
  8
1
 62
     4
100
AcDbPoint
 10
100.75
 20
12.5
 30
0.0
  0
POINT
  5
9E
330
4A
100
AcDbEntity
  8
1
 62
     4
100
AcDbPoint
 10
112.25
 20
12.5
 30
0.0
  0
POINT
  5
9F
330
4A
100
AcDbEntity
  8
1
 62
     4
100
AcDbPoint
 10
106.5
 20
12.5
 30
0.0
  0
POINT
  5
A0
330
4A
100
AcDbEntity
  8
1
 62
     4
100
AcDbPoint
 10
106.5
 20
19.00000000000001
 30
0.0
  0
POINT
  5
A1
330
4A
100
AcDbEntity
  8
1
 62
     4
100
AcDbPoint
 10
85.25
 20
17.0
 30
0.0
  0
POINT
  5
A2
330
4A
100
AcDbEntity
  8
1
 62
     4
100
AcDbPoint
 10
93.75
 20
17.0
 30
0.0
  0
LINE
  5
A3
330
4A
100
AcDbEntity
  8
1
  6
Continuous
 62
     2
100
AcDbLine
 10
81.0
 20
27.00000000000001
 30
0.0
 11
81.0
 21
10.0
 31
0.0
  0
LINE
  5
A4
330
4A
100
AcDbEntity
  8
1
  6
DOT_CENTER
 62
     2
100
AcDbLine
 10
187.0
 20
26.50000000000001
 30
0.0
 11
187.0
 21
20.50000000000001
 31
0.0
  0
LINE
  5
A5
330
4A
100
AcDbEntity
  8
1
  6
DOT_CENTER
 62
     2
100
AcDbLine
 10
184.0
 20
23.50000000000001
 30
0.0
 11
197.0
 21
23.50000000000001
 31
0.0
  0
LINE
  5
A6
330
4A
100
AcDbEntity
  8
1
  6
Continuous
 62
     7
100
AcDbLine
 10
196.0
 20
21.50000000000001
 30
0.0
 11
191.0
 21
22.30000000000001
 31
0.0
  0
LINE
  5
A7
330
4A
100
AcDbEntity
  8
1
  6
Continuous
 62
     7
100
AcDbLine
 10
196.0
 20
25.50000000000001
 30
0.0
 11
196.0
 21
21.50000000000001
 31
0.0
  0
LINE
  5
A8
330
4A
100
AcDbEntity
  8
1
  6
Continuous
 62
     7
100
AcDbLine
 10
191.0
 20
24.70000000000001
 30
0.0
 11
196.0
 21
25.50000000000001
 31
0.0
  0
LINE
  5
A9
330
4A
100
AcDbEntity
  8
1
  6
Continuous
 62
     7
100
AcDbLine
 10
191.0
 20
24.70000000000001
 30
0.0
 11
191.0
 21
22.30000000000001
 31
0.0
  0
LINE
  5
AA
330
4A
100
AcDbEntity
  8
1
  6
Continuous
 62
     2
100
AcDbLine
 10
33.0
 20
27.0
 30
0.0
 11
33.0
 21
10.0
 31
0.0
  0
LINE
  5
AB
330
4A
100
AcDbEntity
  8
1
  6
Continuous
 62
     2
100
AcDbLine
 10
25.0
 20
18.50000000000001
 30
0.0
 11
81.0
 21
18.50000000000001
 31
0.0
  0
LINE
  5
AC
330
4A
100
AcDbEntity
  8
1
  6
Continuous
 62
     7
100
AcDbLine
 10
200.0
 20
287.0000000000003
 30
0.0
 11
105.0
 21
287.0000000000003
 31
0.0
  0
LINE
  5
AD
330
4A
100
AcDbEntity
  8
1
  6
Continuous
 62
     7
100
AcDbLine
 10
200.0
 20
10.0
 30
0.0
 11
200.0
 21
148.5
 31
0.0
  0
LINE
  5
AE
330
4A
100
AcDbEntity
  8
1
  6
Continuous
 62
     7
100
AcDbLine
 10
25.0
 20
10.0
 30
0.0
 11
105.0
 21
10.0
 31
0.0
  0
LINE
  5
AF
330
4A
100
AcDbEntity
  8
1
  6
PHANTOM
 62
     4
100
AcDbLine
 10
0.0
 20
297.0
 30
0.0
 11
0.0
 21
0.0
 31
0.0
  0
LINE
  5
B0
330
4A
100
AcDbEntity
  8
1
  6
PHANTOM
 62
     4
100
AcDbLine
 10
210.0
 20
297.0
 30
0.0
 11
0.0
 21
297.0
 31
0.0
  0
LINE
  5
B1
330
4A
100
AcDbEntity
  8
1
  6
PHANTOM
 62
     4
100
AcDbLine
 10
210.0
 20
0.0
 30
0.0
 11
210.0
 21
297.0
 31
0.0
  0
LINE
  5
B2
330
4A
100
AcDbEntity
  8
1
  6
PHANTOM
 62
     4
100
AcDbLine
 10
0.0
 20
0.0
 30
0.0
 11
210.0
 21
0.0
 31
0.0
  0
LINE
  5
B3
330
4A
100
AcDbEntity
  8
1
  6
Continuous
 62
     7
100
AcDbLine
 10
25.0
 20
41.0
 30
0.0
 11
200.0
 21
41.0
 31
0.0
  0
LINE
  5
B4
330
4A
100
AcDbEntity
  8
1
  6
Continuous
 62
     7
100
AcDbLine
 10
200.0
 20
27.00000000000001
 30
0.0
 11
25.0
 21
27.00000000000001
 31
0.0
  0
LINE
  5
B5
330
4A
100
AcDbEntity
  8
1
  6
Continuous
 62
     2
100
AcDbLine
 10
33.0
 20
41.00000000000001
 30
0.0
 11
33.0
 21
27.0
 31
0.0
  0
LINE
  5
B6
330
4A
100
AcDbEntity
  8
1
  6
Continuous
 62
     2
100
AcDbLine
 10
55.0
 20
287.0000000000003
 30
0.0
 11
55.0
 21
277.0000000000003
 31
0.0
  0
LINE
  5
B7
330
4A
100
AcDbEntity
  8
1
  6
Continuous
 62
     2
100
AcDbLine
 10
40.0
 20
287.0000000000003
 30
0.0
 11
40.0
 21
277.0000000000003
 31
0.0
  0
LINE
  5
B8
330
4A
100
AcDbEntity
  8
1
  6
Continuous
 62
     7
100
AcDbLine
 10
25.0
 20
10.0
 30
0.0
 11
25.0
 21
148.5
 31
0.0
  0
LINE
  5
B9
330
4A
100
AcDbEntity
  8
1
  6
Continuous
 62
     2
100
AcDbLine
 10
55.0
 20
277.0000000000003
 30
0.0
 11
25.0
 21
277.0000000000003
 31
0.0
  0
LINE
  5
BA
330
4A
100
AcDbEntity
  8
1
  6
Continuous
 62
     2
100
AcDbLine
 10
166.0
 20
27.00000000000001
 30
0.0
 11
166.0
 21
10.0
 31
0.0
  0
LINE
  5
BB
330
4A
100
AcDbEntity
  8
1
  6
Continuous
 62
     2
100
AcDbLine
 10
132.0
 20
27.00000000000001
 30
0.0
 11
132.0
 21
9.99999999999999
 31
0.0
  0
LINE
  5
BC
330
4A
100
AcDbEntity
  8
1
  6
Continuous
 62
     2
100
AcDbLine
 10
149.0
 20
27.00000000000001
 30
0.0
 11
149.0
 21
10.0
 31
0.0
  0
LINE
  5
BD
330
4A
100
AcDbEntity
  8
1
  6
Continuous
 62
     2
100
AcDbLine
 10
115.0
 20
27.00000000000001
 30
0.0
 11
115.0
 21
9.99999999999999
 31
0.0
  0
LINE
  5
BE
330
4A
100
AcDbEntity
  8
1
  6
Continuous
 62
     2
100
AcDbLine
 10
98.0
 20
27.00000000000001
 30
0.0
 11
98.0
 21
9.99999999999999
 31
0.0
  0
LINE
  5
BF
330
4A
100
AcDbEntity
  8
1
  6
Continuous
 62
     2
100
AcDbLine
 10
166.0
 20
20.00000000000001
 30
0.0
 11
200.0
 21
20.00000000000001
 31
0.0
  0
LINE
  5
C0
330
4A
100
AcDbEntity
  8
1
  6
Continuous
 62
     2
100
AcDbLine
 10
105.0
 20
287.0000000000003
 30
0.0
 11
105.0
 21
292.0000000000003
 31
0.0
  0
LINE
  5
C1
330
4A
100
AcDbEntity
  8
1
  6
Continuous
 62
     7
100
AcDbLine
 10
105.0
 20
287.0000000000003
 30
0.0
 11
25.0
 21
287.0000000000003
 31
0.0
  0
LINE
  5
C2
330
4A
100
AcDbEntity
  8
1
  6
Continuous
 62
     2
100
AcDbLine
 10
25.0
 20
148.5
 30
0.0
 11
20.0
 21
148.5
 31
0.0
  0
LINE
  5
C3
330
4A
100
AcDbEntity
  8
1
  6
Continuous
 62
     7
100
AcDbLine
 10
25.0
 20
148.5
 30
0.0
 11
25.0
 21
287.0000000000003
 31
0.0
  0
LINE
  5
C4
330
4A
100
AcDbEntity
  8
1
  6
Continuous
 62
     2
100
AcDbLine
 10
200.0
 20
148.5
 30
0.0
 11
205.0
 21
148.5
 31
0.0
  0
LINE
  5
C5
330
4A
100
AcDbEntity
  8
1
  6
Continuous
 62
     7
100
AcDbLine
 10
200.0
 20
148.5
 30
0.0
 11
200.0
 21
287.0000000000003
 31
0.0
  0
LINE
  5
C6
330
4A
100
AcDbEntity
  8
1
  6
Continuous
 62
     2
100
AcDbLine
 10
105.0
 20
10.0
 30
0.0
 11
105.0
 21
5.0
 31
0.0
  0
LINE
  5
C7
330
4A
100
AcDbEntity
  8
1
  6
Continuous
 62
     7
100
AcDbLine
 10
105.0
 20
10.0
 30
0.0
 11
200.0
 21
10.0
 31
0.0
  0
CIRCLE
  5
C8
330
4A
100
AcDbEntity
  8
1
  6
DOT_CENTER
 62
     7
100
AcDbCircle
 10
89.5
 20
18.0
 30
0.0
 40
0.1000000000000227
  0
CIRCLE
  5
C9
330
4A
100
AcDbEntity
  8
1
  6
DOT_CENTER
 62
     7
100
AcDbCircle
 10
89.5
 20
16.0
 30
0.0
 40
0.1000000000000227
  0
CIRCLE
  5
CA
330
4A
100
AcDbEntity
  8
1
  6
Continuous
 62
     7
100
AcDbCircle
 10
187.0
 20
23.50000000000001
 30
0.0
 40
2.0
  0
CIRCLE
  5
CB
330
4A
100
AcDbEntity
  8
1
  6
Continuous
 62
     7
100
AcDbCircle
 10
187.0
 20
23.50000000000001
 30
0.0
 40
1.200000000000102
  0
CIRCLE
  5
CC
330
4A
100
AcDbEntity
  8
1
  6
Continuous
 62
     7
100
AcDbCircle
 10
154.5
 20
12.5
 30
0.0
 40
0.3000000000000114
  0
CIRCLE
  5
CD
330
4A
100
AcDbEntity
  8
1
  6
Continuous
 62
     7
100
AcDbCircle
 10
160.5
 20
12.5
 30
0.0
 40
0.3000000000000114
  0
CIRCLE
  5
CE
330
4A
100
AcDbEntity
  8
1
  6
Continuous
 62
     7
100
AcDbCircle
 10
143.5
 20
12.5
 30
0.0
 40
0.3000000000000114
  0
CIRCLE
  5
CF
330
4A
100
AcDbEntity
  8
1
  6
Continuous
 62
     7
100
AcDbCircle
 10
137.5
 20
12.5
 30
0.0
 40
0.3000000000000114
  0
CIRCLE
  5
D0
330
4A
100
AcDbEntity
  8
1
  6
Continuous
 62
     7
100
AcDbCircle
 10
126.5
 20
12.5
 30
0.0
 40
0.2999999999999972
  0
CIRCLE
  5
D1
330
4A
100
AcDbEntity
  8
1
  6
Continuous
 62
     7
100
AcDbCircle
 10
120.5
 20
12.5
 30
0.0
 40
0.2999999999999972
  0
CIRCLE
  5
D2
330
4A
100
AcDbEntity
  8
1
  6
Continuous
 62
     7
100
AcDbCircle
 10
109.5
 20
12.5
 30
0.0
 40
0.2999999999999972
  0
CIRCLE
  5
D3
330
4A
100
AcDbEntity
  8
1
  6
Continuous
 62
     7
100
AcDbCircle
 10
103.5
 20
12.5
 30
0.0
 40
0.2999999999999972
  0
MTEXT
  5
D5
330
4A
100
AcDbEntity
  8
1
 62
   250
100
AcDbMText
 10
25.0
 20
5.0
 30
0.0
 40
3.5
 41
0.0
 71
     4
 72
     1
  1
備考欄の文字列 原点位置=4
  7
CONVERTER_11
 73
     1
 44
0.54545454545455
  0
MTEXT
  5
D6
330
4A
100
AcDbEntity
  8
1
 62
     2
100
AcDbMText
 10
89.5
 20
24.00000000000001
 30
0.0
 40
3.5
 41
0.0
 71
     5
 72
     1
  1
尺度
  7
CONVERTER_11
 73
     1
 44
0.54545454545455
  0
MTEXT
  5
D7
330
4A
100
AcDbEntity
  8
1
 62
     2
100
AcDbMText
 10
135.5
 20
25.00000000000001
 30
0.0
 40
3.0
 41
0.0
 71
     5
 72
     1
  1
製図
  7
CONVERTER_11
 73
     1
 44
0.59090909090909
  0
MTEXT
  5
D8
330
4A
100
AcDbEntity
  8
1
 62
     2
100
AcDbMText
 10
152.5
 20
25.00000000000001
 30
0.0
 40
3.0
 41
0.0
 71
     5
 72
     1
  1
設計
  7
CONVERTER_11
 73
     1
 44
0.59090909090909
  0
MTEXT
  5
D9
330
4A
100
AcDbEntity
  8
1
 62
     2
100
AcDbMText
 10
118.5
 20
25.00000000000001
 30
0.0
 40
3.0
 41
0.0
 71
     5
 72
     1
  1
検図
  7
CONVERTER_11
 73
     1
 44
0.59090909090909
  0
MTEXT
  5
DA
330
4A
100
AcDbEntity
  8
1
 62
     2
100
AcDbMText
 10
175.0
 20
23.50000000000001
 30
0.0
 40
3.5
 41
0.0
 71
     5
 72
     1
  1
第三角法
  7
CONVERTER_11
 73
     1
 44
0.54545454545455
  0
MTEXT
  5
DB
330
4A
100
AcDbEntity
  8
1
 62
     2
100
AcDbMText
 10
101.5
 20
25.00000000000001
 30
0.0
 40
3.0
 41
0.0
 71
     5
 72
     1
  1
承認
  7
CONVERTER_11
 73
     1
 44
0.59090909090909
  0
MTEXT
  5
DC
330
4A
100
AcDbEntity
  8
1
 62
     2
100
AcDbMText
 10
29.0
 20
14.25
 30
0.0
 40
3.5
 41
0.0
 71
     5
 72
     1
  1
品番
  7
CONVERTER_11
 73
     1
 44
0.72727272727273
  0
MTEXT
  5
DD
330
4A
100
AcDbEntity
  8
1
 62
     2
100
AcDbMText
 10
29.0
 20
22.75
 30
0.0
 40
3.5
 41
0.0
 71
     5
 72
     1
  1
品名
  7
CONVERTER_11
 73
     1
 44
0.72727272727273
  0
MTEXT
  5
DE
330
4A
100
AcDbEntity
  8
1
 62
     2
100
AcDbMText
 10
29.0
 20
34.00000000000001
 30
0.0
 40
3.5
 41
0.0
 71
     5
 72
     1
  1
備考
  7
CONVERTER_11
 73
     1
 44
0.45454545454545
  0
MTEXT
  5
DF
330
4A
100
AcDbEntity
  8
1
 62
     2
100
AcDbMText
 10
32.5
 20
282.0000000000003
 30
0.0
 40
5.0
 41
0.0
 71
     5
 72
     1
  1
図番
  7
CONVERTER_11
 73
     1
 44
0.45454545454545
  0
MTEXT
  5
E0
330
4A
100
AcDbEntity
  8
1
 62
     7
100
AcDbMText
 10
171.5
 20
15.0
 30
0.0
 40
2.5
 41
0.0
 71
     5
 72
     1
  1
株式会社
  7
CONVERTER_11
 73
     1
 44
1.0
  0
MTEXT
  5
E1
330
4A
100
AcDbEntity
  8
1
 62
     7
100
AcDbMText
 10
188.5
 20
15.0
 30
0.0
 40
3.0
 41
0.0
 71
     5
 72
     1
  1
三栄水栓製作所
  7
CONVERTER_11
 73
     1
 44
1.0
  0
ENDBLK
  5
4C
330
4A
100
AcDbEntity
  8
0
100
AcDbBlockEnd
  0
BLOCK
  5
4E
330
4D
100
AcDbEntity
  8
0
100
AcDbBlockBegin
  2
B4111R-0-13
 70
     0
 10
1270.372663354208
 20
275.9673580576211
 30
0.0
  3
B4111R-0-13
  1

  0
LINE
  5
E2
330
4D
100
AcDbEntity
  8
1
  6
Continuous
 62
     7
100
AcDbLine
 10
318.3665676606865
 20
236.3786996130601
 30
0.0
 11
318.3665676606865
 21
247.1254168549187
 31
0.0
  0
LINE
  5
E3
330
4D
100
AcDbEntity
  8
1
  6
Continuous
 62
     7
100
AcDbLine
 10
330.3665676606864
 20
386.9099999999995
 30
0.0
 11
330.3665676606864
 21
382.0354132113495
 31
0.0
  0
LINE
  5
E4
330
4D
100
AcDbEntity
  8
1
  6
Continuous
 62
     7
100
AcDbLine
 10
334.3665676606864
 20
386.9099999999995
 30
0.0
 11
330.3665676606864
 21
386.9099999999995
 31
0.0
  0
LINE
  5
E5
330
4D
100
AcDbEntity
  8
1
  6
Continuous
 62
     7
100
AcDbLine
 10
334.3665676606864
 20
382.0354132113495
 30
0.0
 11
334.3665676606864
 21
386.9099999999995
 31
0.0
  0
LINE
  5
E6
330
4D
100
AcDbEntity
  8
1
  6
Continuous
 62
     7
100
AcDbLine
 10
141.5910079489674
 20
250.2290376955769
 30
0.0
 11
141.7068406125379
 21
251.5530110985555
 31
0.0
  0
LINE
  5
E7
330
4D
100
AcDbEntity
  8
1
  6
Continuous
 62
     7
100
AcDbLine
 10
143.6992300087216
 20
253.3786996130602
 30
0.0
 11
144.9713869933305
 21
253.3786996130602
 31
0.0
  0
LINE
  5
E8
330
4D
100
AcDbEntity
  8
1
  6
Continuous
 62
     7
100
AcDbLine
 10
325.9439513713538
 20
222.3786996130602
 30
0.0
 11
338.7891839500189
 21
222.3786996130602
 31
0.0
  0
LINE
  5
E9
330
4D
100
AcDbEntity
  8
1
  6
Continuous
 62
     7
100
AcDbLine
 10
318.3665676606859
 20
251.5962130088383
 30
0.0
 11
318.3665676606866
 21
245.85619961306
 31
0.0
  0
LINE
  5
EA
330
4D
100
AcDbEntity
  8
1
  6
Continuous
 62
     7
100
AcDbLine
 10
318.9526298745227
 20
254.2100119631169
 30
0.0
 11
319.0884461011521
 21
256.8015399478489
 31
0.0
  0
LINE
  5
EB
330
4D
100
AcDbEntity
  8
1
  6
Continuous
 62
     7
100
AcDbLine
 10
318.3665676606862
 20
224.1286996130602
 30
0.0
 11
318.3665676606862
 21
224.9011996130603
 31
0.0
  0
LINE
  5
EC
330
4D
100
AcDbEntity
  8
1
  6
Continuous
 62
     7
100
AcDbLine
 10
318.3665676606862
 20
224.1286996130602
 30
0.0
 11
318.9059770347144
 21
224.1286996130602
 31
0.0
  0
LINE
  5
ED
330
4D
100
AcDbEntity
  8
1
  6
Continuous
 62
     7
100
AcDbLine
 10
345.644689220221
 20
256.8015399478489
 30
0.0
 11
346.630988249698
 21
237.9818333514186
 31
0.0
  0
LINE
  5
EE
330
4D
100
AcDbEntity
  8
1
  6
Continuous
 62
     7
100
AcDbLine
 10
318.3665676606865
 20
224.8968265490792
 30
0.0
 11
308.7499999999996
 21
224.8968265490792
 31
0.0
  0
LINE
  5
EF
330
4D
100
AcDbEntity
  8
1
  6
Continuous
 62
     2
100
AcDbLine
 10
314.722496213135
 20
226.0588265490803
 30
0.0
 11
316.3539246222914
 21
226.0588265490792
 31
0.0
  0
LINE
  5
F0
330
4D
100
AcDbEntity
  8
1
  6
Continuous
 62
     7
100
AcDbLine
 10
316.3539246222914
 20
224.8968265490792
 30
0.0
 11
308.8665676606863
 21
224.8968265490792
 31
0.0
  0
LINE
  5
F1
330
4D
100
AcDbEntity
  8
1
  6
Continuous
 62
     2
100
AcDbLine
 10
316.3539246222914
 20
226.0588265490792
 30
0.0
 11
318.3665676606865
 21
224.8968265490792
 31
0.0
  0
LINE
  5
F2
330
4D
100
AcDbEntity
  8
1
  6
Continuous
 62
     7
100
AcDbLine
 10
316.3539246222914
 20
224.8968265490792
 30
0.0
 11
316.3539246222914
 21
233.7197315403913
 31
0.0
  0
LINE
  5
F3
330
4D
100
AcDbEntity
  8
1
  6
Continuous
 62
     2
100
AcDbLine
 10
308.7499999999996
 20
226.0588265490791
 30
0.0
 11
314.7224962131357
 21
226.0588265490827
 31
0.0
  0
LINE
  5
F4
330
4D
100
AcDbEntity
  8
1
  6
Continuous
 62
     7
100
AcDbLine
 10
318.3665676606865
 20
224.8968265490792
 30
0.0
 11
316.3539246222914
 21
224.8968265490792
 31
0.0
  0
LINE
  5
F5
330
4D
100
AcDbEntity
  8
1
  6
Continuous
 62
     7
100
AcDbLine
 10
308.7499999999996
 20
245.8605726770412
 30
0.0
 11
318.3665676606865
 21
245.8605726770412
 31
0.0
  0
LINE
  5
F6
330
4D
100
AcDbEntity
  8
1
  6
Continuous
 62
     2
100
AcDbLine
 10
316.3539246222914
 20
244.6985726770411
 30
0.0
 11
314.722496213135
 21
244.69857267704
 31
0.0
  0
LINE
  5
F7
330
4D
100
AcDbEntity
  8
1
  6
Continuous
 62
     7
100
AcDbLine
 10
308.8665676606863
 20
245.8605726770412
 30
0.0
 11
316.3539246222914
 21
245.8605726770412
 31
0.0
  0
LINE
  5
F8
330
4D
100
AcDbEntity
  8
1
  6
Continuous
 62
     2
100
AcDbLine
 10
318.3665676606865
 20
245.8605726770412
 30
0.0
 11
316.3539246222914
 21
244.6985726770411
 31
0.0
  0
LINE
  5
F9
330
4D
100
AcDbEntity
  8
1
  6
Continuous
 62
     7
100
AcDbLine
 10
318.3665676606865
 20
224.8968265490792
 30
0.0
 11
318.3665676606865
 21
236.3786996130601
 31
0.0
  0
LINE
  5
FA
330
4D
100
AcDbEntity
  8
1
  6
Continuous
 62
     7
100
AcDbLine
 10
316.3539246222914
 20
233.7197315403913
 30
0.0
 11
316.3539246222914
 21
245.8605726770412
 31
0.0
  0
LINE
  5
FB
330
4D
100
AcDbEntity
  8
1
  6
Continuous
 62
     2
100
AcDbLine
 10
314.7224962131357
 20
244.6985726770377
 30
0.0
 11
308.7499999999996
 21
244.6985726770412
 31
0.0
  0
LINE
  5
FC
330
4D
100
AcDbEntity
  8
1
  6
Continuous
 62
     7
100
AcDbLine
 10
316.3539246222914
 20
245.8605726770412
 30
0.0
 11
318.3665676606865
 21
245.8605726770412
 31
0.0
  0
LINE
  5
FD
330
4D
100
AcDbEntity
  8
1
  6
Continuous
 62
     7
100
AcDbLine
 10
326.5672050879548
 20
238.3086996130602
 30
0.0
 11
338.1659302334181
 21
238.3086996130602
 31
0.0
  0
LINE
  5
FE
330
4D
100
AcDbEntity
  8
1
  6
Continuous
 62
     7
100
AcDbLine
 10
319.0884461011521
 20
256.8015399478489
 30
0.0
 11
318.3665676606862
 21
256.8015399478489
 31
0.0
  0
LINE
  5
FF
330
4D
100
AcDbEntity
  8
1
  6
Continuous
 62
     7
100
AcDbLine
 10
345.644689220221
 20
256.8015399478489
 30
0.0
 11
346.3665676606863
 21
256.8015399478489
 31
0.0
  0
LINE
  5
100
330
4D
100
AcDbEntity
  8
1
  6
Continuous
 62
     7
100
AcDbLine
 10
344.3665676606864
 20
260.8786996130602
 30
0.0
 11
344.3665676606864
 21
259.3786996130602
 31
0.0
  0
LINE
  5
101
330
4D
100
AcDbEntity
  8
1
  6
Continuous
 62
     7
100
AcDbLine
 10
343.6165676606865
 20
259.3786996130602
 30
0.0
 11
344.3665676606864
 21
259.3786996130602
 31
0.0
  0
LINE
  5
102
330
4D
100
AcDbEntity
  8
1
  6
Continuous
 62
     7
100
AcDbLine
 10
344.3665676606864
 20
259.3786996130602
 30
0.0
 11
344.3665676606865
 21
258.0796615073833
 31
0.0
  0
LINE
  5
103
330
4D
100
AcDbEntity
  8
1
  6
Continuous
 62
     7
100
AcDbLine
 10
321.1165676606864
 20
259.3786996130602
 30
0.0
 11
320.3665676606864
 21
259.3786996130602
 31
0.0
  0
LINE
  5
104
330
4D
100
AcDbEntity
  8
1
  6
Continuous
 62
     2
100
AcDbLine
 10
343.6165676606865
 20
260.8787114406979
 30
0.0
 11
343.6165676606865
 21
259.3786996130602
 31
0.0
  0
LINE
  5
105
330
4D
100
AcDbEntity
  8
1
  6
Continuous
 62
     2
100
AcDbLine
 10
321.1165676606864
 20
260.8787114406979
 30
0.0
 11
321.1165676606864
 21
259.3786996130602
 31
0.0
  0
LINE
  5
106
330
4D
100
AcDbEntity
  8
1
  6
Continuous
 62
     2
100
AcDbLine
 10
321.1165676606864
 20
259.3786996130602
 30
0.0
 11
320.3665676606864
 21
258.0796615073833
 31
0.0
  0
LINE
  5
107
330
4D
100
AcDbEntity
  8
1
  6
Continuous
 62
     2
100
AcDbLine
 10
343.6165676606865
 20
259.3786996130602
 30
0.0
 11
344.3665676606865
 21
258.0796615073833
 31
0.0
  0
LINE
  5
108
330
4D
100
AcDbEntity
  8
1
  6
Continuous
 62
     7
100
AcDbLine
 10
319.0884461011521
 20
256.8015399478489
 30
0.0
 11
320.3665676606864
 21
258.0796615073833
 31
0.0
  0
LINE
  5
109
330
4D
100
AcDbEntity
  8
1
  6
Continuous
 62
     7
100
AcDbLine
 10
344.3665676606865
 20
258.0796615073833
 30
0.0
 11
345.644689220221
 21
256.8015399478489
 31
0.0
  0
LINE
  5
10A
330
4D
100
AcDbEntity
  8
1
  6
Continuous
 62
     7
100
AcDbLine
 10
321.1165676606864
 20
259.3786996130602
 30
0.0
 11
343.6165676606865
 21
259.3786996130602
 31
0.0
  0
LINE
  5
10B
330
4D
100
AcDbEntity
  8
1
  6
Continuous
 62
     7
100
AcDbLine
 10
320.3665676606864
 20
258.0796615073833
 30
0.0
 11
344.3665676606865
 21
258.0796615073833
 31
0.0
  0
LINE
  5
10C
330
4D
100
AcDbEntity
  8
1
  6
Continuous
 62
     7
100
AcDbLine
 10
319.0884461011521
 20
256.8015399478489
 30
0.0
 11
345.644689220221
 21
256.8015399478489
 31
0.0
  0
LINE
  5
10D
330
4D
100
AcDbEntity
  8
1
  6
Continuous
 62
     7
100
AcDbLine
 10
320.3665676606864
 20
258.0796615073833
 30
0.0
 11
320.3665676606864
 21
260.8786996130602
 31
0.0
  0
LINE
  5
10E
330
4D
100
AcDbEntity
  8
0
  6
Continuous
 62
     7
100
AcDbLine
 10
181.592965677776
 20
246.6171585575754
 30
0.0
 11
178.9232528658308
 21
246.6171585575754
 31
0.0
  0
LINE
  5
10F
330
4D
100
AcDbEntity
  8
1
  6
Continuous
 62
     7
100
AcDbLine
 10
173.930105192058
 20
251.3554787763608
 30
0.0
 11
173.9306795260039
 21
251.3445198318337
 31
0.0
  0
LINE
  5
110
330
4D
100
AcDbEntity
  8
1
  6
Continuous
 62
     7
100
AcDbLine
 10
181.6039246222913
 20
224.1511996130599
 30
0.0
 11
182.3539246222913
 21
224.9011996130599
 31
0.0
  0
LINE
  5
111
330
4D
100
AcDbEntity
  8
1
  6
Continuous
 62
     7
100
AcDbLine
 10
182.3539246222913
 20
245.8561996130603
 30
0.0
 11
181.592965677776
 21
246.6171585575754
 31
0.0
  0
LINE
  5
112
330
4D
100
AcDbEntity
  8
1
  6
Continuous
 62
     2
100
AcDbLine
 10
184.3665676606864
 20
226.0631996130601
 30
0.0
 11
182.3539246222913
 21
224.9011996130599
 31
0.0
  0
LINE
  5
113
330
4D
100
AcDbEntity
  8
1
  6
Continuous
 62
     2
100
AcDbLine
 10
192.2045676606866
 20
244.6941996130603
 30
0.0
 11
193.3665676606864
 21
244.6941996130603
 31
0.0
  0
LINE
  5
114
330
4D
100
AcDbEntity
  8
1
  6
Continuous
 62
     7
100
AcDbLine
 10
193.3665676606864
 20
228.8786996130602
 30
0.0
 11
193.3665676606864
 21
226.0631996130601
 31
0.0
  0
LINE
  5
115
330
4D
100
AcDbEntity
  8
1
  6
Continuous
 62
     2
100
AcDbLine
 10
184.3665676606864
 20
244.6941996130603
 30
0.0
 11
192.2045676606866
 21
244.6941996130603
 31
0.0
  0
LINE
  5
116
330
4D
100
AcDbEntity
  8
1
  6
Continuous
 62
     2
100
AcDbLine
 10
193.3665676606864
 20
226.0631996130601
 30
0.0
 11
192.2045676606866
 21
226.0631996130601
 31
0.0
  0
LINE
  5
117
330
4D
100
AcDbEntity
  8
1
  6
Continuous
 62
     7
100
AcDbLine
 10
193.3665676606864
 20
244.6941996130603
 30
0.0
 11
193.3665676606864
 21
228.8786996130602
 31
0.0
  0
LINE
  5
118
330
4D
100
AcDbEntity
  8
1
  6
Continuous
 62
     7
100
AcDbLine
 10
184.3665676606864
 20
245.8561996130601
 30
0.0
 11
192.2045676606866
 21
245.8561996130601
 31
0.0
  0
LINE
  5
119
330
4D
100
AcDbEntity
  8
1
  6
Continuous
 62
     7
100
AcDbLine
 10
192.2045676606866
 20
245.8561996130601
 30
0.0
 11
193.3665676606864
 21
244.6941996130603
 31
0.0
  0
LINE
  5
11A
330
4D
100
AcDbEntity
  8
1
  6
Continuous
 62
     7
100
AcDbLine
 10
184.3665676606864
 20
224.9011996130599
 30
0.0
 11
192.2045676606866
 21
224.9011996130599
 31
0.0
  0
LINE
  5
11B
330
4D
100
AcDbEntity
  8
1
  6
Continuous
 62
     7
100
AcDbLine
 10
192.2045676606866
 20
224.9011996130599
 30
0.0
 11
193.3665676606864
 21
226.0631996130601
 31
0.0
  0
LINE
  5
11C
330
4D
100
AcDbEntity
  8
1
  6
Continuous
 62
     7
100
AcDbLine
 10
184.3665676606864
 20
245.8561996130601
 30
0.0
 11
184.3665676606864
 21
244.6941996130603
 31
0.0
  0
LINE
  5
11D
330
4D
100
AcDbEntity
  8
1
  6
Continuous
 62
     2
100
AcDbLine
 10
192.2045676606866
 20
226.0631996130601
 30
0.0
 11
184.3665676606864
 21
226.0631996130601
 31
0.0
  0
LINE
  5
11E
330
4D
100
AcDbEntity
  8
1
  6
Continuous
 62
     7
100
AcDbLine
 10
184.3665676606864
 20
226.0631996130601
 30
0.0
 11
184.3665676606864
 21
224.9011996130599
 31
0.0
  0
LINE
  5
11F
330
4D
100
AcDbEntity
  8
1
  6
Continuous
 62
     7
100
AcDbLine
 10
172.3665676606865
 20
260.8786996130602
 30
0.0
 11
172.3665676606865
 21
259.3786996130602
 31
0.0
  0
LINE
  5
120
330
4D
100
AcDbEntity
  8
1
  6
Continuous
 62
     7
100
AcDbLine
 10
171.6165676606865
 20
259.3786996130602
 30
0.0
 11
172.3665676606865
 21
259.3786996130602
 31
0.0
  0
LINE
  5
121
330
4D
100
AcDbEntity
  8
1
  6
Continuous
 62
     7
100
AcDbLine
 10
172.3665676606865
 20
259.3786996130602
 30
0.0
 11
172.3665676606865
 21
258.0796615073833
 31
0.0
  0
LINE
  5
122
330
4D
100
AcDbEntity
  8
1
  6
Continuous
 62
     7
100
AcDbLine
 10
149.1165676606864
 20
259.3786996130602
 30
0.0
 11
148.3665676606865
 21
259.3786996130602
 31
0.0
  0
LINE
  5
123
330
4D
100
AcDbEntity
  8
1
  6
Continuous
 62
     2
100
AcDbLine
 10
171.6165676606865
 20
260.8787114406979
 30
0.0
 11
171.6165676606865
 21
259.3786996130602
 31
0.0
  0
LINE
  5
124
330
4D
100
AcDbEntity
  8
1
  6
Continuous
 62
     2
100
AcDbLine
 10
149.1165676606864
 20
260.8787114406979
 30
0.0
 11
149.1165676606864
 21
259.3786996130602
 31
0.0
  0
LINE
  5
125
330
4D
100
AcDbEntity
  8
1
  6
Continuous
 62
     2
100
AcDbLine
 10
149.1165676606864
 20
259.3786996130602
 30
0.0
 11
148.3665676606864
 21
258.0796615073833
 31
0.0
  0
LINE
  5
126
330
4D
100
AcDbEntity
  8
1
  6
Continuous
 62
     2
100
AcDbLine
 10
171.6165676606865
 20
259.3786996130602
 30
0.0
 11
172.3665676606865
 21
258.0796615073833
 31
0.0
  0
LINE
  5
127
330
4D
100
AcDbEntity
  8
1
  6
Continuous
 62
     7
100
AcDbLine
 10
125.3665676606865
 20
248.3786996130602
 30
0.0
 11
125.3665676606865
 21
246.1111996130601
 31
0.0
  0
LINE
  5
128
330
4D
100
AcDbEntity
  8
1
  6
Continuous
 62
     7
100
AcDbLine
 10
184.3665676606864
 20
224.9011996130599
 30
0.0
 11
182.3539246222913
 21
224.9011996130599
 31
0.0
  0
LINE
  5
129
330
4D
100
AcDbEntity
  8
1
  6
Continuous
 62
     7
100
AcDbLine
 10
125.3665676606865
 20
222.3786996130602
 30
0.0
 11
125.3665676606865
 21
224.6461996130602
 31
0.0
  0
LINE
  5
12A
330
4D
100
AcDbEntity
  8
1
  6
Continuous
 62
     7
100
AcDbLine
 10
125.3665676606865
 20
246.1111996130601
 30
0.0
 11
125.3665676606865
 21
235.3786996130602
 31
0.0
  0
LINE
  5
12B
330
4D
100
AcDbEntity
  8
1
  6
Continuous
 62
     7
100
AcDbLine
 10
134.2054544934852
 20
248.3786996130602
 30
0.0
 11
139.055307210231
 21
248.3786996130602
 31
0.0
  0
LINE
  5
12C
330
4D
100
AcDbEntity
  8
1
  6
Continuous
 62
     7
100
AcDbLine
 10
147.0884461011519
 20
256.8015399478489
 30
0.0
 11
148.3665676606864
 21
258.0796615073833
 31
0.0
  0
LINE
  5
12D
330
4D
100
AcDbEntity
  8
1
  6
Continuous
 62
     7
100
AcDbLine
 10
172.3665676606865
 20
258.0796615073833
 30
0.0
 11
173.6446892202209
 21
256.8015399478489
 31
0.0
  0
LINE
  5
12E
330
4D
100
AcDbEntity
  8
1
  6
Continuous
 62
     7
100
AcDbLine
 10
125.3665676606865
 20
222.3786996130602
 30
0.0
 11
160.3665676606865
 21
222.3786996130602
 31
0.0
  0
LINE
  5
12F
330
4D
100
AcDbEntity
  8
1
  6
Continuous
 62
     7
100
AcDbLine
 10
182.3539246222913
 20
245.8561996130603
 30
0.0
 11
184.3665676606864
 21
245.8561996130601
 31
0.0
  0
LINE
  5
130
330
4D
100
AcDbEntity
  8
1
  6
Continuous
 62
     7
100
AcDbLine
 10
173.6446892202209
 20
256.8015399478489
 30
0.0
 11
173.930105192058
 21
251.3554787763608
 31
0.0
  0
LINE
  5
131
330
4D
100
AcDbEntity
  8
1
  6
Continuous
 62
     7
100
AcDbLine
 10
147.0443434882674
 20
255.9600119631165
 30
0.0
 11
147.0884461011519
 21
256.8015399478489
 31
0.0
  0
LINE
  5
132
330
4D
100
AcDbEntity
  8
1
  6
Continuous
 62
     2
100
AcDbLine
 10
184.3665676606864
 20
244.6941996130603
 30
0.0
 11
182.3539246222913
 21
245.8561996130603
 31
0.0
  0
LINE
  5
133
330
4D
100
AcDbEntity
  8
1
  6
Continuous
 62
     7
100
AcDbLine
 10
181.592965677776
 20
224.1511996130599
 30
0.0
 11
177.1271101055434
 21
224.1511996130599
 31
0.0
  0
LINE
  5
134
330
4D
100
AcDbEntity
  8
1
  6
Continuous
 62
     7
100
AcDbLine
 10
125.3665676606865
 20
224.6461996130602
 30
0.0
 11
125.3665676606865
 21
235.3786996130602
 31
0.0
  0
LINE
  5
135
330
4D
100
AcDbEntity
  8
1
  6
Continuous
 62
     7
100
AcDbLine
 10
149.1165676606864
 20
259.3786996130602
 30
0.0
 11
171.6165676606865
 21
259.3786996130602
 31
0.0
  0
LINE
  5
136
330
4D
100
AcDbEntity
  8
1
  6
Continuous
 62
     7
100
AcDbLine
 10
148.3665676606864
 20
258.0796615073833
 30
0.0
 11
172.3665676606865
 21
258.0796615073833
 31
0.0
  0
LINE
  5
137
330
4D
100
AcDbEntity
  8
1
  6
Continuous
 62
     7
100
AcDbLine
 10
184.3665676606864
 20
226.0631996130601
 30
0.0
 11
184.3665676606864
 21
244.6941996130603
 31
0.0
  0
LINE
  5
138
330
4D
100
AcDbEntity
  8
1
  6
Continuous
 62
     7
100
AcDbLine
 10
192.2045676606866
 20
224.9011996130599
 30
0.0
 11
192.2045676606866
 21
245.8561996130601
 31
0.0
  0
LINE
  5
139
330
4D
100
AcDbEntity
  8
1
  6
Continuous
 62
     7
100
AcDbLine
 10
182.3539246222913
 20
224.9011996130599
 30
0.0
 11
182.3539246222913
 21
245.8561996130603
 31
0.0
  0
LINE
  5
13A
330
4D
100
AcDbEntity
  8
1
  6
Continuous
 62
     7
100
AcDbLine
 10
181.592965677776
 20
224.1511996130599
 30
0.0
 11
181.592965677776
 21
246.6171585575754
 31
0.0
  0
LINE
  5
13B
330
4D
100
AcDbEntity
  8
1
  6
Continuous
 62
     7
100
AcDbLine
 10
181.6039246222913
 20
224.1511996130599
 30
0.0
 11
181.592965677776
 21
224.1511996130599
 31
0.0
  0
LINE
  5
13C
330
4D
100
AcDbEntity
  8
1
  6
Continuous
 62
     7
100
AcDbLine
 10
147.0884461011519
 20
256.8015399478489
 30
0.0
 11
173.6446892202209
 21
256.8015399478489
 31
0.0
  0
LINE
  5
13D
330
4D
100
AcDbEntity
  8
1
  6
Continuous
 62
     7
100
AcDbLine
 10
148.3665676606864
 20
258.0796615073833
 30
0.0
 11
148.3665676606865
 21
260.8786996130602
 31
0.0
  0
LINE
  5
13E
330
4D
100
AcDbEntity
  8
1
  6
Continuous
 62
     7
100
AcDbLine
 10
126.5276808278879
 20
235.3786996130602
 30
0.0
 11
134.2054544934852
 21
235.3786996130602
 31
0.0
  0
LINE
  5
13F
330
4D
100
AcDbEntity
  8
1
  6
PHANTOM
 62
     4
100
AcDbLine
 10
126.5276808278879
 20
235.3786996130602
 30
0.0
 11
134.2054544934852
 21
235.3786996130602
 31
0.0
  0
LINE
  5
140
330
4D
100
AcDbEntity
  8
1
  6
PHANTOM
 62
     4
100
AcDbLine
 10
122.3665676606865
 20
235.3786996130602
 30
0.0
 11
126.5276808278879
 21
235.3786996130602
 31
0.0
  0
LINE
  5
141
330
4D
100
AcDbEntity
  8
1
  6
Continuous
 62
     7
100
AcDbLine
 10
126.5276808278879
 20
248.3786996130602
 30
0.0
 11
134.2054544934852
 21
248.3786996130602
 31
0.0
  0
LINE
  5
142
330
4D
100
AcDbEntity
  8
1
  6
Continuous
 62
     7
100
AcDbLine
 10
125.3665676606865
 20
248.3786996130602
 30
0.0
 11
126.5276808278879
 21
248.3786996130602
 31
0.0
  0
LINE
  5
143
330
4D
100
AcDbEntity
  8
1
  6
Continuous
 62
     7
100
AcDbLine
 10
172.3665676606863
 20
258.1887807082597
 30
0.0
 11
172.3665676606865
 21
259.3786996130602
 31
0.0
  0
LINE
  5
144
330
4D
100
AcDbEntity
  8
1
  6
PHANTOM
 62
     4
100
AcDbLine
 10
143.3665676606866
 20
235.3786996130602
 30
0.0
 11
194.8665676606866
 21
235.3786996130602
 31
0.0
  0
LINE
  5
145
330
4D
100
AcDbEntity
  8
1
  6
PHANTOM
 62
     4
100
AcDbLine
 10
332.3665676606864
 20
331.9999999999999
 30
0.0
 11
332.3665676606864
 21
405.9999999999999
 31
0.0
  0
LINE
  5
146
330
4D
100
AcDbEntity
  8
1
  6
Continuous
 62
     7
100
AcDbLine
 10
339.8721211601512
 20
394.1611131672012
 30
0.0
 11
339.8721211601512
 21
401.8388868327984
 31
0.0
  0
LINE
  5
147
330
4D
100
AcDbEntity
  8
1
  6
Continuous
 62
     7
100
AcDbLine
 10
324.8610141612215
 20
394.1611131672012
 30
0.0
 11
324.8610141612215
 21
401.8388868327984
 31
0.0
  0
LINE
  5
148
330
4D
100
AcDbEntity
  8
1
  6
Continuous
 62
     7
100
AcDbLine
 10
342.8440676606863
 20
345.9736718952246
 30
0.0
 11
342.8440676606863
 21
336.1619999999999
 31
0.0
  0
LINE
  5
149
330
4D
100
AcDbEntity
  8
1
  6
Continuous
 62
     7
100
AcDbLine
 10
321.8890676606863
 20
345.9736718952246
 30
0.0
 11
321.8890676606863
 21
336.1619999999999
 31
0.0
  0
LINE
  5
14A
330
4D
100
AcDbEntity
  8
1
  6
Continuous
 62
     7
100
AcDbLine
 10
341.7045676606863
 20
334.9999999999999
 30
0.0
 11
323.0285676606862
 21
334.9999999999999
 31
0.0
  0
LINE
  5
14B
330
4D
100
AcDbEntity
  8
1
  6
Continuous
 62
     7
100
AcDbLine
 10
343.6248979098839
 20
402.9999999999999
 30
0.0
 11
321.1082374114895
 21
402.9999999999999
 31
0.0
  0
LINE
  5
14C
330
4D
100
AcDbEntity
  8
1
  6
Continuous
 62
     7
100
AcDbLine
 10
317.3554606617566
 20
394.1611131672012
 30
0.0
 11
317.3554606617566
 21
401.8388868327984
 31
0.0
  0
LINE
  5
14D
330
4D
100
AcDbEntity
  8
1
  6
Continuous
 62
     7
100
AcDbLine
 10
347.3776746596164
 20
401.8388868327984
 30
0.0
 11
347.3776746596164
 21
401.8388868328008
 31
0.0
  0
LINE
  5
14E
330
4D
100
AcDbEntity
  8
1
  6
Continuous
 62
     7
100
AcDbLine
 10
319.3665676606863
 20
387.2318730639811
 30
0.0
 11
319.3665676606863
 21
391.2460155536288
 31
0.0
  0
LINE
  5
14F
330
4D
100
AcDbEntity
  8
1
  6
Continuous
 62
     7
100
AcDbLine
 10
321.8890676606863
 20
336.1619999999999
 30
0.0
 11
342.8440676606863
 21
336.1619999999999
 31
0.0
  0
LINE
  5
150
330
4D
100
AcDbEntity
  8
1
  6
Continuous
 62
     2
100
AcDbLine
 10
323.0285676606862
 20
334.9999999999999
 30
0.0
 11
323.0285676606862
 21
343.9999999999999
 31
0.0
  0
LINE
  5
151
330
4D
100
AcDbEntity
  8
1
  6
Continuous
 62
     7
100
AcDbLine
 10
323.0285676606862
 20
343.9999999999999
 30
0.0
 11
321.8890676606863
 21
343.9999999999999
 31
0.0
  0
LINE
  5
152
330
4D
100
AcDbEntity
  8
1
  6
Continuous
 62
     7
100
AcDbLine
 10
325.8869613857945
 20
343.9999999999999
 30
0.0
 11
323.0285676606862
 21
343.9999999999999
 31
0.0
  0
LINE
  5
153
330
4D
100
AcDbEntity
  8
1
  6
Continuous
 62
     2
100
AcDbLine
 10
341.7045676606864
 20
343.9999999999999
 30
0.0
 11
341.7045676606863
 21
334.9999999999999
 31
0.0
  0
LINE
  5
154
330
4D
100
AcDbEntity
  8
1
  6
Continuous
 62
     7
100
AcDbLine
 10
342.8440676606863
 20
336.1619999999999
 30
0.0
 11
341.7045676606863
 21
334.9999999999999
 31
0.0
  0
LINE
  5
155
330
4D
100
AcDbEntity
  8
1
  6
Continuous
 62
     7
100
AcDbLine
 10
321.8890676606863
 20
336.1619999999999
 30
0.0
 11
323.0285676606862
 21
334.9999999999999
 31
0.0
  0
LINE
  5
156
330
4D
100
AcDbEntity
  8
1
  6
Continuous
 62
     7
100
AcDbLine
 10
347.3776746596164
 20
394.161113167199
 30
0.0
 11
347.3776746596164
 21
394.1611131672012
 31
0.0
  0
LINE
  5
157
330
4D
100
AcDbEntity
  8
1
  6
Continuous
 62
     7
100
AcDbLine
 10
347.3776746596164
 20
394.1611131672012
 30
0.0
 11
347.3776746596164
 21
401.8388868327984
 31
0.0
  0
LINE
  5
158
330
4D
100
AcDbEntity
  8
1
  6
Continuous
 62
     2
100
AcDbLine
 10
323.0285676606862
 20
343.9999999999999
 30
0.0
 11
321.8890676606863
 21
345.9736718952246
 31
0.0
  0
LINE
  5
159
330
4D
100
AcDbEntity
  8
1
  6
Continuous
 62
     7
100
AcDbLine
 10
318.3665676606861
 20
357.5268730639808
 30
0.0
 11
318.3665676607127
 21
354.8132212977934
 31
0.0
  0
LINE
  5
15A
330
4D
100
AcDbEntity
  8
1
  6
Continuous
 62
     7
100
AcDbLine
 10
318.3665676606986
 20
357.5181269360191
 30
0.0
 11
308.7499999999996
 21
357.5181269360191
 31
0.0
  0
LINE
  5
15B
330
4D
100
AcDbEntity
  8
1
  6
Continuous
 62
     2
100
AcDbLine
 10
316.3539246223034
 20
358.6801269360192
 30
0.0
 11
308.7499999999996
 21
358.6801269360192
 31
0.0
  0
LINE
  5
15C
330
4D
100
AcDbEntity
  8
1
  6
Continuous
 62
     2
100
AcDbLine
 10
318.3665676606861
 20
357.5268730639808
 30
0.0
 11
316.3539246223034
 21
358.6801269360192
 31
0.0
  0
LINE
  5
15D
330
4D
100
AcDbEntity
  8
1
  6
Continuous
 62
     7
100
AcDbLine
 10
316.3539246223038
 20
357.5181269360191
 30
0.0
 11
316.3539246223034
 21
358.6801269360192
 31
0.0
  0
LINE
  5
15E
330
4D
100
AcDbEntity
  8
1
  6
Continuous
 62
     7
100
AcDbLine
 10
345.3665676606861
 20
384.393726394843
 30
0.0
 11
345.3665676606861
 21
391.2460155536385
 31
0.0
  0
LINE
  5
15F
330
4D
100
AcDbEntity
  8
1
  6
Continuous
 62
     7
100
AcDbLine
 10
343.6165676606985
 20
350.2676143737265
 30
0.0
 11
343.6165676606985
 21
346.4196749781806
 31
0.0
  0
LINE
  5
160
330
4D
100
AcDbEntity
  8
1
  6
Continuous
 62
     7
100
AcDbLine
 10
321.1165676606986
 20
348.7768730639809
 30
0.0
 11
321.1165676606986
 21
346.4196749781665
 31
0.0
  0
LINE
  5
161
330
4D
100
AcDbEntity
  8
1
  6
Continuous
 62
     2
100
AcDbLine
 10
342.8440676606863
 20
345.9736718952246
 30
0.0
 11
341.7045676606864
 21
343.9999999999999
 31
0.0
  0
LINE
  5
162
330
4D
100
AcDbEntity
  8
1
  6
Continuous
 62
     7
100
AcDbLine
 10
325.3581175953451
 20
345.9736718952246
 30
0.0
 11
321.8890676606863
 21
345.9736718952246
 31
0.0
  0
LINE
  5
163
330
4D
100
AcDbEntity
  8
1
  6
PHANTOM
 62
     4
100
AcDbLine
 10
160.3665676606865
 20
238.3786996130601
 30
0.0
 11
160.3665676606865
 21
219.3786996130602
 31
0.0
  0
LINE
  5
164
330
4D
100
AcDbEntity
  8
1
  6
PHANTOM
 62
     4
100
AcDbLine
 10
160.3665676606865
 20
268.3786996130601
 30
0.0
 11
160.3665676606865
 21
238.3786996130601
 31
0.0
  0
LINE
  5
165
330
4D
100
AcDbEntity
  8
1
  6
Continuous
 62
     7
100
AcDbLine
 10
343.6165676606985
 20
346.4196749781665
 30
0.0
 11
342.8440676606863
 21
345.9736718952246
 31
0.0
  0
LINE
  5
166
330
4D
100
AcDbEntity
  8
1
  6
Continuous
 62
     7
100
AcDbLine
 10
321.1165676606986
 20
346.4196749781665
 30
0.0
 11
321.8890676606863
 21
345.9736718952246
 31
0.0
  0
LINE
  5
167
330
4D
100
AcDbEntity
  8
1
  6
Continuous
 62
     7
100
AcDbLine
 10
325.2386114294489
 20
346.4196749781665
 30
0.0
 11
321.1165676606986
 21
346.4196749781665
 31
0.0
  0
LINE
  5
168
330
4D
100
AcDbEntity
  8
1
  6
Continuous
 62
     7
100
AcDbLine
 10
343.6165676606985
 20
346.4196749781806
 30
0.0
 11
343.6165676606985
 21
346.4196749781665
 31
0.0
  0
LINE
  5
169
330
4D
100
AcDbEntity
  8
1
  6
Continuous
 62
     7
100
AcDbLine
 10
318.3665676606861
 20
357.5268730639808
 30
0.0
 11
318.3665676606861
 21
363.9112089076511
 31
0.0
  0
LINE
  5
16A
330
4D
100
AcDbEntity
  8
1
  6
Continuous
 62
     7
100
AcDbLine
 10
316.3539246223034
 20
358.6801269360192
 30
0.0
 11
316.3539246223033
 21
366.3410319273183
 31
0.0
  0
LINE
  5
16B
330
4D
100
AcDbEntity
  8
1
  6
Continuous
 62
     7
100
AcDbLine
 10
342.8440676606863
 20
343.9999999999999
 30
0.0
 11
338.8461739355781
 21
343.9999999999999
 31
0.0
  0
LINE
  5
16C
330
4D
100
AcDbEntity
  8
1
  6
Continuous
 62
     7
100
AcDbLine
 10
342.8440676606863
 20
345.9736718952246
 30
0.0
 11
339.3750177260274
 21
345.9736718952246
 31
0.0
  0
LINE
  5
16D
330
4D
100
AcDbEntity
  8
1
  6
Continuous
 62
     7
100
AcDbLine
 10
343.6165676606985
 20
346.4196749781665
 30
0.0
 11
339.4945238919234
 21
346.4196749781665
 31
0.0
  0
ARC
  5
16E
330
4D
100
AcDbEntity
  8
1
  6
Continuous
 62
     7
100
AcDbCircle
 10
139.055307210231
 20
256.3786996130602
 30
0.0
 40
7.999999999999972
100
AcDbArc
 50
270.0
 51
275.1953577278964
  0
ARC
  5
16F
330
4D
100
AcDbEntity
  8
1
  6
Continuous
 62
     7
100
AcDbCircle
 10
139.055307210231
 20
256.3786996130602
 30
0.0
 40
8.000000000000332
100
AcDbArc
 50
350.4059317731403
 51
356.999999999999
  0
ARC
  5
170
330
4D
100
AcDbEntity
  8
1
  6
Continuous
 62
     7
100
AcDbCircle
 10
310.963593596485
 20
254.6286996130606
 30
0.0
 40
8.000000000001197
100
AcDbArc
 50
337.724479840218
 51
356.9999999999993
  0
ARC
  5
171
330
4D
100
AcDbEntity
  8
1
  6
Continuous
 62
     7
100
AcDbCircle
 10
318.9059770347144
 20
209.1286996130602
 30
0.0
 40
14.99999999999996
100
AcDbArc
 50
62.85195638008257
 51
90.0
  0
ARC
  5
172
330
4D
100
AcDbEntity
  8
1
  6
Continuous
 62
     7
100
AcDbCircle
 10
332.3665676606864
 20
235.3786996130602
 30
0.0
 40
14.49999999999997
100
AcDbArc
 50
296.2915552747291
 51
10.34217893694715
  0
ARC
  5
173
330
4D
100
AcDbEntity
  8
1
  6
Continuous
 62
     7
100
AcDbCircle
 10
332.3665676606863
 20
236.3786996130601
 30
0.0
 40
13.99999999999983
100
AcDbArc
 50
180.0
 51
350.3733513404069
  0
ARC
  5
174
330
4D
100
AcDbEntity
  8
1
  6
Continuous
 62
     7
100
AcDbCircle
 10
332.3665676606864
 20
235.3786996130602
 30
0.0
 40
6.497500000000044
100
AcDbArc
 50
153.1958192051806
 51
162.0726576840973
  0
ARC
  5
175
330
4D
100
AcDbEntity
  8
1
  6
Continuous
 62
     7
100
AcDbCircle
 10
332.3665676606864
 20
235.3786996130602
 30
0.0
 40
6.49750000000003
100
AcDbArc
 50
162.0726576840973
 51
17.9273423159026
  0
ARC
  5
176
330
4D
100
AcDbEntity
  8
0
  6
Continuous
 62
     7
100
AcDbCircle
 10
178.9232528658308
 20
251.6171585575754
 30
0.0
 40
4.999999999999921
100
AcDbArc
 50
182.9999999999988
 51
270.0
  0
ARC
  5
177
330
4D
100
AcDbEntity
  8
1
  6
Continuous
 62
     7
100
AcDbCircle
 10
160.3665676606865
 20
287.5077657050185
 30
0.0
 40
65.12906609195832
100
AcDbArc
 50
270.0
 51
282.073676856599
  0
ARC
  5
178
330
4D
100
AcDbEntity
  8
1
  6
Continuous
 62
     7
100
AcDbCircle
 10
177.1271101055434
 20
209.1511996130838
 30
0.0
 40
14.9999999999761
100
AcDbArc
 50
90.0
 51
102.0736768565983
  0
ARC
  5
179
330
4D
100
AcDbEntity
  8
1
  6
Continuous
 62
     7
100
AcDbCircle
 10
117.0276808278858
 20
241.8786996130602
 30
0.0
 40
18.36643427850274
100
AcDbArc
 50
339.2735604049809
 51
20.72643959501912
  0
ARC
  5
17A
330
4D
100
AcDbEntity
  8
1
  6
Continuous
 62
     7
100
AcDbCircle
 10
143.7054544934854
 20
241.8786996130602
 30
0.0
 40
18.36643427850096
100
AcDbArc
 50
159.2735604049788
 51
200.7264395950212
  0
ARC
  5
17B
330
4D
100
AcDbEntity
  8
1
  6
Continuous
 62
     7
100
AcDbCircle
 10
117.0276808278858
 20
228.8786996130602
 30
0.0
 40
18.36643427850274
100
AcDbArc
 50
339.2735604049809
 51
20.72643959501912
  0
ARC
  5
17C
330
4D
100
AcDbEntity
  8
1
  6
Continuous
 62
     7
100
AcDbCircle
 10
143.7054544934854
 20
228.8786996130602
 30
0.0
 40
18.36643427850096
100
AcDbArc
 50
159.2735604049788
 51
200.7264395950212
  0
ARC
  5
17D
330
4D
100
AcDbEntity
  8
1
  6
Continuous
 62
     7
100
AcDbCircle
 10
348.366567660684
 20
391.2460155536393
 30
0.0
 40
2.999999999997634
100
AcDbArc
 50
119.4466134213645
 51
180.0000000000163
  0
ARC
  5
17E
330
4D
100
AcDbEntity
  8
1
  6
Continuous
 62
     7
100
AcDbCircle
 10
316.3665676606736
 20
391.2460155536288
 30
0.0
 40
3.000000000012733
100
AcDbArc
 50
0.0
 51
60.55338657845668
  0
ARC
  5
17F
330
4D
100
AcDbEntity
  8
1
  6
Continuous
 62
     7
100
AcDbCircle
 10
332.3665676606864
 20
378.1611131672015
 30
0.0
 40
24.8388868327983
100
AcDbArc
 50
72.41204622600696
 51
107.5879537739934
  0
ARC
  5
180
330
4D
100
AcDbEntity
  8
1
  6
Continuous
 62
     7
100
AcDbCircle
 10
343.6248979098839
 20
396.3548608540991
 30
0.0
 40
6.645139145900655
100
AcDbArc
 50
55.61575253196144
 51
90.0
  0
ARC
  5
181
330
4D
100
AcDbEntity
  8
1
  6
Continuous
 62
     7
100
AcDbCircle
 10
321.1082374114895
 20
396.3548608540982
 30
0.0
 40
6.645139145901116
100
AcDbArc
 50
55.61575253196951
 51
90.0
  0
ARC
  5
182
330
4D
100
AcDbEntity
  8
1
  6
Continuous
 62
     7
100
AcDbCircle
 10
332.3665676606864
 20
417.8388868327983
 30
0.0
 40
24.83888683279857
100
AcDbArc
 50
252.4120462260067
 51
287.5879537739929
  0
ARC
  5
183
330
4D
100
AcDbEntity
  8
1
  6
Continuous
 62
     7
100
AcDbCircle
 10
321.1082374114895
 20
399.6451391459016
 30
0.0
 40
6.645139145901818
100
AcDbArc
 50
235.6157525319641
 51
270.0
  0
ARC
  5
184
330
4D
100
AcDbEntity
  8
1
  6
Continuous
 62
     7
100
AcDbCircle
 10
343.6248979098839
 20
399.6451391459007
 30
0.0
 40
6.64513914590094
100
AcDbArc
 50
235.6157525319613
 51
270.0
  0
ARC
  5
185
330
4D
100
AcDbEntity
  8
1
  6
Continuous
 62
     7
100
AcDbCircle
 10
343.6248979098839
 20
399.6451391459007
 30
0.0
 40
6.645139145900828
100
AcDbArc
 50
270.0
 51
304.3842474680375
  0
ARC
  5
186
330
4D
100
AcDbEntity
  8
1
  6
Continuous
 62
     7
100
AcDbCircle
 10
343.6248979098839
 20
396.3548608540991
 30
0.0
 40
6.645139145900771
100
AcDbArc
 50
90.0
 51
124.3842474680398
  0
ARC
  5
187
330
4D
100
AcDbEntity
  8
1
  6
Continuous
 62
     7
100
AcDbCircle
 10
321.1082374114895
 20
396.3548608540982
 30
0.0
 40
6.64513914590168
100
AcDbArc
 50
90.0
 51
124.384247468037
  0
ARC
  5
188
330
4D
100
AcDbEntity
  8
1
  6
Continuous
 62
     7
100
AcDbCircle
 10
321.1082374114895
 20
399.6451391459016
 30
0.0
 40
6.645139145901737
100
AcDbArc
 50
270.0
 51
304.3842474680294
  0
ARC
  5
189
330
4D
100
AcDbEntity
  8
1
  6
Continuous
 62
     7
100
AcDbCircle
 10
296.8665676606944
 20
367.9999999999998
 30
0.0
 40
49.99999999999247
100
AcDbArc
 50
339.2281449547077
 51
355.8697016798248
  0
ARC
  5
18A
330
4D
100
AcDbEntity
  8
1
  6
Continuous
 62
     7
100
AcDbCircle
 10
160.3665676606865
 20
235.3786996130602
 30
0.0
 40
14.50000000000001
100
AcDbArc
 50
296.2915552747294
 51
297.1480436199163
  0
ARC
  5
18B
330
4D
100
AcDbEntity
  8
1
  6
Continuous
 62
     7
100
AcDbCircle
 10
313.1165676606986
 20
348.7768730639809
 30
0.0
 40
8.0
100
AcDbArc
 50
0.0
 51
48.98550033413556
  0
LINE
  5
18C
330
4D
100
AcDbEntity
  8
1
  6
Continuous
 62
     7
100
AcDbLine
 10
318.3665676607127
 20
354.8132212977934
 30
0.0
 11
318.3665676606986
 21
354.8132212978057
 31
0.0
  0
ARC
  5
18D
330
4D
100
AcDbEntity
  8
1
  6
Continuous
 62
     7
100
AcDbCircle
 10
311.3665676610474
 20
387.2318730638878
 30
0.0
 40
7.999999999639172
100
AcDbArc
 50
340.1894774643525
 51
0.00000000066807
  0
ARC
  5
18E
330
4D
100
AcDbEntity
  8
1
  6
Continuous
 62
     7
100
AcDbCircle
 10
332.3665676606864
 20
235.3786996130602
 30
0.0
 40
6.497500000000095
100
AcDbArc
 50
26.8041807948192
 51
153.1958192051806
  0
ARC
  5
18F
330
4D
100
AcDbEntity
  8
1
  6
Continuous
 62
     7
100
AcDbCircle
 10
332.3665676606864
 20
235.3786996130602
 30
0.0
 40
6.497500000000084
100
AcDbArc
 50
17.9273423159026
 51
26.8041807948192
  0
CIRCLE
  5
190
330
4D
100
AcDbEntity
  8
1
  6
Continuous
 62
     7
100
AcDbCircle
 10
332.3665676606864
 20
235.3786996130602
 30
0.0
 40
11.2384589445154
  0
CIRCLE
  5
191
330
4D
100
AcDbEntity
  8
1
  6
Continuous
 62
     2
100
AcDbCircle
 10
332.3665676606864
 20
235.3786996130602
 30
0.0
 40
9.315500000000156
  0
CIRCLE
  5
192
330
4D
100
AcDbEntity
  8
1
  6
Continuous
 62
     7
100
AcDbCircle
 10
332.3665676606864
 20
235.3786996130602
 30
0.0
 40
10.47749999999991
  0
ARC
  5
193
330
4D
100
AcDbEntity
  8
1
  6
Continuous
 62
     7
100
AcDbCircle
 10
139.5986185527839
 20
250.4033491810723
 30
0.0
 40
2.000000000000032
100
AcDbArc
 50
275.1953577278992
 51
354.9999999999978
  0
ARC
  5
194
330
4D
100
AcDbEntity
  8
1
  6
Continuous
 62
     7
100
AcDbCircle
 10
143.6992300087216
 20
251.3786996130602
 30
0.0
 40
2.0
100
AcDbArc
 50
90.0
 51
175.0000000000016
  0
ARC
  5
195
330
4D
100
AcDbEntity
  8
1
  6
Continuous
 62
     7
100
AcDbCircle
 10
144.9713869933305
 20
255.3786996130602
 30
0.0
 40
2.0
100
AcDbArc
 50
270.0
 51
350.4059317731423
  0
ENDBLK
  5
4F
330
4D
100
AcDbEntity
  8
0
100
AcDbBlockEnd
  0
BLOCK
  5
51
330
50
100
AcDbEntity
  8
0
100
AcDbBlockBegin
  2
42-15
 70
     0
 10
-11.68817991347808
 20
565.9764017366709
 30
0.0
  3
42-15
  1

  0
LINE
  5
196
330
50
100
AcDbEntity
  8
1
  6
Continuous
 62
     2
100
AcDbLine
 10
333.7499999999996
 20
289.8162934414294
 30
0.0
 11
333.7499999999996
 21
291.165019771282
 31
0.0
  0
LINE
  5
197
330
50
100
AcDbEntity
  8
1
  6
Continuous
 62
     2
100
AcDbLine
 10
334.7499999999996
 20
289.4922488037375
 30
0.0
 11
334.7499999999996
 21
291.4102427403461
 31
0.0
  0
LINE
  5
198
330
50
100
AcDbEntity
  8
1
  6
Continuous
 62
     2
100
AcDbLine
 10
335.7499999999996
 20
289.1331723133222
 30
0.0
 11
335.7499999999996
 21
291.602917930325
 31
0.0
  0
LINE
  5
199
330
50
100
AcDbEntity
  8
1
  6
Continuous
 62
     2
100
AcDbLine
 10
336.7499999999996
 20
288.9842869392476
 30
0.0
 11
336.7499999999996
 21
291.7342873780381
 31
0.0
  0
LINE
  5
19A
330
50
100
AcDbEntity
  8
1
  6
Continuous
 62
     7
100
AcDbLine
 10
334.8999999999995
 20
288.8786996130602
 30
0.0
 11
337.7499999999996
 21
288.8786996130602
 31
0.0
  0
LINE
  5
19B
330
50
100
AcDbEntity
  8
1
  6
Continuous
 62
     2
100
AcDbLine
 10
337.7499999999996
 20
288.8786996130602
 30
0.0
 11
337.7499999999996
 21
291.8786996130602
 31
0.0
  0
LINE
  5
19C
330
50
100
AcDbEntity
  8
1
  6
Continuous
 62
     2
100
AcDbLine
 10
338.7499999999996
 20
288.8786996130602
 30
0.0
 11
338.7499999999996
 21
291.8786996130602
 31
0.0
  0
LINE
  5
19D
330
50
100
AcDbEntity
  8
1
  6
Continuous
 62
     7
100
AcDbLine
 10
339.2499999999996
 20
291.8786996130602
 30
0.0
 11
339.2499999999996
 21
288.8786996130602
 31
0.0
  0
LINE
  5
19E
330
50
100
AcDbEntity
  8
1
  6
Continuous
 62
     7
100
AcDbLine
 10
338.7499999999996
 20
288.8786996130602
 30
0.0
 11
339.2499999999996
 21
288.8786996130602
 31
0.0
  0
LINE
  5
19F
330
50
100
AcDbEntity
  8
1
  6
Continuous
 62
     7
100
AcDbLine
 10
338.2499999999996
 20
292.1480218120835
 30
0.0
 11
339.2499999999996
 21
291.8786996130602
 31
0.0
  0
LINE
  5
1A0
330
50
100
AcDbEntity
  8
1
  6
Continuous
 62
     7
100
AcDbLine
 10
338.7499999999996
 20
291.8786996130602
 30
0.0
 11
339.2499999999996
 21
291.8786996130602
 31
0.0
  0
LINE
  5
1A1
330
50
100
AcDbEntity
  8
1
  6
Continuous
 62
     7
100
AcDbLine
 10
338.7499999999996
 20
291.8786996130602
 30
0.0
 11
337.7499999999996
 21
291.8786996130602
 31
0.0
  0
LINE
  5
1A2
330
50
100
AcDbEntity
  8
1
  6
Continuous
 62
     7
100
AcDbLine
 10
338.7499999999996
 20
288.8786996130602
 30
0.0
 11
337.7499999999996
 21
288.8786996130602
 31
0.0
  0
LINE
  5
1A3
330
50
100
AcDbEntity
  8
1
  6
Continuous
 62
     7
100
AcDbLine
 10
332.2499999999996
 20
292.2084653332639
 30
0.0
 11
337.9999999999996
 21
292.2084653332639
 31
0.0
  0
LINE
  5
1A4
330
50
100
AcDbEntity
  8
1
  6
Continuous
 62
     7
100
AcDbLine
 10
326.4999999999996
 20
292.2084653332639
 30
0.0
 11
332.2499999999996
 21
292.2084653332639
 31
0.0
  0
LINE
  5
1A5
330
50
100
AcDbEntity
  8
1
  6
Continuous
 62
     7
100
AcDbLine
 10
325.2499999999995
 20
291.8786996130602
 30
0.0
 11
325.7499999999995
 21
291.8786996130602
 31
0.0
  0
LINE
  5
1A6
330
50
100
AcDbEntity
  8
1
  6
Continuous
 62
     7
100
AcDbLine
 10
325.2499999999995
 20
291.8786996130602
 30
0.0
 11
326.2499999999994
 21
292.1480218120835
 31
0.0
  0
LINE
  5
1A7
330
50
100
AcDbEntity
  8
1
  6
Continuous
 62
     7
100
AcDbLine
 10
325.2499999999995
 20
288.8786996130602
 30
0.0
 11
325.7499999999995
 21
288.8786996130602
 31
0.0
  0
LINE
  5
1A8
330
50
100
AcDbEntity
  8
1
  6
Continuous
 62
     7
100
AcDbLine
 10
325.2499999999995
 20
288.8786996130602
 30
0.0
 11
325.2499999999995
 21
291.8786996130602
 31
0.0
  0
LINE
  5
1A9
330
50
100
AcDbEntity
  8
1
  6
Continuous
 62
     2
100
AcDbLine
 10
325.7499999999995
 20
291.8786996130602
 30
0.0
 11
325.7499999999995
 21
288.8786996130602
 31
0.0
  0
LINE
  5
1AA
330
50
100
AcDbEntity
  8
1
  6
Continuous
 62
     7
100
AcDbLine
 10
326.7499999999996
 20
291.8786996130602
 30
0.0
 11
325.7499999999995
 21
291.8786996130602
 31
0.0
  0
LINE
  5
1AB
330
50
100
AcDbEntity
  8
1
  6
Continuous
 62
     7
100
AcDbLine
 10
326.7499999999996
 20
288.8786996130602
 30
0.0
 11
325.7499999999995
 21
288.8786996130602
 31
0.0
  0
LINE
  5
1AC
330
50
100
AcDbEntity
  8
1
  6
Continuous
 62
     2
100
AcDbLine
 10
326.7499999999996
 20
291.8786996130602
 30
0.0
 11
326.7499999999996
 21
288.8786996130602
 31
0.0
  0
LINE
  5
1AD
330
50
100
AcDbEntity
  8
1
  6
Continuous
 62
     7
100
AcDbLine
 10
337.7499999999996
 20
291.8786996130602
 30
0.0
 11
326.7499999999996
 21
291.8786996130602
 31
0.0
  0
LINE
  5
1AE
330
50
100
AcDbEntity
  8
1
  6
Continuous
 62
     7
100
AcDbLine
 10
326.7499999999996
 20
288.8786996130602
 30
0.0
 11
334.8999999999995
 21
288.8786996130602
 31
0.0
  0
LINE
  5
1AF
330
50
100
AcDbEntity
  8
1
  6
Continuous
 62
     2
100
AcDbLine
 10
327.7499999999996
 20
291.7342873780381
 30
0.0
 11
327.7499999999996
 21
288.9842869392476
 31
0.0
  0
LINE
  5
1B0
330
50
100
AcDbEntity
  8
1
  6
Continuous
 62
     2
100
AcDbLine
 10
328.7499999999996
 20
291.602917930325
 30
0.0
 11
328.7499999999996
 21
289.1331723133222
 31
0.0
  0
LINE
  5
1B1
330
50
100
AcDbEntity
  8
1
  6
Continuous
 62
     2
100
AcDbLine
 10
329.7499999999996
 20
291.4102427403461
 30
0.0
 11
329.7499999999996
 21
289.4922488037375
 31
0.0
  0
LINE
  5
1B2
330
50
100
AcDbEntity
  8
1
  6
Continuous
 62
     2
100
AcDbLine
 10
330.7499999999996
 20
291.165019771282
 30
0.0
 11
330.7499999999996
 21
289.8162934414294
 31
0.0
  0
LINE
  5
1B3
330
50
100
AcDbEntity
  8
1
  6
Continuous
 62
     2
100
AcDbLine
 10
161.7499999999998
 20
289.8162934414294
 30
0.0
 11
161.7499999999998
 21
291.165019771282
 31
0.0
  0
LINE
  5
1B4
330
50
100
AcDbEntity
  8
1
  6
Continuous
 62
     2
100
AcDbLine
 10
162.7499999999998
 20
289.4922488037375
 30
0.0
 11
162.7499999999998
 21
291.4102427403461
 31
0.0
  0
LINE
  5
1B5
330
50
100
AcDbEntity
  8
1
  6
Continuous
 62
     2
100
AcDbLine
 10
163.7499999999998
 20
289.1331723133222
 30
0.0
 11
163.7499999999998
 21
291.602917930325
 31
0.0
  0
LINE
  5
1B6
330
50
100
AcDbEntity
  8
1
  6
Continuous
 62
     2
100
AcDbLine
 10
164.7499999999998
 20
288.9842869392476
 30
0.0
 11
164.7499999999998
 21
291.7342873780381
 31
0.0
  0
LINE
  5
1B7
330
50
100
AcDbEntity
  8
1
  6
Continuous
 62
     7
100
AcDbLine
 10
162.8999999999997
 20
288.8786996130602
 30
0.0
 11
165.7499999999998
 21
288.8786996130602
 31
0.0
  0
LINE
  5
1B8
330
50
100
AcDbEntity
  8
1
  6
Continuous
 62
     2
100
AcDbLine
 10
165.7499999999998
 20
288.8786996130602
 30
0.0
 11
165.7499999999998
 21
291.8786996130602
 31
0.0
  0
LINE
  5
1B9
330
50
100
AcDbEntity
  8
1
  6
Continuous
 62
     2
100
AcDbLine
 10
166.7499999999998
 20
288.8786996130602
 30
0.0
 11
166.7499999999998
 21
291.8786996130602
 31
0.0
  0
LINE
  5
1BA
330
50
100
AcDbEntity
  8
1
  6
Continuous
 62
     7
100
AcDbLine
 10
167.2499999999998
 20
291.8786996130602
 30
0.0
 11
167.2499999999998
 21
288.8786996130602
 31
0.0
  0
LINE
  5
1BB
330
50
100
AcDbEntity
  8
1
  6
Continuous
 62
     7
100
AcDbLine
 10
166.7499999999998
 20
288.8786996130602
 30
0.0
 11
167.2499999999998
 21
288.8786996130602
 31
0.0
  0
LINE
  5
1BC
330
50
100
AcDbEntity
  8
1
  6
Continuous
 62
     7
100
AcDbLine
 10
166.25
 20
292.1480218120835
 30
0.0
 11
167.2499999999998
 21
291.8786996130602
 31
0.0
  0
LINE
  5
1BD
330
50
100
AcDbEntity
  8
1
  6
Continuous
 62
     7
100
AcDbLine
 10
166.7499999999998
 20
291.8786996130602
 30
0.0
 11
167.2499999999998
 21
291.8786996130602
 31
0.0
  0
LINE
  5
1BE
330
50
100
AcDbEntity
  8
1
  6
Continuous
 62
     7
100
AcDbLine
 10
166.7499999999998
 20
291.8786996130602
 30
0.0
 11
165.7499999999998
 21
291.8786996130602
 31
0.0
  0
LINE
  5
1BF
330
50
100
AcDbEntity
  8
1
  6
Continuous
 62
     7
100
AcDbLine
 10
166.7499999999998
 20
288.8786996130602
 30
0.0
 11
165.7499999999998
 21
288.8786996130602
 31
0.0
  0
LINE
  5
1C0
330
50
100
AcDbEntity
  8
1
  6
Continuous
 62
     7
100
AcDbLine
 10
160.2499999999998
 20
292.2084653332639
 30
0.0
 11
165.9999999999998
 21
292.2084653332639
 31
0.0
  0
LINE
  5
1C1
330
50
100
AcDbEntity
  8
1
  6
Continuous
 62
     7
100
AcDbLine
 10
154.4999999999998
 20
292.2084653332639
 30
0.0
 11
160.2499999999998
 21
292.2084653332639
 31
0.0
  0
LINE
  5
1C2
330
50
100
AcDbEntity
  8
1
  6
Continuous
 62
     7
100
AcDbLine
 10
153.2499999999998
 20
291.8786996130602
 30
0.0
 11
153.7499999999998
 21
291.8786996130602
 31
0.0
  0
LINE
  5
1C3
330
50
100
AcDbEntity
  8
1
  6
Continuous
 62
     7
100
AcDbLine
 10
153.2499999999998
 20
291.8786996130602
 30
0.0
 11
154.2499999999998
 21
292.1480218120835
 31
0.0
  0
LINE
  5
1C4
330
50
100
AcDbEntity
  8
1
  6
Continuous
 62
     7
100
AcDbLine
 10
153.2499999999998
 20
288.8786996130602
 30
0.0
 11
153.7499999999998
 21
288.8786996130602
 31
0.0
  0
LINE
  5
1C5
330
50
100
AcDbEntity
  8
1
  6
Continuous
 62
     7
100
AcDbLine
 10
153.2499999999998
 20
288.8786996130602
 30
0.0
 11
153.2499999999998
 21
291.8786996130602
 31
0.0
  0
LINE
  5
1C6
330
50
100
AcDbEntity
  8
1
  6
Continuous
 62
     2
100
AcDbLine
 10
153.7499999999998
 20
291.8786996130602
 30
0.0
 11
153.7499999999998
 21
288.8786996130602
 31
0.0
  0
LINE
  5
1C7
330
50
100
AcDbEntity
  8
1
  6
Continuous
 62
     7
100
AcDbLine
 10
154.7499999999998
 20
291.8786996130602
 30
0.0
 11
153.7499999999998
 21
291.8786996130602
 31
0.0
  0
LINE
  5
1C8
330
50
100
AcDbEntity
  8
1
  6
Continuous
 62
     7
100
AcDbLine
 10
154.7499999999998
 20
288.8786996130602
 30
0.0
 11
153.7499999999998
 21
288.8786996130602
 31
0.0
  0
LINE
  5
1C9
330
50
100
AcDbEntity
  8
1
  6
Continuous
 62
     2
100
AcDbLine
 10
154.7499999999998
 20
291.8786996130602
 30
0.0
 11
154.7499999999998
 21
288.8786996130602
 31
0.0
  0
LINE
  5
1CA
330
50
100
AcDbEntity
  8
1
  6
Continuous
 62
     7
100
AcDbLine
 10
165.7499999999998
 20
291.8786996130602
 30
0.0
 11
154.7499999999998
 21
291.8786996130602
 31
0.0
  0
LINE
  5
1CB
330
50
100
AcDbEntity
  8
1
  6
Continuous
 62
     7
100
AcDbLine
 10
154.7499999999998
 20
288.8786996130602
 30
0.0
 11
162.8999999999997
 21
288.8786996130602
 31
0.0
  0
LINE
  5
1CC
330
50
100
AcDbEntity
  8
1
  6
Continuous
 62
     2
100
AcDbLine
 10
155.7499999999998
 20
291.7342873780381
 30
0.0
 11
155.7499999999998
 21
288.9842869392476
 31
0.0
  0
LINE
  5
1CD
330
50
100
AcDbEntity
  8
1
  6
Continuous
 62
     2
100
AcDbLine
 10
156.7499999999998
 20
291.602917930325
 30
0.0
 11
156.7499999999998
 21
289.1331723133222
 31
0.0
  0
LINE
  5
1CE
330
50
100
AcDbEntity
  8
1
  6
Continuous
 62
     2
100
AcDbLine
 10
157.7499999999998
 20
291.4102427403461
 30
0.0
 11
157.7499999999998
 21
289.4922488037375
 31
0.0
  0
LINE
  5
1CF
330
50
100
AcDbEntity
  8
1
  6
Continuous
 62
     2
100
AcDbLine
 10
158.7499999999998
 20
291.165019771282
 30
0.0
 11
158.7499999999998
 21
289.8162934414294
 31
0.0
  0
ARC
  5
1D0
330
50
100
AcDbEntity
  8
1
  6
Continuous
 62
     7
100
AcDbCircle
 10
332.2499999999996
 20
267.8786996130602
 30
0.0
 40
25.0
100
AcDbArc
 50
90.0
 51
103.2970717472091
  0
ARC
  5
1D1
330
50
100
AcDbEntity
  8
1
  6
Continuous
 62
     7
100
AcDbCircle
 10
332.2499999999996
 20
267.8786996130602
 30
0.0
 40
25.00000000000015
100
AcDbArc
 50
76.1134596373711
 51
76.70292825279095
  0
ARC
  5
1D2
330
50
100
AcDbEntity
  8
1
  6
Continuous
 62
     7
100
AcDbCircle
 10
332.2499999999996
 20
267.8786996130602
 30
0.0
 40
25.00000000000002
100
AcDbArc
 50
76.70292825279095
 51
90.0
  0
ARC
  5
1D3
330
50
100
AcDbEntity
  8
1
  6
Continuous
 62
     7
100
AcDbCircle
 10
332.2499999999996
 20
267.8786996130602
 30
0.0
 40
25.00000000000002
100
AcDbArc
 50
103.2970717472091
 51
103.8865403626294
  0
ARC
  5
1D4
330
50
100
AcDbEntity
  8
1
  6
Continuous
 62
     7
100
AcDbCircle
 10
160.2499999999998
 20
267.8786996130602
 30
0.0
 40
25.0
100
AcDbArc
 50
90.0
 51
103.2970717472091
  0
ARC
  5
1D5
330
50
100
AcDbEntity
  8
1
  6
Continuous
 62
     7
100
AcDbCircle
 10
160.2499999999998
 20
267.8786996130602
 30
0.0
 40
25.0000000000002
100
AcDbArc
 50
76.11345963737065
 51
76.70292825279095
  0
ARC
  5
1D6
330
50
100
AcDbEntity
  8
1
  6
Continuous
 62
     7
100
AcDbCircle
 10
160.2499999999998
 20
267.8786996130602
 30
0.0
 40
25.00000000000002
100
AcDbArc
 50
76.70292825279095
 51
90.0
  0
ARC
  5
1D7
330
50
100
AcDbEntity
  8
1
  6
Continuous
 62
     7
100
AcDbCircle
 10
160.2499999999998
 20
267.8786996130602
 30
0.0
 40
25.00000000000002
100
AcDbArc
 50
103.2970717472091
 51
103.8865403626289
  0
CIRCLE
  5
1D8
330
50
100
AcDbEntity
  8
0
  6
Continuous
 62
     7
100
AcDbCircle
 10
332.2499999999997
 20
368.0000000000001
 30
0.0
 40
6.999999999999886
  0
ENDBLK
  5
52
330
50
100
AcDbEntity
  8
0
100
AcDbBlockEnd
  0
BLOCK
  5
54
330
53
100
AcDbEntity
  8
0
100
AcDbBlockBegin
  2
21-1C
 70
     0
 10
96.1971914527621
 20
474.5953528673274
 30
0.0
  3
21-1C
  1

  0
LINE
  5
1D9
330
53
100
AcDbEntity
  8
1
  6
Continuous
 62
     7
100
AcDbLine
 10
339.2286447142117
 20
277.8786996130602
 30
0.0
 11
332.2499999999996
 21
277.8786996130602
 31
0.0
  0
LINE
  5
1DA
330
53
100
AcDbEntity
  8
1
  6
Continuous
 62
     7
100
AcDbLine
 10
332.2499999999996
 20
277.8786996130602
 30
0.0
 11
325.271355285787
 21
277.8786996130602
 31
0.0
  0
LINE
  5
1DB
330
53
100
AcDbEntity
  8
1
  6
Continuous
 62
     7
100
AcDbLine
 10
325.271355285787
 20
277.8786996130602
 30
0.0
 11
305.1044680381355
 21
277.8786996130602
 31
0.0
  0
LINE
  5
1DC
330
53
100
AcDbEntity
  8
1
  6
Continuous
 62
     7
100
AcDbLine
 10
304.6044680381355
 20
281.6637793684109
 30
0.0
 11
304.6044680381355
 21
278.3786996130602
 31
0.0
  0
LINE
  5
1DD
330
53
100
AcDbEntity
  8
1
  6
Continuous
 62
     7
100
AcDbLine
 10
359.3955319618636
 20
277.8786996130602
 30
0.0
 11
339.2286447142117
 21
277.8786996130602
 31
0.0
  0
LINE
  5
1DE
330
53
100
AcDbEntity
  8
1
  6
Continuous
 62
     7
100
AcDbLine
 10
359.8955319618636
 20
278.3786996130602
 30
0.0
 11
359.8955319618636
 21
281.6637793684109
 31
0.0
  0
LINE
  5
1DF
330
53
100
AcDbEntity
  8
1
  6
Continuous
 62
     7
100
AcDbLine
 10
146.4577085965091
 20
277.7028035750578
 30
0.0
 11
164.9999999999998
 21
277.7028035750578
 31
0.0
  0
LINE
  5
1E0
330
53
100
AcDbEntity
  8
1
  6
Continuous
 62
     7
100
AcDbLine
 10
141.8300966516409
 20
278.2724255077704
 30
0.0
 11
142.4473141456485
 21
282.6618801808014
 31
0.0
  0
LINE
  5
1E1
330
53
100
AcDbEntity
  8
1
  6
Continuous
 62
     7
100
AcDbLine
 10
142.325225712074
 20
277.7028035750578
 30
0.0
 11
146.4577085965091
 21
277.7028035750578
 31
0.0
  0
LINE
  5
1E2
330
53
100
AcDbEntity
  8
1
  6
Continuous
 62
     7
100
AcDbLine
 10
191.16994983076
 20
278.2723901255379
 30
0.0
 11
190.7180417317676
 21
281.4878833304085
 31
0.0
  0
LINE
  5
1E3
330
53
100
AcDbEntity
  8
1
  6
Continuous
 62
     7
100
AcDbLine
 10
164.9999999999998
 20
277.7028035750578
 30
0.0
 11
190.6748157963892
 21
277.7028035750578
 31
0.0
  0
LINE
  5
1E4
330
53
100
AcDbEntity
  8
1
  6
Continuous
 62
     7
100
AcDbLine
 10
148.0230652276011
 20
277.7028035750578
 30
0.0
 11
146.4577085965091
 21
277.7028035750578
 31
0.0
  0
LINE
  5
1E5
330
53
100
AcDbEntity
  8
1
  6
PHANTOM
 62
     4
100
AcDbLine
 10
332.3665676606882
 20
333.9999999999999
 30
0.0
 11
332.3665676606882
 21
384.968672305541
 31
0.0
  0
LINE
  5
1E6
330
53
100
AcDbEntity
  8
1
  6
Continuous
 62
     7
100
AcDbLine
 10
306.473291878958
 20
376.2573593128807
 30
0.0
 11
315.5017839090127
 21
367.228867282826
 31
0.0
  0
LINE
  5
1E7
330
53
100
AcDbEntity
  8
1
  6
Continuous
 62
     7
100
AcDbLine
 10
312.2688468366924
 20
386.2955549577343
 30
0.0
 11
324.6019963076126
 21
382.990897516869
 31
0.0
  0
LINE
  5
1E8
330
53
100
AcDbEntity
  8
1
  6
Continuous
 62
     7
100
AcDbLine
 10
353.2247933873045
 20
386.4993316322314
 30
0.0
 11
340.1311390137638
 21
382.990897516869
 31
0.0
  0
LINE
  5
1E9
330
53
100
AcDbEntity
  8
1
  6
Continuous
 62
     7
100
AcDbLine
 10
358.2598434424185
 20
376.2573593128807
 30
0.0
 11
349.2313514123635
 21
367.228867282826
 31
0.0
  0
LINE
  5
1EA
330
53
100
AcDbEntity
  8
1
  6
Continuous
 62
     7
100
AcDbLine
 10
338.1621226184227
 20
341.4470857293848
 30
0.0
 11
341.466780059288
 21
353.7802352003051
 31
0.0
  0
LINE
  5
1EB
330
53
100
AcDbEntity
  8
1
  6
Continuous
 62
     7
100
AcDbLine
 10
326.5710127029539
 20
341.4470857293848
 30
0.0
 11
323.2663552620884
 21
353.7802352003051
 31
0.0
  0
LINE
  5
1EC
330
53
100
AcDbEntity
  8
1
  6
PHANTOM
 62
     4
100
AcDbLine
 10
300.3247853675972
 20
386.4993316322314
 30
0.0
 11
351.5125987900944
 21
356.9460337735245
 31
0.0
  0
LINE
  5
1ED
330
53
100
AcDbEntity
  8
1
  6
PHANTOM
 62
     4
100
AcDbLine
 10
364.4083499537793
 20
386.4993316322314
 30
0.0
 11
313.8552110487686
 21
357.312463277043
 31
0.0
  0
ARC
  5
1EE
330
53
100
AcDbEntity
  8
1
  6
Continuous
 62
     7
100
AcDbCircle
 10
335.0725097699033
 20
138.8786996130603
 30
0.0
 40
150.0533238552217
100
AcDbArc
 50
92.51333555055018
 51
99.80290179376777
  0
ARC
  5
1EF
330
53
100
AcDbEntity
  8
1
  6
Continuous
 62
     7
100
AcDbCircle
 10
329.4274902300956
 20
138.8786996130603
 30
0.0
 40
150.0533238552217
100
AcDbArc
 50
80.19709820623223
 51
87.48666444944983
  0
ARC
  5
1F0
330
53
100
AcDbEntity
  8
1
  6
Continuous
 62
     7
100
AcDbCircle
 10
160.2499999999998
 20
138.7028035750577
 30
0.0
 40
150.0533238552217
100
AcDbArc
 50
80.19709820623227
 51
88.47247455778707
  0
ARC
  5
1F1
330
53
100
AcDbEntity
  8
1
  6
Continuous
 62
     7
100
AcDbCircle
 10
159.885804334753
 20
213.7909825663585
 30
0.0
 40
75.0000000000001
100
AcDbArc
 50
92.77863896596256
 51
99.59149248266503
  0
ARC
  5
1F2
330
53
100
AcDbEntity
  8
1
  6
Continuous
 62
     7
100
AcDbCircle
 10
332.3665676606882
 20
342.9999999999999
 30
0.0
 40
5.999999999999864
100
AcDbArc
 50
194.9999999999999
 51
270.0
  0
ARC
  5
1F3
330
53
100
AcDbEntity
  8
1
  6
Continuous
 62
     7
100
AcDbCircle
 10
310.7159325660773
 20
380.4999999999998
 30
0.0
 40
6.000000000000084
100
AcDbArc
 50
75.0000000000007
 51
224.9999999999984
  0
ARC
  5
1F4
330
53
100
AcDbEntity
  8
1
  6
Continuous
 62
     7
100
AcDbCircle
 10
354.0172027552993
 20
380.4999999999998
 30
0.0
 40
5.999999999999807
100
AcDbArc
 50
315.0000000000007
 51
97.5242410789422
  0
ARC
  5
1F5
330
53
100
AcDbEntity
  8
1
  6
Continuous
 62
     7
100
AcDbCircle
 10
332.3665676606882
 20
342.9999999999999
 30
0.0
 40
6.0
100
AcDbArc
 50
270.0
 51
345.0000000000007
  0
ARC
  5
1F6
330
53
100
AcDbEntity
  8
1
  6
Continuous
 62
     7
100
AcDbCircle
 10
305.1044680381355
 20
278.3786996130602
 30
0.0
 40
0.5
100
AcDbArc
 50
180.0
 51
270.0
  0
ARC
  5
1F7
330
53
100
AcDbEntity
  8
1
  6
Continuous
 62
     7
100
AcDbCircle
 10
310.5460764505848
 20
280.8287407626507
 30
0.0
 40
5.999999999999948
100
AcDbArc
 50
99.80290179376709
 51
172.0000000000012
  0
ARC
  5
1F8
330
53
100
AcDbEntity
  8
1
  6
Continuous
 62
     7
100
AcDbCircle
 10
359.3955319618636
 20
278.3786996130602
 30
0.0
 40
0.5
100
AcDbArc
 50
270.0
 51
0.0
  0
ARC
  5
1F9
330
53
100
AcDbEntity
  8
1
  6
Continuous
 62
     7
100
AcDbCircle
 10
353.9539235494141
 20
280.8287407626507
 30
0.0
 40
6.000000000000012
100
AcDbArc
 50
7.99999999999857
 51
80.19709820623238
  0
ARC
  5
1FA
330
53
100
AcDbEntity
  8
1
  6
Continuous
 62
     7
100
AcDbCircle
 10
142.325225712074
 20
278.2028035750578
 30
0.0
 40
0.4999999999999959
100
AcDbArc
 50
171.9959056283066
 51
270.0
  0
ARC
  5
1FB
330
53
100
AcDbEntity
  8
1
  6
Continuous
 62
     7
100
AcDbCircle
 10
148.3888628708457
 20
281.82641698825
 30
0.0
 40
6.00000000000001
100
AcDbArc
 50
99.5914924826646
 51
171.9959056282991
  0
ARC
  5
1FC
330
53
100
AcDbEntity
  8
1
  6
Continuous
 62
     7
100
AcDbCircle
 10
184.7764333193182
 20
280.6528447246479
 30
0.0
 40
6.000000000000039
100
AcDbArc
 50
8.00000000000237
 51
80.19709820623231
  0
ARC
  5
1FD
330
53
100
AcDbEntity
  8
1
  6
Continuous
 62
     7
100
AcDbCircle
 10
190.6748157963892
 20
278.2028035750578
 30
0.0
 40
0.5
100
AcDbArc
 50
270.0
 51
8.00000000000687
  0
ARC
  5
1FE
330
53
100
AcDbEntity
  8
0
  6
Continuous
 62
     7
100
AcDbCircle
 10
370.44455484796
 20
346.0156638472294
 30
0.0
 40
30.00000000000016
100
AcDbArc
 50
134.9999999999998
 51
164.9999999999998
  0
ARC
  5
1FF
330
53
100
AcDbEntity
  8
0
  6
Continuous
 62
     7
100
AcDbCircle
 10
332.3665676606882
 20
411.968672305541
 30
0.0
 40
29.99999999999999
100
AcDbArc
 50
255.0
 51
285.0
  0
ARC
  5
200
330
53
100
AcDbEntity
  8
0
  6
Continuous
 62
     7
100
AcDbCircle
 10
294.2885804734163
 20
346.0156638472295
 30
0.0
 40
30.00000000000004
100
AcDbArc
 50
14.99999999999995
 51
45.00000000000008
  0
ENDBLK
  5
55
330
53
100
AcDbEntity
  8
0
100
AcDbBlockEnd
  0
BLOCK
  5
57
330
56
100
AcDbEntity
  8
0
100
AcDbBlockBegin
  2
37-1-13
 70
     0
 10
189.2698425388217
 20
258.2886666674796
 30
0.0
  3
37-1-13
  1

  0
LINE
  5
201
330
56
100
AcDbEntity
  8
1
  6
Continuous
 62
     7
100
AcDbLine
 10
345.2499999999997
 20
260.8786996130602
 30
0.0
 11
345.2499999999997
 21
267.9494138273316
 31
0.0
  0
LINE
  5
202
330
56
100
AcDbEntity
  8
1
  6
Continuous
 62
     7
100
AcDbLine
 10
338.2499999999997
 20
274.8786996130602
 30
0.0
 11
326.2499999999997
 21
274.8786996130602
 31
0.0
  0
LINE
  5
203
330
56
100
AcDbEntity
  8
1
  6
Continuous
 62
     7
100
AcDbLine
 10
345.2499999999997
 20
260.8786996130602
 30
0.0
 11
332.2499999999997
 21
260.8786996130602
 31
0.0
  0
LINE
  5
204
330
56
100
AcDbEntity
  8
1
  6
Continuous
 62
     7
100
AcDbLine
 10
332.2499999999997
 20
260.8786996130602
 30
0.0
 11
319.2499999999997
 21
260.8786996130602
 31
0.0
  0
LINE
  5
205
330
56
100
AcDbEntity
  8
1
  6
Continuous
 62
     7
100
AcDbLine
 10
319.2499999999997
 20
260.8786996130602
 30
0.0
 11
319.2499999999997
 21
267.9494138273316
 31
0.0
  0
LINE
  5
206
330
56
100
AcDbEntity
  8
1
  6
Continuous
 62
     7
100
AcDbLine
 10
173.3207142142713
 20
260.8786996130602
 30
0.0
 11
159.6278742696688
 21
260.8786996130602
 31
0.0
  0
LINE
  5
207
330
56
100
AcDbEntity
  8
1
  6
Continuous
 62
     7
100
AcDbLine
 10
160.8721257303307
 20
260.8786996130602
 30
0.0
 11
147.1792857857284
 21
260.8786996130602
 31
0.0
  0
LINE
  5
208
330
56
100
AcDbEntity
  8
1
  6
Continuous
 62
     7
100
AcDbLine
 10
160.2499999999998
 20
274.8786996130602
 30
0.0
 11
154.2499999999998
 21
274.8786996130602
 31
0.0
  0
LINE
  5
209
330
56
100
AcDbEntity
  8
1
  6
Continuous
 62
     7
100
AcDbLine
 10
166.2499999999998
 20
274.8786996130602
 30
0.0
 11
160.2499999999998
 21
274.8786996130602
 31
0.0
  0
ARC
  5
20A
330
56
100
AcDbEntity
  8
1
  6
Continuous
 62
     7
100
AcDbCircle
 10
341.7499999999997
 20
264.3786996130602
 30
0.0
 40
5.000000000000016
100
AcDbArc
 50
45.57299599919448
 51
53.13010235415702
  0
ARC
  5
20B
330
56
100
AcDbEntity
  8
1
  6
Continuous
 62
     7
100
AcDbCircle
 10
358.1564552051146
 20
288.2851548181752
 30
0.0
 40
24.00000000000002
100
AcDbArc
 50
213.9591925000978
 51
236.0408074999025
  0
ARC
  5
20C
330
56
100
AcDbEntity
  8
1
  6
Continuous
 62
     7
100
AcDbCircle
 10
322.7499999999997
 20
264.3786996130602
 30
0.0
 40
4.999999999999966
100
AcDbArc
 50
126.8698976458435
 51
134.4270040008055
  0
ARC
  5
20D
330
56
100
AcDbEntity
  8
1
  6
Continuous
 62
     7
100
AcDbCircle
 10
306.3435447948848
 20
288.2851548181752
 30
0.0
 40
24.00000000000013
100
AcDbArc
 50
303.9591925000975
 51
326.0408074999023
  0
ARC
  5
20E
330
56
100
AcDbEntity
  8
1
  6
Continuous
 62
     7
100
AcDbCircle
 10
169.7499999999998
 20
264.3786996130602
 30
0.0
 40
5.000000000000057
100
AcDbArc
 50
315.572995999195
 51
53.13010235415597
  0
ARC
  5
20F
330
56
100
AcDbEntity
  8
1
  6
Continuous
 62
     7
100
AcDbCircle
 10
150.7499999999998
 20
264.3786996130602
 30
0.0
 40
4.999999999999948
100
AcDbArc
 50
126.8698976458433
 51
224.427004000806
  0
ARC
  5
210
330
56
100
AcDbEntity
  8
1
  6
Continuous
 62
     7
100
AcDbCircle
 10
134.3435447948848
 20
288.2851548181748
 30
0.0
 40
23.99999999999986
100
AcDbArc
 50
303.9591925000982
 51
326.0408074999032
  0
ARC
  5
211
330
56
100
AcDbEntity
  8
1
  6
Continuous
 62
     7
100
AcDbCircle
 10
186.1564552051148
 20
288.2851548181748
 30
0.0
 40
23.99999999999991
100
AcDbArc
 50
213.9591925000968
 51
236.040807499902
  0
SPLINE
  5
212
330
56
100
AcDbEntity
  8
1
  6
Continuous
 62
     7
100
AcDbSpline
210
0.0
220
0.0
230
1.0
 70
    11
 71
     3
 72
    79
 73
    75
 74
    73
 42
0.000000001
 43
0.0000000001
 44
0.00000001
 40
0.0
 40
0.0
 40
0.0
 40
0.0
 40
0.2803981055170699
 40
0.5607977780794489
 40
0.8427454767815056
 40
1.124697465942823
 40
1.409536444711899
 40
1.694381494092167
 40
1.983071303433746
 40
2.271767836809095
 40
2.56477613564539
 40
2.857790848031706
 40
3.155055692063344
 40
3.452325972452523
 40
3.753284820909462
 40
4.054247736388343
 40
4.35791980045535
 40
4.661594361771591
 40
4.966700742338073
 40
5.271807963175578
 40
5.576915184002904
 40
5.882021564538547
 40
6.18569612580256
 40
6.489368189795855
 40
6.790331105179699
 40
7.091289953518662
 40
7.388560233767499
 40
7.685825077633671
 40
7.978839789830412
 40
8.271848088449055
 40
8.560544621579751
 40
8.849234430642618
 40
9.134079479707399
 40
9.418918458106353
 40
9.700870446812782
 40
9.982818144855948
 40
10.26321781600874
 40
10.54361593035231
 40
10.82401404469585
 40
11.10441371584863
 40
11.38636141389185
 40
11.66831340259836
 40
11.95315238099736
 40
12.23799743006217
 40
12.52668723912503
 40
12.81538377225574
 40
13.10839207087428
 40
13.40140678307099
 40
13.69867162693718
 40
13.99594190718605
 40
14.29690075552506
 40
14.59786367090887
 40
14.9015357349021
 40
15.20521029616615
 40
15.51031667670175
 40
15.81542389752913
 40
16.12053111836664
 40
16.42563749893313
 40
16.72931206024937
 40
17.03298412431635
 40
17.33394703979523
 40
17.63490588825218
 40
17.93217616864136
 40
18.22944101267304
 40
18.52245572505927
 40
18.81546402389552
 40
19.10416055727085
 40
19.39285036661245
 40
19.67769541599272
 40
19.96253439476187
 40
20.24448638392324
 40
20.52643408262538
 40
20.80683375518776
 40
21.0872318607048
 40
21.0872318607048
 40
21.0872318607048
 40
21.0872318607048
 10
148.991669750802
 20
267.8786996130602
 30
0.0
 10
148.8981692107599
 20
267.8761182272542
 30
0.0
 10
148.7111676079577
 20
267.8709554465495
 30
0.0
 10
148.4326831967646
 20
267.8294830979862
 30
0.0
 10
148.1587409996121
 20
267.7635829381445
 30
0.0
 10
147.8908128338433
 20
267.6713508291871
 30
0.0
 10
147.6317670459729
 20
267.5542686400578
 30
0.0
 10
147.3826077515559
 20
267.4127923586589
 30
0.0
 10
147.1462977311418
 20
267.2485100128227
 30
0.0
 10
146.9235227370039
 20
267.0620498647442
 30
0.0
 10
146.717066704498
 20
266.8556253899311
 30
0.0
 10
146.5274539606581
 20
266.6299076956076
 30
0.0
 10
146.3570547845395
 20
266.3876168973626
 30
0.0
 10
146.2063419767438
 20
266.1295594046188
 30
0.0
 10
146.0771188400345
 20
265.8587322012261
 30
0.0
 10
145.9698391666695
 20
265.5762153478128
 30
0.0
 10
145.8856846629361
 20
265.2850273772978
 30
0.0
 10
145.8250413889283
 20
264.9866486044564
 30
0.0
 10
145.7885076264818
 20
264.6838876326456
 30
0.0
 10
145.7762885955702
 20
264.3786996224629
 30
0.0
 10
145.7885076261317
 20
264.0735116122784
 30
0.0
 10
145.8250413882272
 20
263.7707506404517
 30
0.0
 10
145.8856846618817
 20
263.472371867609
 30
0.0
 10
145.9698391652589
 20
263.181183897005
 30
0.0
 10
146.0771188382634
 20
262.898667043789
 30
0.0
 10
146.2063419746069
 20
262.6278398394928
 30
0.0
 10
146.3570547820303
 20
262.3697823498663
 30
0.0
 10
146.5274539577694
 20
262.1274915398097
 30
0.0
 10
146.7170667012206
 20
261.9017738886481
 30
0.0
 10
146.9235227333272
 20
261.6953492536539
 30
0.0
 10
147.146297727051
 20
261.5088896945059
 30
0.0
 10
147.3826077470328
 20
261.34460516682
 30
0.0
 10
147.6317670409873
 20
261.2031369237719
 30
0.0
 10
147.8908128283477
 20
261.086024920188
 30
0.0
 10
148.1587409934814
 20
260.9939030017292
 30
0.0
 10
148.4326831896812
 20
260.9275932361718
 30
0.0
 10
148.7111676027178
 20
260.8876415710817
 30
0.0
 10
148.991669750802
 20
260.8742286614611
 30
0.0
 10
149.2721718988862
 20
260.8876415710819
 30
0.0
 10
149.5506563119228
 20
260.9275932361717
 30
0.0
 10
149.8245985081226
 20
260.9939030017292
 30
0.0
 10
150.0925266732564
 20
261.0860249201882
 30
0.0
 10
150.3515724606169
 20
261.2031369237718
 30
0.0
 10
150.6007317545714
 20
261.3446051668201
 30
0.0
 10
150.8370417745533
 20
261.5088896945057
 30
0.0
 10
151.0598167682769
 20
261.6953492536539
 30
0.0
 10
151.2662728003837
 20
261.9017738886481
 30
0.0
 10
151.4558855438345
 20
262.1274915398098
 30
0.0
 10
151.6262847195737
 20
262.3697823498662
 30
0.0
 10
151.7769975269971
 20
262.6278398394928
 30
0.0
 10
151.9062206633408
 20
262.898667043789
 30
0.0
 10
152.0135003363452
 20
263.181183897005
 30
0.0
 10
152.0976548397223
 20
263.4723718676089
 30
0.0
 10
152.1582981133768
 20
263.7707506404518
 30
0.0
 10
152.1948318754724
 20
264.0735116122782
 30
0.0
 10
152.2070509060339
 20
264.378699622463
 30
0.0
 10
152.1948318751223
 20
264.6838876326455
 30
0.0
 10
152.1582981126757
 20
264.9866486044565
 30
0.0
 10
152.097654838668
 20
265.2850273772978
 30
0.0
 10
152.0135003349346
 20
265.5762153478129
 30
0.0
 10
151.9062206615695
 20
265.858732201226
 30
0.0
 10
151.7769975248604
 20
266.1295594046189
 30
0.0
 10
151.6262847170645
 20
266.3876168973625
 30
0.0
 10
151.455885540946
 20
266.6299076956075
 30
0.0
 10
151.2662727971062
 20
266.8556253899312
 30
0.0
 10
151.0598167646003
 20
267.0620498647441
 30
0.0
 10
150.8370417704624
 20
267.2485100128227
 30
0.0
 10
150.6007317500483
 20
267.412792358659
 30
0.0
 10
150.3515724556313
 20
267.5542686400579
 30
0.0
 10
150.0925266677608
 20
267.6713508291871
 30
0.0
 10
149.8245985019919
 20
267.7635829381445
 30
0.0
 10
149.5506563048394
 20
267.8294830979863
 30
0.0
 10
149.2721718936462
 20
267.8709554465495
 30
0.0
 10
149.0851702908441
 20
267.876118227254
 30
0.0
 10
148.991669750802
 20
267.8786996130602
 30
0.0
 11
148.991669750802
 21
267.8786996130602
 31
0.0
 11
148.7115897519324
 21
267.8653468277621
 31
0.0
 11
148.4340319435537
 21
267.825526748603
 31
0.0
 11
148.1599805391749
 21
267.759267165879
 31
0.0
 11
147.8933376789005
 21
267.6676237858108
 31
0.0
 11
147.6337492543645
 21
267.5503757855255
 31
0.0
 11
147.386015678469
 21
267.4097885263055
 31
0.0
 11
147.14891519386
 21
267.2450913309535
 31
0.0
 11
146.9274806645251
 21
267.0598551639766
 31
0.0
 11
146.7201972752154
 21
266.8527622870613
 31
0.0
 11
146.5316649914378
 21
266.6284562469629
 31
0.0
 11
146.3605764448642
 21
266.3853614162622
 31
0.0
 11
146.2105953181413
 21
266.1286996130602
 31
0.0
 11
146.0809185382669
 21
265.857111393089
 31
0.0
 11
145.9740271841895
 21
265.5757701146999
 31
0.0
 11
145.8896611228592
 21
265.2840526311544
 31
0.0
 11
145.8291485926234
 21
264.9864682348942
 31
0.0
 11
145.7925696440605
 21
264.68356250036
 31
0.0
 11
145.7803616061358
 21
264.3786996130602
 31
0.0
 11
145.7925696440605
 21
264.0738367257601
 31
0.0
 11
145.8291485926234
 21
263.7709309912257
 31
0.0
 11
145.8896611228592
 21
263.4733465949657
 31
0.0
 11
145.9740271841895
 21
263.1816291114204
 31
0.0
 11
146.080918538267
 21
262.9002878330314
 31
0.0
 11
146.2105953181413
 21
262.6286996130602
 31
0.0
 11
146.3605764448642
 21
262.372037809858
 31
0.0
 11
146.5316649914378
 21
262.1289429791572
 31
0.0
 11
146.7201972752154
 21
261.904636939059
 31
0.0
 11
146.9274806645251
 21
261.6975440621437
 31
0.0
 11
147.14891519386
 21
261.5123078951666
 31
0.0
 11
147.386015678469
 21
261.3476106998144
 31
0.0
 11
147.6337492543645
 21
261.2070234405945
 31
0.0
 11
147.8933376789005
 21
261.0897754403093
 31
0.0
 11
148.1599805391749
 21
260.9981320602413
 31
0.0
 11
148.4340319435537
 21
260.9318724775174
 31
0.0
 11
148.7115897519324
 21
260.8920523983582
 31
0.0
 11
148.991669750802
 21
260.8786996130602
 31
0.0
 11
149.2717497496716
 21
260.8920523983583
 31
0.0
 11
149.5493075580503
 21
260.9318724775174
 31
0.0
 11
149.8233589624292
 21
260.9981320602413
 31
0.0
 11
150.0900018227036
 21
261.0897754403093
 31
0.0
 11
150.3495902472397
 21
261.2070234405945
 31
0.0
 11
150.5973238231352
 21
261.3476106998144
 31
0.0
 11
150.8344243077443
 21
261.5123078951665
 31
0.0
 11
151.0558588370791
 21
261.6975440621437
 31
0.0
 11
151.2631422263887
 21
261.9046369390589
 31
0.0
 11
151.4516745101662
 21
262.1289429791572
 31
0.0
 11
151.6227630567398
 21
262.372037809858
 31
0.0
 11
151.7727441834628
 21
262.6286996130602
 31
0.0
 11
151.9024209633372
 21
262.9002878330314
 31
0.0
 11
152.0093123174146
 21
263.1816291114204
 31
0.0
 11
152.0936783787449
 21
263.4733465949657
 31
0.0
 11
152.1541909089806
 21
263.7709309912257
 31
0.0
 11
152.1907698575436
 21
264.07383672576
 31
0.0
 11
152.2029778954683
 21
264.3786996130602
 31
0.0
 11
152.1907698575436
 21
264.68356250036
 31
0.0
 11
152.1541909089806
 21
264.9864682348942
 31
0.0
 11
152.0936783787449
 21
265.2840526311544
 31
0.0
 11
152.0093123174146
 21
265.5757701146999
 31
0.0
 11
151.9024209633372
 21
265.857111393089
 31
0.0
 11
151.7727441834628
 21
266.1286996130602
 31
0.0
 11
151.6227630567398
 21
266.3853614162622
 31
0.0
 11
151.4516745101662
 21
266.6284562469629
 31
0.0
 11
151.2631422263888
 21
266.8527622870613
 31
0.0
 11
151.0558588370791
 21
267.0598551639766
 31
0.0
 11
150.8344243077442
 21
267.2450913309535
 31
0.0
 11
150.5973238231352
 21
267.4097885263055
 31
0.0
 11
150.3495902472397
 21
267.5503757855255
 31
0.0
 11
150.0900018227036
 21
267.6676237858108
 31
0.0
 11
149.8233589624292
 21
267.759267165879
 31
0.0
 11
149.5493075580503
 21
267.825526748603
 31
0.0
 11
149.2717497496716
 21
267.8653468277621
 31
0.0
 11
148.991669750802
 21
267.8786996130602
 31
0.0
  0
SPLINE
  5
213
330
56
100
AcDbEntity
  8
1
  6
Continuous
 62
     7
100
AcDbSpline
210
0.0
220
0.0
230
1.0
 70
    11
 71
     3
 72
    79
 73
    75
 74
    73
 42
0.000000001
 43
0.0000000001
 44
0.00000001
 40
0.0
 40
0.0
 40
0.0
 40
0.0
 40
0.2803981055170699
 40
0.5607977780794489
 40
0.8427454767815056
 40
1.124697465942823
 40
1.409536444711951
 40
1.694381494092169
 40
1.983071303433795
 40
2.271767836809101
 40
2.564776135645395
 40
2.857790848031711
 40
3.15505569206338
 40
3.45232597245251
 40
3.753284820909449
 40
4.05424773638834
 40
4.357919800455346
 40
4.661594361771588
 40
4.966700742338073
 40
5.271807963175577
 40
5.576915184002901
 40
5.882021564538548
 40
6.185696125802556
 40
6.489368189795859
 40
6.790331105179693
 40
7.091289953518681
 40
7.388560233767503
 40
7.685825077633676
 40
7.97883978983038
 40
8.271848088449063
 40
8.56054462157976
 40
8.849234430642626
 40
9.134079479707383
 40
9.418918458106361
 40
9.700870446812791
 40
9.982818144855957
 40
10.26321781600875
 40
10.54361593035232
 40
10.82401404469589
 40
11.10441371584867
 40
11.38636141389183
 40
11.66831340259837
 40
11.95315238099737
 40
12.23799743006218
 40
12.52668723912504
 40
12.81538377225575
 40
13.10839207087433
 40
13.401406783071
 40
13.69867162693724
 40
13.9959419071861
 40
14.29690075552506
 40
14.59786367090889
 40
14.90153573490217
 40
15.20521029616617
 40
15.51031667670176
 40
15.81542389752915
 40
16.12053111836665
 40
16.42563749893315
 40
16.72931206024939
 40
17.03298412431637
 40
17.33394703979529
 40
17.63490588825217
 40
17.93217616864136
 40
18.22944101267307
 40
18.5224557250593
 40
18.81546402389555
 40
19.10416055727086
 40
19.39285036661249
 40
19.67769541599278
 40
19.9625343947619
 40
20.24448638392327
 40
20.52643408262539
 40
20.80683375518776
 40
21.08723186070483
 40
21.08723186070483
 40
21.08723186070483
 40
21.08723186070483
 10
171.5083302491976
 20
267.8786996130602
 30
0.0
 10
171.6018307892397
 20
267.8761182272542
 30
0.0
 10
171.7888323920418
 20
267.8709554465495
 30
0.0
 10
172.067316803235
 20
267.8294830979862
 30
0.0
 10
172.3412590003874
 20
267.7635829381445
 30
0.0
 10
172.6091871661563
 20
267.6713508291871
 30
0.0
 10
172.8682329540267
 20
267.5542686400579
 30
0.0
 10
173.1173922484437
 20
267.4127923586589
 30
0.0
 10
173.3537022688579
 20
267.2485100128227
 30
0.0
 10
173.5764772629957
 20
267.0620498647442
 30
0.0
 10
173.7829332955016
 20
266.855625389931
 30
0.0
 10
173.9725460393416
 20
266.6299076956075
 30
0.0
 10
174.14294521546
 20
266.3876168973626
 30
0.0
 10
174.2936580232558
 20
266.1295594046188
 30
0.0
 10
174.422881159965
 20
265.8587322012261
 30
0.0
 10
174.5301608333301
 20
265.5762153478128
 30
0.0
 10
174.6143153370635
 20
265.2850273772978
 30
0.0
 10
174.6749586110713
 20
264.9866486044565
 30
0.0
 10
174.7114923735179
 20
264.6838876326456
 30
0.0
 10
174.7237114044294
 20
264.378699622463
 30
0.0
 10
174.7114923738679
 20
264.0735116122782
 30
0.0
 10
174.6749586117724
 20
263.7707506404518
 30
0.0
 10
174.614315338118
 20
263.4723718676089
 30
0.0
 10
174.5301608347406
 20
263.181183897005
 30
0.0
 10
174.4228811617363
 20
262.898667043789
 30
0.0
 10
174.2936580253926
 20
262.6278398394929
 30
0.0
 10
174.1429452179693
 20
262.3697823498662
 30
0.0
 10
173.9725460422301
 20
262.1274915398098
 30
0.0
 10
173.7829332987791
 20
261.901773888648
 30
0.0
 10
173.5764772666724
 20
261.695349253654
 30
0.0
 10
173.3537022729485
 20
261.5088896945058
 30
0.0
 10
173.1173922529668
 20
261.34460516682
 30
0.0
 10
172.8682329590123
 20
261.2031369237719
 30
0.0
 10
172.6091871716519
 20
261.0860249201882
 30
0.0
 10
172.3412590065182
 20
260.9939030017292
 30
0.0
 10
172.0673168103184
 20
260.9275932361718
 30
0.0
 10
171.7888323972818
 20
260.8876415710817
 30
0.0
 10
171.5083302491976
 20
260.8742286614611
 30
0.0
 10
171.2278281011133
 20
260.8876415710819
 30
0.0
 10
170.9493436880769
 20
260.9275932361717
 30
0.0
 10
170.6754014918769
 20
260.9939030017292
 30
0.0
 10
170.4074733267432
 20
261.0860249201881
 30
0.0
 10
170.1484275393827
 20
261.2031369237719
 30
0.0
 10
169.8992682454283
 20
261.3446051668201
 30
0.0
 10
169.6629582254463
 20
261.5088896945057
 30
0.0
 10
169.4401832317226
 20
261.6953492536539
 30
0.0
 10
169.233727199616
 20
261.901773888648
 30
0.0
 10
169.0441144561651
 20
262.1274915398099
 30
0.0
 10
168.8737152804258
 20
262.3697823498662
 30
0.0
 10
168.7230024730023
 20
262.6278398394927
 30
0.0
 10
168.5937793366588
 20
262.898667043789
 30
0.0
 10
168.4864996636543
 20
263.181183897005
 30
0.0
 10
168.4023451602773
 20
263.472371867609
 30
0.0
 10
168.3417018866228
 20
263.7707506404518
 30
0.0
 10
168.3051681245272
 20
264.0735116122783
 30
0.0
 10
168.2929490939657
 20
264.378699622463
 30
0.0
 10
168.3051681248772
 20
264.6838876326455
 30
0.0
 10
168.3417018873239
 20
264.9866486044565
 30
0.0
 10
168.4023451613317
 20
265.2850273772977
 30
0.0
 10
168.486499665065
 20
265.5762153478129
 30
0.0
 10
168.59377933843
 20
265.8587322012261
 30
0.0
 10
168.7230024751392
 20
266.1295594046188
 30
0.0
 10
168.8737152829351
 20
266.3876168973627
 30
0.0
 10
169.0441144590536
 20
266.6299076956075
 30
0.0
 10
169.2337272028934
 20
266.855625389931
 30
0.0
 10
169.4401832353994
 20
267.0620498647442
 30
0.0
 10
169.6629582295371
 20
267.2485100128227
 30
0.0
 10
169.8992682499514
 20
267.412792358659
 30
0.0
 10
170.1484275443684
 20
267.554268640058
 30
0.0
 10
170.4074733322389
 20
267.6713508291871
 30
0.0
 10
170.6754014980077
 20
267.7635829381445
 30
0.0
 10
170.9493436951602
 20
267.8294830979863
 30
0.0
 10
171.2278281063533
 20
267.8709554465494
 30
0.0
 10
171.4148297091555
 20
267.8761182272542
 30
0.0
 10
171.5083302491976
 20
267.8786996130602
 30
0.0
 11
171.5083302491976
 21
267.8786996130602
 31
0.0
 11
171.7884102480672
 21
267.8653468277621
 31
0.0
 11
172.0659680564459
 21
267.825526748603
 31
0.0
 11
172.3400194608247
 21
267.759267165879
 31
0.0
 11
172.6066623210991
 21
267.6676237858108
 31
0.0
 11
172.8662507456351
 21
267.5503757855255
 31
0.0
 11
173.1139843215306
 21
267.4097885263055
 31
0.0
 11
173.3510848061397
 21
267.2450913309535
 31
0.0
 11
173.5725193354745
 21
267.0598551639766
 31
0.0
 11
173.7798027247842
 21
266.8527622870613
 31
0.0
 11
173.9683350085618
 21
266.6284562469629
 31
0.0
 11
174.1394235551354
 21
266.3853614162622
 31
0.0
 11
174.2894046818583
 21
266.1286996130602
 31
0.0
 11
174.4190814617327
 21
265.857111393089
 31
0.0
 11
174.5259728158101
 21
265.5757701146999
 31
0.0
 11
174.6103388771404
 21
265.2840526311544
 31
0.0
 11
174.6708514073762
 21
264.9864682348942
 31
0.0
 11
174.7074303559391
 21
264.68356250036
 31
0.0
 11
174.7196383938638
 21
264.3786996130602
 31
0.0
 11
174.7074303559392
 21
264.0738367257601
 31
0.0
 11
174.6708514073762
 21
263.7709309912257
 31
0.0
 11
174.6103388771404
 21
263.4733465949657
 31
0.0
 11
174.5259728158101
 21
263.1816291114204
 31
0.0
 11
174.4190814617327
 21
262.9002878330314
 31
0.0
 11
174.2894046818583
 21
262.6286996130602
 31
0.0
 11
174.1394235551354
 21
262.372037809858
 31
0.0
 11
173.9683350085618
 21
262.1289429791572
 31
0.0
 11
173.7798027247843
 21
261.904636939059
 31
0.0
 11
173.5725193354745
 21
261.6975440621437
 31
0.0
 11
173.3510848061396
 21
261.5123078951666
 31
0.0
 11
173.1139843215306
 21
261.3476106998144
 31
0.0
 11
172.8662507456351
 21
261.2070234405945
 31
0.0
 11
172.6066623210991
 21
261.0897754403093
 31
0.0
 11
172.3400194608247
 21
260.9981320602413
 31
0.0
 11
172.0659680564459
 21
260.9318724775174
 31
0.0
 11
171.7884102480672
 21
260.8920523983582
 31
0.0
 11
171.5083302491976
 21
260.8786996130602
 31
0.0
 11
171.228250250328
 21
260.8920523983583
 31
0.0
 11
170.9506924419493
 21
260.9318724775174
 31
0.0
 11
170.6766410375704
 21
260.9981320602413
 31
0.0
 11
170.409998177296
 21
261.0897754403093
 31
0.0
 11
170.1504097527599
 21
261.2070234405945
 31
0.0
 11
169.9026761768644
 21
261.3476106998144
 31
0.0
 11
169.6655756922553
 21
261.5123078951665
 31
0.0
 11
169.4441411629205
 21
261.6975440621437
 31
0.0
 11
169.2368577736109
 21
261.904636939059
 31
0.0
 11
169.0483254898334
 21
262.1289429791572
 31
0.0
 11
168.8772369432597
 21
262.372037809858
 31
0.0
 11
168.7272558165367
 21
262.6286996130602
 31
0.0
 11
168.5975790366624
 21
262.9002878330314
 31
0.0
 11
168.490687682585
 21
263.1816291114204
 31
0.0
 11
168.4063216212547
 21
263.4733465949657
 31
0.0
 11
168.345809091019
 21
263.7709309912257
 31
0.0
 11
168.309230142456
 21
264.07383672576
 31
0.0
 11
168.2970221045313
 21
264.3786996130602
 31
0.0
 11
168.309230142456
 21
264.68356250036
 31
0.0
 11
168.345809091019
 21
264.9864682348942
 31
0.0
 11
168.4063216212548
 21
265.2840526311544
 31
0.0
 11
168.490687682585
 21
265.5757701146999
 31
0.0
 11
168.5975790366623
 21
265.857111393089
 31
0.0
 11
168.7272558165367
 21
266.1286996130602
 31
0.0
 11
168.8772369432598
 21
266.3853614162622
 31
0.0
 11
169.0483254898334
 21
266.6284562469629
 31
0.0
 11
169.2368577736108
 21
266.8527622870613
 31
0.0
 11
169.4441411629205
 21
267.0598551639766
 31
0.0
 11
169.6655756922553
 21
267.2450913309535
 31
0.0
 11
169.9026761768644
 21
267.4097885263055
 31
0.0
 11
170.15040975276
 21
267.5503757855255
 31
0.0
 11
170.409998177296
 21
267.6676237858108
 31
0.0
 11
170.6766410375704
 21
267.759267165879
 31
0.0
 11
170.9506924419493
 21
267.825526748603
 31
0.0
 11
171.228250250328
 21
267.8653468277621
 31
0.0
 11
171.5083302491976
 21
267.8786996130602
 31
0.0
  0
SPLINE
  5
214
330
56
100
AcDbEntity
  8
1
  6
Continuous
 62
     7
100
AcDbSpline
210
0.0
220
0.0
230
1.0
 70
     8
 71
     3
 72
    29
 73
    25
 74
    23
 42
0.000000001
 43
0.0000000001
 44
0.00000001
 40
0.0
 40
0.0
 40
0.0
 40
0.0
 40
0.6069077071334391
 40
1.212222618922052
 40
1.842666699981058
 40
2.474631891987918
 40
3.102420163134996
 40
3.729333881624382
 40
4.271042929453105
 40
4.812985317241356
 40
5.340107969104208
 40
5.86624891494905
 40
6.263874824440644
 40
6.661485222726933
 40
7.280966483141345
 40
7.902596723210353
 40
8.54916889902292
 40
9.195896755585
 40
9.722415956712107
 40
10.24911839923936
 40
11.07897535377096
 40
11.90732205839664
 40
12.67331707894456
 40
13.4419126848568
 40
13.4419126848568
 40
13.4419126848568
 40
13.4419126848568
 10
160.2499999999998
 20
267.8786996130602
 30
0.0
 10
160.4520598275455
 20
267.8688242396962
 30
0.0
 10
160.8556491872227
 20
267.8490993984835
 30
0.0
 10
161.4673547353065
 20
267.785309050262
 30
0.0
 10
162.0767717964487
 20
267.6511257525217
 30
0.0
 10
162.6751779714269
 20
267.4506701329951
 30
0.0
 10
163.2497405029006
 20
267.1921090167648
 30
0.0
 10
163.7646383002691
 20
266.8831796276604
 30
0.0
 10
164.2136571740251
 20
266.5293627037159
 30
0.0
 10
164.5875987763232
 20
266.1413380361992
 30
0.0
 10
164.8945646776301
 20
265.704407633124
 30
0.0
 10
165.1018733350696
 20
265.2641936666877
 30
0.0
 10
165.2177759232898
 20
264.837484546635
 30
0.0
 10
165.2684791281671
 20
264.3665691048329
 30
0.0
 10
165.2080228049262
 20
263.8175945125922
 30
0.0
 10
164.9950755732967
 20
263.2198484472704
 30
0.0
 10
164.6478386361445
 20
262.6782462021299
 30
0.0
 10
164.2264809105644
 20
262.2376382347398
 30
0.0
 10
163.7790674205839
 20
261.8877643117702
 30
0.0
 10
163.2432310350387
 20
261.5588539294291
 30
0.0
 10
162.5783399856529
 20
261.255115309027
 30
0.0
 10
161.7986789250164
 20
261.0303454433102
 30
0.0
 10
161.0162733089122
 20
260.9259586439194
 30
0.0
 10
160.5057128427383
 20
260.8945361534136
 30
0.0
 10
160.2499999999998
 20
260.8787982891469
 30
0.0
 11
160.2499999999998
 21
267.8786996130602
 31
0.0
 11
160.855886021758
 21
267.8434987472978
 31
0.0
 11
161.4573288412394
 21
267.7751417552136
 31
0.0
 11
162.0732200529806
 21
267.6404652693893
 31
0.0
 11
162.6726815145294
 21
267.4404003774442
 31
0.0
 11
163.2443802878493
 21
267.1810191391938
 31
0.0
 11
163.7809455048622
 21
266.8567991844158
 31
0.0
 11
164.2053780436414
 21
266.5201900444348
 31
0.0
 11
164.580127018922
 21
266.1286996130602
 31
0.0
 11
164.8816829048822
 21
265.6963544518416
 31
0.0
 11
165.103703218716
 21
265.2193520662252
 31
0.0
 11
165.207463935859
 21
264.8355030360955
 31
0.0
 11
165.2492220336796
 21
264.4400914902813
 31
0.0
 11
165.1846284220582
 21
263.8239870360714
 31
0.0
 11
164.9770102519068
 21
263.2380528657947
 31
0.0
 11
164.6316376510519
 21
262.6914512318807
 31
0.0
 11
164.187363524449
 21
262.2214752518003
 31
0.0
 11
163.7734931056742
 21
261.8960006042292
 31
0.0
 11
163.3254542584499
 21
261.6190951060497
 31
0.0
 11
162.5706935518125
 21
261.2741330178722
 31
0.0
 11
161.7745372414245
 21
261.0454555281256
 31
0.0
 11
161.0165281108249
 21
260.9351353991109
 31
0.0
 11
160.2499999999998
 21
260.8787982891469
 31
0.0
  0
SPLINE
  5
215
330
56
100
AcDbEntity
  8
1
  6
Continuous
 62
     7
100
AcDbSpline
210
0.0
220
0.0
230
1.0
 70
     8
 71
     3
 72
    29
 73
    25
 74
    23
 42
0.000000001
 43
0.0000000001
 44
0.00000001
 40
0.0
 40
0.0
 40
0.0
 40
0.0
 40
0.6069077071334674
 40
1.212222618922081
 40
1.842666699981071
 40
2.47463189198794
 40
3.102420163135148
 40
3.729333881624582
 40
4.271042929453261
 40
4.812985317241394
 40
5.340107969104214
 40
5.866248914949043
 40
6.263874824440645
 40
6.661485222726951
 40
7.280966483141373
 40
7.90259672321039
 40
8.549168899022957
 40
9.195896755585037
 40
9.722415956712144
 40
10.2491183992394
 40
11.07897535377104
 40
11.90732205839667
 40
12.67331707894463
 40
13.44191268485683
 40
13.44191268485683
 40
13.44191268485683
 40
13.44191268485683
 10
160.2499999999998
 20
267.8786996130602
 30
0.0
 10
160.0479401724541
 20
267.8688242396962
 30
0.0
 10
159.6443508127768
 20
267.8490993984834
 30
0.0
 10
159.0326452646931
 20
267.7853090502622
 30
0.0
 10
158.4232282035509
 20
267.6511257525215
 30
0.0
 10
157.8248220285726
 20
267.4506701329952
 30
0.0
 10
157.2502594970989
 20
267.1921090167647
 30
0.0
 10
156.7353616997304
 20
266.8831796276606
 30
0.0
 10
156.2863428259743
 20
266.5293627037159
 30
0.0
 10
155.9124012236765
 20
266.1413380361992
 30
0.0
 10
155.6054353223695
 20
265.704407633124
 30
0.0
 10
155.3981266649301
 20
265.2641936666876
 30
0.0
 10
155.2822240767098
 20
264.8374845466349
 30
0.0
 10
155.2315208718323
 20
264.366569104833
 30
0.0
 10
155.2919771950735
 20
263.8175945125922
 30
0.0
 10
155.5049244267028
 20
263.2198484472704
 30
0.0
 10
155.8521613638551
 20
262.6782462021299
 30
0.0
 10
156.2735190894352
 20
262.2376382347397
 30
0.0
 10
156.7209325794156
 20
261.8877643117703
 30
0.0
 10
157.256768964961
 20
261.5588539294291
 30
0.0
 10
157.9216600143466
 20
261.255115309027
 30
0.0
 10
158.7013210749833
 20
261.0303454433104
 30
0.0
 10
159.4837266910874
 20
260.9259586439194
 30
0.0
 10
159.9942871572613
 20
260.8945361534136
 30
0.0
 10
160.2499999999998
 20
260.8787982891469
 30
0.0
 11
160.2499999999998
 21
267.8786996130602
 31
0.0
 11
159.6441139782416
 21
267.8434987472978
 31
0.0
 11
159.0426711587602
 21
267.7751417552136
 31
0.0
 11
158.426779947019
 21
267.6404652693892
 31
0.0
 11
157.8273184854702
 21
267.4404003774442
 31
0.0
 11
157.2556197121502
 21
267.1810191391938
 31
0.0
 11
156.7190544951372
 21
266.8567991844158
 31
0.0
 11
156.2946219563581
 21
266.5201900444348
 31
0.0
 11
155.9198729810776
 21
266.1286996130602
 31
0.0
 11
155.6183170951175
 21
265.6963544518416
 31
0.0
 11
155.3962967812837
 21
265.2193520662252
 31
0.0
 11
155.2925360641406
 21
264.8355030360955
 31
0.0
 11
155.2507779663199
 21
264.4400914902813
 31
0.0
 11
155.3153715779414
 21
263.8239870360714
 31
0.0
 11
155.5229897480928
 21
263.2380528657947
 31
0.0
 11
155.8683623489477
 21
262.6914512318807
 31
0.0
 11
156.3126364755506
 21
262.2214752518003
 31
0.0
 11
156.7265068943254
 21
261.8960006042292
 31
0.0
 11
157.1745457415497
 21
261.6190951060497
 31
0.0
 11
157.9293064481872
 21
261.2741330178722
 31
0.0
 11
158.7254627585751
 21
261.0454555281256
 31
0.0
 11
159.4834718891747
 21
260.9351353991109
 31
0.0
 11
160.2499999999998
 21
260.8787982891469
 31
0.0
  0
SPLINE
  5
216
330
56
100
AcDbEntity
  8
1
  6
Continuous
 62
     7
100
AcDbSpline
210
0.0
220
0.0
230
1.0
 70
    11
 71
     3
 72
    79
 73
    75
 74
    73
 42
0.000000001
 43
0.0000000001
 44
0.00000001
 40
0.0
 40
0.0
 40
0.0
 40
0.0
 40
0.3105305852300955
 40
0.6211096995128427
 40
0.944685382517551
 40
1.268350829332508
 40
1.615177937220524
 40
1.962073587500641
 40
2.337982250496434
 40
2.713934410282975
 40
3.120408255190446
 40
3.526909439089293
 40
3.961816264051673
 40
4.396740380766725
 40
4.855202003460522
 40
5.313674294823812
 40
5.788867662508733
 40
6.264066850589924
 40
6.747928777579635
 40
7.231792556800912
 40
7.715656336020873
 40
8.199518263006278
 40
8.674717451079385
 40
9.149910818750298
 40
9.608383110092415
 40
10.06684473275351
 40
10.50176884942245
 40
10.93667567431778
 40
11.34317685812704
 40
11.74965070290935
 40
12.12560286253652
 40
12.50151152531591
 40
12.84840717532578
 40
13.19523428284664
 40
13.51889972917781
 40
13.84247541139041
 40
14.15305452357882
 40
14.46358511619978
 40
14.77411570882074
 40
15.08469482100926
 40
15.40827050322189
 40
15.73193594955314
 40
16.07876305707405
 40
16.42565870708387
 40
16.80156736986327
 40
17.17751952949044
 40
17.58399337427265
 40
17.99049455808187
 40
18.42540138297723
 40
18.86032549964624
 40
19.31878712230731
 40
19.77725941364949
 40
20.25245278132044
 40
20.72765196939348
 40
21.21151389637895
 40
21.69537767559885
 40
22.17924145482007
 40
22.66310338180984
 40
23.13830256989103
 40
23.61349593757593
 40
24.07196822893918
 40
24.53042985163304
 40
24.96535396834811
 40
25.40026079331057
 40
25.80676197720936
 40
26.21323582211676
 40
26.58918798190326
 40
26.96509664489901
 40
27.31199229517917
 40
27.65881940306721
 40
27.98248484988229
 40
28.30606053288698
 40
28.61663964716978
 40
28.92717023239993
 40
28.92717023239993
 40
28.92717023239993
 40
28.92717023239993
 10
333.1878511346779
 20
264.414056720196
 30
0.0
 10
333.1920671852947
 20
264.5176417520141
 30
0.0
 10
333.2004999367339
 20
264.7248280041906
 30
0.0
 10
333.2672278698793
 20
265.0340475996179
 30
0.0
 10
333.372935250738
 20
265.3360527469507
 30
0.0
 10
333.5214581188368
 20
265.6332129362694
 30
0.0
 10
333.7079258540799
 20
265.9173596020278
 30
0.0
 10
333.9350969094966
 20
266.1929591874771
 30
0.0
 10
334.1955303674941
 20
266.451324307577
 30
0.0
 10
334.4939364784477
 20
266.6970922852397
 30
0.0
 10
334.8204501978281
 20
266.9225249379313
 30
0.0
 10
335.1806770560597
 20
267.1312706673629
 30
0.0
 10
335.5636902632844
 20
267.3173394616983
 30
0.0
 10
335.9746400210274
 20
267.4829884113947
 30
0.0
 10
336.4028893286824
 20
267.624202832115
 30
0.0
 10
336.8520295906733
 20
267.7419489542351
 30
0.0
 10
337.3128162614892
 20
267.8340200364491
 30
0.0
 10
337.7865151302902
 20
267.9004816099976
 30
0.0
 10
338.266073949124
 20
267.9405252634438
 30
0.0
 10
338.749999990116
 20
267.9538581154904
 30
0.0
 10
339.2339260311033
 20
267.9405252634887
 30
0.0
 10
339.7134848499496
 20
267.9004816100918
 30
0.0
 10
340.1871837187035
 20
267.8340200366019
 30
0.0
 10
340.6479703896885
 20
267.7419489544597
 30
0.0
 10
341.0971106510673
 20
267.6242028324305
 30
0.0
 10
341.5253599609517
 20
267.4829884118233
 30
0.0
 10
341.936309710793
 20
267.3173394622689
 30
0.0
 10
342.3193229465628
 20
267.1312706681067
 30
0.0
 10
342.6795497049438
 20
266.9225249388884
 30
0.0
 10
343.0060637824443
 20
266.6970922864501
 30
0.0
 10
343.3044686525927
 20
266.4513243090943
 30
0.0
 10
343.5649065462731
 20
266.1929591893534
 30
0.0
 10
343.7920622640163
 20
265.9173596043382
 30
0.0
 10
343.9785849902511
 20
265.6332129390991
 30
0.0
 10
344.1269156791185
 20
265.3360527504845
 30
0.0
 10
344.2333200384816
 20
265.0340476043993
 30
0.0
 10
344.2975461642261
 20
264.7248280079289
 30
0.0
 10
344.3194496305058
 20
264.414056720196
 30
0.0
 10
344.297546164226
 20
264.1032854324631
 30
0.0
 10
344.2333200384816
 20
263.7940658359926
 30
0.0
 10
344.1269156791187
 20
263.4920606899074
 30
0.0
 10
343.978584990251
 20
263.1949005012927
 30
0.0
 10
343.7920622640164
 20
262.9107538360537
 30
0.0
 10
343.5649065462729
 20
262.6351542510383
 30
0.0
 10
343.3044686525927
 20
262.3767891312976
 30
0.0
 10
343.0060637824443
 20
262.1310211539417
 30
0.0
 10
342.6795497049438
 20
261.9055885015035
 30
0.0
 10
342.3193229465627
 20
261.6968427722854
 30
0.0
 10
341.9363097107931
 20
261.510773978123
 30
0.0
 10
341.5253599609516
 20
261.3451250285686
 30
0.0
 10
341.0971106510674
 20
261.2039106079612
 30
0.0
 10
340.6479703896885
 20
261.0861644859319
 30
0.0
 10
340.1871837187034
 20
260.9940934037898
 30
0.0
 10
339.7134848499495
 20
260.9276318303
 30
0.0
 10
339.2339260311033
 20
260.8875881769031
 30
0.0
 10
338.7499999901161
 20
260.8742553249013
 30
0.0
 10
338.266073949124
 20
260.887588176948
 30
0.0
 10
337.7865151302902
 20
260.9276318303941
 30
0.0
 10
337.3128162614891
 20
260.9940934039427
 30
0.0
 10
336.8520295906733
 20
261.0861644861566
 30
0.0
 10
336.4028893286823
 20
261.2039106082768
 30
0.0
 10
335.9746400210274
 20
261.345125028997
 30
0.0
 10
335.5636902632845
 20
261.5107739786937
 30
0.0
 10
335.1806770560598
 20
261.696842773029
 30
0.0
 10
334.8204501978279
 20
261.9055885024607
 30
0.0
 10
334.4939364784479
 20
262.1310211551521
 30
0.0
 10
334.195530367494
 20
262.3767891328149
 30
0.0
 10
333.9350969094967
 20
262.6351542529148
 30
0.0
 10
333.7079258540799
 20
262.9107538383641
 30
0.0
 10
333.5214581188369
 20
263.1949005041224
 30
0.0
 10
333.372935250738
 20
263.4920606934413
 30
0.0
 10
333.2672278698792
 20
263.7940658407741
 30
0.0
 10
333.200499936734
 20
264.1032854362013
 30
0.0
 10
333.1920671852947
 20
264.310471688378
 30
0.0
 10
333.1878511346779
 20
264.414056720196
 30
0.0
 11
333.1878511346779
 21
264.414056720196
 31
0.0
 11
333.2093577468912
 21
264.7238416692707
 31
0.0
 11
333.2723526740228
 21
265.0279650392519
 31
0.0
 11
333.3792417563017
 21
265.3333761495521
 31
0.0
 11
333.5232897555441
 21
265.6232200646859
 31
0.0
 11
333.7129594395701
 21
265.9135895767734
 31
0.0
 11
333.9330377830002
 21
266.1817352737638
 31
0.0
 11
334.1993899825299
 21
266.4469970852302
 31
0.0
 11
334.4891467699194
 21
266.6865404644801
 31
0.0
 11
334.8232964123517
 21
266.9179816081942
 31
0.0
 11
335.1747196261388
 21
267.1222973865586
 31
0.0
 11
335.5657058339537
 21
267.3127540264355
 31
0.0
 11
335.9689255673388
 21
267.4757657864254
 31
0.0
 11
336.4042253440626
 21
267.6196447767564
 31
0.0
 11
336.8476330478836
 21
267.7362057056143
 31
0.0
 11
337.3135777519253
 21
267.8295023800777
 31
0.0
 11
337.7841429856243
 21
267.89570380897
 31
0.0
 11
338.2663212637876
 21
267.9360333571876
 31
0.0
 11
338.7499999999997
 21
267.9494138273316
 31
0.0
 11
339.2336787362119
 21
267.9360333571876
 31
0.0
 11
339.7158570143751
 21
267.89570380897
 31
0.0
 11
340.1864222480741
 21
267.8295023800777
 31
0.0
 11
340.6523669521156
 21
267.7362057056143
 31
0.0
 11
341.0957746559365
 21
267.6196447767564
 31
0.0
 11
341.5310744326604
 21
267.4757657864254
 31
0.0
 11
341.9342941660456
 21
267.3127540264355
 31
0.0
 11
342.3252803738606
 21
267.1222973865586
 31
0.0
 11
342.6767035876476
 21
266.9179816081942
 31
0.0
 11
343.0108532300798
 21
266.6865404644801
 31
0.0
 11
343.3006100174693
 21
266.4469970852301
 31
0.0
 11
343.5669622169991
 21
266.1817352737638
 31
0.0
 11
343.7870405604292
 21
265.9135895767733
 31
0.0
 11
343.9767102444552
 21
265.6232200646859
 31
0.0
 11
344.1207582436977
 21
265.3333761495521
 31
0.0
 11
344.2276473259765
 21
265.0279650392519
 31
0.0
 11
344.290642253108
 21
264.7238416692707
 31
0.0
 11
344.3121488653214
 21
264.414056720196
 31
0.0
 11
344.290642253108
 21
264.1042717711213
 31
0.0
 11
344.2276473259765
 21
263.80014840114
 31
0.0
 11
344.1207582436977
 21
263.4947372908398
 31
0.0
 11
343.9767102444552
 21
263.2048933757059
 31
0.0
 11
343.7870405604292
 21
262.9145238636184
 31
0.0
 11
343.5669622169991
 21
262.646378166628
 31
0.0
 11
343.3006100174693
 21
262.3811163551617
 31
0.0
 11
343.0108532300798
 21
262.1415729759117
 31
0.0
 11
342.6767035876476
 21
261.9101318321978
 31
0.0
 11
342.3252803738606
 21
261.7058160538334
 31
0.0
 11
341.9342941660456
 21
261.5153594139564
 31
0.0
 11
341.5310744326604
 21
261.3523476539664
 31
0.0
 11
341.0957746559366
 21
261.2084686636353
 31
0.0
 11
340.6523669521156
 21
261.0919077347774
 31
0.0
 11
340.1864222480741
 21
260.998611060314
 31
0.0
 11
339.7158570143751
 21
260.9324096314218
 31
0.0
 11
339.2336787362118
 21
260.8920800832042
 31
0.0
 11
338.7499999999997
 21
260.8786996130602
 31
0.0
 11
338.2663212637876
 21
260.8920800832042
 31
0.0
 11
337.7841429856243
 21
260.9324096314218
 31
0.0
 11
337.3135777519253
 21
260.9986110603141
 31
0.0
 11
336.8476330478836
 21
261.0919077347774
 31
0.0
 11
336.4042253440627
 21
261.2084686636353
 31
0.0
 11
335.9689255673388
 21
261.3523476539664
 31
0.0
 11
335.5657058339538
 21
261.5153594139564
 31
0.0
 11
335.1747196261388
 21
261.7058160538334
 31
0.0
 11
334.8232964123517
 21
261.9101318321977
 31
0.0
 11
334.4891467699194
 21
262.1415729759117
 31
0.0
 11
334.19938998253
 21
262.3811163551616
 31
0.0
 11
333.9330377830003
 21
262.646378166628
 31
0.0
 11
333.7129594395702
 21
262.9145238636185
 31
0.0
 11
333.5232897555441
 21
263.2048933757059
 31
0.0
 11
333.3792417563016
 21
263.4947372908399
 31
0.0
 11
333.2723526740228
 21
263.80014840114
 31
0.0
 11
333.2093577468912
 21
264.1042717711213
 31
0.0
 11
333.1878511346779
 21
264.414056720196
 31
0.0
  0
SPLINE
  5
217
330
56
100
AcDbEntity
  8
1
  6
Continuous
 62
     7
100
AcDbSpline
210
0.0
220
0.0
230
1.0
 70
    11
 71
     3
 72
    79
 73
    75
 74
    73
 42
0.000000001
 43
0.0000000001
 44
0.00000001
 40
0.0
 40
0.0
 40
0.0
 40
0.0
 40
0.3105305852300915
 40
0.6211096995128271
 40
0.9446853825175354
 40
1.268350829332518
 40
1.615177937220596
 40
1.962073587500677
 40
2.337982250496551
 40
2.713934410283004
 40
3.120408255190427
 40
3.526909439089275
 40
3.961816264051706
 40
4.396740380766758
 40
4.855202003460501
 40
5.313674294823791
 40
5.788867662508656
 40
6.264066850590016
 40
6.747928777579728
 40
7.231792556800891
 40
7.715656336020794
 40
8.1995182630062
 40
8.674717451079307
 40
9.149910818750444
 40
9.608383110092547
 40
10.06684473275365
 40
10.50176884942255
 40
10.93667567431778
 40
11.34317685812708
 40
11.74965070290944
 40
12.12560286253653
 40
12.50151152531592
 40
12.84840717532579
 40
13.19523428284671
 40
13.51889972917791
 40
13.84247541139051
 40
14.15305452357891
 40
14.46358511619986
 40
14.77411570882082
 40
15.08469482100933
 40
15.40827050322201
 40
15.73193594955323
 40
16.0787630570741
 40
16.42565870708401
 40
16.80156736986341
 40
17.1775195294905
 40
17.58399337427279
 40
17.99049455808203
 40
18.42540138297729
 40
18.86032549964624
 40
19.31878712230732
 40
19.77725941364949
 40
20.25245278132055
 40
20.72765196939371
 40
21.21151389637911
 40
21.69537767559902
 40
22.17924145482018
 40
22.66310338180989
 40
23.1383025698912
 40
23.61349593757609
 40
24.07196822893945
 40
24.53042985163316
 40
24.96535396834828
 40
25.40026079331074
 40
25.80676197720953
 40
26.21323582211689
 40
26.58918798190346
 40
26.96509664489922
 40
27.31199229517938
 40
27.65881940306738
 40
27.98248484988241
 40
28.30606053288717
 40
28.61663964716996
 40
28.92717023240011
 40
28.92717023240011
 40
28.92717023240011
 40
28.92717023240011
 10
331.3121488653215
 20
264.414056720196
 30
0.0
 10
331.3079328147047
 20
264.5176417520141
 30
0.0
 10
331.2995000632654
 20
264.7248280041906
 30
0.0
 10
331.2327721301205
 20
265.034047599618
 30
0.0
 10
331.1270647492613
 20
265.3360527469506
 30
0.0
 10
330.9785418811626
 20
265.6332129362696
 30
0.0
 10
330.7920741459195
 20
265.9173596020276
 30
0.0
 10
330.5649030905028
 20
266.1929591874771
 30
0.0
 10
330.3044696325053
 20
266.4513243075768
 30
0.0
 10
330.0060635215516
 20
266.6970922852398
 30
0.0
 10
329.6795498021715
 20
266.9225249379313
 30
0.0
 10
329.3193229439395
 20
267.131270667363
 30
0.0
 10
328.9363097367149
 20
267.3173394616982
 30
0.0
 10
328.5253599789722
 20
267.4829884113948
 30
0.0
 10
328.097110671317
 20
267.624202832115
 30
0.0
 10
327.6479704093263
 20
267.7419489542351
 30
0.0
 10
327.1871837385103
 20
267.8340200364491
 30
0.0
 10
326.7134848697092
 20
267.9004816099977
 30
0.0
 10
326.2339260508753
 20
267.9405252634438
 30
0.0
 10
325.7500000098834
 20
267.9538581154906
 30
0.0
 10
325.266073968896
 20
267.9405252634886
 30
0.0
 10
324.78651515005
 20
267.9004816100918
 30
0.0
 10
324.312816281296
 20
267.8340200366019
 30
0.0
 10
323.8520296103109
 20
267.7419489544598
 30
0.0
 10
323.4028893489319
 20
267.6242028324305
 30
0.0
 10
322.9746400390476
 20
267.4829884118232
 30
0.0
 10
322.5636902892063
 20
267.3173394622691
 30
0.0
 10
322.1806770534366
 20
267.1312706681066
 30
0.0
 10
321.8204502950555
 20
266.9225249388885
 30
0.0
 10
321.493936217555
 20
266.6970922864501
 30
0.0
 10
321.1955313474068
 20
266.4513243090944
 30
0.0
 10
320.9350934537263
 20
266.1929591893533
 30
0.0
 10
320.7079377359833
 20
265.9173596043381
 30
0.0
 10
320.5214150097482
 20
265.6332129390992
 30
0.0
 10
320.3730843208807
 20
265.3360527504844
 30
0.0
 10
320.2666799615178
 20
265.0340476043993
 30
0.0
 10
320.2024538357732
 20
264.7248280079289
 30
0.0
 10
320.1805503694936
 20
264.414056720196
 30
0.0
 10
320.2024538357732
 20
264.1032854324631
 30
0.0
 10
320.2666799615178
 20
263.7940658359926
 30
0.0
 10
320.3730843208808
 20
263.4920606899074
 30
0.0
 10
320.5214150097481
 20
263.1949005012926
 30
0.0
 10
320.7079377359831
 20
262.9107538360537
 30
0.0
 10
320.9350934537263
 20
262.6351542510384
 30
0.0
 10
321.1955313474067
 20
262.3767891312975
 30
0.0
 10
321.4939362175551
 20
262.1310211539417
 30
0.0
 10
321.8204502950555
 20
261.9055885015034
 30
0.0
 10
322.1806770534366
 20
261.6968427722854
 30
0.0
 10
322.5636902892063
 20
261.510773978123
 30
0.0
 10
322.9746400390476
 20
261.3451250285686
 30
0.0
 10
323.4028893489319
 20
261.2039106079612
 30
0.0
 10
323.8520296103109
 20
261.0861644859319
 30
0.0
 10
324.3128162812959
 20
260.9940934037899
 30
0.0
 10
324.7865151500499
 20
260.9276318303
 30
0.0
 10
325.2660739688961
 20
260.8875881769032
 30
0.0
 10
325.7500000098834
 20
260.8742553249012
 30
0.0
 10
326.2339260508753
 20
260.887588176948
 30
0.0
 10
326.7134848697092
 20
260.9276318303942
 30
0.0
 10
327.1871837385102
 20
260.9940934039427
 30
0.0
 10
327.6479704093263
 20
261.0861644861566
 30
0.0
 10
328.097110671317
 20
261.2039106082768
 30
0.0
 10
328.5253599789721
 20
261.3451250289971
 30
0.0
 10
328.936309736715
 20
261.5107739786937
 30
0.0
 10
329.3193229439394
 20
261.6968427730291
 30
0.0
 10
329.6795498021715
 20
261.9055885024607
 30
0.0
 10
330.0060635215517
 20
262.131021155152
 30
0.0
 10
330.3044696325054
 20
262.3767891328151
 30
0.0
 10
330.5649030905029
 20
262.6351542529147
 30
0.0
 10
330.7920741459195
 20
262.9107538383643
 30
0.0
 10
330.9785418811625
 20
263.1949005041222
 30
0.0
 10
331.1270647492615
 20
263.4920606934413
 30
0.0
 10
331.2327721301202
 20
263.794065840774
 30
0.0
 10
331.2995000632654
 20
264.1032854362014
 30
0.0
 10
331.3079328147047
 20
264.3104716883779
 30
0.0
 10
331.3121488653215
 20
264.414056720196
 30
0.0
 11
331.3121488653215
 21
264.414056720196
 31
0.0
 11
331.2906422531082
 21
264.7238416692707
 31
0.0
 11
331.2276473259767
 21
265.0279650392519
 31
0.0
 11
331.1207582436978
 21
265.3333761495521
 31
0.0
 11
330.9767102444553
 21
265.6232200646859
 31
0.0
 11
330.7870405604292
 21
265.9135895767734
 31
0.0
 11
330.5669622169992
 21
266.1817352737638
 31
0.0
 11
330.3006100174694
 21
266.4469970852302
 31
0.0
 11
330.01085323008
 21
266.6865404644801
 31
0.0
 11
329.6767035876477
 21
266.9179816081942
 31
0.0
 11
329.3252803738606
 21
267.1222973865586
 31
0.0
 11
328.9342941660457
 21
267.3127540264355
 31
0.0
 11
328.5310744326606
 21
267.4757657864254
 31
0.0
 11
328.0957746559368
 21
267.6196447767564
 31
0.0
 11
327.6523669521158
 21
267.7362057056143
 31
0.0
 11
327.1864222480742
 21
267.8295023800777
 31
0.0
 11
326.715857014375
 21
267.89570380897
 31
0.0
 11
326.2336787362117
 21
267.9360333571876
 31
0.0
 11
325.7499999999997
 21
267.9494138273316
 31
0.0
 11
325.2663212637876
 21
267.9360333571876
 31
0.0
 11
324.7841429856244
 21
267.89570380897
 31
0.0
 11
324.3135777519254
 21
267.8295023800777
 31
0.0
 11
323.8476330478837
 21
267.7362057056143
 31
0.0
 11
323.4042253440628
 21
267.6196447767564
 31
0.0
 11
322.9689255673389
 21
267.4757657864254
 31
0.0
 11
322.5657058339538
 21
267.3127540264355
 31
0.0
 11
322.1747196261388
 21
267.1222973865586
 31
0.0
 11
321.8232964123518
 21
266.9179816081942
 31
0.0
 11
321.4891467699195
 21
266.6865404644801
 31
0.0
 11
321.1993899825301
 21
266.4469970852302
 31
0.0
 11
320.9330377830003
 21
266.1817352737638
 31
0.0
 11
320.7129594395702
 21
265.9135895767733
 31
0.0
 11
320.5232897555441
 21
265.6232200646859
 31
0.0
 11
320.3792417563016
 21
265.3333761495521
 31
0.0
 11
320.2723526740228
 21
265.0279650392519
 31
0.0
 11
320.2093577468913
 21
264.7238416692707
 31
0.0
 11
320.187851134678
 21
264.414056720196
 31
0.0
 11
320.2093577468913
 21
264.1042717711213
 31
0.0
 11
320.2723526740228
 21
263.80014840114
 31
0.0
 11
320.3792417563017
 21
263.4947372908398
 31
0.0
 11
320.5232897555441
 21
263.2048933757059
 31
0.0
 11
320.7129594395702
 21
262.9145238636185
 31
0.0
 11
320.9330377830003
 21
262.646378166628
 31
0.0
 11
321.1993899825301
 21
262.3811163551616
 31
0.0
 11
321.4891467699195
 21
262.1415729759117
 31
0.0
 11
321.8232964123518
 21
261.9101318321977
 31
0.0
 11
322.1747196261388
 21
261.7058160538334
 31
0.0
 11
322.5657058339538
 21
261.5153594139564
 31
0.0
 11
322.9689255673389
 21
261.3523476539664
 31
0.0
 11
323.4042253440627
 21
261.2084686636353
 31
0.0
 11
323.8476330478837
 21
261.0919077347774
 31
0.0
 11
324.3135777519253
 21
260.9986110603141
 31
0.0
 11
324.7841429856244
 21
260.9324096314218
 31
0.0
 11
325.2663212637876
 21
260.8920800832042
 31
0.0
 11
325.7499999999997
 21
260.8786996130602
 31
0.0
 11
326.2336787362117
 21
260.8920800832042
 31
0.0
 11
326.715857014375
 21
260.9324096314218
 31
0.0
 11
327.1864222480741
 21
260.9986110603141
 31
0.0
 11
327.6523669521158
 21
261.0919077347774
 31
0.0
 11
328.0957746559369
 21
261.2084686636353
 31
0.0
 11
328.5310744326606
 21
261.3523476539664
 31
0.0
 11
328.9342941660457
 21
261.5153594139564
 31
0.0
 11
329.3252803738606
 21
261.7058160538334
 31
0.0
 11
329.6767035876477
 21
261.9101318321977
 31
0.0
 11
330.01085323008
 21
262.1415729759117
 31
0.0
 11
330.3006100174695
 21
262.3811163551617
 31
0.0
 11
330.5669622169992
 21
262.646378166628
 31
0.0
 11
330.7870405604293
 21
262.9145238636185
 31
0.0
 11
330.9767102444553
 21
263.2048933757059
 31
0.0
 11
331.1207582436978
 21
263.4947372908398
 31
0.0
 11
331.2276473259767
 21
263.80014840114
 31
0.0
 11
331.2906422531082
 21
264.1042717711213
 31
0.0
 11
331.3121488653215
 21
264.414056720196
 31
0.0
  0
ENDBLK
  5
58
330
56
100
AcDbEntity
  8
0
100
AcDbBlockEnd
  0
BLOCK
  5
5A
330
59
100
AcDbEntity
  8
0
100
AcDbBlockBegin
  2
36-1A-13-M11
 70
     0
 10
262.6321260094359
 20
132.809573603624
 30
0.0
  3
36-1A-13-M11
  1

  0
LINE
  5
218
330
59
100
AcDbEntity
  8
1
  6
Continuous
 62
     7
100
AcDbLine
 10
336.9999999999996
 20
277.8786996130602
 30
0.0
 11
336.9999999999996
 21
274.8786996130602
 31
0.0
  0
LINE
  5
219
330
59
100
AcDbEntity
  8
1
  6
Continuous
 62
     7
100
AcDbLine
 10
327.4999999999996
 20
274.8786996130602
 30
0.0
 11
327.4999999999996
 21
277.8786996130602
 31
0.0
  0
LINE
  5
21A
330
59
100
AcDbEntity
  8
1
  6
Continuous
 62
     7
100
AcDbLine
 10
164.9999999999998
 20
277.8786996130602
 30
0.0
 11
164.9999999999998
 21
274.8786996130602
 31
0.0
  0
LINE
  5
21B
330
59
100
AcDbEntity
  8
1
  6
Continuous
 62
     7
100
AcDbLine
 10
155.4999999999998
 20
274.8786996130602
 30
0.0
 11
155.4999999999998
 21
277.8786996130602
 31
0.0
  0
LINE
  5
21C
330
59
100
AcDbEntity
  8
1
  6
Continuous
 62
     7
100
AcDbLine
 10
326.8923091492531
 20
238.8786996130602
 30
0.0
 11
337.8408261721198
 21
238.8786996130602
 31
0.0
  0
ENDBLK
  5
5B
330
59
100
AcDbEntity
  8
0
100
AcDbBlockEnd
  0
BLOCK
  5
61
330
5C
100
AcDbEntity
  8
0
100
AcDbBlockBegin
  2
R10AK-13Z
 70
     0
 10
-95.32260273972639
 20
579.1096292402368
 30
0.0
  3
R10AK-13Z
  1

  0
INSERT
  5
5D
330
5C
100
AcDbEntity
  8
0
100
AcDbBlockReference
  2
42-15
 10
-11.68817991347808
 20
565.9764017366709
 30
0.0
  0
INSERT
  5
5E
330
5C
100
AcDbEntity
  8
0
100
AcDbBlockReference
  2
21-1C
 10
96.1971914527621
 20
474.5953528673274
 30
0.0
  0
INSERT
  5
5F
330
5C
100
AcDbEntity
  8
1
100
AcDbBlockReference
  2
37-1-13
 10
189.2698425388217
 20
258.2886666674796
 30
0.0
  0
INSERT
  5
60
330
5C
100
AcDbEntity
  8
0
100
AcDbBlockReference
  2
36-1A-13-M11
 10
262.6321260094359
 20
132.809573603624
 30
0.0
  0
ENDBLK
  5
62
330
5C
100
AcDbEntity
  8
0
100
AcDbBlockEnd
  0
BLOCK
  5
246
330
23F
100
AcDbEntity
  8
0
100
AcDbBlockBegin
  2
*D9
 70
     1
 10
0.0
 20
0.0
 30
0.0
  3
*D9
  1

  0
LINE
  5
240
330
23F
100
AcDbEntity
  8
1
  6
Continuous
 62
     2
100
AcDbLine
 10
276.7499999999997
 20
246.8786996130602
 30
0.0
 11
276.7499999999997
 21
223.8786996130601
 31
0.0
  0
LINE
  5
241
330
23F
100
AcDbEntity
  8
1
  6
Continuous
 62
     2
100
AcDbLine
 10
296.7499999999997
 20
223.8786996130601
 30
0.0
 11
274.7499999999997
 21
223.8786996130601
 31
0.0
  0
LINE
  5
242
330
23F
100
AcDbEntity
  8
1
  6
Continuous
 62
     2
100
AcDbLine
 10
296.7499999999997
 20
246.8786996130602
 30
0.0
 11
274.7499999999997
 21
246.8786996130602
 31
0.0
  0
SOLID
  5
243
330
23F
100
AcDbEntity
  8
1
 62
     2
100
AcDbTrace
 10
277.6715674831115
 20
239.8786996130602
 30
0.0
 11
275.828432516888
 21
239.8786996130602
 31
0.0
 12
276.7499999999997
 22
246.8786996130602
 32
0.0
 13
276.7499999999997
 23
246.8786996130602
 33
0.0
  0
SOLID
  5
244
330
23F
100
AcDbEntity
  8
1
 62
     2
100
AcDbTrace
 10
275.828432516888
 20
230.8786996130601
 30
0.0
 11
277.6715674831115
 21
230.8786996130601
 31
0.0
 12
276.7499999999997
 22
223.8786996130601
 32
0.0
 13
276.7499999999997
 23
223.8786996130601
 33
0.0
  0
MTEXT
  5
245
330
23F
100
AcDbEntity
  8
1
 62
     7
100
AcDbMText
 10
274.7499999999997
 20
230.1286996130602
 30
0.0
 40
7.0
 41
0.0
 71
     7
 72
     1
  1
23
  7
CONVERTER_12
 11
0.0
 21
1.0
 31
0.0
 73
     1
 44
0.60024009603842
  0
ENDBLK
  5
247
330
23F
100
AcDbEntity
  8
0
100
AcDbBlockEnd
  0
BLOCK
  5
251
330
24A
100
AcDbEntity
  8
0
100
AcDbBlockBegin
  2
*D10
 70
     1
 10
0.0
 20
0.0
 30
0.0
  3
*D10
  1

  0
LINE
  5
24B
330
24A
100
AcDbEntity
  8
1
  6
Continuous
 62
     2
100
AcDbLine
 10
296.7499999999997
 20
202.3786996130602
 30
0.0
 11
332.3665676606863
 21
202.3786996130602
 31
0.0
  0
LINE
  5
24C
330
24A
100
AcDbEntity
  8
1
  6
Continuous
 62
     2
100
AcDbLine
 10
332.3665676606863
 20
216.3786996130602
 30
0.0
 11
332.3665676606863
 21
200.3786996130602
 31
0.0
  0
LINE
  5
24D
330
24A
100
AcDbEntity
  8
1
  6
Continuous
 62
     2
100
AcDbLine
 10
296.7499999999997
 20
223.8786996130601
 30
0.0
 11
296.7499999999997
 21
200.3786996130602
 31
0.0
  0
SOLID
  5
24E
330
24A
100
AcDbEntity
  8
1
 62
     2
100
AcDbTrace
 10
303.7499999999997
 20
203.300267096172
 30
0.0
 11
303.7499999999997
 21
201.4571321299484
 31
0.0
 12
296.7499999999997
 22
202.3786996130602
 32
0.0
 13
296.7499999999997
 23
202.3786996130602
 33
0.0
  0
SOLID
  5
24F
330
24A
100
AcDbEntity
  8
1
 62
     2
100
AcDbTrace
 10
325.3665676606863
 20
201.4571321299484
 30
0.0
 11
325.3665676606863
 21
203.300267096172
 31
0.0
 12
332.3665676606863
 22
202.3786996130602
 32
0.0
 13
332.3665676606863
 23
202.3786996130602
 33
0.0
  0
MTEXT
  5
250
330
24A
100
AcDbEntity
  8
1
 62
     7
100
AcDbMText
 10
309.308283830343
 20
204.3786996130602
 30
0.0
 40
7.0
 41
0.0
 71
     7
 72
     1
  1
36
  7
CONVERTER_12
 11
0.9999999999970619
 21
2.424068405545306E-6
 31
0.0
 73
     1
 44
0.60024009603842
  0
ENDBLK
  5
252
330
24A
100
AcDbEntity
  8
0
100
AcDbBlockEnd
  0
BLOCK
  5
25C
330
255
100
AcDbEntity
  8
0
100
AcDbBlockBegin
  2
*D11
 70
     1
 10
0.0
 20
0.0
 30
0.0
  3
*D11
  1

  0
LINE
  5
256
330
255
100
AcDbEntity
  8
1
  6
Continuous
 62
     2
100
AcDbLine
 10
276.7500000000119
 20
368.0000000000034
 30
0.0
 11
276.7500000000119
 21
334.9999999999999
 31
0.0
  0
LINE
  5
257
330
255
100
AcDbEntity
  8
1
  6
Continuous
 62
     2
100
AcDbLine
 10
323.0285676606862
 20
334.9999999999999
 30
0.0
 11
274.7500000000119
 21
334.9999999999999
 31
0.0
  0
LINE
  5
258
330
255
100
AcDbEntity
  8
1
  6
Continuous
 62
     2
100
AcDbLine
 10
290.8665676606986
 20
368.0000000000034
 30
0.0
 11
274.7500000000119
 21
368.0000000000034
 31
0.0
  0
SOLID
  5
259
330
255
100
AcDbEntity
  8
1
 62
     2
100
AcDbTrace
 10
277.6715674831236
 20
361.0000000000034
 30
0.0
 11
275.8284325169001
 21
361.0000000000034
 31
0.0
 12
276.7500000000119
 22
368.0000000000034
 32
0.0
 13
276.7500000000119
 23
368.0000000000034
 33
0.0
  0
SOLID
  5
25A
330
255
100
AcDbEntity
  8
1
 62
     2
100
AcDbTrace
 10
275.8284325169001
 20
341.9999999999999
 30
0.0
 11
277.6715674831236
 21
341.9999999999999
 31
0.0
 12
276.7500000000119
 22
334.9999999999999
 32
0.0
 13
276.7500000000119
 23
334.9999999999999
 33
0.0
  0
MTEXT
  5
25B
330
255
100
AcDbEntity
  8
1
 62
     7
100
AcDbMText
 10
274.7500000000119
 20
346.2500000000015
 30
0.0
 40
7.0
 41
0.0
 71
     7
 72
     1
  1
33
  7
CONVERTER_12
 11
0.0
 21
1.0
 31
0.0
 73
     1
 44
0.60024009603842
  0
ENDBLK
  5
25D
330
255
100
AcDbEntity
  8
0
100
AcDbBlockEnd
  0
BLOCK
  5
267
330
260
100
AcDbEntity
  8
0
100
AcDbBlockBegin
  2
*D12
 70
     1
 10
0.0
 20
0.0
 30
0.0
  3
*D12
  1

  0
LINE
  5
261
330
260
100
AcDbEntity
  8
1
  6
Continuous
 62
     2
100
AcDbLine
 10
276.7500000000119
 20
402.9999999999999
 30
0.0
 11
276.7500000000119
 21
368.0000000000034
 31
0.0
  0
LINE
  5
262
330
260
100
AcDbEntity
  8
1
  6
Continuous
 62
     2
100
AcDbLine
 10
290.8665676606986
 20
368.0000000000034
 30
0.0
 11
274.7500000000119
 21
368.0000000000034
 31
0.0
  0
LINE
  5
263
330
260
100
AcDbEntity
  8
1
  6
Continuous
 62
     2
100
AcDbLine
 10
321.1082374114895
 20
402.9999999999999
 30
0.0
 11
274.7500000000119
 21
402.9999999999999
 31
0.0
  0
SOLID
  5
264
330
260
100
AcDbEntity
  8
1
 62
     2
100
AcDbTrace
 10
277.6715674831236
 20
395.9999999999999
 30
0.0
 11
275.8284325169001
 21
395.9999999999999
 31
0.0
 12
276.7500000000119
 22
402.9999999999999
 32
0.0
 13
276.7500000000119
 23
402.9999999999999
 33
0.0
  0
SOLID
  5
265
330
260
100
AcDbEntity
  8
1
 62
     2
100
AcDbTrace
 10
275.8284325169001
 20
375.0000000000034
 30
0.0
 11
277.6715674831236
 21
375.0000000000034
 31
0.0
 12
276.7500000000119
 22
368.0000000000034
 32
0.0
 13
276.7500000000119
 23
368.0000000000034
 33
0.0
  0
MTEXT
  5
266
330
260
100
AcDbEntity
  8
1
 62
     7
100
AcDbMText
 10
274.7500000000119
 20
380.2500000000015
 30
0.0
 40
7.0
 41
0.0
 71
     7
 72
     1
  1
35
  7
CONVERTER_12
 11
0.0
 21
1.0
 31
0.0
 73
     1
 44
0.60024009603842
  0
ENDBLK
  5
268
330
260
100
AcDbEntity
  8
0
100
AcDbBlockEnd
  0
BLOCK
  5
272
330
26B
100
AcDbEntity
  8
0
100
AcDbBlockBegin
  2
*D13
 70
     1
 10
0.0
 20
0.0
 30
0.0
  3
*D13
  1

  0
LINE
  5
26C
330
26B
100
AcDbEntity
  8
1
  6
Continuous
 62
     2
100
AcDbLine
 10
193.3665676606864
 20
202.3786996130602
 30
0.0
 11
125.3665676606865
 21
202.3786996130602
 31
0.0
  0
LINE
  5
26D
330
26B
100
AcDbEntity
  8
1
  6
Continuous
 62
     2
100
AcDbLine
 10
193.3665676606864
 20
226.0631996130601
 30
0.0
 11
193.3665676606864
 21
200.3786996130602
 31
0.0
  0
LINE
  5
26E
330
26B
100
AcDbEntity
  8
1
  6
Continuous
 62
     2
100
AcDbLine
 10
125.3665676606865
 20
222.3786996130602
 30
0.0
 11
125.3665676606865
 21
200.3786996130602
 31
0.0
  0
SOLID
  5
26F
330
26B
100
AcDbEntity
  8
1
 62
     2
100
AcDbTrace
 10
186.3665676606864
 20
201.4571321299484
 30
0.0
 11
186.3665676606864
 21
203.300267096172
 31
0.0
 12
193.3665676606864
 22
202.3786996130602
 32
0.0
 13
193.3665676606864
 23
202.3786996130602
 33
0.0
  0
SOLID
  5
270
330
26B
100
AcDbEntity
  8
1
 62
     2
100
AcDbTrace
 10
132.3665676606865
 20
203.300267096172
 30
0.0
 11
132.3665676606865
 21
201.4571321299484
 31
0.0
 12
125.3665676606865
 22
202.3786996130602
 32
0.0
 13
125.3665676606865
 23
202.3786996130602
 33
0.0
  0
MTEXT
  5
271
330
26B
100
AcDbEntity
  8
1
 62
     7
100
AcDbMText
 10
154.3346577432367
 20
204.3786996130602
 30
0.0
 40
7.0
 41
0.0
 71
     7
 72
     1
  1
68
  7
CONVERTER_12
 11
0.9999999999970619
 21
2.424068405545306E-6
 31
0.0
 73
     1
 44
0.60024009603842
  0
ENDBLK
  5
273
330
26B
100
AcDbEntity
  8
0
100
AcDbBlockEnd
  0
BLOCK
  5
27D
330
276
100
AcDbEntity
  8
0
100
AcDbBlockBegin
  2
*D14
 70
     1
 10
0.0
 20
0.0
 30
0.0
  3
*D14
  1

  0
LINE
  5
277
330
276
100
AcDbEntity
  8
1
  6
Continuous
 62
     2
100
AcDbLine
 10
105.3665676606865
 20
222.3786996130602
 30
0.0
 11
105.3665676606865
 21
248.3786996130602
 31
0.0
  0
LINE
  5
278
330
276
100
AcDbEntity
  8
1
  6
Continuous
 62
     2
100
AcDbLine
 10
126.5276808278879
 20
248.3786996130602
 30
0.0
 11
103.3665676606865
 21
248.3786996130602
 31
0.0
  0
LINE
  5
279
330
276
100
AcDbEntity
  8
1
  6
Continuous
 62
     2
100
AcDbLine
 10
125.3665676606865
 20
222.3786996130602
 30
0.0
 11
103.3665676606865
 21
222.3786996130602
 31
0.0
  0
SOLID
  5
27A
330
276
100
AcDbEntity
  8
1
 62
     2
100
AcDbTrace
 10
104.4450001775747
 20
229.3786996130602
 30
0.0
 11
106.2881351437983
 21
229.3786996130602
 31
0.0
 12
105.3665676606865
 22
222.3786996130602
 32
0.0
 13
105.3665676606865
 23
222.3786996130602
 33
0.0
  0
SOLID
  5
27B
330
276
100
AcDbEntity
  8
1
 62
     2
100
AcDbTrace
 10
106.2881351437983
 20
241.3786996130602
 30
0.0
 11
104.4450001775747
 21
241.3786996130602
 31
0.0
 12
105.3665676606865
 22
248.3786996130602
 32
0.0
 13
105.3665676606865
 23
248.3786996130602
 33
0.0
  0
MTEXT
  5
27C
330
276
100
AcDbEntity
  8
1
 62
     7
100
AcDbMText
 10
103.3665676606865
 20
230.1286996130602
 30
0.0
 40
7.0
 41
0.0
 71
     7
 72
     1
  1
26
  7
CONVERTER_12
 11
0.0
 21
1.0
 31
0.0
 73
     1
 44
0.60024009603842
  0
ENDBLK
  5
27E
330
276
100
AcDbEntity
  8
0
100
AcDbBlockEnd
  0
BLOCK
  5
28A
330
281
100
AcDbEntity
  8
0
100
AcDbBlockBegin
  2
*D15
 70
     1
 10
0.0
 20
0.0
 30
0.0
  3
*D15
  1

  0
LINE
  5
282
330
281
100
AcDbEntity
  8
1
  6
Continuous
 62
     2
100
AcDbLine
 10
360.0172027552995
 20
343.9999999999999
 30
0.0
 11
360.0172027552995
 21
357.9999999999999
 31
0.0
  0
LINE
  5
283
330
281
100
AcDbEntity
  8
1
  6
Continuous
 62
     2
100
AcDbLine
 10
360.0172027552995
 20
334.9999999999999
 30
0.0
 11
360.0172027552995
 21
343.9999999999999
 31
0.0
  0
LINE
  5
284
330
281
100
AcDbEntity
  8
1
  6
Continuous
 62
     2
100
AcDbLine
 10
360.0172027552995
 20
320.9999999999999
 30
0.0
 11
360.0172027552995
 21
334.9999999999999
 31
0.0
  0
LINE
  5
285
330
281
100
AcDbEntity
  8
1
  6
Continuous
 62
     2
100
AcDbLine
 10
342.8440676606862
 20
343.9999999999999
 30
0.0
 11
362.0172027552995
 21
343.9999999999999
 31
0.0
  0
LINE
  5
286
330
281
100
AcDbEntity
  8
1
  6
Continuous
 62
     2
100
AcDbLine
 10
341.7045676606862
 20
334.9999999999999
 30
0.0
 11
362.0172027552995
 21
334.9999999999999
 31
0.0
  0
SOLID
  5
287
330
281
100
AcDbEntity
  8
1
 62
     2
100
AcDbTrace
 10
360.9387702384112
 20
327.9999999999999
 30
0.0
 11
359.0956352721877
 21
327.9999999999999
 31
0.0
 12
360.0172027552995
 22
334.9999999999999
 32
0.0
 13
360.0172027552995
 23
334.9999999999999
 33
0.0
  0
SOLID
  5
288
330
281
100
AcDbEntity
  8
1
 62
     2
100
AcDbTrace
 10
359.0956352721877
 20
350.9999999999999
 30
0.0
 11
360.9387702384112
 21
350.9999999999999
 31
0.0
 12
360.0172027552995
 22
343.9999999999999
 32
0.0
 13
360.0172027552995
 23
343.9999999999999
 33
0.0
  0
MTEXT
  5
289
330
281
100
AcDbEntity
  8
1
 62
     7
100
AcDbMText
 10
358.0172027552995
 20
337.3999999999999
 30
0.0
 40
7.0
 41
0.0
 71
     7
 72
     1
  1
9
  7
CONVERTER_12
 11
0.0
 21
1.0
 31
0.0
 73
     1
 44
0.60024009603842
  0
ENDBLK
  5
28B
330
281
100
AcDbEntity
  8
0
100
AcDbBlockEnd
  0
BLOCK
  5
296
330
28E
100
AcDbEntity
  8
0
100
AcDbBlockBegin
  2
*D16
 70
     1
 10
0.0
 20
0.0
 30
0.0
  3
*D16
  1

  0
LINE
  5
28F
330
28E
100
AcDbEntity
  8
1
  6
Continuous
 62
     2
100
AcDbLine
 10
89.3665676606865
 20
235.3786996130602
 30
0.0
 11
89.3665676606865
 21
292.8786996130602
 31
0.0
  0
LINE
  5
290
330
28E
100
AcDbEntity
  8
1
  6
Continuous
 62
     2
100
AcDbLine
 10
160.2499999999998
 20
292.8786996130602
 30
0.0
 11
87.3665676606865
 21
292.8786996130602
 31
0.0
  0
LINE
  5
291
330
28E
100
AcDbEntity
  8
1
  6
Continuous
 62
     2
100
AcDbLine
 10
93.0
 20
235.3786996130602
 30
0.0
 11
87.3665676606865
 21
235.3786996130602
 31
0.0
  0
LINE
  5
292
330
28E
100
AcDbEntity
  8
1
  6
Continuous
 62
     2
100
AcDbLine
 10
119.3665676606865
 20
235.3786996130602
 30
0.0
 11
107.521316513665
 21
235.3786996130602
 31
0.0
  0
SOLID
  5
293
330
28E
100
AcDbEntity
  8
1
 62
     2
100
AcDbTrace
 10
88.44500017757473
 20
242.3786996130602
 30
0.0
 11
90.28813514379827
 21
242.3786996130602
 31
0.0
 12
89.3665676606865
 22
235.3786996130602
 32
0.0
 13
89.3665676606865
 23
235.3786996130602
 33
0.0
  0
SOLID
  5
294
330
28E
100
AcDbEntity
  8
1
 62
     2
100
AcDbTrace
 10
90.28813514379827
 20
285.8786996130602
 30
0.0
 11
88.44500017757473
 21
285.8786996130602
 31
0.0
 12
89.3665676606865
 22
292.8786996130602
 32
0.0
 13
89.3665676606865
 23
292.8786996130602
 33
0.0
  0
MTEXT
  5
295
330
28E
100
AcDbEntity
  8
1
 62
     7
100
AcDbMText
 10
87.3665676606865
 20
245.2285637321265
 30
0.0
 40
7.0
 41
0.0
 71
     7
 72
     1
  1
58リフト5
  7
CONVERTER_11
 11
0.0
 21
1.0
 31
0.0
 73
     1
 44
0.45454545454545
  0
ENDBLK
  5
297
330
28E
100
AcDbEntity
  8
0
100
AcDbBlockEnd
  0
ENDSEC
  0
SECTION
  2
ENTITIES
  0
INSERT
  5
63
330
1F
100
AcDbEntity
  8
0
100
AcDbBlockReference
  2
B41A-24-1
 10
167.3282194634427
 20
588.5791915899733
 30
0.0
  0
INSERT
  5
64
330
1F
100
AcDbEntity
  8
1
100
AcDbBlockReference
  2
開示A4
 10
0.0
 20
0.0
 30
0.0
 41
2.0
 42
2.0
 43
2.0
  0
INSERT
  5
65
330
1F
100
AcDbEntity
  8
1
100
AcDbBlockReference
  2
B4111R-0-13
 10
1270.372663354208
 20
275.9673580576211
 30
0.0
  0
INSERT
  5
66
330
1F
100
AcDbEntity
  8
0
100
AcDbBlockReference
  2
R10AK-13Z
 10
-95.32260273972639
 20
579.1096292402368
 30
0.0
  0
LINE
  5
21D
330
1F
100
AcDbEntity
  8
0
  6
Continuous
 62
     7
100
AcDbLine
 10
383.9742944855921
 20
543.038467965741
 30
0.0
 11
383.9742944855923
 21
495.0384679657413
 31
0.0
  0
LINE
  5
21E
330
1F
100
AcDbEntity
  8
0
  6
Continuous
 62
     7
100
AcDbLine
 10
262.9742944855921
 20
495.0384679657411
 30
0.0
 11
383.9742944855923
 21
495.0384679657413
 31
0.0
  0
LINE
  5
21F
330
1F
100
AcDbEntity
  8
1
  6
Continuous
 62
     2
100
AcDbLine
 10
335.4742944855921
 20
495.0384679657411
 30
0.0
 11
335.4742944855921
 21
543.038467965741
 31
0.0
  0
LINE
  5
220
330
1F
100
AcDbEntity
  8
0
  6
Continuous
 62
     7
100
AcDbLine
 10
262.9742944855921
 20
543.038467965741
 30
0.0
 11
383.9742944855921
 21
543.038467965741
 31
0.0
  0
LINE
  5
221
330
1F
100
AcDbEntity
  8
0
  6
Continuous
 62
     2
100
AcDbLine
 10
262.9742944855921
 20
527.038467965741
 30
0.0
 11
383.9742944855921
 21
527.038467965741
 31
0.0
  0
LINE
  5
222
330
1F
100
AcDbEntity
  8
0
  6
Continuous
 62
     2
100
AcDbLine
 10
262.9742944855921
 20
511.038467965741
 30
0.0
 11
383.9742944855921
 21
511.038467965741
 31
0.0
  0
LINE
  5
223
330
1F
100
AcDbEntity
  8
0
  6
Continuous
 62
     7
100
AcDbLine
 10
262.9742944855921
 20
543.038467965741
 30
0.0
 11
262.9742944855921
 21
495.0384679657411
 31
0.0
  0
LINE
  5
224
330
1F
100
AcDbEntity
  8
1
  6
DASH_CENTER
 62
     2
100
AcDbLine
 10
349.6599451571336
 20
358.0156638472295
 30
0.0
 11
300.3236277206642
 21
386.4999999999998
 31
0.0
  0
LINE
  5
225
330
1F
100
AcDbEntity
  8
1
  6
DASH_CENTER
 62
     2
100
AcDbLine
 10
315.0731901642429
 20
358.0156638472294
 30
0.0
 11
364.4095076007127
 21
386.5000000000001
 31
0.0
  0
LINE
  5
226
330
1F
100
AcDbEntity
  8
1
  6
DASH_CENTER
 62
     2
100
AcDbLine
 10
356.0024841295358
 20
367.9999999999998
 30
0.0
 11
290.8665676606986
 21
368.0000000000034
 31
0.0
  0
LINE
  5
227
330
1F
100
AcDbEntity
  8
0
  6
DASH_CENTER
 62
     2
100
AcDbLine
 10
332.3665676606863
 20
216.3786996130602
 30
0.0
 11
332.3665676606864
 21
298.8784278511927
 31
0.0
  0
LINE
  5
228
330
1F
100
AcDbEntity
  8
0
  6
DASH_CENTER
 62
     2
100
AcDbLine
 10
160.3665676606865
 20
216.3786996130602
 30
0.0
 11
160.3665676606865
 21
298.8784278511927
 31
0.0
  0
LINE
  5
229
330
1F
100
AcDbEntity
  8
1
  6
DASH_CENTER
 62
     2
100
AcDbLine
 10
199.3665676606864
 20
235.3786996130602
 30
0.0
 11
119.3665676606865
 21
235.3786996130602
 31
0.0
  0
LINE
  5
22A
330
1F
100
AcDbEntity
  8
1
  6
DASH_CENTER
 62
     2
100
AcDbLine
 10
352.8665676606864
 20
235.3786996130602
 30
0.0
 11
290.7499999999997
 21
235.3786996130602
 31
0.0
  0
LINE
  5
22B
330
1F
100
AcDbEntity
  8
0
  6
DASH_CENTER
 62
     2
100
AcDbLine
 10
332.3665676606864
 20
329.5000000000123
 30
0.0
 11
332.3665676606864
 21
405.9999999999999
 31
0.0
  0
SOLID
  5
22C
330
1F
100
AcDbEntity
  8
1
 62
     2
100
AcDbTrace
 10
122.5481008516763
 20
223.3612915444781
 30
0.0
 11
120.9518991483233
 21
224.2828590275899
 31
0.0
 12
125.2499999999998
 22
229.8842531125251
 32
0.0
 13
125.2499999999998
 23
229.8842531125251
 33
0.0
  0
LEADER
  5
22D
330
1F
100
AcDbEntity
  8
1
  6
Continuous
 62
     2
100
AcDbLeader
  3
Standard
 71
     0
 76
     3
 10
125.2499999999998
 20
229.8842531125251
 30
0.0
 10
109.3696612828741
 20
202.3786996130602
 30
0.0
 10
82.12662263746599
 20
202.3786996130602
 30
0.0
  0
SOLID
  5
22E
330
1F
100
AcDbEntity
  8
1
 62
     2
100
AcDbTrace
 10
191.1797411104876
 20
252.3791611811071
 30
0.0
 11
192.7759428138405
 21
251.4575936979953
 31
0.0
 12
188.4778419621641
 22
245.8561996130601
 32
0.0
 13
188.4778419621641
 23
245.8561996130601
 33
0.0
  0
LEADER
  5
22F
330
1F
100
AcDbEntity
  8
1
  6
Continuous
 62
     2
100
AcDbLeader
  3
Standard
 71
     0
 76
     3
 10
188.4778419621641
 20
245.8561996130601
 30
0.0
 10
198.1490027339103
 20
262.6071414378916
 30
0.0
 10
219.3020667221875
 20
262.6071414378916
 30
0.0
  0
MTEXT
  5
231
330
1F
100
AcDbEntity
  8
1
 62
     7
100
AcDbMText
 10
299.2242944855921
 20
503.2633301028342
 30
0.0
 40
7.0
 41
0.0
 71
     5
 72
     1
  1
B4111-R-13-B
  7
CONVERTER_12
 73
     1
 44
0.7202881152461
  0
MTEXT
  5
232
330
1F
100
AcDbEntity
  8
1
 62
     7
100
AcDbMText
 10
299.2242944855921
 20
519.2633301028342
 30
0.0
 40
7.0
 41
0.0
 71
     5
 72
     1
  1
B4111-R-13
  7
CONVERTER_12
 73
     1
 44
0.7202881152461
  0
MTEXT
  5
233
330
1F
100
AcDbEntity
  8
1
 62
     2
100
AcDbMText
 10
299.2242944855921
 20
535.038467965741
 30
0.0
 40
7.0
 41
0.0
 71
     5
 72
     1
  1
品番
  7
CONVERTER_11
 73
     1
 44
0.54545454545455
  0
MTEXT
  5
234
330
1F
100
AcDbEntity
  8
1
 62
     2
100
AcDbMText
 10
359.7242944855921
 20
536.0384679657415
 30
0.0
 40
7.0
 41
0.0
 71
     5
 72
     1
  1
ビスの色
  7
CONVERTER_11
 73
     1
 44
0.54545454545455
  0
MTEXT
  5
235
330
1F
100
AcDbEntity
  8
1
 62
     7
100
AcDbMText
 10
359.7242944855921
 20
519.2633301028342
 30
0.0
 40
7.0
 41
0.0
 71
     5
 72
     1
  1
無地
  7
CONVERTER_11
 73
     1
 44
0.54545454545455
  0
MTEXT
  5
236
330
1F
100
AcDbEntity
  8
1
 62
     7
100
AcDbMText
 10
359.7242944855921
 20
503.2633301028342
 30
0.0
 40
7.0
 41
0.0
 71
     5
 72
     1
  1
青
  7
CONVERTER_11
 73
     1
 44
0.54545454545455
  0
MTEXT
  5
237
330
1F
100
AcDbEntity
  8
1
 62
     7
100
AcDbMText
 10
68.0
 20
61.00000000000001
 30
0.0
 40
7.0
 41
0.0
 71
     4
 72
     1
  1
共用形
  7
CONVERTER_11
 73
     1
 44
0.54545454545455
  0
MTEXT
  5
238
330
1F
100
AcDbEntity
  8
1
 62
     7
100
AcDbMText
 10
114.0
 20
28.50000000000002
 30
0.0
 40
7.0
 41
0.0
 71
     5
 72
     1
  1
B4111-R-13-(色)
  7
CONVERTER_11
 73
     1
 44
0.54545454545455
  0
MTEXT
  5
239
330
1F
100
AcDbEntity
  8
1
 62
     7
100
AcDbMText
 10
68.0
 20
75.0
 30
0.0
 40
7.0
 41
0.0
 71
     4
 72
     1
  1
JIS
  7
CONVERTER_12
 73
     1
 44
0.7202881152461
  0
MTEXT
  5
23A
330
1F
100
AcDbEntity
  8
1
 62
     7
100
AcDbMText
 10
114.0
 20
45.50000000000002
 30
0.0
 40
7.0
 41
0.0
 71
     5
 72
     1
  1
ストレート分岐バルブ
  7
CONVERTER_11
 73
     1
 44
0.54545454545455
  0
MTEXT
  5
23B
330
1F
100
AcDbEntity
  8
1
 62
     7
100
AcDbMText
 10
187.5
 20
34.0
 30
0.0
 40
7.0
 41
0.0
 71
     5
 72
     1
  1
2
  7
CONVERTER_12
 73
     1
 44
0.7202881152461
  0
MTEXT
  5
23C
330
1F
100
AcDbEntity
  8
1
 62
     7
100
AcDbMText
 10
170.5
 20
34.0
 30
0.0
 40
7.0
 41
0.0
 71
     5
 72
     1
  1
1
  7
CONVERTER_12
 73
     1
 44
0.7202881152461
  0
MTEXT
  5
23D
330
1F
100
AcDbEntity
  8
1
 62
     7
100
AcDbMText
 10
209.2980832630215
 20
267.0902581413342
 30
0.0
 40
6.0
 41
0.0
 71
     5
 72
     1
  1
G1/2
  7
CONVERTER_12
 73
     1
 44
0.7202881152461
  0
MTEXT
  5
23E
330
1F
100
AcDbEntity
  8
1
 62
     7
100
AcDbMText
 10
95.19265098536
 20
208.3786996130602
 30
0.0
 40
6.0
 41
0.0
 71
     5
 72
     1
  1
Rc1/2
  7
CONVERTER_12
 73
     1
 44
0.7202881152461
  0
DIMENSION
  5
249
330
1F
100
AcDbEntity
  8
1
100
AcDbDimension
  2
*D9
 10
276.7499999999997
 20
246.8786996130602
 30
0.0
 11
271.2499999999997
 21
235.3786996130602
 31
0.0
 70
    32
  1
<>
 71
     5
 42
-1.0
 53
90.0
  3
ME10_DIM_10
100
AcDbAlignedDimension
 13
296.7499999999997
 23
223.8786996130601
 33
0.0
 14
296.7499999999997
 24
246.8786996130602
 34
0.0
 50
90.0
100
AcDbRotatedDimension
  0
DIMENSION
  5
254
330
1F
100
AcDbEntity
  8
1
100
AcDbDimension
  2
*D10
 10
296.7499999999997
 20
202.3786996130602
 30
0.0
 11
314.558283830343
 21
207.8786996130602
 31
0.0
 70
    32
  1
36
 71
     5
 42
-1.0
 53
0.00013888888889
  3
ME10_DIM_11
100
AcDbAlignedDimension
 13
332.3665676606863
 23
216.3786996130602
 33
0.0
 14
296.7499999999997
 24
223.8786996130601
 34
0.0
100
AcDbRotatedDimension
  0
DIMENSION
  5
25F
330
1F
100
AcDbEntity
  8
1
100
AcDbDimension
  2
*D11
 10
276.7500000000119
 20
368.0000000000034
 30
0.0
 11
271.2500000000119
 21
351.5000000000015
 31
0.0
 70
    32
  1
<>
 71
     5
 42
-1.0
 53
90.0
  3
ME10_DIM_12
100
AcDbAlignedDimension
 13
323.0285676606862
 23
334.9999999999999
 33
0.0
 14
290.8665676606986
 24
368.0000000000034
 34
0.0
 50
90.0
100
AcDbRotatedDimension
  0
DIMENSION
  5
26A
330
1F
100
AcDbEntity
  8
1
100
AcDbDimension
  2
*D12
 10
276.7500000000119
 20
402.9999999999999
 30
0.0
 11
271.2500000000119
 21
385.5000000000015
 31
0.0
 70
    32
  1
<>
 71
     5
 42
-1.0
 53
90.0
  3
ME10_DIM_13
100
AcDbAlignedDimension
 13
290.8665676606986
 23
368.0000000000034
 33
0.0
 14
321.1082374114895
 24
402.9999999999999
 34
0.0
 50
90.0
100
AcDbRotatedDimension
  0
DIMENSION
  5
275
330
1F
100
AcDbEntity
  8
1
100
AcDbDimension
  2
*D13
 10
193.3665676606864
 20
202.3786996130602
 30
0.0
 11
159.5846577432367
 21
207.8786996130602
 31
0.0
 70
    32
  1
<>
 71
     5
 42
-1.0
 53
0.00013888888889
  3
ME10_DIM_14
100
AcDbAlignedDimension
 13
125.3665676606865
 23
222.3786996130602
 33
0.0
 14
193.3665676606864
 24
226.0631996130601
 34
0.0
100
AcDbRotatedDimension
  0
DIMENSION
  5
280
330
1F
100
AcDbEntity
  8
1
100
AcDbDimension
  2
*D14
 10
105.3665676606865
 20
222.3786996130602
 30
0.0
 11
99.8665676606865
 21
235.3786996130602
 31
0.0
 70
    32
  1
<>
 71
     5
 42
-1.0
 53
90.0
  3
ME10_DIM_15
100
AcDbAlignedDimension
 13
126.5276808278879
 23
248.3786996130602
 33
0.0
 14
125.3665676606865
 24
222.3786996130602
 34
0.0
 50
90.0
100
AcDbRotatedDimension
  0
DIMENSION
  5
28D
330
1F
100
AcDbEntity
  8
1
100
AcDbDimension
  2
*D15
 10
360.0172027552995
 20
334.9999999999999
 30
0.0
 11
354.5172027552995
 21
339.4999999999999
 31
0.0
 70
    32
  1
<>
 71
     5
 42
-1.0
 53
90.0
  3
ME10_DIM_16
100
AcDbAlignedDimension
 13
342.8440676606863
 23
343.9999999999999
 33
0.0
 14
341.7045676606863
 24
334.9999999999999
 34
0.0
 50
90.0
100
AcDbRotatedDimension
  0
DIMENSION
  5
299
330
1F
100
AcDbEntity
  8
1
100
AcDbDimension
  2
*D16
 10
89.3665676606865
 20
235.3786996130602
 30
0.0
 11
83.8665676606865
 21
264.1285637321265
 31
0.0
 70
    32
  1
58リフト5
 71
     5
 42
-1.0
 53
90.0
  3
ME10_DIM_17
100
AcDbAlignedDimension
 13
160.2499999999998
 23
292.8786996130602
 33
0.0
 14
119.3665676606865
 24
235.3786996130602
 34
0.0
 50
90.0
100
AcDbRotatedDimension
  0
ENDSEC
  0
SECTION
  2
OBJECTS
  0
DICTIONARY
  5
C
330
0
100
AcDbDictionary
281
     1
  3
ACAD_GROUP
350
D
  3
ACAD_LAYOUT
350
1A
  3
ACAD_MATERIAL
350
3B
  3
ACAD_MLEADERSTYLE
350
29C
  3
ACAD_MLINESTYLE
350
17
  3
ACAD_PLOTSETTINGS
350
19
  3
ACAD_PLOTSTYLENAME
350
E
  3
ACAD_VISUALSTYLE
350
2A
  3
AcDbVariableDictionary
350
29A
  0
DICTIONARY
  5
D
102
{ACAD_REACTORS
330
C
102
}
330
C
100
AcDbDictionary
281
     1
  0
DICTIONARY
  5
1A
102
{ACAD_REACTORS
330
C
102
}
330
C
100
AcDbDictionary
281
     1
  3
Layout1
350
1E
  3
Layout2
350
26
  3
Model
350
22
  0
DICTIONARY
  5
3B
102
{ACAD_REACTORS
330
C
102
}
330
C
100
AcDbDictionary
281
     1
  3
ByBlock
350
3D
  3
ByLayer
350
3C
  3
Global
350
3E
  0
DICTIONARY
  5
29C
102
{ACAD_REACTORS
330
C
102
}
330
C
100
AcDbDictionary
281
     1
  0
DICTIONARY
  5
17
102
{ACAD_REACTORS
330
C
102
}
330
C
100
AcDbDictionary
281
     1
  3
Standard
350
18
  0
DICTIONARY
  5
19
102
{ACAD_REACTORS
330
C
102
}
330
C
100
AcDbDictionary
281
     1
  0
ACDBDICTIONARYWDFLT
  5
E
102
{ACAD_REACTORS
330
C
102
}
330
C
100
AcDbDictionary
281
     1
  3
Normal
350
F
100
AcDbDictionaryWithDefault
340
F
  0
DICTIONARY
  5
2A
102
{ACAD_REACTORS
330
C
102
}
330
C
100
AcDbDictionary
281
     1
  3
2dWireframe
350
2F
  3
3D Hidden
350
31
  3
3dWireframe
350
30
  3
Basic
350
32
  3
Brighten
350
36
  3
ColorChange
350
3A
  3
Conceptual
350
34
  3
Dim
350
35
  3
Facepattern
350
39
  3
Flat
350
2B
  3
FlatWithEdges
350
2C
  3
Gouraud
350
2D
  3
GouraudWithEdges
350
2E
  3
Linepattern
350
38
  3
Realistic
350
33
  3
Thicken
350
37
  0
DICTIONARY
  5
29A
102
{ACAD_REACTORS
330
C
102
}
330
C
100
AcDbDictionary
281
     1
  3
DIMASSOC
350
29D
  3
HIDETEXT
350
29E
  0
LAYOUT
  5
1E
102
{ACAD_REACTORS
330
1A
102
}
330
1A
100
AcDbPlotSettings
  1

  2
none_device
  4

  6

 40
0.0
 41
0.0
 42
0.0
 43
0.0
 44
0.0
 45
0.0
 46
0.0
 47
0.0
 48
0.0
 49
0.0
140
0.0
141
0.0
142
1.0
143
1.0
 70
   688
 72
     0
 73
     0
 74
     5
  7

 75
    16
147
1.0
148
0.0
149
0.0
100
AcDbLayout
  1
Layout1
 70
     1
 71
     1
 10
0.0
 20
0.0
 11
12.0
 21
9.0
 12
0.0
 22
0.0
 32
0.0
 14
1.00000000000000E+20
 24
1.00000000000000E+20
 34
1.00000000000000E+20
 15
-1.00000000000000E+20
 25
-1.00000000000000E+20
 35
-1.00000000000000E+20
146
0.0
 13
0.0
 23
0.0
 33
0.0
 16
1.0
 26
0.0
 36
0.0
 17
0.0
 27
1.0
 37
0.0
 76
     0
330
1B
  0
LAYOUT
  5
26
102
{ACAD_REACTORS
330
1A
102
}
330
1A
100
AcDbPlotSettings
  1

  2
none_device
  4

  6

 40
0.0
 41
0.0
 42
0.0
 43
0.0
 44
0.0
 45
0.0
 46
0.0
 47
0.0
 48
0.0
 49
0.0
140
0.0
141
0.0
142
1.0
143
1.0
 70
   688
 72
     0
 73
     0
 74
     5
  7

 75
    16
147
1.0
148
0.0
149
0.0
100
AcDbLayout
  1
Layout2
 70
     1
 71
     2
 10
0.0
 20
0.0
 11
0.0
 21
0.0
 12
0.0
 22
0.0
 32
0.0
 14
0.0
 24
0.0
 34
0.0
 15
0.0
 25
0.0
 35
0.0
146
0.0
 13
0.0
 23
0.0
 33
0.0
 16
1.0
 26
0.0
 36
0.0
 17
0.0
 27
1.0
 37
0.0
 76
     0
330
23
  0
LAYOUT
  5
22
102
{ACAD_REACTORS
330
1A
102
}
330
1A
100
AcDbPlotSettings
  1

  2
none_device
  4

  6

 40
0.0
 41
0.0
 42
0.0
 43
0.0
 44
0.0
 45
0.0
 46
0.0
 47
0.0
 48
0.0
 49
0.0
140
0.0
141
0.0
142
1.0
143
1.0
 70
  1712
 72
     0
 73
     0
 74
     0
  7

 75
     0
147
1.0
148
0.0
149
0.0
100
AcDbLayout
  1
Model
 70
     1
 71
     0
 10
0.0
 20
0.0
 11
12.0
 21
9.0
 12
0.0
 22
0.0
 32
0.0
 14
0.0
 24
0.0
 34
0.0
 15
420.0
 25
594.0
 35
0.0
146
0.0
 13
0.0
 23
0.0
 33
0.0
 16
1.0
 26
0.0
 36
0.0
 17
0.0
 27
1.0
 37
0.0
 76
     0
330
1F
331
29
  0
MATERIAL
  5
3D
102
{ACAD_REACTORS
330
3B
102
}
102
{ACAD_XDICTIONARY
360
2C1
102
}
330
3B
100
AcDbMaterial
  1
ByBlock
  0
MATERIAL
  5
3C
102
{ACAD_REACTORS
330
3B
102
}
102
{ACAD_XDICTIONARY
360
2BF
102
}
330
3B
100
AcDbMaterial
  1
ByLayer
  0
MATERIAL
  5
3E
102
{ACAD_REACTORS
330
3B
102
}
102
{ACAD_XDICTIONARY
360
2C3
102
}
330
3B
100
AcDbMaterial
  1
Global
  0
MLINESTYLE
  5
18
102
{ACAD_REACTORS
330
17
102
}
330
17
100
AcDbMlineStyle
  2
Standard
 70
     0
  3

 62
   256
 51
90.0
 52
90.0
 71
     2
 49
0.5
 62
   256
  6
BYLAYER
 49
-0.5
 62
   256
  6
BYLAYER
  0
ACDBPLACEHOLDER
  5
F
102
{ACAD_REACTORS
330
E
102
}
330
E
  0
VISUALSTYLE
  5
2F
102
{ACAD_REACTORS
330
2A
102
}
102
{ACAD_XDICTIONARY
360
2A7
102
}
330
2A
100
AcDbVisualStyle
  2
2dWireframe
 70
     4
 71
     0
 72
     2
 73
     0
 90
        0
 40
-0.6
 41
-30.0
 62
     5
 63
     7
 74
     1
 91
        4
 64
     7
 65
   257
 75
     1
175
     1
 42
1.0
 92
        0
 66
   257
 43
1.0
 76
     1
 77
     6
 78
     2
 67
     7
 79
     5
170
     0
171
     0
290
     0
174
     0
 93
        1
 44
0.0
173
     0
291
     0
 45
0.0
1001
ACAD
1000
AcDbSavedByObjectVersion
1070
     0
  0
VISUALSTYLE
  5
31
102
{ACAD_REACTORS
330
2A
102
}
102
{ACAD_XDICTIONARY
360
2AB
102
}
330
2A
100
AcDbVisualStyle
  2
3D Hidden
 70
     6
 71
     1
 72
     2
 73
     2
 90
        0
 40
-0.6
 41
-30.0
 62
     5
 63
     7
 74
     2
 91
        2
 64
     7
 65
   257
 75
     2
175
     1
 42
40.0
 92
        0
 66
   257
 43
1.0
 76
     1
 77
     6
 78
     2
 67
     7
 79
     3
170
     0
171
     0
290
     0
174
     0
 93
        1
 44
0.0
173
     0
291
     0
 45
0.0
1001
ACAD
1000
AcDbSavedByObjectVersion
1070
     0
  0
VISUALSTYLE
  5
30
102
{ACAD_REACTORS
330
2A
102
}
102
{ACAD_XDICTIONARY
360
2A9
102
}
330
2A
100
AcDbVisualStyle
  2
3dWireframe
 70
     5
 71
     0
 72
     2
 73
     0
 90
        0
 40
-0.6
 41
-30.0
 62
     5
 63
     7
 74
     1
 91
        4
 64
     7
 65
   257
 75
     1
175
     1
 42
1.0
 92
        0
 66
   257
 43
1.0
 76
     1
 77
     6
 78
     2
 67
     7
 79
     5
170
     0
171
     0
290
     0
174
     0
 93
        1
 44
0.0
173
     0
291
     0
 45
0.0
1001
ACAD
1000
AcDbSavedByObjectVersion
1070
     0
  0
VISUALSTYLE
  5
32
102
{ACAD_REACTORS
330
2A
102
}
102
{ACAD_XDICTIONARY
360
2AD
102
}
330
2A
100
AcDbVisualStyle
  2
Basic
 70
     7
 71
     1
 72
     0
 73
     1
 90
        0
 40
-0.6
 41
-30.0
 62
     5
 63
     7
 74
     0
 91
        4
 64
     7
 65
   257
 75
     1
175
     1
 42
1.0
 92
        8
 66
     7
 43
1.0
 76
     1
 77
     6
 78
     2
 67
     7
 79
     5
170
     0
171
     0
290
     0
174
     0
 93
        1
 44
0.0
173
     0
291
     1
 45
0.0
1001
ACAD
1000
AcDbSavedByObjectVersion
1070
     0
  0
VISUALSTYLE
  5
36
102
{ACAD_REACTORS
330
2A
102
}
102
{ACAD_XDICTIONARY
360
2B5
102
}
330
2A
100
AcDbVisualStyle
  2
Brighten
 70
    12
 71
     2
 72
     2
 73
     0
 90
        0
 40
-0.6
 41
-30.0
 62
     5
 63
     7
 74
     1
 91
        4
 64
     7
 65
   257
 75
     1
175
     1
 42
1.0
 92
        8
 66
     7
 43
1.0
 76
     1
 77
     6
 78
     2
 67
     7
 79
     5
170
     0
171
     0
290
     0
174
     0
 93
        1
 44
50.0
173
     0
291
     1
 45
0.0
1001
ACAD
1000
AcDbSavedByObjectVersion
1070
     0
  0
VISUALSTYLE
  5
3A
102
{ACAD_REACTORS
330
2A
102
}
102
{ACAD_XDICTIONARY
360
2BD
102
}
330
2A
100
AcDbVisualStyle
  2
ColorChange
 70
    16
 71
     2
 72
     2
 73
     3
 90
        0
 40
-0.6
 41
-30.0
 62
     5
 63
     8
 74
     1
 91
        4
 64
     7
 65
   257
 75
     1
175
     1
 42
1.0
 92
        8
 66
     8
 43
1.0
 76
     1
 77
     6
 78
     2
 67
     7
 79
     5
170
     0
171
     0
290
     0
174
     0
 93
        1
 44
0.0
173
     0
291
     1
 45
0.0
1001
ACAD
1000
AcDbSavedByObjectVersion
1070
     0
  0
VISUALSTYLE
  5
34
102
{ACAD_REACTORS
330
2A
102
}
102
{ACAD_XDICTIONARY
360
2B1
102
}
330
2A
100
AcDbVisualStyle
  2
Conceptual
 70
     9
 71
     3
 72
     2
 73
     0
 90
        0
 40
-0.6
 41
-30.0
 62
     5
 63
     7
 74
     2
 91
        2
 64
     7
 65
   257
 75
     1
175
     1
 42
40.0
 92
        8
 66
     7
 43
1.0
 76
     1
 77
     6
 78
     2
 67
     7
 79
     3
170
     0
171
     0
290
     0
174
     0
 93
        1
 44
0.0
173
     0
291
     0
 45
0.0
1001
ACAD
1000
AcDbSavedByObjectVersion
1070
     0
  0
VISUALSTYLE
  5
35
102
{ACAD_REACTORS
330
2A
102
}
102
{ACAD_XDICTIONARY
360
2B3
102
}
330
2A
100
AcDbVisualStyle
  2
Dim
 70
    11
 71
     2
 72
     2
 73
     0
 90
        0
 40
-0.6
 41
-30.0
 62
     5
 63
     7
 74
     1
 91
        4
 64
     7
 65
   257
 75
     1
175
     1
 42
1.0
 92
        8
 66
     7
 43
1.0
 76
     1
 77
     6
 78
     2
 67
     7
 79
     5
170
     0
171
     0
290
     0
174
     0
 93
        1
 44
-50.0
173
     0
291
     1
 45
0.0
1001
ACAD
1000
AcDbSavedByObjectVersion
1070
     0
  0
VISUALSTYLE
  5
39
102
{ACAD_REACTORS
330
2A
102
}
102
{ACAD_XDICTIONARY
360
2BB
102
}
330
2A
100
AcDbVisualStyle
  2
Facepattern
 70
    15
 71
     2
 72
     2
 73
     0
 90
        0
 40
-0.6
 41
-30.0
 62
     5
 63
     7
 74
     1
 91
        4
 64
     7
 65
   257
 75
     1
175
     1
 42
1.0
 92
        8
 66
     7
 43
1.0
 76
     1
 77
     6
 78
     2
 67
     7
 79
     5
170
     0
171
     0
290
     0
174
     0
 93
        1
 44
0.0
173
     0
291
     1
 45
0.0
1001
ACAD
1000
AcDbSavedByObjectVersion
1070
     0
  0
VISUALSTYLE
  5
2B
102
{ACAD_REACTORS
330
2A
102
}
102
{ACAD_XDICTIONARY
360
29F
102
}
330
2A
100
AcDbVisualStyle
  2
Flat
 70
     0
 71
     2
 72
     1
 73
     1
 90
        2
 40
-0.6
 41
30.0
 62
     5
 63
     7
 74
     0
 91
        4
 64
     7
 65
   257
 75
     1
175
     1
 42
1.0
 92
        8
 66
     7
 43
1.0
 76
     1
 77
     6
 78
     2
 67
     7
 79
     5
170
     0
171
     0
290
     0
174
     0
 93
       13
 44
0.0
173
     0
291
     1
 45
0.0
1001
ACAD
1000
AcDbSavedByObjectVersion
1070
     0
  0
VISUALSTYLE
  5
2C
102
{ACAD_REACTORS
330
2A
102
}
102
{ACAD_XDICTIONARY
360
2A1
102
}
330
2A
100
AcDbVisualStyle
  2
FlatWithEdges
 70
     1
 71
     2
 72
     1
 73
     1
 90
        2
 40
-0.6
 41
30.0
 62
     5
 63
     7
 74
     1
 91
        4
 64
     7
 65
   257
 75
     1
175
     1
 42
1.0
 92
        0
 66
   257
 43
1.0
 76
     1
 77
     6
 78
     2
 67
     7
 79
     5
170
     0
171
     0
290
     0
174
     0
 93
       13
 44
0.0
173
     0
291
     1
 45
0.0
1001
ACAD
1000
AcDbSavedByObjectVersion
1070
     0
  0
VISUALSTYLE
  5
2D
102
{ACAD_REACTORS
330
2A
102
}
102
{ACAD_XDICTIONARY
360
2A3
102
}
330
2A
100
AcDbVisualStyle
  2
Gouraud
 70
     2
 71
     2
 72
     2
 73
     1
 90
        2
 40
-0.6
 41
30.0
 62
     5
 63
     7
 74
     0
 91
        4
 64
     7
 65
   257
 75
     1
175
     1
 42
1.0
 92
        0
 66
     7
 43
1.0
 76
     1
 77
     6
 78
     2
 67
     7
 79
     5
170
     0
171
     0
290
     0
174
     0
 93
       13
 44
0.0
173
     0
291
     1
 45
0.0
1001
ACAD
1000
AcDbSavedByObjectVersion
1070
     0
  0
VISUALSTYLE
  5
2E
102
{ACAD_REACTORS
330
2A
102
}
102
{ACAD_XDICTIONARY
360
2A5
102
}
330
2A
100
AcDbVisualStyle
  2
GouraudWithEdges
 70
     3
 71
     2
 72
     2
 73
     1
 90
        2
 40
-0.6
 41
30.0
 62
     5
 63
     7
 74
     1
 91
        4
 64
     7
 65
   257
 75
     1
175
     1
 42
1.0
 92
        0
 66
   257
 43
1.0
 76
     1
 77
     6
 78
     2
 67
     7
 79
     5
170
     0
171
     0
290
     0
174
     0
 93
       13
 44
0.0
173
     0
291
     1
 45
0.0
1001
ACAD
1000
AcDbSavedByObjectVersion
1070
     0
  0
VISUALSTYLE
  5
38
102
{ACAD_REACTORS
330
2A
102
}
102
{ACAD_XDICTIONARY
360
2B9
102
}
330
2A
100
AcDbVisualStyle
  2
Linepattern
 70
    14
 71
     2
 72
     2
 73
     0
 90
        0
 40
-0.6
 41
-30.0
 62
     5
 63
     7
 74
     1
 91
        4
 64
     7
 65
   257
 75
     7
175
     7
 42
1.0
 92
        8
 66
     7
 43
1.0
 76
     1
 77
     6
 78
     2
 67
     7
 79
     5
170
     0
171
     0
290
     0
174
     0
 93
        1
 44
0.0
173
     0
291
     1
 45
0.0
1001
ACAD
1000
AcDbSavedByObjectVersion
1070
     0
  0
VISUALSTYLE
  5
33
102
{ACAD_REACTORS
330
2A
102
}
102
{ACAD_XDICTIONARY
360
2AF
102
}
330
2A
100
AcDbVisualStyle
  2
Realistic
 70
     8
 71
     2
 72
     2
 73
     0
 90
        0
 40
-0.6
 41
-30.0
 62
     5
 63
     7
 74
     1
 91
        0
 64
     7
 65
   257
 75
     1
175
     1
 42
1.0
 92
        8
 66
     8
 43
1.0
 76
     1
 77
     6
 78
     2
 67
     7
 79
     5
170
     0
171
     0
290
     0
174
     0
 93
       13
 44
0.0
173
     0
291
     0
 45
0.0
1001
ACAD
1000
AcDbSavedByObjectVersion
1070
     0
  0
VISUALSTYLE
  5
37
102
{ACAD_REACTORS
330
2A
102
}
102
{ACAD_XDICTIONARY
360
2B7
102
}
330
2A
100
AcDbVisualStyle
  2
Thicken
 70
    13
 71
     2
 72
     2
 73
     0
 90
        0
 40
-0.6
 41
-30.0
 62
     5
 63
     7
 74
     1
 91
        4
 64
     7
 65
   257
 75
     1
175
     1
 42
1.0
 92
       12
 66
     7
 43
1.0
 76
     1
 77
     6
 78
     2
 67
     7
 79
     5
170
     0
171
     0
290
     0
174
     0
 93
        1
 44
0.0
173
     0
291
     1
 45
0.0
1001
ACAD
1000
AcDbSavedByObjectVersion
1070
     0
  0
DICTIONARYVAR
  5
29D
102
{ACAD_REACTORS
330
29A
102
}
330
29A
100
DictionaryVariables
280
     0
  1
2
  0
DICTIONARYVAR
  5
29E
102
{ACAD_REACTORS
330
29A
102
}
330
29A
100
DictionaryVariables
280
     0
  1
1
  0
DICTIONARY
  5
2C1
330
3D
100
AcDbDictionary
280
     1
281
     1
  3
ACAD_XREC_ROUNDTRIP
360
2C2
  0
DICTIONARY
  5
2BF
330
3C
100
AcDbDictionary
280
     1
281
     1
  3
ACAD_XREC_ROUNDTRIP
360
2C0
  0
DICTIONARY
  5
2C3
330
3E
100
AcDbDictionary
280
     1
281
     1
  3
ACAD_XREC_ROUNDTRIP
360
2C4
  0
DICTIONARY
  5
2A7
330
2F
100
AcDbDictionary
280
     1
281
     1
  3
ACAD_XREC_ROUNDTRIP
360
2A8
  0
DICTIONARY
  5
2AB
330
31
100
AcDbDictionary
280
     1
281
     1
  3
ACAD_XREC_ROUNDTRIP
360
2AC
  0
DICTIONARY
  5
2A9
330
30
100
AcDbDictionary
280
     1
281
     1
  3
ACAD_XREC_ROUNDTRIP
360
2AA
  0
DICTIONARY
  5
2AD
330
32
100
AcDbDictionary
280
     1
281
     1
  3
ACAD_XREC_ROUNDTRIP
360
2AE
  0
DICTIONARY
  5
2B5
330
36
100
AcDbDictionary
280
     1
281
     1
  3
ACAD_XREC_ROUNDTRIP
360
2B6
  0
DICTIONARY
  5
2BD
330
3A
100
AcDbDictionary
280
     1
281
     1
  3
ACAD_XREC_ROUNDTRIP
360
2BE
  0
DICTIONARY
  5
2B1
330
34
100
AcDbDictionary
280
     1
281
     1
  3
ACAD_XREC_ROUNDTRIP
360
2B2
  0
DICTIONARY
  5
2B3
330
35
100
AcDbDictionary
280
     1
281
     1
  3
ACAD_XREC_ROUNDTRIP
360
2B4
  0
DICTIONARY
  5
2BB
330
39
100
AcDbDictionary
280
     1
281
     1
  3
ACAD_XREC_ROUNDTRIP
360
2BC
  0
DICTIONARY
  5
29F
330
2B
100
AcDbDictionary
280
     1
281
     1
  3
ACAD_XREC_ROUNDTRIP
360
2A0
  0
DICTIONARY
  5
2A1
330
2C
100
AcDbDictionary
280
     1
281
     1
  3
ACAD_XREC_ROUNDTRIP
360
2A2
  0
DICTIONARY
  5
2A3
330
2D
100
AcDbDictionary
280
     1
281
     1
  3
ACAD_XREC_ROUNDTRIP
360
2A4
  0
DICTIONARY
  5
2A5
330
2E
100
AcDbDictionary
280
     1
281
     1
  3
ACAD_XREC_ROUNDTRIP
360
2A6
  0
DICTIONARY
  5
2B9
330
38
100
AcDbDictionary
280
     1
281
     1
  3
ACAD_XREC_ROUNDTRIP
360
2BA
  0
DICTIONARY
  5
2AF
330
33
100
AcDbDictionary
280
     1
281
     1
  3
ACAD_XREC_ROUNDTRIP
360
2B0
  0
DICTIONARY
  5
2B7
330
37
100
AcDbDictionary
280
     1
281
     1
  3
ACAD_XREC_ROUNDTRIP
360
2B8
  0
XRECORD
  5
2C2
102
{ACAD_REACTORS
330
2C1
102
}
330
2C1
100
AcDbXrecord
280
     1
102
MATERIAL
148
0.0
149
0.0
149
0.0
 93
        0
 94
      127
282
     0
 72
     1
 77
     1
171
     1
175
     1
179
     1
273
     0
  0
XRECORD
  5
2C0
102
{ACAD_REACTORS
330
2BF
102
}
330
2BF
100
AcDbXrecord
280
     1
102
MATERIAL
148
0.0
149
0.0
149
0.0
 93
        0
 94
      127
282
     0
 72
     1
 77
     1
171
     1
175
     1
179
     1
273
     0
  0
XRECORD
  5
2C4
102
{ACAD_REACTORS
330
2C3
102
}
330
2C3
100
AcDbXrecord
280
     1
102
MATERIAL
148
0.0
149
0.0
149
0.0
 93
        0
 94
      127
282
     0
 72
     1
 77
     1
171
     1
175
     1
179
     1
273
     0
  0
XRECORD
  5
2A8
102
{ACAD_REACTORS
330
2A7
102
}
330
2A7
100
AcDbXrecord
280
     1
102
RTVSPropertyOp0
 70
     1
102
RTVSPropertyOp1
 70
     1
102
RTVSPropertyOp2
 70
     1
102
RTVSPropertyOp3
 70
     1
102
RTVSPropertyOp4
 70
     1
102
RTVSPropertyOp5
 70
     1
102
RTVSPropertyOp6
 70
     1
102
RTVSPropertyOp7
 70
     1
102
RTVSPropertyOp8
 70
     1
102
RTVSPropertyOp9
 70
     1
102
RTVSPropertyOp10
 70
     1
102
RTVSPropertyOp11
 70
     1
102
RTVSPropertyOp12
 70
     1
102
RTVSPropertyOp13
 70
     1
102
RTVSPropertyOp14
 70
     1
102
RTVSPropertyOp15
 70
     1
102
RTVSPropertyOp16
 70
     1
102
RTVSPropertyOp17
 70
     1
102
RTVSPropertyOp18
 70
     1
102
RTVSPropertyOp19
 70
     1
102
RTVSPropertyOp20
 70
     1
102
RTVSPropertyOp21
 70
     1
102
RTVSPropertyOp22
 70
     1
102
RTVSPropertyOp23
 70
     1
102
RTVSPropertyOp24
 70
     1
102
RTVSPropertyOp25
 70
     1
102
RTVSPropertyOp26
 70
     1
102
RTVSPropertyOp27
 70
     1
102
RTVSPropertyOp28
 70
     1
102
RTVSPropertyOp29
 70
     1
102
RTVSPropertyOp30
 70
     1
102
RTVSPropertyOp31
 70
     1
102
RTVSPropertyOp32
 70
     1
  0
XRECORD
  5
2AC
102
{ACAD_REACTORS
330
2AB
102
}
330
2AB
100
AcDbXrecord
280
     1
102
RTVSPropertyOp0
 70
     1
102
RTVSPropertyOp1
 70
     1
102
RTVSPropertyOp2
 70
     1
102
RTVSPropertyOp3
 70
     1
102
RTVSPropertyOp4
 70
     1
102
RTVSPropertyOp5
 70
     1
102
RTVSPropertyOp6
 70
     1
102
RTVSPropertyOp7
 70
     1
102
RTVSPropertyOp8
 70
     1
102
RTVSPropertyOp9
 70
     1
102
RTVSPropertyOp10
 70
     1
102
RTVSPropertyOp11
 70
     1
102
RTVSPropertyOp12
 70
     1
102
RTVSPropertyOp13
 70
     1
102
RTVSPropertyOp14
 70
     1
102
RTVSPropertyOp15
 70
     1
102
RTVSPropertyOp16
 70
     1
102
RTVSPropertyOp17
 70
     1
102
RTVSPropertyOp18
 70
     1
102
RTVSPropertyOp19
 70
     1
102
RTVSPropertyOp20
 70
     1
102
RTVSPropertyOp21
 70
     1
102
RTVSPropertyOp22
 70
     1
102
RTVSPropertyOp23
 70
     1
102
RTVSPropertyOp24
 70
     1
102
RTVSPropertyOp25
 70
     1
102
RTVSPropertyOp26
 70
     1
102
RTVSPropertyOp27
 70
     1
102
RTVSPropertyOp28
 70
     1
102
RTVSPropertyOp29
 70
     1
102
RTVSPropertyOp30
 70
     1
102
RTVSPropertyOp31
 70
     1
102
RTVSPropertyOp32
 70
     1
  0
XRECORD
  5
2AA
102
{ACAD_REACTORS
330
2A9
102
}
330
2A9
100
AcDbXrecord
280
     1
102
RTVSPropertyOp0
 70
     1
102
RTVSPropertyOp1
 70
     1
102
RTVSPropertyOp2
 70
     1
102
RTVSPropertyOp3
 70
     1
102
RTVSPropertyOp4
 70
     1
102
RTVSPropertyOp5
 70
     1
102
RTVSPropertyOp6
 70
     1
102
RTVSPropertyOp7
 70
     1
102
RTVSPropertyOp8
 70
     1
102
RTVSPropertyOp9
 70
     1
102
RTVSPropertyOp10
 70
     1
102
RTVSPropertyOp11
 70
     1
102
RTVSPropertyOp12
 70
     1
102
RTVSPropertyOp13
 70
     1
102
RTVSPropertyOp14
 70
     1
102
RTVSPropertyOp15
 70
     1
102
RTVSPropertyOp16
 70
     1
102
RTVSPropertyOp17
 70
     1
102
RTVSPropertyOp18
 70
     1
102
RTVSPropertyOp19
 70
     1
102
RTVSPropertyOp20
 70
     1
102
RTVSPropertyOp21
 70
     1
102
RTVSPropertyOp22
 70
     1
102
RTVSPropertyOp23
 70
     1
102
RTVSPropertyOp24
 70
     1
102
RTVSPropertyOp25
 70
     1
102
RTVSPropertyOp26
 70
     1
102
RTVSPropertyOp27
 70
     1
102
RTVSPropertyOp28
 70
     1
102
RTVSPropertyOp29
 70
     1
102
RTVSPropertyOp30
 70
     1
102
RTVSPropertyOp31
 70
     1
102
RTVSPropertyOp32
 70
     1
  0
XRECORD
  5
2AE
102
{ACAD_REACTORS
330
2AD
102
}
330
2AD
100
AcDbXrecord
280
     1
102
RTVSPropertyOp0
 70
     1
102
RTVSPropertyOp1
 70
     1
102
RTVSPropertyOp2
 70
     1
102
RTVSPropertyOp3
 70
     1
102
RTVSPropertyOp4
 70
     1
102
RTVSPropertyOp5
 70
     1
102
RTVSPropertyOp6
 70
     1
102
RTVSPropertyOp7
 70
     1
102
RTVSPropertyOp8
 70
     1
102
RTVSPropertyOp9
 70
     1
102
RTVSPropertyOp10
 70
     1
102
RTVSPropertyOp11
 70
     1
102
RTVSPropertyOp12
 70
     1
102
RTVSPropertyOp13
 70
     1
102
RTVSPropertyOp14
 70
     1
102
RTVSPropertyOp15
 70
     1
102
RTVSPropertyOp16
 70
     1
102
RTVSPropertyOp17
 70
     1
102
RTVSPropertyOp18
 70
     1
102
RTVSPropertyOp19
 70
     1
102
RTVSPropertyOp20
 70
     1
102
RTVSPropertyOp21
 70
     1
102
RTVSPropertyOp22
 70
     1
102
RTVSPropertyOp23
 70
     1
102
RTVSPropertyOp24
 70
     1
102
RTVSPropertyOp25
 70
     1
102
RTVSPropertyOp26
 70
     1
102
RTVSPropertyOp27
 70
     1
102
RTVSPropertyOp28
 70
     1
102
RTVSPropertyOp29
 70
     1
102
RTVSPropertyOp30
 70
     1
102
RTVSPropertyOp31
 70
     1
102
RTVSPropertyOp32
 70
     1
  0
XRECORD
  5
2B6
102
{ACAD_REACTORS
330
2B5
102
}
330
2B5
100
AcDbXrecord
280
     1
102
RTVSPropertyOp0
 70
     1
102
RTVSPropertyOp1
 70
     1
102
RTVSPropertyOp2
 70
     1
102
RTVSPropertyOp3
 70
     1
102
RTVSPropertyOp4
 70
     1
102
RTVSPropertyOp5
 70
     1
102
RTVSPropertyOp6
 70
     1
102
RTVSPropertyOp7
 70
     1
102
RTVSPropertyOp8
 70
     1
102
RTVSPropertyOp9
 70
     1
102
RTVSPropertyOp10
 70
     1
102
RTVSPropertyOp11
 70
     1
102
RTVSPropertyOp12
 70
     1
102
RTVSPropertyOp13
 70
     1
102
RTVSPropertyOp14
 70
     1
102
RTVSPropertyOp15
 70
     1
102
RTVSPropertyOp16
 70
     1
102
RTVSPropertyOp17
 70
     1
102
RTVSPropertyOp18
 70
     1
102
RTVSPropertyOp19
 70
     1
102
RTVSPropertyOp20
 70
     1
102
RTVSPropertyOp21
 70
     1
102
RTVSPropertyOp22
 70
     1
102
RTVSPropertyOp23
 70
     1
102
RTVSPropertyOp24
 70
     1
102
RTVSPropertyOp25
 70
     1
102
RTVSPropertyOp26
 70
     1
102
RTVSPropertyOp27
 70
     1
102
RTVSPropertyOp28
 70
     1
102
RTVSPropertyOp29
 70
     1
102
RTVSPropertyOp30
 70
     1
102
RTVSPropertyOp31
 70
     1
102
RTVSPropertyOp32
 70
     1
  0
XRECORD
  5
2BE
102
{ACAD_REACTORS
330
2BD
102
}
330
2BD
100
AcDbXrecord
280
     1
102
RTVSPropertyOp0
 70
     1
102
RTVSPropertyOp1
 70
     1
102
RTVSPropertyOp2
 70
     1
102
RTVSPropertyOp3
 70
     1
102
RTVSPropertyOp4
 70
     1
102
RTVSPropertyOp5
 70
     1
102
RTVSPropertyOp6
 70
     1
102
RTVSPropertyOp7
 70
     1
102
RTVSPropertyOp8
 70
     1
102
RTVSPropertyOp9
 70
     1
102
RTVSPropertyOp10
 70
     1
102
RTVSPropertyOp11
 70
     1
102
RTVSPropertyOp12
 70
     1
102
RTVSPropertyOp13
 70
     1
102
RTVSPropertyOp14
 70
     1
102
RTVSPropertyOp15
 70
     1
102
RTVSPropertyOp16
 70
     1
102
RTVSPropertyOp17
 70
     1
102
RTVSPropertyOp18
 70
     1
102
RTVSPropertyOp19
 70
     1
102
RTVSPropertyOp20
 70
     1
102
RTVSPropertyOp21
 70
     1
102
RTVSPropertyOp22
 70
     1
102
RTVSPropertyOp23
 70
     1
102
RTVSPropertyOp24
 70
     1
102
RTVSPropertyOp25
 70
     1
102
RTVSPropertyOp26
 70
     1
102
RTVSPropertyOp27
 70
     1
102
RTVSPropertyOp28
 70
     1
102
RTVSPropertyOp29
 70
     1
102
RTVSPropertyOp30
 70
     1
102
RTVSPropertyOp31
 70
     1
102
RTVSPropertyOp32
 70
     1
  0
XRECORD
  5
2B2
102
{ACAD_REACTORS
330
2B1
102
}
330
2B1
100
AcDbXrecord
280
     1
102
RTVSPropertyOp0
 70
     1
102
RTVSPropertyOp1
 70
     1
102
RTVSPropertyOp2
 70
     1
102
RTVSPropertyOp3
 70
     1
102
RTVSPropertyOp4
 70
     1
102
RTVSPropertyOp5
 70
     1
102
RTVSPropertyOp6
 70
     1
102
RTVSPropertyOp7
 70
     1
102
RTVSPropertyOp8
 70
     1
102
RTVSPropertyOp9
 70
     1
102
RTVSPropertyOp10
 70
     1
102
RTVSPropertyOp11
 70
     1
102
RTVSPropertyOp12
 70
     1
102
RTVSPropertyOp13
 70
     1
102
RTVSPropertyOp14
 70
     1
102
RTVSPropertyOp15
 70
     1
102
RTVSPropertyOp16
 70
     1
102
RTVSPropertyOp17
 70
     1
102
RTVSPropertyOp18
 70
     1
102
RTVSPropertyOp19
 70
     1
102
RTVSPropertyOp20
 70
     1
102
RTVSPropertyOp21
 70
     1
102
RTVSPropertyOp22
 70
     1
102
RTVSPropertyOp23
 70
     1
102
RTVSPropertyOp24
 70
     1
102
RTVSPropertyOp25
 70
     1
102
RTVSPropertyOp26
 70
     1
102
RTVSPropertyOp27
 70
     1
102
RTVSPropertyOp28
 70
     1
102
RTVSPropertyOp29
 70
     1
102
RTVSPropertyOp30
 70
     1
102
RTVSPropertyOp31
 70
     1
102
RTVSPropertyOp32
 70
     1
  0
XRECORD
  5
2B4
102
{ACAD_REACTORS
330
2B3
102
}
330
2B3
100
AcDbXrecord
280
     1
102
RTVSPropertyOp0
 70
     1
102
RTVSPropertyOp1
 70
     1
102
RTVSPropertyOp2
 70
     1
102
RTVSPropertyOp3
 70
     1
102
RTVSPropertyOp4
 70
     1
102
RTVSPropertyOp5
 70
     1
102
RTVSPropertyOp6
 70
     1
102
RTVSPropertyOp7
 70
     1
102
RTVSPropertyOp8
 70
     1
102
RTVSPropertyOp9
 70
     1
102
RTVSPropertyOp10
 70
     1
102
RTVSPropertyOp11
 70
     1
102
RTVSPropertyOp12
 70
     1
102
RTVSPropertyOp13
 70
     1
102
RTVSPropertyOp14
 70
     1
102
RTVSPropertyOp15
 70
     1
102
RTVSPropertyOp16
 70
     1
102
RTVSPropertyOp17
 70
     1
102
RTVSPropertyOp18
 70
     1
102
RTVSPropertyOp19
 70
     1
102
RTVSPropertyOp20
 70
     1
102
RTVSPropertyOp21
 70
     1
102
RTVSPropertyOp22
 70
     1
102
RTVSPropertyOp23
 70
     1
102
RTVSPropertyOp24
 70
     1
102
RTVSPropertyOp25
 70
     1
102
RTVSPropertyOp26
 70
     1
102
RTVSPropertyOp27
 70
     1
102
RTVSPropertyOp28
 70
     1
102
RTVSPropertyOp29
 70
     1
102
RTVSPropertyOp30
 70
     1
102
RTVSPropertyOp31
 70
     1
102
RTVSPropertyOp32
 70
     1
  0
XRECORD
  5
2BC
102
{ACAD_REACTORS
330
2BB
102
}
330
2BB
100
AcDbXrecord
280
     1
102
RTVSPropertyOp0
 70
     1
102
RTVSPropertyOp1
 70
     1
102
RTVSPropertyOp2
 70
     1
102
RTVSPropertyOp3
 70
     1
102
RTVSPropertyOp4
 70
     1
102
RTVSPropertyOp5
 70
     1
102
RTVSPropertyOp6
 70
     1
102
RTVSPropertyOp7
 70
     1
102
RTVSPropertyOp8
 70
     1
102
RTVSPropertyOp9
 70
     1
102
RTVSPropertyOp10
 70
     1
102
RTVSPropertyOp11
 70
     1
102
RTVSPropertyOp12
 70
     1
102
RTVSPropertyOp13
 70
     1
102
RTVSPropertyOp14
 70
     1
102
RTVSPropertyOp15
 70
     1
102
RTVSPropertyOp16
 70
     1
102
RTVSPropertyOp17
 70
     1
102
RTVSPropertyOp18
 70
     1
102
RTVSPropertyOp19
 70
     1
102
RTVSPropertyOp20
 70
     1
102
RTVSPropertyOp21
 70
     1
102
RTVSPropertyOp22
 70
     1
102
RTVSPropertyOp23
 70
     1
102
RTVSPropertyOp24
 70
     1
102
RTVSPropertyOp25
 70
     1
102
RTVSPropertyOp26
 70
     1
102
RTVSPropertyOp27
 70
     1
102
RTVSPropertyOp28
 70
     1
102
RTVSPropertyOp29
 70
     1
102
RTVSPropertyOp30
 70
     1
102
RTVSPropertyOp31
 70
     1
102
RTVSPropertyOp32
 70
     1
  0
XRECORD
  5
2A0
102
{ACAD_REACTORS
330
29F
102
}
330
29F
100
AcDbXrecord
280
     1
102
RTVSPropertyOp0
 70
     1
102
RTVSPropertyOp1
 70
     1
102
RTVSPropertyOp2
 70
     1
102
RTVSPropertyOp3
 70
     1
102
RTVSPropertyOp4
 70
     1
102
RTVSPropertyOp5
 70
     1
102
RTVSPropertyOp6
 70
     1
102
RTVSPropertyOp7
 70
     1
102
RTVSPropertyOp8
 70
     1
102
RTVSPropertyOp9
 70
     1
102
RTVSPropertyOp10
 70
     1
102
RTVSPropertyOp11
 70
     1
102
RTVSPropertyOp12
 70
     1
102
RTVSPropertyOp13
 70
     1
102
RTVSPropertyOp14
 70
     1
102
RTVSPropertyOp15
 70
     1
102
RTVSPropertyOp16
 70
     1
102
RTVSPropertyOp17
 70
     1
102
RTVSPropertyOp18
 70
     1
102
RTVSPropertyOp19
 70
     1
102
RTVSPropertyOp20
 70
     1
102
RTVSPropertyOp21
 70
     1
102
RTVSPropertyOp22
 70
     1
102
RTVSPropertyOp23
 70
     1
102
RTVSPropertyOp24
 70
     1
102
RTVSPropertyOp25
 70
     1
102
RTVSPropertyOp26
 70
     1
102
RTVSPropertyOp27
 70
     1
102
RTVSPropertyOp28
 70
     1
102
RTVSPropertyOp29
 70
     1
102
RTVSPropertyOp30
 70
     1
102
RTVSPropertyOp31
 70
     1
102
RTVSPropertyOp32
 70
     1
  0
XRECORD
  5
2A2
102
{ACAD_REACTORS
330
2A1
102
}
330
2A1
100
AcDbXrecord
280
     1
102
RTVSPropertyOp0
 70
     1
102
RTVSPropertyOp1
 70
     1
102
RTVSPropertyOp2
 70
     1
102
RTVSPropertyOp3
 70
     1
102
RTVSPropertyOp4
 70
     1
102
RTVSPropertyOp5
 70
     1
102
RTVSPropertyOp6
 70
     1
102
RTVSPropertyOp7
 70
     1
102
RTVSPropertyOp8
 70
     1
102
RTVSPropertyOp9
 70
     1
102
RTVSPropertyOp10
 70
     1
102
RTVSPropertyOp11
 70
     1
102
RTVSPropertyOp12
 70
     1
102
RTVSPropertyOp13
 70
     1
102
RTVSPropertyOp14
 70
     1
102
RTVSPropertyOp15
 70
     1
102
RTVSPropertyOp16
 70
     1
102
RTVSPropertyOp17
 70
     1
102
RTVSPropertyOp18
 70
     1
102
RTVSPropertyOp19
 70
     1
102
RTVSPropertyOp20
 70
     1
102
RTVSPropertyOp21
 70
     1
102
RTVSPropertyOp22
 70
     1
102
RTVSPropertyOp23
 70
     1
102
RTVSPropertyOp24
 70
     1
102
RTVSPropertyOp25
 70
     1
102
RTVSPropertyOp26
 70
     1
102
RTVSPropertyOp27
 70
     1
102
RTVSPropertyOp28
 70
     1
102
RTVSPropertyOp29
 70
     1
102
RTVSPropertyOp30
 70
     1
102
RTVSPropertyOp31
 70
     1
102
RTVSPropertyOp32
 70
     1
  0
XRECORD
  5
2A4
102
{ACAD_REACTORS
330
2A3
102
}
330
2A3
100
AcDbXrecord
280
     1
102
RTVSPropertyOp0
 70
     1
102
RTVSPropertyOp1
 70
     1
102
RTVSPropertyOp2
 70
     1
102
RTVSPropertyOp3
 70
     1
102
RTVSPropertyOp4
 70
     1
102
RTVSPropertyOp5
 70
     1
102
RTVSPropertyOp6
 70
     1
102
RTVSPropertyOp7
 70
     1
102
RTVSPropertyOp8
 70
     1
102
RTVSPropertyOp9
 70
     1
102
RTVSPropertyOp10
 70
     1
102
RTVSPropertyOp11
 70
     1
102
RTVSPropertyOp12
 70
     1
102
RTVSPropertyOp13
 70
     1
102
RTVSPropertyOp14
 70
     1
102
RTVSPropertyOp15
 70
     1
102
RTVSPropertyOp16
 70
     1
102
RTVSPropertyOp17
 70
     1
102
RTVSPropertyOp18
 70
     1
102
RTVSPropertyOp19
 70
     1
102
RTVSPropertyOp20
 70
     1
102
RTVSPropertyOp21
 70
     1
102
RTVSPropertyOp22
 70
     1
102
RTVSPropertyOp23
 70
     1
102
RTVSPropertyOp24
 70
     1
102
RTVSPropertyOp25
 70
     1
102
RTVSPropertyOp26
 70
     1
102
RTVSPropertyOp27
 70
     1
102
RTVSPropertyOp28
 70
     1
102
RTVSPropertyOp29
 70
     1
102
RTVSPropertyOp30
 70
     1
102
RTVSPropertyOp31
 70
     1
102
RTVSPropertyOp32
 70
     1
  0
XRECORD
  5
2A6
102
{ACAD_REACTORS
330
2A5
102
}
330
2A5
100
AcDbXrecord
280
     1
102
RTVSPropertyOp0
 70
     1
102
RTVSPropertyOp1
 70
     1
102
RTVSPropertyOp2
 70
     1
102
RTVSPropertyOp3
 70
     1
102
RTVSPropertyOp4
 70
     1
102
RTVSPropertyOp5
 70
     1
102
RTVSPropertyOp6
 70
     1
102
RTVSPropertyOp7
 70
     1
102
RTVSPropertyOp8
 70
     1
102
RTVSPropertyOp9
 70
     1
102
RTVSPropertyOp10
 70
     1
102
RTVSPropertyOp11
 70
     1
102
RTVSPropertyOp12
 70
     1
102
RTVSPropertyOp13
 70
     1
102
RTVSPropertyOp14
 70
     1
102
RTVSPropertyOp15
 70
     1
102
RTVSPropertyOp16
 70
     1
102
RTVSPropertyOp17
 70
     1
102
RTVSPropertyOp18
 70
     1
102
RTVSPropertyOp19
 70
     1
102
RTVSPropertyOp20
 70
     1
102
RTVSPropertyOp21
 70
     1
102
RTVSPropertyOp22
 70
     1
102
RTVSPropertyOp23
 70
     1
102
RTVSPropertyOp24
 70
     1
102
RTVSPropertyOp25
 70
     1
102
RTVSPropertyOp26
 70
     1
102
RTVSPropertyOp27
 70
     1
102
RTVSPropertyOp28
 70
     1
102
RTVSPropertyOp29
 70
     1
102
RTVSPropertyOp30
 70
     1
102
RTVSPropertyOp31
 70
     1
102
RTVSPropertyOp32
 70
     1
  0
XRECORD
  5
2BA
102
{ACAD_REACTORS
330
2B9
102
}
330
2B9
100
AcDbXrecord
280
     1
102
RTVSPropertyOp0
 70
     1
102
RTVSPropertyOp1
 70
     1
102
RTVSPropertyOp2
 70
     1
102
RTVSPropertyOp3
 70
     1
102
RTVSPropertyOp4
 70
     1
102
RTVSPropertyOp5
 70
     1
102
RTVSPropertyOp6
 70
     1
102
RTVSPropertyOp7
 70
     1
102
RTVSPropertyOp8
 70
     1
102
RTVSPropertyOp9
 70
     1
102
RTVSPropertyOp10
 70
     1
102
RTVSPropertyOp11
 70
     1
102
RTVSPropertyOp12
 70
     1
102
RTVSPropertyOp13
 70
     1
102
RTVSPropertyOp14
 70
     1
102
RTVSPropertyOp15
 70
     1
102
RTVSPropertyOp16
 70
     1
102
RTVSPropertyOp17
 70
     1
102
RTVSPropertyOp18
 70
     1
102
RTVSPropertyOp19
 70
     1
102
RTVSPropertyOp20
 70
     1
102
RTVSPropertyOp21
 70
     1
102
RTVSPropertyOp22
 70
     1
102
RTVSPropertyOp23
 70
     1
102
RTVSPropertyOp24
 70
     1
102
RTVSPropertyOp25
 70
     1
102
RTVSPropertyOp26
 70
     1
102
RTVSPropertyOp27
 70
     1
102
RTVSPropertyOp28
 70
     1
102
RTVSPropertyOp29
 70
     1
102
RTVSPropertyOp30
 70
     1
102
RTVSPropertyOp31
 70
     1
102
RTVSPropertyOp32
 70
     1
  0
XRECORD
  5
2B0
102
{ACAD_REACTORS
330
2AF
102
}
330
2AF
100
AcDbXrecord
280
     1
102
RTVSPropertyOp0
 70
     1
102
RTVSPropertyOp1
 70
     1
102
RTVSPropertyOp2
 70
     1
102
RTVSPropertyOp3
 70
     1
102
RTVSPropertyOp4
 70
     1
102
RTVSPropertyOp5
 70
     1
102
RTVSPropertyOp6
 70
     1
102
RTVSPropertyOp7
 70
     1
102
RTVSPropertyOp8
 70
     1
102
RTVSPropertyOp9
 70
     1
102
RTVSPropertyOp10
 70
     1
102
RTVSPropertyOp11
 70
     1
102
RTVSPropertyOp12
 70
     1
102
RTVSPropertyOp13
 70
     1
102
RTVSPropertyOp14
 70
     1
102
RTVSPropertyOp15
 70
     1
102
RTVSPropertyOp16
 70
     1
102
RTVSPropertyOp17
 70
     1
102
RTVSPropertyOp18
 70
     1
102
RTVSPropertyOp19
 70
     1
102
RTVSPropertyOp20
 70
     1
102
RTVSPropertyOp21
 70
     1
102
RTVSPropertyOp22
 70
     1
102
RTVSPropertyOp23
 70
     1
102
RTVSPropertyOp24
 70
     1
102
RTVSPropertyOp25
 70
     1
102
RTVSPropertyOp26
 70
     1
102
RTVSPropertyOp27
 70
     1
102
RTVSPropertyOp28
 70
     1
102
RTVSPropertyOp29
 70
     1
102
RTVSPropertyOp30
 70
     1
102
RTVSPropertyOp31
 70
     1
102
RTVSPropertyOp32
 70
     1
  0
XRECORD
  5
2B8
102
{ACAD_REACTORS
330
2B7
102
}
330
2B7
100
AcDbXrecord
280
     1
102
RTVSPropertyOp0
 70
     1
102
RTVSPropertyOp1
 70
     1
102
RTVSPropertyOp2
 70
     1
102
RTVSPropertyOp3
 70
     1
102
RTVSPropertyOp4
 70
     1
102
RTVSPropertyOp5
 70
     1
102
RTVSPropertyOp6
 70
     1
102
RTVSPropertyOp7
 70
     1
102
RTVSPropertyOp8
 70
     1
102
RTVSPropertyOp9
 70
     1
102
RTVSPropertyOp10
 70
     1
102
RTVSPropertyOp11
 70
     1
102
RTVSPropertyOp12
 70
     1
102
RTVSPropertyOp13
 70
     1
102
RTVSPropertyOp14
 70
     1
102
RTVSPropertyOp15
 70
     1
102
RTVSPropertyOp16
 70
     1
102
RTVSPropertyOp17
 70
     1
102
RTVSPropertyOp18
 70
     1
102
RTVSPropertyOp19
 70
     1
102
RTVSPropertyOp20
 70
     1
102
RTVSPropertyOp21
 70
     1
102
RTVSPropertyOp22
 70
     1
102
RTVSPropertyOp23
 70
     1
102
RTVSPropertyOp24
 70
     1
102
RTVSPropertyOp25
 70
     1
102
RTVSPropertyOp26
 70
     1
102
RTVSPropertyOp27
 70
     1
102
RTVSPropertyOp28
 70
     1
102
RTVSPropertyOp29
 70
     1
102
RTVSPropertyOp30
 70
     1
102
RTVSPropertyOp31
 70
     1
102
RTVSPropertyOp32
 70
     1
  0
ENDSEC
  0
EOF
